0
SECTION
2
HEADER
9
$ACADVER
1
AC1015
9
$DWGCODEPAGE
3
ANSI_1252
9
$HANDSEED
5
1a8
9
$ANGBASE
50
0
9
$ANGDIR
70
0
9
$ATTMODE
70
1
9
$AUNITS
70
0
9
$AUPREC
70
0
9
$CECOLOR
62
256
9
$CELTSCALE
40
1
9
$CELTYPE
6
ByLayer
9
$CELWEIGHT
370
18
9
$CLAYER
8
0
9
$CMLJUST
70
0
9
$CMLSCALE
40
1
9
$CMLSTYLE
2
Standard
9
$DIMSTYLE
2
Standard
9
$TEXTSIZE
40
0.2
9
$TEXTSTYLE
7
Standard
9
$LUNITS
70
2
9
$LUPREC
70
4
9
$EXTNAMES
290
1
9
$INSUNITS
70
4
9
$LTSCALE
40
1
9
$LWDISPLAY
290
1
9
$PDMODE
70
0
9
$PDSIZE
40
0
9
$PLINEGEN
70
0
0
ENDSEC
0
SECTION
2
CLASSES
0
CLASS
1
RASTERVARIABLES
2
AcDbRasterVariables
3
ISM
90
0
280
0
281
0
0
ENDSEC
0
SECTION
2
TABLES
0
TABLE
2
VPORT
5
19e
100
AcDbSymbolTable
0
VPORT
5
1
100
AcDbSymbolTableRecord
100
AcDbViewportTableRecord
2
*Active
70
0
10
0
20
0
11
1
21
1
12
-1
22
1
13
0
23
0
14
0.5
24
0.5
15
10
25
10
16
0
26
0
36
1
17
0
27
0
37
0
0
ENDTAB
0
TABLE
2
LTYPE
5
19f
100
AcDbSymbolTable
0
LTYPE
5
14
100
AcDbSymbolTableRecord
100
AcDbLinetypeTableRecord
70
0
2
ByBlock
3

72
65
73
0
40
0
0
LTYPE
5
15
100
AcDbSymbolTableRecord
100
AcDbLinetypeTableRecord
70
0
2
ByLayer
3

72
65
73
0
40
0
0
LTYPE
5
16
100
AcDbSymbolTableRecord
100
AcDbLinetypeTableRecord
70
0
2
CONTINUOUS
3
Solid line
72
65
73
0
40
0
0
LTYPE
5
6A
100
AcDbSymbolTableRecord
100
AcDbLinetypeTableRecord
70
0
2
CENTER
3
____ _ ____ _ ____ _ ____
72
65
73
4
40
47.5
49
22
74
0
49
-8.5
74
0
49
8.5
74
0
49
-8.5
74
0
0
LTYPE
5
6B
100
AcDbSymbolTableRecord
100
AcDbLinetypeTableRecord
70
0
2
DASHED
3
__ __ __ __ __ __ __ __ __
72
65
73
2
40
25.72
49
12.86
74
0
49
-12.86
74
0
0
ENDTAB
0
TABLE
2
LAYER
5
1a0
100
AcDbSymbolTable
0
LAYER
5
10
100
AcDbSymbolTableRecord
100
AcDbLayerTableRecord
2
0
70
0
62
7
6
CONTINUOUS
290
1
370
-3
390
0
0
LAYER
5
6D
100
AcDbSymbolTableRecord
100
AcDbLayerTableRecord
2
81
70
0
62
-3
6
CONTINUOUS
290
1
370
-3
390
0
0
LAYER
5
6F
100
AcDbSymbolTableRecord
100
AcDbLayerTableRecord
2
80
70
0
62
-6
6
CONTINUOUS
290
1
370
-3
390
0
0
LAYER
5
74
100
AcDbSymbolTableRecord
100
AcDbLayerTableRecord
2
2
70
0
62
7
6
CONTINUOUS
290
1
370
-3
390
0
0
LAYER
5
78
100
AcDbSymbolTableRecord
100
AcDbLayerTableRecord
2
1
70
0
62
4
6
CONTINUOUS
290
1
370
-3
390
0
0
LAYER
5
86
100
AcDbSymbolTableRecord
100
AcDbLayerTableRecord
2
4
70
0
62
-2
6
CENTER
290
1
370
-3
390
0
0
LAYER
5
18a
100
AcDbSymbolTableRecord
100
AcDbLayerTableRecord
2
SK2
70
0
62
7
6
CONTINUOUS
290
1
370
-3
390
0
0
LAYER
5
18b
100
AcDbSymbolTableRecord
100
AcDbLayerTableRecord
2
SK1
70
0
62
4
6
CONTINUOUS
290
1
370
-3
390
0
0
LAYER
5
18c
100
AcDbSymbolTableRecord
100
AcDbLayerTableRecord
2
SK4
70
0
62
2
6
CENTER
290
1
370
-3
390
0
0
LAYER
5
18d
100
AcDbSymbolTableRecord
100
AcDbLayerTableRecord
2
SK6
70
0
62
5
6
CONTINUOUS
290
1
370
-3
390
0
0
ENDTAB
0
TABLE
2
STYLE
5
1a1
100
AcDbSymbolTable
0
STYLE
5
11
100
AcDbSymbolTableRecord
100
AcDbTextStyleTableRecord
2
Standard
3
txt
70
0
71
0
40
0
41
1
42
0
50
0
0
STYLE
5
E6
100
AcDbSymbolTableRecord
100
AcDbTextStyleTableRecord
2
iso_b_vert
3
simplex.shx
70
0
71
0
40
0
41
1
42
0
50
0
0
STYLE
5
E7
100
AcDbSymbolTableRecord
100
AcDbTextStyleTableRecord
2
DWGDirectTextStyle
3
simplex
70
0
71
0
40
0
41
1
42
0
50
0
0
ENDTAB
0
TABLE
2
DIMSTYLE
5
1a2
100
AcDbSymbolTable
100
AcDbDimStyleTable
0
DIMSTYLE
105
27
100
AcDbSymbolTableRecord
100
AcDbDimStyleTableRecord
2
Standard
70
0
3
<>
41
0.18
42
0.0625
44
0.18
140
0.18
147
0.09
73
0
74
0
77
1
271
2
275
0
278
52
280
0
340
11
0
ENDTAB
0
TABLE
2
VIEW
5
1a3
100
AcDbSymbolTable
0
ENDTAB
0
TABLE
2
UCS
5
1a4
100
AcDbSymbolTable
0
ENDTAB
0
TABLE
2
APPID
5
1a5
100
AcDbSymbolTable
0
APPID
5
12
100
AcDbSymbolTableRecord
100
AcDbRegAppTableRecord
2
ACAD
70
0
0
ENDTAB
0
TABLE
2
BLOCK_RECORD
5
1a6
100
AcDbSymbolTable
0
BLOCK_RECORD
5
1F
100
AcDbSymbolTableRecord
100
AcDbBlockTableRecord
2
*Model_Space
340
0
70
0
0
BLOCK_RECORD
5
1B
100
AcDbSymbolTableRecord
100
AcDbBlockTableRecord
2
*Paper_Space
340
0
70
0
0
BLOCK_RECORD
5
23
100
AcDbSymbolTableRecord
100
AcDbBlockTableRecord
2
*Paper_Space0
340
0
70
0
0
BLOCK_RECORD
5
E9
100
AcDbSymbolTableRecord
100
AcDbBlockTableRecord
2
DimnDraft3D1
340
0
70
0
0
BLOCK_RECORD
5
F3
100
AcDbSymbolTableRecord
100
AcDbBlockTableRecord
2
DimnDraft3D2
340
0
70
0
0
BLOCK_RECORD
5
FD
100
AcDbSymbolTableRecord
100
AcDbBlockTableRecord
2
DimnDraft3D3
340
0
70
0
0
BLOCK_RECORD
5
107
100
AcDbSymbolTableRecord
100
AcDbBlockTableRecord
2
DimnDraft3D4
340
0
70
0
0
BLOCK_RECORD
5
111
100
AcDbSymbolTableRecord
100
AcDbBlockTableRecord
2
DimnDraft3D5
340
0
70
0
0
BLOCK_RECORD
5
11B
100
AcDbSymbolTableRecord
100
AcDbBlockTableRecord
2
DimnDraft3D6
340
0
70
0
0
BLOCK_RECORD
5
126
100
AcDbSymbolTableRecord
100
AcDbBlockTableRecord
2
DimnDraft3D7
340
0
70
0
0
ENDTAB
0
ENDSEC
0
SECTION
2
BLOCKS
0
BLOCK
5
20
100
AcDbEntity
8
0
100
AcDbBlockBegin
2
*Model_Space
70
0
10
0
20
0
30
0
3
*Model_Space
0
ENDBLK
5
21
100
AcDbEntity
8
0
100
AcDbBlockEnd
0
BLOCK
5
1C
100
AcDbEntity
8
0
100
AcDbBlockBegin
2
*Paper_Space
70
0
10
0
20
0
30
0
3
*Paper_Space
0
ENDBLK
5
1D
100
AcDbEntity
8
0
100
AcDbBlockEnd
0
BLOCK
5
24
100
AcDbEntity
8
0
100
AcDbBlockBegin
2
*Paper_Space0
70
0
10
0
20
0
30
0
3
*Paper_Space0
0
ENDBLK
5
25
100
AcDbEntity
8
0
100
AcDbBlockEnd
0
BLOCK
5
F0
100
AcDbEntity
8
0
100
AcDbBlockBegin
2
DimnDraft3D1
70
0
10
0
20
0
30
0
3
DimnDraft3D1
0
MTEXT
5
EA
100
AcDbEntity
8
SK2
62
256
6
ByLayer
370
13
48
1
60
0
100
AcDbMText
10
46.595582
20
-16.227503
30
0
210
0
220
0
230
1
1
\W0.6713;103,8
40
3.5
41
0
44
1.084337
50
0
71
7
72
5
7
iso_b_vert
0
LINE
5
EB
100
AcDbEntity
8
SK2
62
256
6
ByLayer
370
13
48
1
60
0
100
AcDbLine
10
0
20
-1.5875
30
0
11
0
21
-19.102503
31
0
39
0
210
0
220
0
230
1
0
LINE
5
EC
100
AcDbEntity
8
SK2
62
256
6
ByLayer
370
13
48
1
60
0
100
AcDbLine
10
103.8478
20
-5.8875
30
0
11
103.8478
21
-19.102503
31
0
39
0
210
0
220
0
230
1
0
LINE
5
ED
100
AcDbEntity
8
SK2
62
256
6
ByLayer
370
13
48
1
60
0
100
AcDbLine
10
0
20
-17.102503
30
0
11
103.8478
21
-17.102503
31
0
39
0
210
0
220
0
230
1
0
SOLID
5
EE
100
AcDbEntity
8
SK2
62
256
6
ByLayer
370
13
48
1
60
0
100
AcDbTrace
10
0
20
-17.102503
30
0
11
3.499998
21
-16.641719
31
0
12
3.500002
22
-17.563287
32
0
13
0
23
-17.102503
33
0
39
0
210
0
220
0
230
1
0
SOLID
5
EF
100
AcDbEntity
8
SK2
62
256
6
ByLayer
370
13
48
1
60
0
100
AcDbTrace
10
103.8478
20
-17.102503
30
0
11
100.347802
21
-17.563287
31
0
12
100.347798
22
-16.641719
32
0
13
103.8478
23
-17.102503
33
0
39
0
210
0
220
0
230
1
0
ENDBLK
5
F1
100
AcDbEntity
8
0
100
AcDbBlockEnd
0
BLOCK
5
FA
100
AcDbEntity
8
0
100
AcDbBlockBegin
2
DimnDraft3D2
70
0
10
0
20
0
30
0
3
DimnDraft3D2
0
MTEXT
5
F4
100
AcDbEntity
8
SK2
62
256
6
ByLayer
370
13
48
1
60
0
100
AcDbMText
10
28.493705
20
-37.817985
30
0
210
0
220
0
230
1
1
\W0.6977;145,0
40
3.5
41
0
44
1.084337
50
0
71
7
72
5
7
iso_b_vert
0
LINE
5
F5
100
AcDbEntity
8
SK2
62
256
6
ByLayer
370
13
48
1
60
0
100
AcDbLine
10
-40
20
-6.5875
30
0
11
-40
21
-40.692985
31
0
39
0
210
0
220
0
230
1
0
LINE
5
F6
100
AcDbEntity
8
SK2
62
256
6
ByLayer
370
13
48
1
60
0
100
AcDbLine
10
105
20
-1.5875
30
0
11
105
21
-40.692985
31
0
39
0
210
0
220
0
230
1
0
LINE
5
F7
100
AcDbEntity
8
SK2
62
256
6
ByLayer
370
13
48
1
60
0
100
AcDbLine
10
-40
20
-38.692985
30
0
11
105
21
-38.692985
31
0
39
0
210
0
220
0
230
1
0
SOLID
5
F8
100
AcDbEntity
8
SK2
62
256
6
ByLayer
370
13
48
1
60
0
100
AcDbTrace
10
-40
20
-38.692985
30
0
11
-36.500002
21
-38.232202
31
0
12
-36.499998
22
-39.153769
32
0
13
-40
23
-38.692985
33
0
39
0
210
0
220
0
230
1
0
SOLID
5
F9
100
AcDbEntity
8
SK2
62
256
6
ByLayer
370
13
48
1
60
0
100
AcDbTrace
10
105
20
-38.692985
30
0
11
101.500002
21
-39.153769
31
0
12
101.499998
22
-38.232202
32
0
13
105
23
-38.692985
33
0
39
0
210
0
220
0
230
1
0
ENDBLK
5
FB
100
AcDbEntity
8
0
100
AcDbBlockEnd
0
BLOCK
5
104
100
AcDbEntity
8
0
100
AcDbBlockBegin
2
DimnDraft3D3
70
0
10
0
20
0
30
0
3
DimnDraft3D3
0
MTEXT
5
FE
100
AcDbEntity
8
SK2
62
256
6
ByLayer
370
13
48
1
60
0
100
AcDbMText
10
65.576316
20
16.784119
30
0
210
0
220
0
230
1
1
\W0.7317;69,95
40
3.5
41
0
44
1.084337
50
0
71
7
72
5
7
iso_b_vert
0
LINE
5
FF
100
AcDbEntity
8
SK2
62
256
6
ByLayer
370
13
48
1
60
0
100
AcDbLine
10
35.05
20
5.8875
30
0
11
35.05
21
17.909119
31
0
39
0
210
0
220
0
230
1
0
LINE
5
100
100
AcDbEntity
8
SK2
62
256
6
ByLayer
370
13
48
1
60
0
100
AcDbLine
10
105
20
1.5875
30
0
11
105
21
17.909119
31
0
39
0
210
0
220
0
230
1
0
LINE
5
101
100
AcDbEntity
8
SK2
62
256
6
ByLayer
370
13
48
1
60
0
100
AcDbLine
10
35.05
20
15.909119
30
0
11
105
21
15.909119
31
0
39
0
210
0
220
0
230
1
0
SOLID
5
102
100
AcDbEntity
8
SK2
62
256
6
ByLayer
370
13
48
1
60
0
100
AcDbTrace
10
35.05
20
15.909119
30
0
11
38.549998
21
16.369903
31
0
12
38.550002
22
15.448335
32
0
13
35.05
23
15.909119
33
0
39
0
210
0
220
0
230
1
0
SOLID
5
103
100
AcDbEntity
8
SK2
62
256
6
ByLayer
370
13
48
1
60
0
100
AcDbTrace
10
105
20
15.909119
30
0
11
101.500002
21
15.448335
31
0
12
101.499998
22
16.369903
32
0
13
105
23
15.909119
33
0
39
0
210
0
220
0
230
1
0
ENDBLK
5
105
100
AcDbEntity
8
0
100
AcDbBlockEnd
0
BLOCK
5
10E
100
AcDbEntity
8
0
100
AcDbBlockBegin
2
DimnDraft3D4
70
0
10
0
20
0
30
0
3
DimnDraft3D4
0
MTEXT
5
108
100
AcDbEntity
8
SK2
62
256
6
ByLayer
370
13
48
1
60
0
100
AcDbMText
10
112.715636
20
-16.227503
30
0
210
0
220
0
230
1
1
\W0.5583;1,15
40
3.5
41
0
44
1.084337
50
0
71
7
72
5
7
iso_b_vert
0
LINE
5
109
100
AcDbEntity
8
SK2
62
256
6
ByLayer
370
13
48
1
60
0
100
AcDbLine
10
105
20
-1.5875
30
0
11
105
21
-19.102503
31
0
39
0
210
0
220
0
230
1
0
LINE
5
10A
100
AcDbEntity
8
SK2
62
256
6
ByLayer
370
13
48
1
60
0
100
AcDbLine
10
103.8478
20
-5.8875
30
0
11
103.8478
21
-19.102503
31
0
39
0
210
0
220
0
230
1
0
LINE
5
10B
100
AcDbEntity
8
SK2
62
256
6
ByLayer
370
13
48
1
60
0
100
AcDbLine
10
95.0978
20
-17.102503
30
0
11
118.122215
21
-17.102503
31
0
39
0
210
0
220
0
230
1
0
SOLID
5
10C
100
AcDbEntity
8
SK2
62
256
6
ByLayer
370
13
48
1
60
0
100
AcDbTrace
10
105
20
-17.102503
30
0
11
108.499998
21
-16.641719
31
0
12
108.500002
22
-17.563287
32
0
13
105
23
-17.102503
33
0
39
0
210
0
220
0
230
1
0
SOLID
5
10D
100
AcDbEntity
8
SK2
62
256
6
ByLayer
370
13
48
1
60
0
100
AcDbTrace
10
103.8478
20
-17.102503
30
0
11
100.347802
21
-17.563287
31
0
12
100.347798
22
-16.641719
32
0
13
103.8478
23
-17.102503
33
0
39
0
210
0
220
0
230
1
0
ENDBLK
5
10F
100
AcDbEntity
8
0
100
AcDbBlockEnd
0
BLOCK
5
118
100
AcDbEntity
8
0
100
AcDbBlockBegin
2
DimnDraft3D5
70
0
10
0
20
0
30
0
3
DimnDraft3D5
0
MTEXT
5
112
100
AcDbEntity
8
SK2
62
256
6
ByLayer
370
13
48
1
60
0
100
AcDbMText
10
27.152405
20
-27.625
30
0
210
0
220
0
230
1
1
\W0.6977;143,8
40
3.5
41
0
44
1.084337
50
0
71
7
72
5
7
iso_b_vert
0
LINE
5
113
100
AcDbEntity
8
SK2
62
256
6
ByLayer
370
13
48
1
60
0
100
AcDbLine
10
-40
20
-6.5875
30
0
11
-40
21
-30.5
31
0
39
0
210
0
220
0
230
1
0
LINE
5
114
100
AcDbEntity
8
SK2
62
256
6
ByLayer
370
13
48
1
60
0
100
AcDbLine
10
103.8478
20
-5.8875
30
0
11
103.8478
21
-30.5
31
0
39
0
210
0
220
0
230
1
0
LINE
5
115
100
AcDbEntity
8
SK2
62
256
6
ByLayer
370
13
48
1
60
0
100
AcDbLine
10
-40
20
-28.5
30
0
11
103.8478
21
-28.5
31
0
39
0
210
0
220
0
230
1
0
SOLID
5
116
100
AcDbEntity
8
SK2
62
256
6
ByLayer
370
13
48
1
60
0
100
AcDbTrace
10
-40
20
-28.5
30
0
11
-36.500002
21
-28.039216
31
0
12
-36.499998
22
-28.960784
32
0
13
-40
23
-28.5
33
0
39
0
210
0
220
0
230
1
0
SOLID
5
117
100
AcDbEntity
8
SK2
62
256
6
ByLayer
370
13
48
1
60
0
100
AcDbTrace
10
103.8478
20
-28.5
30
0
11
100.347802
21
-28.960784
31
0
12
100.347798
22
-28.039216
32
0
13
103.8478
23
-28.5
33
0
39
0
210
0
220
0
230
1
0
ENDBLK
5
119
100
AcDbEntity
8
0
100
AcDbBlockEnd
0
BLOCK
5
123
100
AcDbEntity
8
0
100
AcDbBlockBegin
2
DimnDraft3D6
70
0
10
0
20
0
30
0
3
DimnDraft3D6
0
MTEXT
5
11C
100
AcDbEntity
8
SK2
62
256
6
ByLayer
370
13
48
1
60
0
100
AcDbMText
10
-50.375163
20
24.34918
30
0
210
0
220
0
230
1
1
\W0.6713;10,00
40
3.5
41
0
44
1.084337
50
90
71
7
72
5
7
iso_b_vert
0
MTEXT
5
11D
100
AcDbEntity
8
SK2
62
256
6
ByLayer
370
13
48
1
60
0
100
AcDbMText
10
-50.375163
20
19.126524
30
0
210
0
220
0
230
1
1
%%c
40
3.5
41
0
44
1.084337
50
90
71
7
72
5
7
iso_b_vert
0
LINE
5
11E
100
AcDbEntity
8
SK2
62
256
6
ByLayer
370
13
48
1
60
0
100
AcDbLine
10
-41.5875
20
-5
30
0
11
-50.625163
21
-5
31
0
39
0
210
0
220
0
230
1
0
LINE
5
11F
100
AcDbEntity
8
SK2
62
256
6
ByLayer
370
13
48
1
60
0
100
AcDbLine
10
-41.5875
20
5
30
0
11
-50.625163
21
5
31
0
39
0
210
0
220
0
230
1
0
LINE
5
120
100
AcDbEntity
8
SK2
62
256
6
ByLayer
370
13
48
1
60
0
100
AcDbLine
10
-48.625163
20
-5
30
0
11
-48.625163
21
33.246549
31
0
39
0
210
0
220
0
230
1
0
SOLID
5
121
100
AcDbEntity
8
SK2
62
256
6
ByLayer
370
13
48
1
60
0
100
AcDbTrace
10
-48.625163
20
-5
30
0
11
-49.085946
21
-1.500002
31
0
12
-48.164379
22
-1.499998
32
0
13
-48.625163
23
-5
33
0
39
0
210
0
220
0
230
1
0
SOLID
5
122
100
AcDbEntity
8
SK2
62
256
6
ByLayer
370
13
48
1
60
0
100
AcDbTrace
10
-48.625163
20
5
30
0
11
-48.164379
21
1.500002
31
0
12
-49.085946
22
1.499998
32
0
13
-48.625163
23
5
33
0
39
0
210
0
220
0
230
1
0
ENDBLK
5
124
100
AcDbEntity
8
0
100
AcDbBlockEnd
0
BLOCK
5
12E
100
AcDbEntity
8
0
100
AcDbBlockBegin
2
DimnDraft3D7
70
0
10
0
20
0
30
0
3
DimnDraft3D7
0
MTEXT
5
127
100
AcDbEntity
8
2
62
256
6
ByLayer
370
13
48
1
60
0
100
AcDbMText
10
115.333343
20
22.242266
30
0
210
0
220
0
230
1
1
\W0.6912;8,6
40
3.5
41
0
44
1.084337
50
90
71
7
72
5
7
iso_b_vert
0
MTEXT
5
128
100
AcDbEntity
8
2
62
256
6
ByLayer
370
13
48
1
60
0
100
AcDbMText
10
115.333343
20
17.01961
30
0
210
0
220
0
230
1
1
%%c
40
3.5
41
0
44
1.084337
50
90
71
7
72
5
7
iso_b_vert
0
LINE
5
129
100
AcDbEntity
8
2
62
256
6
ByLayer
370
13
48
1
60
0
100
AcDbLine
10
105.4353
20
-4.3
30
0
11
119.083343
21
-4.3
31
0
39
0
210
0
220
0
230
1
0
LINE
5
12A
100
AcDbEntity
8
2
62
256
6
ByLayer
370
13
48
1
60
0
100
AcDbLine
10
105.4353
20
4.3
30
0
11
119.083343
21
4.3
31
0
39
0
210
0
220
0
230
1
0
LINE
5
12B
100
AcDbEntity
8
2
62
256
6
ByLayer
370
13
48
1
60
0
100
AcDbLine
10
117.083343
20
-4.3
30
0
11
117.083343
21
26.783056
31
0
39
0
210
0
220
0
230
1
0
SOLID
5
12C
100
AcDbEntity
8
2
62
256
6
ByLayer
370
13
48
1
60
0
100
AcDbTrace
10
117.083343
20
-4.3
30
0
11
116.622559
21
-0.800002
31
0
12
117.544126
22
-0.799998
32
0
13
117.083343
23
-4.3
33
0
39
0
210
0
220
0
230
1
0
SOLID
5
12D
100
AcDbEntity
8
2
62
256
6
ByLayer
370
13
48
1
60
0
100
AcDbTrace
10
117.083343
20
4.3
30
0
11
117.544126
21
0.800002
31
0
12
116.622559
22
0.799998
32
0
13
117.083343
23
4.3
33
0
39
0
210
0
220
0
230
1
0
ENDBLK
5
12F
100
AcDbEntity
8
0
100
AcDbBlockEnd
0
ENDSEC
0
SECTION
2
ENTITIES
0
ARC
5
9C
100
AcDbEntity
8
1
62
256
6
ByLayer
370
18
48
1
60
0
100
AcDbCircle
39
0
10
-0.35
20
4.585329
30
0
40
0.350000000000009
210
0
220
0
230
-1
100
AcDbArc
50
269.96419
51
0
0
ARC
5
9D
100
AcDbEntity
8
1
62
256
6
ByLayer
370
18
48
1
60
0
100
AcDbCircle
39
0
10
-0.35
20
-4.585329
30
0
40
0.350000000000009
210
0
220
0
230
-1
100
AcDbArc
50
0
51
90.03581
0
ELLIPSE
5
9E
100
AcDbEntity
8
1
62
256
6
ByLayer
370
18
48
1
60
0
100
AcDbEllipse
10
7.25
20
-4.275102
30
0
11
0.25
21
0
31
0
210
0
220
0
230
1
40
0.999994
41
1.57789166099884
42
3.1294071230081
0
ELLIPSE
5
9F
100
AcDbEntity
8
1
62
256
6
ByLayer
370
18
48
1
60
0
100
AcDbEllipse
10
7.25
20
4.275102
30
0
11
0.25
21
0
31
0
210
0
220
0
230
1
40
0.999994
41
-3.12940712300673
42
-1.55898999594942
0
ELLIPSE
5
A0
100
AcDbEntity
8
1
62
256
6
ByLayer
370
18
48
1
60
0
100
AcDbEllipse
10
105.015791
20
0.001742
30
0
11
0.0202277257218573
21
-0.0461593331918298
31
0
210
0
220
0
230
-1
40
0.094257
41
2.22716331424781
42
2.47673762772184
0
ELLIPSE
5
A1
100
AcDbEntity
8
1
62
256
6
ByLayer
370
18
48
1
60
0
100
AcDbEllipse
10
105.015791
20
-0.001742
30
0
11
0.0202277319741899
21
0.0461593453150616
31
0
210
0
220
0
230
-1
40
0.094257
41
-2.47673769996348
42
-2.22716343114119
0
ELLIPSE
5
A2
100
AcDbEntity
8
1
62
256
6
ByLayer
370
18
48
1
60
0
100
AcDbEllipse
10
104.98868
20
0.014511
30
0
11
0.0140788299348685
21
0.0302141333210528
31
0
210
0
220
0
230
-1
40
0.154454
41
1.02263605313936
42
2.13441855487355
0
ELLIPSE
5
A3
100
AcDbEntity
8
1
62
256
6
ByLayer
370
18
48
1
60
0
100
AcDbEllipse
10
103.085835
20
0.000233
30
0
11
0.39768656097329
21
4.29838411725968
31
0
210
0
220
0
230
-1
40
0.250565
41
0.192491665277693
42
0.344104897313247
0
ELLIPSE
5
A4
100
AcDbEntity
8
1
62
256
6
ByLayer
370
13
48
1
60
0
100
AcDbEllipse
10
7.217541
20
1.12892
30
0
11
-0.0259594263784871
21
-0.0965717773580869
31
0
210
0
220
0
230
1
40
0.147135
41
-1.25150290353997
42
-0.798183062443767
0
ELLIPSE
5
A5
100
AcDbEntity
8
1
62
256
6
ByLayer
370
18
48
1
60
0
100
AcDbEllipse
10
103.085835
20
-0.000233
30
0
11
0.397686561373697
21
-4.29838411966423
31
0
210
0
220
0
230
-1
40
0.250565
41
-0.344104897206225
42
-0.192491665215024
0
POINT
5
6C
100
AcDbEntity
8
81
62
256
6
ByLayer
370
18
48
1
60
0
100
AcDbPoint
10
105
20
0
30
0
39
0
210
0
220
0
230
1
50
360
0
POINT
5
6E
100
AcDbEntity
8
80
62
256
6
ByLayer
370
18
48
1
60
0
100
AcDbPoint
10
0
20
0
30
0
39
0
210
0
220
0
230
1
50
360
0
POINT
5
70
100
AcDbEntity
8
SK2
62
256
6
ByLayer
370
18
48
1
60
1
100
AcDbPoint
10
-40
20
-5
30
0
39
0
210
0
220
0
230
1
50
360
0
POINT
5
72
100
AcDbEntity
8
SK2
62
256
6
ByLayer
370
18
48
1
60
1
100
AcDbPoint
10
-40
20
5
30
0
39
0
210
0
220
0
230
1
50
360
0
POINT
5
73
100
AcDbEntity
8
2
62
256
6
ByLayer
370
18
48
1
60
1
100
AcDbPoint
10
103.8478
20
-4.3
30
0
39
0
210
0
220
0
230
1
50
360
0
POINT
5
75
100
AcDbEntity
8
2
62
256
6
ByLayer
370
18
48
1
60
1
100
AcDbPoint
10
103.8478
20
4.3
30
0
39
0
210
0
220
0
230
1
50
360
0
SPLINE
5
A6
100
AcDbEntity
8
1
62
256
6
ByLayer
370
18
48
1
60
0
100
AcDbSpline
70
4
71
3
72
30
73
26
40
0
40
0
40
0
40
0
40
0.0351611527957297
40
0.0691837116208406
40
0.0998230291512757
40
0.132999561171223
40
0.169414174541836
40
0.209106794985785
40
0.270096523682405
40
0.323062884384826
40
0.37101882234665
40
0.41109129001892
40
0.450286094669169
40
0.489264382785968
40
0.525918739167555
40
0.558031695235538
40
0.593046659418238
40
0.637987085406133
40
0.688162351840091
40
0.742609282583678
40
0.799085296510635
40
0.857500153956902
40
0.913321643611212
40
0.961108425840609
40
1
40
1
40
1
40
1
41
1
10
41.5540884330376
20
-4.04583064121798
30
0
41
1
10
41.8489620260158
20
-4.04548249327783
30
0
41
1
10
42.431028572631
20
-4.04438923517708
30
0
41
1
10
43.2761428076712
20
-4.03898411939414
30
0
41
1
10
44.1093779421725
20
-4.03759594626101
30
0
41
1
10
44.9627140953913
20
-4.03886501466084
30
0
41
1
10
45.8924938901366
20
-4.04288530612118
30
0
41
1
10
47.0559167467181
20
-4.04822380714549
30
0
41
1
10
48.3600505989816
20
-4.05052311626551
30
0
41
1
10
49.7386470772652
20
-4.0502669899499
30
0
41
1
10
50.9389639596381
20
-4.05131726058997
30
0
41
1
10
52.0221035540052
20
-4.05311223659044
30
0
41
1
10
53.0287961890032
20
-4.05307210539107
30
0
41
1
10
54.0063940871847
20
-4.05326011559467
30
0
41
1
10
54.9236977511404
20
-4.053403597798
30
0
41
1
10
55.8072601062573
20
-4.05339257420937
30
0
41
1
10
56.7613623336189
20
-4.05474859277541
30
0
41
1
10
57.8692402875357
20
-4.05748548550727
30
0
41
1
10
59.1425601577623
20
-4.05688890690018
30
0
41
1
10
60.5140878492433
20
-4.0569197830778
30
0
41
1
10
61.9557647545806
20
-4.05572281902138
30
0
41
1
10
63.4091431414624
20
-4.05939672979432
30
0
41
1
10
64.7885388907422
20
-4.05921076838587
30
0
41
1
10
66.0017474079253
20
-4.06193823965154
30
0
41
1
10
66.7396486504689
20
-4.06199373034141
30
0
41
1
10
67.0707299394758
20
-4.06191578541112
30
0
0
SPLINE
5
A7
100
AcDbEntity
8
1
62
256
6
ByLayer
370
18
48
1
60
0
100
AcDbSpline
70
4
71
3
72
20
73
16
40
0
40
0
40
0
40
0
40
0.0013525292275619
40
0.0035721789692112
40
0.0087130118892519
40
0.0233512662986481
40
0.0684732335126312
40
0.138115066195136
40
0.210460563591348
40
0.28863094997104
40
0.547020778173219
40
0.688356870682719
40
0.83040645865972
40
0.978203546554408
40
1
40
1
40
1
40
1
41
1
10
69.1231000642102
20
-0.98574666508398
30
0
41
1
10
69.1230840696194
20
-0.985815395299028
30
0
41
1
10
69.1234782773627
20
-0.986008721407501
30
0
41
1
10
69.1269431888103
20
-0.986561488603371
30
0
41
1
10
69.1456785813774
20
-0.988162424950161
30
0
41
1
10
69.2275160039508
20
-0.99303681267142
30
0
41
1
10
69.4104847590663
20
-1.00259182912853
30
0
41
1
10
69.6823924860718
20
-1.01716332815562
30
0
41
1
10
70.0064070112576
20
-1.03545917648
30
0
41
1
10
70.6091316528708
20
-1.07151037383457
30
0
41
1
10
71.3126964802029
20
-1.11880593912807
30
0
41
1
10
72.1097024888872
20
-1.17946797589369
30
0
41
1
10
72.7435460722504
20
-1.23172141065339
30
0
41
1
10
73.201211593027
20
-1.27244150616846
30
0
41
1
10
73.4502471491727
20
-1.29553910205539
30
0
41
1
10
73.4822507193934
20
-1.29852305337661
30
0
0
SPLINE
5
A8
100
AcDbEntity
8
1
62
256
6
ByLayer
370
18
48
1
60
0
100
AcDbSpline
70
4
71
2
72
6
73
3
40
0
40
0
40
0
40
1
40
1
40
1
41
1
10
7.2506512634406
20
-4.02351695711207
30
0
41
1
10
8.81890647957943
20
-4.02140788366566
30
0
41
1
10
10.3902768927082
20
-4.01360247964899
30
0
0
SPLINE
5
A9
100
AcDbEntity
8
1
62
256
6
ByLayer
370
18
48
1
60
0
100
AcDbSpline
70
4
71
2
72
6
73
3
40
0
40
0
40
0
40
1
40
1
40
1
41
1
10
12.4758402917334
20
-4.00074448416251
30
0
41
1
10
12.5277571662639
20
-4.00036229058011
30
0
41
1
10
12.5796774323913
20
-3.99997389525265
30
0
0
SPLINE
5
AA
100
AcDbEntity
8
1
62
256
6
ByLayer
370
18
48
1
60
0
100
AcDbSpline
70
4
71
3
72
13
73
9
40
0
40
0
40
0
40
0
40
0.0839251738904744
40
0.238841707133957
40
0.440190905496116
40
0.688664758544692
40
0.98471406497003
40
1
40
1
40
1
40
1
41
1
10
100.053930047558
20
-4.08250468331312
30
0
41
1
10
100.139236632784
20
-4.08238940750252
30
0
41
1
10
100.383291333032
20
-4.08207609385406
30
0
41
1
10
100.844853461773
20
-4.08121045539122
30
0
41
1
10
101.476801379264
20
-4.08133466927137
30
0
41
1
10
102.25688366984
20
-4.08246256907742
30
0
41
1
10
102.841642053109
20
-4.08343446823082
30
0
41
1
10
103.166260796781
20
-4.08408628647427
30
0
41
1
10
103.182197922159
20
-4.0841184738064
30
0
0
SPLINE
5
AB
100
AcDbEntity
8
1
62
256
6
ByLayer
370
18
48
1
60
0
100
AcDbSpline
70
4
71
3
72
25
73
21
40
0
40
0
40
0
40
0
40
3.71911776228E-05
40
0.0001994877074632
40
0.0003233820587464
40
0.0004227001244436
40
0.0010300185958661
40
0.0015532798643814
40
0.0025519585174906
40
0.0045451615522018
40
0.0087929626470535
40
0.0533587399353277
40
0.127909773226909
40
0.246983060289886
40
0.366709042885708
40
0.462445920786975
40
0.571087774354245
40
0.693537443779647
40
0.857578723424833
40
1
40
1
40
1
40
1
41
1
10
43.8265459151723
20
-1.2013048690703
30
0
41
1
10
43.8265612851384
20
-1.20130696665063
30
0
41
1
10
43.8266323079636
20
-1.20131648005642
30
0
41
1
10
43.8266164170933
20
-1.20131201102396
30
0
41
1
10
43.8265620810646
20
-1.20130138858008
30
0
41
1
10
43.8262119513726
20
-1.20124351776249
30
0
41
1
10
43.8251231904351
20
-1.20107371082477
30
0
41
1
10
43.823868266468
20
-1.20087295774459
30
0
41
1
10
43.8214107923763
20
-1.2004853590087
30
0
41
1
10
43.8162315810244
20
-1.19967175157183
30
0
41
1
10
43.7763819756653
20
-1.19346549231923
30
0
41
1
10
43.6640618373805
20
-1.17609581213006
30
0
41
1
10
43.4453065139182
20
-1.14140903492702
30
0
41
1
10
43.1472157154057
20
-1.0922623486519
30
0
41
1
10
42.8287178423361
20
-1.03711867112648
30
0
41
1
10
42.5191064148875
20
-0.98129185227495
30
0
41
1
10
42.2038617524933
20
-0.922420857956695
30
0
41
1
10
41.8206070375853
20
-0.848122065227471
30
0
41
1
10
41.40198996229
20
-0.763930820474371
30
0
41
1
10
41.1017882591851
20
-0.700202436642144
30
0
41
1
10
40.9619729681253
20
-0.669879795096648
30
0
0
SPLINE
5
AC
100
AcDbEntity
8
1
62
256
6
ByLayer
370
18
48
1
60
0
100
AcDbSpline
70
4
71
3
72
25
73
21
40
0
40
0
40
0
40
0
40
0.0127563104984451
40
0.038453734923803
40
0.0887637359074295
40
0.14670312299895
40
0.21113406330971
40
0.296154777916948
40
0.377867914569691
40
0.453809155230487
40
0.520826904106408
40
0.576861009572003
40
0.63144711611356
40
0.69441125603581
40
0.758226078546465
40
0.824381580924669
40
0.89630419819011
40
0.943679245915196
40
0.995698923232154
40
1
40
1
40
1
40
1
41
1
10
67.0726745366169
20
4.06195020026789
30
0
41
1
10
66.987822272008
20
4.06199249686642
30
0
41
1
10
66.7320254255188
20
4.06205881303973
30
0
41
1
10
66.1414349780704
20
4.06195508913319
30
0
41
1
10
65.2502315606022
20
4.0597745186283
30
0
41
1
10
64.1013090415744
20
4.0597117272207
30
0
41
1
10
62.721445281729
20
4.05749112645731
30
0
41
1
10
61.1834006421698
20
4.05622608322435
30
0
41
1
10
59.5687739717543
20
4.05689901098009
30
0
41
1
10
58.0739270524142
20
4.05768100686711
30
0
41
1
10
56.7499398596816
20
4.05466515035269
30
0
41
1
10
55.5680393406114
20
4.05327127439782
30
0
41
1
10
54.4131019197525
20
4.05337622149708
30
0
41
1
10
53.2064021888011
20
4.05306442575861
30
0
41
1
10
51.9227095090492
20
4.05320905530485
30
0
41
1
10
50.5794807266316
20
4.05059697001292
30
0
41
1
10
49.3453778212569
20
4.05041304418953
30
0
41
1
10
48.2063528898566
20
4.05015644109233
30
0
41
1
10
47.5181391405746
20
4.04907788028612
30
0
41
1
10
47.1446384443831
20
4.04794769018798
30
0
41
1
10
47.1161164104037
20
4.04785843264551
30
0
0
SPLINE
5
AD
100
AcDbEntity
8
1
62
256
6
ByLayer
370
18
48
1
60
0
100
AcDbSpline
70
4
71
2
72
6
73
3
40
0
40
0
40
0
40
1
40
1
40
1
41
1
10
12.5925955986699
20
3.99988492266061
30
0
41
1
10
9.91713136844294
20
4.01991495449306
30
0
41
1
10
7.2506512634406
20
4.02351695711192
30
0
0
SPLINE
5
AE
100
AcDbEntity
8
1
62
256
6
ByLayer
370
18
48
1
60
0
100
AcDbSpline
70
4
71
3
72
8
73
4
40
0
40
0
40
0
40
0
40
1
40
1
40
1
40
1
41
1
10
22.371408110116
20
-2.81608744534108
30
0
41
1
10
22.0452117755249
20
-2.91812134776501
30
0
41
1
10
21.7190349639028
20
-3.01916713284791
30
0
41
1
10
21.3928477177209
20
-3.11918050301764
30
0
0
SPLINE
5
AF
100
AcDbEntity
8
1
62
256
6
ByLayer
370
18
48
1
60
0
100
AcDbSpline
70
4
71
3
72
22
73
18
40
0
40
0
40
0
40
0
40
0.25000000000002
40
0.25000000000002
40
0.37500000000003
40
0.37500000000003
40
0.437500000000031
40
0.437500000000031
40
0.500000000000031
40
0.500000000000031
40
0.625000000000025
40
0.625000000000025
40
0.687500000000022
40
0.687500000000022
40
0.750000000000019
40
0.750000000000019
40
1
40
1
40
1
40
1
41
1
10
103.577421453773
20
-4.04644109390034
30
0
41
1
10
103.365869083025
20
-4.08789295249701
30
0
41
1
10
103.165653843583
20
-4.09624698679144
30
0
41
1
10
102.884412551288
20
-4.0530709699683
30
0
41
1
10
102.793874447064
20
-4.02931057208062
30
0
41
1
10
102.663530033226
20
-3.97772194690748
30
0
41
1
10
102.620935980861
20
-3.95779810809725
30
0
41
1
10
102.538957039477
20
-3.91291716836483
30
0
41
1
10
102.499413768375
20
-3.88790948795119
30
0
41
1
10
102.385245730517
20
-3.80496615889862
30
0
41
1
10
102.315057861962
20
-3.73915438311093
30
0
41
1
10
102.219541858802
20
-3.62310103209353
30
0
41
1
10
102.189336485528
20
-3.58151725115232
30
0
41
1
10
102.132425032432
20
-3.49213794428138
30
0
41
1
10
102.105904004499
20
-3.44458513490684
30
0
41
1
10
101.984612069184
20
-3.19500444059216
30
0
41
1
10
101.921505231567
20
-2.95563011447521
30
0
41
1
10
101.897428839554
20
-2.67151402722337
30
0
0
SPLINE
5
B0
100
AcDbEntity
8
1
62
256
6
ByLayer
370
18
48
1
60
0
100
AcDbSpline
70
4
71
3
72
16
73
12
40
0
40
0
40
0
40
0
40
0.0912985387142374
40
0.0912985387142374
40
0.295317718790642
40
0.295317718790642
40
0.499336898867047
40
0.499336898867047
40
0.907375259019855
40
0.907375259019855
40
1
40
1
40
1
40
1
41
1
10
11.9155838237041
20
-0.0005073664998747
30
0
41
1
10
12.3658474071951
20
-0.100287632837279
30
0
41
1
10
12.8161520006588
20
-0.200096424560854
30
0
41
1
10
14.2730353297264
20
-0.522225579417125
30
0
41
1
10
15.28030036466
20
-0.743654765627582
30
0
41
1
10
17.293766850824
20
-1.17817561189563
30
0
41
1
10
18.3003262086648
20
-1.39128959846948
30
0
41
1
10
21.3212980593919
20
-2.01007984201692
30
0
41
1
10
23.3319573578115
20
-2.3939761795188
30
0
41
1
10
25.799581280087
20
-2.80649132146078
30
0
41
1
10
26.2561452481665
20
-2.88035107876661
30
0
41
1
10
26.7128079261411
20
-2.95158271208081
30
0
0
SPLINE
5
B1
100
AcDbEntity
8
1
62
256
6
ByLayer
370
13
48
1
60
0
100
AcDbSpline
70
4
71
3
72
18
73
14
40
0
40
0
40
0
40
0
40
0.0885214532614484
40
0.0885214532614484
40
0.250648705392972
40
0.250648705392972
40
0.412775957524495
40
0.412775957524495
40
0.574903209656018
40
0.574903209656018
40
0.899157713919065
40
0.899157713919065
40
1
40
1
40
1
40
1
41
1
10
26.7128079261262
20
-2.95158271207845
30
0
41
1
10
27.2620098168019
20
-3.03724889322027
30
0
41
1
10
27.8113544764058
20
-3.11911389064787
30
0
41
1
10
29.3675020798843
20
-3.33931015770557
30
0
41
1
10
30.3745459546066
20
-3.4678850340172
30
0
41
1
10
32.3877122078205
20
-3.69333017174742
30
0
41
1
10
33.3946624923628
20
-3.79032746215469
30
0
41
1
10
35.4078954944358
20
-3.95056246148664
30
0
41
1
10
36.4136620480078
20
-4.01372660847878
30
0
41
1
10
39.4300837793543
20
-4.14960216457598
30
0
41
1
10
41.4400824574587
20
-4.1686114237898
30
0
41
1
10
44.0800691468137
20
-4.09803329929687
30
0
41
1
10
44.7059602766932
20
-4.07428839618143
30
0
41
1
10
45.3316226501878
20
-4.04372043169369
30
0
0
SPLINE
5
B2
100
AcDbEntity
8
1
62
256
6
ByLayer
370
18
48
1
60
0
100
AcDbSpline
70
4
71
3
72
10
73
6
40
0
40
0
40
0
40
0
40
0.5
40
0.5
40
1
40
1
40
1
40
1
41
1
10
103.349808727412
20
-3.46402331647636
30
0
41
1
10
103.343465605991
20
-3.47762618426032
30
0
41
1
10
103.340305297617
20
-3.49208025183555
30
0
41
1
10
103.340413964661
20
-3.51590760280217
30
0
41
1
10
103.343091806861
20
-3.52564141252949
30
0
41
1
10
103.346802532591
20
-3.53388853278864
30
0
0
SPLINE
5
B3
100
AcDbEntity
8
1
62
256
6
ByLayer
370
18
48
1
60
0
100
AcDbSpline
70
4
71
3
72
10
73
6
40
0
40
0
40
0
40
0
40
0.5
40
0.5
40
1
40
1
40
1
40
1
41
1
10
103.665237130306
20
-4.08755544373403
30
0
41
1
10
103.66117362236
20
-4.06055792266767
30
0
41
1
10
103.654488006683
20
-4.03825986885664
30
0
41
1
10
103.640383593096
20
-4.01200905150137
30
0
41
1
10
103.632900879394
20
-4.00754596058243
30
0
41
1
10
103.626559348831
20
-4.01265766504082
30
0
0
SPLINE
5
B4
100
AcDbEntity
8
1
62
256
6
ByLayer
370
13
48
1
60
0
100
AcDbSpline
70
4
71
3
72
12
73
8
40
0
40
0
40
0
40
0
40
0.248574264884553
40
0.248574264884553
40
0.499049509923035
40
0.499049509923035
40
1
40
1
40
1
40
1
41
1
10
7.25059348657052
20
-4.02510924005034
30
0
41
1
10
7.25059828240566
20
-4.0255667581045
30
0
41
1
10
7.25060245506535
20
-4.01840367117381
30
0
41
1
10
7.25060939785041
20
-3.98838292626607
30
0
41
1
10
7.25061211831564
20
-3.96563673966577
30
0
41
1
10
7.25061793025407
20
-3.87513400380391
30
0
41
1
10
7.25061870977152
20
-3.7853696778692
30
0
41
1
10
7.25061581603893
20
-3.66508646583117
30
0
0
SPLINE
5
B5
100
AcDbEntity
8
1
62
256
6
ByLayer
370
18
48
1
60
0
100
AcDbSpline
70
4
71
3
72
14
73
10
40
0
40
0
40
0
40
0
40
0.249999999999984
40
0.249999999999984
40
0.374999999999984
40
0.374999999999984
40
0.499999999999984
40
0.499999999999984
40
1
40
1
40
1
40
1
41
1
10
104.616785038274
20
-1.29624813781112
30
0
41
1
10
104.546696107304
20
-1.45319568429744
30
0
41
1
10
104.475284389781
20
-1.61008554486395
30
0
41
1
10
104.36609680992
20
-1.84533006411238
30
0
41
1
10
104.329343532344
20
-1.9237391421662
30
0
41
1
10
104.255139534601
20
-2.08048671279045
30
0
41
1
10
104.217696726361
20
-2.1586129861393
30
0
41
1
10
104.030224603362
20
-2.54905692161549
30
0
41
1
10
103.88195777219
20
-2.86265458309785
30
0
41
1
10
103.735403385401
20
-3.1774959030877
30
0
0
SPLINE
5
B6
100
AcDbEntity
8
1
62
256
6
ByLayer
370
18
48
1
60
0
100
AcDbSpline
70
4
71
3
72
44
73
40
40
0
40
0
40
0
40
0
40
0.0625000000000073
40
0.0625000000000073
40
0.125000000000014
40
0.125000000000014
40
0.187500000000022
40
0.187500000000022
40
0.250000000000029
40
0.250000000000029
40
0.312500000000036
40
0.312500000000036
40
0.375000000000044
40
0.375000000000044
40
0.437500000000051
40
0.437500000000051
40
0.500000000000058
40
0.500000000000058
40
0.531250000000056
40
0.531250000000056
40
0.562500000000053
40
0.562500000000053
40
0.59375000000005
40
0.59375000000005
40
0.625000000000047
40
0.625000000000047
40
0.656250000000044
40
0.656250000000044
40
0.687500000000042
40
0.687500000000042
40
0.718750000000039
40
0.718750000000039
40
0.750000000000036
40
0.750000000000036
40
0.81250000000003
40
0.81250000000003
40
0.875000000000025
40
0.875000000000025
40
1
40
1
40
1
40
1
41
1
10
104.177609192795
20
-1.68879948966173
30
0
41
1
10
104.14783922157
20
-1.67433513778792
30
0
41
1
10
104.115149108565
20
-1.66664113355083
30
0
41
1
10
104.044866407876
20
-1.66261951079605
30
0
41
1
10
104.007976535954
20
-1.66639487341487
30
0
41
1
10
103.932187091871
20
-1.68359956333921
30
0
41
1
10
103.893121051448
20
-1.69704484907274
30
0
41
1
10
103.812740895576
20
-1.73323032649722
30
0
41
1
10
103.771970208821
20
-1.75576783395888
30
0
41
1
10
103.69049152065
20
-1.80875961724979
30
0
41
1
10
103.64959584033
20
-1.83929365747602
30
0
41
1
10
103.567466867302
20
-1.90908223058327
30
0
41
1
10
103.52661133383
20
-1.94807710744814
30
0
41
1
10
103.447292606742
20
-2.03320767866259
30
0
41
1
10
103.408459165747
20
-2.07965952961706
30
0
41
1
10
103.33343819805
20
-2.18150602304064
30
0
41
1
10
103.298324865504
20
-2.23540045010284
30
0
41
1
10
103.250105216879
20
-2.32175813511085
30
0
41
1
10
103.234701287274
20
-2.35167977574221
30
0
41
1
10
103.206531459795
20
-2.41191227711516
30
0
41
1
10
103.193666478056
20
-2.44236833714754
30
0
41
1
10
103.170666753525
20
-2.50404095919976
30
0
41
1
10
103.16046857118
20
-2.53556351863284
30
0
41
1
10
103.143927290062
20
-2.59697162956593
30
0
41
1
10
103.137477699639
20
-2.6270602373134
30
0
41
1
10
103.128379884307
20
-2.68595273159826
30
0
41
1
10
103.125747324821
20
-2.71507240134687
30
0
41
1
10
103.12465404234
20
-2.76961164388999
30
0
41
1
10
103.126119313963
20
-2.79520623821523
30
0
41
1
10
103.132875970352
20
-2.84320997945446
30
0
41
1
10
103.138218319434
20
-2.86560110155671
30
0
41
1
10
103.152074201011
20
-2.9058060714766
30
0
41
1
10
103.160611409634
20
-2.92386709153865
30
0
41
1
10
103.190613693842
20
-2.97248030518352
30
0
41
1
10
103.215683156748
20
-2.99635897307715
30
0
41
1
10
103.272910339105
20
-3.03045704318714
30
0
41
1
10
103.305294036999
20
-3.0405708155578
30
0
41
1
10
103.407427819826
20
-3.05283725099306
30
0
41
1
10
103.484582854777
20
-3.03767591005567
30
0
41
1
10
103.563999644116
20
-3.00468941327577
30
0
0
SPLINE
5
B7
100
AcDbEntity
8
1
62
256
6
ByLayer
370
18
48
1
60
0
100
AcDbSpline
70
4
71
3
72
8
73
4
40
0
40
0
40
0
40
0
40
1
40
1
40
1
40
1
41
1
10
21.3928049284157
20
-3.11919362278471
30
0
41
1
10
21.8954793442177
20
-3.05028834428691
30
0
41
1
10
22.3979785107845
20
-2.97812359453383
30
0
41
1
10
22.900307629156
20
-2.90277006767744
30
0
0
SPLINE
5
B8
100
AcDbEntity
8
1
62
256
6
ByLayer
370
18
48
1
60
0
100
AcDbSpline
70
4
71
3
72
40
73
36
40
0
40
0
40
0
40
0
40
0.0012292607089186
40
0.0012292607089186
40
0.0780577791159233
40
0.0780577791159233
40
0.116472038319426
40
0.116472038319426
40
0.154886297522929
40
0.154886297522929
40
0.231714815929934
40
0.231714815929934
40
0.308543334336938
40
0.308543334336938
40
0.385371852743943
40
0.385371852743943
40
0.462200371150949
40
0.462200371150949
40
0.500614630354453
40
0.500614630354453
40
0.539028889557956
40
0.539028889557956
40
0.615857407964965
40
0.615857407964965
40
0.692685926371973
40
0.692685926371973
40
0.731100185575478
40
0.731100185575478
40
0.769514444778982
40
0.769514444778982
40
0.846342963185988
40
0.846342963185988
40
0.923171481592994
40
0.923171481592994
40
1
40
1
40
1
40
1
41
1
10
67.0744108560893
20
4.06197753062335
30
0
41
1
10
67.0872432507513
20
4.06198144293612
30
0
41
1
10
67.1000757518033
20
4.06198227618518
30
0
41
1
10
67.9149435820593
20
4.06184056602856
30
0
41
1
10
68.7174982203811
20
4.05011700783606
30
0
41
1
10
69.9207586859766
20
4.0163432609686
30
0
41
1
10
70.3218069211472
20
4.00239540184003
30
0
41
1
10
71.1238065427277
20
3.96948372837511
30
0
41
1
10
71.5247814599445
20
3.95111928072495
30
0
41
1
10
72.7275091131593
20
3.88754877384335
30
0
41
1
10
73.5290061338648
20
3.83125481980895
30
0
41
1
10
75.1328171112491
20
3.69881271006028
30
0
41
1
10
75.9350488390012
20
3.62169805106413
30
0
41
1
10
77.539816774353
20
3.45013670420735
30
0
41
1
10
78.3419745973205
20
3.35593448807873
30
0
41
1
10
79.9454944553219
20
3.14554957640664
30
0
41
1
10
80.7469667570363
20
3.0306262844791
30
0
41
1
10
81.9496105980281
20
2.84719371571933
30
0
41
1
10
82.3505600796529
20
2.78424265437516
30
0
41
1
10
83.1525297375447
20
2.65489139220574
30
0
41
1
10
83.5535382172318
20
2.5883726858448
30
0
41
1
10
84.7568474040947
20
2.38244752880021
30
0
41
1
10
85.5592955635345
20
2.23767538525848
30
0
41
1
10
87.1629544991101
20
1.9362300951141
30
0
41
1
10
87.9644530836536
20
1.77939700680972
30
0
41
1
10
89.1669927428268
20
1.53960814534287
30
0
41
1
10
89.5678798103649
20
1.45867025533926
30
0
41
1
10
90.3696685301281
20
1.29390218720036
30
0
41
1
10
90.7705810291333
20
1.21033200486215
30
0
41
1
10
91.9735008940849
20
0.956822520443808
30
0
41
1
10
92.7762300406418
20
0.785342515180105
30
0
41
1
10
94.3796592370653
20
0.438753321245741
30
0
41
1
10
95.1807084065877
20
0.263470257527473
30
0
41
1
10
96.782297432157
20
-0.0870423580279862
30
0
41
1
10
97.5828996681062
20
-0.261957523980271
30
0
41
1
10
98.383309323459
20
-0.436622843153458
30
0
0
SPLINE
5
B9
100
AcDbEntity
8
1
62
256
6
ByLayer
370
18
48
1
60
0
100
AcDbSpline
70
4
71
3
72
8
73
4
40
0
40
0
40
0
40
0
40
1
40
1
40
1
40
1
41
1
10
103.722537739093
20
3.25468747383459
30
0
41
1
10
103.752449844085
20
3.51059863927463
30
0
41
1
10
103.786415810108
20
3.76312887432689
30
0
41
1
10
103.823545896025
20
4.0130202253568
30
0
0
SPLINE
5
BA
100
AcDbEntity
8
1
62
256
6
ByLayer
370
18
48
1
60
0
100
AcDbSpline
70
4
71
3
72
8
73
4
40
0
40
0
40
0
40
0
40
1
40
1
40
1
40
1
41
1
10
103.722537739093
20
-3.25468747383459
30
0
41
1
10
103.752449844085
20
-3.51059863927463
30
0
41
1
10
103.786415810108
20
-3.76312887432692
30
0
41
1
10
103.823545896025
20
-4.0130202253568
30
0
0
SPLINE
5
BB
100
AcDbEntity
8
1
62
256
6
ByLayer
370
18
48
1
60
0
100
AcDbSpline
70
4
71
3
72
8
73
4
40
0
40
0
40
0
40
0
40
1
40
1
40
1
40
1
41
1
10
103.626559348831
20
-4.01265766504085
30
0
41
1
10
103.610358765812
20
-4.02571643557278
30
0
41
1
10
103.593978441078
20
-4.03696725455654
30
0
41
1
10
103.577421453772
20
-4.04644109390034
30
0
0
SPLINE
5
BC
100
AcDbEntity
8
1
62
256
6
ByLayer
370
18
48
1
60
0
100
AcDbSpline
70
4
71
3
72
12
73
8
40
0
40
0
40
0
40
0
40
0.203361782945563
40
0.203361782945563
40
0.468907855297042
40
0.468907855297042
40
1
40
1
40
1
40
1
41
1
10
7.00255382550847
20
-4.23948701342979
30
0
41
1
10
7.00255438710042
20
-4.23938734128959
30
0
41
1
10
7.0025548900513
20
-4.23489524454857
30
0
41
1
10
7.00255590901551
20
-4.21431920161018
30
0
41
1
10
7.00255638374747
20
-4.19495391592778
30
0
41
1
10
7.00255745113174
20
-4.11435678789636
30
0
41
1
10
7.00255769113321
20
-4.03168337555536
30
0
41
1
10
7.00255741504043
20
-3.92080401363958
30
0
0
SPLINE
5
BD
100
AcDbEntity
8
1
62
256
6
ByLayer
370
18
48
1
60
0
100
AcDbSpline
70
4
71
3
72
25
73
21
40
0
40
0
40
0
40
0
40
0.0817277764103461
40
0.0817277764103461
40
0.163455552820692
40
0.163455552820692
40
0.326911105641385
40
0.326911105641385
40
0.490366658462077
40
0.490366658462077
40
0.572094434872424
40
0.572094434872424
40
0.65382221128277
40
0.65382221128277
40
0.817277764103462
40
0.817277764103462
40
0.899005540513808
40
0.899005540513808
40
0.980733316924154
40
1
40
1
40
1
40
1
41
1
10
7.00249177021115
20
1.27623223148953
30
0
41
1
10
7.00249422162725
20
1.41672391859095
30
0
41
1
10
7.00249663563417
20
1.55530975263738
30
0
41
1
10
7.00250133567366
20
1.82475749289617
30
0
41
1
10
7.00250361902081
20
1.95546407390773
30
0
41
1
10
7.00251029775455
20
2.33585763394407
30
0
41
1
10
7.00251452549401
20
2.57407251185313
30
0
41
1
10
7.00252262871973
20
3.01765265453551
30
0
41
1
10
7.00252636784427
20
3.21549110325373
30
0
41
1
10
7.00253160775424
20
3.47771845200873
30
0
41
1
10
7.00253329209056
20
3.55932554061795
30
0
41
1
10
7.00253654344726
20
3.71060067074669
30
0
41
1
10
7.00253810387088
20
3.77991621153836
30
0
41
1
10
7.00254251465395
20
3.96523665702924
30
0
41
1
10
7.0025451351969
20
4.06056766252672
30
0
41
1
10
7.00254860136897
20
4.16090288732045
30
0
41
1
10
7.00254968205735
20
4.18720357288711
30
0
41
1
10
7.00255163550861
20
4.22413306312265
30
0
41
1
10
7.00255272122394
20
4.2375308012239
30
0
41
1
10
7.00255365615658
20
4.23952272955077
30
0
41
1
10
7.00255382895622
20
4.23948649919501
30
0
0
SPLINE
5
BE
100
AcDbEntity
8
1
62
256
6
ByLayer
370
18
48
1
60
0
100
AcDbSpline
70
4
71
3
72
18
73
14
40
0
40
0
40
0
40
0
40
0.0386465630205704
40
0.0386465630205704
40
0.230917250416456
40
0.230917250416456
40
0.423187937812342
40
0.423187937812342
40
0.615458625208228
40
0.615458625208228
40
0.807729312604114
40
0.807729312604114
40
1
40
1
40
1
40
1
41
1
10
12.0474754223244
20
4.01575832325949
30
0
41
1
10
12.1654889340053
20
4.01284275823318
30
0
41
1
10
12.283623462418
20
4.00944471109321
30
0
41
1
10
12.9901633185005
20
3.98659775431588
30
0
41
1
10
13.5813826888839
20
3.95594130989252
30
0
41
1
10
14.7692683622596
20
3.8741850028369
30
0
41
1
10
15.3658530032635
20
3.8238277622938
30
0
41
1
10
16.5637806816516
20
3.70973051086671
30
0
41
1
10
17.165662925957
20
3.64594078333707
30
0
41
1
10
18.3706610893844
20
3.50845708448617
30
0
41
1
10
18.9739369762182
20
3.4362686975123
30
0
41
1
10
20.1821043173201
20
3.28303298617851
30
0
41
1
10
20.7870039773879
20
3.20211516453938
30
0
41
1
10
21.392903497081
20
3.11920508767415
30
0
0
SPLINE
5
BF
100
AcDbEntity
8
1
62
256
6
ByLayer
370
18
48
1
60
0
100
AcDbSpline
70
4
71
3
72
8
73
4
40
0
40
0
40
0
40
0
40
1
40
1
40
1
40
1
41
1
10
7.00656066095854
20
1.24274082022677
30
0
41
1
10
7.00386689122081
20
1.25377041212346
30
0
41
1
10
7.00249157304253
20
1.26493248963663
30
0
41
1
10
7.00249177021118
20
1.27623223150698
30
0
0
SPLINE
5
C0
100
AcDbEntity
8
1
62
256
6
ByLayer
370
18
48
1
60
0
100
AcDbSpline
70
4
71
3
72
12
73
8
40
0
40
0
40
0
40
0
40
0.20432053124404
40
0.20432053124404
40
0.681704465047616
40
0.681704465047616
40
1
40
1
40
1
40
1
41
1
10
100.184353041519
20
-4.0826632302373
30
0
41
1
10
99.3274662455519
20
-4.08278228692913
30
0
41
1
10
98.471680114034
20
-4.0699640628693
30
0
41
1
10
95.6190067231011
20
-3.98432131828386
30
0
41
1
10
93.6255289481445
20
-3.85438697706866
30
0
41
1
10
90.3028844007662
20
-3.53209880673242
30
0
41
1
10
88.9736193897537
20
-3.37509216604508
30
0
41
1
10
87.6430141465175
20
-3.19364656610122
30
0
0
SPLINE
5
C1
100
AcDbEntity
8
1
62
256
6
ByLayer
370
13
48
1
60
0
100
AcDbSpline
70
4
71
3
72
18
73
14
40
0
40
0
40
0
40
0
40
0.0799113373787596
40
0.0799113373787596
40
0.319704992158362
40
0.319704992158362
40
0.439601819548163
40
0.439601819548163
40
0.559498646937964
40
0.559498646937964
40
0.799292301717568
40
0.799292301717568
40
1
40
1
40
1
40
1
41
1
10
87.6430141465078
20
-3.19364656609986
30
0
41
1
10
86.9779597099758
20
-3.10295760944246
30
0
41
1
10
86.3125704653219
20
-3.00616347048634
30
0
41
1
10
83.6485618556044
20
-2.59630908459724
30
0
41
1
10
81.645925365574
20
-2.23771894566582
30
0
41
1
10
78.6291935956813
20
-1.64926566340137
30
0
41
1
10
77.6238233278444
20
-1.44513311695621
30
0
41
1
10
75.6152193875288
20
-1.02663166731702
30
0
41
1
10
74.6115255269367
20
-0.81220125571059
30
0
41
1
10
71.6004829262644
20
-0.161514450599498
30
0
41
1
10
69.5931639779372
20
0.282230764968148
30
0
41
1
10
65.897333373825
20
1.07569815773959
30
0
41
1
10
64.2148900774719
20
1.42773330264336
30
0
41
1
10
62.5313405200835
20
1.75805405314824
30
0
0
SPLINE
5
C2
100
AcDbEntity
8
1
62
256
6
ByLayer
370
18
48
1
60
0
100
AcDbSpline
70
4
71
3
72
80
73
76
40
0
40
0
40
0
40
0
40
0.0006196225743824
40
0.0006196225743824
40
0.0405948376714066
40
0.0405948376714066
40
0.0805700527684308
40
0.0805700527684308
40
0.120545267865455
40
0.120545267865455
40
0.160520482962479
40
0.160520482962479
40
0.180508090510991
40
0.180508090510991
40
0.200495698059503
40
0.200495698059503
40
0.240470913156527
40
0.240470913156527
40
0.26045852070504
40
0.26045852070504
40
0.280446128253552
40
0.280446128253552
40
0.300433735802065
40
0.300433735802065
40
0.320421343350577
40
0.320421343350577
40
0.34040895089909
40
0.34040895089909
40
0.360396558447602
40
0.360396558447602
40
0.400371773544628
40
0.400371773544628
40
0.42035938109314
40
0.42035938109314
40
0.440346988641653
40
0.440346988641653
40
0.480322203738678
40
0.480322203738678
40
0.500309811287191
40
0.500309811287191
40
0.520297418835703
40
0.520297418835703
40
0.560272633932729
40
0.560272633932729
40
0.600247849029754
40
0.600247849029754
40
0.620235456578267
40
0.620235456578267
40
0.640223064126779
40
0.640223064126779
40
0.680198279223803
40
0.680198279223803
40
0.700185886772316
40
0.700185886772316
40
0.720173494320828
40
0.720173494320828
40
0.74016110186934
40
0.74016110186934
40
0.760148709417852
40
0.760148709417852
40
0.800123924514876
40
0.800123924514876
40
0.8400991396119
40
0.8400991396119
40
0.860086747160413
40
0.860086747160413
40
0.880074354708925
40
0.880074354708925
40
0.92004956980595
40
0.92004956980595
40
0.940037177354463
40
0.940037177354463
40
0.960024784902975
40
0.960024784902975
40
1
40
1
40
1
40
1
41
1
10
81.5835610169248
20
-2.90302070158705
30
0
41
1
10
81.5711292181565
20
-2.90492007964909
30
0
41
1
10
81.55869736747
20
-2.9068177400614
30
0
41
1
10
80.7442159987039
20
-3.03103107592054
30
0
41
1
10
79.9418348800381
20
-3.14606045874291
30
0
41
1
10
78.3380947815574
20
-3.35641264361701
30
0
41
1
10
77.5363737529295
20
-3.45052242234976
30
0
41
1
10
75.9333404443173
20
-3.62186299995949
30
0
41
1
10
75.1318095803001
20
-3.69890424195367
30
0
41
1
10
73.5280906455671
20
-3.83132208012987
30
0
41
1
10
72.7257398844234
20
-3.88766464228098
30
0
41
1
10
71.5225653636372
20
-3.95122519216233
30
0
41
1
10
71.1215636343225
20
-3.9695844591102
30
0
41
1
10
70.3196769880032
20
-4.00247407198302
30
0
41
1
10
69.9187940391323
20
-4.01640585200786
30
0
41
1
10
68.7163806946045
20
-4.05013343555913
30
0
41
1
10
67.9149122171222
20
-4.06183839353497
30
0
41
1
10
66.7122366663456
20
-4.06205081213676
30
0
41
1
10
66.3113168324339
20
-4.05913085779972
30
0
41
1
10
65.5092487791241
20
-4.04643119506741
30
0
41
1
10
65.1080723426802
20
-4.03714465239133
30
0
41
1
10
64.3056882272586
20
-4.01406394493918
30
0
41
1
10
63.9045927225181
20
-3.99975612251106
30
0
41
1
10
63.1025280284935
20
-3.96514219484769
30
0
41
1
10
62.7015566470213
20
-3.94460961337782
30
0
41
1
10
61.8997801821162
20
-3.89884861844945
30
0
41
1
10
61.4990105896232
20
-3.87384763303876
30
0
41
1
10
60.6973887718559
20
-3.81847503067888
30
0
41
1
10
60.2965511189438
20
-3.78822002196009
30
0
41
1
10
59.0939277793829
20
-3.68963740410203
30
0
41
1
10
58.2922397685622
20
-3.61370783404783
30
0
41
1
10
57.0887530365161
20
-3.48228778609831
30
0
41
1
10
56.6873799071686
20
-3.43560430135247
30
0
41
1
10
55.8849417533067
20
-3.33863752370894
30
0
41
1
10
55.483802855279
20
-3.28840702734661
30
0
41
1
10
54.2806888659113
20
-3.13064209707187
30
0
41
1
10
53.4790343150876
20
-3.01622858800115
30
0
41
1
10
52.2762132154309
20
-2.8333273363225
30
0
41
1
10
51.8752715727579
20
-2.77042510910209
30
0
41
1
10
51.0732619879587
20
-2.6394803170667
30
0
41
1
10
50.6721993875768
20
-2.57194443125567
30
0
41
1
10
49.4688261214996
20
-2.36541296698877
30
0
41
1
10
48.6659779975423
20
-2.22183498695435
30
0
41
1
10
47.0615393248573
20
-1.92239200207445
30
0
41
1
10
46.2598868847813
20
-1.76619713819366
30
0
41
1
10
45.0569980317062
20
-1.52557314301922
30
0
41
1
10
44.6559971807738
20
-1.44435829268914
30
0
41
1
10
43.8540912633175
20
-1.28009731909611
30
0
41
1
10
43.4531549790333
20
-1.1970128556062
30
0
41
1
10
42.2501419557799
20
-0.945517847979033
30
0
41
1
10
41.4475147464521
20
-0.775045877532762
30
0
41
1
10
40.2438931409708
20
-0.516722788808153
30
0
41
1
10
39.8428310515026
20
-0.430035427611557
30
0
41
1
10
39.0408832293987
20
-0.256087340985914
30
0
41
1
10
38.6399365870781
20
-0.169093336659586
30
0
41
1
10
37.8380490597277
20
0.0047672775643264
30
0
41
1
10
37.4371063916025
20
0.0916118462226905
30
0
41
1
10
36.6352541899883
20
0.265239635151346
30
0
41
1
10
36.2343406022555
20
0.352009443608438
30
0
41
1
10
35.0314759895676
20
0.611491835754236
30
0
41
1
10
34.2293889062245
20
0.783323633018284
30
0
41
1
10
32.6242492814321
20
1.12173393155294
30
0
41
1
10
31.8221579404738
20
1.28916089441637
30
0
41
1
10
30.6189126556646
20
1.5316594090846
30
0
41
1
10
30.2177948071947
20
1.61109794569882
30
0
41
1
10
29.4155899531098
20
1.76819895912908
30
0
41
1
10
29.014521472103
20
1.84594622337724
30
0
41
1
10
27.8111790451131
20
2.07549757738113
30
0
41
1
10
27.0085328968223
20
2.2235153409824
30
0
41
1
10
25.8050767757772
20
2.43458921755501
30
0
41
1
10
25.4039815163475
20
2.50315316321465
30
0
41
1
10
24.601910377449
20
2.63639559975516
30
0
41
1
10
24.2009258356164
20
2.70119896034012
30
0
41
1
10
22.9978603005827
20
2.89080438980176
30
0
41
1
10
22.1954996767944
20
3.00916235115625
30
0
41
1
10
21.392804928416
20
3.11919362278462
30
0
0
SPLINE
5
C3
100
AcDbEntity
8
1
62
256
6
ByLayer
370
13
48
1
60
0
100
AcDbSpline
70
4
71
3
72
8
73
4
40
0
40
0
40
0
40
0
40
1
40
1
40
1
40
1
41
1
10
7.25019635694755
20
1.09391840572331
30
0
41
1
10
7.23188804066828
20
1.09619971072141
30
0
41
1
10
7.21378908115113
20
1.09896778432767
30
0
41
1
10
7.19590125872003
20
1.10223348524437
30
0
0
SPLINE
5
C4
100
AcDbEntity
8
1
62
256
6
ByLayer
370
18
48
1
60
0
100
AcDbSpline
70
4
71
3
72
26
73
22
40
0
40
0
40
0
40
0
40
0.125
40
0.125
40
0.25
40
0.25
40
0.375
40
0.375
40
0.5
40
0.5
40
0.625
40
0.625
40
0.75
40
0.75
40
0.8125
40
0.8125
40
0.875
40
0.875
40
0.9375
40
0.9375
40
1
40
1
40
1
40
1
41
1
10
21.392903497591
20
-3.1192050876044
30
0
41
1
10
20.7868383895814
20
-3.20213782324427
30
0
41
1
10
20.1819731830878
20
-3.28304900506043
30
0
41
1
10
18.9743338080567
20
-3.43621897922208
30
0
41
1
10
18.3715534441509
20
-3.50834713802197
30
0
41
1
10
17.167946336832
20
-3.64568837087711
30
0
41
1
10
16.5670849292904
20
-3.70939941773372
30
0
41
1
10
15.3670477685788
20
-3.82373028327942
30
0
41
1
10
14.768633818011
20
-3.874247682082
30
0
41
1
10
13.5784202294531
20
-3.95612613713044
30
0
41
1
10
12.9862939856961
20
-3.98677648721497
30
0
41
1
10
11.8084437058598
20
-4.02475629065853
30
0
41
1
10
11.2225680507522
20
-4.03315598062539
30
0
41
1
10
10.3500373839121
20
-4.01942109341943
30
0
41
1
10
10.0602331036216
20
-4.01053676359879
30
0
41
1
10
9.48312245268107
20
-3.9819016795478
30
0
41
1
10
9.19548546217362
20
-3.96213710165216
30
0
41
1
10
8.62482866261269
20
-3.90819583453126
30
0
41
1
10
8.3429739377402
20
-3.87418750656798
30
0
41
1
10
7.78865563794903
20
-3.78667127218401
30
0
41
1
10
7.51611457894188
20
-3.73333239994213
30
0
41
1
10
7.25061581876807
20
-3.66508646518059
30
0
0
SPLINE
5
C5
100
AcDbEntity
8
1
62
256
6
ByLayer
370
18
48
1
60
0
100
AcDbSpline
70
4
71
3
72
22
73
18
40
0
40
0
40
0
40
0
40
0.199073804410276
40
0.199073804410276
40
0.296413766592949
40
0.296413766592949
40
0.377640991175855
40
0.377640991175855
40
0.446654190568531
40
0.446654190568531
40
0.51545332039766
40
0.51545332039766
40
0.617781007535817
40
0.617781007535817
40
0.800013026783523
40
0.800013026783523
40
1
40
1
40
1
40
1
41
1
10
101.78569491241
20
1.50343112408746
30
0
41
1
10
101.783321540502
20
1.50670828554828
30
0
41
1
10
101.781192485083
20
1.51024296075832
30
0
41
1
10
101.779100695511
20
1.51590737451207
30
0
41
1
10
101.77858636501
20
1.51786397545396
30
0
41
1
10
101.778226790648
20
1.52149326645704
30
0
41
1
10
101.778289868379
20
1.52319341792347
30
0
41
1
10
101.778979035585
20
1.52617995713481
30
0
41
1
10
101.779531615957
20
1.52751856596166
30
0
41
1
10
101.781035561768
20
1.52989556897805
30
0
41
1
10
101.781999443337
20
1.53096280232668
30
0
41
1
10
101.784667458584
20
1.5332041778874
30
0
41
1
10
101.786537641833
20
1.53422823054117
30
0
41
1
10
101.791890546045
20
1.53637839259449
30
0
41
1
10
101.795600915057
20
1.53705429562967
30
0
41
1
10
101.80332370997
20
1.53773695076669
30
0
41
1
10
101.807416122409
20
1.53766435901412
30
0
41
1
10
101.81146819033
20
1.53734611115436
30
0
0
SPLINE
5
C6
100
AcDbEntity
8
1
62
256
6
ByLayer
370
18
48
1
60
0
100
AcDbSpline
70
4
71
3
72
12
73
8
40
0
40
0
40
0
40
0
40
0.25
40
0.25
40
0.5
40
0.5
40
1
40
1
40
1
40
1
41
1
10
7.19448387695334
20
1.06290972751543
30
0
41
1
10
7.17157178767178
20
1.06795773358758
30
0
41
1
10
7.14992054959376
20
1.07595192626934
30
0
41
1
10
7.10907873131254
20
1.0976631553664
30
0
41
1
10
7.09022225225763
20
1.11131289598836
30
0
41
1
10
7.04086553638777
20
1.15859872308943
30
0
41
1
10
7.01711712493864
20
1.19951756772761
30
0
41
1
10
7.0065606609611
20
1.24274082021626
30
0
0
SPLINE
5
C7
100
AcDbEntity
8
1
62
256
6
ByLayer
370
18
48
1
60
0
100
AcDbSpline
70
4
71
3
72
8
73
4
40
0
40
0
40
0
40
0
40
1
40
1
40
1
40
1
41
1
10
103.735403385402
20
-3.17749590308773
30
0
41
1
10
103.724150586849
20
-3.201670177414
30
0
41
1
10
103.71946121238
20
-3.22836643969757
30
0
41
1
10
103.722537739093
20
-3.25468747383457
30
0
0
SPLINE
5
C8
100
AcDbEntity
8
1
62
256
6
ByLayer
370
18
48
1
60
0
100
AcDbSpline
70
4
71
3
72
44
73
40
40
0
40
0
40
0
40
0
40
0.0482229832935964
40
0.0482229832935964
40
0.0964459665871929
40
0.0964459665871929
40
0.192891933174386
40
0.192891933174386
40
0.241114916467982
40
0.241114916467982
40
0.289337899761579
40
0.289337899761579
40
0.385783866348772
40
0.385783866348772
40
0.434006849642368
40
0.434006849642368
40
0.482229832935965
40
0.482229832935965
40
0.530452816229561
40
0.530452816229561
40
0.578675799523157
40
0.578675799523157
40
0.626898782816754
40
0.626898782816754
40
0.67512176611035
40
0.67512176611035
40
0.723344749403947
40
0.723344749403947
40
0.771567732697543
40
0.771567732697543
40
0.81979071599114
40
0.81979071599114
40
0.868013699284736
40
0.868013699284736
40
0.916236682578333
40
0.916236682578333
40
0.964459665871929
40
0.964459665871929
40
1
40
1
40
1
40
1
41
1
10
103.682216000676
20
-4.20016568504124
30
0
41
1
10
102.677331794227
20
-4.24929288899173
30
0
41
1
10
101.672305822847
20
-4.27993706820982
30
0
41
1
10
99.6628156870676
20
-4.30365019149764
30
0
41
1
10
98.6583459045017
20
-4.29673409777217
30
0
41
1
10
95.6438538284021
20
-4.21992188387512
30
0
41
1
10
93.6343436102101
20
-4.0936165118608
30
0
41
1
10
90.6197042323595
20
-3.80096748867999
30
0
41
1
10
89.6151740584648
20
-3.68649324531341
30
0
41
1
10
87.6055634420611
20
-3.42647401667673
30
0
41
1
10
86.6003830543556
20
-3.28089380536412
30
0
41
1
10
83.5861461188152
20
-2.80363528752545
30
0
41
1
10
81.5761714508596
20
-2.430507229315
30
0
41
1
10
78.5617343231023
20
-1.81822176174711
30
0
41
1
10
77.5564742895461
20
-1.60517704445169
30
0
41
1
10
75.5467769824263
20
-1.16737722792126
30
0
41
1
10
74.5421153831676
20
-0.94262210347128
30
0
41
1
10
72.5318915006354
20
-0.486802427366882
30
0
41
1
10
71.5269676958242
20
-0.255742157044182
30
0
41
1
10
69.5172962939066
20
0.206070160481005
30
0
41
1
10
68.5120261012451
20
0.43701434115431
30
0
41
1
10
66.5020163229635
20
0.892864654799865
30
0
41
1
10
65.4973268096772
20
1.11776126275035
30
0
41
1
10
63.4872266304695
20
1.55576654741395
30
0
41
1
10
62.4820082930591
20
1.76897845538821
30
0
41
1
10
60.4721794583219
20
2.17739865056242
30
0
41
1
10
59.4670424395854
20
2.37294351808825
30
0
41
1
10
57.4566689383327
20
2.74152591014567
30
0
41
1
10
56.4519362836529
20
2.91463620128979
30
0
41
1
10
54.4418797814863
20
3.23360564709932
30
0
41
1
10
53.4364403273506
20
3.37959217526884
30
0
41
1
10
51.4264126019408
20
3.64050089277129
30
0
41
1
10
50.4215668731267
20
3.75566218511241
30
0
41
1
10
48.4108084719384
20
3.95207961405376
30
0
41
1
10
47.4059157449021
20
4.03328580574663
30
0
41
1
10
45.3958033355784
20
4.15980253065001
30
0
41
1
10
44.3903247278246
20
4.20516780228235
30
0
41
1
10
42.6444795334562
20
4.25166141750586
30
0
41
1
10
41.9038260330427
20
4.26129956326511
30
0
41
1
10
41.1630204695607
20
4.26083426482356
30
0
0
SPLINE
5
C9
100
AcDbEntity
8
1
62
256
6
ByLayer
370
18
48
1
60
0
100
AcDbSpline
70
4
71
3
72
20
73
16
40
0
40
0
40
0
40
0
40
0.189987382612757
40
0.189987382612757
40
0.379974765225513
40
0.379974765225513
40
0.56996214783827
40
0.56996214783827
40
0.664955839144648
40
0.664955839144648
40
0.759949530451026
40
0.759949530451026
40
0.94993691306378
40
0.94993691306378
40
1
40
1
40
1
40
1
41
1
10
25.5778965898835
20
-3.27544755222223
30
0
41
1
10
26.3947136245582
20
-3.39546378961535
30
0
41
1
10
27.2114628095987
20
-3.50444489491588
30
0
41
1
10
28.8441114036045
20
-3.70280356582956
30
0
41
1
10
29.6597702676349
20
-3.79247720995176
30
0
41
1
10
31.2921319371037
20
-3.94783965822978
30
0
41
1
10
32.1084741204041
20
-4.01439548008412
30
0
41
1
10
33.3332297839341
20
-4.09723018470103
30
0
41
1
10
33.7417109005914
20
-4.12189846136778
30
0
41
1
10
34.5585919267147
20
-4.16504161495814
30
0
41
1
10
34.9668574918194
20
-4.18357213030839
30
0
41
1
10
36.1909245093526
20
-4.23027204499229
30
0
41
1
10
37.0057810220324
20
-4.24949097424326
30
0
41
1
10
38.0352866354702
20
-4.25809652580372
30
0
41
1
10
38.2499696833222
20
-4.25904962905685
30
0
41
1
10
38.4646282805232
20
-4.25915791791891
30
0
0
SPLINE
5
CA
100
AcDbEntity
8
1
62
256
6
ByLayer
370
18
48
1
60
0
100
AcDbSpline
70
4
71
3
72
30
73
26
40
0
40
0
40
0
40
0
40
0.0108803032982456
40
0.0108803032982456
40
0.120782491820665
40
0.120782491820665
40
0.230684680343085
40
0.230684680343085
40
0.285635774604295
40
0.285635774604295
40
0.340586868865505
40
0.340586868865505
40
0.450489057387925
40
0.450489057387925
40
0.560391245910345
40
0.560391245910345
40
0.615342340171554
40
0.615342340171554
40
0.670293434432762
40
0.670293434432762
40
0.780195622955174
40
0.780195622955174
40
0.890097811477587
40
0.890097811477587
40
1
40
1
40
1
40
1
41
1
10
81.5883770484615
20
2.90476396241016
30
0
41
1
10
81.6689690002797
20
2.91847882537451
30
0
41
1
10
81.749560567663
20
2.93210620333798
30
0
41
1
10
82.6442230518451
20
3.08235258143415
30
0
41
1
10
83.4585394410572
20
3.20934851776713
30
0
41
1
10
85.0867231035934
20
3.44677362044499
30
0
41
1
10
85.9008598237575
20
3.55626622230045
30
0
41
1
10
87.1233094708495
20
3.70376328582276
30
0
41
1
10
87.5309200880732
20
3.75035310571144
30
0
41
1
10
88.3463181267227
20
3.83848974522385
30
0
41
1
10
88.7540921240548
20
3.88004722751404
30
0
41
1
10
89.9782303300424
20
3.99592116818093
30
0
41
1
10
90.7953972832576
20
4.06122500645591
30
0
41
1
10
92.4261211100221
20
4.1691442755448
30
0
41
1
10
93.240491361543
20
4.21133930202456
30
0
41
1
10
94.4618679959133
20
4.25596214468521
30
0
41
1
10
94.8688856457463
20
4.26781815053434
30
0
41
1
10
95.6826146824254
20
4.28548738275882
30
0
41
1
10
96.089301388778
20
4.29128780128551
30
0
41
1
10
97.3093932911942
20
4.29936110602833
30
0
41
1
10
98.123099610178
20
4.29246999319585
30
0
41
1
10
99.7502980404622
20
4.25416196034479
30
0
41
1
10
100.563867384
20
4.222507701534
30
0
41
1
10
102.192886940623
20
4.13583234016497
30
0
41
1
10
103.007840171899
20
4.08041651830888
30
0
41
1
10
103.823545896035
20
4.01302022535603
30
0
0
SPLINE
5
CB
100
AcDbEntity
8
1
62
256
6
ByLayer
370
18
48
1
60
0
100
AcDbSpline
70
4
71
3
72
8
73
4
40
0
40
0
40
0
40
0
40
1
40
1
40
1
40
1
41
1
10
103.735403385402
20
3.1774959030877
30
0
41
1
10
103.724150586849
20
3.201670177414
30
0
41
1
10
103.71946121238
20
3.22836643969754
30
0
41
1
10
103.722537739093
20
3.25468747383454
30
0
0
SPLINE
5
CC
100
AcDbEntity
8
1
62
256
6
ByLayer
370
18
48
1
60
0
100
AcDbSpline
70
4
71
3
72
10
73
6
40
0
40
0
40
0
40
0
40
0.74990592643202
40
0.74990592643202
40
1
40
1
40
1
40
1
41
1
10
103.682216000676
20
4.20016568504124
30
0
41
1
10
102.677331794227
20
4.2492928889917
30
0
41
1
10
101.672305822847
20
4.27993706820979
30
0
41
1
10
100.332477675775
20
4.295747800231
30
0
41
1
10
99.9974252145554
20
4.29761402617424
30
0
41
1
10
99.6623797730398
20
4.29739544862161
30
0
0
SPLINE
5
CD
100
AcDbEntity
8
1
62
256
6
ByLayer
370
18
48
1
60
0
100
AcDbSpline
70
4
71
3
72
32
73
28
40
0
40
0
40
0
40
0
40
0.0180156082240637
40
0.0180156082240637
40
0.0935528691299047
40
0.0935528691299047
40
0.169090130035746
40
0.169090130035746
40
0.244627390941587
40
0.244627390941587
40
0.320164651847428
40
0.320164651847428
40
0.395701912753269
40
0.395701912753269
40
0.47123917365911
40
0.47123917365911
40
0.546776434564951
40
0.546776434564951
40
0.622313695470792
40
0.622313695470792
40
0.697850956376634
40
0.697850956376634
40
0.848925478188317
40
0.848925478188317
40
0.924462739094159
40
0.924462739094159
40
1
40
1
40
1
40
1
41
1
10
47.1199570376116
20
-4.04823297679252
30
0
41
1
10
46.8802612924558
20
-4.06534906736704
30
0
41
1
10
46.6405650658209
20
-4.08145707262244
30
0
41
1
10
45.3958033355785
20
-4.15980253064998
30
0
41
1
10
44.3903247278246
20
-4.20516780228235
30
0
41
1
10
42.3801401689343
20
-4.258701040917
30
0
41
1
10
41.3752309163838
20
-4.26689360181896
30
0
41
1
10
39.3645220678455
20
-4.24605769401404
30
0
41
1
10
38.3593035476645
20
-4.21698122899235
30
0
41
1
10
36.3491733091399
20
-4.12234538811296
30
0
41
1
10
35.3436993734401
20
-4.05677941310188
30
0
41
1
10
33.3331727485917
20
-3.89089684927882
30
0
41
1
10
32.3281960117456
20
-3.79068459670751
30
0
41
1
10
30.3176486624801
20
-3.55797630845578
30
0
41
1
10
29.3121485755696
20
-3.42547194637174
30
0
41
1
10
27.3018516441502
20
-3.13212106018324
30
0
41
1
10
26.2965236319079
20
-2.97116765134936
30
0
41
1
10
24.2856336893625
20
-2.62472853189269
30
0
41
1
10
23.2806183515536
20
-2.43936217669921
30
0
41
1
10
21.2700907482
20
-2.0491731108705
30
0
41
1
10
20.2643876494841
20
-1.84429805187074
30
0
41
1
10
17.2486842822426
20
-1.2084551473975
30
0
41
1
10
15.2376784658513
20
-0.756351246737268
30
0
41
1
10
12.2217549680746
20
-0.0706082768306828
30
0
41
1
10
11.2160018624229
20
0.159231011850153
30
0
41
1
10
9.2053035130586
20
0.615304624263104
30
0
41
1
10
8.20010572088682
20
0.84135048374381
30
0
41
1
10
7.19448387695329
20
1.06290972751543
30
0
0
SPLINE
5
CE
100
AcDbEntity
8
1
62
256
6
ByLayer
370
18
48
1
60
0
100
AcDbSpline
70
4
71
3
72
30
73
26
40
0
40
0
40
0
40
0
40
0.125000000000005
40
0.125000000000005
40
0.1875
40
0.1875
40
0.249999999999994
40
0.249999999999994
40
0.374999999999983
40
0.374999999999983
40
0.437499999999987
40
0.437499999999987
40
0.499999999999991
40
0.499999999999991
40
0.624999999999999
40
0.624999999999999
40
0.750000000000007
40
0.750000000000007
40
0.812500000000005
40
0.812500000000005
40
0.875000000000003
40
0.875000000000003
40
0.937500000000002
40
0.937500000000002
40
1
40
1
40
1
40
1
41
1
10
103.563999644126
20
-3.00468941327151
30
0
41
1
10
103.58713874832
20
-2.97879536756491
30
0
41
1
10
103.613546299117
20
-2.94366734824851
30
0
41
1
10
103.657505583364
20
-2.87869152368412
30
0
41
1
10
103.672959372983
20
-2.85483238425184
30
0
41
1
10
103.704446602252
20
-2.80435101822457
30
0
41
1
10
103.720580206454
20
-2.77758763143527
30
0
41
1
10
103.770128262198
20
-2.69281809108384
30
0
41
1
10
103.804925153745
20
-2.62984511035154
30
0
41
1
10
103.856572858194
20
-2.53143293893788
30
0
41
1
10
103.873811200387
20
-2.49777420024375
30
0
41
1
10
103.908335154479
20
-2.42865639910949
30
0
41
1
10
103.925669651427
20
-2.39307857587514
30
0
41
1
10
103.976014025054
20
-2.28705629180973
30
0
41
1
10
104.00810780989
20
-2.21589097673655
30
0
41
1
10
104.067966752441
20
-2.07446418052385
30
0
41
1
10
104.094182447891
20
-2.00790665517948
30
0
41
1
10
104.127288603123
20
-1.91502788813889
30
0
41
1
10
104.13711705655
20
-1.88562738646633
30
0
41
1
10
104.153645473338
20
-1.83202852954403
30
0
41
1
10
104.16046343946
20
-1.80750525547447
30
0
41
1
10
104.171044290339
20
-1.76326691755392
30
0
41
1
10
104.174697864413
20
-1.74392791032932
30
0
41
1
10
104.178624954847
20
-1.71176524791235
30
0
41
1
10
104.17894960299
20
-1.69873332579598
30
0
41
1
10
104.177609192795
20
-1.6887994896617
30
0
0
SPLINE
5
CF
100
AcDbEntity
8
1
62
256
6
ByLayer
370
18
48
1
60
0
100
AcDbSpline
70
4
71
3
72
14
73
10
40
0
40
0
40
0
40
0
40
0.238484960933519
40
0.238484960933519
40
0.469351603211181
40
0.469351603211181
40
0.700218245488843
40
0.700218245488843
40
1
40
1
40
1
40
1
41
1
10
70.5195314657333
20
-0.023694128246035
30
0
41
1
10
71.5575939821649
20
-0.255768535153067
30
0
41
1
10
72.5950122192205
20
-0.487693193722294
30
0
41
1
10
74.6367663628949
20
-0.937733768605767
30
0
41
1
10
75.6411003434614
20
-1.15609746634911
30
0
41
1
10
77.6510454580016
20
-1.5813688920941
30
0
41
1
10
78.6572302146222
20
-1.78833637758413
30
0
41
1
10
80.9700270185699
20
-2.24412999576992
30
0
41
1
10
82.2728424025622
20
-2.48631295480058
30
0
41
1
10
83.5730629771019
20
-2.70840303559183
30
0
0
SPLINE
5
D0
100
AcDbEntity
8
1
62
256
6
ByLayer
370
13
48
1
60
0
100
AcDbSpline
70
4
71
3
72
14
73
10
40
0
40
0
40
0
40
0
40
0.104677235683101
40
0.104677235683101
40
0.403118157122068
40
0.403118157122068
40
0.701559078561034
40
0.701559078561034
40
1
40
1
40
1
40
1
41
1
10
83.573062977307
20
-2.70840303562679
30
0
41
1
10
84.2754830153926
20
-2.82838308059846
30
0
41
1
10
84.9771457583064
20
-2.94249901879994
30
0
41
1
10
87.6770835782573
20
-3.35647951043072
30
0
41
1
10
89.6713294971089
20
-3.60948693050946
30
0
41
1
10
93.6594240930434
20
-3.98438332541363
30
0
41
1
10
95.6534885681242
20
-4.10603769915014
30
0
41
1
10
99.6504727349438
20
-4.20535163352722
30
0
41
1
10
101.653479526875
20
-4.18299080014103
30
0
41
1
10
103.665237130305
20
-4.08755544373403
30
0
0
SPLINE
5
D1
100
AcDbEntity
8
1
62
256
6
ByLayer
370
18
48
1
60
0
100
AcDbSpline
70
4
71
3
72
8
73
4
40
0
40
0
40
0
40
0
40
1
40
1
40
1
40
1
41
1
10
103.682216000676
20
-4.20016568504124
30
0
41
1
10
103.676548125189
20
-4.16263940690851
30
0
41
1
10
103.67088850842
20
-4.12510260784137
30
0
41
1
10
103.665237130306
20
-4.087555443734
30
0
0
SPLINE
5
D2
100
AcDbEntity
8
1
62
256
6
ByLayer
370
18
48
1
60
0
100
AcDbSpline
70
4
71
3
72
50
73
46
40
0
40
0
40
0
40
0
40
0.25000000000003
40
0.25000000000003
40
0.312500000000033
40
0.312500000000033
40
0.343750000000035
40
0.343750000000035
40
0.375000000000037
40
0.375000000000037
40
0.437500000000032
40
0.437500000000032
40
0.500000000000026
40
0.500000000000026
40
0.562500000000021
40
0.562500000000021
40
0.593750000000023
40
0.593750000000023
40
0.625000000000024
40
0.625000000000024
40
0.640625000000021
40
0.640625000000021
40
0.656250000000019
40
0.656250000000019
40
0.687500000000013
40
0.687500000000013
40
0.703125000000011
40
0.703125000000011
40
0.718750000000008
40
0.718750000000008
40
0.734375000000005
40
0.734375000000005
40
0.750000000000003
40
0.750000000000003
40
0.781250000000002
40
0.781250000000002
40
0.812500000000002
40
0.812500000000002
40
0.843750000000002
40
0.843750000000002
40
0.875000000000001
40
0.875000000000001
40
0.937500000000001
40
0.937500000000001
40
1
40
1
40
1
40
1
41
1
10
98.383309323459
20
-0.436622843153458
30
0
41
1
10
99.0309976212234
20
-0.591511245480831
30
0
41
1
10
99.6788668088633
20
-0.738473889027404
30
0
41
1
10
100.488685882079
20
-0.904144210684194
30
0
41
1
10
100.650640981572
20
-0.936362908607862
30
0
41
1
10
100.893539468219
20
-0.983234046895404
30
0
41
1
10
100.974509286423
20
-0.998772488468887
30
0
41
1
10
101.136333401566
20
-1.02687454651237
30
0
41
1
10
101.217185001964
20
-1.03970696181855
30
0
41
1
10
101.459349771874
20
-1.07411287601042
30
0
41
1
10
101.620645054158
20
-1.09179790949631
30
0
41
1
10
101.940673700785
20
-1.1143247354444
30
0
41
1
10
102.099250630756
20
-1.11935836181377
30
0
41
1
10
102.411937398861
20
-1.11006485360585
30
0
41
1
10
102.566080295484
20
-1.09588099736513
30
0
41
1
10
102.792223035947
20
-1.05262444221816
30
0
41
1
10
102.866675474121
20
-1.03438444886672
30
0
41
1
10
103.009599294716
20
-0.987752482820099
30
0
41
1
10
103.078454834141
20
-0.959377957001891
30
0
41
1
10
103.175397287902
20
-0.904509597241855
30
0
41
1
10
103.206749162227
20
-0.88402560226794
30
0
41
1
10
103.265143935227
20
-0.838521047665353
30
0
41
1
10
103.292347343679
20
-0.81344335692674
30
0
41
1
10
103.366053389371
20
-0.7289922867391
30
0
41
1
10
103.403056172196
20
-0.661956120136438
30
0
41
1
10
103.428042122116
20
-0.543863645065812
30
0
41
1
10
103.430950238219
20
-0.503186115047242
30
0
41
1
10
103.426319177583
20
-0.419299721622877
30
0
41
1
10
103.418561584774
20
-0.375739388569485
30
0
41
1
10
103.394511814702
20
-0.290711874963421
30
0
41
1
10
103.378083685636
20
-0.248357664239165
30
0
41
1
10
103.339303411231
20
-0.166241505504331
30
0
41
1
10
103.317110255789
20
-0.126614272620117
30
0
41
1
10
103.24436672364
20
-0.0108791221333036
30
0
41
1
10
103.187345795674
20
0.0624444952531746
30
0
41
1
10
103.066491385726
20
0.200584004659845
30
0
41
1
10
103.0023471357
20
0.265985522124112
30
0
41
1
10
102.869251702532
20
0.392044742865295
30
0
41
1
10
102.800785282021
20
0.452739143058608
30
0
41
1
10
102.660455182271
20
0.569136586004817
30
0
41
1
10
102.591379450265
20
0.628948021258282
30
0
41
1
10
102.388167175172
20
0.813548728912707
30
0
41
1
10
102.258389497826
20
0.94260544066023
30
0
41
1
10
102.010657502434
20
1.21314904326974
30
0
41
1
10
101.892607998677
20
1.35580510524838
30
0
41
1
10
101.78569491241
20
1.50343112408743
30
0
0
SPLINE
5
D3
100
AcDbEntity
8
1
62
256
6
ByLayer
370
18
48
1
60
0
100
AcDbSpline
70
4
71
3
72
14
73
10
40
0
40
0
40
0
40
0
40
0.250000000000017
40
0.250000000000017
40
0.375000000000018
40
0.375000000000018
40
0.500000000000018
40
0.500000000000018
40
1
40
1
40
1
40
1
41
1
10
104.616785038275
20
1.29624813781024
30
0
41
1
10
104.546714262305
20
1.45315503047684
30
0
41
1
10
104.475291748316
20
1.61007074143535
30
0
41
1
10
104.366037118448
20
1.84545814365529
30
0
41
1
10
104.32922692672
20
1.92398694325305
30
0
41
1
10
104.255036491417
20
2.08070289061681
30
0
41
1
10
104.217600545269
20
2.15881261387156
30
0
41
1
10
104.030168186838
20
2.54917716884239
30
0
41
1
10
103.881930425696
20
2.86271333129619
30
0
41
1
10
103.735403385402
20
3.1774959030877
30
0
0
SPLINE
5
D4
100
AcDbEntity
8
1
62
256
6
ByLayer
370
18
48
1
60
0
100
AcDbSpline
70
4
71
3
72
14
73
10
40
0
40
0
40
0
40
0
40
0.25
40
0.25
40
0.5
40
0.5
40
0.75
40
0.75
40
1
40
1
40
1
40
1
41
1
10
7.25061581603887
20
-3.66508646447909
30
0
41
1
10
7.219696278898
20
-3.65713865818117
30
0
41
1
10
7.18469585377679
20
-3.65719463572762
30
0
41
1
10
7.11798343756632
20
-3.68359527864641
30
0
41
1
10
7.08972123045538
20
-3.70849963852919
30
0
41
1
10
7.04756679218184
20
-3.76482453542718
30
0
41
1
10
7.0330299633782
20
-3.79575343011737
30
0
41
1
10
7.01209471571087
20
-3.85809829905315
30
0
41
1
10
7.00580863880043
20
-3.88939714973759
30
0
41
1
10
7.00255741504043
20
-3.92080401363961
30
0
0
SPLINE
5
D5
100
AcDbEntity
8
1
62
256
6
ByLayer
370
18
48
1
60
0
100
AcDbSpline
70
4
71
3
72
8
73
4
40
0
40
0
40
0
40
0
40
1
40
1
40
1
40
1
41
1
10
25.5782285889294
20
3.27550788928744
30
0
41
1
10
24.6941938103551
20
3.14523746851356
30
0
41
1
10
23.8074323674149
20
3.01325719715445
30
0
41
1
10
22.9169866656033
20
2.88795973161817
30
0
0
SPLINE
5
D6
100
AcDbEntity
8
1
62
256
6
ByLayer
370
13
48
1
60
0
100
AcDbSpline
70
4
71
3
72
10
73
6
40
0
40
0
40
0
40
0
40
0.5
40
0.5
40
1
40
1
40
1
40
1
41
1
10
7.00249177021141
20
1.27623223148859
30
0
41
1
10
7.00923192981514
20
1.23633154386542
30
0
41
1
10
7.0295156060553
20
1.19834787361233
30
0
41
1
10
7.09591263034335
20
1.1359597746945
30
0
41
1
10
7.14249814633871
20
1.11198305614204
30
0
41
1
10
7.19590125871875
20
1.10223348524116
30
0
0
SPLINE
5
D7
100
AcDbEntity
8
1
62
256
6
ByLayer
370
13
48
1
60
0
100
AcDbSpline
70
4
71
3
72
27
73
23
40
0
40
0
40
0
40
0
40
0.125
40
0.125
40
0.1875
40
0.1875
40
0.25
40
0.3125
40
0.3125
40
0.375
40
0.375
40
0.5
40
0.5
40
0.625
40
0.625
40
0.75
40
0.75
40
0.8125
40
0.8125
40
0.875
40
0.875
40
1
40
1
40
1
40
1
41
1
10
7.25019635694755
20
1.09391840572331
30
0
41
1
10
7.25022863457963
20
1.37416607569193
30
0
41
1
10
7.25025914795975
20
1.64191531808638
30
0
41
1
10
7.25030303842675
20
2.02509177489702
30
0
41
1
10
7.25031739603901
20
2.15008101864129
30
0
41
1
10
7.25034500895896
20
2.3886304754511
30
0
41
1
10
7.25037166473939
20
2.61702541417463
30
0
41
1
10
7.25039668512377
20
2.82547834976381
30
0
41
1
10
7.25042099054878
20
3.0237964983412
30
0
41
1
10
7.25043285043105
20
3.11837392913938
30
0
41
1
10
7.25046676646451
20
3.38081742353262
30
0
41
1
10
7.250487324772
20
3.52887095270904
30
0
41
1
10
7.2505249615007
20
3.77177947809
30
0
41
1
10
7.25054209924144
20
3.86650067646121
30
0
41
1
10
7.25057147342025
20
3.99228195568642
30
0
41
1
10
7.25058369221139
20
4.02394049448446
30
0
41
1
10
7.25059821854273
20
4.02567586236938
30
0
41
1
10
7.25060242861883
20
4.01851802616198
30
0
41
1
10
7.25060939785038
20
3.98838292609551
30
0
41
1
10
7.25061211831564
20
3.96563673944735
30
0
41
1
10
7.25061793025407
20
3.87513400343346
30
0
41
1
10
7.25061870977149
20
3.78536967738657
30
0
41
1
10
7.25061581603887
20
3.66508646521808
30
0
0
SPLINE
5
D8
100
AcDbEntity
8
1
62
256
6
ByLayer
370
18
48
1
60
0
100
AcDbSpline
70
4
71
3
72
88
73
84
40
0
40
0
40
0
40
0
40
0.0342477533802292
40
0.0342477533802292
40
0.0684955067604583
40
0.0684955067604583
40
0.102743260140688
40
0.102743260140688
40
0.119867136830802
40
0.119867136830802
40
0.136991013520917
40
0.136991013520917
40
0.171238766901146
40
0.171238766901146
40
0.205486520281376
40
0.205486520281376
40
0.222610396971491
40
0.222610396971491
40
0.239734273661606
40
0.239734273661606
40
0.273982027041835
40
0.273982027041835
40
0.308229780422065
40
0.308229780422065
40
0.32535365711218
40
0.32535365711218
40
0.342477533802295
40
0.342477533802295
40
0.376725287182526
40
0.376725287182526
40
0.410973040562756
40
0.410973040562756
40
0.428096917252871
40
0.428096917252871
40
0.445220793942987
40
0.445220793942987
40
0.479468547323218
40
0.479468547323218
40
0.513716300703449
40
0.513716300703449
40
0.530840177393565
40
0.530840177393565
40
0.547964054083681
40
0.547964054083681
40
0.565087930773797
40
0.565087930773797
40
0.582211807463913
40
0.582211807463913
40
0.616459560844145
40
0.616459560844145
40
0.633583437534261
40
0.633583437534261
40
0.650707314224377
40
0.650707314224377
40
0.667831190914493
40
0.667831190914493
40
0.684955067604609
40
0.684955067604609
40
0.719202820984842
40
0.719202820984842
40
0.753450574365074
40
0.753450574365074
40
0.77057445105519
40
0.77057445105519
40
0.787698327745306
40
0.787698327745306
40
0.821946081125538
40
0.821946081125538
40
0.85619383450577
40
0.85619383450577
40
0.873317711195886
40
0.873317711195886
40
0.890441587886002
40
0.890441587886002
40
0.924689341266234
40
0.924689341266234
40
0.958937094646465
40
0.958937094646465
40
0.976060971336582
40
0.976060971336582
40
0.993184848026698
40
0.993184848026698
40
1
40
1
40
1
40
1
41
1
10
25.5778965898835
20
3.27544755222223
30
0
41
1
10
26.3947136245582
20
3.39546378961532
30
0
41
1
10
27.2114628095987
20
3.50444489491588
30
0
41
1
10
28.8441114036045
20
3.70280356582956
30
0
41
1
10
29.6597702676349
20
3.79247720995173
30
0
41
1
10
31.2921319371037
20
3.94783965822975
30
0
41
1
10
32.1084741204041
20
4.01439548008409
30
0
41
1
10
33.333229783934
20
4.09723018470103
30
0
41
1
10
33.7417109005914
20
4.12189846136778
30
0
41
1
10
34.5585919267147
20
4.16504161495814
30
0
41
1
10
34.9668574918194
20
4.18357213030839
30
0
41
1
10
36.1909245093526
20
4.23027204499229
30
0
41
1
10
37.0057810220324
20
4.24949097424326
30
0
41
1
10
38.6353806412265
20
4.26311266154909
30
0
41
1
10
39.449852725517
20
4.25780295323918
30
0
41
1
10
40.6709303340482
20
4.23139442574634
30
0
41
1
10
41.0779165720376
20
4.21951681339379
30
0
41
1
10
41.8921213835038
20
4.18986671471447
30
0
41
1
10
42.2993141804362
20
4.17209814067857
30
0
41
1
10
43.5209293972343
20
4.10978523204389
30
0
41
1
10
44.3351574269337
20
4.0557876389918
30
0
41
1
10
45.9654782138491
20
3.92561548476547
30
0
41
1
10
46.7813738663532
20
3.84938215954372
30
0
41
1
10
48.0060831737135
20
3.71749494556968
30
0
41
1
10
48.4145717605503
20
3.67070338967153
30
0
41
1
10
49.2309763884226
20
3.57241224032484
30
0
41
1
10
49.6390432336483
20
3.52089301376077
30
0
41
1
10
50.8626015706321
20
3.35865536788984
30
0
41
1
10
51.677196493203
20
3.2394362549588
30
0
41
1
10
53.3062780208453
20
2.98494572129252
30
0
41
1
10
54.1206759688054
20
2.84956600954908
30
0
41
1
10
55.3416731768385
20
2.63291976113996
30
0
41
1
10
55.7486320326583
20
2.55862412175705
30
0
41
1
10
56.562793639995
20
2.40705107489268
30
0
41
1
10
56.9700061217008
20
2.32982438964481
30
0
41
1
10
58.1917795896203
20
2.09290242594656
30
0
41
1
10
59.0062201142867
20
1.92686335108388
30
0
41
1
10
60.636928679766
20
1.58633691830303
30
0
41
1
10
61.4534088424796
20
1.41199504245782
30
0
41
1
10
62.6784001809993
20
1.14238332912751
30
0
41
1
10
63.086450056043
20
1.05147681030843
30
0
41
1
10
63.9023010588297
20
0.869013066801784
30
0
41
1
10
64.3101268063145
20
0.777565993477367
30
0
41
1
10
65.1254263876462
20
0.593543417545675
30
0
41
1
10
65.5328958907642
20
0.50094875547174
30
0
41
1
10
66.3474271066008
20
0.314386570907914
30
0
41
1
10
66.7545110602899
20
0.220520959898408
30
0
41
1
10
67.9758589250469
20
-0.0599541352575557
30
0
41
1
10
68.7901421598905
20
-0.245800468531286
30
0
41
1
10
70.0110503506409
20
-0.525505363327596
30
0
41
1
10
70.4179843442404
20
-0.6186678637726
30
0
41
1
10
71.2321023018063
20
-0.803428553640828
30
0
41
1
10
71.6393197747979
20
-0.894880414526824
30
0
41
1
10
72.4539381707904
20
-1.07652087829754
30
0
41
1
10
72.8613311495501
20
-1.1667441633694
30
0
41
1
10
73.6762201382523
20
-1.34627145216726
30
0
41
1
10
74.083730252062
20
-1.43551195201439
30
0
41
1
10
75.3070763373638
20
-1.69896460005904
30
0
41
1
10
76.1243860960361
20
-1.86898195045316
30
0
41
1
10
77.7566908067285
20
-2.20035983059916
30
0
41
1
10
78.5719196547892
20
-2.3602573522702
30
0
41
1
10
79.7943976424647
20
-2.5877159456239
30
0
41
1
10
80.2017545970339
20
-2.66176567026366
30
0
41
1
10
81.016115117972
20
-2.80655870679456
30
0
41
1
10
81.4231185252075
20
-2.87728470874711
30
0
41
1
10
82.6442230518451
20
-3.08235258143415
30
0
41
1
10
83.4585394410572
20
-3.2093485177671
30
0
41
1
10
85.0867231035934
20
-3.44677362044499
30
0
41
1
10
85.9008598237575
20
-3.55626622230045
30
0
41
1
10
87.1233094708495
20
-3.70376328582276
30
0
41
1
10
87.5309200880732
20
-3.75035310571144
30
0
41
1
10
88.3463181267227
20
-3.83848974522385
30
0
41
1
10
88.7540921240549
20
-3.88004722751404
30
0
41
1
10
89.9782303300425
20
-3.99592116818096
30
0
41
1
10
90.7953972832576
20
-4.06122500645591
30
0
41
1
10
92.4261211100221
20
-4.1691442755448
30
0
41
1
10
93.2404913615431
20
-4.21133930202456
30
0
41
1
10
94.4618679959133
20
-4.25596214468521
30
0
41
1
10
94.8688856457463
20
-4.26781815053434
30
0
41
1
10
95.6826146824254
20
-4.28548738275879
30
0
41
1
10
96.089301388778
20
-4.29128780128551
30
0
41
1
10
96.6578606302105
20
-4.29504993757323
30
0
41
1
10
96.8197349146104
20
-4.29563495822308
30
0
41
1
10
96.9816182424404
20
-4.29573404686653
30
0
0
SPLINE
5
D9
100
AcDbEntity
8
1
62
256
6
ByLayer
370
18
48
1
60
0
100
AcDbSpline
70
4
71
3
72
14
73
10
40
0
40
0
40
0
40
0
40
0.294972966058534
40
0.294972966058534
40
0.59651703209462
40
0.59651703209462
40
0.898061098130706
40
0.898061098130706
40
1
40
1
40
1
40
1
41
1
10
25.5780422617456
20
3.27550814531392
30
0
41
1
10
25.4466716678739
20
3.22086415387159
30
0
41
1
10
25.3160974750754
20
3.16546583323355
30
0
41
1
10
25.0535747328225
20
3.05233093279429
30
0
41
1
10
24.9216503902982
20
2.99459319146931
30
0
41
1
10
24.6591520864897
20
2.87877095624515
30
0
41
1
10
24.52825335564
20
2.82054219780545
30
0
41
1
10
24.3549855393017
20
2.74356806775447
30
0
41
1
10
24.3113843000484
20
2.72420631569486
30
0
41
1
10
24.2679489733919
20
2.70495171333175
30
0
0
SPLINE
5
DA
100
AcDbEntity
8
1
62
256
6
ByLayer
370
18
48
1
60
0
100
AcDbSpline
70
4
71
3
72
16
73
12
40
0
40
0
40
0
40
0
40
0.125000000000006
40
0.125000000000006
40
0.250000000000011
40
0.250000000000011
40
0.500000000000008
40
0.500000000000008
40
0.750000000000004
40
0.750000000000004
40
1
40
1
40
1
40
1
41
1
10
98.383309323459
20
-0.436622843153458
30
0
41
1
10
98.5095489202865
20
-0.563106264188093
30
0
41
1
10
98.64111283981
20
-0.684508846614847
30
0
41
1
10
98.913090918834
20
-0.918868497638925
30
0
41
1
10
99.0520880386001
20
-1.03058676779602
30
0
41
1
10
99.4747601573182
20
-1.3511456441515
30
0
41
1
10
99.7648344259398
20
-1.5462384841301
30
0
41
1
10
100.357008813314
20
-1.90943248863172
30
0
41
1
10
100.659168320079
20
-2.07740035846538
30
0
41
1
10
101.273299910277
20
-2.39131205144022
30
0
41
1
10
101.584451863422
20
-2.53672020225866
30
0
41
1
10
101.897428839554
20
-2.67151402722337
30
0
0
SPLINE
5
DB
100
AcDbEntity
8
1
62
256
6
ByLayer
370
18
48
1
60
0
100
AcDbSpline
70
4
71
3
72
8
73
4
40
0
40
0
40
0
40
0
40
1
40
1
40
1
40
1
41
1
10
101.81146819033
20
1.53734611115433
30
0
41
1
10
102.746405585226
20
1.46391648688686
30
0
41
1
10
103.681529121709
20
1.38281156816885
30
0
41
1
10
104.616785038261
20
1.29624813780441
30
0
0
SPLINE
5
DC
100
AcDbEntity
8
1
62
256
6
ByLayer
370
18
48
1
60
0
100
AcDbSpline
70
4
71
3
72
55
73
51
40
0
40
0
40
0
40
0
40
0.249999999999974
40
0.249999999999974
40
0.312499999999968
40
0.312499999999968
40
0.374999999999962
40
0.374999999999962
40
0.437499999999956
40
0.437499999999956
40
0.499999999999949
40
0.499999999999949
40
0.624999999999936
40
0.624999999999936
40
0.749999999999923
40
0.749999999999923
40
0.812499999999917
40
0.812499999999917
40
0.843749999999914
40
0.847656249999914
40
0.847656249999914
40
0.851562499999914
40
0.851562499999914
40
0.859374999999915
40
0.859374999999915
40
0.863281249999916
40
0.863281249999916
40
0.865234374999916
40
0.865234374999916
40
0.866210937499917
40
0.866210937499917
40
0.867187499999918
40
0.867187499999918
40
0.874999999999922
40
0.874999999999922
40
0.882812499999927
40
0.882812499999927
40
0.890624999999932
40
0.890624999999932
40
0.906249999999942
40
0.906249999999942
40
0.921874999999951
40
0.921874999999951
40
0.937499999999961
40
0.937499999999961
40
0.95312499999997
40
0.95312499999997
40
0.96874999999998
40
0.96874999999998
40
1
40
1
40
1
40
1
41
1
10
25.5782285889293
20
-3.27550788928747
30
0
41
1
10
23.6326083742644
20
-2.98880337248176
30
0
41
1
10
21.6737810092881
20
-2.6938168485573
30
0
41
1
10
19.1959776553595
20
-2.42656563670022
30
0
41
1
10
18.6989344360205
20
-2.37822020451159
30
0
41
1
10
17.7050502639987
20
-2.2945710865605
30
0
41
1
10
17.2078086900625
20
-2.25922006555041
30
0
41
1
10
16.2126675374998
20
-2.20364636002751
30
0
41
1
10
15.7147683358688
20
-2.18341823925164
30
0
41
1
10
14.718249224831
20
-2.16007353083271
30
0
41
1
10
14.2198277996461
20
-2.15222324891639
30
0
41
1
10
12.724122295432
20
-2.13921039198019
30
0
41
1
10
11.7263810285422
20
-2.14500343078248
30
0
41
1
10
9.7297088478561
20
-2.18481738285044
30
0
41
1
10
8.7320425305503
20
-2.21881714596435
30
0
41
1
10
7.23679169009705
20
-2.2896783982786
30
0
41
1
10
6.73854556926415
20
-2.316604708352
30
0
41
1
10
5.99154716850416
20
-2.3617269005174
30
0
41
1
10
5.71151130270397
20
-2.37953336689932
30
0
41
1
10
5.43157527198883
20
-2.39830878337699
30
0
41
1
10
5.36936973138918
20
-2.40250492447376
30
0
41
1
10
5.33821742421833
20
-2.40442639500949
30
0
41
1
10
5.24575711014987
20
-2.41391278748804
30
0
41
1
10
5.18500935888372
20
-2.42358844589239
30
0
41
1
10
5.09707591369727
20
-2.44986783571164
30
0
41
1
10
5.06775225154706
20
-2.46069665393747
30
0
41
1
10
5.03015288994769
20
-2.48362928910578
30
0
41
1
10
5.01845726409036
20
-2.49259654891756
30
0
41
1
10
5.00616632721869
20
-2.50880717691632
30
0
41
1
10
5.00296098744337
20
-2.51480755131485
30
0
41
1
10
4.99970229879062
20
-2.52706597721956
30
0
41
1
10
4.99998721042934
20
-2.53342721592674
30
0
41
1
10
5.00012772094041
20
-2.59017364169392
30
0
41
1
10
5.00496247802968
20
-2.63979690600573
30
0
41
1
10
5.02329640104412
20
-2.73533732399758
30
0
41
1
10
5.03676132371689
20
-2.7814620630792
30
0
41
1
10
5.07152074749729
20
-2.87071485683262
30
0
41
1
10
5.09298986024905
20
-2.91410360700985
30
0
41
1
10
5.16674322745237
20
-3.03782260054351
30
0
41
1
10
5.22795640846061
20
-3.11190088257157
30
0
41
1
10
5.36767363194741
20
-3.24802643751408
30
0
41
1
10
5.44659048949956
20
-3.31012039115771
30
0
41
1
10
5.61295623620802
20
-3.42211857597405
30
0
41
1
10
5.70096274099384
20
-3.47257457243532
30
0
41
1
10
5.88411508510097
20
-3.56531718925322
30
0
41
1
10
5.97928329069541
20
-3.60757789929548
30
0
41
1
10
6.17526906003616
20
-3.68566604854286
30
0
41
1
10
6.27602185498222
20
-3.72142577766735
30
0
41
1
10
6.58126813402276
20
-3.8197185579138
30
0
41
1
10
6.79011190527268
20
-3.87399642772266
30
0
41
1
10
7.002557414997
20
-3.92080401362995
30
0
0
SPLINE
5
DD
100
AcDbEntity
8
1
62
256
6
ByLayer
370
18
48
1
60
0
100
AcDbSpline
70
4
71
3
72
14
73
10
40
0
40
0
40
0
40
0
40
0.350503255031841
40
0.350503255031841
40
0.578918502409673
40
0.578918502409673
40
0.807333749787505
40
0.807333749787505
40
1
40
1
40
1
40
1
41
1
10
42.0454530367676
20
-4.04530328179999
30
0
41
1
10
40.5026557123763
20
-4.05193508343453
30
0
41
1
10
38.9613355348961
20
-4.01691244835288
30
0
41
1
10
36.4146504912539
20
-3.89150470707247
30
0
41
1
10
35.4095558683929
20
-3.82470251356969
30
0
41
1
10
33.3977615116104
20
-3.65840249871326
30
0
41
1
10
32.3915725703269
20
-3.55897148892348
30
0
41
1
10
30.5372758001441
20
-3.34776726514667
30
0
41
1
10
29.6885155771982
20
-3.24029623206397
30
0
41
1
10
28.8399966893533
20
-3.12320347837306
30
0
0
SPLINE
5
DE
100
AcDbEntity
8
1
62
256
6
ByLayer
370
13
48
1
60
0
100
AcDbSpline
70
4
71
3
72
18
73
14
40
0
40
0
40
0
40
0
40
0.0218694349925476
40
0.0218694349925476
40
0.161602372850755
40
0.161602372850755
40
0.441068248567169
40
0.441068248567169
40
0.580801186425377
40
0.580801186425377
40
0.720534124283584
40
0.720534124283584
40
1
40
1
40
1
40
1
41
1
10
28.839996689773
20
-3.12320347843098
30
0
41
1
10
28.6825550033863
20
-3.10147705504977
30
0
41
1
10
28.5251216257733
20
-3.07941937152967
30
0
41
1
10
27.3618688894353
20
-2.91403537356524
30
0
41
1
10
26.3568045263948
20
-2.7579003918853
30
0
41
1
10
23.34217620028
20
-2.25562165816962
30
0
41
1
10
21.3328431995543
20
-1.87554710356025
30
0
41
1
10
18.3140826625952
20
-1.26612318839807
30
0
41
1
10
17.3082404839597
20
-1.05668910606738
30
0
41
1
10
15.2962343752877
20
-0.630540953762221
30
0
41
1
10
14.2897291693917
20
-0.413794827553289
30
0
41
1
10
11.2724290279864
20
0.238271932085553
30
0
41
1
10
9.26276083943486
20
0.675754064928384
30
0
41
1
10
7.25019635694753
20
1.09391840572331
30
0
0
SPLINE
5
DF
100
AcDbEntity
8
SK1
62
256
6
ByLayer
370
18
48
1
60
0
100
AcDbSpline
70
4
71
3
72
14
73
10
40
0
40
0
40
0
40
0
40
0.124999999999997
40
0.124999999999997
40
0.249999999999994
40
0.249999999999994
40
0.499999999999996
40
0.499999999999996
40
1
40
1
40
1
40
1
41
1
10
-38.85
20
1.12285461439518
30
0
41
1
10
-38.85
20
1.13371318175169
30
0
41
1
10
-38.8517550294789
20
1.1435147918784
30
0
41
1
10
-38.856850037783
20
1.16039124264316
30
0
41
1
10
-38.860229042666
20
1.16767027539433
30
0
41
1
10
-38.8713295599424
20
1.18657382123598
30
0
41
1
10
-38.880232760817
20
1.19583452834107
30
0
41
1
10
-38.9080223537462
20
1.2172599455827
30
0
41
1
10
-38.9287104230067
20
1.22377844687375
30
0
41
1
10
-38.95
20
1.22399167448145
30
0
0
SPLINE
5
E0
100
AcDbEntity
8
SK1
62
256
6
ByLayer
370
18
48
1
60
0
100
AcDbSpline
70
4
71
3
72
14
73
10
40
0
40
0
40
0
40
0
40
0.499999999999995
40
0.499999999999995
40
0.749999999999993
40
0.749999999999993
40
0.874999999999996
40
0.874999999999996
40
1
40
1
40
1
40
1
41
1
10
-38.9500000000001
20
-1.27596934117082
30
0
41
1
10
-38.9287236773014
20
-1.27618243602902
30
0
41
1
10
-38.9083417783865
20
-1.27029884197165
30
0
41
1
10
-38.8802247005681
20
-1.24930039124473
30
0
41
1
10
-38.8713199838247
20
-1.2402062933694
30
0
41
1
10
-38.8602568693579
20
-1.22165190057552
30
0
41
1
10
-38.8569025308531
20
-1.21456058539459
30
0
41
1
10
-38.8517422333227
20
-1.19765861761582
30
0
41
1
10
-38.8499999999999
20
-1.18785215214615
30
0
41
1
10
-38.8499999999999
20
-1.17710952000485
30
0
0
SPLINE
5
E1
100
AcDbEntity
8
SK1
62
256
6
ByLayer
370
18
48
1
60
0
100
AcDbSpline
70
4
71
3
72
10
73
6
40
0
40
0
40
0
40
0
40
0.5
40
0.5
40
1
40
1
40
1
40
1
41
1
10
-40
20
-1.26521057877665
30
0
41
1
10
-39.8300190474414
20
-1.26701923942062
30
0
41
1
10
-39.6561906797057
20
-1.26881599260094
30
0
41
1
10
-39.3052749053631
20
-1.27239941247888
30
0
41
1
10
-39.1280814481403
20
-1.27418575095771
30
0
41
1
10
-38.95
20
-1.27596934117074
30
0
0
SPLINE
5
E2
100
AcDbEntity
8
SK1
62
256
6
ByLayer
370
18
48
1
60
0
100
AcDbSpline
70
4
71
3
72
10
73
6
40
0
40
0
40
0
40
0
40
0.5
40
0.5
40
1
40
1
40
1
40
1
41
1
10
-38.95
20
-1.2239916744814
30
0
41
1
10
-39.1280972020104
20
-1.2257754224787
30
0
41
1
10
-39.3053188218282
20
-1.22756204658347
30
0
41
1
10
-39.6562575382119
20
-1.23114571083491
30
0
41
1
10
-39.8300754492832
20
-1.23294237636816
30
0
41
1
10
-40
20
-1.23475043687551
30
0
0
SPLINE
5
E3
100
AcDbEntity
8
SK1
62
256
6
ByLayer
370
18
48
1
60
0
100
AcDbSpline
70
4
71
3
72
10
73
6
40
0
40
0
40
0
40
0
40
0.5
40
0.5
40
1
40
1
40
1
40
1
41
1
10
-38.95
20
1.22399167448142
30
0
41
1
10
-39.1280972020104
20
1.2257754224787
30
0
41
1
10
-39.3053188218282
20
1.2275620465835
30
0
41
1
10
-39.6562575382119
20
1.23114571083491
30
0
41
1
10
-39.8300754492832
20
1.23294237636816
30
0
41
1
10
-40
20
1.23475043687551
30
0
0
SPLINE
5
E4
100
AcDbEntity
8
SK1
62
256
6
ByLayer
370
18
48
1
60
0
100
AcDbSpline
70
4
71
3
72
14
73
10
40
0
40
0
40
0
40
0
40
0.125000000000002
40
0.125000000000002
40
0.250000000000005
40
0.250000000000005
40
0.500000000000003
40
0.500000000000003
40
1
40
1
40
1
40
1
41
1
10
-38.85
20
-1.12285461439515
30
0
41
1
10
-38.85
20
-1.13371318175169
30
0
41
1
10
-38.8517550294789
20
-1.14351479187837
30
0
41
1
10
-38.856850037783
20
-1.16039124264316
30
0
41
1
10
-38.8602290426661
20
-1.16767027539433
30
0
41
1
10
-38.8713295599424
20
-1.18657382123598
30
0
41
1
10
-38.880232760817
20
-1.19583452834104
30
0
41
1
10
-38.9080223537462
20
-1.2172599455827
30
0
41
1
10
-38.9287104230067
20
-1.22377844687372
30
0
41
1
10
-38.95
20
-1.22399167448145
30
0
0
LINE
5
76
100
AcDbEntity
8
81
62
256
6
ByLayer
370
18
48
1
60
0
100
AcDbLine
10
105
20
0
30
0
11
110
21
0
31
0
39
0
210
0
220
0
230
1
0
LINE
5
77
100
AcDbEntity
8
1
62
256
6
ByLayer
370
18
48
1
60
0
100
AcDbLine
10
7.002551
20
4.239487
30
0
11
0.350219
21
4.235329
31
0
39
0
210
0
220
0
230
1
0
LINE
5
79
100
AcDbEntity
8
1
62
256
6
ByLayer
370
18
48
1
60
0
100
AcDbLine
10
41.163304
20
4.260837
30
0
11
38.450745
21
4.259142
31
0
39
0
210
0
220
0
230
1
0
LINE
5
7A
100
AcDbEntity
8
1
62
256
6
ByLayer
370
18
48
1
60
0
100
AcDbLine
10
99.66383
20
4.2974
30
0
11
96.977438
21
4.295721
31
0
39
0
210
0
220
0
230
1
0
LINE
5
7B
100
AcDbEntity
8
1
62
256
6
ByLayer
370
18
48
1
60
0
100
AcDbLine
10
96.977438
20
-4.295721
30
0
11
99.66383
21
-4.2974
31
0
39
0
210
0
220
0
230
1
0
LINE
5
7C
100
AcDbEntity
8
1
62
256
6
ByLayer
370
18
48
1
60
0
100
AcDbLine
10
38.450745
20
-4.259142
30
0
11
41.163304
21
-4.260837
31
0
39
0
210
0
220
0
230
1
0
LINE
5
7D
100
AcDbEntity
8
1
62
256
6
ByLayer
370
18
48
1
60
0
100
AcDbLine
10
0.350219
20
-4.235329
30
0
11
7.002551
21
-4.239487
31
0
39
0
210
0
220
0
230
1
0
LINE
5
7E
100
AcDbEntity
8
SK1
62
256
6
ByLayer
370
18
48
1
60
0
100
AcDbLine
10
-38.845299
20
5
30
0
11
-40
21
3
31
0
39
0
210
0
220
0
230
1
0
LINE
5
80
100
AcDbEntity
8
SK1
62
256
6
ByLayer
370
18
48
1
60
0
100
AcDbLine
10
-40
20
-3
30
0
11
-38.845299
21
-5
31
0
39
0
210
0
220
0
230
1
0
LINE
5
81
100
AcDbEntity
8
SK1
62
256
6
ByLayer
370
18
48
1
60
0
100
AcDbLine
10
0
20
5
30
0
11
-38.845299
21
5
31
0
39
0
210
0
220
0
230
1
0
LINE
5
82
100
AcDbEntity
8
SK1
62
256
6
ByLayer
370
18
48
1
60
0
100
AcDbLine
10
-38.845299
20
-5
30
0
11
0
21
-5
31
0
39
0
210
0
220
0
230
1
0
LINE
5
83
100
AcDbEntity
8
SK4
62
256
6
ByLayer
370
18
48
0.05
60
0
100
AcDbLine
10
110
20
0
30
0
11
-45
21
0
31
0
39
0
210
0
220
0
230
1
0
LINE
5
85
100
AcDbEntity
8
4
62
256
6
ByLayer
370
18
48
0.05
60
0
100
AcDbLine
10
105
20
0
30
0
11
0
21
0
31
0
39
0
210
0
220
0
230
1
0
LINE
5
87
100
AcDbEntity
8
80
62
256
6
ByLayer
370
18
48
1
60
0
100
AcDbLine
10
0
20
0
30
0
11
-5
21
0
31
0
39
0
210
0
220
0
230
1
0
LINE
5
88
100
AcDbEntity
8
1
62
256
6
ByLayer
370
18
48
1
60
0
100
AcDbLine
10
103.346803
20
-3.533889
30
0
11
103.577421
21
-4.046441
31
0
39
0
210
0
220
0
230
1
0
LINE
5
89
100
AcDbEntity
8
1
62
256
6
ByLayer
370
18
48
1
60
0
100
AcDbLine
10
104.997187
20
0.036894
30
0
11
104.616785
21
1.296248
31
0
39
0
210
0
220
0
230
1
0
LINE
5
8A
100
AcDbEntity
8
1
62
256
6
ByLayer
370
18
48
1
60
0
100
AcDbLine
10
104.997187
20
-0.036894
30
0
11
104.616785
21
-1.296248
31
0
39
0
210
0
220
0
230
1
0
LINE
5
8B
100
AcDbEntity
8
1
62
256
6
ByLayer
370
18
48
1
60
0
100
AcDbLine
10
101.897429
20
-2.671514
30
0
11
104.882306
21
-0.177572
31
0
39
0
210
0
220
0
230
1
0
LINE
5
8C
100
AcDbEntity
8
1
62
256
6
ByLayer
370
18
48
1
60
0
100
AcDbLine
10
103.564
20
-3.004689
30
0
11
103.349809
21
-3.464023
31
0
39
0
210
0
220
0
230
1
0
LINE
5
8D
100
AcDbEntity
8
1
62
256
6
ByLayer
370
18
48
1
60
0
100
AcDbLine
10
104.882306
20
-0.177572
30
0
11
104.177609
21
-1.688799
31
0
39
0
210
0
220
0
230
1
0
LINE
5
8E
100
AcDbEntity
8
1
62
256
6
ByLayer
370
18
48
1
60
0
100
AcDbLine
10
104.882306
20
-0.177572
30
0
11
104.985104
21
-0.003469
31
0
39
0
210
0
220
0
230
1
0
LINE
5
8F
100
AcDbEntity
8
1
62
256
6
ByLayer
370
13
48
1
60
0
100
AcDbLine
10
101.785695
20
1.503431
30
0
11
104.985104
21
-0.003469
31
0
39
0
210
0
220
0
230
1
0
LINE
5
90
100
AcDbEntity
8
1
62
256
6
ByLayer
370
13
48
1
60
0
100
AcDbLine
10
101.811468
20
1.537346
30
0
11
104.997187
21
0.036894
31
0
39
0
210
0
220
0
230
1
0
LINE
5
91
100
AcDbEntity
8
1
62
256
6
ByLayer
370
13
48
1
60
0
100
AcDbLine
10
103.722538
20
-3.254687
30
0
11
103.346803
21
-3.533889
31
0
39
0
210
0
220
0
230
1
0
LINE
5
92
100
AcDbEntity
8
1
62
256
6
ByLayer
370
13
48
1
60
0
100
AcDbLine
10
103.735403
20
-3.177496
30
0
11
103.349809
21
-3.464023
31
0
39
0
210
0
220
0
230
1
0
LINE
5
93
100
AcDbEntity
8
1
62
256
6
ByLayer
370
13
48
1
60
0
100
AcDbLine
10
0.350219
20
4.235329
30
0
11
0.350219
21
-4.235329
31
0
39
0
210
0
220
0
230
1
0
LINE
5
94
100
AcDbEntity
8
1
62
256
6
ByLayer
370
18
48
1
60
0
100
AcDbLine
10
105
20
-0.0284
30
0
11
105
21
0.0284
31
0
39
0
210
0
220
0
230
1
0
LINE
5
95
100
AcDbEntity
8
SK1
62
256
6
ByLayer
370
18
48
1
60
0
100
AcDbLine
10
-40
20
-3
30
0
11
-40
21
-1.265211
31
0
39
0
210
0
220
0
230
1
0
LINE
5
96
100
AcDbEntity
8
SK1
62
256
6
ByLayer
370
18
48
1
60
0
100
AcDbLine
10
-40
20
-1.23475
30
0
11
-40
21
-1.265211
31
0
39
0
210
0
220
0
230
1
0
LINE
5
97
100
AcDbEntity
8
SK1
62
256
6
ByLayer
370
18
48
1
60
0
100
AcDbLine
10
-38.85
20
-1.17711
30
0
11
-38.85
21
1.122855
31
0
39
0
210
0
220
0
230
1
0
LINE
5
98
100
AcDbEntity
8
SK1
62
256
6
ByLayer
370
13
48
1
60
0
100
AcDbLine
10
-38.95
20
-1.223992
30
0
11
-38.95
21
-1.275969
31
0
39
0
210
0
220
0
230
1
0
LINE
5
99
100
AcDbEntity
8
SK1
62
256
6
ByLayer
370
18
48
1
60
0
100
AcDbLine
10
-40
20
3
30
0
11
-40
21
1.23475
31
0
39
0
210
0
220
0
230
1
0
LINE
5
9A
100
AcDbEntity
8
SK1
62
256
6
ByLayer
370
18
48
1
60
0
100
AcDbLine
10
-38.845299
20
5
30
0
11
-38.845299
21
-5
31
0
39
0
210
0
220
0
230
1
0
LINE
5
9B
100
AcDbEntity
8
SK1
62
256
6
ByLayer
370
18
48
1
60
0
100
AcDbLine
10
0
20
5
30
0
11
0
21
-5
31
0
39
0
210
0
220
0
230
1
0
MTEXT
5
E5
100
AcDbEntity
8
SK6
62
256
6
ByLayer
370
13
48
1
60
0
100
AcDbMText
10
34.629169
20
36.682694
30
0
210
0
220
0
230
1
1
\W0.7276;860.1-0860-069A1-NM H10F
40
3.5
41
0
44
1.084337
50
0
71
8
72
5
7
iso_b_vert
0
DIMENSION
5
F2
100
AcDbEntity
8
SK2
62
256
6
ByLayer
370
13
48
1
60
0
100
AcDbDimension
2
DimnDraft3D1
10
103.8478
20
-17.102503
30
0
11
50.606766
21
-17.102503
31
0
70
32
71
5
72
1
41
1
210
0
220
0
230
1
3
Standard
100
AcDbAlignedDimension
13
0
23
-1.5875
33
0
14
103.8478
24
-5.8875
34
0
50
0
100
AcDbRotatedDimension
1001
ACAD
1000
DSTYLE
1002
{
1070
   279
1070
     0
1070
   172
1070
     1
1070
   173
1070
     1
1070
   340
1005
E6
1070
   271
1070
     1
1070
   272
1070
     2
1070
    77
1070
     1
1070
    73
1070
     0
1070
   171
1070
     3
1070
   274
1070
     4
1070
   177
1070
    35
1070
   176
1070
    35
1070
   178
1070
    35
1070
    48
1040
-0.005
1070
    41
1041
3.5
1070
   147
1041
1.75
1070
    42
1041
1.5875
1070
    44
1041
2.0
1070
   140
1041
3.5
1070
   343
1005
0
1070
   344
1005
0
1002
}
0
DIMENSION
5
FC
100
AcDbEntity
8
SK2
62
256
6
ByLayer
370
13
48
1
60
0
100
AcDbDimension
2
DimnDraft3D2
10
105
20
-38.692985
30
0
11
32.6891
21
-38.692985
31
0
70
32
71
5
72
1
41
1
210
0
220
0
230
1
3
Standard
100
AcDbAlignedDimension
13
-40
23
-6.5875
33
0
14
105
24
-1.5875
34
0
50
0
100
AcDbRotatedDimension
1001
ACAD
1000
DSTYLE
1002
{
1070
   279
1070
     0
1070
   172
1070
     1
1070
   173
1070
     1
1070
   340
1005
E6
1070
   271
1070
     1
1070
   272
1070
     2
1070
    77
1070
     1
1070
    73
1070
     0
1070
   171
1070
     3
1070
   274
1070
     4
1070
   177
1070
    35
1070
   176
1070
    35
1070
   178
1070
    35
1070
    48
1040
-0.005
1070
    41
1041
3.5
1070
   147
1041
1.75
1070
    42
1041
1.5875
1070
    44
1041
2.0
1070
   140
1041
3.5
1070
   343
1005
0
1070
   344
1005
0
1002
}
0
DIMENSION
5
106
100
AcDbEntity
8
SK2
62
256
6
ByLayer
370
13
48
1
60
0
100
AcDbDimension
2
DimnDraft3D3
10
105
20
15.909119
30
0
11
70.025
21
15.909119
31
0
70
32
71
5
72
1
41
1
210
0
220
0
230
1
3
Standard
100
AcDbAlignedDimension
13
35.05
23
5.8875
33
0
14
105
24
1.5875
34
0
50
0
100
AcDbRotatedDimension
1001
ACAD
1000
DSTYLE
1002
{
1070
   279
1070
     0
1070
   172
1070
     1
1070
   173
1070
     1
1070
   340
1005
E6
1070
   271
1070
     2
1070
   272
1070
     2
1070
    77
1070
     1
1070
    73
1070
     0
1070
   171
1070
     3
1070
   274
1070
     4
1070
   177
1070
    35
1070
   176
1070
    35
1070
   178
1070
    35
1070
    48
1040
-0.005
1070
    41
1041
3.5
1070
   147
1041
1.75
1070
    42
1041
1.5875
1070
    44
1041
2.0
1070
   140
1041
3.5
1070
   343
1005
0
1070
   344
1005
0
1002
}
0
DIMENSION
5
110
100
AcDbEntity
8
SK2
62
256
6
ByLayer
370
13
48
1
60
0
100
AcDbDimension
2
DimnDraft3D4
10
103.8478
20
-17.102503
30
0
11
114.981425
21
-17.102503
31
0
70
32
71
5
72
1
41
1
210
0
220
0
230
1
3
Standard
100
AcDbAlignedDimension
13
105
23
-1.5875
33
0
14
103.8478
24
-5.8875
34
0
50
0
100
AcDbRotatedDimension
1001
ACAD
1000
DSTYLE
1002
{
1070
   279
1070
     0
1070
   172
1070
     1
1070
   173
1070
     1
1070
   340
1005
E6
1070
   271
1070
     2
1070
   272
1070
     2
1070
    77
1070
     1
1070
    73
1070
     0
1070
   171
1070
     3
1070
   274
1070
     4
1070
   177
1070
    35
1070
   176
1070
    35
1070
   178
1070
    35
1070
    48
1040
-0.005
1070
    41
1041
3.5
1070
   147
1041
1.75
1070
    42
1041
1.5875
1070
    44
1041
2.0
1070
   140
1041
3.5
1070
   343
1005
0
1070
   344
1005
0
1002
}
0
DIMENSION
5
11A
100
AcDbEntity
8
SK2
62
256
6
ByLayer
370
13
48
1
60
0
100
AcDbDimension
2
DimnDraft3D5
10
103.8478
20
-28.5
30
0
11
31.3478
21
-28.5
31
0
70
32
71
5
72
1
41
1
210
0
220
0
230
1
3
Standard
100
AcDbAlignedDimension
13
-40
23
-6.5875
33
0
14
103.8478
24
-5.8875
34
0
50
0
100
AcDbRotatedDimension
1001
ACAD
1000
DSTYLE
1002
{
1070
   279
1070
     0
1070
   172
1070
     1
1070
   173
1070
     1
1070
   340
1005
E6
1070
   271
1070
     1
1070
   272
1070
     2
1070
    77
1070
     1
1070
    73
1070
     0
1070
   171
1070
     3
1070
   274
1070
     4
1070
   177
1070
    35
1070
   176
1070
    35
1070
   178
1070
    35
1070
    48
1040
-0.005
1070
    41
1041
3.5
1070
   147
1041
1.75
1070
    42
1041
1.5875
1070
    44
1041
2.0
1070
   140
1041
3.5
1070
   343
1005
0
1070
   344
1005
0
1002
}
0
DIMENSION
5
125
100
AcDbEntity
8
SK2
62
256
6
ByLayer
370
13
48
1
60
0
100
AcDbDimension
2
DimnDraft3D6
10
-50.625163
20
5
30
0
11
-51.250163
21
23.47418
31
0
70
33
71
5
72
1
41
1
210
0
220
0
230
1
3
Standard
100
AcDbAlignedDimension
13
-41.5875
23
-5
33
0
14
-41.5875
24
5
34
0
1001
ACAD
1000
DSTYLE
1002
{
1070
   279
1070
     0
1070
    74
1070
     0
1070
   173
1070
     1
1070
   340
1005
E6
1070
   271
1070
     2
1070
   272
1070
     2
1070
    77
1070
     1
1070
    73
1070
     0
1070
   171
1070
     3
1070
   274
1070
     4
1070
   177
1070
    35
1070
   176
1070
    35
1070
   178
1070
    35
1070
    48
1040
-0.005
1070
    41
1041
3.5
1070
   147
1041
1.75
1070
    42
1041
1.5875
1070
    44
1041
2.0
1070
   140
1041
3.5
1070
   343
1005
0
1070
   344
1005
0
1002
}
0
DIMENSION
5
130
100
AcDbEntity
8
2
62
256
6
ByLayer
370
13
48
1
60
0
100
AcDbDimension
2
DimnDraft3D7
10
119.083343
20
4.3
30
0
11
114.458343
21
21.367266
31
0
70
33
71
5
72
1
41
1
210
0
220
0
230
1
3
Standard
100
AcDbAlignedDimension
13
105.4353
23
-4.3
33
0
14
105.4353
24
4.3
34
0
1001
ACAD
1000
DSTYLE
1002
{
1070
   279
1070
     0
1070
    74
1070
     0
1070
   173
1070
     1
1070
   340
1005
E6
1070
   271
1070
     1
1070
   272
1070
     2
1070
    77
1070
     1
1070
    73
1070
     0
1070
   171
1070
     3
1070
   274
1070
     4
1070
   177
1070
    35
1070
   176
1070
    35
1070
   178
1070
    35
1070
    48
1040
-0.005
1070
    41
1041
3.5
1070
   147
1041
1.75
1070
    42
1041
1.5875
1070
    44
1041
2.0
1070
   140
1041
3.5
1070
   343
1005
0
1070
   344
1005
0
1002
}
0
ENDSEC
0
SECTION
2
OBJECTS
0
DICTIONARY
5
19b
330
0
100
AcDbDictionary
280
0
281
1
3
ACAD_GROUP
350
19c
3
ACAD_MLINESTYLE
350
19d
0
DICTIONARY
5
19c
330
0
100
AcDbDictionary
280
0
281
1
0
DICTIONARY
5
19d
330
0
100
AcDbDictionary
280
0
281
1
3
Standard
350
18
0
MLINESTYLE
5
18
330
19d
100
AcDbMlineStyle
2
Standard
70
0
3

62
256
51
90
52
90
71
2
49
-0.5
62
256
6
ByLayer
49
0.5
62
256
6
ByLayer
0
RASTERVARIABLES
5
189
330

100
AcDbRasterVariables
90
0
70
1
71
1
72
1
0
ENDSEC
0
EOF
