0
SECTION
2
HEADER
9
$ACADVER
1
AC1015
9
$DWGCODEPAGE
3
ANSI_1252
9
$HANDSEED
5
19a
9
$ANGBASE
50
0
9
$ANGDIR
70
0
9
$ATTMODE
70
1
9
$AUNITS
70
0
9
$AUPREC
70
0
9
$CECOLOR
62
256
9
$CELTSCALE
40
1
9
$CELTYPE
6
ByLayer
9
$CELWEIGHT
370
18
9
$CLAYER
8
0
9
$CMLJUST
70
0
9
$CMLSCALE
40
1
9
$CMLSTYLE
2
Standard
9
$DIMSTYLE
2
Standard
9
$TEXTSIZE
40
0.2
9
$TEXTSTYLE
7
Standard
9
$LUNITS
70
2
9
$LUPREC
70
4
9
$EXTNAMES
290
1
9
$INSUNITS
70
4
9
$LTSCALE
40
1
9
$LWDISPLAY
290
1
9
$PDMODE
70
0
9
$PDSIZE
40
0
9
$PLINEGEN
70
0
0
ENDSEC
0
SECTION
2
CLASSES
0
CLASS
1
RASTERVARIABLES
2
AcDbRasterVariables
3
ISM
90
0
280
0
281
0
0
ENDSEC
0
SECTION
2
TABLES
0
TABLE
2
VPORT
5
190
100
AcDbSymbolTable
0
VPORT
5
1
100
AcDbSymbolTableRecord
100
AcDbViewportTableRecord
2
*Active
70
0
10
0
20
0
11
1
21
1
12
-1
22
1
13
0
23
0
14
0.5
24
0.5
15
10
25
10
16
0
26
0
36
1
17
0
27
0
37
0
0
ENDTAB
0
TABLE
2
LTYPE
5
191
100
AcDbSymbolTable
0
LTYPE
5
14
100
AcDbSymbolTableRecord
100
AcDbLinetypeTableRecord
70
0
2
ByBlock
3

72
65
73
0
40
0
0
LTYPE
5
15
100
AcDbSymbolTableRecord
100
AcDbLinetypeTableRecord
70
0
2
ByLayer
3

72
65
73
0
40
0
0
LTYPE
5
16
100
AcDbSymbolTableRecord
100
AcDbLinetypeTableRecord
70
0
2
CONTINUOUS
3
Solid line
72
65
73
0
40
0
0
LTYPE
5
6A
100
AcDbSymbolTableRecord
100
AcDbLinetypeTableRecord
70
0
2
CENTER
3
____ _ ____ _ ____ _ ____
72
65
73
4
40
47.5
49
22
74
0
49
-8.5
74
0
49
8.5
74
0
49
-8.5
74
0
0
LTYPE
5
6B
100
AcDbSymbolTableRecord
100
AcDbLinetypeTableRecord
70
0
2
DASHED
3
__ __ __ __ __ __ __ __ __
72
65
73
2
40
25.72
49
12.86
74
0
49
-12.86
74
0
0
ENDTAB
0
TABLE
2
LAYER
5
192
100
AcDbSymbolTable
0
LAYER
5
10
100
AcDbSymbolTableRecord
100
AcDbLayerTableRecord
2
0
70
0
62
7
6
CONTINUOUS
290
1
370
-3
390
0
0
LAYER
5
6D
100
AcDbSymbolTableRecord
100
AcDbLayerTableRecord
2
81
70
0
62
-3
6
CONTINUOUS
290
1
370
-3
390
0
0
LAYER
5
6F
100
AcDbSymbolTableRecord
100
AcDbLayerTableRecord
2
80
70
0
62
-6
6
CONTINUOUS
290
1
370
-3
390
0
0
LAYER
5
74
100
AcDbSymbolTableRecord
100
AcDbLayerTableRecord
2
2
70
0
62
7
6
CONTINUOUS
290
1
370
-3
390
0
0
LAYER
5
78
100
AcDbSymbolTableRecord
100
AcDbLayerTableRecord
2
1
70
0
62
4
6
CONTINUOUS
290
1
370
-3
390
0
0
LAYER
5
84
100
AcDbSymbolTableRecord
100
AcDbLayerTableRecord
2
4
70
0
62
-2
6
CENTER
290
1
370
-3
390
0
0
LAYER
5
17c
100
AcDbSymbolTableRecord
100
AcDbLayerTableRecord
2
SK2
70
0
62
7
6
CONTINUOUS
290
1
370
-3
390
0
0
LAYER
5
17d
100
AcDbSymbolTableRecord
100
AcDbLayerTableRecord
2
SK1
70
0
62
4
6
CONTINUOUS
290
1
370
-3
390
0
0
LAYER
5
17e
100
AcDbSymbolTableRecord
100
AcDbLayerTableRecord
2
SK4
70
0
62
2
6
CENTER
290
1
370
-3
390
0
0
LAYER
5
17f
100
AcDbSymbolTableRecord
100
AcDbLayerTableRecord
2
SK6
70
0
62
5
6
CONTINUOUS
290
1
370
-3
390
0
0
ENDTAB
0
TABLE
2
STYLE
5
193
100
AcDbSymbolTable
0
STYLE
5
11
100
AcDbSymbolTableRecord
100
AcDbTextStyleTableRecord
2
Standard
3
txt
70
0
71
0
40
0
41
1
42
0
50
0
0
STYLE
5
D8
100
AcDbSymbolTableRecord
100
AcDbTextStyleTableRecord
2
iso_b_vert
3
simplex.shx
70
0
71
0
40
0
41
1
42
0
50
0
0
STYLE
5
D9
100
AcDbSymbolTableRecord
100
AcDbTextStyleTableRecord
2
DWGDirectTextStyle
3
simplex
70
0
71
0
40
0
41
1
42
0
50
0
0
ENDTAB
0
TABLE
2
DIMSTYLE
5
194
100
AcDbSymbolTable
100
AcDbDimStyleTable
0
DIMSTYLE
105
27
100
AcDbSymbolTableRecord
100
AcDbDimStyleTableRecord
2
Standard
70
0
3
<>
41
0.18
42
0.0625
44
0.18
140
0.18
147
0.09
73
0
74
0
77
1
271
2
275
0
278
52
280
0
340
11
0
ENDTAB
0
TABLE
2
VIEW
5
195
100
AcDbSymbolTable
0
ENDTAB
0
TABLE
2
UCS
5
196
100
AcDbSymbolTable
0
ENDTAB
0
TABLE
2
APPID
5
197
100
AcDbSymbolTable
0
APPID
5
12
100
AcDbSymbolTableRecord
100
AcDbRegAppTableRecord
2
ACAD
70
0
0
ENDTAB
0
TABLE
2
BLOCK_RECORD
5
198
100
AcDbSymbolTable
0
BLOCK_RECORD
5
1F
100
AcDbSymbolTableRecord
100
AcDbBlockTableRecord
2
*Model_Space
340
0
70
0
0
BLOCK_RECORD
5
1B
100
AcDbSymbolTableRecord
100
AcDbBlockTableRecord
2
*Paper_Space
340
0
70
0
0
BLOCK_RECORD
5
23
100
AcDbSymbolTableRecord
100
AcDbBlockTableRecord
2
*Paper_Space0
340
0
70
0
0
BLOCK_RECORD
5
DB
100
AcDbSymbolTableRecord
100
AcDbBlockTableRecord
2
DimnDraft3D1
340
0
70
0
0
BLOCK_RECORD
5
E5
100
AcDbSymbolTableRecord
100
AcDbBlockTableRecord
2
DimnDraft3D2
340
0
70
0
0
BLOCK_RECORD
5
EF
100
AcDbSymbolTableRecord
100
AcDbBlockTableRecord
2
DimnDraft3D3
340
0
70
0
0
BLOCK_RECORD
5
F9
100
AcDbSymbolTableRecord
100
AcDbBlockTableRecord
2
DimnDraft3D4
340
0
70
0
0
BLOCK_RECORD
5
103
100
AcDbSymbolTableRecord
100
AcDbBlockTableRecord
2
DimnDraft3D5
340
0
70
0
0
BLOCK_RECORD
5
10D
100
AcDbSymbolTableRecord
100
AcDbBlockTableRecord
2
DimnDraft3D6
340
0
70
0
0
BLOCK_RECORD
5
118
100
AcDbSymbolTableRecord
100
AcDbBlockTableRecord
2
DimnDraft3D7
340
0
70
0
0
ENDTAB
0
ENDSEC
0
SECTION
2
BLOCKS
0
BLOCK
5
20
100
AcDbEntity
8
0
100
AcDbBlockBegin
2
*Model_Space
70
0
10
0
20
0
30
0
3
*Model_Space
0
ENDBLK
5
21
100
AcDbEntity
8
0
100
AcDbBlockEnd
0
BLOCK
5
1C
100
AcDbEntity
8
0
100
AcDbBlockBegin
2
*Paper_Space
70
0
10
0
20
0
30
0
3
*Paper_Space
0
ENDBLK
5
1D
100
AcDbEntity
8
0
100
AcDbBlockEnd
0
BLOCK
5
24
100
AcDbEntity
8
0
100
AcDbBlockBegin
2
*Paper_Space0
70
0
10
0
20
0
30
0
3
*Paper_Space0
0
ENDBLK
5
25
100
AcDbEntity
8
0
100
AcDbBlockEnd
0
BLOCK
5
E2
100
AcDbEntity
8
0
100
AcDbBlockBegin
2
DimnDraft3D1
70
0
10
0
20
0
30
0
3
DimnDraft3D1
0
MTEXT
5
DC
100
AcDbEntity
8
SK2
62
256
6
ByLayer
370
13
48
1
60
0
100
AcDbMText
10
16.820144
20
-15.427503
30
0
210
0
220
0
230
1
1
\W0.7369;42,1
40
3.5
41
0
44
1.084337
50
0
71
7
72
5
7
iso_b_vert
0
LINE
5
DD
100
AcDbEntity
8
SK2
62
256
6
ByLayer
370
13
48
1
60
0
100
AcDbLine
10
0
20
-1.5875
30
0
11
0
21
-18.302503
31
0
39
0
210
0
220
0
230
1
0
LINE
5
DE
100
AcDbEntity
8
SK2
62
256
6
ByLayer
370
13
48
1
60
0
100
AcDbLine
10
42.0622
20
-5.0875
30
0
11
42.0622
21
-18.302503
31
0
39
0
210
0
220
0
230
1
0
LINE
5
DF
100
AcDbEntity
8
SK2
62
256
6
ByLayer
370
13
48
1
60
0
100
AcDbLine
10
0
20
-16.302503
30
0
11
42.0622
21
-16.302503
31
0
39
0
210
0
220
0
230
1
0
SOLID
5
E0
100
AcDbEntity
8
SK2
62
256
6
ByLayer
370
13
48
1
60
0
100
AcDbTrace
10
0
20
-16.302503
30
0
11
3.499998
21
-15.841719
31
0
12
3.500002
22
-16.763287
32
0
13
0
23
-16.302503
33
0
39
0
210
0
220
0
230
1
0
SOLID
5
E1
100
AcDbEntity
8
SK2
62
256
6
ByLayer
370
13
48
1
60
0
100
AcDbTrace
10
42.0622
20
-16.302503
30
0
11
38.562202
21
-16.763287
31
0
12
38.562198
22
-15.841719
32
0
13
42.0622
23
-16.302503
33
0
39
0
210
0
220
0
230
1
0
ENDBLK
5
E3
100
AcDbEntity
8
0
100
AcDbBlockEnd
0
BLOCK
5
EC
100
AcDbEntity
8
0
100
AcDbBlockBegin
2
DimnDraft3D2
70
0
10
0
20
0
30
0
3
DimnDraft3D2
0
MTEXT
5
E6
100
AcDbEntity
8
SK2
62
256
6
ByLayer
370
13
48
1
60
0
100
AcDbMText
10
0.762711
20
-36.817985
30
0
210
0
220
0
230
1
1
\W0.7150;79,0
40
3.5
41
0
44
1.084337
50
0
71
7
72
5
7
iso_b_vert
0
LINE
5
E7
100
AcDbEntity
8
SK2
62
256
6
ByLayer
370
13
48
1
60
0
100
AcDbLine
10
-36
20
-5.5875
30
0
11
-36
21
-39.692985
31
0
39
0
210
0
220
0
230
1
0
LINE
5
E8
100
AcDbEntity
8
SK2
62
256
6
ByLayer
370
13
48
1
60
0
100
AcDbLine
10
43
20
-1.5875
30
0
11
43
21
-39.692985
31
0
39
0
210
0
220
0
230
1
0
LINE
5
E9
100
AcDbEntity
8
SK2
62
256
6
ByLayer
370
13
48
1
60
0
100
AcDbLine
10
-36
20
-37.692985
30
0
11
43
21
-37.692985
31
0
39
0
210
0
220
0
230
1
0
SOLID
5
EA
100
AcDbEntity
8
SK2
62
256
6
ByLayer
370
13
48
1
60
0
100
AcDbTrace
10
-36
20
-37.692985
30
0
11
-32.500002
21
-37.232202
31
0
12
-32.499998
22
-38.153769
32
0
13
-36
23
-37.692985
33
0
39
0
210
0
220
0
230
1
0
SOLID
5
EB
100
AcDbEntity
8
SK2
62
256
6
ByLayer
370
13
48
1
60
0
100
AcDbTrace
10
43
20
-37.692985
30
0
11
39.500002
21
-38.153769
31
0
12
39.499998
22
-37.232202
32
0
13
43
23
-37.692985
33
0
39
0
210
0
220
0
230
1
0
ENDBLK
5
ED
100
AcDbEntity
8
0
100
AcDbBlockEnd
0
BLOCK
5
F6
100
AcDbEntity
8
0
100
AcDbBlockBegin
2
DimnDraft3D3
70
0
10
0
20
0
30
0
3
DimnDraft3D3
0
MTEXT
5
F0
100
AcDbEntity
8
SK2
62
256
6
ByLayer
370
13
48
1
60
0
100
AcDbMText
10
28.023816
20
15.984119
30
0
210
0
220
0
230
1
1
\W0.6713;21,93
40
3.5
41
0
44
1.084337
50
0
71
7
72
5
7
iso_b_vert
0
LINE
5
F1
100
AcDbEntity
8
SK2
62
256
6
ByLayer
370
13
48
1
60
0
100
AcDbLine
10
21.07
20
5.0875
30
0
11
21.07
21
17.109119
31
0
39
0
210
0
220
0
230
1
0
LINE
5
F2
100
AcDbEntity
8
SK2
62
256
6
ByLayer
370
13
48
1
60
0
100
AcDbLine
10
43
20
1.5875
30
0
11
43
21
17.109119
31
0
39
0
210
0
220
0
230
1
0
LINE
5
F3
100
AcDbEntity
8
SK2
62
256
6
ByLayer
370
13
48
1
60
0
100
AcDbLine
10
21.07
20
15.109119
30
0
11
43
21
15.109119
31
0
39
0
210
0
220
0
230
1
0
SOLID
5
F4
100
AcDbEntity
8
SK2
62
256
6
ByLayer
370
13
48
1
60
0
100
AcDbTrace
10
21.07
20
15.109119
30
0
11
24.569998
21
15.569903
31
0
12
24.570002
22
14.648335
32
0
13
21.07
23
15.109119
33
0
39
0
210
0
220
0
230
1
0
SOLID
5
F5
100
AcDbEntity
8
SK2
62
256
6
ByLayer
370
13
48
1
60
0
100
AcDbTrace
10
43
20
15.109119
30
0
11
39.500002
21
14.648335
31
0
12
39.499998
22
15.569903
32
0
13
43
23
15.109119
33
0
39
0
210
0
220
0
230
1
0
ENDBLK
5
F7
100
AcDbEntity
8
0
100
AcDbBlockEnd
0
BLOCK
5
100
100
AcDbEntity
8
0
100
AcDbBlockBegin
2
DimnDraft3D4
70
0
10
0
20
0
30
0
3
DimnDraft3D4
0
MTEXT
5
FA
100
AcDbEntity
8
SK2
62
256
6
ByLayer
370
13
48
1
60
0
100
AcDbMText
10
49.656425
20
-15.427503
30
0
210
0
220
0
230
1
1
\W0.7383;0,94
40
3.5
41
0
44
1.084337
50
0
71
7
72
5
7
iso_b_vert
0
LINE
5
FB
100
AcDbEntity
8
SK2
62
256
6
ByLayer
370
13
48
1
60
0
100
AcDbLine
10
43
20
-1.5875
30
0
11
43
21
-18.302503
31
0
39
0
210
0
220
0
230
1
0
LINE
5
FC
100
AcDbEntity
8
SK2
62
256
6
ByLayer
370
13
48
1
60
0
100
AcDbLine
10
42.0622
20
-5.0875
30
0
11
42.0622
21
-18.302503
31
0
39
0
210
0
220
0
230
1
0
LINE
5
FD
100
AcDbEntity
8
SK2
62
256
6
ByLayer
370
13
48
1
60
0
100
AcDbLine
10
33.3122
20
-16.302503
30
0
11
57.181425
21
-16.302503
31
0
39
0
210
0
220
0
230
1
0
SOLID
5
FE
100
AcDbEntity
8
SK2
62
256
6
ByLayer
370
13
48
1
60
0
100
AcDbTrace
10
43
20
-16.302503
30
0
11
46.499998
21
-15.841719
31
0
12
46.500002
22
-16.763287
32
0
13
43
23
-16.302503
33
0
39
0
210
0
220
0
230
1
0
SOLID
5
FF
100
AcDbEntity
8
SK2
62
256
6
ByLayer
370
13
48
1
60
0
100
AcDbTrace
10
42.0622
20
-16.302503
30
0
11
38.562202
21
-16.763287
31
0
12
38.562198
22
-15.841719
32
0
13
42.0622
23
-16.302503
33
0
39
0
210
0
220
0
230
1
0
ENDBLK
5
101
100
AcDbEntity
8
0
100
AcDbBlockEnd
0
BLOCK
5
10A
100
AcDbEntity
8
0
100
AcDbBlockBegin
2
DimnDraft3D5
70
0
10
0
20
0
30
0
3
DimnDraft3D5
0
MTEXT
5
104
100
AcDbEntity
8
SK2
62
256
6
ByLayer
370
13
48
1
60
0
100
AcDbMText
10
-0.141089
20
-26.625
30
0
210
0
220
0
230
1
1
\W0.6993;78,1
40
3.5
41
0
44
1.084337
50
0
71
7
72
5
7
iso_b_vert
0
LINE
5
105
100
AcDbEntity
8
SK2
62
256
6
ByLayer
370
13
48
1
60
0
100
AcDbLine
10
-36
20
-5.5875
30
0
11
-36
21
-29.5
31
0
39
0
210
0
220
0
230
1
0
LINE
5
106
100
AcDbEntity
8
SK2
62
256
6
ByLayer
370
13
48
1
60
0
100
AcDbLine
10
42.0622
20
-5.0875
30
0
11
42.0622
21
-29.5
31
0
39
0
210
0
220
0
230
1
0
LINE
5
107
100
AcDbEntity
8
SK2
62
256
6
ByLayer
370
13
48
1
60
0
100
AcDbLine
10
-36
20
-27.5
30
0
11
42.0622
21
-27.5
31
0
39
0
210
0
220
0
230
1
0
SOLID
5
108
100
AcDbEntity
8
SK2
62
256
6
ByLayer
370
13
48
1
60
0
100
AcDbTrace
10
-36
20
-27.5
30
0
11
-32.500002
21
-27.039216
31
0
12
-32.499998
22
-27.960784
32
0
13
-36
23
-27.5
33
0
39
0
210
0
220
0
230
1
0
SOLID
5
109
100
AcDbEntity
8
SK2
62
256
6
ByLayer
370
13
48
1
60
0
100
AcDbTrace
10
42.0622
20
-27.5
30
0
11
38.562202
21
-27.960784
31
0
12
38.562198
22
-27.039216
32
0
13
42.0622
23
-27.5
33
0
39
0
210
0
220
0
230
1
0
ENDBLK
5
10B
100
AcDbEntity
8
0
100
AcDbBlockEnd
0
BLOCK
5
115
100
AcDbEntity
8
0
100
AcDbBlockBegin
2
DimnDraft3D6
70
0
10
0
20
0
30
0
3
DimnDraft3D6
0
MTEXT
5
10E
100
AcDbEntity
8
SK2
62
256
6
ByLayer
370
13
48
1
60
0
100
AcDbMText
10
-46.375163
20
23.34918
30
0
210
0
220
0
230
1
1
\W0.7150;8,00
40
3.5
41
0
44
1.084337
50
90
71
7
72
5
7
iso_b_vert
0
MTEXT
5
10F
100
AcDbEntity
8
SK2
62
256
6
ByLayer
370
13
48
1
60
0
100
AcDbMText
10
-46.375163
20
18.126524
30
0
210
0
220
0
230
1
1
%%c
40
3.5
41
0
44
1.084337
50
90
71
7
72
5
7
iso_b_vert
0
LINE
5
110
100
AcDbEntity
8
SK2
62
256
6
ByLayer
370
13
48
1
60
0
100
AcDbLine
10
-37.5875
20
-4
30
0
11
-46.625163
21
-4
31
0
39
0
210
0
220
0
230
1
0
LINE
5
111
100
AcDbEntity
8
SK2
62
256
6
ByLayer
370
13
48
1
60
0
100
AcDbLine
10
-37.5875
20
4
30
0
11
-46.625163
21
4
31
0
39
0
210
0
220
0
230
1
0
LINE
5
112
100
AcDbEntity
8
SK2
62
256
6
ByLayer
370
13
48
1
60
0
100
AcDbLine
10
-44.625163
20
-4
30
0
11
-44.625163
21
30.505759
31
0
39
0
210
0
220
0
230
1
0
SOLID
5
113
100
AcDbEntity
8
SK2
62
256
6
ByLayer
370
13
48
1
60
0
100
AcDbTrace
10
-44.625163
20
-4
30
0
11
-45.085946
21
-0.500002
31
0
12
-44.164379
22
-0.499998
32
0
13
-44.625163
23
-4
33
0
39
0
210
0
220
0
230
1
0
SOLID
5
114
100
AcDbEntity
8
SK2
62
256
6
ByLayer
370
13
48
1
60
0
100
AcDbTrace
10
-44.625163
20
4
30
0
11
-44.164379
21
0.500002
31
0
12
-45.085946
22
0.499998
32
0
13
-44.625163
23
4
33
0
39
0
210
0
220
0
230
1
0
ENDBLK
5
116
100
AcDbEntity
8
0
100
AcDbBlockEnd
0
BLOCK
5
120
100
AcDbEntity
8
0
100
AcDbBlockBegin
2
DimnDraft3D7
70
0
10
0
20
0
30
0
3
DimnDraft3D7
0
MTEXT
5
119
100
AcDbEntity
8
2
62
256
6
ByLayer
370
13
48
1
60
0
100
AcDbMText
10
53.333343
20
21.442266
30
0
210
0
220
0
230
1
1
\W0.6912;7,0
40
3.5
41
0
44
1.084337
50
90
71
7
72
5
7
iso_b_vert
0
MTEXT
5
11A
100
AcDbEntity
8
2
62
256
6
ByLayer
370
13
48
1
60
0
100
AcDbMText
10
53.333343
20
16.21961
30
0
210
0
220
0
230
1
1
%%c
40
3.5
41
0
44
1.084337
50
90
71
7
72
5
7
iso_b_vert
0
LINE
5
11B
100
AcDbEntity
8
2
62
256
6
ByLayer
370
13
48
1
60
0
100
AcDbLine
10
43.6497
20
-3.5
30
0
11
57.083343
21
-3.5
31
0
39
0
210
0
220
0
230
1
0
LINE
5
11C
100
AcDbEntity
8
2
62
256
6
ByLayer
370
13
48
1
60
0
100
AcDbLine
10
43.6497
20
3.5
30
0
11
57.083343
21
3.5
31
0
39
0
210
0
220
0
230
1
0
LINE
5
11D
100
AcDbEntity
8
2
62
256
6
ByLayer
370
13
48
1
60
0
100
AcDbLine
10
55.083343
20
25.983056
30
0
11
55.083343
21
-12.25
31
0
39
0
210
0
220
0
230
1
0
SOLID
5
11E
100
AcDbEntity
8
2
62
256
6
ByLayer
370
13
48
1
60
0
100
AcDbTrace
10
55.083343
20
-3.5
30
0
11
55.544126
21
-6.999998
31
0
12
54.622559
22
-7.000002
32
0
13
55.083343
23
-3.5
33
0
39
0
210
0
220
0
230
1
0
SOLID
5
11F
100
AcDbEntity
8
2
62
256
6
ByLayer
370
13
48
1
60
0
100
AcDbTrace
10
55.083343
20
3.5
30
0
11
54.622559
21
6.999998
31
0
12
55.544126
22
7.000002
32
0
13
55.083343
23
3.5
33
0
39
0
210
0
220
0
230
1
0
ENDBLK
5
121
100
AcDbEntity
8
0
100
AcDbBlockEnd
0
ENDSEC
0
SECTION
2
ENTITIES
0
ARC
5
9A
100
AcDbEntity
8
1
62
256
6
ByLayer
370
18
48
1
60
0
100
AcDbCircle
39
0
10
-0.333333
20
3.80726
30
0
40
0.33333300000001
210
0
220
0
230
-1
100
AcDbArc
50
269.96419
51
0
0
ARC
5
9B
100
AcDbEntity
8
1
62
256
6
ByLayer
370
18
48
1
60
0
100
AcDbCircle
39
0
10
-0.333333
20
-3.80726
30
0
40
0.33333300000001
210
0
220
0
230
-1
100
AcDbArc
50
0
51
90.03581
0
ELLIPSE
5
9C
100
AcDbEntity
8
1
62
256
6
ByLayer
370
18
48
1
60
0
100
AcDbEllipse
10
11.25
20
-3.556182
30
0
11
-0.25
21
3.06151588455594E-17
31
0
210
0
220
0
230
1
40
1
41
-1.5708112042965
42
-0.327451347506922
0
ELLIPSE
5
9D
100
AcDbEntity
8
1
62
256
6
ByLayer
370
18
48
1
60
0
100
AcDbEllipse
10
11.25
20
3.556182
30
0
11
-0.25
21
3.06151588455594E-17
31
0
210
0
220
0
230
1
40
1
41
0.327662925955135
42
1.57504344133326
0
ELLIPSE
5
9E
100
AcDbEntity
8
1
62
256
6
ByLayer
370
18
48
1
60
0
100
AcDbEllipse
10
43.015791
20
0.001742
30
0
11
0.0202277269783944
21
-0.0461593356432668
31
0
210
0
220
0
230
-1
40
0.094257
41
2.22716333890346
42
2.47673764374392
0
ELLIPSE
5
9F
100
AcDbEntity
8
1
62
256
6
ByLayer
370
13
48
1
60
0
100
AcDbEllipse
10
11.216606
20
0.974919
30
0
11
0.0267781698790466
21
0.0963479611508667
31
0
210
0
220
0
230
1
40
0.148078
41
1.90506598014317
42
2.48464824242063
0
ELLIPSE
5
A0
100
AcDbEntity
8
1
62
256
6
ByLayer
370
18
48
1
60
0
100
AcDbEllipse
10
43.015791
20
-0.001742
30
0
11
0.02022772554769
21
0.0461593328669805
31
0
210
0
220
0
230
-1
40
0.094257
41
-2.47673762725408
42
-2.22716331218323
0
ELLIPSE
5
A1
100
AcDbEntity
8
1
62
256
6
ByLayer
370
18
48
1
60
0
100
AcDbEllipse
10
41.441958
20
0.00019
30
0
11
0.323697894572643
21
3.49867967081071
31
0
210
0
220
0
230
-1
40
0.250565
41
0.203743986231995
42
0.356566165250527
0
ELLIPSE
5
A2
100
AcDbEntity
8
1
62
256
6
ByLayer
370
18
48
1
60
0
100
AcDbEllipse
10
42.98868
20
0.014511
30
0
11
0.0140788299363928
21
0.0302141333240148
31
0
210
0
220
0
230
-1
40
0.154454
41
1.02263605324327
42
2.13441855478674
0
ELLIPSE
5
A3
100
AcDbEntity
8
1
62
256
6
ByLayer
370
18
48
1
60
0
100
AcDbEllipse
10
41.441958
20
-0.00019
30
0
11
0.323697893505778
21
-3.4986796645827
31
0
210
0
220
0
230
-1
40
0.250565
41
-0.356566165603701
42
-0.203743986442498
0
POINT
5
6C
100
AcDbEntity
8
81
62
256
6
ByLayer
370
18
48
1
60
0
100
AcDbPoint
10
43
20
0
30
0
39
0
210
0
220
0
230
1
50
360
0
POINT
5
6E
100
AcDbEntity
8
80
62
256
6
ByLayer
370
18
48
1
60
0
100
AcDbPoint
10
0
20
0
30
0
39
0
210
0
220
0
230
1
50
360
0
POINT
5
70
100
AcDbEntity
8
SK2
62
256
6
ByLayer
370
18
48
1
60
1
100
AcDbPoint
10
-36
20
-4
30
0
39
0
210
0
220
0
230
1
50
360
0
POINT
5
72
100
AcDbEntity
8
SK2
62
256
6
ByLayer
370
18
48
1
60
1
100
AcDbPoint
10
-36
20
4
30
0
39
0
210
0
220
0
230
1
50
360
0
POINT
5
73
100
AcDbEntity
8
2
62
256
6
ByLayer
370
18
48
1
60
1
100
AcDbPoint
10
42.0622
20
-3.5
30
0
39
0
210
0
220
0
230
1
50
360
0
POINT
5
75
100
AcDbEntity
8
2
62
256
6
ByLayer
370
18
48
1
60
1
100
AcDbPoint
10
42.0622
20
3.5
30
0
39
0
210
0
220
0
230
1
50
360
0
SPLINE
5
A4
100
AcDbEntity
8
1
62
256
6
ByLayer
370
18
48
1
60
0
100
AcDbSpline
70
4
71
2
72
6
73
3
40
0
40
0
40
0
40
1
40
1
40
1
41
1
10
13.8969034828117
20
3.30794923284972
30
0
41
1
10
12.5735733590186
20
3.30712417478554
30
0
41
1
10
11.2505414926907
20
3.30528468299849
30
0
0
SPLINE
5
A5
100
AcDbEntity
8
1
62
256
6
ByLayer
370
18
48
1
60
0
100
AcDbSpline
70
4
71
2
72
6
73
3
40
0
40
0
40
0
40
1
40
1
40
1
41
1
10
11.2505414926907
20
-3.30528468299832
30
0
41
1
10
12.5837812069207
20
-3.30713475013715
30
0
41
1
10
13.9173214795807
20
-3.30796255750812
30
0
0
SPLINE
5
A6
100
AcDbEntity
8
1
62
256
6
ByLayer
370
18
48
1
60
0
100
AcDbSpline
70
4
71
2
72
6
73
3
40
0
40
0
40
0
40
1
40
1
40
1
41
1
10
38.9730368673555
20
-3.32302986566825
30
0
41
1
10
40.210448526688
20
-3.32480883692463
30
0
41
1
10
41.4453041508777
20
-3.32123103911994
30
0
0
SPLINE
5
A7
100
AcDbEntity
8
1
62
256
6
ByLayer
370
18
48
1
60
0
100
AcDbSpline
70
4
71
3
72
10
73
6
40
0
40
0
40
0
40
0
40
0.122892644234154
40
0.541854996337919
40
1
40
1
40
1
40
1
41
1
10
38.6677778324411
20
-0.70425866954912
30
0
41
1
10
38.6009732229084
20
-0.691613217684534
30
0
41
1
10
38.3061963473836
20
-0.635158319686099
30
0
41
1
10
37.7587033921353
20
-0.523821465200655
30
0
41
1
10
37.2789524722434
20
-0.420776312821715
30
0
41
1
10
37.0280103474084
20
-0.365061593520267
30
0
0
SPLINE
5
A8
100
AcDbEntity
8
1
62
256
6
ByLayer
370
18
48
1
60
0
100
AcDbSpline
70
4
71
3
72
10
73
6
40
0
40
0
40
0
40
0
40
0.5
40
0.5
40
1
40
1
40
1
40
1
41
1
10
41.6620135914262
20
-2.8111252222588
30
0
41
1
10
41.6556704700056
20
-2.82472809004278
30
0
41
1
10
41.6525101616317
20
-2.83918215761804
30
0
41
1
10
41.6526188286757
20
-2.8630095085847
30
0
41
1
10
41.6552966708749
20
-2.87274331831196
30
0
41
1
10
41.6590073966059
20
-2.88099043857113
30
0
0
SPLINE
5
A9
100
AcDbEntity
8
1
62
256
6
ByLayer
370
13
48
1
60
0
100
AcDbSpline
70
4
71
3
72
27
73
23
40
0
40
0
40
0
40
0
40
0.0786905947754153
40
0.0786905947754153
40
0.157381189550831
40
0.236071784326246
40
0.236071784326246
40
0.314762379101661
40
0.314762379101661
40
0.472143568652491
40
0.472143568652491
40
0.550834163427906
40
0.550834163427906
40
0.629524758203321
40
0.629524758203321
40
0.786905947754152
40
0.786905947754152
40
0.865596542529567
40
0.865596542529567
40
0.944287137304982
40
0.944287137304982
40
1
40
1
40
1
40
1
41
1
10
11.2502007212459
20
0.938245759441088
30
0
41
1
10
11.2502138277671
20
1.04580902259491
30
0
41
1
10
11.2502267335002
20
1.15176203044271
30
0
41
1
10
11.2502518465581
20
1.35760288276919
30
0
41
1
10
11.2502763443754
20
1.55806130038434
30
0
41
1
10
11.2502997406191
20
1.74794355561144
30
0
41
1
10
11.250322636769
20
1.93247034928657
30
0
41
1
10
11.2503338927253
20
2.02251351737459
30
0
41
1
10
11.250366519072
20
2.28070720306477
30
0
41
1
10
11.2503866287944
20
2.43603012723665
30
0
41
1
10
11.2504147228902
20
2.64445784400604
30
0
41
1
10
11.2504237389738
20
2.70981001343947
30
0
41
1
10
11.2504410990991
20
2.83199165537778
30
0
41
1
10
11.2504493471408
20
2.88813147672442
30
0
41
1
10
11.2504726612523
20
3.04055605862931
30
0
41
1
10
11.2504864194907
20
3.1217356076582
30
0
41
1
10
11.2505044911629
20
3.21242512335977
30
0
41
1
10
11.2505100930533
20
3.23744230808603
30
0
41
1
10
11.2505202153196
20
3.27592396645093
30
0
41
1
10
11.2505247646457
20
3.28955155225577
30
0
41
1
10
11.2505316602154
20
3.30327380096858
30
0
41
1
10
11.2505342683969
20
3.30614658994332
30
0
41
1
10
11.250536602293
20
3.30617672696695
30
0
0
SPLINE
5
AA
100
AcDbEntity
8
1
62
256
6
ByLayer
370
18
48
1
60
0
100
AcDbSpline
70
4
71
3
72
22
73
18
40
0
40
0
40
0
40
0
40
0.250000000000005
40
0.250000000000005
40
0.375000000000007
40
0.375000000000007
40
0.437500000000008
40
0.437500000000008
40
0.500000000000009
40
0.500000000000009
40
0.625000000000007
40
0.625000000000007
40
0.750000000000005
40
0.750000000000005
40
0.875000000000002
40
0.875000000000002
40
1
40
1
40
1
40
1
41
1
10
41.8441351020913
20
-3.29243837655201
30
0
41
1
10
41.6703767770891
20
-3.32713019276346
30
0
41
1
10
41.5059266779814
20
-3.33459716287305
30
0
41
1
10
41.2749442485525
20
-3.29989930498908
30
0
41
1
10
41.200589391495
20
-3.28061392673561
30
0
41
1
10
41.0935569006966
20
-3.23852478849457
30
0
41
1
10
41.0585703054049
20
-3.2222385297548
30
0
41
1
10
40.9912430456363
20
-3.18549961144055
30
0
41
1
10
40.958775175397
20
-3.16500804169698
30
0
41
1
10
40.8650622864294
20
-3.09698342109542
30
0
41
1
10
40.807487112229
20
-3.04293750960088
30
0
41
1
10
40.7031206676371
20
-2.91570752909928
30
0
41
1
10
40.6560315534245
20
-2.84170977336285
30
0
41
1
10
40.5768311973192
20
-2.67736319163163
30
0
41
1
10
40.5443707223878
20
-2.58689637386379
30
0
41
1
10
40.4943384305277
20
-2.38866797360385
30
0
41
1
10
40.4767349532385
20
-2.28063897427566
30
0
41
1
10
40.467393016782
20
-2.16364705126574
30
0
0
SPLINE
5
AB
100
AcDbEntity
8
1
62
256
6
ByLayer
370
18
48
1
60
0
100
AcDbSpline
70
4
71
3
72
8
73
4
40
0
40
0
40
0
40
0
40
1
40
1
40
1
40
1
41
1
10
40.4888054672321
20
1.21832472859728
30
0
41
1
10
41.2254824282916
20
1.16035144776217
30
0
41
1
10
41.9619779136512
20
1.09563328212352
30
0
41
1
10
42.6983473155544
20
1.02622898831439
30
0
0
SPLINE
5
AC
100
AcDbEntity
8
1
62
256
6
ByLayer
370
18
48
1
60
0
100
AcDbSpline
70
4
71
3
72
14
73
10
40
0
40
0
40
0
40
0
40
0.0886919927338933
40
0.0886919927338933
40
0.459594393103956
40
0.459594393103956
40
0.830496793474019
40
0.830496793474019
40
1
40
1
40
1
40
1
41
1
10
38.9730382866712
20
-3.32303900139917
30
0
41
1
10
38.6679324538517
20
-3.32276335046873
30
0
41
1
10
38.3628226596687
20
-3.32040488909783
30
0
41
1
10
36.7816096953463
20
-3.29734661111331
30
0
41
1
10
35.5041069577816
20
-3.24219052171213
30
0
41
1
10
32.9506741256968
20
-3.06236345173991
30
0
41
1
10
31.6735796395428
20
-2.93764088288248
30
0
41
1
10
29.813000740243
20
-2.71137302218025
30
0
41
1
10
29.2295696411779
20
-2.63405557306035
30
0
41
1
10
28.6461042360738
20
-2.5509466208913
30
0
0
SPLINE
5
AD
100
AcDbEntity
8
1
62
256
6
ByLayer
370
13
48
1
60
0
100
AcDbSpline
70
4
71
3
72
16
73
12
40
0
40
0
40
0
40
0
40
0.119524170326717
40
0.119524170326717
40
0.339643127745038
40
0.339643127745038
40
0.559762085163359
40
0.559762085163359
40
0.779881042581679
40
0.779881042581679
40
1
40
1
40
1
40
1
41
1
10
28.6461052260764
20
-2.55094676190745
30
0
41
1
10
27.952846847308
20
-2.45219888002788
30
0
41
1
10
27.2595400368921
20
-2.34527480117566
30
0
41
1
10
25.2883727673014
20
-2.0208479144938
30
0
41
1
10
24.0105832555846
20
-1.78562548952928
30
0
41
1
10
21.4585701871507
20
-1.2831260516364
30
0
41
1
10
20.1841989603885
20
-1.01523374489324
30
0
41
1
10
17.6345575252133
20
-0.464011254421337
30
0
41
1
10
16.3594235490619
20
-0.18010196932272
30
0
41
1
10
13.8045297601269
20
0.385777274407104
30
0
41
1
10
12.5277126877337
20
0.667224459227043
30
0
41
1
10
11.2502007212459
20
0.938245759441088
30
0
0
SPLINE
5
AE
100
AcDbEntity
8
1
62
256
6
ByLayer
370
18
48
1
60
0
100
AcDbSpline
70
4
71
3
72
14
73
10
40
0
40
0
40
0
40
0
40
0.25
40
0.25
40
0.5
40
0.5
40
0.75
40
0.75
40
1
40
1
40
1
40
1
41
1
10
11.0117046161797
20
-3.32247207460054
30
0
41
1
10
11.0180346149473
20
-3.29718965294458
30
0
41
1
10
11.0272443738486
20
-3.27151531783394
30
0
41
1
10
11.0528393197569
20
-3.22237891149339
30
0
41
1
10
11.0694565946599
20
-3.19847118348989
30
0
41
1
10
11.1118740798007
20
-3.15768833225832
30
0
41
1
10
11.1385685203501
20
-3.14087634037961
30
0
41
1
10
11.1947483818464
20
-3.12345575529645
30
0
41
1
10
11.2239304170164
20
-3.12258764212981
30
0
41
1
10
11.2505505789634
20
-3.12729668271382
30
0
0
SPLINE
5
AF
100
AcDbEntity
8
1
62
256
6
ByLayer
370
18
48
1
60
0
100
AcDbSpline
70
4
71
3
72
28
73
24
40
0
40
0
40
0
40
0
40
0.125000000000001
40
0.125000000000001
40
0.250000000000002
40
0.250000000000002
40
0.312500000000001
40
0.312500000000001
40
0.375
40
0.375
40
0.499999999999996
40
0.499999999999996
40
0.562499999999995
40
0.562499999999995
40
0.624999999999994
40
0.624999999999994
40
0.749999999999995
40
0.749999999999995
40
0.874999999999996
40
0.874999999999996
40
0.937499999999998
40
0.937499999999998
40
1
40
1
40
1
40
1
41
1
10
26.663082317031
20
2.77701890915895
30
0
41
1
10
27.3046655307528
20
2.8695781020065
30
0
41
1
10
27.9464106120255
20
2.95249210051824
30
0
41
1
10
29.2296069344554
20
3.10169051513788
30
0
41
1
10
29.8710657999692
20
3.16794470137069
30
0
41
1
10
30.8326475413228
20
3.25512337510545
30
0
41
1
10
31.1530427881921
20
3.28216018768799
30
0
41
1
10
31.794090504229
20
3.33133632235678
30
0
41
1
10
32.1148015144195
20
3.35341858691047
30
0
41
1
10
33.0774046603845
20
3.41249781564619
30
0
41
1
10
33.7200184736253
20
3.44246206491926
30
0
41
1
10
34.6824100439218
20
3.47342405962036
30
0
41
1
10
35.0030034018301
20
3.48140695258897
30
0
41
1
10
35.6437492547192
20
3.49255075363149
30
0
41
1
10
35.9639386677381
20
3.49567266057602
30
0
41
1
10
36.9247789808899
20
3.49764883452141
30
0
41
1
10
37.5655901955964
20
3.48931790755705
30
0
41
1
10
38.8469928723403
20
3.45381027729104
30
0
41
1
10
39.4875205186915
20
3.42652089437507
30
0
41
1
10
40.4481675453502
20
3.37061971327682
30
0
41
1
10
40.7684693987088
20
3.34958939169979
30
0
41
1
10
41.409606255083
20
3.30331886139649
30
0
41
1
10
41.730374476779
20
3.27800854437408
30
0
41
1
10
42.0512962871588
20
3.25049446669385
30
0
0
SPLINE
5
B0
100
AcDbEntity
8
1
62
256
6
ByLayer
370
18
48
1
60
0
100
AcDbSpline
70
4
71
3
72
8
73
4
40
0
40
0
40
0
40
0
40
1
40
1
40
1
40
1
41
1
10
41.973720148993
20
2.57950252773941
30
0
41
1
10
41.9627188210471
20
2.60357045007501
30
0
41
1
10
41.9584682617995
20
2.63004920511591
30
0
41
1
10
41.9619051192672
20
2.65591340703784
30
0
0
SPLINE
5
B1
100
AcDbEntity
8
1
62
256
6
ByLayer
370
18
48
1
60
0
100
AcDbSpline
70
4
71
3
72
10
73
6
40
0
40
0
40
0
40
0
40
0.842992920413907
40
0.842992920413907
40
1
40
1
40
1
40
1
41
1
10
26.6630758954289
20
2.77703272619328
30
0
41
1
10
25.8099313204075
20
2.65488484656171
30
0
41
1
10
24.9542228736905
20
2.52745804176345
30
0
41
1
10
23.9344262136266
20
2.38230064503719
30
0
41
1
10
23.774171979849
20
2.35969116757576
30
0
41
1
10
23.6137703941343
20
2.33733484365379
30
0
0
SPLINE
5
B2
100
AcDbEntity
8
1
62
256
6
ByLayer
370
18
48
1
60
0
100
AcDbSpline
70
4
71
3
72
8
73
4
40
0
40
0
40
0
40
0
40
1
40
1
40
1
40
1
41
1
10
11.0317344688076
20
1.01659070065347
30
0
41
1
10
11.0188669273549
20
1.03863676314538
30
0
41
1
10
11.0115791742661
20
1.06311830747543
30
0
41
1
10
11.0115802214601
20
1.08822747562499
30
0
0
SPLINE
5
B3
100
AcDbEntity
8
1
62
256
6
ByLayer
370
13
48
1
60
0
100
AcDbSpline
70
4
71
3
72
10
73
6
40
0
40
0
40
0
40
0
40
0.5
40
0.5
40
1
40
1
40
1
40
1
41
1
10
11.0115802214568
20
1.08822747563587
30
0
41
1
10
11.0239229739864
20
1.05510330501227
30
0
41
1
10
11.0458683317779
20
1.02453497418395
30
0
41
1
10
11.1087458358834
20
0.974346481210148
30
0
41
1
10
11.1489652289401
20
0.955641100683749
30
0
41
1
10
11.1943431323976
20
0.947054805666397
30
0
0
SPLINE
5
B4
100
AcDbEntity
8
1
62
256
6
ByLayer
370
18
48
1
60
0
100
AcDbSpline
70
4
71
3
72
16
73
12
40
0
40
0
40
0
40
0
40
0.333041926634047
40
0.333041926634047
40
0.499562889951069
40
0.499562889951069
40
0.666083853268091
40
0.666083853268091
40
0.999125779902135
40
0.999125779902135
40
1
40
1
40
1
40
1
41
1
10
22.2402956227921
20
2.55244024423644
30
0
41
1
10
21.3005925102023
20
2.68416929210153
30
0
41
1
10
20.3631150806132
20
2.81021865011672
30
0
41
1
10
18.9630788791163
20
2.97386472918248
30
0
41
1
10
18.4972985117485
20
3.02384913865615
30
0
41
1
10
17.5674445881148
20
3.11454420649318
30
0
41
1
10
17.1028527104866
20
3.1559879326222
30
0
41
1
10
15.715788599599
20
3.26108249465676
30
0
41
1
10
14.8006898457849
20
3.30594609619047
30
0
41
1
10
13.8968510390298
20
3.30788781160746
30
0
41
1
10
13.8944848064593
20
3.30789260892209
30
0
41
1
10
13.8921186663409
20
3.30789711897839
30
0
0
SPLINE
5
B5
100
AcDbEntity
8
1
62
256
6
ByLayer
370
18
48
1
60
0
100
AcDbSpline
70
4
71
3
72
8
73
4
40
0
40
0
40
0
40
0
40
1
40
1
40
1
40
1
41
1
10
41.9619051192672
20
-2.65591340703784
30
0
41
1
10
41.9887062864638
20
-2.85760661271132
30
0
41
1
10
42.0187330861247
20
-3.05553193400809
30
0
41
1
10
42.0512962871506
20
-3.25049446671005
30
0
0
SPLINE
5
B6
100
AcDbEntity
8
1
62
256
6
ByLayer
370
18
48
1
60
0
100
AcDbSpline
70
4
71
3
72
22
73
18
40
0
40
0
40
0
40
0
40
0.125
40
0.125
40
0.25
40
0.25
40
0.375
40
0.375
40
0.5
40
0.5
40
0.625
40
0.625
40
0.75
40
0.75
40
0.875
40
0.875
40
1
40
1
40
1
40
1
41
1
10
22.2401683910922
20
2.55244799816202
30
0
41
1
10
22.8903900218795
20
2.46135799305534
30
0
41
1
10
23.5404084729047
20
2.36453726327267
30
0
41
1
10
24.839737804985
20
2.15399608501906
30
0
41
1
10
25.4891061500279
20
2.04110075481958
30
0
41
1
10
26.7884646818636
20
1.8061479146366
30
0
41
1
10
27.4384942352023
20
1.68389707357184
30
0
41
1
10
28.7380383490651
20
1.42975610108172
30
0
41
1
10
29.3876110426212
20
1.29804356272669
30
0
41
1
10
30.6865991597591
20
1.02699832993352
30
0
41
1
10
31.3361230892256
20
0.888064781558455
30
0
41
1
10
32.6359343059965
20
0.607628659578864
30
0
41
1
10
33.2855879123026
20
0.46562279526367
30
0
41
1
10
34.5843905780458
20
0.178196128527503
30
0
41
1
10
35.2335737683115
20
0.0329255892413869
30
0
41
1
10
36.5324086604035
20
-0.256553853200899
30
0
41
1
10
37.1824642299231
20
-0.400101080904449
30
0
41
1
10
37.832169770558
20
-0.542331076060123
30
0
0
SPLINE
5
B7
100
AcDbEntity
8
1
62
256
6
ByLayer
370
18
48
1
60
0
100
AcDbSpline
70
4
71
3
72
10
73
6
40
0
40
0
40
0
40
0
40
0.5
40
0.5
40
1
40
1
40
1
40
1
41
1
10
11.0317344688077
20
1.01659070065338
30
0
41
1
10
11.0477688907958
20
0.984617684076568
30
0
41
1
10
11.0700268055253
20
0.955213231380611
30
0
41
1
10
11.1252964506488
20
0.907830003168868
30
0
41
1
10
11.1582236348227
20
0.889947680729136
30
0
41
1
10
11.1943431323974
20
0.880737000931134
30
0
0
SPLINE
5
B8
100
AcDbEntity
8
1
62
256
6
ByLayer
370
18
48
1
60
0
100
AcDbSpline
70
4
71
3
72
22
73
18
40
0
40
0
40
0
40
0
40
0.125
40
0.125
40
0.25
40
0.25
40
0.375
40
0.375
40
0.5
40
0.5
40
0.625
40
0.625
40
0.75
40
0.75
40
0.875
40
0.875
40
1
40
1
40
1
40
1
41
1
10
41.9363387943861
20
-3.41009116431164
30
0
41
1
10
40.6550843086091
20
-3.47692749862065
30
0
41
1
10
39.3737797838103
20
-3.50582721399689
30
0
41
1
10
36.8124968666066
20
-3.48599707207916
30
0
41
1
10
35.5311783438983
20
-3.43727057214471
30
0
41
1
10
32.969473267123
20
-3.26550611050021
30
0
41
1
10
31.6887594318054
20
-3.14252937230111
30
0
41
1
10
29.1263271633814
20
-2.83016804952678
30
0
41
1
10
27.8461357103298
20
-2.6411362848265
30
0
41
1
10
25.2834334043262
20
-2.20930005691582
30
0
41
1
10
24.0027898572918
20
-1.96643151661937
30
0
41
1
10
21.4407145504547
20
-1.44359244080621
30
0
41
1
10
20.1592873966854
20
-1.1632035797393
30
0
41
1
10
17.597478896686
20
-0.583983289811755
30
0
41
1
10
16.315660984064
20
-0.284446371378408
30
0
41
1
10
13.7546923103458
20
0.313042948444149
30
0
41
1
10
12.474733286894
20
0.611175505362638
30
0
41
1
10
11.1932097135199
20
0.8997351556105
30
0
0
SPLINE
5
B9
100
AcDbEntity
8
1
62
256
6
ByLayer
370
18
48
1
60
0
100
AcDbSpline
70
4
71
3
72
8
73
4
40
0
40
0
40
0
40
0
40
1
40
1
40
1
40
1
41
1
10
23.2048061062522
20
-2.28617319082574
30
0
41
1
10
22.8832811077158
20
-2.37552342433494
30
0
41
1
10
22.5617290034659
20
-2.46429630516391
30
0
41
1
10
22.2402285233985
20
-2.55243151367347
30
0
0
SPLINE
5
BA
100
AcDbEntity
8
1
62
256
6
ByLayer
370
18
48
1
60
0
100
AcDbSpline
70
4
71
3
72
50
73
46
40
0
40
0
40
0
40
0
40
0.124999999999991
40
0.124999999999991
40
0.249999999999981
40
0.249999999999981
40
0.312499999999974
40
0.312499999999974
40
0.374999999999967
40
0.374999999999967
40
0.499999999999952
40
0.499999999999952
40
0.531249999999952
40
0.531249999999952
40
0.562499999999952
40
0.562499999999952
40
0.593749999999952
40
0.593749999999952
40
0.624999999999952
40
0.624999999999952
40
0.640624999999954
40
0.640624999999954
40
0.656249999999956
40
0.656249999999956
40
0.671874999999958
40
0.671874999999958
40
0.68749999999996
40
0.68749999999996
40
0.703124999999962
40
0.703124999999962
40
0.718749999999964
40
0.718749999999964
40
0.749999999999968
40
0.749999999999968
40
0.781249999999972
40
0.781249999999972
40
0.812499999999976
40
0.812499999999976
40
0.84374999999998
40
0.84374999999998
40
0.874999999999984
40
0.874999999999984
40
0.937499999999992
40
0.937499999999992
40
1
40
1
40
1
40
1
41
1
10
37.832169770577
20
-0.542331076064272
30
0
41
1
10
38.0910425074728
20
-0.59261701361865
30
0
41
1
10
38.3499266276778
20
-0.643405166491902
30
0
41
1
10
38.8676581960177
20
-0.743363552958158
30
0
41
1
10
39.126490729918
20
-0.792048166355187
30
0
41
1
10
39.5146796255326
20
-0.863122097960911
30
0
41
1
10
39.6440694677708
20
-0.886572192452491
30
0
41
1
10
39.9027834232547
20
-0.931865334337772
30
0
41
1
10
40.0319340262205
20
-0.950852832511316
30
0
41
1
10
40.4182517199633
20
-0.993877591400604
30
0
41
1
10
40.672055429404
20
-1.00379057588873
30
0
41
1
10
40.9816967665765
20
-0.979702957890083
30
0
41
1
10
41.0432389550572
20
-0.973015272905997
30
0
41
1
10
41.1653082317823
20
-0.954722770717666
30
0
41
1
10
41.2256093434128
20
-0.943144356241788
30
0
41
1
10
41.342694620075
20
-0.913389159441124
30
0
41
1
10
41.3996805806703
20
-0.895255094650537
30
0
41
1
10
41.5089100187716
20
-0.849066005559877
30
0
41
1
10
41.5617334502243
20
-0.820681530394268
30
0
41
1
10
41.6331013800747
20
-0.76765935770166
30
0
41
1
10
41.6554751079434
20
-0.748295834233005
30
0
41
1
10
41.6965709439571
20
-0.705210659921761
30
0
41
1
10
41.7152155215556
20
-0.681480154102701
30
0
41
1
10
41.7466929415891
20
-0.630365853505481
30
0
41
1
10
41.7597133781222
20
-0.602830006711855
30
0
41
1
10
41.779053724727
20
-0.542880839131016
30
0
41
1
10
41.7850574256681
20
-0.511149405529494
30
0
41
1
10
41.7891005383611
20
-0.445604983997953
30
0
41
1
10
41.7870843375261
20
-0.411179975765123
30
0
41
1
10
41.7757115316032
20
-0.343019762215675
30
0
41
1
10
41.7664203280705
20
-0.308878854208501
30
0
41
1
10
41.7297179564841
20
-0.207297064818761
30
0
41
1
10
41.6950035179426
20
-0.143633345472693
30
0
41
1
10
41.6134193839706
20
-0.0211193671749754
30
0
41
1
10
41.5675077983258
20
0.0360207238030341
30
0
41
1
10
41.47053071821
20
0.144833613152144
30
0
41
1
10
41.4192660479301
20
0.196642916436019
30
0
41
1
10
41.3130202544739
20
0.29678468550992
30
0
41
1
10
41.2581470368901
20
0.344852312552689
30
0
41
1
10
41.1468973454622
20
0.438567317494119
30
0
41
1
10
41.0919207165772
20
0.486358619561656
30
0
41
1
10
40.9306696568964
20
0.634364809362353
30
0
41
1
10
40.8271982163778
20
0.738049686299348
30
0
41
1
10
40.6332125399776
20
0.953727454444987
30
0
41
1
10
40.5424406845856
20
1.06624327907454
30
0
41
1
10
40.4606668309905
20
1.1855238096731
30
0
0
SPLINE
5
BB
100
AcDbEntity
8
1
62
256
6
ByLayer
370
18
48
1
60
0
100
AcDbSpline
70
4
71
3
72
14
73
10
40
0
40
0
40
0
40
0
40
0.250000000000003
40
0.250000000000003
40
0.375000000000004
40
0.375000000000004
40
0.500000000000005
40
0.500000000000005
40
1
40
1
40
1
40
1
41
1
10
37.8321697705769
20
-0.542331076064272
30
0
41
1
10
38.0279108591093
20
-0.720109743595998
30
0
41
1
10
38.2340318330535
20
-0.884187961968109
30
0
41
1
10
38.554500280681
20
-1.11540755400489
30
0
41
1
10
38.6632625802478
20
-1.1899427496156
30
0
41
1
10
38.8819405839722
20
-1.33310462891978
30
0
41
1
10
38.992152440873
20
-1.40194779351742
30
0
41
1
10
39.5470324913243
20
-1.73417949859746
30
0
41
1
10
40.0028603193038
20
-1.96256501176779
30
0
41
1
10
40.4673930167821
20
-2.1636470512658
30
0
0
SPLINE
5
BC
100
AcDbEntity
8
1
62
256
6
ByLayer
370
18
48
1
60
0
100
AcDbSpline
70
4
71
3
72
8
73
4
40
0
40
0
40
0
40
0
40
1
40
1
40
1
40
1
41
1
10
23.6225379167709
20
-2.34913348079968
30
0
41
1
10
23.1618703861633
20
-2.42043260253911
30
0
41
1
10
22.7010639847352
20
-2.48788081062045
30
0
41
1
10
22.2401683910935
20
-2.55244799816177
30
0
0
SPLINE
5
BD
100
AcDbEntity
8
1
62
256
6
ByLayer
370
18
48
1
60
0
100
AcDbSpline
70
4
71
3
72
14
73
10
40
0
40
0
40
0
40
0
40
0.268905249613493
40
0.268905249613493
40
0.537810499226986
40
0.537810499226986
40
0.80671574884048
40
0.80671574884048
40
1
40
1
40
1
40
1
41
1
10
11.2278813487097
20
0.872370977393416
30
0
41
1
10
12.507989290267
20
0.590362422724098
30
0
41
1
10
13.7873888911673
20
0.298753188894835
30
0
41
1
10
16.3474502466035
20
-0.285452312500297
30
0
41
1
10
17.6250349215703
20
-0.577404060056011
30
0
41
1
10
20.1795317254968
20
-1.14205958864912
30
0
41
1
10
21.4563438780387
20
-1.41521628841238
30
0
41
1
10
23.6538588684317
20
-1.85361421382416
30
0
41
1
10
24.573833738771
20
-2.02785242881103
30
0
41
1
10
25.493944950024
20
-2.18964002859798
30
0
0
SPLINE
5
BE
100
AcDbEntity
8
1
62
256
6
ByLayer
370
13
48
1
60
0
100
AcDbSpline
70
4
71
3
72
18
73
14
40
0
40
0
40
0
40
0
40
0.0656864228769994
40
0.0656864228769994
40
0.299264817157748
40
0.299264817157748
40
0.416054014298123
40
0.416054014298123
40
0.532843211438497
40
0.532843211438497
40
0.766421605719249
40
0.766421605719249
40
1
40
1
40
1
40
1
41
1
10
25.4939454056973
20
-2.18964010872122
30
0
41
1
10
25.853931792128
20
-2.25293825270825
30
0
41
1
10
26.2139390483095
20
-2.31433057467697
30
0
41
1
10
27.8539803602898
20
-2.58443364528353
30
0
41
1
10
29.1327555181084
20
-2.76898213860434
30
0
41
1
10
31.0521289900614
20
-2.99775891684109
30
0
41
1
10
31.6921951944935
20
-3.06608416707547
30
0
41
1
10
32.9716500981925
20
-3.18527623015518
30
0
41
1
10
33.6111923235218
20
-3.23621765818299
30
0
41
1
10
35.5301311447789
20
-3.36209803313011
30
0
41
1
10
36.8102135587246
20
-3.40973208412305
30
0
41
1
10
39.3673653827222
20
-3.42931477575564
30
0
41
1
10
40.6453840168146
20
-3.40121934027252
30
0
41
1
10
41.9249531357894
20
-3.33625048414083
30
0
0
SPLINE
5
BF
100
AcDbEntity
8
1
62
256
6
ByLayer
370
18
48
1
60
0
100
AcDbSpline
70
4
71
3
72
8
73
4
40
0
40
0
40
0
40
0
40
1
40
1
40
1
40
1
41
1
10
41.9363387943861
20
3.41009116431164
30
0
41
1
10
40.8057933632708
20
3.46906579677099
30
0
41
1
10
39.6752069086829
20
3.49850373963861
30
0
41
1
10
38.5450680982262
20
3.4978012705067
30
0
0
SPLINE
5
C0
100
AcDbEntity
8
1
62
256
6
ByLayer
370
18
48
1
60
0
100
AcDbSpline
70
4
71
3
72
10
73
6
40
0
40
0
40
0
40
0
40
0.5
40
0.5
40
1
40
1
40
1
40
1
41
1
10
41.9249531357894
20
-3.33625048414083
30
0
41
1
10
41.9208201932266
20
-3.30940890091284
30
0
41
1
10
41.9141076452853
20
-3.28740368451884
30
0
41
1
10
41.900008855137
20
-3.26166751642089
30
0
41
1
10
41.8925561373471
20
-3.25743030254515
30
0
41
1
10
41.88624690974
20
-3.26268096492046
30
0
0
SPLINE
5
C1
100
AcDbEntity
8
1
62
256
6
ByLayer
370
18
48
1
60
0
100
AcDbSpline
70
4
71
3
72
14
73
10
40
0
40
0
40
0
40
0
40
0.25
40
0.25
40
0.375
40
0.375
40
0.5
40
0.5
40
1
40
1
40
1
40
1
41
1
10
42.6983473155754
20
1.02622898832397
30
0
41
1
10
42.6399161771205
20
1.15598147631681
30
0
41
1
10
42.58034665726
20
1.28549440120082
30
0
41
1
10
42.4890445794143
20
1.47935389026682
30
0
41
1
10
42.458156979507
20
1.54386044603155
30
0
41
1
10
42.3966275954206
20
1.67293149144751
30
0
41
1
10
42.3659607234572
20
1.73750557045707
30
0
41
1
10
42.2131277776144
20
2.0605736004735
30
0
41
1
10
42.092488591264
20
2.31966938227208
30
0
41
1
10
41.9737201489929
20
2.57950252773941
30
0
0
SPLINE
5
C2
100
AcDbEntity
8
1
62
256
6
ByLayer
370
18
48
1
60
0
100
AcDbSpline
70
4
71
3
72
22
73
18
40
0
40
0
40
0
40
0
40
0.171792379119059
40
0.171792379119059
40
0.276091191643491
40
0.276091191643491
40
0.355715636360225
40
0.355715636360225
40
0.43615947233623
40
0.43615947233623
40
0.506707785608012
40
0.506707785608012
40
0.622223084574221
40
0.622223084574221
40
0.836668392927362
40
0.836668392927362
40
1
40
1
40
1
40
1
41
1
10
40.4606668309906
20
1.18552380967316
30
0
41
1
10
40.4587046914615
20
1.18838591086873
30
0
41
1
10
40.4569605502989
20
1.19145259468561
30
0
41
1
10
40.4550525321864
20
1.19670035856936
30
0
41
1
10
40.4545334065693
20
1.19879152756107
30
0
41
1
10
40.4542805150937
20
1.20250861185448
30
0
41
1
10
40.4543968960111
20
1.20416021069315
30
0
41
1
10
40.4552146620894
20
1.20729234823423
30
0
41
1
10
40.4559408032671
20
1.20881016862154
30
0
41
1
10
40.4577555566648
20
1.211269580161
30
0
41
1
10
40.4588035236403
20
1.21229015228826
30
0
41
1
10
40.461809558558
20
1.21455750852186
30
0
41
1
10
40.463964022443
20
1.21559159234809
30
0
41
1
10
40.4702398674489
20
1.21776750864805
30
0
41
1
10
40.47460498783
20
1.21834893016737
30
0
41
1
10
40.4822057609248
20
1.21868131566882
30
0
41
1
10
40.4855163276818
20
1.21858356961027
30
0
41
1
10
40.488805467232
20
1.21832472859728
30
0
0
SPLINE
5
C3
100
AcDbEntity
8
1
62
256
6
ByLayer
370
18
48
1
60
0
100
AcDbSpline
70
4
71
3
72
14
73
10
40
0
40
0
40
0
40
0
40
0.25
40
0.25
40
0.374999999999995
40
0.374999999999995
40
0.49999999999999
40
0.49999999999999
40
1
40
1
40
1
40
1
41
1
10
42.6983473155754
20
-1.02622898832408
30
0
41
1
10
42.6398945229168
20
-1.15602956175331
30
0
41
1
10
42.5803133779718
20
-1.28556612511588
30
0
41
1
10
42.4890132990797
20
-1.47941977522041
30
0
41
1
10
42.458128139149
20
-1.54392079739858
30
0
41
1
10
42.3966009344645
20
-1.67298756609247
30
0
41
1
10
42.3659352995116
20
-1.73755918053121
30
0
41
1
10
42.2131092890717
20
-2.06061321373122
30
0
41
1
10
42.0924780856767
20
-2.31969236564848
30
0
41
1
10
41.9737201489929
20
-2.57950252773941
30
0
0
SPLINE
5
C4
100
AcDbEntity
8
1
62
256
6
ByLayer
370
18
48
1
60
0
100
AcDbSpline
70
4
71
3
72
24
73
20
40
0
40
0
40
0
40
0
40
0.0624999999999994
40
0.0624999999999994
40
0.124999999999999
40
0.124999999999999
40
0.187499999999998
40
0.187499999999998
40
0.249999999999998
40
0.249999999999998
40
0.499999999999997
40
0.499999999999997
40
0.624999999999998
40
0.624999999999998
40
0.749999999999999
40
0.749999999999999
40
0.874999999999999
40
0.874999999999999
40
1
40
1
40
1
40
1
41
1
10
11.2505505809119
20
-3.12729668305863
30
0
41
1
10
11.4632778882845
20
-3.16492761574284
30
0
41
1
10
11.6795229153761
20
-3.19430740794613
30
0
41
1
10
12.1169987885728
20
-3.24158503275547
30
0
41
1
10
12.3382545781399
20
-3.2594225604025
30
0
41
1
10
12.7846625512555
20
-3.28632026050849
30
0
41
1
10
13.0096924629875
20
-3.29532607373437
30
0
41
1
10
13.4603010341579
20
-3.3063744098784
30
0
41
1
10
13.6862522257504
20
-3.30844403102609
30
0
41
1
10
14.8186929813423
20
-3.30547627476474
30
0
41
1
10
15.7331866150189
20
-3.26000083481421
30
0
41
1
10
17.1141829346972
20
-3.15500860199992
30
0
41
1
10
17.5760940978121
20
-3.11374293852779
30
0
41
1
10
18.5026501335136
20
-3.02328413454094
30
0
41
1
10
18.967369402093
20
-2.97338567688865
30
0
41
1
10
19.899812257114
20
-2.86435010337325
30
0
41
1
10
20.3675438453932
20
-2.80554545560656
30
0
41
1
10
21.3031867554076
20
-2.68248036689172
30
0
41
1
10
21.771461085359
20
-2.61816220087854
30
0
41
1
10
22.240295622818
20
-2.55244024423251
30
0
0
SPLINE
5
C5
100
AcDbEntity
8
1
62
256
6
ByLayer
370
13
48
1
60
0
100
AcDbSpline
70
4
71
3
72
12
73
8
40
0
40
0
40
0
40
0
40
0.0865114814282548
40
0.0865114814282548
40
0.391007654285504
40
0.391007654285504
40
1
40
1
40
1
40
1
41
1
10
11.2505366801932
20
-3.30617667574171
30
0
41
1
10
11.2505376143107
20
-3.30616335145879
30
0
41
1
10
11.2505385042155
20
-3.30569221358604
30
0
41
1
10
11.2505423194628
20
-3.30148563962101
30
0
41
1
10
11.2505447168419
20
-3.29259124932739
30
0
41
1
10
11.250550207785
20
-3.24963561946194
30
0
41
1
10
11.2505516220818
20
-3.1994621434558
30
0
41
1
10
11.2505505789633
20
-3.12729668305428
30
0
0
SPLINE
5
C6
100
AcDbEntity
8
1
62
256
6
ByLayer
370
13
48
1
60
0
100
AcDbSpline
70
4
71
3
72
8
73
4
40
0
40
0
40
0
40
0
40
1
40
1
40
1
40
1
41
1
10
11.1943431323993
20
0.947054805670717
30
0
41
1
10
11.2127335053211
20
0.943575024646151
30
0
41
1
10
11.2313535082657
20
0.940643540791967
30
0
41
1
10
11.2502007212459
20
0.938245759441088
30
0
0
SPLINE
5
C7
100
AcDbEntity
8
1
62
256
6
ByLayer
370
18
48
1
60
0
100
AcDbSpline
70
4
71
3
72
14
73
10
40
0
40
0
40
0
40
0
40
0.233539865457358
40
0.233539865457358
40
0.463716765614802
40
0.463716765614802
40
0.693893665772245
40
0.693893665772245
40
1
40
1
40
1
40
1
41
1
10
26.6630823159244
20
2.77701890872118
30
0
41
1
10
26.5378005728923
20
2.7274577883108
30
0
41
1
10
26.4132656657794
20
2.67658781266067
30
0
41
1
10
26.1674344627866
20
2.57324188403382
30
0
41
1
10
26.0461076316014
20
2.520825320818
30
0
41
1
10
25.8046665887996
20
2.41437850413328
30
0
41
1
10
25.684290036693
20
2.36022536267532
30
0
41
1
10
25.4080354423369
20
2.23468984369524
30
0
41
1
10
25.2530840607824
20
2.16328475350429
30
0
41
1
10
25.1002447869192
20
2.09357931689695
30
0
0
SPLINE
5
C8
100
AcDbEntity
8
1
62
256
6
ByLayer
370
18
48
1
60
0
100
AcDbSpline
70
4
71
3
72
22
73
18
40
0
40
0
40
0
40
0
40
0.197960994573069
40
0.197960994573069
40
0.395921989146137
40
0.395921989146137
40
0.494902486432674
40
0.494902486432674
40
0.59388298371921
40
0.59388298371921
40
0.791843978292287
40
0.791843978292287
40
0.890824475578825
40
0.890824475578825
40
0.989804972865363
40
0.989804972865363
40
1
40
1
40
1
40
1
41
1
10
26.663082317031
20
-2.77701890915893
30
0
41
1
10
27.3046655307528
20
-2.8695781020065
30
0
41
1
10
27.9464106120255
20
-2.95249210051824
30
0
41
1
10
29.2296069344553
20
-3.10169051513788
30
0
41
1
10
29.8710657999691
20
-3.16794470137069
30
0
41
1
10
30.8326475413226
20
-3.25512337510543
30
0
41
1
10
31.1530427881918
20
-3.28216018768796
30
0
41
1
10
31.7940905042287
20
-3.33133632235675
30
0
41
1
10
32.1148015144194
20
-3.35341858691044
30
0
41
1
10
33.0774046603842
20
-3.41249781564616
30
0
41
1
10
33.7200184736251
20
-3.44246206491926
30
0
41
1
10
34.6824100439216
20
-3.47342405962036
30
0
41
1
10
35.0030034018299
20
-3.48140695258897
30
0
41
1
10
35.6437492547189
20
-3.49255075363149
30
0
41
1
10
35.9639386677378
20
-3.49567266057602
30
0
41
1
10
36.3172077390838
20
-3.49639923410231
30
0
41
1
10
36.3501973717811
20
-3.49644149289387
30
0
41
1
10
36.3831876209199
20
-3.49645819239913
30
0
0
SPLINE
5
C9
100
AcDbEntity
8
1
62
256
6
ByLayer
370
18
48
1
60
0
100
AcDbSpline
70
4
71
3
72
12
73
8
40
0
40
0
40
0
40
0
40
0.356834125652681
40
0.356834125652681
40
0.67841706282634
40
0.67841706282634
40
1
40
1
40
1
40
1
41
1
10
11.0116986327449
20
-3.48063807345196
30
0
41
1
10
11.0116999857527
20
-3.48059051712136
30
0
41
1
10
11.0117011219798
20
-3.47383799320107
30
0
41
1
10
11.0117028560965
20
-3.44813773682796
30
0
41
1
10
11.0117034938251
20
-3.43029253292008
30
0
41
1
10
11.0117043577349
20
-3.38418271837298
30
0
41
1
10
11.0117045892304
20
-3.35589400497773
30
0
41
1
10
11.0117046161792
20
-3.32247207460046
30
0
0
SPLINE
5
CA
100
AcDbEntity
8
1
62
256
6
ByLayer
370
18
48
1
60
0
100
AcDbSpline
70
4
71
3
72
8
73
4
40
0
40
0
40
0
40
0
40
1
40
1
40
1
40
1
41
1
10
41.9363387943861
20
-3.41009116431164
30
0
41
1
10
41.9325391436149
20
-3.38548353070496
30
0
41
1
10
41.9287439266568
20
-3.36086994763866
30
0
41
1
10
41.9249531357894
20
-3.33625048414083
30
0
0
SPLINE
5
CB
100
AcDbEntity
8
1
62
256
6
ByLayer
370
18
48
1
60
0
100
AcDbSpline
70
4
71
3
72
8
73
4
40
0
40
0
40
0
40
0
40
1
40
1
40
1
40
1
41
1
10
41.9619051192672
20
2.65591340703784
30
0
41
1
10
41.9887062864631
20
2.85760661270604
30
0
41
1
10
42.0187330861232
20
3.05553193399777
30
0
41
1
10
42.051296287148
20
3.25049446669476
30
0
0
SPLINE
5
CC
100
AcDbEntity
8
1
62
256
6
ByLayer
370
18
48
1
60
0
100
AcDbSpline
70
4
71
3
72
8
73
4
40
0
40
0
40
0
40
0
40
1
40
1
40
1
40
1
41
1
10
41.88624690974
20
-3.26268096492046
30
0
41
1
10
41.8723734899444
20
-3.27422669569361
30
0
41
1
10
41.858335236701
20
-3.28413606410345
30
0
41
1
10
41.8441351020914
20
-3.29243837655201
30
0
0
SPLINE
5
CD
100
AcDbEntity
8
1
62
256
6
ByLayer
370
18
48
1
60
0
100
AcDbSpline
70
4
71
3
72
30
73
26
40
0
40
0
40
0
40
0
40
0.125000000000001
40
0.125000000000001
40
0.187499999999998
40
0.187499999999998
40
0.249999999999994
40
0.249999999999994
40
0.374999999999986
40
0.374999999999986
40
0.437499999999988
40
0.437499999999988
40
0.499999999999989
40
0.499999999999989
40
0.624999999999992
40
0.624999999999992
40
0.749999999999995
40
0.749999999999995
40
0.812499999999996
40
0.812499999999996
40
0.874999999999997
40
0.874999999999997
40
0.937499999999999
40
0.937499999999999
40
1
40
1
40
1
40
1
41
1
10
41.8824594157367
20
-2.33837762642713
30
0
41
1
10
41.9030459171943
20
-2.31537913617842
30
0
41
1
10
41.9265609228492
20
-2.28411295612568
30
0
41
1
10
41.9657328722568
20
-2.22620486863983
30
0
41
1
10
41.9795032455872
20
-2.20493751593881
30
0
41
1
10
42.0075606882687
20
-2.15993428566935
30
0
41
1
10
42.0219392114238
20
-2.13606904066668
30
0
41
1
10
42.0661038207453
20
-2.06046180707409
30
0
41
1
10
42.097106315004
20
-2.00431253519434
30
0
41
1
10
42.1431213601102
20
-1.91656583432879
30
0
41
1
10
42.1584814253309
20
-1.88655139069653
30
0
41
1
10
42.1892472963754
20
-1.82491009597175
30
0
41
1
10
42.2046741181547
20
-1.79322325238158
30
0
41
1
10
42.2494840650114
20
-1.69879141280674
30
0
41
1
10
42.2781150945071
20
-1.63526295054697
30
0
41
1
10
42.3313590263567
20
-1.50942935546612
30
0
41
1
10
42.3547233327923
20
-1.45012876641508
30
0
41
1
10
42.3843008799891
20
-1.36724872226162
30
0
41
1
10
42.3930780206436
20
-1.34104530039193
30
0
41
1
10
42.4078923894854
20
-1.29316553028534
30
0
41
1
10
42.4140264976885
20
-1.27122217546801
30
0
41
1
10
42.4235995851726
20
-1.23156216201369
30
0
41
1
10
42.4269395785619
20
-1.21418663590498
30
0
41
1
10
42.4306247634295
20
-1.18519097230074
30
0
41
1
10
42.4310151188672
20
-1.17338843234978
30
0
41
1
10
42.4299260421022
20
-1.16433165743851
30
0
0
SPLINE
5
CE
100
AcDbEntity
8
1
62
256
6
ByLayer
370
18
48
1
60
0
100
AcDbSpline
70
4
71
3
72
22
73
18
40
0
40
0
40
0
40
0
40
0.155166172584459
40
0.155166172584459
40
0.310332345168918
40
0.310332345168918
40
0.465498517753377
40
0.465498517753377
40
0.543081604045606
40
0.543081604045606
40
0.620664690337835
40
0.620664690337835
40
0.775830862922294
40
0.775830862922294
40
0.930997035506753
40
0.930997035506753
40
1
40
1
40
1
40
1
41
1
10
11.0115802214601
20
1.08822747563528
30
0
41
1
10
11.0115892145571
20
1.30385996659632
30
0
41
1
10
11.0115979418413
20
1.51304418917633
30
0
41
1
10
11.0116144832048
20
1.90572740277003
30
0
41
1
10
11.0116223469972
20
2.09044204713752
30
0
41
1
10
11.0116374078125
20
2.43598775201627
30
0
41
1
10
11.011644387
20
2.59178057746135
30
0
41
1
10
11.0116541475252
20
2.80041428075731
30
0
41
1
10
11.0116572834174
20
2.86579076875185
30
0
41
1
10
11.0116633312139
20
2.98803300188169
30
0
41
1
10
11.0116662538179
20
3.0450804061106
30
0
41
1
10
11.0116745221119
20
3.19979238151424
30
0
41
1
10
11.011679429228
20
3.28234909291973
30
0
41
1
10
11.0116881126827
20
3.40684860045008
30
0
41
1
10
11.0116919034987
20
3.44859300396013
30
0
41
1
10
11.0116963203055
20
3.4763878076883
30
0
41
1
10
11.0116975443774
20
3.48066685751238
30
0
41
1
10
11.0116986291779
20
3.48063818327873
30
0
0
SPLINE
5
CF
100
AcDbEntity
8
1
62
256
6
ByLayer
370
18
48
1
60
0
100
AcDbSpline
70
4
71
3
72
42
73
38
40
0
40
0
40
0
40
0
40
0.0625000000000011
40
0.0625000000000011
40
0.125000000000002
40
0.125000000000002
40
0.187500000000003
40
0.187500000000003
40
0.250000000000004
40
0.250000000000004
40
0.312500000000005
40
0.312500000000005
40
0.375000000000006
40
0.375000000000006
40
0.437500000000007
40
0.437500000000007
40
0.500000000000009
40
0.500000000000009
40
0.56250000000001
40
0.56250000000001
40
0.59375000000001
40
0.59375000000001
40
0.625000000000011
40
0.625000000000011
40
0.656250000000011
40
0.656250000000011
40
0.687500000000012
40
0.687500000000012
40
0.718750000000012
40
0.718750000000012
40
0.750000000000013
40
0.750000000000013
40
0.81250000000001
40
0.81250000000001
40
0.875000000000006
40
0.875000000000006
40
1
40
1
40
1
40
1
41
1
10
42.4299260421023
20
-1.16433165743854
30
0
41
1
10
42.4036776069253
20
-1.15109601630738
30
0
41
1
10
42.3743399454375
20
-1.14383789829591
30
0
41
1
10
42.3121984579592
20
-1.13976955327092
30
0
41
1
10
42.2797031091877
20
-1.14287575032517
30
0
41
1
10
42.2122792630931
20
-1.15786761832734
30
0
41
1
10
42.1770619373686
20
-1.16991371854877
30
0
41
1
10
42.1057601988288
20
-1.20195125760807
30
0
41
1
10
42.0697767719536
20
-1.22182617614806
30
0
41
1
10
41.9971609498258
20
-1.26910108174007
30
0
41
1
10
41.9602007354859
20
-1.29679522442009
30
0
41
1
10
41.8874683970979
20
-1.35883998837744
30
0
41
1
10
41.8517233797831
20
-1.39307892080092
30
0
41
1
10
41.7815853973517
20
-1.46855820389374
30
0
41
1
10
41.7469963068927
20
-1.51002753202192
30
0
41
1
10
41.6803502592618
20
-1.60073009374304
30
0
41
1
10
41.6491176734144
20
-1.64876988913758
30
0
41
1
10
41.5918444613359
20
-1.75152686481027
30
0
41
1
10
41.5662381728353
20
-1.8056871418564
30
0
41
1
10
41.5354427500305
20
-1.88812557589566
30
0
41
1
10
41.5263326718808
20
-1.91619209776783
30
0
41
1
10
41.5115141875323
20
-1.97082868414409
30
0
41
1
10
41.5056959904629
20
-1.99763525858785
30
0
41
1
10
41.4973968297209
20
-2.05017507217005
30
0
41
1
10
41.4949295843292
20
-2.07618390713523
30
0
41
1
10
41.493681785544
20
-2.12493288521301
30
0
41
1
10
41.4948343676505
20
-2.14784807982673
30
0
41
1
10
41.5005334066028
20
-2.19089056358553
30
0
41
1
10
41.5051274280825
20
-2.21101394272628
30
0
41
1
10
41.517154034793
20
-2.24719566044888
30
0
41
1
10
41.524605168936
20
-2.26347606999812
30
0
41
1
10
41.5508927455032
20
-2.30736357048653
30
0
41
1
10
41.573010387114
20
-2.32905143864161
30
0
41
1
10
41.6236221563772
20
-2.36011205810806
30
0
41
1
10
41.6523425118054
20
-2.36942030392305
30
0
41
1
10
41.7430465520515
20
-2.38103843883081
30
0
41
1
10
41.8117265981355
20
-2.36774788726021
30
0
41
1
10
41.8824594157371
20
-2.33837762642699
30
0
0
SPLINE
5
D0
100
AcDbEntity
8
1
62
256
6
ByLayer
370
18
48
1
60
0
100
AcDbSpline
70
4
71
3
72
8
73
4
40
0
40
0
40
0
40
0
40
1
40
1
40
1
40
1
41
1
10
41.973720148993
20
-2.57950252773944
30
0
41
1
10
41.9627188210471
20
-2.60357045007501
30
0
41
1
10
41.9584682617995
20
-2.63004920511591
30
0
41
1
10
41.9619051192672
20
-2.65591340703784
30
0
0
SPLINE
5
D1
100
AcDbEntity
8
1
62
256
6
ByLayer
370
18
48
1
60
0
100
AcDbSpline
70
4
71
3
72
60
73
56
40
0
40
0
40
0
40
0
40
0.12500000000001
40
0.12500000000001
40
0.250000000000021
40
0.250000000000021
40
0.375000000000031
40
0.375000000000031
40
0.437500000000037
40
0.437500000000037
40
0.46875000000004
40
0.46875000000004
40
0.500000000000043
40
0.500000000000043
40
0.625000000000053
40
0.625000000000053
40
0.750000000000064
40
0.750000000000064
40
0.812500000000069
40
0.812500000000069
40
0.82812500000007
40
0.82812500000007
40
0.83593750000007
40
0.83593750000007
40
0.83984375000007
40
0.83984375000007
40
0.84375000000007
40
0.84375000000007
40
0.844726562500069
40
0.844726562500069
40
0.845703125000069
40
0.845703125000069
40
0.847656250000068
40
0.847656250000068
40
0.851562500000066
40
0.851562500000066
40
0.859375000000063
40
0.859375000000063
40
0.86718750000006
40
0.86718750000006
40
0.875000000000056
40
0.875000000000056
40
0.882812500000053
40
0.882812500000053
40
0.89062500000005
40
0.89062500000005
40
0.906250000000043
40
0.906250000000043
40
0.921875000000036
40
0.921875000000036
40
0.937500000000029
40
0.937500000000029
40
0.968750000000014
40
0.968750000000014
40
1
40
1
40
1
40
1
41
1
10
26.6630758954289
20
-2.77703272619328
30
0
41
1
10
25.8099313204075
20
-2.65488484656171
30
0
41
1
10
24.9542228736904
20
-2.5274580417634
30
0
41
1
10
23.2348601442992
20
-2.28272472619147
30
0
41
1
10
22.3711735104491
20
-2.1655834125979
30
0
41
1
10
20.6331852173725
20
-1.96400634076593
30
0
41
1
10
19.7621702919016
20
-1.88012395225329
30
0
41
1
10
18.4535385428736
20
-1.79322362016001
30
0
41
1
10
18.0169009568024
20
-1.77068788548473
30
0
41
1
10
17.3612464916506
20
-1.74787386857611
30
0
41
1
10
17.1425786234316
20
-1.74209903133783
30
0
41
1
10
16.7049991809207
20
-1.73442253965973
30
0
41
1
10
16.4861227192165
20
-1.73196174255148
30
0
41
1
10
15.3916058750548
20
-1.72180073972865
30
0
41
1
10
14.5149089964415
20
-1.72516259420465
30
0
41
1
10
12.7621104943763
20
-1.75441341055216
30
0
41
1
10
11.8861115931127
20
-1.78029083827579
30
0
41
1
10
10.5727123323927
20
-1.83514143244662
30
0
41
1
10
10.1351021616032
20
-1.85608928336589
30
0
41
1
10
9.58839392218101
20
-1.88547116677017
30
0
41
1
10
9.47906643885548
20
-1.89150733714987
30
0
41
1
10
9.31509649000864
20
-1.90079851645487
30
0
41
1
10
9.26054560770842
20
-1.90517480799289
30
0
41
1
10
9.17940229406906
20
-1.91990600561729
30
0
41
1
10
9.15228792060051
20
-1.92606311506586
30
0
41
1
10
9.10022343756313
20
-1.94256416870252
30
0
41
1
10
9.07414944600487
20
-1.9527001350524
30
0
41
1
10
9.0488054199742
20
-1.97241652290518
30
0
41
1
10
9.04413108548124
20
-1.97678994766062
30
0
41
1
10
9.03661415528654
20
-1.98646471080514
30
0
41
1
10
9.03419026283723
20
-1.99174491035109
30
0
41
1
10
9.02903637179764
20
-2.00826519783149
30
0
41
1
10
9.02585492553024
20
-2.01929470925808
30
0
41
1
10
9.01711749284686
20
-2.05234699130529
30
0
41
1
10
9.01234863173454
20
-2.07442385805851
30
0
41
1
10
9.00144697058764
20
-2.14020802692096
30
0
41
1
10
8.998739534701
20
-2.18318448577267
30
0
41
1
10
9.00232062348849
20
-2.2673958499868
30
0
41
1
10
9.00866794064527
20
-2.30883755286465
30
0
41
1
10
9.03004956581736
20
-2.38906666879492
30
0
41
1
10
9.04486712005695
20
-2.42728398607221
30
0
41
1
10
9.0816277333239
20
-2.5004410549019
30
0
41
1
10
9.10369204865211
20
-2.53553106485086
30
0
41
1
10
9.15355947827595
20
-2.6021209327763
30
0
41
1
10
9.18111533875305
20
-2.63336675733186
30
0
41
1
10
9.27013767122844
20
-2.72214039420291
30
0
41
1
10
9.33788202911592
20
-2.77476441479746
30
0
41
1
10
9.48530189190313
20
-2.87071038829171
30
0
41
1
10
9.56386510702043
20
-2.91325403311652
30
0
41
1
10
9.72672436282454
20
-2.9902353261829
30
0
41
1
10
9.81124935895377
20
-3.02475985393753
30
0
41
1
10
10.0718045063384
20
-3.11942305537247
30
0
41
1
10
10.2556689629939
20
-3.17098188311553
30
0
41
1
10
10.6292433752749
20
-3.25763006693305
30
0
41
1
10
10.8193324100163
20
-3.29282167003191
30
0
41
1
10
11.0117046161515
20
-3.32247207459611
30
0
0
SPLINE
5
D2
100
AcDbEntity
8
1
62
256
6
ByLayer
370
18
48
1
60
0
100
AcDbSpline
70
4
71
3
72
10
73
6
40
0
40
0
40
0
40
0
40
0.5
40
0.5
40
1
40
1
40
1
40
1
41
1
10
11.1932097135199
20
0.899735155610529
30
0
41
1
10
11.1591125204112
20
0.907412793636297
30
0
41
1
10
11.1272540902547
20
0.921874175239509
30
0
41
1
10
11.0718976936793
20
0.962013480411514
30
0
41
1
10
11.048557449704
20
0.987767751879176
30
0
41
1
10
11.0317344688076
20
1.01659070065344
30
0
0
SPLINE
5
D3
100
AcDbEntity
8
SK1
62
256
6
ByLayer
370
18
48
1
60
0
100
AcDbSpline
70
4
71
3
72
14
73
10
40
0
40
0
40
0
40
0
40
0.5
40
0.5
40
0.749999999999999
40
0.749999999999999
40
0.874999999999999
40
0.874999999999999
40
1
40
1
40
1
40
1
41
1
10
-35.25
20
1.49718610921835
30
0
41
1
10
-35.2287404812744
20
1.52093154592441
30
0
41
1
10
-35.208362723075
20
1.54949114311157
30
0
41
1
10
-35.1802905070704
20
1.60080352097879
30
0
41
1
10
-35.1714466180788
20
1.61917304336816
30
0
41
1
10
-35.1602396792677
20
1.64933816653812
30
0
41
1
10
-35.1568594217207
20
1.65985919045531
30
0
41
1
10
-35.1517495297275
20
1.6812401695102
30
0
41
1
10
-35.15
20
1.6923122166491
30
0
41
1
10
-35.15
20
1.70231544989829
30
0
0
SPLINE
5
D4
100
AcDbEntity
8
SK1
62
256
6
ByLayer
370
18
48
1
60
0
100
AcDbSpline
70
4
71
3
72
8
73
4
40
0
40
0
40
0
40
0
40
1
40
1
40
1
40
1
41
1
10
-36
20
0.642533194432446
30
0
41
1
10
-35.756079823772
20
0.929309106382647
30
0
41
1
10
-35.5039364975739
20
1.21355630986457
30
0
41
1
10
-35.25
20
1.49718610921855
30
0
0
SPLINE
5
D5
100
AcDbEntity
8
SK1
62
256
6
ByLayer
370
18
48
1
60
0
100
AcDbSpline
70
4
71
3
72
14
73
10
40
0
40
0
40
0
40
0
40
0.125
40
0.125
40
0.25
40
0.25
40
0.500000000000001
40
0.500000000000001
40
1
40
1
40
1
40
1
41
1
10
-35.15
20
3.11157529111963
30
0
41
1
10
-35.15
20
3.11843390336304
30
0
41
1
10
-35.1517507934569
20
3.12277308340651
30
0
41
1
10
-35.1569069278762
20
3.1277862596632
30
0
41
1
10
-35.160234831946
20
3.12857020017748
30
0
41
1
10
-35.1714888412644
20
3.12800371717549
30
0
41
1
10
-35.1802429568048
20
3.12385020312783
30
0
41
1
10
-35.2083191353839
20
3.10582285386428
30
0
41
1
10
-35.2286409685642
20
3.08688696287842
30
0
41
1
10
-35.25
20
3.06303037724226
30
0
0
SPLINE
5
D6
100
AcDbEntity
8
SK1
62
256
6
ByLayer
370
18
48
1
60
0
100
AcDbSpline
70
4
71
3
72
8
73
4
40
0
40
0
40
0
40
0
40
1
40
1
40
1
40
1
41
1
10
-35.25
20
3.06303037724226
30
0
41
1
10
-35.5038886803042
20
2.77945398652693
30
0
41
1
10
-35.7559784545036
20
2.49527255382333
30
0
41
1
10
-36
20
2.20837746245613
30
0
0
LINE
5
76
100
AcDbEntity
8
81
62
256
6
ByLayer
370
18
48
1
60
0
100
AcDbLine
10
43
20
0
30
0
11
48
21
0
31
0
39
0
210
0
220
0
230
1
0
LINE
5
77
100
AcDbEntity
8
1
62
256
6
ByLayer
370
18
48
1
60
0
100
AcDbLine
10
11.011695
20
3.480601
30
0
11
0.333541
21
3.473927
31
0
39
0
210
0
220
0
230
1
0
LINE
5
79
100
AcDbEntity
8
1
62
256
6
ByLayer
370
18
48
1
60
0
100
AcDbLine
10
38.546126
20
3.49781
30
0
11
36.380342
21
3.496456
31
0
39
0
210
0
220
0
230
1
0
LINE
5
7A
100
AcDbEntity
8
1
62
256
6
ByLayer
370
18
48
1
60
0
100
AcDbLine
10
36.380342
20
-3.496456
30
0
11
38.546153
21
-3.49781
31
0
39
0
210
0
220
0
230
1
0
LINE
5
7B
100
AcDbEntity
8
1
62
256
6
ByLayer
370
18
48
1
60
0
100
AcDbLine
10
0.333541
20
-3.473927
30
0
11
11.011695
21
-3.480601
31
0
39
0
210
0
220
0
230
1
0
LINE
5
7C
100
AcDbEntity
8
SK1
62
256
6
ByLayer
370
18
48
1
60
0
100
AcDbLine
10
-35.133975
20
4
30
0
11
-36
21
2.5
31
0
39
0
210
0
220
0
230
1
0
LINE
5
7E
100
AcDbEntity
8
SK1
62
256
6
ByLayer
370
18
48
1
60
0
100
AcDbLine
10
-36
20
-2.5
30
0
11
-35.133975
21
-4
31
0
39
0
210
0
220
0
230
1
0
LINE
5
7F
100
AcDbEntity
8
SK1
62
256
6
ByLayer
370
18
48
1
60
0
100
AcDbLine
10
0
20
4
30
0
11
-35.133975
21
4
31
0
39
0
210
0
220
0
230
1
0
LINE
5
80
100
AcDbEntity
8
SK1
62
256
6
ByLayer
370
18
48
1
60
0
100
AcDbLine
10
-35.133975
20
-4
30
0
11
0
21
-4
31
0
39
0
210
0
220
0
230
1
0
LINE
5
81
100
AcDbEntity
8
SK4
62
256
6
ByLayer
370
18
48
0.05
60
0
100
AcDbLine
10
48
20
0
30
0
11
-41
21
0
31
0
39
0
210
0
220
0
230
1
0
LINE
5
83
100
AcDbEntity
8
4
62
256
6
ByLayer
370
18
48
0.05
60
0
100
AcDbLine
10
43
20
0
30
0
11
0
21
0
31
0
39
0
210
0
220
0
230
1
0
LINE
5
85
100
AcDbEntity
8
80
62
256
6
ByLayer
370
18
48
1
60
0
100
AcDbLine
10
0
20
0
30
0
11
-5
21
0
31
0
39
0
210
0
220
0
230
1
0
LINE
5
86
100
AcDbEntity
8
1
62
256
6
ByLayer
370
18
48
1
60
0
100
AcDbLine
10
41.882459
20
-2.338378
30
0
11
41.662014
21
-2.811125
31
0
39
0
210
0
220
0
230
1
0
LINE
5
87
100
AcDbEntity
8
1
62
256
6
ByLayer
370
18
48
1
60
0
100
AcDbLine
10
42.919186
20
-0.115111
30
0
11
42.985104
21
-0.003469
31
0
39
0
210
0
220
0
230
1
0
LINE
5
88
100
AcDbEntity
8
1
62
256
6
ByLayer
370
18
48
1
60
0
100
AcDbLine
10
42.919186
20
-0.115111
30
0
11
42.429926
21
-1.164332
31
0
39
0
210
0
220
0
230
1
0
LINE
5
89
100
AcDbEntity
8
1
62
256
6
ByLayer
370
13
48
1
60
0
100
AcDbLine
10
40.460667
20
1.185524
30
0
11
42.985104
21
-0.003469
31
0
39
0
210
0
220
0
230
1
0
LINE
5
8A
100
AcDbEntity
8
1
62
256
6
ByLayer
370
13
48
1
60
0
100
AcDbLine
10
41.961905
20
-2.655913
30
0
11
41.659007
21
-2.88099
31
0
39
0
210
0
220
0
230
1
0
LINE
5
8B
100
AcDbEntity
8
1
62
256
6
ByLayer
370
18
48
1
60
0
100
AcDbLine
10
40.467393
20
-2.163647
30
0
11
42.919186
21
-0.115111
31
0
39
0
210
0
220
0
230
1
0
LINE
5
8C
100
AcDbEntity
8
1
62
256
6
ByLayer
370
13
48
1
60
0
100
AcDbLine
10
0.333541
20
3.473927
30
0
11
0.333541
21
-3.473927
31
0
39
0
210
0
220
0
230
1
0
LINE
5
8D
100
AcDbEntity
8
1
62
256
6
ByLayer
370
18
48
1
60
0
100
AcDbLine
10
41.659007
20
-2.88099
30
0
11
41.844135
21
-3.292438
31
0
39
0
210
0
220
0
230
1
0
LINE
5
8E
100
AcDbEntity
8
1
62
256
6
ByLayer
370
13
48
1
60
0
100
AcDbLine
10
41.97372
20
-2.579503
30
0
11
41.662014
21
-2.811125
31
0
39
0
210
0
220
0
230
1
0
LINE
5
8F
100
AcDbEntity
8
1
62
256
6
ByLayer
370
13
48
1
60
0
100
AcDbLine
10
40.488805
20
1.218325
30
0
11
42.997187
21
0.036894
31
0
39
0
210
0
220
0
230
1
0
LINE
5
90
100
AcDbEntity
8
1
62
256
6
ByLayer
370
18
48
1
60
0
100
AcDbLine
10
43
20
-0.0284
30
0
11
43
21
0.0284
31
0
39
0
210
0
220
0
230
1
0
LINE
5
91
100
AcDbEntity
8
1
62
256
6
ByLayer
370
18
48
1
60
0
100
AcDbLine
10
42.997187
20
0.036894
30
0
11
42.698347
21
1.026229
31
0
39
0
210
0
220
0
230
1
0
LINE
5
92
100
AcDbEntity
8
1
62
256
6
ByLayer
370
18
48
1
60
0
100
AcDbLine
10
42.997187
20
-0.036894
30
0
11
42.698347
21
-1.026229
31
0
39
0
210
0
220
0
230
1
0
LINE
5
93
100
AcDbEntity
8
SK1
62
256
6
ByLayer
370
13
48
1
60
0
100
AcDbLine
10
-35.25
20
3.06303
30
0
11
-35.25
21
1.497166
31
0
39
0
210
0
220
0
230
1
0
LINE
5
94
100
AcDbEntity
8
SK1
62
256
6
ByLayer
370
18
48
1
60
0
100
AcDbLine
10
-36
20
2.5
30
0
11
-36
21
2.208377
31
0
39
0
210
0
220
0
230
1
0
LINE
5
95
100
AcDbEntity
8
SK1
62
256
6
ByLayer
370
18
48
1
60
0
100
AcDbLine
10
0
20
4
30
0
11
0
21
-4
31
0
39
0
210
0
220
0
230
1
0
LINE
5
96
100
AcDbEntity
8
SK1
62
256
6
ByLayer
370
18
48
1
60
0
100
AcDbLine
10
-35.133975
20
4
30
0
11
-35.133975
21
-4
31
0
39
0
210
0
220
0
230
1
0
LINE
5
97
100
AcDbEntity
8
SK1
62
256
6
ByLayer
370
18
48
1
60
0
100
AcDbLine
10
-36
20
0.642533
30
0
11
-36
21
-2.5
31
0
39
0
210
0
220
0
230
1
0
LINE
5
98
100
AcDbEntity
8
SK1
62
256
6
ByLayer
370
18
48
1
60
0
100
AcDbLine
10
-36
20
2.208377
30
0
11
-36
21
0.642559
31
0
39
0
210
0
220
0
230
1
0
LINE
5
99
100
AcDbEntity
8
SK1
62
256
6
ByLayer
370
18
48
1
60
0
100
AcDbLine
10
-35.15
20
1.702315
30
0
11
-35.15
21
3.111575
31
0
39
0
210
0
220
0
230
1
0
MTEXT
5
D7
100
AcDbEntity
8
SK6
62
256
6
ByLayer
370
13
48
1
60
0
100
AcDbMText
10
5.629169
20
35.882694
30
0
210
0
220
0
230
1
1
\W0.7169;860.1-0700-021A1-NM H10F
40
3.5
41
0
44
1.084337
50
0
71
8
72
5
7
iso_b_vert
0
DIMENSION
5
E4
100
AcDbEntity
8
SK2
62
256
6
ByLayer
370
13
48
1
60
0
100
AcDbDimension
2
DimnDraft3D1
10
42.0622
20
-16.302503
30
0
11
19.707644
21
-16.302503
31
0
70
32
71
5
72
1
41
1
210
0
220
0
230
1
3
Standard
100
AcDbAlignedDimension
13
0
23
-1.5875
33
0
14
42.0622
24
-5.0875
34
0
50
0
100
AcDbRotatedDimension
1001
ACAD
1000
DSTYLE
1002
{
1070
   279
1070
     0
1070
   172
1070
     1
1070
   173
1070
     1
1070
   340
1005
D8
1070
   271
1070
     1
1070
   272
1070
     2
1070
    77
1070
     1
1070
    73
1070
     0
1070
   171
1070
     3
1070
   274
1070
     4
1070
   177
1070
    35
1070
   176
1070
    35
1070
   178
1070
    35
1070
    48
1040
-0.005
1070
    41
1041
3.5
1070
   147
1041
1.75
1070
    42
1041
1.5875
1070
    44
1041
2.0
1070
   140
1041
3.5
1070
   343
1005
0
1070
   344
1005
0
1002
}
0
DIMENSION
5
EE
100
AcDbEntity
8
SK2
62
256
6
ByLayer
370
13
48
1
60
0
100
AcDbDimension
2
DimnDraft3D2
10
43
20
-37.692985
30
0
11
3.9035
21
-37.692985
31
0
70
32
71
5
72
1
41
1
210
0
220
0
230
1
3
Standard
100
AcDbAlignedDimension
13
-36
23
-5.5875
33
0
14
43
24
-1.5875
34
0
50
0
100
AcDbRotatedDimension
1001
ACAD
1000
DSTYLE
1002
{
1070
   279
1070
     0
1070
   172
1070
     1
1070
   173
1070
     1
1070
   340
1005
D8
1070
   271
1070
     1
1070
   272
1070
     2
1070
    77
1070
     1
1070
    73
1070
     0
1070
   171
1070
     3
1070
   274
1070
     4
1070
   177
1070
    35
1070
   176
1070
    35
1070
   178
1070
    35
1070
    48
1040
-0.005
1070
    41
1041
3.5
1070
   147
1041
1.75
1070
    42
1041
1.5875
1070
    44
1041
2.0
1070
   140
1041
3.5
1070
   343
1005
0
1070
   344
1005
0
1002
}
0
DIMENSION
5
F8
100
AcDbEntity
8
SK2
62
256
6
ByLayer
370
13
48
1
60
0
100
AcDbDimension
2
DimnDraft3D3
10
43
20
15.109119
30
0
11
32.035
21
15.109119
31
0
70
32
71
5
72
1
41
1
210
0
220
0
230
1
3
Standard
100
AcDbAlignedDimension
13
21.07
23
5.0875
33
0
14
43
24
1.5875
34
0
50
0
100
AcDbRotatedDimension
1001
ACAD
1000
DSTYLE
1002
{
1070
   279
1070
     0
1070
   172
1070
     1
1070
   173
1070
     1
1070
   340
1005
D8
1070
   271
1070
     2
1070
   272
1070
     2
1070
    77
1070
     1
1070
    73
1070
     0
1070
   171
1070
     3
1070
   274
1070
     4
1070
   177
1070
    35
1070
   176
1070
    35
1070
   178
1070
    35
1070
    48
1040
-0.005
1070
    41
1041
3.5
1070
   147
1041
1.75
1070
    42
1041
1.5875
1070
    44
1041
2.0
1070
   140
1041
3.5
1070
   343
1005
0
1070
   344
1005
0
1002
}
0
DIMENSION
5
102
100
AcDbEntity
8
SK2
62
256
6
ByLayer
370
13
48
1
60
0
100
AcDbDimension
2
DimnDraft3D4
10
42.0622
20
-16.302503
30
0
11
52.981425
21
-16.302503
31
0
70
32
71
5
72
1
41
1
210
0
220
0
230
1
3
Standard
100
AcDbAlignedDimension
13
43
23
-1.5875
33
0
14
42.0622
24
-5.0875
34
0
50
0
100
AcDbRotatedDimension
1001
ACAD
1000
DSTYLE
1002
{
1070
   279
1070
     0
1070
   172
1070
     1
1070
   173
1070
     1
1070
   340
1005
D8
1070
   271
1070
     2
1070
   272
1070
     2
1070
    77
1070
     1
1070
    73
1070
     0
1070
   171
1070
     3
1070
   274
1070
     4
1070
   177
1070
    35
1070
   176
1070
    35
1070
   178
1070
    35
1070
    48
1040
-0.005
1070
    41
1041
3.5
1070
   147
1041
1.75
1070
    42
1041
1.5875
1070
    44
1041
2.0
1070
   140
1041
3.5
1070
   343
1005
0
1070
   344
1005
0
1002
}
0
DIMENSION
5
10C
100
AcDbEntity
8
SK2
62
256
6
ByLayer
370
13
48
1
60
0
100
AcDbDimension
2
DimnDraft3D5
10
42.0622
20
-27.5
30
0
11
2.5622
21
-27.5
31
0
70
32
71
5
72
1
41
1
210
0
220
0
230
1
3
Standard
100
AcDbAlignedDimension
13
-36
23
-5.5875
33
0
14
42.0622
24
-5.0875
34
0
50
0
100
AcDbRotatedDimension
1001
ACAD
1000
DSTYLE
1002
{
1070
   279
1070
     0
1070
   172
1070
     1
1070
   173
1070
     1
1070
   340
1005
D8
1070
   271
1070
     1
1070
   272
1070
     2
1070
    77
1070
     1
1070
    73
1070
     0
1070
   171
1070
     3
1070
   274
1070
     4
1070
   177
1070
    35
1070
   176
1070
    35
1070
   178
1070
    35
1070
    48
1040
-0.005
1070
    41
1041
3.5
1070
   147
1041
1.75
1070
    42
1041
1.5875
1070
    44
1041
2.0
1070
   140
1041
3.5
1070
   343
1005
0
1070
   344
1005
0
1002
}
0
DIMENSION
5
117
100
AcDbEntity
8
SK2
62
256
6
ByLayer
370
13
48
1
60
0
100
AcDbDimension
2
DimnDraft3D6
10
-46.625163
20
4
30
0
11
-47.250163
21
22.47418
31
0
70
33
71
5
72
1
41
1
210
0
220
0
230
1
3
Standard
100
AcDbAlignedDimension
13
-37.5875
23
-4
33
0
14
-37.5875
24
4
34
0
1001
ACAD
1000
DSTYLE
1002
{
1070
   279
1070
     0
1070
    74
1070
     0
1070
   173
1070
     1
1070
   340
1005
D8
1070
   271
1070
     2
1070
   272
1070
     2
1070
    77
1070
     1
1070
    73
1070
     0
1070
   171
1070
     3
1070
   274
1070
     4
1070
   177
1070
    35
1070
   176
1070
    35
1070
   178
1070
    35
1070
    48
1040
-0.005
1070
    41
1041
3.5
1070
   147
1041
1.75
1070
    42
1041
1.5875
1070
    44
1041
2.0
1070
   140
1041
3.5
1070
   343
1005
0
1070
   344
1005
0
1002
}
0
DIMENSION
5
122
100
AcDbEntity
8
2
62
256
6
ByLayer
370
13
48
1
60
0
100
AcDbDimension
2
DimnDraft3D7
10
57.083343
20
3.5
30
0
11
52.458343
21
20.567266
31
0
70
33
71
5
72
1
41
1
210
0
220
0
230
1
3
Standard
100
AcDbAlignedDimension
13
43.6497
23
-3.5
33
0
14
43.6497
24
3.5
34
0
1001
ACAD
1000
DSTYLE
1002
{
1070
   279
1070
     0
1070
    74
1070
     0
1070
   173
1070
     1
1070
   340
1005
D8
1070
   271
1070
     1
1070
   272
1070
     2
1070
    77
1070
     1
1070
    73
1070
     0
1070
   171
1070
     3
1070
   274
1070
     4
1070
   177
1070
    35
1070
   176
1070
    35
1070
   178
1070
    35
1070
    48
1040
-0.005
1070
    41
1041
3.5
1070
   147
1041
1.75
1070
    42
1041
1.5875
1070
    44
1041
2.0
1070
   140
1041
3.5
1070
   343
1005
0
1070
   344
1005
0
1002
}
0
ENDSEC
0
SECTION
2
OBJECTS
0
DICTIONARY
5
18d
330
0
100
AcDbDictionary
280
0
281
1
3
ACAD_GROUP
350
18e
3
ACAD_MLINESTYLE
350
18f
0
DICTIONARY
5
18e
330
0
100
AcDbDictionary
280
0
281
1
0
DICTIONARY
5
18f
330
0
100
AcDbDictionary
280
0
281
1
3
Standard
350
18
0
MLINESTYLE
5
18
330
18f
100
AcDbMlineStyle
2
Standard
70
0
3

62
256
51
90
52
90
71
2
49
-0.5
62
256
6
ByLayer
49
0.5
62
256
6
ByLayer
0
RASTERVARIABLES
5
17b
330

100
AcDbRasterVariables
90
0
70
1
71
1
72
1
0
ENDSEC
0
EOF
