0
SECTION
2
HEADER
9
$ACADVER
1
AC1015
9
$DWGCODEPAGE
3
ANSI_1252
9
$HANDSEED
5
1ae
9
$ANGBASE
50
0
9
$ANGDIR
70
0
9
$ATTMODE
70
1
9
$AUNITS
70
0
9
$AUPREC
70
0
9
$CECOLOR
62
256
9
$CELTSCALE
40
1
9
$CELTYPE
6
ByLayer
9
$CELWEIGHT
370
18
9
$CLAYER
8
0
9
$CMLJUST
70
0
9
$CMLSCALE
40
1
9
$CMLSTYLE
2
Standard
9
$DIMSTYLE
2
Standard
9
$TEXTSIZE
40
0.2
9
$TEXTSTYLE
7
Standard
9
$LUNITS
70
2
9
$LUPREC
70
4
9
$EXTNAMES
290
1
9
$INSUNITS
70
4
9
$LTSCALE
40
1
9
$LWDISPLAY
290
1
9
$PDMODE
70
0
9
$PDSIZE
40
0
9
$PLINEGEN
70
0
0
ENDSEC
0
SECTION
2
CLASSES
0
CLASS
1
RASTERVARIABLES
2
AcDbRasterVariables
3
ISM
90
0
280
0
281
0
0
ENDSEC
0
SECTION
2
TABLES
0
TABLE
2
VPORT
5
1a4
100
AcDbSymbolTable
0
VPORT
5
1
100
AcDbSymbolTableRecord
100
AcDbViewportTableRecord
2
*Active
70
0
10
0
20
0
11
1
21
1
12
-1
22
1
13
0
23
0
14
0.5
24
0.5
15
10
25
10
16
0
26
0
36
1
17
0
27
0
37
0
0
ENDTAB
0
TABLE
2
LTYPE
5
1a5
100
AcDbSymbolTable
0
LTYPE
5
14
100
AcDbSymbolTableRecord
100
AcDbLinetypeTableRecord
70
0
2
ByBlock
3

72
65
73
0
40
0
0
LTYPE
5
15
100
AcDbSymbolTableRecord
100
AcDbLinetypeTableRecord
70
0
2
ByLayer
3

72
65
73
0
40
0
0
LTYPE
5
16
100
AcDbSymbolTableRecord
100
AcDbLinetypeTableRecord
70
0
2
CONTINUOUS
3
Solid line
72
65
73
0
40
0
0
LTYPE
5
6A
100
AcDbSymbolTableRecord
100
AcDbLinetypeTableRecord
70
0
2
CENTER
3
____ _ ____ _ ____ _ ____
72
65
73
4
40
47.5
49
22
74
0
49
-8.5
74
0
49
8.5
74
0
49
-8.5
74
0
0
LTYPE
5
6B
100
AcDbSymbolTableRecord
100
AcDbLinetypeTableRecord
70
0
2
DASHED
3
__ __ __ __ __ __ __ __ __
72
65
73
2
40
25.72
49
12.86
74
0
49
-12.86
74
0
0
ENDTAB
0
TABLE
2
LAYER
5
1a6
100
AcDbSymbolTable
0
LAYER
5
10
100
AcDbSymbolTableRecord
100
AcDbLayerTableRecord
2
0
70
0
62
7
6
CONTINUOUS
290
1
370
-3
390
0
0
LAYER
5
6D
100
AcDbSymbolTableRecord
100
AcDbLayerTableRecord
2
81
70
0
62
-3
6
CONTINUOUS
290
1
370
-3
390
0
0
LAYER
5
6F
100
AcDbSymbolTableRecord
100
AcDbLayerTableRecord
2
80
70
0
62
-6
6
CONTINUOUS
290
1
370
-3
390
0
0
LAYER
5
74
100
AcDbSymbolTableRecord
100
AcDbLayerTableRecord
2
2
70
0
62
7
6
CONTINUOUS
290
1
370
-3
390
0
0
LAYER
5
78
100
AcDbSymbolTableRecord
100
AcDbLayerTableRecord
2
1
70
0
62
4
6
CONTINUOUS
290
1
370
-3
390
0
0
LAYER
5
88
100
AcDbSymbolTableRecord
100
AcDbLayerTableRecord
2
4
70
0
62
-2
6
CENTER
290
1
370
-3
390
0
0
LAYER
5
190
100
AcDbSymbolTableRecord
100
AcDbLayerTableRecord
2
SK2
70
0
62
7
6
CONTINUOUS
290
1
370
-3
390
0
0
LAYER
5
191
100
AcDbSymbolTableRecord
100
AcDbLayerTableRecord
2
SK1
70
0
62
4
6
CONTINUOUS
290
1
370
-3
390
0
0
LAYER
5
192
100
AcDbSymbolTableRecord
100
AcDbLayerTableRecord
2
SK4
70
0
62
2
6
CENTER
290
1
370
-3
390
0
0
LAYER
5
193
100
AcDbSymbolTableRecord
100
AcDbLayerTableRecord
2
SK6
70
0
62
5
6
CONTINUOUS
290
1
370
-3
390
0
0
ENDTAB
0
TABLE
2
STYLE
5
1a7
100
AcDbSymbolTable
0
STYLE
5
11
100
AcDbSymbolTableRecord
100
AcDbTextStyleTableRecord
2
Standard
3
txt
70
0
71
0
40
0
41
1
42
0
50
0
0
STYLE
5
EC
100
AcDbSymbolTableRecord
100
AcDbTextStyleTableRecord
2
iso_b_vert
3
simplex.shx
70
0
71
0
40
0
41
1
42
0
50
0
0
STYLE
5
ED
100
AcDbSymbolTableRecord
100
AcDbTextStyleTableRecord
2
DWGDirectTextStyle
3
simplex
70
0
71
0
40
0
41
1
42
0
50
0
0
ENDTAB
0
TABLE
2
DIMSTYLE
5
1a8
100
AcDbSymbolTable
100
AcDbDimStyleTable
0
DIMSTYLE
105
27
100
AcDbSymbolTableRecord
100
AcDbDimStyleTableRecord
2
Standard
70
0
3
<>
41
0.18
42
0.0625
44
0.18
140
0.18
147
0.09
73
0
74
0
77
1
271
2
275
0
278
52
280
0
340
11
0
ENDTAB
0
TABLE
2
VIEW
5
1a9
100
AcDbSymbolTable
0
ENDTAB
0
TABLE
2
UCS
5
1aa
100
AcDbSymbolTable
0
ENDTAB
0
TABLE
2
APPID
5
1ab
100
AcDbSymbolTable
0
APPID
5
12
100
AcDbSymbolTableRecord
100
AcDbRegAppTableRecord
2
ACAD
70
0
0
ENDTAB
0
TABLE
2
BLOCK_RECORD
5
1ac
100
AcDbSymbolTable
0
BLOCK_RECORD
5
1F
100
AcDbSymbolTableRecord
100
AcDbBlockTableRecord
2
*Model_Space
340
0
70
0
0
BLOCK_RECORD
5
1B
100
AcDbSymbolTableRecord
100
AcDbBlockTableRecord
2
*Paper_Space
340
0
70
0
0
BLOCK_RECORD
5
23
100
AcDbSymbolTableRecord
100
AcDbBlockTableRecord
2
*Paper_Space0
340
0
70
0
0
BLOCK_RECORD
5
EF
100
AcDbSymbolTableRecord
100
AcDbBlockTableRecord
2
DimnDraft3D1
340
0
70
0
0
BLOCK_RECORD
5
F9
100
AcDbSymbolTableRecord
100
AcDbBlockTableRecord
2
DimnDraft3D2
340
0
70
0
0
BLOCK_RECORD
5
103
100
AcDbSymbolTableRecord
100
AcDbBlockTableRecord
2
DimnDraft3D3
340
0
70
0
0
BLOCK_RECORD
5
10D
100
AcDbSymbolTableRecord
100
AcDbBlockTableRecord
2
DimnDraft3D4
340
0
70
0
0
BLOCK_RECORD
5
117
100
AcDbSymbolTableRecord
100
AcDbBlockTableRecord
2
DimnDraft3D5
340
0
70
0
0
BLOCK_RECORD
5
121
100
AcDbSymbolTableRecord
100
AcDbBlockTableRecord
2
DimnDraft3D6
340
0
70
0
0
BLOCK_RECORD
5
12C
100
AcDbSymbolTableRecord
100
AcDbBlockTableRecord
2
DimnDraft3D7
340
0
70
0
0
ENDTAB
0
ENDSEC
0
SECTION
2
BLOCKS
0
BLOCK
5
20
100
AcDbEntity
8
0
100
AcDbBlockBegin
2
*Model_Space
70
0
10
0
20
0
30
0
3
*Model_Space
0
ENDBLK
5
21
100
AcDbEntity
8
0
100
AcDbBlockEnd
0
BLOCK
5
1C
100
AcDbEntity
8
0
100
AcDbBlockBegin
2
*Paper_Space
70
0
10
0
20
0
30
0
3
*Paper_Space
0
ENDBLK
5
1D
100
AcDbEntity
8
0
100
AcDbBlockEnd
0
BLOCK
5
24
100
AcDbEntity
8
0
100
AcDbBlockBegin
2
*Paper_Space0
70
0
10
0
20
0
30
0
3
*Paper_Space0
0
ENDBLK
5
25
100
AcDbEntity
8
0
100
AcDbBlockEnd
0
BLOCK
5
F6
100
AcDbEntity
8
0
100
AcDbBlockBegin
2
DimnDraft3D1
70
0
10
0
20
0
30
0
3
DimnDraft3D1
0
MTEXT
5
F0
100
AcDbEntity
8
SK2
62
256
6
ByLayer
370
13
48
1
60
0
100
AcDbMText
10
26.629918
20
-14.927503
30
0
210
0
220
0
230
1
1
\W0.7150;62,2
40
3.5
41
0
44
1.084337
50
0
71
7
72
5
7
iso_b_vert
0
LINE
5
F1
100
AcDbEntity
8
SK2
62
256
6
ByLayer
370
13
48
1
60
0
100
AcDbLine
10
0
20
-1.5875
30
0
11
0
21
-17.802503
31
0
39
0
210
0
220
0
230
1
0
LINE
5
F2
100
AcDbEntity
8
SK2
62
256
6
ByLayer
370
13
48
1
60
0
100
AcDbLine
10
62.1962
20
-4.5875
30
0
11
62.1962
21
-17.802503
31
0
39
0
210
0
220
0
230
1
0
LINE
5
F3
100
AcDbEntity
8
SK2
62
256
6
ByLayer
370
13
48
1
60
0
100
AcDbLine
10
0
20
-15.802503
30
0
11
62.1962
21
-15.802503
31
0
39
0
210
0
220
0
230
1
0
SOLID
5
F4
100
AcDbEntity
8
SK2
62
256
6
ByLayer
370
13
48
1
60
0
100
AcDbTrace
10
0
20
-15.802503
30
0
11
3.499998
21
-15.341719
31
0
12
3.500002
22
-16.263287
32
0
13
0
23
-15.802503
33
0
39
0
210
0
220
0
230
1
0
SOLID
5
F5
100
AcDbEntity
8
SK2
62
256
6
ByLayer
370
13
48
1
60
0
100
AcDbTrace
10
62.1962
20
-15.802503
30
0
11
58.696202
21
-16.263287
31
0
12
58.696198
22
-15.341719
32
0
13
62.1962
23
-15.802503
33
0
39
0
210
0
220
0
230
1
0
ENDBLK
5
F7
100
AcDbEntity
8
0
100
AcDbBlockEnd
0
BLOCK
5
100
100
AcDbEntity
8
0
100
AcDbBlockBegin
2
DimnDraft3D2
70
0
10
0
20
0
30
0
3
DimnDraft3D2
0
MTEXT
5
FA
100
AcDbEntity
8
SK2
62
256
6
ByLayer
370
13
48
1
60
0
100
AcDbMText
10
10.896711
20
-35.817985
30
0
210
0
220
0
230
1
1
\W0.7150;99,0
40
3.5
41
0
44
1.084337
50
0
71
7
72
5
7
iso_b_vert
0
LINE
5
FB
100
AcDbEntity
8
SK2
62
256
6
ByLayer
370
13
48
1
60
0
100
AcDbLine
10
-36
20
-4.5875
30
0
11
-36
21
-38.692985
31
0
39
0
210
0
220
0
230
1
0
LINE
5
FC
100
AcDbEntity
8
SK2
62
256
6
ByLayer
370
13
48
1
60
0
100
AcDbLine
10
63
20
-1.5875
30
0
11
63
21
-38.692985
31
0
39
0
210
0
220
0
230
1
0
LINE
5
FD
100
AcDbEntity
8
SK2
62
256
6
ByLayer
370
13
48
1
60
0
100
AcDbLine
10
-36
20
-36.692985
30
0
11
63
21
-36.692985
31
0
39
0
210
0
220
0
230
1
0
SOLID
5
FE
100
AcDbEntity
8
SK2
62
256
6
ByLayer
370
13
48
1
60
0
100
AcDbTrace
10
-36
20
-36.692985
30
0
11
-32.500002
21
-36.232202
31
0
12
-32.499998
22
-37.153769
32
0
13
-36
23
-36.692985
33
0
39
0
210
0
220
0
230
1
0
SOLID
5
FF
100
AcDbEntity
8
SK2
62
256
6
ByLayer
370
13
48
1
60
0
100
AcDbTrace
10
63
20
-36.692985
30
0
11
59.500002
21
-37.153769
31
0
12
59.499998
22
-36.232202
32
0
13
63
23
-36.692985
33
0
39
0
210
0
220
0
230
1
0
ENDBLK
5
101
100
AcDbEntity
8
0
100
AcDbBlockEnd
0
BLOCK
5
10A
100
AcDbEntity
8
0
100
AcDbBlockBegin
2
DimnDraft3D3
70
0
10
0
20
0
30
0
3
DimnDraft3D3
0
MTEXT
5
104
100
AcDbEntity
8
SK2
62
256
6
ByLayer
370
13
48
1
60
0
100
AcDbMText
10
33.967105
20
15.484119
30
0
210
0
220
0
230
1
1
\W0.7581;48,80
40
3.5
41
0
44
1.084337
50
0
71
7
72
5
7
iso_b_vert
0
LINE
5
105
100
AcDbEntity
8
SK2
62
256
6
ByLayer
370
13
48
1
60
0
100
AcDbLine
10
14.2
20
4.5875
30
0
11
14.2
21
16.609119
31
0
39
0
210
0
220
0
230
1
0
LINE
5
106
100
AcDbEntity
8
SK2
62
256
6
ByLayer
370
13
48
1
60
0
100
AcDbLine
10
63
20
1.5875
30
0
11
63
21
16.609119
31
0
39
0
210
0
220
0
230
1
0
LINE
5
107
100
AcDbEntity
8
SK2
62
256
6
ByLayer
370
13
48
1
60
0
100
AcDbLine
10
14.2
20
14.609119
30
0
11
63
21
14.609119
31
0
39
0
210
0
220
0
230
1
0
SOLID
5
108
100
AcDbEntity
8
SK2
62
256
6
ByLayer
370
13
48
1
60
0
100
AcDbTrace
10
14.2
20
14.609119
30
0
11
17.699998
21
15.069903
31
0
12
17.700002
22
14.148335
32
0
13
14.2
23
14.609119
33
0
39
0
210
0
220
0
230
1
0
SOLID
5
109
100
AcDbEntity
8
SK2
62
256
6
ByLayer
370
13
48
1
60
0
100
AcDbTrace
10
63
20
14.609119
30
0
11
59.500002
21
14.148335
31
0
12
59.499998
22
15.069903
32
0
13
63
23
14.609119
33
0
39
0
210
0
220
0
230
1
0
ENDBLK
5
10B
100
AcDbEntity
8
0
100
AcDbBlockEnd
0
BLOCK
5
114
100
AcDbEntity
8
0
100
AcDbBlockBegin
2
DimnDraft3D4
70
0
10
0
20
0
30
0
3
DimnDraft3D4
0
MTEXT
5
10E
100
AcDbEntity
8
SK2
62
256
6
ByLayer
370
13
48
1
60
0
100
AcDbMText
10
69.840636
20
-14.927503
30
0
210
0
220
0
230
1
1
\W0.7150;0,80
40
3.5
41
0
44
1.084337
50
0
71
7
72
5
7
iso_b_vert
0
LINE
5
10F
100
AcDbEntity
8
SK2
62
256
6
ByLayer
370
13
48
1
60
0
100
AcDbLine
10
63
20
-1.5875
30
0
11
63
21
-17.802503
31
0
39
0
210
0
220
0
230
1
0
LINE
5
110
100
AcDbEntity
8
SK2
62
256
6
ByLayer
370
13
48
1
60
0
100
AcDbLine
10
62.1962
20
-4.5875
30
0
11
62.1962
21
-17.802503
31
0
39
0
210
0
220
0
230
1
0
LINE
5
111
100
AcDbEntity
8
SK2
62
256
6
ByLayer
370
13
48
1
60
0
100
AcDbLine
10
53.4462
20
-15.802503
30
0
11
76.997215
21
-15.802503
31
0
39
0
210
0
220
0
230
1
0
SOLID
5
112
100
AcDbEntity
8
SK2
62
256
6
ByLayer
370
13
48
1
60
0
100
AcDbTrace
10
63
20
-15.802503
30
0
11
66.499998
21
-15.341719
31
0
12
66.500002
22
-16.263287
32
0
13
63
23
-15.802503
33
0
39
0
210
0
220
0
230
1
0
SOLID
5
113
100
AcDbEntity
8
SK2
62
256
6
ByLayer
370
13
48
1
60
0
100
AcDbTrace
10
62.1962
20
-15.802503
30
0
11
58.696202
21
-16.263287
31
0
12
58.696198
22
-15.341719
32
0
13
62.1962
23
-15.802503
33
0
39
0
210
0
220
0
230
1
0
ENDBLK
5
115
100
AcDbEntity
8
0
100
AcDbBlockEnd
0
BLOCK
5
11E
100
AcDbEntity
8
0
100
AcDbBlockBegin
2
DimnDraft3D5
70
0
10
0
20
0
30
0
3
DimnDraft3D5
0
MTEXT
5
118
100
AcDbEntity
8
SK2
62
256
6
ByLayer
370
13
48
1
60
0
100
AcDbMText
10
9.555411
20
-25.625
30
0
210
0
220
0
230
1
1
\W0.7150;98,2
40
3.5
41
0
44
1.084337
50
0
71
7
72
5
7
iso_b_vert
0
LINE
5
119
100
AcDbEntity
8
SK2
62
256
6
ByLayer
370
13
48
1
60
0
100
AcDbLine
10
-36
20
-4.5875
30
0
11
-36
21
-28.5
31
0
39
0
210
0
220
0
230
1
0
LINE
5
11A
100
AcDbEntity
8
SK2
62
256
6
ByLayer
370
13
48
1
60
0
100
AcDbLine
10
62.1962
20
-4.5875
30
0
11
62.1962
21
-28.5
31
0
39
0
210
0
220
0
230
1
0
LINE
5
11B
100
AcDbEntity
8
SK2
62
256
6
ByLayer
370
13
48
1
60
0
100
AcDbLine
10
-36
20
-26.5
30
0
11
62.1962
21
-26.5
31
0
39
0
210
0
220
0
230
1
0
SOLID
5
11C
100
AcDbEntity
8
SK2
62
256
6
ByLayer
370
13
48
1
60
0
100
AcDbTrace
10
-36
20
-26.5
30
0
11
-32.500002
21
-26.039216
31
0
12
-32.499998
22
-26.960784
32
0
13
-36
23
-26.5
33
0
39
0
210
0
220
0
230
1
0
SOLID
5
11D
100
AcDbEntity
8
SK2
62
256
6
ByLayer
370
13
48
1
60
0
100
AcDbTrace
10
62.1962
20
-26.5
30
0
11
58.696202
21
-26.960784
31
0
12
58.696198
22
-26.039216
32
0
13
62.1962
23
-26.5
33
0
39
0
210
0
220
0
230
1
0
ENDBLK
5
11F
100
AcDbEntity
8
0
100
AcDbBlockEnd
0
BLOCK
5
129
100
AcDbEntity
8
0
100
AcDbBlockBegin
2
DimnDraft3D6
70
0
10
0
20
0
30
0
3
DimnDraft3D6
0
MTEXT
5
122
100
AcDbEntity
8
SK2
62
256
6
ByLayer
370
13
48
1
60
0
100
AcDbMText
10
-46.375163
20
22.34918
30
0
210
0
220
0
230
1
1
\W0.7150;6,00
40
3.5
41
0
44
1.084337
50
90
71
7
72
5
7
iso_b_vert
0
MTEXT
5
123
100
AcDbEntity
8
SK2
62
256
6
ByLayer
370
13
48
1
60
0
100
AcDbMText
10
-46.375163
20
17.126524
30
0
210
0
220
0
230
1
1
%%c
40
3.5
41
0
44
1.084337
50
90
71
7
72
5
7
iso_b_vert
0
LINE
5
124
100
AcDbEntity
8
SK2
62
256
6
ByLayer
370
13
48
1
60
0
100
AcDbLine
10
-37.5875
20
-3
30
0
11
-46.625163
21
-3
31
0
39
0
210
0
220
0
230
1
0
LINE
5
125
100
AcDbEntity
8
SK2
62
256
6
ByLayer
370
13
48
1
60
0
100
AcDbLine
10
-37.5875
20
3
30
0
11
-46.625163
21
3
31
0
39
0
210
0
220
0
230
1
0
LINE
5
126
100
AcDbEntity
8
SK2
62
256
6
ByLayer
370
13
48
1
60
0
100
AcDbLine
10
-44.625163
20
29.505759
30
0
11
-44.625163
21
-11.75
31
0
39
0
210
0
220
0
230
1
0
SOLID
5
127
100
AcDbEntity
8
SK2
62
256
6
ByLayer
370
13
48
1
60
0
100
AcDbTrace
10
-44.625163
20
-3
30
0
11
-44.164379
21
-6.499998
31
0
12
-45.085946
22
-6.500002
32
0
13
-44.625163
23
-3
33
0
39
0
210
0
220
0
230
1
0
SOLID
5
128
100
AcDbEntity
8
SK2
62
256
6
ByLayer
370
13
48
1
60
0
100
AcDbTrace
10
-44.625163
20
3
30
0
11
-45.085946
21
6.499998
31
0
12
-44.164379
22
6.500002
32
0
13
-44.625163
23
3
33
0
39
0
210
0
220
0
230
1
0
ENDBLK
5
12A
100
AcDbEntity
8
0
100
AcDbBlockEnd
0
BLOCK
5
134
100
AcDbEntity
8
0
100
AcDbBlockBegin
2
DimnDraft3D7
70
0
10
0
20
0
30
0
3
DimnDraft3D7
0
MTEXT
5
12D
100
AcDbEntity
8
2
62
256
6
ByLayer
370
13
48
1
60
0
100
AcDbMText
10
73.333343
20
20.942266
30
0
210
0
220
0
230
1
1
\W0.6912;6,0
40
3.5
41
0
44
1.084337
50
90
71
7
72
5
7
iso_b_vert
0
MTEXT
5
12E
100
AcDbEntity
8
2
62
256
6
ByLayer
370
13
48
1
60
0
100
AcDbMText
10
73.333343
20
15.71961
30
0
210
0
220
0
230
1
1
%%c
40
3.5
41
0
44
1.084337
50
90
71
7
72
5
7
iso_b_vert
0
LINE
5
12F
100
AcDbEntity
8
2
62
256
6
ByLayer
370
13
48
1
60
0
100
AcDbLine
10
63.7837
20
-3
30
0
11
77.083343
21
-3
31
0
39
0
210
0
220
0
230
1
0
LINE
5
130
100
AcDbEntity
8
2
62
256
6
ByLayer
370
13
48
1
60
0
100
AcDbLine
10
63.7837
20
3
30
0
11
77.083343
21
3
31
0
39
0
210
0
220
0
230
1
0
LINE
5
131
100
AcDbEntity
8
2
62
256
6
ByLayer
370
13
48
1
60
0
100
AcDbLine
10
75.083343
20
25.483056
30
0
11
75.083343
21
-11.75
31
0
39
0
210
0
220
0
230
1
0
SOLID
5
132
100
AcDbEntity
8
2
62
256
6
ByLayer
370
13
48
1
60
0
100
AcDbTrace
10
75.083343
20
-3
30
0
11
75.544126
21
-6.499998
31
0
12
74.622559
22
-6.500002
32
0
13
75.083343
23
-3
33
0
39
0
210
0
220
0
230
1
0
SOLID
5
133
100
AcDbEntity
8
2
62
256
6
ByLayer
370
13
48
1
60
0
100
AcDbTrace
10
75.083343
20
3
30
0
11
74.622559
21
6.499998
31
0
12
75.544126
22
6.500002
32
0
13
75.083343
23
3
33
0
39
0
210
0
220
0
230
1
0
ENDBLK
5
135
100
AcDbEntity
8
0
100
AcDbBlockEnd
0
ENDSEC
0
SECTION
2
ENTITIES
0
ELLIPSE
5
A0
100
AcDbEntity
8
1
62
256
6
ByLayer
370
18
48
1
60
0
100
AcDbEllipse
10
5.25
20
3.0649
30
0
11
-0.25
21
3.06151588455594E-17
31
0
210
0
220
0
230
1
40
1
41
0.449081633794181
42
1.5756536741421
0
ELLIPSE
5
A1
100
AcDbEntity
8
1
62
256
6
ByLayer
370
18
48
1
60
0
100
AcDbEllipse
10
5.25
20
-3.0649
30
0
11
-0.25
21
3.06151588455594E-17
31
0
210
0
220
0
230
1
40
1
41
-1.57037429173409
42
-0.450189136625513
0
ELLIPSE
5
A2
100
AcDbEntity
8
1
62
256
6
ByLayer
370
18
48
1
60
0
100
AcDbEllipse
10
63.005767
20
-0.027045
30
0
11
0.020227725559812
21
0.0461593328924606
31
0
210
0
220
0
230
-1
40
0.094257
41
-2.47673762725119
42
-1.64142124116775
0
ELLIPSE
5
A3
100
AcDbEntity
8
1
62
256
6
ByLayer
370
18
48
1
60
0
100
AcDbEllipse
10
61.664536
20
0.000162
30
0
11
0.277454982426509
21
2.99886442596002
31
0
210
0
220
0
230
-1
40
0.250565
41
0.238888261189772
42
0.365758649888494
0
ELLIPSE
5
A4
100
AcDbEntity
8
1
62
256
6
ByLayer
370
18
48
1
60
0
100
AcDbEllipse
10
63.005767
20
0.027045
30
0
11
0.0202277255407839
21
-0.0461593328560213
31
0
210
0
220
0
230
-1
40
0.094257
41
1.64142124060766
42
2.47673762729819
0
ELLIPSE
5
A5
100
AcDbEntity
8
1
62
256
6
ByLayer
370
13
48
1
60
0
100
AcDbEllipse
10
5.250125
20
0.478506
30
0
11
0.0248589441512596
21
0.0968608945637224
31
0
210
0
220
0
230
1
40
0.042115
41
3.13483773970011
42
-1.73013116631919
0
ELLIPSE
5
A6
100
AcDbEntity
8
1
62
256
6
ByLayer
370
18
48
1
60
0
100
AcDbEllipse
10
63.063807
20
-0.000875
30
0
11
1.71816837948602
21
-2.91926735273689
31
0
210
0
220
0
230
-1
40
0.403714
41
-2.67708302373538
42
-2.6464895475939
0
ELLIPSE
5
A7
100
AcDbEntity
8
1
62
256
6
ByLayer
370
18
48
1
60
0
100
AcDbEllipse
10
62.995866
20
0.031708
30
0
11
0.0140788298915619
21
0.0302141331973949
31
0
210
0
220
0
230
-1
40
0.154454
41
1.60837812257675
42
2.13441855426155
0
ELLIPSE
5
A8
100
AcDbEntity
8
1
62
256
6
ByLayer
370
13
48
1
60
0
100
AcDbEllipse
10
5.212176
20
0.4889
30
0
11
-0.0280405085356997
21
-0.0959881757356569
31
0
210
0
220
0
230
1
40
0.201873
41
-1.34271276788641
42
0.000449629785503033
0
ELLIPSE
5
A9
100
AcDbEntity
8
1
62
256
6
ByLayer
370
18
48
1
60
0
100
AcDbEllipse
10
63.063805
20
0.00087
30
0
11
1.71816682365205
21
2.91926256588163
31
0
210
0
220
0
230
-1
40
0.403714
41
2.64648907317121
42
2.67708257415783
0
ELLIPSE
5
AA
100
AcDbEntity
8
1
62
256
6
ByLayer
370
18
48
1
60
0
100
AcDbEllipse
10
61.664536
20
-0.000162
30
0
11
0.277454983252564
21
-2.99886443057319
31
0
210
0
220
0
230
-1
40
0.250565
41
-0.36575864957462
42
-0.238888260979624
0
POINT
5
6C
100
AcDbEntity
8
81
62
256
6
ByLayer
370
18
48
1
60
0
100
AcDbPoint
10
63
20
0
30
0
39
0
210
0
220
0
230
1
50
360
0
POINT
5
6E
100
AcDbEntity
8
80
62
256
6
ByLayer
370
18
48
1
60
0
100
AcDbPoint
10
0
20
0
30
0
39
0
210
0
220
0
230
1
50
360
0
POINT
5
70
100
AcDbEntity
8
SK2
62
256
6
ByLayer
370
18
48
1
60
1
100
AcDbPoint
10
-36
20
-3
30
0
39
0
210
0
220
0
230
1
50
360
0
POINT
5
72
100
AcDbEntity
8
SK2
62
256
6
ByLayer
370
18
48
1
60
1
100
AcDbPoint
10
-36
20
3
30
0
39
0
210
0
220
0
230
1
50
360
0
POINT
5
73
100
AcDbEntity
8
2
62
256
6
ByLayer
370
18
48
1
60
1
100
AcDbPoint
10
62.1962
20
-3
30
0
39
0
210
0
220
0
230
1
50
360
0
POINT
5
75
100
AcDbEntity
8
2
62
256
6
ByLayer
370
18
48
1
60
1
100
AcDbPoint
10
62.1962
20
3
30
0
39
0
210
0
220
0
230
1
50
360
0
SPLINE
5
AB
100
AcDbEntity
8
1
62
256
6
ByLayer
370
18
48
1
60
0
100
AcDbSpline
70
4
71
3
72
11
73
7
40
0
40
0
40
0
40
0
40
0.194727168584335
40
0.481370879988155
40
0.862608249127179
40
1
40
1
40
1
40
1
41
1
10
59.7835350954265
20
-2.84846260777377
30
0
41
1
10
59.9080966981352
20
-2.84824833073634
30
0
41
1
10
60.2171237013638
20
-2.84785119073288
30
0
41
1
10
60.7798356279725
20
-2.84755721323199
30
0
41
1
10
61.3027207937826
20
-2.84841208723782
30
0
41
1
10
61.6389181864913
20
-2.84908656836319
30
0
41
1
10
61.7279225471316
20
-2.84928705134502
30
0
0
SPLINE
5
AC
100
AcDbEntity
8
1
62
256
6
ByLayer
370
18
48
1
60
0
100
AcDbSpline
70
4
71
3
72
19
73
15
40
0
40
0
40
0
40
0
40
6.2147742893E-06
40
0.0001451852957829
40
0.0002484726588869
40
0.0003964900516148
40
0.0010135145982241
40
0.0014909731199236
40
0.0236751364274629
40
0.071623301652491
40
0.240327737698282
40
0.486086358126347
40
0.866201289831274
40
1
40
1
40
1
40
1
41
1
10
41.7384781117566
20
-0.792387352212785
30
0
41
1
10
41.7384760421847
20
-0.792387371805603
30
0
41
1
10
41.7384280673854
20
-0.792387861766542
30
0
41
1
10
41.7383610590523
20
-0.792390004174649
30
0
41
1
10
41.7383853121791
20
-0.792402285938465
30
0
41
1
10
41.7385519691908
20
-0.792437062857601
30
0
41
1
10
41.7394096623365
20
-0.792517873467631
30
0
41
1
10
41.7514723312819
20
-0.793816394907367
30
0
41
1
10
41.7981540486241
20
-0.79780120121174
30
0
41
1
10
41.9680707162698
20
-0.81020269030472
30
0
41
1
10
42.3216537411614
20
-0.834874937641814
30
0
41
1
10
42.9226463930906
20
-0.88058554715343
30
0
41
1
10
43.4990575117762
20
-0.928461621150859
30
0
41
1
10
43.8886523836753
20
-0.963315404125581
30
0
41
1
10
43.9899769706937
20
-0.972541261249063
30
0
0
SPLINE
5
AD
100
AcDbEntity
8
1
62
256
6
ByLayer
370
18
48
1
60
0
100
AcDbSpline
70
4
71
3
72
30
73
26
40
0
40
0
40
0
40
0
40
0.068305437681811
40
0.128800217874188
40
0.176343938087259
40
0.210958888081483
40
0.236121522766744
40
0.262954215667736
40
0.292337468457182
40
0.324283413054873
40
0.375010743846314
40
0.420297286086155
40
0.459706959148975
40
0.491884987611156
40
0.52357892085675
40
0.573536478239293
40
0.634665211995215
40
0.701196566590404
40
0.771029428398998
40
0.811219243945314
40
0.846762033664119
40
0.877621673695029
40
0.916763713842896
40
0.970974282211128
40
1
40
1
40
1
40
1
41
1
10
24.6730908473111
20
-2.8266654395768
30
0
41
1
10
25.0464545776342
20
-2.82690425462607
30
0
41
1
10
25.7504872887166
20
-2.82724032169895
30
0
41
1
10
26.714380450116
20
-2.82679594771781
30
0
41
1
10
27.494141793239
20
-2.82711690309083
30
0
41
1
10
28.0814943891798
20
-2.8281929877152
30
0
41
1
10
28.5530767099267
20
-2.82906155117854
30
0
41
1
10
28.9974404812064
20
-2.82915205939148
30
0
41
1
10
29.4792205351133
20
-2.82906251854646
30
0
41
1
10
30.0919257695411
20
-2.82895899414044
30
0
41
1
10
30.7916011073867
20
-2.82907620014947
30
0
41
1
10
31.5320649269561
20
-2.83039080656266
30
0
41
1
10
32.1710044619031
20
-2.83079019419392
30
0
41
1
10
32.7357137303305
20
-2.83072623247452
30
0
41
1
10
33.3581296243996
20
-2.83068957800145
30
0
41
1
10
34.1388021029946
20
-2.83051223681088
30
0
41
1
10
35.1098138755238
20
-2.83333412083883
30
0
41
1
10
36.1897267378355
20
-2.83175107091623
30
0
41
1
10
37.1550851537331
20
-2.83168693583269
30
0
41
1
10
37.9507949576328
20
-2.8330878161114
30
0
41
1
10
38.5340479561677
20
-2.83343705720736
30
0
41
1
10
39.1087064825171
20
-2.83301902255136
30
0
41
1
10
39.7879434897079
20
-2.83379899425486
30
0
41
1
10
40.4571556093874
20
-2.83378759396501
30
0
41
1
10
40.9120644817261
20
-2.83389882079908
30
0
41
1
10
41.0706789032218
20
-2.83392368617027
30
0
0
SPLINE
5
AE
100
AcDbEntity
8
1
62
256
6
ByLayer
370
18
48
1
60
0
100
AcDbSpline
70
4
71
2
72
6
73
3
40
0
40
0
40
0
40
1
40
1
40
1
41
1
10
5.25055356584295
20
-2.81438456266619
30
0
41
1
10
6.03653809420442
20
-2.81609275757802
30
0
41
1
10
6.82371973279493
20
-2.81605669781121
30
0
0
SPLINE
5
AF
100
AcDbEntity
8
1
62
256
6
ByLayer
370
18
48
1
60
0
100
AcDbSpline
70
4
71
3
72
29
73
25
40
0
40
0
40
0
40
0
40
0.0328540489523918
40
0.103759271708937
40
0.169207356882034
40
0.219696347142345
40
0.2560515821104
40
0.293718471324206
40
0.341548619088816
40
0.396486562207547
40
0.452705849974208
40
0.510099137286576
40
0.59288758540258
40
0.673969180248452
40
0.750116506830731
40
0.814958118862603
40
0.837505444970978
40
0.85799797378019
40
0.876442794950641
40
0.892917492438088
40
0.916032628005995
40
0.944949076308347
40
0.982648839890056
40
1
40
1
40
1
40
1
41
1
10
41.6965919319677
20
2.82520213466537
30
0
41
1
10
41.5435704020507
20
2.8237483849712
30
0
41
1
10
41.060349766804
20
2.82046982343655
30
0
41
1
10
40.268232513331
20
2.82789846127673
30
0
41
1
10
39.403181799174
20
2.83313953214852
30
0
41
1
10
38.6950156227337
20
2.83342050438182
30
0
41
1
10
38.115216331819
20
2.83325745563079
30
0
41
1
10
37.5452597323532
20
2.83227452586061
30
0
41
1
10
36.8892388071666
20
2.83182867571605
30
0
41
1
10
36.1469906281633
20
2.83204526104967
30
0
41
1
10
35.3592302649584
20
2.83264207600777
30
0
41
1
10
34.4412401014605
20
2.83148739029113
30
0
41
1
10
33.4074660371288
20
2.830285251134
30
0
41
1
10
32.2856153102477
20
2.83107109608926
30
0
41
1
10
31.2476932239372
20
2.82992593967524
30
0
41
1
10
30.4836054906909
20
2.82894919091442
30
0
41
1
10
29.9794598224433
20
2.8287885955734
30
0
41
1
10
29.6920879468999
20
2.82879716522811
30
0
41
1
10
29.4330988846166
20
2.82888352036406
30
0
41
1
10
29.1622903366372
20
2.82906027235563
30
0
41
1
10
28.8421280790289
20
2.82907348742822
30
0
41
1
10
28.4227476506903
20
2.82896835418543
30
0
41
1
10
28.0303021559463
20
2.82875220482995
30
0
41
1
10
27.7730078443004
20
2.82842374241517
30
0
41
1
10
27.6919129073153
20
2.82831588417426
30
0
0
SPLINE
5
B0
100
AcDbEntity
8
1
62
256
6
ByLayer
370
18
48
1
60
0
100
AcDbSpline
70
4
71
3
72
28
73
24
40
0
40
0
40
0
40
0
40
3.17803414768E-05
40
5.24564371385E-05
40
7.15038624088E-05
40
0.0001076861458864
40
0.0003315599265617
40
0.0004937636330148
40
0.0007877282759137
40
0.001326488253963
40
0.0023329695151821
40
0.0042735066221991
40
0.0082028315571559
40
0.0168626976793227
40
0.0532906782312012
40
0.112014196598678
40
0.191535319576993
40
0.271432448815574
40
0.386762541231135
40
0.495641564604051
40
0.626911122686537
40
0.816643712760176
40
1
40
1
40
1
40
1
41
1
10
26.7906081874368
20
-0.807892217448313
30
0
41
1
10
26.7906109715988
20
-0.807892410676715
30
0
41
1
10
26.790609257848
20
-0.807891521454252
30
0
41
1
10
26.7905861764422
20
-0.80788637559499
30
0
41
1
10
26.7905440862745
20
-0.807877613368049
30
0
41
1
10
26.7903007193421
20
-0.807829080323529
30
0
41
1
10
26.7898417238134
20
-0.807739449856143
30
0
41
1
10
26.7891783900185
20
-0.807608541873037
30
0
41
1
10
26.7881781349266
20
-0.807411819560741
30
0
41
1
10
26.7863323390278
20
-0.807048927496368
30
0
41
1
10
26.7827833326379
20
-0.80635276495633
30
0
41
1
10
26.7756683424004
20
-0.804960973474351
30
0
41
1
10
26.7602841180986
20
-0.801962060644172
30
0
41
1
10
26.7069859271736
20
-0.791601301907491
30
0
41
1
10
26.5912707262374
20
-0.769021248554026
30
0
41
1
10
26.3958689071878
20
-0.730262677263767
30
0
41
1
10
26.1507682339169
20
-0.680527619517619
30
0
41
1
10
25.8421925093436
20
-0.616309196276887
30
0
41
1
10
25.5005715761026
20
-0.543107493754377
30
0
41
1
10
25.1011888363496
20
-0.454807633063496
30
0
41
1
10
24.6182737477969
20
-0.344544351626155
30
0
41
1
10
24.0517211203329
20
-0.210389529279752
30
0
41
1
10
23.633122187906
20
-0.106109953604772
30
0
41
1
10
23.4274812681416
20
-0.0537189264536835
30
0
0
SPLINE
5
B1
100
AcDbEntity
8
1
62
256
6
ByLayer
370
18
48
1
60
0
100
AcDbSpline
70
4
71
2
72
6
73
3
40
0
40
0
40
0
40
1
40
1
40
1
41
1
10
6.834808433755
20
2.81605939483075
30
0
41
1
10
6.04207822804941
20
2.81610024995425
30
0
41
1
10
5.25055356584295
20
2.81438456266622
30
0
0
SPLINE
5
B2
100
AcDbEntity
8
1
62
256
6
ByLayer
370
18
48
1
60
0
100
AcDbSpline
70
4
71
3
72
12
73
8
40
0
40
0
40
0
40
0
40
0.0522816123873089
40
0.0522816123873089
40
0.526140806193655
40
0.526140806193655
40
1
40
1
40
1
40
1
41
1
10
5.02114772553827
20
-2.96426805888441
30
0
41
1
10
5.02114790562877
20
-2.96425620828265
30
0
41
1
10
5.02114808254885
20
-2.96418603857569
30
0
41
1
10
5.02114983091676
20
-2.96289334031786
30
0
41
1
10
5.02115114361172
20
-2.95687117817138
30
0
41
1
10
5.02115315841851
20
-2.93495636490005
30
0
41
1
10
5.02115385189859
20
-2.91920759191612
30
0
41
1
10
5.02115421514415
20
-2.89882006066662
30
0
0
SPLINE
5
B3
100
AcDbEntity
8
1
62
256
6
ByLayer
370
18
48
1
60
0
100
AcDbSpline
70
4
71
3
72
36
73
32
40
0
40
0
40
0
40
0
40
0.0940976073908431
40
0.0940976073908431
40
0.141146411086265
40
0.141146411086265
40
0.188195214781687
40
0.188195214781687
40
0.282292822172531
40
0.282292822172531
40
0.376390429563376
40
0.376390429563376
40
0.423439233258798
40
0.423439233258798
40
0.47048803695422
40
0.47048803695422
40
0.564585644345063
40
0.564585644345063
40
0.611634448040485
40
0.611634448040485
40
0.658683251735907
40
0.658683251735907
40
0.75278085912675
40
0.75278085912675
40
0.846878466517593
40
0.846878466517593
40
0.893927270213015
40
0.893927270213015
40
0.940976073908438
40
0.940976073908438
40
1
40
1
40
1
40
1
41
1
10
62.0556650745716
20
-2.91981456548359
30
0
41
1
10
60.8706493567001
20
-2.99210107521625
30
0
41
1
10
59.6851497936448
20
-3.01458004436859
30
0
41
1
10
57.9092121300643
20
-2.97266612505717
30
0
41
1
10
57.3173144913635
20
-2.94616919938318
30
0
41
1
10
56.1327661045874
20
-2.86870696113076
30
0
41
1
10
55.5398045976073
20
-2.81771032837088
30
0
41
1
10
53.7630531709538
20
-2.6300624622628
30
0
41
1
10
52.5798818570983
20
-2.45890528539329
30
0
41
1
10
50.2087834197547
20
-2.03927462184436
30
0
41
1
10
49.0255593551131
20
-1.79224719771634
30
0
41
1
10
47.248584129717
20
-1.38284026688669
30
0
41
1
10
46.6555730996887
20
-1.23979985521288
30
0
41
1
10
45.4708557048114
20
-0.944983356198662
30
0
41
1
10
44.8788527471422
20
-0.793203754529827
30
0
41
1
10
43.1025001291652
20
-0.329881949011678
30
0
41
1
10
41.9165579235546
20
-0.0096941879466783
30
0
41
1
10
40.1400423698348
20
0.461387729930493
30
0
41
1
10
39.5480299003968
20
0.617122985752815
30
0
41
1
10
38.3633096102912
20
0.922235116527133
30
0
41
1
10
37.7702235305208
20
1.07164079229238
30
0
41
1
10
35.9928378474212
20
1.50387845399035
30
0
41
1
10
34.809444425256
20
1.7707552613785
30
0
41
1
10
32.4379977461932
20
2.23751783961367
30
0
41
1
10
31.2541644801082
20
2.43632450922843
30
0
41
1
10
29.476913971948
20
2.66893258793866
30
0
41
1
10
28.8837671480062
20
2.73558945363806
30
0
41
1
10
27.6985709065059
20
2.8451677426217
30
0
41
1
10
27.1064441665281
20
2.88824869631523
30
0
41
1
10
25.7712549941153
20
2.95761252087146
30
0
41
1
10
25.0275516398849
20
2.97672972856111
30
0
41
1
10
24.2839946029255
20
2.97623590803875
30
0
0
SPLINE
5
B4
100
AcDbEntity
8
1
62
256
6
ByLayer
370
13
48
1
60
0
100
AcDbSpline
70
4
71
3
72
10
73
6
40
0
40
0
40
0
40
0
40
0.5
40
0.5
40
1
40
1
40
1
40
1
41
1
10
5.02096307218125
20
0.576286807786744
30
0
41
1
10
5.03515348051585
20
0.552256911360303
30
0
41
1
10
5.05688854651754
20
0.529897961601705
30
0
41
1
10
5.11320444983974
20
0.4938707040711
30
0
41
1
10
5.14807896492133
20
0.480010310821115
30
0
41
1
10
5.18695998037836
20
0.472709620849827
30
0
0
SPLINE
5
B5
100
AcDbEntity
8
1
62
256
6
ByLayer
370
18
48
1
60
0
100
AcDbSpline
70
4
71
3
72
8
73
4
40
0
40
0
40
0
40
0
40
1
40
1
40
1
40
1
41
1
10
62.0762792431497
20
-2.86840739843592
30
0
41
1
10
62.0787680791576
20
-2.86218283555056
30
0
41
1
10
62.0808600330052
20
-2.856026876682
30
0
41
1
10
62.0824909553582
20
-2.84995061051066
30
0
0
SPLINE
5
B6
100
AcDbEntity
8
1
62
256
6
ByLayer
370
18
48
1
60
0
100
AcDbSpline
70
4
71
3
72
14
73
10
40
0
40
0
40
0
40
0
40
0.250000000000003
40
0.250000000000003
40
0.375000000000005
40
0.375000000000005
40
0.500000000000006
40
0.500000000000006
40
1
40
1
40
1
40
1
41
1
10
62.7100165099442
20
-0.979716790156402
30
0
41
1
10
62.6625629942173
20
-1.08250860266219
30
0
41
1
10
62.61407294931
20
-1.18500878865612
30
0
41
1
10
62.5398747144424
20
-1.33834740684253
30
0
41
1
10
62.5150121396875
20
-1.38941709162623
30
0
41
1
10
62.4656047630703
20
-1.49172161651029
30
0
41
1
10
62.4409755733415
20
-1.54292441402478
30
0
41
1
10
62.3182139122659
20
-1.79919907770901
30
0
41
1
10
62.2212307249873
20
-2.00505054469571
30
0
41
1
10
62.1255626065619
20
-2.21179407029572
30
0
0
SPLINE
5
B7
100
AcDbEntity
8
1
62
256
6
ByLayer
370
18
48
1
60
0
100
AcDbSpline
70
4
71
3
72
8
73
4
40
0
40
0
40
0
40
0
40
1
40
1
40
1
40
1
41
1
10
12.9371599083372
20
-2.239057857734
30
0
41
1
10
13.1529816376674
20
-2.20621252840627
30
0
41
1
10
13.3687405019613
20
-2.17203550519156
30
0
41
1
10
13.5844505930538
20
-2.13660126863286
30
0
0
SPLINE
5
B8
100
AcDbEntity
8
1
62
256
6
ByLayer
370
18
48
1
60
0
100
AcDbSpline
70
4
71
3
72
30
73
26
40
0
40
0
40
0
40
0
40
0.0548188035527361
40
0.0548188035527361
40
0.140744366866124
40
0.140744366866124
40
0.226669930179511
40
0.226669930179511
40
0.312595493492898
40
0.312595493492898
40
0.484446620119673
40
0.484446620119673
40
0.570372183433061
40
0.570372183433061
40
0.656297746746448
40
0.656297746746448
40
0.742223310059836
40
0.742223310059836
40
0.828148873373223
40
0.828148873373223
40
0.914074436686611
40
0.914074436686611
40
0.957037218343305
40
0.957037218343305
40
1
40
1
40
1
40
1
41
1
10
41.6953441058621
20
2.82537828702508
30
0
41
1
10
41.9956933964395
20
2.81922037905494
30
0
41
1
10
42.296003834046
20
2.81012285172005
30
0
41
1
10
43.0669613363538
20
2.77955336138462
30
0
41
1
10
43.5376078507332
20
2.7551861163364
30
0
41
1
10
44.4792945184863
20
2.68784366919093
30
0
41
1
10
44.9500411532066
20
2.64625709557865
30
0
41
1
10
45.8914205909689
20
2.55028273856618
30
0
41
1
10
46.3620800281077
20
2.49632465107337
30
0
41
1
10
47.7745537579531
20
2.31467719388243
30
0
41
1
10
48.7155289585419
20
2.16467192282744
30
0
41
1
10
50.1279237633344
20
1.91142138799341
30
0
41
1
10
50.5986179990469
20
1.82207118993534
30
0
41
1
10
51.5397290347858
20
1.63220238147645
30
0
41
1
10
52.0102879863248
20
1.53255616634152
30
0
41
1
10
52.9518066450383
20
1.32627106354204
30
0
41
1
10
53.4224913543938
20
1.21974202318051
30
0
41
1
10
54.3636064473258
20
1.00052623909426
30
0
41
1
10
54.8341469349738
20
0.88743097218358
30
0
41
1
10
55.7756269553507
20
0.657158972695015
30
0
41
1
10
56.2463407604129
20
0.540086186972331
30
0
41
1
10
56.9522525319028
20
0.363212132247355
30
0
41
1
10
57.1875362707761
20
0.303990109704728
30
0
41
1
10
57.6581322012695
20
0.184893877314636
30
0
41
1
10
57.8934496072443
20
0.125111426751175
30
0
41
1
10
58.1288251764298
20
0.065298166045153
30
0
0
SPLINE
5
B9
100
AcDbEntity
8
1
62
256
6
ByLayer
370
13
48
1
60
0
100
AcDbSpline
70
4
71
3
72
10
73
6
40
0
40
0
40
0
40
0
40
0.076951527432842
40
0.076951527432842
40
1
40
1
40
1
40
1
41
1
10
5.25055930461795
20
-2.81479689694032
30
0
41
1
10
5.25055982755939
20
-2.81466016014579
30
0
41
1
10
5.25056033576547
20
-2.81438503966311
30
0
41
1
10
5.25056674278542
20
-2.8090004061649
30
0
41
1
10
5.25057038015595
20
-2.78439693372391
30
0
41
1
10
5.25057135647782
20
-2.74082090017504
30
0
0
SPLINE
5
BA
100
AcDbEntity
8
1
62
256
6
ByLayer
370
18
48
1
60
0
100
AcDbSpline
70
4
71
3
72
8
73
4
40
0
40
0
40
0
40
0
40
1
40
1
40
1
40
1
41
1
10
5.06033506335129
20
0.477469219462819
30
0
41
1
10
5.09208920062579
20
0.437982569501514
30
0
41
1
10
5.13574685351554
20
0.407276828136304
30
0
41
1
10
5.18695998037833
20
0.3930107739493
30
0
0
SPLINE
5
BB
100
AcDbEntity
8
1
62
256
6
ByLayer
370
18
48
1
60
0
100
AcDbSpline
70
4
71
3
72
10
73
6
40
0
40
0
40
0
40
0
40
0.5
40
0.5
40
1
40
1
40
1
40
1
41
1
10
62.0824909553581
20
-2.84995061051063
30
0
41
1
10
62.0780048567884
20
-2.82942724852006
30
0
41
1
10
62.0719857116616
20
-2.81326516026422
30
0
41
1
10
62.0598368719772
20
-2.79433922489653
30
0
41
1
10
62.0535936318103
20
-2.79111092197613
30
0
41
1
10
62.0480981877176
20
-2.7944662590086
30
0
0
SPLINE
5
BC
100
AcDbEntity
8
1
62
256
6
ByLayer
370
18
48
1
60
0
100
AcDbSpline
70
4
71
3
72
56
73
52
40
0
40
0
40
0
40
0
40
0.0606306878215886
40
0.0606306878215886
40
0.0997710758290229
40
0.0997710758290229
40
0.138911463836457
40
0.138911463836457
40
0.178051851843891
40
0.178051851843891
40
0.217192239851326
40
0.217192239851326
40
0.25633262785876
40
0.25633262785876
40
0.295473015866194
40
0.295473015866194
40
0.334613403873629
40
0.334613403873629
40
0.373753791881063
40
0.373753791881063
40
0.39332398588478
40
0.39332398588478
40
0.412894179888496
40
0.412894179888496
40
0.452034567895931
40
0.452034567895931
40
0.491174955903365
40
0.491174955903365
40
0.530315343910799
40
0.530315343910799
40
0.569455731918233
40
0.569455731918233
40
0.58902592592195
40
0.58902592592195
40
0.608596119925667
40
0.608596119925667
40
0.686876895940534
40
0.686876895940534
40
0.726017283947968
40
0.726017283947968
40
0.765157671955401
40
0.765157671955401
40
0.804298059962835
40
0.804298059962835
40
0.843438447970268
40
0.843438447970268
40
0.921719223985134
40
0.921719223985134
40
0.960859611992567
40
0.960859611992567
40
1
40
1
40
1
40
1
41
1
10
49.0174763259969
20
-2.10752800301401
30
0
41
1
10
48.2881906131896
20
-2.23130952827364
30
0
41
1
10
47.5586609771113
20
-2.34249469425109
30
0
41
1
10
46.3586808952345
20
-2.4967272490355
30
0
41
1
10
45.8880478985192
20
-2.55065740359532
30
0
41
1
10
44.9466482089804
20
-2.64657197015603
30
0
41
1
10
44.4759304157781
20
-2.68812484991915
30
0
41
1
10
43.533866692908
20
-2.75541274378156
30
0
41
1
10
43.0631006888433
20
-2.77974300150459
30
0
41
1
10
42.1216896784578
20
-2.81699777619136
30
0
41
1
10
41.651059665197
20
-2.82871455542826
30
0
41
1
10
40.7094834072282
20
-2.83734958300616
30
0
41
1
10
40.2383670192653
20
-2.83457423276406
30
0
41
1
10
39.2967206722925
20
-2.81157219849462
30
0
41
1
10
38.8260719628986
20
-2.79216426913092
30
0
41
1
10
37.8847399455711
20
-2.73997210321278
30
0
41
1
10
37.4140615394414
20
-2.70584545835172
30
0
41
1
10
36.4722089990946
20
-2.62529771829207
30
0
41
1
10
36.0011893390721
20
-2.57854702107585
30
0
41
1
10
35.2951525720708
20
-2.49788110987382
30
0
41
1
10
35.0598442425459
20
-2.46928349402748
30
0
41
1
10
34.5892103097696
20
-2.40802967144367
30
0
41
1
10
34.3538795715125
20
-2.37547841285453
30
0
41
1
10
33.6478017703948
20
-2.27406051093448
30
0
41
1
10
33.1768764965329
20
-2.20125086400159
30
0
41
1
10
32.2350200941704
20
-2.04399470357208
30
0
41
1
10
31.7643395112608
20
-1.95978587476165
30
0
41
1
10
30.8230746518617
20
-1.78012038877927
30
0
41
1
10
30.3524549843887
20
-1.68554764335769
30
0
41
1
10
29.4108264612017
20
-1.48879893862173
30
0
41
1
10
28.9397377685587
20
-1.38626620762693
30
0
41
1
10
28.2336398385517
20
-1.22718755904296
30
0
41
1
10
27.9983156765712
20
-1.17335023485793
30
0
41
1
10
27.5276833100861
20
-1.06371327355112
30
0
41
1
10
27.2923659393889
20
-1.00807157346745
30
0
41
1
10
26.1157280810077
20
-0.727942181639889
30
0
41
1
10
25.1736244890743
20
-0.494517756250843
30
0
41
1
10
23.7618421132868
20
-0.139335785959929
30
0
41
1
10
23.2913021941759
20
-0.0204175335060199
30
0
41
1
10
22.3498981540538
20
0.216789871976062
30
0
41
1
10
21.8788753018569
20
0.335191351112655
30
0
41
1
10
20.9372338340316
20
0.569643478787413
30
0
41
1
10
20.4666124558612
20
0.685655709751927
30
0
41
1
10
19.5254365046237
20
0.913454044193173
30
0
41
1
10
19.0548322837689
20
1.02483786281891
30
0
41
1
10
17.6421645356383
20
1.34959693014309
30
0
41
1
10
16.7008989511694
20
1.55613943232652
30
0
41
1
10
15.2900882912952
20
1.83443750822516
30
0
41
1
10
14.8198220405064
20
1.92219607337569
30
0
41
1
10
13.879073798854
20
2.08931785032803
30
0
41
1
10
13.4083639924023
20
2.16734657375105
30
0
41
1
10
12.9371599083367
20
2.23905785773414
30
0
0
SPLINE
5
BD
100
AcDbEntity
8
1
62
256
6
ByLayer
370
18
48
1
60
0
100
AcDbSpline
70
4
71
3
72
14
73
10
40
0
40
0
40
0
40
0
40
0.249999999999987
40
0.249999999999987
40
0.374999999999987
40
0.374999999999987
40
0.499999999999987
40
0.499999999999987
40
1
40
1
40
1
40
1
41
1
10
62.7100165099443
20
0.979716790156346
30
0
41
1
10
62.6625624974236
20
1.0825096787959
30
0
41
1
10
62.6140721605614
20
1.1850104462271
30
0
41
1
10
62.5398738162252
20
1.33834924933595
30
0
41
1
10
62.5150112582603
20
1.38941891196239
30
0
41
1
10
62.4656039253689
20
1.49172335585789
30
0
41
1
10
62.4409747645343
20
1.54292609798853
30
0
41
1
10
62.31821328378
20
1.79920040766305
30
0
41
1
10
62.2212303546068
20
2.00505134510624
30
0
41
1
10
62.1255626065619
20
2.21179407029572
30
0
0
SPLINE
5
BE
100
AcDbEntity
8
1
62
256
6
ByLayer
370
18
48
1
60
0
100
AcDbSpline
70
4
71
3
72
32
73
28
40
0
40
0
40
0
40
0
40
0.0624999999999981
40
0.0624999999999981
40
0.124999999999996
40
0.124999999999996
40
0.187499999999994
40
0.187499999999994
40
0.249999999999992
40
0.249999999999992
40
0.375000000000004
40
0.375000000000004
40
0.43750000000001
40
0.43750000000001
40
0.500000000000015
40
0.500000000000015
40
0.625000000000014
40
0.625000000000014
40
0.687500000000014
40
0.687500000000014
40
0.750000000000013
40
0.750000000000013
40
0.875000000000006
40
0.875000000000006
40
0.937500000000003
40
0.937500000000003
40
1
40
1
40
1
40
1
41
1
10
62.5370849811747
20
-0.934528571002545
30
0
41
1
10
62.5259367649583
20
-0.926761559644973
30
0
41
1
10
62.5129110286174
20
-0.92250892664805
30
0
41
1
10
62.4847284216075
20
-0.92024128333
30
0
41
1
10
62.4696185125474
20
-0.922145895116927
30
0
41
1
10
62.4376228344307
20
-0.93125239238222
30
0
41
1
10
62.4206734441346
20
-0.938539642775623
30
0
41
1
10
62.3862663175132
20
-0.957609972548482
30
0
41
1
10
62.3686648552095
20
-0.969421112298704
30
0
41
1
10
62.3146741931235
20
-1.01164000355516
30
0
41
1
10
62.2785602300413
20
-1.0474930599971
30
0
41
1
10
62.2250981943101
20
-1.1132193279357
30
0
41
1
10
62.2076727841768
20
-1.13685721804194
30
0
41
1
10
62.1743910993136
20
-1.18703246448456
30
0
41
1
10
62.158230954177
20
-1.21407287288548
30
0
41
1
10
62.1140632298943
20
-1.29793084404108
30
0
41
1
10
62.0897933832744
20
-1.35882347080968
30
0
41
1
10
62.0708328228735
20
-1.44410580977143
30
0
41
1
10
62.0676073413398
20
-1.47028695342763
30
0
41
1
10
62.0674769654956
20
-1.51806142035107
30
0
41
1
10
62.0705941045652
20
-1.53830307376848
30
0
41
1
10
62.0883195704246
20
-1.58869319281874
30
0
41
1
10
62.1105670261962
20
-1.60615499517632
30
0
41
1
10
62.1513197554693
20
-1.61325232681102
30
0
41
1
10
62.1663775115831
20
-1.61244012278627
30
0
41
1
10
62.1976880672782
20
-1.6053981577983
30
0
41
1
10
62.2140870773618
20
-1.59921222560519
30
0
41
1
10
62.2311771766294
20
-1.59054997488786
30
0
0
SPLINE
5
BF
100
AcDbEntity
8
1
62
256
6
ByLayer
370
18
48
1
60
0
100
AcDbSpline
70
4
71
3
72
22
73
18
40
0
40
0
40
0
40
0
40
0.125
40
0.125
40
0.25
40
0.25
40
0.375
40
0.375
40
0.5
40
0.5
40
0.625
40
0.625
40
0.75
40
0.75
40
0.875
40
0.875
40
1
40
1
40
1
40
1
41
1
10
62.2311771766294
20
-1.59054997488792
30
0
41
1
10
62.2426988327445
20
-1.57760163967762
30
0
41
1
10
62.2558382659721
20
-1.5600739780937
30
0
41
1
10
62.2849920793591
20
-1.51688074754156
30
0
41
1
10
62.3008529608926
20
-1.49138103435089
30
0
41
1
10
62.3336820724254
20
-1.43511028704305
30
0
41
1
10
62.3509624205235
20
-1.40378270774943
30
0
41
1
10
62.3851457787169
20
-1.33854713484254
30
0
41
1
10
62.4025600626364
20
-1.30366364321495
30
0
41
1
10
62.4358463022254
20
-1.23348984400781
30
0
41
1
10
62.4517696298898
20
-1.19815375911216
30
0
41
1
10
62.4814666303108
20
-1.12799114979066
30
0
41
1
10
62.4945016583904
20
-1.09493246058085
30
0
41
1
10
62.5165419840601
20
-1.03330955164486
30
0
41
1
10
62.5250362067978
20
-1.00608207446282
30
0
41
1
10
62.5359129824185
20
-0.96157381919582
30
0
41
1
10
62.5381398433811
20
-0.944932841827864
30
0
41
1
10
62.5370849811747
20
-0.934528571002517
30
0
0
SPLINE
5
C0
100
AcDbEntity
8
1
62
256
6
ByLayer
370
18
48
1
60
0
100
AcDbSpline
70
4
71
3
72
64
73
60
40
0
40
0
40
0
40
0
40
0.0345805338107769
40
0.0345805338107769
40
0.0691610676215537
40
0.0691610676215537
40
0.103741601432331
40
0.103741601432331
40
0.138322135243107
40
0.138322135243107
40
0.172902669053884
40
0.172902669053884
40
0.207483202864661
40
0.207483202864661
40
0.242063736675438
40
0.242063736675438
40
0.276644270486214
40
0.276644270486214
40
0.311224804296991
40
0.311224804296991
40
0.345805338107767
40
0.345805338107767
40
0.380385871918544
40
0.380385871918544
40
0.41496640572932
40
0.41496640572932
40
0.449546939540096
40
0.449546939540096
40
0.484127473350873
40
0.484127473350873
40
0.518708007161649
40
0.518708007161649
40
0.553288540972425
40
0.553288540972425
40
0.587869074783202
40
0.587869074783202
40
0.622449608593978
40
0.622449608593978
40
0.657030142404755
40
0.657030142404755
40
0.691610676215531
40
0.691610676215531
40
0.726191210026307
40
0.726191210026307
40
0.760771743837084
40
0.760771743837084
40
0.79535227764786
40
0.79535227764786
40
0.829932811458637
40
0.829932811458637
40
0.864513345269413
40
0.864513345269413
40
0.899093879080189
40
0.899093879080189
40
0.933674412890966
40
0.933674412890966
40
0.968254946701742
40
0.968254946701742
40
1
40
1
40
1
40
1
41
1
10
16.9205892913279
20
2.59142134254156
30
0
41
1
10
17.3922962035137
20
2.65332410877889
30
0
41
1
10
17.8641141595956
20
2.70760617219139
30
0
41
1
10
18.8075104888921
20
2.80203799897555
30
0
41
1
10
19.2789534266512
20
2.84224341989506
30
0
41
1
10
20.2227123938429
20
2.90687752205187
30
0
41
1
10
20.6945492266128
20
2.93144019308841
30
0
41
1
10
21.6376513510029
20
2.9651740407358
30
0
41
1
10
22.1092034786148
20
2.97413559167214
30
0
41
1
10
23.0530466555307
20
2.97624112642438
30
0
41
1
10
23.5246405294997
20
2.96937742303336
30
0
41
1
10
24.4677231068871
20
2.93981378653609
30
0
41
1
10
24.939494875706
20
2.91732106519785
30
0
41
1
10
25.8830806381975
20
2.85666208225706
30
0
41
1
10
26.3545967329119
20
2.81841452225805
30
0
41
1
10
27.2979159861703
20
2.72778022705546
30
0
41
1
10
27.7695168353708
20
2.67508063099831
30
0
41
1
10
28.7128870551346
20
2.55512759964736
30
0
41
1
10
29.1846840573205
20
2.48849135727838
30
0
41
1
10
30.1279288680535
20
2.34228585002927
30
0
41
1
10
30.5992670706491
20
2.26215885718807
30
0
41
1
10
31.5427688820942
20
2.09112449101437
30
0
41
1
10
32.014653669071
20
2.00024811216093
30
0
41
1
10
32.9576182916759
20
1.80700672661524
30
0
41
1
10
33.4290761791795
20
1.70532926903766
30
0
41
1
10
34.3726670096254
20
1.49418950466685
30
0
41
1
10
34.8442963698348
20
1.38376216654316
30
0
41
1
10
35.7872431647557
20
1.15630333299993
30
0
41
1
10
36.2589205971355
20
1.0400652564729
30
0
41
1
10
37.2022540973076
20
0.801084833141147
30
0
41
1
10
37.6738039289989
20
0.678489758991304
30
0
41
1
10
38.6169959925134
20
0.432224294061172
30
0
41
1
10
39.0884994330708
20
0.307481945297269
30
0
41
1
10
40.0316179750731
20
0.0558442432014203
30
0
41
1
10
40.5034397365408
20
-0.0698273138421825
30
0
41
1
10
41.4465585610573
20
-0.320390597063124
30
0
41
1
10
41.9178029668317
20
-0.446094853142256
30
0
41
1
10
42.8610650838581
20
-0.693103818745584
30
0
41
1
10
43.3329630525484
20
-0.814586806178397
30
0
41
1
10
44.2757998663328
20
-1.0542806864315
30
0
41
1
10
44.7471660351922
20
-1.17155704011552
30
0
41
1
10
45.6905174044173
20
-1.39851255337055
30
0
41
1
10
46.1621508853225
20
-1.5092438543077
30
0
41
1
10
47.1049799106877
20
-1.72179616364536
30
0
41
1
10
47.5765697832432
20
-1.82299699616317
30
0
41
1
10
48.5196620138714
20
-2.01659976693412
30
0
41
1
10
48.9912059219902
20
-2.10877213028417
30
0
41
1
10
49.9342831003383
20
-2.28004443206632
30
0
41
1
10
50.4056986565803
20
-2.35997436123168
30
0
41
1
10
51.3485836624053
20
-2.50751549767793
30
0
41
1
10
51.8203949206656
20
-2.57444288725483
30
0
41
1
10
52.7634008788165
20
-2.69449298743771
30
0
41
1
10
53.2345552587352
20
-2.74791909705638
30
0
41
1
10
54.1775864959367
20
-2.83927358751944
30
0
41
1
10
54.6494635232803
20
-2.8773928156765
30
0
41
1
10
55.592191586089
20
-2.93862359151322
30
0
41
1
10
56.0634744211899
20
-2.96143291075805
30
0
41
1
10
56.9679330015272
20
-2.98994282566687
30
0
41
1
10
57.4008613232146
20
-2.99699040761871
30
0
41
1
10
57.8336031791278
20
-2.99727496810036
30
0
0
SPLINE
5
C1
100
AcDbEntity
8
1
62
256
6
ByLayer
370
18
48
1
60
0
100
AcDbSpline
70
4
71
3
72
16
73
12
40
0
40
0
40
0
40
0
40
0.247004890113713
40
0.247004890113713
40
0.494009780227426
40
0.494009780227426
40
0.741014670341139
40
0.741014670341139
40
0.988019560454852
40
0.988019560454852
40
1
40
1
40
1
40
1
41
1
10
16.9205892913279
20
-2.59142134254156
30
0
41
1
10
17.3922962035137
20
-2.65332410877892
30
0
41
1
10
17.8641141595957
20
-2.70760617219142
30
0
41
1
10
18.8075104888922
20
-2.80203799897558
30
0
41
1
10
19.2789534266514
20
-2.84224341989506
30
0
41
1
10
20.2227123938432
20
-2.90687752205187
30
0
41
1
10
20.6945492266131
20
-2.93144019308843
30
0
41
1
10
21.6376513510033
20
-2.9651740407358
30
0
41
1
10
22.1092034786153
20
-2.97413559167214
30
0
41
1
10
22.6040146060535
20
-2.9752394212596
30
0
41
1
10
22.626903374077
20
-2.97527185976895
30
0
41
1
10
22.649791402537
20
-2.97528567438872
30
0
0
SPLINE
5
C2
100
AcDbEntity
8
1
62
256
6
ByLayer
370
18
48
1
60
0
100
AcDbSpline
70
4
71
3
72
26
73
22
40
0
40
0
40
0
40
0
40
0.0354195561465132
40
0.0354195561465132
40
0.142595161019123
40
0.142595161019123
40
0.249770765891732
40
0.249770765891732
40
0.356946370764342
40
0.356946370764342
40
0.464121975636952
40
0.464121975636952
40
0.571297580509561
40
0.571297580509561
40
0.678473185382171
40
0.678473185382171
40
0.785648790254781
40
0.785648790254781
40
0.89282439512739
40
0.89282439512739
40
1
40
1
40
1
40
1
41
1
10
48.9952385203378
20
2.10743200921104
30
0
41
1
10
49.1510743566608
20
2.13709207934662
30
0
41
1
10
49.3069097243763
20
2.16610711638867
30
0
41
1
10
49.9342831003412
20
2.28004443206683
30
0
41
1
10
50.4056986565833
20
2.35997436123219
30
0
41
1
10
51.3485836624084
20
2.50751549767838
30
0
41
1
10
51.8203949206687
20
2.57444288725526
30
0
41
1
10
52.7634008788197
20
2.69449298743811
30
0
41
1
10
53.2345552587384
20
2.74791909705672
30
0
41
1
10
54.17758649594
20
2.83927358751973
30
0
41
1
10
54.6494635232836
20
2.87739281567676
30
0
41
1
10
55.5921915860923
20
2.93862359151339
30
0
41
1
10
56.0634744211933
20
2.96143291075819
30
0
41
1
10
57.006599446725
20
2.99116165103527
30
0
41
1
10
57.4782002328345
20
2.9981967537253
30
0
41
1
10
58.4209129135068
20
2.99618171188382
30
0
41
1
10
58.8924139569227
20
2.98725681110707
30
0
41
1
10
59.8352611005421
20
2.95350421784258
30
0
41
1
10
60.3067704349856
20
2.9285487259431
30
0
41
1
10
61.2497514410348
20
2.86367208599918
30
0
41
1
10
61.7210760187317
20
2.8235466874836
30
0
41
1
10
62.1923851464609
20
2.77579557102442
30
0
0
SPLINE
5
C3
100
AcDbEntity
8
1
62
256
6
ByLayer
370
18
48
1
60
0
100
AcDbSpline
70
4
71
3
72
26
73
22
40
0
40
0
40
0
40
0
40
0.071994011650146
40
0.071994011650146
40
0.143988023300292
40
0.143988023300292
40
0.287976046600584
40
0.287976046600584
40
0.35997005825073
40
0.35997005825073
40
0.431964069900876
40
0.431964069900876
40
0.575952093201168
40
0.575952093201168
40
0.71994011650146
40
0.71994011650146
40
0.791934128151606
40
0.791934128151606
40
0.863928139801752
40
0.863928139801752
40
1
40
1
40
1
40
1
41
1
10
5.02096307218173
20
0.576286807788847
30
0
41
1
10
5.02097006630814
20
0.672931164134241
30
0
41
1
10
5.02097686491075
20
0.768423721419396
30
0
41
1
10
5.02099012867967
20
0.957099432891397
30
0
41
1
10
5.02099657932976
20
1.05008425563727
30
0
41
1
10
5.02101521065546
20
1.32101057226868
30
0
41
1
10
5.02102678595588
20
1.49254791899153
30
0
41
1
10
5.02104325702237
20
1.73620841738151
30
0
41
1
10
5.02104862614033
20
1.81555956457385
30
0
41
1
10
5.02105894052571
20
1.96694460089267
30
0
41
1
10
5.02106388784057
20
2.03901162509453
30
0
41
1
10
5.02107819651022
20
2.24461284268935
30
0
41
1
10
5.02108703298032
20
2.36765206570397
30
0
41
1
10
5.02110359076482
20
2.5846185382666
30
0
41
1
10
5.02111107459615
20
2.67536398669472
30
0
41
1
10
5.02112118775332
20
2.78485570319981
30
0
41
1
10
5.02112437553299
20
2.816950486796
30
0
41
1
10
5.02113037827394
20
2.87214744510396
30
0
41
1
10
5.0211332017403
20
2.89528075752671
30
0
41
1
10
5.02114062761282
20
2.94757344060375
30
0
41
1
10
5.02114464269138
20
2.96447774707195
30
0
41
1
10
5.02114772737778
20
2.9642679358015
30
0
0
SPLINE
5
C4
100
AcDbEntity
8
1
62
256
6
ByLayer
370
13
48
1
60
0
100
AcDbSpline
70
4
71
3
72
26
73
22
40
0
40
0
40
0
40
0
40
0.0722904361813352
40
0.0722904361813352
40
0.14458087236267
40
0.216871308544006
40
0.216871308544006
40
0.289161744725341
40
0.289161744725341
40
0.433742617088011
40
0.433742617088011
40
0.578323489450682
40
0.578323489450682
40
0.722904361813352
40
0.722904361813352
40
0.795194797994688
40
0.795194797994688
40
0.867485234176023
40
0.939775670357358
40
0.939775670357358
40
1
40
1
40
1
40
1
41
1
10
5.25020841573263
20
0.462104381249787
30
0
41
1
10
5.2502220189144
20
0.557657924908483
30
0
41
1
10
5.25023523016708
20
0.652437670347268
30
0
41
1
10
5.25026063874222
20
0.837756103882526
30
0
41
1
10
5.25028511890872
20
1.01942137557987
30
0
41
1
10
5.25030805416927
20
1.19391368136178
30
0
41
1
10
5.25033035278079
20
1.36477328730299
30
0
41
1
10
5.25034124157384
20
1.44883566295167
30
0
41
1
10
5.25037267357106
20
1.69175805664736
30
0
41
1
10
5.25039190720176
20
1.84068800874959
30
0
41
1
10
5.2504280457718
20
2.11314066082639
30
0
41
1
10
5.25044507856174
20
2.23745694863177
30
0
41
1
10
5.25047607674477
20
2.44958130591422
30
0
41
1
10
5.25049021434711
20
2.53879940938739
30
0
41
1
10
5.25050959080241
20
2.64685912093182
30
0
41
1
10
5.25051573370817
20
2.67848080991578
30
0
41
1
10
5.25052710143055
20
2.73154514761134
30
0
41
1
10
5.25053763297464
20
2.77490810811162
30
0
41
1
10
5.25054646149127
20
2.79923640959382
30
0
41
1
10
5.25055370898397
20
2.81270603181224
30
0
41
1
10
5.25055668989333
20
2.81547906700251
30
0
41
1
10
5.25055930294241
20
2.8147973345703
30
0
0
SPLINE
5
C5
100
AcDbEntity
8
1
62
256
6
ByLayer
370
18
48
1
60
0
100
AcDbSpline
70
4
71
3
72
8
73
4
40
0
40
0
40
0
40
0
40
1
40
1
40
1
40
1
41
1
10
60.7523504000934
20
1.11477844729069
30
0
41
1
10
61.4047859570688
20
1.07252723037894
30
0
41
1
10
62.0573895235778
20
1.02734510000496
30
0
41
1
10
62.7100165099443
20
0.979716790156374
30
0
0
SPLINE
5
C6
100
AcDbEntity
8
1
62
256
6
ByLayer
370
18
48
1
60
0
100
AcDbSpline
70
4
71
3
72
57
73
53
40
0
40
0
40
0
40
0
40
0.125000000000008
40
0.125000000000008
40
0.250000000000017
40
0.250000000000017
40
0.375000000000025
40
0.375000000000025
40
0.437500000000029
40
0.437500000000029
40
0.468750000000031
40
0.468750000000031
40
0.500000000000034
40
0.500000000000034
40
0.750000000000058
40
0.750000000000058
40
0.781250000000062
40
0.789062500000064
40
0.789062500000064
40
0.796875000000065
40
0.796875000000065
40
0.800781250000065
40
0.800781250000065
40
0.804687500000065
40
0.804687500000065
40
0.806640625000066
40
0.806640625000066
40
0.807617187500065
40
0.807617187500065
40
0.808593750000065
40
0.808593750000065
40
0.812500000000064
40
0.812500000000064
40
0.828125000000059
40
0.828125000000059
40
0.843750000000053
40
0.843750000000053
40
0.851562500000051
40
0.851562500000051
40
0.859375000000048
40
0.859375000000048
40
0.875000000000043
40
0.875000000000043
40
0.906250000000034
40
0.906250000000034
40
0.921875000000028
40
0.921875000000028
40
0.937500000000023
40
0.937500000000023
40
0.968750000000012
40
0.968750000000012
40
1
40
1
40
1
40
1
41
1
10
16.920602927938
20
-2.59143336820168
30
0
41
1
10
16.2223288793864
20
-2.49982763412427
30
0
41
1
10
15.5217878390752
20
-2.39825303686729
30
0
41
1
10
14.1128927328665
20
-2.1943393680813
30
0
41
1
10
13.4044950790393
20
-2.09215766185275
30
0
41
1
10
11.976787146752
20
-1.90956352402256
30
0
41
1
10
11.2610279669293
20
-1.8298096547679
30
0
41
1
10
10.1841755589554
20
-1.74169949092837
30
0
41
1
10
9.82467071985766
20
-1.717535018098
30
0
41
1
10
9.28449932420892
20
-1.69053538694479
30
0
41
1
10
9.10425464193017
20
-1.68344100582871
30
0
41
1
10
8.74362498952601
20
-1.67068242168443
30
0
41
1
10
8.56326482448841
20
-1.66475695274971
30
0
41
1
10
6.93961916995193
20
-1.61553826737133
30
0
41
1
10
5.49326688418048
20
-1.60127934015114
30
0
41
1
10
3.86714653331239
20
-1.61823033091247
30
0
41
1
10
3.64129262050338
20
-1.62115241490795
30
0
41
1
10
3.41545638224304
20
-1.62477824771085
30
0
41
1
10
3.32512335498893
20
-1.6262847328494
30
0
41
1
10
3.27999365150086
20
-1.62829780043623
30
0
41
1
10
3.21332105343043
20
-1.63695431760166
30
0
41
1
10
3.19119288739006
20
-1.64067800127305
30
0
41
1
10
3.14758625865613
20
-1.65083080119152
30
0
41
1
10
3.12610990512732
20
-1.65710096298588
30
0
41
1
10
3.09647831829017
20
-1.67081686752232
30
0
41
1
10
3.08697368672503
20
-1.6761592656149
30
0
41
1
10
3.07513297594753
20
-1.68611924060102
30
0
41
1
10
3.07154059728148
20
-1.68985530019333
30
0
41
1
10
3.06613954733822
20
-1.69791808184246
30
0
41
1
10
3.06438124261825
20
-1.70224945598778
30
0
41
1
10
3.05434663179236
20
-1.72346024163519
30
0
41
1
10
3.04697564100863
20
-1.74056829123484
30
0
41
1
10
3.01401000501224
20
-1.82590254968153
30
0
41
1
10
2.99994671205246
20
-1.89350974220974
30
0
41
1
10
2.99998406694453
20
-2.02714237046516
30
0
41
1
10
3.01417959419987
20
-2.08975527868063
30
0
41
1
10
3.05328029054428
20
-2.17721806415565
30
0
41
1
10
3.06932876034213
20
-2.20530418023725
30
0
41
1
10
3.1056878212741
20
-2.25812775961495
30
0
41
1
10
3.12609461180202
20
-2.28310367861189
30
0
41
1
10
3.19290666618147
20
-2.35442240629249
30
0
41
1
10
3.24532877022438
20
-2.39746946294841
30
0
41
1
10
3.4145899621698
20
-2.51305476059187
30
0
41
1
10
3.54317750904846
20
-2.57342619701782
30
0
41
1
10
3.74874748991394
20
-2.65053542899327
30
0
41
1
10
3.81936580417758
20
-2.67379045270661
30
0
41
1
10
3.96221702812747
20
-2.71600757740112
30
0
41
1
10
4.03471452074538
20
-2.73506151928268
30
0
41
1
10
4.25476330759935
20
-2.78733192206573
30
0
41
1
10
4.40483734314105
20
-2.8157214410347
30
0
41
1
10
4.7097013048494
20
-2.86352665730971
30
0
41
1
10
4.86451640897394
20
-2.88289402208901
30
0
41
1
10
5.02115421513187
20
-2.89882006066614
30
0
0
SPLINE
5
C7
100
AcDbEntity
8
1
62
256
6
ByLayer
370
18
48
1
60
0
100
AcDbSpline
70
4
71
3
72
8
73
4
40
0
40
0
40
0
40
0
40
1
40
1
40
1
40
1
41
1
10
62.117329311472
20
-2.26299964497252
30
0
41
1
10
62.1394178141539
20
-2.43712617574266
30
0
41
1
10
62.1647860496272
20
-2.60767697323882
30
0
41
1
10
62.1923851464457
20
-2.77579557102595
30
0
0
SPLINE
5
C8
100
AcDbEntity
8
1
62
256
6
ByLayer
370
18
48
1
60
0
100
AcDbSpline
70
4
71
3
72
18
73
14
40
0
40
0
40
0
40
0
40
0.0746143718505578
40
0.0746143718505578
40
0.228845309875465
40
0.228845309875465
40
0.383076247900373
40
0.383076247900373
40
0.691538123950188
40
0.691538123950188
40
0.845769061975094
40
0.845769061975094
40
1
40
1
40
1
40
1
41
1
10
6.66442464832707
20
2.81586263247377
30
0
41
1
10
6.81743930730778
20
2.8166297130883
30
0
41
1
10
6.97092606893889
20
2.81551734370208
30
0
41
1
10
7.44191987872657
20
2.80737953038778
30
0
41
1
10
7.76048050813569
20
2.79524647706859
30
0
41
1
10
8.39942561349164
20
2.76150409914615
30
0
41
1
10
8.719808707103
20
2.73992230374807
30
0
41
1
10
9.68368609044009
20
2.66102361247903
30
0
41
1
10
10.3297839347322
20
2.59072398345327
30
0
41
1
10
11.3034253371002
20
2.46969475216821
30
0
41
1
10
11.6287413628519
20
2.42659238454411
30
0
41
1
10
12.2807766309239
20
2.33694762006934
30
0
41
1
10
12.6077669818491
20
2.2892953213584
30
0
41
1
10
12.9352011430829
20
2.23936217116838
30
0
0
SPLINE
5
C9
100
AcDbEntity
8
1
62
256
6
ByLayer
370
18
48
1
60
0
100
AcDbSpline
70
4
71
3
72
10
73
6
40
0
40
0
40
0
40
0
40
0.629575465096823
40
0.629575465096823
40
1
40
1
40
1
40
1
41
1
10
16.920602927938
20
2.59143336820168
30
0
41
1
10
16.2223288793863
20
2.49982763412424
30
0
41
1
10
15.5217878390751
20
2.39825303686729
30
0
41
1
10
14.4028631157362
20
2.23630766249138
30
0
41
1
10
13.9870184935725
20
2.17624127603136
30
0
41
1
10
13.5694996290312
20
2.11835986679452
30
0
0
SPLINE
5
CA
100
AcDbEntity
8
1
62
256
6
ByLayer
370
18
48
1
60
0
100
AcDbSpline
70
4
71
3
72
14
73
10
40
0
40
0
40
0
40
0
40
0.25
40
0.25
40
0.5
40
0.5
40
0.75
40
0.75
40
1
40
1
40
1
40
1
41
1
10
5.25057135647785
20
-2.74082090017356
30
0
41
1
10
5.22683252892969
20
-2.73807634033037
30
0
41
1
10
5.20152530032291
20
-2.73937647114849
30
0
41
1
10
5.15192361311887
20
-2.75252740131245
30
0
41
1
10
5.12762011357967
20
-2.76458514750405
30
0
41
1
10
5.08584337594021
20
-2.79611867275688
30
0
41
1
10
5.06846477669575
20
-2.81507942514398
30
0
41
1
10
5.04004670521263
20
-2.85592376038471
30
0
41
1
10
5.02936365692275
20
-2.87712961070432
30
0
41
1
10
5.02115421514577
20
-2.89882006066284
30
0
0
SPLINE
5
CB
100
AcDbEntity
8
1
62
256
6
ByLayer
370
18
48
1
60
0
100
AcDbSpline
70
4
71
3
72
14
73
10
40
0
40
0
40
0
40
0
40
0.207469258617492
40
0.207469258617492
40
0.42783077197878
40
0.42783077197878
40
0.648192285340068
40
0.648192285340068
40
1
40
1
40
1
40
1
41
1
10
24.6596095896344
20
-2.82659909654708
30
0
41
1
10
24.103377460575
20
-2.82597129958265
30
0
41
1
10
23.5466702708958
20
-2.81490253112315
30
0
41
1
10
22.3969798816568
20
-2.77043244627018
30
0
41
1
10
21.8036367172331
20
-2.73563938371871
30
0
41
1
10
20.6195930802233
20
-2.64379389907489
30
0
41
1
10
20.0281948629427
20
-2.5867350801565
30
0
41
1
10
18.4932048287617
20
-2.41113956536765
30
0
41
1
10
17.5499737196342
20
-2.2761407841455
30
0
41
1
10
16.6054722106586
20
-2.11854285740364
30
0
0
SPLINE
5
CC
100
AcDbEntity
8
1
62
256
6
ByLayer
370
13
48
1
60
0
100
AcDbSpline
70
4
71
3
72
16
73
12
40
0
40
0
40
0
40
0
40
0.0630120442149107
40
0.0630120442149107
40
0.219176703512425
40
0.219176703512425
40
0.37534136280994
40
0.37534136280994
40
0.68767068140497
40
0.68767068140497
40
1
40
1
40
1
40
1
41
1
10
16.6054722111017
20
-2.11854285747754
30
0
41
1
10
16.3667604291633
20
-2.07871181267436
30
0
41
1
10
16.1279674982889
20
-2.03743720927946
30
0
41
1
10
15.2969804739781
20
-1.88909819854391
30
0
41
1
10
14.7035569558249
20
-1.77474509183614
30
0
41
1
10
13.5191603176143
20
-1.53250055123149
30
0
41
1
10
12.9279334122906
20
-1.40478233650171
30
0
41
1
10
11.1559863915452
20
-1.006186276677
30
0
41
1
10
9.97704725788424
20
-0.719699251620767
30
0
41
1
10
7.61693220402665
20
-0.132563616756158
30
0
41
1
10
6.43582864875495
20
0.168324672834302
30
0
41
1
10
5.2502084157326
20
0.462104381249787
30
0
0
SPLINE
5
CD
100
AcDbEntity
8
1
62
256
6
ByLayer
370
18
48
1
60
0
100
AcDbSpline
70
4
71
3
72
46
73
42
40
0
40
0
40
0
40
0
40
0.25000000000001
40
0.25000000000001
40
0.281250000000009
40
0.281250000000009
40
0.312500000000009
40
0.312500000000009
40
0.375000000000008
40
0.375000000000008
40
0.500000000000006
40
0.500000000000006
40
0.562500000000002
40
0.562500000000002
40
0.624999999999998
40
0.624999999999998
40
0.656249999999996
40
0.656249999999996
40
0.687499999999994
40
0.687499999999994
40
0.703124999999995
40
0.703124999999995
40
0.718749999999996
40
0.718749999999996
40
0.734374999999997
40
0.734374999999997
40
0.749999999999998
40
0.749999999999998
40
0.781250000000001
40
0.781250000000001
40
0.812500000000003
40
0.812500000000003
40
0.843750000000005
40
0.843750000000005
40
0.875000000000007
40
0.875000000000007
40
0.937500000000006
40
0.937500000000006
40
0.968750000000003
40
0.968750000000003
40
1
40
1
40
1
40
1
41
1
10
58.1288251764429
20
0.0652981660418561
30
0
41
1
10
58.5481667264202
20
-0.0466756253831306
30
0
41
1
10
58.9670895007629
20
-0.166604497502704
30
0
41
1
10
59.4379921500932
20
-0.307553517324152
30
0
41
1
10
59.4903080259668
20
-0.32333112381815
30
0
41
1
10
59.5950602305086
20
-0.353109546050263
30
0
41
1
10
59.6474782437922
20
-0.367354877212136
30
0
41
1
10
59.8047460565869
20
-0.408005465920326
30
0
41
1
10
59.9096474989364
20
-0.432345560200389
30
0
41
1
10
60.2245501783323
20
-0.495629502373134
30
0
41
1
10
60.4329688811538
20
-0.524929857900361
30
0
41
1
10
60.7418364549932
20
-0.539111812434811
30
0
41
1
10
60.8443435443664
20
-0.538814367566914
30
0
41
1
10
61.0466998388249
20
-0.522671121107152
30
0
41
1
10
61.144986491858
20
-0.507276967656395
30
0
41
1
10
61.2845486491782
20
-0.464260964287377
30
0
41
1
10
61.330099901855
20
-0.446366449431252
30
0
41
1
10
61.4152493021038
20
-0.40053784563213
30
0
41
1
10
61.4542017632344
20
-0.373111241008672
30
0
41
1
10
61.5039262784153
20
-0.321128350088969
30
0
41
1
10
61.5191756745116
20
-0.301678306986844
30
0
41
1
10
61.5446060690976
20
-0.259400560710617
30
0
41
1
10
61.5548487418817
20
-0.236616053095247
30
0
41
1
10
61.5694913748521
20
-0.187158312290251
30
0
41
1
10
61.5736610542322
20
-0.160997119887156
30
0
41
1
10
61.5755737521555
20
-0.107313119747488
30
0
41
1
10
61.5732973868726
20
-0.0792411382223861
30
0
41
1
10
61.5580798512877
20
0.0043091766891337
30
0
41
1
10
61.5368247961488
20
0.0600534248783049
30
0
41
1
10
61.48312346355
20
0.164954879118909
30
0
41
1
10
61.4502569110226
20
0.215274291447344
30
0
41
1
10
61.37844183901
20
0.311286929880794
30
0
41
1
10
61.3395939558434
20
0.356917174885723
30
0
41
1
10
61.258274300329
20
0.445187826990662
30
0
41
1
10
61.2160203511961
20
0.487700627312989
30
0
41
1
10
61.0857245350099
20
0.610991136039189
30
0
41
1
10
61.0031649089484
20
0.698338441583928
30
0
41
1
10
60.8891499265308
20
0.836680538107089
30
0
41
1
10
60.8528022875932
20
0.884154462834914
30
0
41
1
10
60.7837464809113
20
0.982088570015605
30
0
41
1
10
60.7511013302299
20
1.03244818052434
30
0
41
1
10
60.7210478317552
20
1.08346771948143
30
0
0
SPLINE
5
CE
100
AcDbEntity
8
1
62
256
6
ByLayer
370
18
48
1
60
0
100
AcDbSpline
70
4
71
3
72
20
73
16
40
0
40
0
40
0
40
0
40
0.124999999999999
40
0.124999999999999
40
0.249999999999998
40
0.249999999999998
40
0.499999999999999
40
0.499999999999999
40
0.624999999999999
40
0.624999999999999
40
0.749999999999999
40
0.749999999999999
40
0.875
40
0.875
40
1
40
1
40
1
40
1
41
1
10
12.9352011430832
20
-2.23936217116829
30
0
41
1
10
12.6067796474941
20
-2.28944588816069
30
0
41
1
10
12.2785731792443
20
-2.33726431162134
30
0
41
1
10
11.6246864651462
20
-2.42713598690076
30
0
41
1
10
11.2985931307021
20
-2.47032460141779
30
0
41
1
10
10.3232086260451
20
-2.59148224116166
30
0
41
1
10
9.67669719026907
20
-2.66171489626564
30
0
41
1
10
8.71379151960011
20
-2.74035435453752
30
0
41
1
10
8.39401050394235
20
-2.76183438240921
30
0
41
1
10
7.75681300363621
20
-2.79539520620946
30
0
41
1
10
7.43940092260814
20
-2.80743713777352
30
0
41
1
10
6.80756301882158
20
-2.81832579426205
30
0
41
1
10
6.493118663834
20
-2.81727233681554
30
0
41
1
10
5.86827078849251
20
-2.79615141747448
30
0
41
1
10
5.55781510261525
20
-2.77634282501012
30
0
41
1
10
5.25057135630701
20
-2.74082090015383
30
0
0
SPLINE
5
CF
100
AcDbEntity
8
1
62
256
6
ByLayer
370
18
48
1
60
0
100
AcDbSpline
70
4
71
3
72
8
73
4
40
0
40
0
40
0
40
0
40
1
40
1
40
1
40
1
41
1
10
5.06033506335129
20
0.47746921946279
30
0
41
1
10
5.03620341208119
20
0.505211489826451
30
0
41
1
10
5.02096043305008
20
0.539819442700576
30
0
41
1
10
5.02096307218173
20
0.576286807782481
30
0
0
SPLINE
5
D0
100
AcDbEntity
8
1
62
256
6
ByLayer
370
18
48
1
60
0
100
AcDbSpline
70
4
71
3
72
8
73
4
40
0
40
0
40
0
40
0
40
1
40
1
40
1
40
1
41
1
10
62.0556650745717
20
-2.91981456547086
30
0
41
1
10
62.0625552664108
20
-2.90268149394643
30
0
41
1
10
62.0694266565484
20
-2.88554567362021
30
0
41
1
10
62.0762792431766
20
-2.8684073984343
30
0
0
SPLINE
5
D1
100
AcDbEntity
8
1
62
256
6
ByLayer
370
18
48
1
60
0
100
AcDbSpline
70
4
71
3
72
10
73
6
40
0
40
0
40
0
40
0
40
0.5
40
0.5
40
1
40
1
40
1
40
1
41
1
10
61.8438834696917
20
-2.42110400968571
30
0
41
1
10
61.8392001644612
20
-2.4311473901636
30
0
41
1
10
61.837734531001
20
-2.44130828551383
30
0
41
1
10
61.8392353149601
20
-2.45593517141421
30
0
41
1
10
61.8415736335705
20
-2.46128920632526
30
0
41
1
10
61.8443825619697
20
-2.46582072796014
30
0
0
SPLINE
5
D2
100
AcDbEntity
8
1
62
256
6
ByLayer
370
18
48
1
60
0
100
AcDbSpline
70
4
71
3
72
8
73
4
40
0
40
0
40
0
40
0
40
1
40
1
40
1
40
1
41
1
10
5.18600888911422
20
0.399540321379959
30
0
41
1
10
5.13698770945302
20
0.412397787757328
30
0
41
1
10
5.09304887975722
20
0.439860705681411
30
0
41
1
10
5.06033506335129
20
0.477469219462819
30
0
0
SPLINE
5
D3
100
AcDbEntity
8
1
62
256
6
ByLayer
370
18
48
1
60
0
100
AcDbSpline
70
4
71
3
72
8
73
4
40
0
40
0
40
0
40
0
40
1
40
1
40
1
40
1
41
1
10
62.117329311472
20
2.26299964497252
30
0
41
1
10
62.1394178141539
20
2.43712617574266
30
0
41
1
10
62.1647860496273
20
2.6076769732388
30
0
41
1
10
62.1923851464457
20
2.77579557102595
30
0
0
SPLINE
5
D4
100
AcDbEntity
8
1
62
256
6
ByLayer
370
18
48
1
60
0
100
AcDbSpline
70
4
71
3
72
24
73
20
40
0
40
0
40
0
40
0
40
0.250000000000016
40
0.250000000000016
40
0.312500000000016
40
0.312500000000016
40
0.375000000000015
40
0.375000000000015
40
0.500000000000014
40
0.500000000000014
40
0.625000000000013
40
0.625000000000013
40
0.687500000000011
40
0.687500000000011
40
0.750000000000009
40
0.750000000000009
40
0.875000000000005
40
0.875000000000005
40
1
40
1
40
1
40
1
41
1
10
62.0441583395664
20
-2.79561886798294
30
0
41
1
10
61.9118327457544
20
-2.83868956470488
30
0
41
1
10
61.7883575863275
20
-2.85660351756005
30
0
41
1
10
61.6462454001883
20
-2.84422802305951
30
0
41
1
10
61.6184433410254
20
-2.83998954268017
30
0
41
1
10
61.5641498833381
20
-2.8277871202607
30
0
41
1
10
61.5375914815607
20
-2.81978639981941
30
0
41
1
10
61.4610167884301
20
-2.79025230790384
30
0
41
1
10
61.4137970981145
20
-2.76319012220881
30
0
41
1
10
61.3273888571059
20
-2.69360614514491
30
0
41
1
10
61.2881950478863
20
-2.65109447621833
30
0
41
1
10
61.2360525664381
20
-2.57452940537596
30
0
41
1
10
61.2197954297848
20
-2.54683468200673
30
0
41
1
10
61.1901656435009
20
-2.48803823314458
30
0
41
1
10
61.1767098908694
20
-2.4568265035378
30
0
41
1
10
61.1404331562359
20
-2.3577333175131
30
0
41
1
10
61.1216828813321
20
-2.28442030465575
30
0
41
1
10
61.095568168424
20
-2.12260212331734
30
0
41
1
10
61.0882342266471
20
-2.03328716220122
30
0
41
1
10
61.0871479332668
20
-1.93828757038409
30
0
0
SPLINE
5
D5
100
AcDbEntity
8
1
62
256
6
ByLayer
370
18
48
1
60
0
100
AcDbSpline
70
4
71
3
72
8
73
4
40
0
40
0
40
0
40
0
40
1
40
1
40
1
40
1
41
1
10
62.0556650745729
20
2.91981456548351
30
0
41
1
10
61.190885830725
20
2.97256650141509
30
0
41
1
10
60.3258714620166
20
2.99879363424523
30
0
41
1
10
59.4613654562215
20
2.9982567656196
30
0
0
SPLINE
5
D6
100
AcDbEntity
8
1
62
256
6
ByLayer
370
18
48
1
60
0
100
AcDbSpline
70
4
71
3
72
24
73
20
40
0
40
0
40
0
40
0
40
0.053291325690303
40
0.053291325690303
40
0.21107610474192
40
0.21107610474192
40
0.289968494267729
40
0.289968494267729
40
0.368860883793536
40
0.368860883793536
40
0.526645662845152
40
0.526645662845152
40
0.684430441896768
40
0.684430441896768
40
0.763322831422576
40
0.763322831422576
40
0.842215220948384
40
0.842215220948384
40
1
40
1
40
1
40
1
41
1
10
27.7139802084258
20
-2.84003019841791
30
0
41
1
10
27.3138791288839
20
-2.87185783292375
30
0
41
1
10
26.9138820515004
20
-2.89825619138466
30
0
41
1
10
25.3292892390687
20
-2.98056167357632
30
0
41
1
10
24.1429074789318
20
-2.99256753865131
30
0
41
1
10
22.3660463838014
20
-2.93552398193447
30
0
41
1
10
21.7738443083906
20
-2.90411062399616
30
0
41
1
10
20.5887153042009
20
-2.81716236663357
30
0
41
1
10
19.9954383091599
20
-2.76163294854393
30
0
41
1
10
18.2177007196477
20
-2.56115087518543
30
0
41
1
10
17.0340399884812
20
-2.38206677857093
30
0
41
1
10
14.6616064419537
20
-1.9504042058185
30
0
41
1
10
13.4777884530063
20
-1.69826751717491
30
0
41
1
10
11.6999183611327
20
-1.28397050340277
30
0
41
1
10
11.1065239626697
20
-1.13975312670831
30
0
41
1
10
9.92166102060233
20
-0.843395174190562
30
0
41
1
10
9.32981693849578
20
-0.691402415977507
30
0
41
1
10
7.55479782238277
20
-0.228668251953451
30
0
41
1
10
6.37202996413066
20
0.0884660836671856
30
0
41
1
10
5.18600888911425
20
0.399540321379959
30
0
0
SPLINE
5
D7
100
AcDbEntity
8
1
62
256
6
ByLayer
370
18
48
1
60
0
100
AcDbSpline
70
4
71
3
72
14
73
10
40
0
40
0
40
0
40
0
40
0.187267852233017
40
0.187267852233017
40
0.422086640425212
40
0.422086640425212
40
0.656905428617407
40
0.656905428617407
40
1
40
1
40
1
40
1
41
1
10
59.9082872419856
20
-2.84845941425365
30
0
41
1
10
59.4362289961571
20
-2.84871662764149
30
0
41
1
10
58.9641371222755
20
-2.84140684121664
30
0
41
1
10
57.8995195427554
20
-2.80791820484126
30
0
41
1
10
57.3066577700646
20
-2.77736002438871
30
0
41
1
10
56.1222797067238
20
-2.69323033806663
30
0
41
1
10
55.5304007769797
20
-2.6396826486982
30
0
41
1
10
54.0733867327206
20
-2.48136695914843
30
0
41
1
10
53.2072854206611
20
-2.36415566149239
30
0
41
1
10
52.3422907175041
20
-2.22718791439093
30
0
0
SPLINE
5
D8
100
AcDbEntity
8
1
62
256
6
ByLayer
370
13
48
1
60
0
100
AcDbSpline
70
4
71
3
72
22
73
18
40
0
40
0
40
0
40
0
40
0.0582471614821501
40
0.0582471614821501
40
0.274418948476732
40
0.274418948476732
40
0.382504841974022
40
0.382504841974022
40
0.490590735471312
40
0.490590735471312
40
0.70676252246589
40
0.70676252246589
40
0.814848415963178
40
0.814848415963178
40
0.922934309460467
40
0.922934309460467
40
1
40
1
40
1
40
1
41
1
10
52.3422917051111
20
-2.22718807077376
30
0
41
1
10
52.0232568056047
20
-2.17667043588827
30
0
41
1
10
51.70437244312
20
-2.1234652394688
30
0
41
1
10
50.2032492184159
20
-1.86095791862493
30
0
41
1
10
49.0224314259716
20
-1.62010508045981
30
0
41
1
10
47.2487140732423
20
-1.22410073442771
30
0
41
1
10
46.657046384169
20
-1.08634918350469
30
0
41
1
10
45.4719752817516
20
-0.802569856223329
30
0
41
1
10
44.8794180442755
20
-0.656767143248146
30
0
41
1
10
43.1039166028672
20
-0.21372874843459
30
0
41
1
10
41.9217503852558
20
0.0897713024570237
30
0
41
1
10
40.14530004938
20
0.535415392482037
30
0
41
1
10
39.5522082353053
20
0.682568139714903
30
0
41
1
10
38.3677703135618
20
0.969381283371689
30
0
41
1
10
37.7760993405531
20
1.10906674824244
30
0
41
1
10
36.7627687818227
20
1.33939107074815
30
0
41
1
10
36.3410426709338
20
1.43253403122944
30
0
41
1
10
35.9192126053122
20
1.52243129533792
30
0
0
SPLINE
5
D9
100
AcDbEntity
8
1
62
256
6
ByLayer
370
18
48
1
60
0
100
AcDbSpline
70
4
71
3
72
8
73
4
40
0
40
0
40
0
40
0
40
1
40
1
40
1
40
1
41
1
10
62.0480981877176
20
-2.7944662590086
30
0
41
1
10
62.0468006170624
20
-2.79480165104835
30
0
41
1
10
62.0454871764688
20
-2.79518634446583
30
0
41
1
10
62.0441583395551
20
-2.79561886798661
30
0
0
SPLINE
5
DA
100
AcDbEntity
8
1
62
256
6
ByLayer
370
18
48
1
60
0
100
AcDbSpline
70
4
71
3
72
20
73
16
40
0
40
0
40
0
40
0
40
0.21305452496202
40
0.21305452496202
40
0.324252066224611
40
0.324252066224611
40
0.435449607487202
40
0.435449607487202
40
0.65784469001238
40
0.65784469001238
40
0.769042231274971
40
0.769042231274971
40
0.880239772537562
40
0.880239772537562
40
1
40
1
40
1
40
1
41
1
10
33.7849562885554
20
1.93821758464946
30
0
41
1
10
34.921896861382
20
1.71546141742653
30
0
41
1
10
36.0560162496502
20
1.46304401051225
30
0
41
1
10
37.782725161106
20
1.05010906935249
30
0
41
1
10
38.3750087876021
20
0.903446231988397
30
0
41
1
10
39.560762191582
20
0.603230058842598
30
0
41
1
10
40.1545433719624
20
0.449681643339574
30
0
41
1
10
41.932849546109
20
-0.0138567020690914
30
0
41
1
10
43.1161200242253
20
-0.327813461310484
30
0
41
1
10
44.8935347772844
20
-0.783312131289051
30
0
41
1
10
45.4868390478292
20
-0.932773859820117
30
0
41
1
10
46.6731418530338
20
-1.22274416479956
30
0
41
1
10
47.2653731421354
20
-1.36299854961405
30
0
41
1
10
48.4945374984377
20
-1.64108355707822
30
0
41
1
10
49.1313971659096
20
-1.77787114995644
30
0
41
1
10
49.7683154212211
20
-1.90552531002314
30
0
0
SPLINE
5
DB
100
AcDbEntity
8
1
62
256
6
ByLayer
370
13
48
1
60
0
100
AcDbSpline
70
4
71
3
72
16
73
12
40
0
40
0
40
0
40
0
40
0.133323168232869
40
0.133323168232869
40
0.422215445488576
40
0.422215445488576
40
0.566661584116432
40
0.566661584116432
40
0.711107722744287
40
0.711107722744287
40
1
40
1
40
1
40
1
41
1
10
49.7683154213989
20
-1.90552531005872
30
0
41
1
10
50.3141561750341
20
-2.01492528776933
30
0
41
1
10
50.8600399587346
20
-2.11761718042578
30
0
41
1
10
52.5900415491384
20
-2.41814859699622
30
0
41
1
10
53.7775437240289
20
-2.58668141829557
30
0
41
1
10
55.5554839800345
20
-2.77064349011729
30
0
41
1
10
56.1480009812517
20
-2.82061008236317
30
0
41
1
10
57.3336830727761
20
-2.89643699012601
30
0
41
1
10
57.9272463032177
20
-2.92225862548534
30
0
41
1
10
59.7059689225367
20
-2.9626617718076
30
0
41
1
10
60.8901604007048
20
-2.94033630113574
30
0
41
1
10
62.0762792431765
20
-2.8684073984343
30
0
0
SPLINE
5
DC
100
AcDbEntity
8
1
62
256
6
ByLayer
370
18
48
1
60
0
100
AcDbSpline
70
4
71
3
72
12
73
8
40
0
40
0
40
0
40
0
40
0.249999999999856
40
0.249999999999856
40
0.499999999999712
40
0.499999999999712
40
1
40
1
40
1
40
1
41
1
10
60.7210478317552
20
1.08346771948146
30
0
41
1
10
60.7185425640776
20
1.08772072190578
30
0
41
1
10
60.7165971492638
20
1.09241133710225
30
0
41
1
10
60.7168147555355
20
1.10237112834614
30
0
41
1
10
60.719683076978
20
1.10698003047585
30
0
41
1
10
60.7321020845225
20
1.11517945518878
30
0
41
1
10
60.7425505535189
20
1.11541307769807
30
0
41
1
10
60.7523504000934
20
1.11477844729066
30
0
0
SPLINE
5
DD
100
AcDbEntity
8
1
62
256
6
ByLayer
370
18
48
1
60
0
100
AcDbSpline
70
4
71
3
72
8
73
4
40
0
40
0
40
0
40
0
40
1
40
1
40
1
40
1
41
1
10
13.4386187686398
20
-2.10898126072891
30
0
41
1
10
13.2713945115134
20
-2.15250179089762
30
0
41
1
10
13.1042428354992
20
-2.19586068054895
30
0
41
1
10
12.9371598938862
20
-2.23905786147014
30
0
0
SPLINE
5
DE
100
AcDbEntity
8
1
62
256
6
ByLayer
370
18
48
1
60
0
100
AcDbSpline
70
4
71
3
72
14
73
10
40
0
40
0
40
0
40
0
40
0.355455891233349
40
0.355455891233349
40
0.710911782466697
40
0.710911782466697
40
0.888639728083371
40
0.888639728083371
40
1
40
1
40
1
40
1
41
1
10
5.22494916541561
20
0.382563009912275
30
0
41
1
10
6.41194496727766
20
0.0765690578425335
30
0
41
1
10
7.59414387963827
20
-0.234933638618827
30
0
41
1
10
9.95623258476579
20
-0.83967213799545
30
0
41
1
10
11.1361002265555
20
-1.13297111578268
30
0
41
1
10
12.9096337555175
20
-1.53859682746352
30
0
41
1
10
13.5014385026416
20
-1.66807823565205
30
0
41
1
10
14.4657364822259
20
-1.86704816804175
30
0
41
1
10
14.8376968264691
20
-1.94081632029599
30
0
41
1
10
15.2094941099693
20
-2.01122395011333
30
0
0
SPLINE
5
DF
100
AcDbEntity
8
1
62
256
6
ByLayer
370
13
48
1
60
0
100
AcDbSpline
70
4
71
3
72
18
73
14
40
0
40
0
40
0
40
0
40
0.0558270666209679
40
0.0558270666209679
40
0.354829124744583
40
0.354829124744583
40
0.50433015380639
40
0.50433015380639
40
0.653831182868197
40
0.653831182868197
40
0.952833240991814
40
0.952833240991814
40
1
40
1
40
1
40
1
41
1
10
15.2094944887847
20
-2.01122402185001
30
0
41
1
10
15.4310753658802
20
-2.05318501661884
30
0
41
1
10
15.6525983264972
20
-2.09395241100205
30
0
41
1
10
17.0593059684373
20
-2.34482807669988
30
0
41
1
10
18.2417970629845
20
-2.52009873063537
30
0
41
1
10
20.0170075361203
20
-2.71589128412822
30
0
41
1
10
20.6089961069663
20
-2.77004943457669
30
0
41
1
10
21.7943048245949
20
-2.85499393354826
30
0
41
1
10
22.3883585507389
20
-2.88577004451446
30
0
41
1
10
24.1666783764142
20
-2.94093951043578
30
0
41
1
10
25.3483289835936
20
-2.92849033006178
30
0
41
1
10
26.7158917560073
20
-2.85820420667741
30
0
41
1
10
26.9022216317078
20
-2.84743120576499
30
0
41
1
10
27.0885597590078
20
-2.83547902822085
30
0
0
SPLINE
5
E0
100
AcDbEntity
8
1
62
256
6
ByLayer
370
13
48
1
60
0
100
AcDbSpline
70
4
71
3
72
8
73
4
40
0
40
0
40
0
40
0
40
1
40
1
40
1
40
1
41
1
10
5.25020841573263
20
0.462104381249787
30
0
41
1
10
5.22879455537984
20
0.465287463522799
30
0
41
1
10
5.20770997146283
20
0.468813394118655
30
0
41
1
10
5.18695998037856
20
0.472709620851219
30
0
0
SPLINE
5
E1
100
AcDbEntity
8
1
62
256
6
ByLayer
370
18
48
1
60
0
100
AcDbSpline
70
4
71
3
72
8
73
4
40
0
40
0
40
0
40
0
40
1
40
1
40
1
40
1
41
1
10
62.1255626065619
20
2.21179407029575
30
0
41
1
10
62.1181217121218
20
2.22787421042477
30
0
41
1
10
62.1151246675849
20
2.24562015134202
30
0
41
1
10
62.117329311472
20
2.2629996449725
30
0
0
SPLINE
5
E2
100
AcDbEntity
8
1
62
256
6
ByLayer
370
18
48
1
60
0
100
AcDbSpline
70
4
71
3
72
16
73
12
40
0
40
0
40
0
40
0
40
0.0983995311573681
40
0.0983995311573681
40
0.475947836203482
40
0.475947836203482
40
0.664721988726538
40
0.664721988726538
40
0.853496141249594
40
0.853496141249594
40
1
40
1
40
1
40
1
41
1
10
16.9205975502722
20
2.59142456601245
30
0
41
1
10
16.8639174135668
20
2.56930230285167
30
0
41
1
10
16.8074093927681
20
2.54667686888857
30
0
41
1
10
16.5349210218066
20
2.43477477877485
30
0
41
1
10
16.3213518738758
20
2.33838873430065
30
0
41
1
10
16.0034110422467
20
2.18564423219448
30
0
41
1
10
15.8978952253872
20
2.13345197714043
30
0
41
1
10
15.6910756191044
20
2.02975810145577
30
0
41
1
10
15.5892704366693
20
1.97802351223768
30
0
41
1
10
15.4106164477933
20
1.88778761514084
30
0
41
1
10
15.3331980114516
20
1.8488874882018
30
0
41
1
10
15.2564798791113
20
1.81104510896449
30
0
0
SPLINE
5
E3
100
AcDbEntity
8
1
62
256
6
ByLayer
370
18
48
1
60
0
100
AcDbSpline
70
4
71
3
72
8
73
4
40
0
40
0
40
0
40
0
40
1
40
1
40
1
40
1
41
1
10
12.9371598938862
20
-2.23905785997206
30
0
41
1
10
12.9365171383476
20
-2.23915740069162
30
0
41
1
10
12.935874382291
20
-2.23925692989334
30
0
41
1
10
12.9352316257164
20
-2.23935644757199
30
0
0
SPLINE
5
E4
100
AcDbEntity
8
1
62
256
6
ByLayer
370
18
48
1
60
0
100
AcDbSpline
70
4
71
3
72
8
73
4
40
0
40
0
40
0
40
0
40
1
40
1
40
1
40
1
41
1
10
62.1255626065619
20
-2.21179407029575
30
0
41
1
10
62.1181217121218
20
-2.22787421042477
30
0
41
1
10
62.1151246675849
20
-2.24562015134202
30
0
41
1
10
62.117329311472
20
-2.2629996449725
30
0
0
SPLINE
5
E5
100
AcDbEntity
8
1
62
256
6
ByLayer
370
18
48
1
60
0
100
AcDbSpline
70
4
71
3
72
18
73
14
40
0
40
0
40
0
40
0
40
0.124999999999998
40
0.124999999999998
40
0.249999999999995
40
0.249999999999995
40
0.374999999999993
40
0.374999999999993
40
0.499999999999991
40
0.499999999999991
40
0.749999999999995
40
0.749999999999995
40
1
40
1
40
1
40
1
41
1
10
58.1288251764429
20
0.0652981660418561
30
0
41
1
10
58.224278675864
20
-0.0583788167355692
30
0
41
1
10
58.3272095602093
20
-0.17373035288162
30
0
41
1
10
58.5435709404902
20
-0.392742980342263
30
0
41
1
10
58.6570616623223
20
-0.496337015126613
30
0
41
1
10
58.8922948595808
20
-0.694337442911547
30
0
41
1
10
59.0138501239877
20
-0.788483967950242
30
0
41
1
10
59.2596138799314
20
-0.966402613846157
30
0
41
1
10
59.3843807303994
20
-1.05062827337252
30
0
41
1
10
59.7633010416115
20
-1.29170381582168
30
0
41
1
10
60.0220178183826
20
-1.43709400784593
30
0
41
1
10
60.5486839839957
20
-1.70468886630329
30
0
41
1
10
60.8171263868839
20
-1.82693829581621
30
0
41
1
10
61.0871479332668
20
-1.93828757038409
30
0
0
SPLINE
5
E6
100
AcDbEntity
8
1
62
256
6
ByLayer
370
18
48
1
60
0
100
AcDbSpline
70
4
71
3
72
8
73
4
40
0
40
0
40
0
40
0
40
1
40
1
40
1
40
1
41
1
10
12.9352011141501
20
2.23936217865168
30
0
41
1
10
12.9358438552489
20
2.23919593567868
30
0
41
1
10
12.9364865963478
20
2.23902969270566
30
0
41
1
10
12.9371293374466
20
2.23886344973266
30
0
0
SPLINE
5
E7
100
AcDbEntity
8
SK1
62
256
6
ByLayer
370
18
48
1
60
0
100
AcDbSpline
70
4
71
3
72
8
73
4
40
0
40
0
40
0
40
0
40
1
40
1
40
1
40
1
41
1
10
-36
20
1.0567591392101
30
0
41
1
10
-35.8061331292
20
1.38648702343889
30
0
41
1
10
-35.603794489664
20
1.71230166641664
30
0
41
1
10
-35.4
20
2.03744382966147
30
0
0
SPLINE
5
E8
100
AcDbEntity
8
SK1
62
256
6
ByLayer
370
18
48
1
60
0
100
AcDbSpline
70
4
71
3
72
14
73
10
40
0
40
0
40
0
40
0
40
0.500000000000005
40
0.500000000000005
40
0.750000000000005
40
0.750000000000005
40
0.875000000000002
40
0.875000000000002
40
1
40
1
40
1
40
1
41
1
10
-35.4
20
2.03744382966119
30
0
41
1
10
-35.3787677796885
20
2.07131859268321
30
0
41
1
10
-35.3584290958895
20
2.10804906315323
30
0
41
1
10
-35.3303626450498
20
2.1673057863548
30
0
41
1
10
-35.3215171954455
20
2.18755540348545
30
0
41
1
10
-35.3102812516991
20
2.21818435493424
30
0
41
1
10
-35.3068890218585
20
2.22844399042509
30
0
41
1
10
-35.3017585680987
20
2.2478661023413
30
0
41
1
10
-35.3
20
2.25719933332377
30
0
41
1
10
-35.3
20
2.26434218213186
30
0
0
SPLINE
5
E9
100
AcDbEntity
8
SK1
62
256
6
ByLayer
370
18
48
1
60
0
100
AcDbSpline
70
4
71
3
72
14
73
10
40
0
40
0
40
0
40
0
40
0.125000000000001
40
0.125000000000001
40
0.250000000000002
40
0.250000000000002
40
0.500000000000001
40
0.500000000000001
40
1
40
1
40
1
40
1
41
1
10
-35.3
20
2.86413318844538
30
0
41
1
10
-35.3
20
2.86695128588119
30
0
41
1
10
-35.3017593723636
20
2.86671730259849
30
0
41
1
10
-35.306935341198
20
2.86282007687762
30
0
41
1
10
-35.3102739075535
20
2.85929605173723
30
0
41
1
10
-35.3215583577555
20
2.84606081991271
30
0
41
1
10
-35.3303095934912
20
2.83427186230921
30
0
41
1
10
-35.358391202053
20
2.79456746374475
30
0
41
1
10
-35.378655954467
20
2.76356354901648
30
0
41
1
10
-35.4
20
2.72951037540787
30
0
0
SPLINE
5
EA
100
AcDbEntity
8
SK1
62
256
6
ByLayer
370
18
48
1
60
0
100
AcDbSpline
70
4
71
3
72
8
73
4
40
0
40
0
40
0
40
0
40
1
40
1
40
1
40
1
41
1
10
-35.4
20
2.72951037540787
30
0
41
1
10
-35.6037685751542
20
2.40440955724452
30
0
41
1
10
-35.8061094103176
20
2.07859391015165
30
0
41
1
10
-36
20
1.74882568495653
30
0
0
LINE
5
76
100
AcDbEntity
8
81
62
256
6
ByLayer
370
18
48
1
60
0
100
AcDbLine
10
63
20
0
30
0
11
68
21
0
31
0
39
0
210
0
220
0
230
1
0
LINE
5
77
100
AcDbEntity
8
1
62
256
6
ByLayer
370
18
48
1
60
0
100
AcDbLine
10
5.021141
20
2.964268
30
0
11
1
21
2.961755
31
0
39
0
210
0
220
0
230
1
0
LINE
5
79
100
AcDbEntity
8
1
62
256
6
ByLayer
370
18
48
1
60
0
100
AcDbLine
10
24.28766
20
2.97631
30
0
11
22.649318
21
2.975286
31
0
39
0
210
0
220
0
230
1
0
LINE
5
7A
100
AcDbEntity
8
1
62
256
6
ByLayer
370
18
48
1
60
0
100
AcDbLine
10
59.463114
20
2.998294
30
0
11
57.833812
21
2.997276
31
0
39
0
210
0
220
0
230
1
0
LINE
5
7B
100
AcDbEntity
8
1
62
256
6
ByLayer
370
18
48
1
60
0
100
AcDbLine
10
57.833812
20
-2.997276
30
0
11
59.463487
21
-2.998295
31
0
39
0
210
0
220
0
230
1
0
LINE
5
7C
100
AcDbEntity
8
1
62
256
6
ByLayer
370
18
48
1
60
0
100
AcDbLine
10
22.649318
20
-2.975286
30
0
11
24.287847
21
-2.97631
31
0
39
0
210
0
220
0
230
1
0
LINE
5
7D
100
AcDbEntity
8
1
62
256
6
ByLayer
370
18
48
1
60
0
100
AcDbLine
10
1
20
-2.961755
30
0
11
5.021141
21
-2.964268
31
0
39
0
210
0
220
0
230
1
0
LINE
5
7E
100
AcDbEntity
8
1
62
256
6
ByLayer
370
18
48
1
60
0
100
AcDbLine
10
0
20
-3
30
0
11
1
21
-2.961755
31
0
39
0
210
0
220
0
230
1
0
LINE
5
7F
100
AcDbEntity
8
1
62
256
6
ByLayer
370
18
48
1
60
0
100
AcDbLine
10
1
20
2.961755
30
0
11
0
21
3
31
0
39
0
210
0
220
0
230
1
0
LINE
5
80
100
AcDbEntity
8
SK1
62
256
6
ByLayer
370
18
48
1
60
0
100
AcDbLine
10
0
20
3
30
0
11
-35.278312
21
3
31
0
39
0
210
0
220
0
230
1
0
LINE
5
82
100
AcDbEntity
8
SK1
62
256
6
ByLayer
370
18
48
1
60
0
100
AcDbLine
10
-35.278312
20
-3
30
0
11
0
21
-3
31
0
39
0
210
0
220
0
230
1
0
LINE
5
83
100
AcDbEntity
8
SK1
62
256
6
ByLayer
370
18
48
1
60
0
100
AcDbLine
10
-35.278312
20
3
30
0
11
-36
21
1.75
31
0
39
0
210
0
220
0
230
1
0
LINE
5
84
100
AcDbEntity
8
SK1
62
256
6
ByLayer
370
18
48
1
60
0
100
AcDbLine
10
-36
20
-1.75
30
0
11
-35.278312
21
-3
31
0
39
0
210
0
220
0
230
1
0
LINE
5
85
100
AcDbEntity
8
SK4
62
256
6
ByLayer
370
18
48
0.05
60
0
100
AcDbLine
10
68
20
0
30
0
11
-41
21
0
31
0
39
0
210
0
220
0
230
1
0
LINE
5
87
100
AcDbEntity
8
4
62
256
6
ByLayer
370
18
48
0.05
60
0
100
AcDbLine
10
63
20
0
30
0
11
0
21
0
31
0
39
0
210
0
220
0
230
1
0
LINE
5
89
100
AcDbEntity
8
80
62
256
6
ByLayer
370
18
48
1
60
0
100
AcDbLine
10
0
20
0
30
0
11
-5
21
0
31
0
39
0
210
0
220
0
230
1
0
LINE
5
8A
100
AcDbEntity
8
1
62
256
6
ByLayer
370
18
48
1
60
0
100
AcDbLine
10
1
20
2.961755
30
0
11
1
21
-2.961755
31
0
39
0
210
0
220
0
230
1
0
LINE
5
8B
100
AcDbEntity
8
1
62
256
6
ByLayer
370
13
48
1
60
0
100
AcDbLine
10
62.117329
20
-2.263
30
0
11
61.844383
21
-2.465821
31
0
39
0
210
0
220
0
230
1
0
LINE
5
8C
100
AcDbEntity
8
1
62
256
6
ByLayer
370
18
48
1
60
0
100
AcDbLine
10
63
20
-0.0284
30
0
11
63
21
0.0284
31
0
39
0
210
0
220
0
230
1
0
LINE
5
8D
100
AcDbEntity
8
1
62
256
6
ByLayer
370
18
48
1
60
0
100
AcDbLine
10
62.082491
20
-2.849951
30
0
11
62.111912
21
-2.897414
31
0
39
0
210
0
220
0
230
1
0
LINE
5
8E
100
AcDbEntity
8
1
62
256
6
ByLayer
370
18
48
1
60
0
100
AcDbLine
10
62.987164
20
0.062196
30
0
11
62.710017
21
0.979717
31
0
39
0
210
0
220
0
230
1
0
LINE
5
8F
100
AcDbEntity
8
1
62
256
6
ByLayer
370
18
48
1
60
0
100
AcDbLine
10
62.987164
20
-0.062196
30
0
11
62.710017
21
-0.979717
31
0
39
0
210
0
220
0
230
1
0
LINE
5
90
100
AcDbEntity
8
1
62
256
6
ByLayer
370
18
48
1
60
0
100
AcDbLine
10
62.930338
20
-0.091195
30
0
11
62.537085
21
-0.934529
31
0
39
0
210
0
220
0
230
1
0
LINE
5
91
100
AcDbEntity
8
1
62
256
6
ByLayer
370
18
48
1
60
0
100
AcDbLine
10
0
20
-3
30
0
11
0
21
3
31
0
39
0
210
0
220
0
230
1
0
LINE
5
92
100
AcDbEntity
8
1
62
256
6
ByLayer
370
18
48
1
60
0
100
AcDbLine
10
61.844383
20
-2.465821
30
0
11
62.048098
21
-2.794466
31
0
39
0
210
0
220
0
230
1
0
LINE
5
93
100
AcDbEntity
8
1
62
256
6
ByLayer
370
18
48
1
60
0
100
AcDbLine
10
62.930338
20
-0.091195
30
0
11
62.992289
21
0.013728
31
0
39
0
210
0
220
0
230
1
0
LINE
5
94
100
AcDbEntity
8
1
62
256
6
ByLayer
370
13
48
1
60
0
100
AcDbLine
10
60.75235
20
1.114778
30
0
11
62.987164
21
0.062196
31
0
39
0
210
0
220
0
230
1
0
LINE
5
95
100
AcDbEntity
8
1
62
256
6
ByLayer
370
13
48
1
60
0
100
AcDbLine
10
60.721048
20
1.083468
30
0
11
62.992289
21
0.013728
31
0
39
0
210
0
220
0
230
1
0
LINE
5
96
100
AcDbEntity
8
1
62
256
6
ByLayer
370
18
48
1
60
0
100
AcDbLine
10
61.087148
20
-1.938288
30
0
11
62.930338
21
-0.091195
31
0
39
0
210
0
220
0
230
1
0
LINE
5
97
100
AcDbEntity
8
1
62
256
6
ByLayer
370
18
48
1
60
0
100
AcDbLine
10
62.231177
20
-1.59055
30
0
11
61.843883
21
-2.421104
31
0
39
0
210
0
220
0
230
1
0
LINE
5
98
100
AcDbEntity
8
1
62
256
6
ByLayer
370
13
48
1
60
0
100
AcDbLine
10
62.125563
20
-2.211794
30
0
11
61.843883
21
-2.421104
31
0
39
0
210
0
220
0
230
1
0
LINE
5
99
100
AcDbEntity
8
SK1
62
256
6
ByLayer
370
18
48
1
60
0
100
AcDbLine
10
0
20
-3
30
0
11
0
21
3
31
0
39
0
210
0
220
0
230
1
0
LINE
5
9A
100
AcDbEntity
8
SK1
62
256
6
ByLayer
370
18
48
1
60
0
100
AcDbLine
10
-35.3
20
2.264342
30
0
11
-35.3
21
2.864133
31
0
39
0
210
0
220
0
230
1
0
LINE
5
9B
100
AcDbEntity
8
SK1
62
256
6
ByLayer
370
18
48
1
60
0
100
AcDbLine
10
-36
20
1.75
30
0
11
-36
21
1.748826
31
0
39
0
210
0
220
0
230
1
0
LINE
5
9C
100
AcDbEntity
8
SK1
62
256
6
ByLayer
370
18
48
1
60
0
100
AcDbLine
10
-36
20
1.748826
30
0
11
-36
21
1.056723
31
0
39
0
210
0
220
0
230
1
0
LINE
5
9D
100
AcDbEntity
8
SK1
62
256
6
ByLayer
370
18
48
1
60
0
100
AcDbLine
10
-35.278312
20
3
30
0
11
-35.278312
21
-3
31
0
39
0
210
0
220
0
230
1
0
LINE
5
9E
100
AcDbEntity
8
SK1
62
256
6
ByLayer
370
18
48
1
60
0
100
AcDbLine
10
-36
20
1.056759
30
0
11
-36
21
-1.75
31
0
39
0
210
0
220
0
230
1
0
LINE
5
9F
100
AcDbEntity
8
SK1
62
256
6
ByLayer
370
13
48
1
60
0
100
AcDbLine
10
-35.4
20
2.72951
30
0
11
-35.4
21
2.037408
31
0
39
0
210
0
220
0
230
1
0
MTEXT
5
EB
100
AcDbEntity
8
SK6
62
256
6
ByLayer
370
13
48
1
60
0
100
AcDbMText
10
15.629169
20
35.382694
30
0
210
0
220
0
230
1
1
\W0.7323;860.1-0600-048A1-NM H10F
40
3.5
41
0
44
1.084337
50
0
71
8
72
5
7
iso_b_vert
0
DIMENSION
5
F8
100
AcDbEntity
8
SK2
62
256
6
ByLayer
370
13
48
1
60
0
100
AcDbDimension
2
DimnDraft3D1
10
62.1962
20
-15.802503
30
0
11
29.770708
21
-15.802503
31
0
70
32
71
5
72
1
41
1
210
0
220
0
230
1
3
Standard
100
AcDbAlignedDimension
13
0
23
-1.5875
33
0
14
62.1962
24
-4.5875
34
0
50
0
100
AcDbRotatedDimension
1001
ACAD
1000
DSTYLE
1002
{
1070
   279
1070
     0
1070
   172
1070
     1
1070
   173
1070
     1
1070
   340
1005
EC
1070
   271
1070
     1
1070
   272
1070
     2
1070
    77
1070
     1
1070
    73
1070
     0
1070
   171
1070
     3
1070
   274
1070
     4
1070
   177
1070
    35
1070
   176
1070
    35
1070
   178
1070
    35
1070
    48
1040
-0.005
1070
    41
1041
3.5
1070
   147
1041
1.75
1070
    42
1041
1.5875
1070
    44
1041
2.0
1070
   140
1041
3.5
1070
   343
1005
0
1070
   344
1005
0
1002
}
0
DIMENSION
5
102
100
AcDbEntity
8
SK2
62
256
6
ByLayer
370
13
48
1
60
0
100
AcDbDimension
2
DimnDraft3D2
10
63
20
-36.692985
30
0
11
14.0375
21
-36.692985
31
0
70
32
71
5
72
1
41
1
210
0
220
0
230
1
3
Standard
100
AcDbAlignedDimension
13
-36
23
-4.5875
33
0
14
63
24
-1.5875
34
0
50
0
100
AcDbRotatedDimension
1001
ACAD
1000
DSTYLE
1002
{
1070
   279
1070
     0
1070
   172
1070
     1
1070
   173
1070
     1
1070
   340
1005
EC
1070
   271
1070
     1
1070
   272
1070
     2
1070
    77
1070
     1
1070
    73
1070
     0
1070
   171
1070
     3
1070
   274
1070
     4
1070
   177
1070
    35
1070
   176
1070
    35
1070
   178
1070
    35
1070
    48
1040
-0.005
1070
    41
1041
3.5
1070
   147
1041
1.75
1070
    42
1041
1.5875
1070
    44
1041
2.0
1070
   140
1041
3.5
1070
   343
1005
0
1070
   344
1005
0
1002
}
0
DIMENSION
5
10C
100
AcDbEntity
8
SK2
62
256
6
ByLayer
370
13
48
1
60
0
100
AcDbDimension
2
DimnDraft3D3
10
63
20
14.609119
30
0
11
38.6
21
14.609119
31
0
70
32
71
5
72
1
41
1
210
0
220
0
230
1
3
Standard
100
AcDbAlignedDimension
13
14.2
23
4.5875
33
0
14
63
24
1.5875
34
0
50
0
100
AcDbRotatedDimension
1001
ACAD
1000
DSTYLE
1002
{
1070
   279
1070
     0
1070
   172
1070
     1
1070
   173
1070
     1
1070
   340
1005
EC
1070
   271
1070
     2
1070
   272
1070
     2
1070
    77
1070
     1
1070
    73
1070
     0
1070
   171
1070
     3
1070
   274
1070
     4
1070
   177
1070
    35
1070
   176
1070
    35
1070
   178
1070
    35
1070
    48
1040
-0.005
1070
    41
1041
3.5
1070
   147
1041
1.75
1070
    42
1041
1.5875
1070
    44
1041
2.0
1070
   140
1041
3.5
1070
   343
1005
0
1070
   344
1005
0
1002
}
0
DIMENSION
5
116
100
AcDbEntity
8
SK2
62
256
6
ByLayer
370
13
48
1
60
0
100
AcDbDimension
2
DimnDraft3D4
10
62.1962
20
-15.802503
30
0
11
72.981425
21
-15.802503
31
0
70
32
71
5
72
1
41
1
210
0
220
0
230
1
3
Standard
100
AcDbAlignedDimension
13
63
23
-1.5875
33
0
14
62.1962
24
-4.5875
34
0
50
0
100
AcDbRotatedDimension
1001
ACAD
1000
DSTYLE
1002
{
1070
   279
1070
     0
1070
   172
1070
     1
1070
   173
1070
     1
1070
   340
1005
EC
1070
   271
1070
     2
1070
   272
1070
     2
1070
    77
1070
     1
1070
    73
1070
     0
1070
   171
1070
     3
1070
   274
1070
     4
1070
   177
1070
    35
1070
   176
1070
    35
1070
   178
1070
    35
1070
    48
1040
-0.005
1070
    41
1041
3.5
1070
   147
1041
1.75
1070
    42
1041
1.5875
1070
    44
1041
2.0
1070
   140
1041
3.5
1070
   343
1005
0
1070
   344
1005
0
1002
}
0
DIMENSION
5
120
100
AcDbEntity
8
SK2
62
256
6
ByLayer
370
13
48
1
60
0
100
AcDbDimension
2
DimnDraft3D5
10
62.1962
20
-26.5
30
0
11
12.6962
21
-26.5
31
0
70
32
71
5
72
1
41
1
210
0
220
0
230
1
3
Standard
100
AcDbAlignedDimension
13
-36
23
-4.5875
33
0
14
62.1962
24
-4.5875
34
0
50
0
100
AcDbRotatedDimension
1001
ACAD
1000
DSTYLE
1002
{
1070
   279
1070
     0
1070
   172
1070
     1
1070
   173
1070
     1
1070
   340
1005
EC
1070
   271
1070
     1
1070
   272
1070
     2
1070
    77
1070
     1
1070
    73
1070
     0
1070
   171
1070
     3
1070
   274
1070
     4
1070
   177
1070
    35
1070
   176
1070
    35
1070
   178
1070
    35
1070
    48
1040
-0.005
1070
    41
1041
3.5
1070
   147
1041
1.75
1070
    42
1041
1.5875
1070
    44
1041
2.0
1070
   140
1041
3.5
1070
   343
1005
0
1070
   344
1005
0
1002
}
0
DIMENSION
5
12B
100
AcDbEntity
8
SK2
62
256
6
ByLayer
370
13
48
1
60
0
100
AcDbDimension
2
DimnDraft3D6
10
-46.625163
20
3
30
0
11
-47.250163
21
21.47418
31
0
70
33
71
5
72
1
41
1
210
0
220
0
230
1
3
Standard
100
AcDbAlignedDimension
13
-37.5875
23
-3
33
0
14
-37.5875
24
3
34
0
1001
ACAD
1000
DSTYLE
1002
{
1070
   279
1070
     0
1070
    74
1070
     0
1070
   173
1070
     1
1070
   340
1005
EC
1070
   271
1070
     2
1070
   272
1070
     2
1070
    77
1070
     1
1070
    73
1070
     0
1070
   171
1070
     3
1070
   274
1070
     4
1070
   177
1070
    35
1070
   176
1070
    35
1070
   178
1070
    35
1070
    48
1040
-0.005
1070
    41
1041
3.5
1070
   147
1041
1.75
1070
    42
1041
1.5875
1070
    44
1041
2.0
1070
   140
1041
3.5
1070
   343
1005
0
1070
   344
1005
0
1002
}
0
DIMENSION
5
136
100
AcDbEntity
8
2
62
256
6
ByLayer
370
13
48
1
60
0
100
AcDbDimension
2
DimnDraft3D7
10
77.083343
20
3
30
0
11
72.458343
21
20.067266
31
0
70
33
71
5
72
1
41
1
210
0
220
0
230
1
3
Standard
100
AcDbAlignedDimension
13
63.7837
23
-3
33
0
14
63.7837
24
3
34
0
1001
ACAD
1000
DSTYLE
1002
{
1070
   279
1070
     0
1070
    74
1070
     0
1070
   173
1070
     1
1070
   340
1005
EC
1070
   271
1070
     1
1070
   272
1070
     2
1070
    77
1070
     1
1070
    73
1070
     0
1070
   171
1070
     3
1070
   274
1070
     4
1070
   177
1070
    35
1070
   176
1070
    35
1070
   178
1070
    35
1070
    48
1040
-0.005
1070
    41
1041
3.5
1070
   147
1041
1.75
1070
    42
1041
1.5875
1070
    44
1041
2.0
1070
   140
1041
3.5
1070
   343
1005
0
1070
   344
1005
0
1002
}
0
ENDSEC
0
SECTION
2
OBJECTS
0
DICTIONARY
5
1a1
330
0
100
AcDbDictionary
280
0
281
1
3
ACAD_GROUP
350
1a2
3
ACAD_MLINESTYLE
350
1a3
0
DICTIONARY
5
1a2
330
0
100
AcDbDictionary
280
0
281
1
0
DICTIONARY
5
1a3
330
0
100
AcDbDictionary
280
0
281
1
3
Standard
350
18
0
MLINESTYLE
5
18
330
1a3
100
AcDbMlineStyle
2
Standard
70
0
3

62
256
51
90
52
90
71
2
49
-0.5
62
256
6
ByLayer
49
0.5
62
256
6
ByLayer
0
RASTERVARIABLES
5
18f
330

100
AcDbRasterVariables
90
0
70
1
71
1
72
1
0
ENDSEC
0
EOF
