0
SECTION
2
HEADER
9
$ACADVER
1
AC1015
9
$DWGCODEPAGE
3
ANSI_1252
9
$HANDSEED
5
2de
9
$ANGBASE
50
0
9
$ANGDIR
70
0
9
$ATTMODE
70
1
9
$AUNITS
70
0
9
$AUPREC
70
0
9
$CECOLOR
62
256
9
$CELTSCALE
40
1
9
$CELTYPE
6
ByLayer
9
$CELWEIGHT
370
18
9
$CLAYER
8
0
9
$CMLJUST
70
0
9
$CMLSCALE
40
1
9
$CMLSTYLE
2
Standard
9
$DIMSTYLE
2
Standard
9
$TEXTSIZE
40
0.2
9
$TEXTSTYLE
7
Standard
9
$LUNITS
70
2
9
$LUPREC
70
4
9
$EXTNAMES
290
1
9
$INSUNITS
70
4
9
$LTSCALE
40
1
9
$LWDISPLAY
290
1
9
$PDMODE
70
0
9
$PDSIZE
40
0
9
$PLINEGEN
70
0
0
ENDSEC
0
SECTION
2
CLASSES
0
CLASS
1
RASTERVARIABLES
2
AcDbRasterVariables
3
ISM
90
0
280
0
281
0
0
ENDSEC
0
SECTION
2
TABLES
0
TABLE
2
VPORT
5
2d4
100
AcDbSymbolTable
0
VPORT
5
1
100
AcDbSymbolTableRecord
100
AcDbViewportTableRecord
2
*Active
70
0
10
0
20
0
11
1
21
1
12
-1
22
1
13
0
23
0
14
0.5
24
0.5
15
10
25
10
16
0
26
0
36
1
17
0
27
0
37
0
0
ENDTAB
0
TABLE
2
LTYPE
5
2d5
100
AcDbSymbolTable
0
LTYPE
5
14
100
AcDbSymbolTableRecord
100
AcDbLinetypeTableRecord
70
0
2
ByBlock
3

72
65
73
0
40
0
0
LTYPE
5
15
100
AcDbSymbolTableRecord
100
AcDbLinetypeTableRecord
70
0
2
ByLayer
3

72
65
73
0
40
0
0
LTYPE
5
16
100
AcDbSymbolTableRecord
100
AcDbLinetypeTableRecord
70
0
2
CONTINUOUS
3
Solid line
72
65
73
0
40
0
0
LTYPE
5
6A
100
AcDbSymbolTableRecord
100
AcDbLinetypeTableRecord
70
0
2
CENTER
3
____ _ ____ _ ____ _ ____
72
65
73
4
40
47.5
49
22
74
0
49
-8.5
74
0
49
8.5
74
0
49
-8.5
74
0
0
LTYPE
5
6B
100
AcDbSymbolTableRecord
100
AcDbLinetypeTableRecord
70
0
2
DASHED
3
__ __ __ __ __ __ __ __ __
72
65
73
2
40
25.72
49
12.86
74
0
49
-12.86
74
0
0
ENDTAB
0
TABLE
2
LAYER
5
2d6
100
AcDbSymbolTable
0
LAYER
5
10
100
AcDbSymbolTableRecord
100
AcDbLayerTableRecord
2
0
70
0
62
7
6
CONTINUOUS
290
1
370
-3
390
0
0
LAYER
5
6D
100
AcDbSymbolTableRecord
100
AcDbLayerTableRecord
2
80
70
0
62
-6
6
CONTINUOUS
290
1
370
-3
390
0
0
LAYER
5
71
100
AcDbSymbolTableRecord
100
AcDbLayerTableRecord
2
1
70
0
62
4
6
CONTINUOUS
290
1
370
-3
390
0
0
LAYER
5
75
100
AcDbSymbolTableRecord
100
AcDbLayerTableRecord
2
81
70
0
62
-3
6
CONTINUOUS
290
1
370
-3
390
0
0
LAYER
5
8D
100
AcDbSymbolTableRecord
100
AcDbLayerTableRecord
2
4
70
0
62
-2
6
CENTER
290
1
370
-3
390
0
0
LAYER
5
93
100
AcDbSymbolTableRecord
100
AcDbLayerTableRecord
2
2
70
0
62
7
6
CONTINUOUS
290
1
370
-3
390
0
0
LAYER
5
2c0
100
AcDbSymbolTableRecord
100
AcDbLayerTableRecord
2
SK2
70
0
62
7
6
CONTINUOUS
290
1
370
-3
390
0
0
LAYER
5
2c1
100
AcDbSymbolTableRecord
100
AcDbLayerTableRecord
2
SK1
70
0
62
4
6
CONTINUOUS
290
1
370
-3
390
0
0
LAYER
5
2c2
100
AcDbSymbolTableRecord
100
AcDbLayerTableRecord
2
SK4
70
0
62
2
6
CENTER
290
1
370
-3
390
0
0
LAYER
5
2c3
100
AcDbSymbolTableRecord
100
AcDbLayerTableRecord
2
SK6
70
0
62
5
6
CONTINUOUS
290
1
370
-3
390
0
0
ENDTAB
0
TABLE
2
STYLE
5
2d7
100
AcDbSymbolTable
0
STYLE
5
11
100
AcDbSymbolTableRecord
100
AcDbTextStyleTableRecord
2
Standard
3
txt
70
0
71
0
40
0
41
1
42
0
50
0
0
STYLE
5
228
100
AcDbSymbolTableRecord
100
AcDbTextStyleTableRecord
2
iso_b_vert
3
simplex.shx
70
0
71
0
40
0
41
1
42
0
50
0
0
STYLE
5
229
100
AcDbSymbolTableRecord
100
AcDbTextStyleTableRecord
2
DWGDirectTextStyle
3
simplex
70
0
71
0
40
0
41
1
42
0
50
0
0
ENDTAB
0
TABLE
2
DIMSTYLE
5
2d8
100
AcDbSymbolTable
100
AcDbDimStyleTable
0
DIMSTYLE
105
27
100
AcDbSymbolTableRecord
100
AcDbDimStyleTableRecord
2
Standard
70
0
3
<>
41
0.18
42
0.0625
44
0.18
140
0.18
147
0.09
73
0
74
0
77
1
271
2
275
0
278
52
280
0
340
11
0
ENDTAB
0
TABLE
2
VIEW
5
2d9
100
AcDbSymbolTable
0
ENDTAB
0
TABLE
2
UCS
5
2da
100
AcDbSymbolTable
0
ENDTAB
0
TABLE
2
APPID
5
2db
100
AcDbSymbolTable
0
APPID
5
12
100
AcDbSymbolTableRecord
100
AcDbRegAppTableRecord
2
ACAD
70
0
0
ENDTAB
0
TABLE
2
BLOCK_RECORD
5
2dc
100
AcDbSymbolTable
0
BLOCK_RECORD
5
1F
100
AcDbSymbolTableRecord
100
AcDbBlockTableRecord
2
*Model_Space
340
0
70
0
0
BLOCK_RECORD
5
1B
100
AcDbSymbolTableRecord
100
AcDbBlockTableRecord
2
*Paper_Space
340
0
70
0
0
BLOCK_RECORD
5
23
100
AcDbSymbolTableRecord
100
AcDbBlockTableRecord
2
*Paper_Space0
340
0
70
0
0
BLOCK_RECORD
5
22C
100
AcDbSymbolTableRecord
100
AcDbBlockTableRecord
2
DimnDraft3D1
340
0
70
0
0
BLOCK_RECORD
5
236
100
AcDbSymbolTableRecord
100
AcDbBlockTableRecord
2
DimnDraft3D2
340
0
70
0
0
BLOCK_RECORD
5
240
100
AcDbSymbolTableRecord
100
AcDbBlockTableRecord
2
DimnDraft3D3
340
0
70
0
0
BLOCK_RECORD
5
24A
100
AcDbSymbolTableRecord
100
AcDbBlockTableRecord
2
DimnDraft3D4
340
0
70
0
0
BLOCK_RECORD
5
254
100
AcDbSymbolTableRecord
100
AcDbBlockTableRecord
2
DimnDraft3D5
340
0
70
0
0
BLOCK_RECORD
5
25E
100
AcDbSymbolTableRecord
100
AcDbBlockTableRecord
2
DimnDraft3D6
340
0
70
0
0
ENDTAB
0
ENDSEC
0
SECTION
2
BLOCKS
0
BLOCK
5
20
100
AcDbEntity
8
0
100
AcDbBlockBegin
2
*Model_Space
70
0
10
0
20
0
30
0
3
*Model_Space
0
ENDBLK
5
21
100
AcDbEntity
8
0
100
AcDbBlockEnd
0
BLOCK
5
1C
100
AcDbEntity
8
0
100
AcDbBlockBegin
2
*Paper_Space
70
0
10
0
20
0
30
0
3
*Paper_Space
0
ENDBLK
5
1D
100
AcDbEntity
8
0
100
AcDbBlockEnd
0
BLOCK
5
24
100
AcDbEntity
8
0
100
AcDbBlockBegin
2
*Paper_Space0
70
0
10
0
20
0
30
0
3
*Paper_Space0
0
ENDBLK
5
25
100
AcDbEntity
8
0
100
AcDbBlockEnd
0
BLOCK
5
233
100
AcDbEntity
8
0
100
AcDbBlockBegin
2
DimnDraft3D1
70
0
10
0
20
0
30
0
3
DimnDraft3D1
0
MTEXT
5
22D
100
AcDbEntity
8
SK2
62
256
6
ByLayer
370
18
48
1
60
0
100
AcDbMText
10
-49.536756
20
-3.323684
30
0
210
0
220
0
230
1
1
\W0.7884;%%c 63
40
3
41
0
44
1.084337
50
90
71
7
72
5
7
iso_b_vert
0
LINE
5
22E
100
AcDbEntity
8
SK2
62
256
6
ByLayer
370
18
48
1
60
0
100
AcDbLine
10
-1.7
20
31.4925
30
0
11
-50.786756
21
31.4925
31
0
39
0
210
0
220
0
230
1
0
LINE
5
22F
100
AcDbEntity
8
SK2
62
256
6
ByLayer
370
18
48
1
60
0
100
AcDbLine
10
-1.7
20
-31.4925
30
0
11
-50.786756
21
-31.4925
31
0
39
0
210
0
220
0
230
1
0
LINE
5
230
100
AcDbEntity
8
SK2
62
256
6
ByLayer
370
18
48
1
60
0
100
AcDbLine
10
-48.786756
20
31.4925
30
0
11
-48.786756
21
-31.4925
31
0
39
0
210
0
220
0
230
1
0
SOLID
5
231
100
AcDbEntity
8
SK2
62
256
6
ByLayer
370
18
48
1
60
0
100
AcDbTrace
10
-48.786756
20
31.4925
30
0
11
-48.36876
21
28.317502
31
0
12
-49.204753
22
28.317498
32
0
13
-48.786756
23
31.4925
33
0
39
0
210
0
220
0
230
1
0
SOLID
5
232
100
AcDbEntity
8
SK2
62
256
6
ByLayer
370
18
48
1
60
0
100
AcDbTrace
10
-48.786756
20
-31.4925
30
0
11
-49.204753
21
-28.317502
31
0
12
-48.36876
22
-28.317498
32
0
13
-48.786756
23
-31.4925
33
0
39
0
210
0
220
0
230
1
0
ENDBLK
5
234
100
AcDbEntity
8
0
100
AcDbBlockEnd
0
BLOCK
5
23D
100
AcDbEntity
8
0
100
AcDbBlockBegin
2
DimnDraft3D2
70
0
10
0
20
0
30
0
3
DimnDraft3D2
0
MTEXT
5
237
100
AcDbEntity
8
2
62
256
6
ByLayer
370
18
48
1
60
0
100
AcDbMText
10
36.307895
20
74.25
30
0
210
0
220
0
230
1
1
\W0.7150;78.0
40
3
41
0
44
1.084337
50
0
71
7
72
5
7
iso_b_vert
0
LINE
5
238
100
AcDbEntity
8
2
62
256
6
ByLayer
370
18
48
1
60
0
100
AcDbLine
10
0
20
33.1925
30
0
11
0
21
75.5
31
0
39
0
210
0
220
0
230
1
0
LINE
5
239
100
AcDbEntity
8
2
62
256
6
ByLayer
370
18
48
1
60
0
100
AcDbLine
10
78
20
46.5
30
0
11
78
21
75.5
31
0
39
0
210
0
220
0
230
1
0
LINE
5
23A
100
AcDbEntity
8
2
62
256
6
ByLayer
370
18
48
1
60
0
100
AcDbLine
10
0
20
73.5
30
0
11
78
21
73.5
31
0
39
0
210
0
220
0
230
1
0
SOLID
5
23B
100
AcDbEntity
8
2
62
256
6
ByLayer
370
18
48
1
60
0
100
AcDbTrace
10
0
20
73.5
30
0
11
3.174998
21
73.917997
31
0
12
3.175002
22
73.082003
32
0
13
0
23
73.5
33
0
39
0
210
0
220
0
230
1
0
SOLID
5
23C
100
AcDbEntity
8
2
62
256
6
ByLayer
370
18
48
1
60
0
100
AcDbTrace
10
78
20
73.5
30
0
11
74.825002
21
73.082003
31
0
12
74.824998
22
73.917997
32
0
13
78
23
73.5
33
0
39
0
210
0
220
0
230
1
0
ENDBLK
5
23E
100
AcDbEntity
8
0
100
AcDbBlockEnd
0
BLOCK
5
247
100
AcDbEntity
8
0
100
AcDbBlockBegin
2
DimnDraft3D3
70
0
10
0
20
0
30
0
3
DimnDraft3D3
0
MTEXT
5
241
100
AcDbEntity
8
SK2
62
256
6
ByLayer
370
18
48
1
60
0
100
AcDbMText
10
24.807895
20
-45.75
30
0
210
0
220
0
230
1
1
\W0.7150;55.0
40
3
41
0
44
1.084337
50
0
71
7
72
5
7
iso_b_vert
0
LINE
5
242
100
AcDbEntity
8
SK2
62
256
6
ByLayer
370
18
48
1
60
0
100
AcDbLine
10
0
20
-33.1925
30
0
11
0
21
-48.5
31
0
39
0
210
0
220
0
230
1
0
LINE
5
243
100
AcDbEntity
8
SK2
62
256
6
ByLayer
370
18
48
1
60
0
100
AcDbLine
10
55
20
-31.721199
30
0
11
55
21
-48.5
31
0
39
0
210
0
220
0
230
1
0
LINE
5
244
100
AcDbEntity
8
SK2
62
256
6
ByLayer
370
18
48
1
60
0
100
AcDbLine
10
0
20
-46.5
30
0
11
55
21
-46.5
31
0
39
0
210
0
220
0
230
1
0
SOLID
5
245
100
AcDbEntity
8
SK2
62
256
6
ByLayer
370
18
48
1
60
0
100
AcDbTrace
10
0
20
-46.5
30
0
11
3.174998
21
-46.082003
31
0
12
3.175002
22
-46.917997
32
0
13
0
23
-46.5
33
0
39
0
210
0
220
0
230
1
0
SOLID
5
246
100
AcDbEntity
8
SK2
62
256
6
ByLayer
370
18
48
1
60
0
100
AcDbTrace
10
55
20
-46.5
30
0
11
51.825002
21
-46.917997
31
0
12
51.824998
22
-46.082003
32
0
13
55
23
-46.5
33
0
39
0
210
0
220
0
230
1
0
ENDBLK
5
248
100
AcDbEntity
8
0
100
AcDbBlockEnd
0
BLOCK
5
251
100
AcDbEntity
8
0
100
AcDbBlockBegin
2
DimnDraft3D4
70
0
10
0
20
0
30
0
3
DimnDraft3D4
0
MTEXT
5
24B
100
AcDbEntity
8
SK2
62
256
6
ByLayer
370
18
48
1
60
0
100
AcDbMText
10
34.15
20
-60.75
30
0
210
0
220
0
230
1
1
\W0.7493;74.0
40
3
41
0
44
1.084337
50
0
71
7
72
5
7
iso_b_vert
0
LINE
5
24C
100
AcDbEntity
8
SK2
62
256
6
ByLayer
370
18
48
1
60
0
100
AcDbLine
10
0
20
-33.1925
30
0
11
0
21
-63.5
31
0
39
0
210
0
220
0
230
1
0
LINE
5
24D
100
AcDbEntity
8
SK2
62
256
6
ByLayer
370
18
48
1
60
0
100
AcDbLine
10
74
20
-30.59
30
0
11
74
21
-63.5
31
0
39
0
210
0
220
0
230
1
0
LINE
5
24E
100
AcDbEntity
8
SK2
62
256
6
ByLayer
370
18
48
1
60
0
100
AcDbLine
10
0
20
-61.5
30
0
11
74
21
-61.5
31
0
39
0
210
0
220
0
230
1
0
SOLID
5
24F
100
AcDbEntity
8
SK2
62
256
6
ByLayer
370
18
48
1
60
0
100
AcDbTrace
10
0
20
-61.5
30
0
11
3.174998
21
-61.082003
31
0
12
3.175002
22
-61.917997
32
0
13
0
23
-61.5
33
0
39
0
210
0
220
0
230
1
0
SOLID
5
250
100
AcDbEntity
8
SK2
62
256
6
ByLayer
370
18
48
1
60
0
100
AcDbTrace
10
74
20
-61.5
30
0
11
70.825002
21
-61.917997
31
0
12
70.824998
22
-61.082003
32
0
13
74
23
-61.5
33
0
39
0
210
0
220
0
230
1
0
ENDBLK
5
252
100
AcDbEntity
8
0
100
AcDbBlockEnd
0
BLOCK
5
25B
100
AcDbEntity
8
0
100
AcDbBlockBegin
2
DimnDraft3D5
70
0
10
0
20
0
30
0
3
DimnDraft3D5
0
MTEXT
5
255
100
AcDbEntity
8
SK2
62
256
6
ByLayer
370
18
48
1
60
0
100
AcDbMText
10
14.956579
20
-75.75
30
0
210
0
220
0
230
1
1
\W0.6072;112.0
40
3
41
0
44
1.084337
50
0
71
7
72
5
7
iso_b_vert
0
LINE
5
256
100
AcDbEntity
8
SK2
62
256
6
ByLayer
370
18
48
1
60
0
100
AcDbLine
10
-38
20
-22.292359
30
0
11
-38
21
-78.5
31
0
39
0
210
0
220
0
230
1
0
LINE
5
257
100
AcDbEntity
8
SK2
62
256
6
ByLayer
370
18
48
1
60
0
100
AcDbLine
10
74
20
-30.59
30
0
11
74
21
-78.5
31
0
39
0
210
0
220
0
230
1
0
LINE
5
258
100
AcDbEntity
8
SK2
62
256
6
ByLayer
370
18
48
1
60
0
100
AcDbLine
10
-38
20
-76.5
30
0
11
74
21
-76.5
31
0
39
0
210
0
220
0
230
1
0
SOLID
5
259
100
AcDbEntity
8
SK2
62
256
6
ByLayer
370
18
48
1
60
0
100
AcDbTrace
10
-38
20
-76.5
30
0
11
-34.825002
21
-76.082003
31
0
12
-34.824998
22
-76.917997
32
0
13
-38
23
-76.5
33
0
39
0
210
0
220
0
230
1
0
SOLID
5
25A
100
AcDbEntity
8
SK2
62
256
6
ByLayer
370
18
48
1
60
0
100
AcDbTrace
10
74
20
-76.5
30
0
11
70.825002
21
-76.917997
31
0
12
70.824998
22
-76.082003
32
0
13
74
23
-76.5
33
0
39
0
210
0
220
0
230
1
0
ENDBLK
5
25C
100
AcDbEntity
8
0
100
AcDbBlockEnd
0
BLOCK
5
264
100
AcDbEntity
8
0
100
AcDbBlockBegin
2
DimnDraft3D6
70
0
10
0
20
0
30
0
3
DimnDraft3D6
0
MTEXT
5
25F
100
AcDbEntity
8
2
62
256
6
ByLayer
370
18
48
1
60
0
100
AcDbMText
10
86.984067
20
29.963581
30
0
210
0
220
0
230
1
1
\W0.8181;92.0%%d
40
3
41
0
44
1.084337
50
44
71
7
72
5
7
iso_b_vert
0
LINE
5
260
100
AcDbEntity
8
2
62
256
6
ByLayer
370
13
48
1
60
0
100
AcDbLine
10
77.594104
20
32.472735
30
0
11
77.33574
21
25.074158
31
0
39
0
210
0
220
0
230
1
0
ARC
5
261
100
AcDbEntity
8
2
62
256
6
ByLayer
370
13
48
1
60
0
100
AcDbCircle
39
0
10
78.014106
20
44.5
30
0
40
17.4376829968712
210
0
220
0
230
1
100
AcDbArc
50
268
51
0
0
SOLID
5
262
100
AcDbEntity
8
2
62
256
6
ByLayer
370
13
48
1
60
0
100
AcDbTrace
10
77.405539
20
27.07294
30
0
11
80.575979
21
27.524211
31
0
12
80.58475
22
26.688263
32
0
13
77.405539
23
27.07294
33
0
39
0
210
0
220
0
230
1
0
SOLID
5
263
100
AcDbEntity
8
2
62
256
6
ByLayer
370
13
48
1
60
0
100
AcDbTrace
10
95.451789
20
44.5
30
0
11
95.725278
21
41.309304
31
0
12
94.890146
22
41.347237
32
0
13
95.451789
23
44.5
33
0
39
0
210
0
220
0
230
1
0
ENDBLK
5
265
100
AcDbEntity
8
0
100
AcDbBlockEnd
0
ENDSEC
0
SECTION
2
ENTITIES
0
ARC
5
133
100
AcDbEntity
8
SK1
62
256
6
ByLayer
370
18
48
1
60
0
100
AcDbCircle
39
0
10
0.6
20
23.45
30
0
40
0.999999999999999
210
0
220
0
230
-1
100
AcDbArc
50
233.129143
51
246.421822
0
ARC
5
134
100
AcDbEntity
8
1
62
256
6
ByLayer
370
18
48
1
60
0
100
AcDbCircle
39
0
10
67.546
20
-22.146
30
0
40
6.8
210
0
220
0
230
1
100
AcDbArc
50
341.644109
51
0
0
ARC
5
135
100
AcDbEntity
8
1
62
256
6
ByLayer
370
18
48
1
60
0
100
AcDbCircle
39
0
10
61.441288
20
-17.5
30
0
40
13.5
210
0
220
0
230
1
100
AcDbArc
50
0
51
21.522094
0
ARC
5
136
100
AcDbEntity
8
SK1
62
256
6
ByLayer
370
18
48
1
60
0
100
AcDbCircle
39
0
10
0.6
20
-23.45
30
0
40
0.999999999999999
210
0
220
0
230
-1
100
AcDbArc
50
113.578178
51
126.870857
0
ARC
5
137
100
AcDbEntity
8
1
62
256
6
ByLayer
370
18
48
1
60
0
100
AcDbCircle
39
0
10
61.441288
20
-17.5
30
0
40
13.5
210
0
220
0
230
1
100
AcDbArc
50
338.477906
51
0
0
ARC
5
138
100
AcDbEntity
8
1
62
256
6
ByLayer
370
18
48
1
60
0
100
AcDbCircle
39
0
10
61.441288
20
12.98366
30
0
40
13.5
210
0
220
0
230
1
100
AcDbArc
50
0
51
21.522094
0
ARC
5
139
100
AcDbEntity
8
1
62
256
6
ByLayer
370
18
48
1
60
0
100
AcDbCircle
39
0
10
61.441288
20
12.98366
30
0
40
13.5
210
0
220
0
230
1
100
AcDbArc
50
338.477906
51
0
0
ARC
5
13A
100
AcDbEntity
8
1
62
256
6
ByLayer
370
18
48
1
60
0
100
AcDbCircle
39
0
10
67.546
20
-22.146
30
0
40
6.8
210
0
220
0
230
1
100
AcDbArc
50
0
51
5.036055
0
ARC
5
13B
100
AcDbEntity
8
1
62
256
6
ByLayer
370
13
48
1
60
0
100
AcDbCircle
39
0
10
50.25
20
12.98366
30
0
40
3.4455
210
0
220
0
230
1
100
AcDbArc
50
75
51
345
0
ARC
5
13C
100
AcDbEntity
8
1
62
256
6
ByLayer
370
18
48
1
60
0
100
AcDbCircle
39
0
10
-50.25
20
12.98366
30
0
40
2.34259871723677
210
0
220
0
230
-1
100
AcDbArc
50
33.15762
51
93.15762
0
ARC
5
13D
100
AcDbEntity
8
1
62
256
6
ByLayer
370
18
48
1
60
0
100
AcDbCircle
39
0
10
-50.25
20
12.98366
30
0
40
2.34259871723677
210
0
220
0
230
-1
100
AcDbArc
50
93.15762
51
153.15762
0
ARC
5
13E
100
AcDbEntity
8
1
62
256
6
ByLayer
370
18
48
1
60
0
100
AcDbCircle
39
0
10
-50.25
20
12.98366
30
0
40
2.34259871723677
210
0
220
0
230
-1
100
AcDbArc
50
273.15762
51
333.15762
0
ARC
5
13F
100
AcDbEntity
8
1
62
256
6
ByLayer
370
18
48
1
60
0
100
AcDbCircle
39
0
10
-50.25
20
12.98366
30
0
40
2.34259871723677
210
0
220
0
230
-1
100
AcDbArc
50
333.15762
51
33.15762
0
ARC
5
140
100
AcDbEntity
8
1
62
256
6
ByLayer
370
18
48
1
60
0
100
AcDbCircle
39
0
10
-50.25
20
12.98366
30
0
40
2.34259871723677
210
0
220
0
230
-1
100
AcDbArc
50
153.15762
51
213.15762
0
ARC
5
141
100
AcDbEntity
8
1
62
256
6
ByLayer
370
18
48
1
60
0
100
AcDbCircle
39
0
10
-50.25
20
12.98366
30
0
40
2.34259871723677
210
0
220
0
230
-1
100
AcDbArc
50
213.15762
51
273.15762
0
ARC
5
145
100
AcDbEntity
8
1
62
256
6
ByLayer
370
18
48
1
60
0
100
AcDbCircle
39
0
10
69.061961
20
39.586819
30
0
40
1.25
210
0
220
0
230
1
100
AcDbArc
50
243.795023
51
285.358602
0
ARC
5
146
100
AcDbEntity
8
1
62
256
6
ByLayer
370
18
48
1
60
0
100
AcDbCircle
39
0
10
70.271646
20
40.465706
30
0
40
1.25
210
0
220
0
230
1
100
AcDbArc
50
59.252344
51
126
0
ARC
5
147
100
AcDbEntity
8
1
62
256
6
ByLayer
370
18
48
1
60
0
100
AcDbCircle
39
0
10
69.061961
20
39.586819
30
0
40
1.25
210
0
220
0
230
1
100
AcDbArc
50
126
51
162.723419
0
ARC
5
148
100
AcDbEntity
8
1
62
256
6
ByLayer
370
18
48
1
60
0
100
AcDbCircle
39
0
10
-70.146481
20
40.190164
30
0
40
1.25
210
0
220
0
230
-1
100
AcDbArc
50
20.769869
51
32
0
ARC
5
149
100
AcDbEntity
8
1
62
256
6
ByLayer
370
18
48
1
60
0
100
AcDbCircle
39
0
10
-69.061961
20
39.586819
30
0
40
1.05000000000009
210
0
220
0
230
-1
100
AcDbArc
50
85.397963
51
131.088346
0
ARC
5
14A
100
AcDbEntity
8
1
62
256
6
ByLayer
370
18
48
1
60
0
100
AcDbCircle
39
0
10
-70.252464
20
40.359774
30
0
40
1.25
210
0
220
0
230
-1
100
AcDbArc
50
32
51
122
0
ARC
5
14B
100
AcDbEntity
8
1
62
256
6
ByLayer
370
18
48
1
60
0
100
AcDbCircle
39
0
10
69.061961
20
39.586819
30
0
40
1.05000000000009
210
0
220
0
230
1
100
AcDbArc
50
94.602037
51
307.073559
0
ARC
5
14C
100
AcDbEntity
8
1
62
256
6
ByLayer
370
18
48
1
60
0
100
AcDbCircle
39
0
10
-74.658769
20
39.391245
30
0
40
1.035
210
0
220
0
230
-1
100
AcDbArc
50
181.950841
51
242.049159
0
ARC
5
14D
100
AcDbEntity
8
1
62
256
6
ByLayer
370
18
48
1
60
0
100
AcDbCircle
39
0
10
-74.658769
20
39.391245
30
0
40
1.035
210
0
220
0
230
-1
100
AcDbArc
50
1.950841
51
62.049159
0
ARC
5
14E
100
AcDbEntity
8
1
62
256
6
ByLayer
370
18
48
1
60
0
100
AcDbCircle
39
0
10
74.658769
20
39.391245
30
0
40
0.747999999999999
210
0
220
0
230
1
100
AcDbArc
50
145.838153
51
150.161847
0
ARC
5
151
100
AcDbEntity
8
1
62
256
6
ByLayer
370
18
48
1
60
0
100
AcDbCircle
39
0
10
-74.658769
20
39.391245
30
0
40
1.035
210
0
220
0
230
-1
100
AcDbArc
50
122
51
181.950841
0
ARC
5
152
100
AcDbEntity
8
1
62
256
6
ByLayer
370
18
48
1
60
0
100
AcDbCircle
39
0
10
74.658769
20
39.391245
30
0
40
0.747999999999999
210
0
220
0
230
1
100
AcDbArc
50
208.024579
51
267.975421
0
ARC
5
153
100
AcDbEntity
8
1
62
256
6
ByLayer
370
18
48
1
60
0
100
AcDbCircle
39
0
10
74.658769
20
39.391245
30
0
40
0.747999999999999
210
0
220
0
230
1
100
AcDbArc
50
267.975421
51
325.838153
0
ARC
5
154
100
AcDbEntity
8
1
62
256
6
ByLayer
370
18
48
1
60
0
100
AcDbCircle
39
0
10
74.658769
20
39.391245
30
0
40
0.747999999999999
210
0
220
0
230
1
100
AcDbArc
50
87.975421
51
145.838153
0
ARC
5
155
100
AcDbEntity
8
1
62
256
6
ByLayer
370
18
48
1
60
0
100
AcDbCircle
39
0
10
74.658769
20
39.391245
30
0
40
0.747999999999999
210
0
220
0
230
1
100
AcDbArc
50
330.161847
51
28.024579
0
ARC
5
156
100
AcDbEntity
8
1
62
256
6
ByLayer
370
18
48
1
60
0
100
AcDbCircle
39
0
10
74.658769
20
39.391245
30
0
40
0.747999999999999
210
0
220
0
230
1
100
AcDbArc
50
28.024579
51
87.975421
0
ARC
5
157
100
AcDbEntity
8
1
62
256
6
ByLayer
370
18
48
1
60
0
100
AcDbCircle
39
0
10
-74.658769
20
39.391245
30
0
40
1.035
210
0
220
0
230
-1
100
AcDbArc
50
62.049159
51
122
0
ARC
5
158
100
AcDbEntity
8
1
62
256
6
ByLayer
370
18
48
1
60
0
100
AcDbCircle
39
0
10
74.658769
20
39.391245
30
0
40
0.747999999999999
210
0
220
0
230
1
100
AcDbArc
50
325.838153
51
330.161847
0
ARC
5
159
100
AcDbEntity
8
1
62
256
6
ByLayer
370
18
48
1
60
0
100
AcDbCircle
39
0
10
74.658769
20
39.391245
30
0
40
0.747999999999999
210
0
220
0
230
1
100
AcDbArc
50
150.161847
51
208.024579
0
ARC
5
15A
100
AcDbEntity
8
1
62
256
6
ByLayer
370
18
48
1
60
0
100
AcDbCircle
39
0
10
-74.658769
20
39.391245
30
0
40
1.035
210
0
220
0
230
-1
100
AcDbArc
50
242.049159
51
302
0
ARC
5
15B
100
AcDbEntity
8
1
62
256
6
ByLayer
370
18
48
1
60
0
100
AcDbCircle
39
0
10
-74.658769
20
39.391245
30
0
40
1.035
210
0
220
0
230
-1
100
AcDbArc
50
302
51
1.950841
0
ARC
5
15C
100
AcDbEntity
8
1
62
256
6
ByLayer
370
18
48
1
60
0
100
AcDbCircle
39
0
10
-77.26727
20
34.485367
30
0
40
0.396875
210
0
220
0
230
-1
100
AcDbArc
50
182
51
302
0
ARC
5
15E
100
AcDbEntity
8
1
62
256
6
ByLayer
370
18
48
1
60
0
100
AcDbCircle
39
0
10
-77.603132
20
44.103212
30
0
40
0.396875
210
0
220
0
230
-1
100
AcDbArc
50
62
51
182
0
ARC
5
15F
100
AcDbEntity
8
1
62
256
6
ByLayer
370
18
48
1
60
0
100
AcDbCircle
39
0
10
-69.105903
20
39.585155
30
0
40
0.396875
210
0
220
0
230
-1
100
AcDbArc
50
302
51
62
0
CIRCLE
5
142
100
AcDbEntity
8
1
62
256
6
ByLayer
370
18
48
1
60
0
100
AcDbCircle
10
50.25
20
12.98366
30
0
40
3.233
39
0
210
0
220
0
230
1
0
CIRCLE
5
143
100
AcDbEntity
8
1
62
256
6
ByLayer
370
18
48
1
60
0
100
AcDbCircle
10
50.25
20
12.98366
30
0
40
4
39
0
210
0
220
0
230
1
0
CIRCLE
5
144
100
AcDbEntity
8
1
62
256
6
ByLayer
370
18
48
1
60
0
100
AcDbCircle
10
-74.658769
20
39.391245
30
0
40
1.90468944117779
39
0
210
0
220
0
230
-1
0
CIRCLE
5
14F
100
AcDbEntity
8
1
62
256
6
ByLayer
370
18
48
1
60
0
100
AcDbCircle
10
-74.658769
20
39.391245
30
0
40
1.3
39
0
210
0
220
0
230
-1
0
CIRCLE
5
150
100
AcDbEntity
8
1
62
256
6
ByLayer
370
18
48
1
60
0
100
AcDbCircle
10
-74.658769
20
39.391245
30
0
40
1.725
39
0
210
0
220
0
230
-1
0
CIRCLE
5
15D
100
AcDbEntity
8
1
62
256
6
ByLayer
370
18
48
1
60
0
100
AcDbCircle
10
-74.658769
20
39.391245
30
0
40
1.88122167929295
39
0
210
0
220
0
230
-1
0
CIRCLE
5
160
100
AcDbEntity
8
1
62
256
6
ByLayer
370
18
48
1
60
0
100
AcDbCircle
10
74.658769
20
39.391245
30
0
40
1.8014146404184
39
0
210
0
220
0
230
1
0
ELLIPSE
5
161
100
AcDbEntity
8
1
62
256
6
ByLayer
370
18
48
1
60
0
100
AcDbEllipse
10
26.347154
20
0
30
0
11
14.7501703789519
21
-31.0858517596495
31
0
210
0
220
0
230
-1
40
0.341999
41
2.05082596139416
42
2.98331357338719
0
ELLIPSE
5
162
100
AcDbEntity
8
1
62
256
6
ByLayer
370
18
48
1
60
0
100
AcDbEllipse
10
-2.347154
20
0
30
0
11
14.7501703789489
21
-31.0858517596457
31
0
210
0
220
0
230
-1
40
0.341999
41
-1.09076669219573
42
-0.158279080202621
0
ELLIPSE
5
163
100
AcDbEntity
8
1
62
256
6
ByLayer
370
18
48
1
60
0
100
AcDbEllipse
10
-2.347154
20
0
30
0
11
14.7501703789491
21
31.0858517596461
31
0
210
0
220
0
230
-1
40
0.341999
41
0.158279080202617
42
1.09076669219572
0
ELLIPSE
5
164
100
AcDbEntity
8
1
62
256
6
ByLayer
370
18
48
1
60
0
100
AcDbEllipse
10
26.347154
20
0
30
0
11
14.7501703789519
21
31.0858517596496
31
0
210
0
220
0
230
-1
40
0.341999
41
-2.98331357338719
42
-2.05082596139416
0
ELLIPSE
5
165
100
AcDbEntity
8
1
62
256
6
ByLayer
370
18
48
1
60
0
100
AcDbEllipse
10
38.5
20
13.410333
30
0
11
6
21
0
31
0
210
0
220
0
230
1
40
0.920505
41
0
42
-3.14159261285151
0
ELLIPSE
5
166
100
AcDbEntity
8
1
62
256
6
ByLayer
370
18
48
1
60
0
100
AcDbEllipse
10
83.805207
20
25.137039
30
0
11
71.8672687384178
21
3.30505343415295
31
0
210
0
220
0
230
-1
40
0.264025
41
-1.68834025417855
42
-1.6785649690414
0
ELLIPSE
5
167
100
AcDbEntity
8
1
62
256
6
ByLayer
370
18
48
1
60
0
100
AcDbEllipse
10
83.805163
20
25.13712
30
0
11
71.8671085786533
21
3.30505744427985
31
0
210
0
220
0
230
-1
40
0.264024
41
-1.70050529918658
42
-1.69263729699183
0
ELLIPSE
5
168
100
AcDbEntity
8
1
62
256
6
ByLayer
370
18
48
1
60
0
100
AcDbEllipse
10
67.476682
20
39.862784
30
0
11
-0.434380889497323
21
1.01060043678969
31
0
210
0
220
0
230
1
40
0.24238
41
-2.88918471325571
42
-0.252503596997255
0
POINT
5
6C
100
AcDbEntity
8
80
62
256
6
ByLayer
370
18
48
0.05
60
0
100
AcDbPoint
10
0
20
0
30
0
39
0
210
0
220
0
230
1
50
360
0
POINT
5
6E
100
AcDbEntity
8
SK2
62
256
6
ByLayer
370
18
48
0.05
60
0
100
AcDbPoint
10
78
20
44.5
30
0
39
0
210
0
220
0
230
1
50
360
0
POINT
5
70
100
AcDbEntity
8
1
62
256
6
ByLayer
370
13
48
1
60
1
100
AcDbPoint
10
176.786205
20
161.455447
30
0
39
0
210
0
220
0
230
1
50
360
0
POINT
5
72
100
AcDbEntity
8
1
62
256
6
ByLayer
370
13
48
1
60
1
100
AcDbPoint
10
176.786205
20
161.455447
30
0
39
0
210
0
220
0
230
1
50
360
0
POINT
5
73
100
AcDbEntity
8
1
62
256
6
ByLayer
370
13
48
1
60
1
100
AcDbPoint
10
176.786205
20
161.455447
30
0
39
0
210
0
220
0
230
1
50
360
0
POINT
5
74
100
AcDbEntity
8
81
62
256
6
ByLayer
370
18
48
0.05
60
0
100
AcDbPoint
10
78
20
44.5
30
0
39
0
210
0
220
0
230
1
50
360
0
POINT
5
76
100
AcDbEntity
8
1
62
256
6
ByLayer
370
13
48
1
60
1
100
AcDbPoint
10
157.94976
20
207.535982
30
0
39
0
210
0
220
0
230
1
50
360
0
POINT
5
77
100
AcDbEntity
8
1
62
256
6
ByLayer
370
13
48
1
60
1
100
AcDbPoint
10
157.94976
20
207.535982
30
0
39
0
210
0
220
0
230
1
50
360
0
POINT
5
78
100
AcDbEntity
8
1
62
256
6
ByLayer
370
13
48
1
60
1
100
AcDbPoint
10
157.94976
20
207.535982
30
0
39
0
210
0
220
0
230
1
50
360
0
POINT
5
79
100
AcDbEntity
8
1
62
256
6
ByLayer
370
13
48
1
60
1
100
AcDbPoint
10
157.94976
20
207.535982
30
0
39
0
210
0
220
0
230
1
50
360
0
POINT
5
7A
100
AcDbEntity
8
1
62
256
6
ByLayer
370
13
48
1
60
1
100
AcDbPoint
10
140.964218
20
194.669283
30
0
39
0
210
0
220
0
230
1
50
360
0
POINT
5
7B
100
AcDbEntity
8
1
62
256
6
ByLayer
370
13
48
1
60
1
100
AcDbPoint
10
140.964218
20
194.669283
30
0
39
0
210
0
220
0
230
1
50
360
0
POINT
5
7C
100
AcDbEntity
8
1
62
256
6
ByLayer
370
13
48
1
60
1
100
AcDbPoint
10
157.94976
20
207.535982
30
0
39
0
210
0
220
0
230
1
50
360
0
POINT
5
7D
100
AcDbEntity
8
1
62
256
6
ByLayer
370
13
48
1
60
1
100
AcDbPoint
10
157.94976
20
207.535982
30
0
39
0
210
0
220
0
230
1
50
360
0
POINT
5
7E
100
AcDbEntity
8
1
62
256
6
ByLayer
370
13
48
1
60
1
100
AcDbPoint
10
140.964218
20
194.669283
30
0
39
0
210
0
220
0
230
1
50
360
0
POINT
5
7F
100
AcDbEntity
8
1
62
256
6
ByLayer
370
13
48
1
60
1
100
AcDbPoint
10
140.964218
20
194.669283
30
0
39
0
210
0
220
0
230
1
50
360
0
POINT
5
80
100
AcDbEntity
8
1
62
256
6
ByLayer
370
13
48
1
60
1
100
AcDbPoint
10
149.396788
20
207.827078
30
0
39
0
210
0
220
0
230
1
50
360
0
POINT
5
81
100
AcDbEntity
8
1
62
256
6
ByLayer
370
13
48
1
60
1
100
AcDbPoint
10
149.396788
20
207.827078
30
0
39
0
210
0
220
0
230
1
50
360
0
POINT
5
82
100
AcDbEntity
8
1
62
256
6
ByLayer
370
13
48
1
60
1
100
AcDbPoint
10
145.722463
20
179.784777
30
0
39
0
210
0
220
0
230
1
50
360
0
SPLINE
5
169
100
AcDbEntity
8
SK1
62
256
6
ByLayer
370
18
48
1
60
0
100
AcDbSpline
70
4
71
3
72
98
73
94
40
0
40
0
40
0
40
0
40
0.010680616830191
40
0.0213624005948695
40
0.0320438431360317
40
0.0427239946078869
40
0.0534556771071177
40
0.0641896946620862
40
0.0749228509971714
40
0.0856533588329557
40
0.0951513459941136
40
0.104650647437724
40
0.114147811157225
40
0.121277349242135
40
0.128409596412522
40
0.135540886622838
40
0.1426691192344
40
0.148636115049399
40
0.154609137150318
40
0.160582386005688
40
0.166551950213353
40
0.172516043065007
40
0.177372003504306
40
0.182239164856362
40
0.187109472413015
40
0.191976719389583
40
0.196836810384187
40
0.201688047513754
40
0.206520076884069
40
0.211355922783623
40
0.216186981061506
40
0.219943917995757
40
0.223705751901675
40
0.227467359122808
40
0.231223986535102
40
0.235550008209843
40
0.239888992134643
40
0.244236143583837
40
0.248585111352813
40
0.252928293520979
40
0.257257122857855
40
0.261553148057122
40
0.265853551204657
40
0.270154873638968
40
0.274452153639458
40
0.27886598255563
40
0.28328265395088
40
0.287699998377726
40
0.292114745629735
40
0.298361768296017
40
0.304614143475072
40
0.310870171792985
40
0.317126020036033
40
0.323375958219865
40
0.3313667736763
40
0.339361144236761
40
0.347356701423305
40
0.355349135682295
40
0.36542985586428
40
0.375514501864134
40
0.385601935364246
40
0.395689333186362
40
0.405772362297715
40
0.418357664862931
40
0.430945360830036
40
0.443533822218067
40
0.456120168726033
40
0.468699913323511
40
0.481280857470398
40
0.493862111222882
40
0.50644227804818
40
0.524436785781705
40
0.542432443140074
40
0.560427333955396
40
0.578636854230261
40
0.596848202588641
40
0.615060969194421
40
0.633274314236513
40
0.651486997524152
40
0.669697407852067
40
0.691542212523788
40
0.713388333706441
40
0.7352351682316
40
0.757081804070359
40
0.778927040415969
40
0.806229859299085
40
0.833533814771316
40
0.860837968858191
40
0.888141058590377
40
0.916105298588889
40
0.944070398676292
40
0.972035609285461
40
1
40
1
40
1
40
1
41
1
10
-0.194913899692002
20
-6.03894368023601
30
0
41
1
10
-0.19855484682905
20
-6.04641354493137
30
0
41
1
10
-0.20595373138381
20
-6.06130041355787
30
0
41
1
10
-0.217389769532299
20
-6.08347737047286
30
0
41
1
10
-0.229199792053306
20
-6.10547790941972
30
0
41
1
10
-0.241426615734192
20
-6.12731991663317
30
0
41
1
10
-0.254097353678863
20
-6.14898564934865
30
0
41
1
10
-0.267256703941248
20
-6.17044533145169
30
0
41
1
10
-0.280927777197736
20
-6.19162909165039
30
0
41
1
10
-0.294606752218758
20
-6.21170083040688
30
0
41
1
10
-0.308259357996481
20
-6.23066720242144
30
0
41
1
10
-0.321862024221682
20
-6.24852888519205
30
0
41
1
10
-0.334850164199177
20
-6.26457177647279
30
0
41
1
10
-0.347102639048609
20
-6.27885789843876
30
0
41
1
10
-0.358504509594466
20
-6.29145617021679
30
0
41
1
10
-0.370303629247399
20
-6.30375279191988
30
0
41
1
10
-0.38186139711918
20
-6.31505877636236
30
0
41
1
10
-0.393123431965258
20
-6.32540545068387
30
0
41
1
10
-0.404039213597292
20
-6.33482347398933
30
0
41
1
10
-0.41531363263379
20
-6.3439012653353
30
0
41
1
10
-0.42695812342173
20
-6.35258942166796
30
0
41
1
10
-0.438241350865832
20
-6.36033189045926
30
0
41
1
10
-0.44910514902356
20
-6.36717818055255
30
0
41
1
10
-0.459488556130301
20
-6.37318681919435
30
0
41
1
10
-0.470158940880574
20
-6.37880448628128
30
0
41
1
10
-0.481103410633114
20
-6.38398350932948
30
0
41
1
10
-0.492308743760797
20
-6.38867646846961
30
0
41
1
10
-0.503752864115116
20
-6.39283281480365
30
0
41
1
10
-0.515428391972229
20
-6.39640730469402
30
0
41
1
10
-0.527309517430365
20
-6.39936741349424
30
0
41
1
10
-0.538486246472082
20
-6.40150691772027
30
0
41
1
10
-0.548883407518366
20
-6.402945748246
30
0
41
1
10
-0.558449165006416
20
-6.40383081024537
30
0
41
1
10
-0.568059274166144
20
-6.40428033926109
30
0
41
1
10
-0.578170898471379
20
-6.40428888060147
30
0
41
1
10
-0.588768238408119
20
-6.40375212663588
30
0
41
1
10
-0.599819134823784
20
-6.4025983918923
30
0
41
1
10
-0.61080452258466
20
-6.40088042557534
30
0
41
1
10
-0.621676749953211
20
-6.39862311108732
30
0
41
1
10
-0.632388785355659
20
-6.39585346461998
30
0
41
1
10
-0.642884367554101
20
-6.39259578073439
30
0
41
1
10
-0.653151466085389
20
-6.38887987371532
30
0
41
1
10
-0.663197831681791
20
-6.38475488271004
30
0
41
1
10
-0.673036711974379
20
-6.38024185571765
30
0
41
1
10
-0.682746557447171
20
-6.3753291134476
30
0
41
1
10
-0.692319578014676
20
-6.37003403815817
30
0
41
1
10
-0.70175386167031
20
-6.36437549527531
30
0
41
1
10
-0.710965289273889
20
-6.35842867460065
30
0
41
1
10
-0.721199746413983
20
-6.35136132475141
30
0
41
1
10
-0.732354751914448
20
-6.34306759793854
30
0
41
1
10
-0.744316555620772
20
-6.33345024786867
30
0
41
1
10
-0.755893555834027
20
-6.32345377630373
30
0
41
1
10
-0.767099833739088
20
-6.31312769815908
30
0
41
1
10
-0.778964847623861
20
-6.30152875223186
30
0
41
1
10
-0.791403456379615
20
-6.28859982801192
30
0
41
1
10
-0.804323655863742
20
-6.27428606820927
30
0
41
1
10
-0.816784030931733
20
-6.25964656700905
30
0
41
1
10
-0.829866115234034
20
-6.24342484447977
30
0
41
1
10
-0.843485219670227
20
-6.2255766939279
30
0
41
1
10
-0.857545219137777
20
-6.20605584726801
30
0
41
1
10
-0.871076263549488
20
-6.18622608125045
30
0
41
1
10
-0.884117250436721
20
-6.16612997448309
30
0
41
1
10
-0.8977542728528
20
-6.14412282014601
30
0
41
1
10
-0.911904337778189
20
-6.1201680461745
30
0
41
1
10
-0.926470323655379
20
-6.09422543726243
30
0
41
1
10
-0.940493998991025
20
-6.06802928454743
30
0
41
1
10
-0.954018980896761
20
-6.04161542737078
30
0
41
1
10
-0.967090702210669
20
-6.01500957217612
30
0
41
1
10
-0.979734789108424
20
-5.98822630791784
30
0
41
1
10
-0.991981242820627
20
-5.96127796224302
30
0
41
1
10
-1.00556140164972
20
-5.93029296620226
30
0
41
1
10
-1.02030959513433
20
-5.89520687178431
30
0
41
1
10
-1.03605067412991
20
-5.85595726130965
30
0
41
1
10
-1.05125196802805
20
-5.81632302366304
30
0
41
1
10
-1.06596243110774
20
-5.77632476195797
30
0
41
1
10
-1.08020896752851
20
-5.73597399197006
30
0
41
1
10
-1.09396254088977
20
-5.69544154559073
30
0
41
1
10
-1.1072531796918
20
-5.65474220295934
30
0
41
1
10
-1.12011019872176
20
-5.61389055685911
30
0
41
1
10
-1.13339373050085
20
-5.57017143742769
30
0
41
1
10
-1.14703940984821
20
-5.5235598539962
30
0
41
1
10
-1.16097186356742
20
-5.47402842308603
30
0
41
1
10
-1.17441908228033
20
-5.42432458827956
30
0
41
1
10
-1.1874082239756
20
-5.3744599842758
30
0
41
1
10
-1.20101394827459
20
-5.32027925609505
30
0
41
1
10
-1.21513722928447
20
-5.26174411326823
30
0
41
1
10
-1.22967097095087
20
-5.19881486281839
30
0
41
1
10
-1.24364077231691
20
-5.13568146400107
30
0
41
1
10
-1.25718862702662
20
-5.07184345473518
30
0
41
1
10
-1.27033282766643
20
-5.0073038202025
30
0
41
1
10
-1.28308252927995
20
-4.94206357080625
30
0
41
1
10
-1.29535480995374
20
-4.87664221057165
30
0
41
1
10
-1.30324008970893
20
-4.83291326748606
30
0
41
1
10
-1.30710678118765
20
-4.81101991917768
30
0
0
SPLINE
5
16A
100
AcDbEntity
8
SK1
62
256
6
ByLayer
370
18
48
1
60
0
100
AcDbSpline
70
4
71
3
72
98
73
94
40
0
40
0
40
0
40
0
40
0.0291864624115426
40
0.0583744637988998
40
0.0875627645420953
40
0.116750355566418
40
0.145936473784757
40
0.170261981740091
40
0.194589587819639
40
0.218917887402494
40
0.243245754956566
40
0.267572364006617
40
0.291897207222829
40
0.310137560832832
40
0.328378587869449
40
0.346619476290002
40
0.364859640870857
40
0.383126758608887
40
0.401394976335798
40
0.419662902968392
40
0.437929623734575
40
0.454753182025509
40
0.471577356796227
40
0.48840063586266
40
0.501020207031107
40
0.513640812427205
40
0.526261128818699
40
0.538880305856018
40
0.551622190577122
40
0.564366123673559
40
0.57710932340843
40
0.589850207919792
40
0.598839452217788
40
0.607830152943872
40
0.6168203968832
40
0.625809018183481
40
0.634863664436707
40
0.643921381699389
40
0.652977898517174
40
0.662030907205316
40
0.668587819721536
40
0.675147234878839
40
0.681705806556187
40
0.688261568406478
40
0.693599535268497
40
0.698942297834632
40
0.704285360951348
40
0.709625608949581
40
0.714961465003821
40
0.719959410189531
40
0.724970583353482
40
0.729985467742954
40
0.734996719178555
40
0.739999498402756
40
0.744991834369419
40
0.74922849062817
40
0.753478864856483
40
0.757734963158542
40
0.761989562027861
40
0.766236470564213
40
0.770470809191645
40
0.774711114681762
40
0.778963877341193
40
0.783224345658812
40
0.787486398001723
40
0.791742821832334
40
0.795985575620666
40
0.800191213343944
40
0.80440113242772
40
0.808611915660292
40
0.812818732923546
40
0.818581477291405
40
0.824348098598358
40
0.830112160423314
40
0.836130798226112
40
0.842154617311748
40
0.848181922935068
40
0.854209012507542
40
0.86023039577974
40
0.867930877087902
40
0.87563485900186
40
0.883339992132407
40
0.891042043952206
40
0.900051477561631
40
0.909063517579999
40
0.918076385372728
40
0.927086948073035
40
0.93909161681871
40
0.95109810149522
40
0.963103460445789
40
0.975401828285986
40
0.987701272354556
40
1
40
1
40
1
40
1
41
1
10
-1.30710678118655
20
4.81101991917755
30
0
41
1
10
-1.30307156416454
20
4.83387005339054
30
0
41
1
10
-1.29483532243838
20
4.87950782690563
30
0
41
1
10
-1.28199742814207
20
4.94777763694807
30
0
41
1
10
-1.26863569597947
20
5.0158503699414
30
0
41
1
10
-1.25472505873788
20
5.0837164135106
30
0
41
1
10
-1.24103935419478
20
5.14761120979986
30
0
41
1
10
-1.22766528742716
20
5.2075693868315
30
0
41
1
10
-1.21467897799665
20
5.26362346673556
30
0
41
1
10
-1.2012145035605
20
5.31950843319333
30
0
41
1
10
-1.18724283479969
20
5.37521255690886
30
0
41
1
10
-1.17273437387265
20
5.43072396816282
30
0
41
1
10
-1.15891709408666
20
5.48142116954471
30
0
41
1
10
-1.14592022348974
20
5.52735091926006
30
0
41
1
10
-1.13386279097367
20
5.56855790033067
30
0
41
1
10
-1.12142359725354
20
5.6096298759906
30
0
41
1
10
-1.10857442846535
20
5.65057814550649
30
0
41
1
10
-1.09529432393566
20
5.69139494094327
30
0
41
1
10
-1.08154965563754
20
5.73206806317138
30
0
41
1
10
-1.06731282636455
20
5.7725627594798
30
0
41
1
10
-1.0529394726402
20
5.81180228112131
30
0
41
1
10
-1.03844555972232
20
5.84978991358594
30
0
41
1
10
-1.02383750052634
20
5.88652586013692
30
0
41
1
10
-1.00993415175032
20
5.92000464198231
30
0
41
1
10
-0.996858192038832
20
5.9502693013768
30
0
41
1
10
-0.984726508162005
20
5.97736436477698
30
0
41
1
10
-0.972205716684333
20
6.00429939967932
30
0
41
1
10
-0.959227183444311
20
6.03114503474527
30
0
41
1
10
-0.945761475238168
20
6.05788545236632
30
0
41
1
10
-0.931759225035004
20
6.08449374735411
30
0
41
1
10
-0.917217985513536
20
6.11085336818218
30
0
41
1
10
-0.903578290243905
20
6.13437261297321
30
0
41
1
10
-0.890992980233882
20
6.15511673705684
30
0
41
1
10
-0.879603940740501
20
6.17315341348776
30
0
41
1
10
-0.867848810199441
20
6.19099462447739
30
0
41
1
10
-0.855672214931406
20
6.208660363653
30
0
41
1
10
-0.843046407441201
20
6.22612857663578
30
0
41
1
10
-0.829925396619772
20
6.2433611801598
30
0
41
1
10
-0.81629820112929
20
6.26027144097595
30
0
41
1
10
-0.803428532242804
20
6.27529246231665
30
0
41
1
10
-0.791450035005943
20
6.28849879569596
30
0
41
1
10
-0.78048672704531
20
6.29997080423457
30
0
41
1
10
-0.769168629155524
20
6.31116204009338
30
0
41
1
10
-0.758199653603403
20
6.32136348725773
30
0
41
1
10
-0.747639178047971
20
6.33061280883182
30
0
41
1
10
-0.737543482211535
20
6.33894988911953
30
0
41
1
10
-0.727153794009246
20
6.34699569170846
30
0
41
1
10
-0.716463348816196
20
6.35471154295316
30
0
41
1
10
-0.705696172847303
20
6.36190764444745
30
0
41
1
10
-0.694853388719539
20
6.36857525759905
30
0
41
1
10
-0.683945375860888
20
6.3747053513642
30
0
41
1
10
-0.672736484075475
20
6.38040349059711
30
0
41
1
10
-0.661245647682182
20
6.38561606820279
30
0
41
1
10
-0.649491788474772
20
6.39028851755158
30
0
41
1
10
-0.638092921641175
20
6.39416760600624
30
0
41
1
10
-0.627090777399467
20
6.39729766060028
30
0
41
1
10
-0.616534141539903
20
6.39976197957135
30
0
41
1
10
-0.60583615943876
20
6.40172293133905
30
0
41
1
10
-0.595043230738197
20
6.40315798972579
30
0
41
1
10
-0.584202256069652
20
6.40404572209138
30
0
41
1
10
-0.573341109786966
20
6.40436472398403
30
0
41
1
10
-0.56248209704343
20
6.40408930674179
30
0
41
1
10
-0.55164682522049
20
6.40324455130589
30
0
41
1
10
-0.540872618547927
20
6.40185261065441
30
0
41
1
10
-0.530205377281663
20
6.39993554118019
30
0
41
1
10
-0.519690518406781
20
6.39751651402704
30
0
41
1
10
-0.5093871166589
20
6.39461752140447
30
0
41
1
10
-0.499307263747484
20
6.3912663504173
30
0
41
1
10
-0.489444258174015
20
6.3875106036246
30
0
41
1
10
-0.47978161688753
20
6.38336909562343
30
0
41
1
10
-0.469163646488546
20
6.37831812304895
30
0
41
1
10
-0.457690468411965
20
6.37222639841022
30
0
41
1
10
-0.44547440753184
20
6.36498535755689
30
0
41
1
10
-0.433468629406842
20
6.35714313990029
30
0
41
1
10
-0.421676505872824
20
6.34873479712323
30
0
41
1
10
-0.410099325019486
20
6.33978652035007
30
0
41
1
10
-0.398890911535959
20
6.33046272778273
30
0
41
1
10
-0.388038717892396
20
6.32081075487875
30
0
41
1
10
-0.376545904347047
20
6.30994717308165
30
0
41
1
10
-0.36449588068187
20
6.29781340380129
30
0
41
1
10
-0.351978145828316
20
6.28435368197962
30
0
41
1
10
-0.339906682446758
20
6.27056485597544
30
0
41
1
10
-0.32758954265569
20
6.25569349427243
30
0
41
1
10
-0.31506886761948
20
6.23972278661453
30
0
41
1
10
-0.302394779386911
20
6.22263225069662
30
0
41
1
10
-0.290170045932606
20
6.20526979114424
30
0
41
1
10
-0.277051292830524
20
6.18572018217432
30
0
41
1
10
-0.263163097335965
20
6.16392122716609
30
0
41
1
10
-0.24863745700698
20
6.13981529233981
30
0
41
1
10
-0.234565371458543
20
6.11522156786504
30
0
41
1
10
-0.220907232368806
20
6.0901704080208
30
0
41
1
10
-0.20764558708582
20
6.06467820333837
30
0
41
1
10
-0.199105509878197
20
6.04754583421765
30
0
41
1
10
-0.194913899691997
20
6.03894368023604
30
0
0
SPLINE
5
16B
100
AcDbEntity
8
SK1
62
256
6
ByLayer
370
18
48
1
60
0
100
AcDbSpline
70
4
71
2
72
6
73
3
40
0
40
0
40
0
40
1
40
1
40
1
41
1
10
-36.5000001
20
21.1583735955575
30
0
41
1
10
-37.2500000499412
20
20.7253664240883
30
0
41
1
10
-38
20
20.2923592525947
30
0
0
SPLINE
5
16C
100
AcDbEntity
8
SK1
62
256
6
ByLayer
370
18
48
1
60
0
100
AcDbSpline
70
4
71
2
72
6
73
3
40
0
40
0
40
0
40
1
40
1
40
1
41
1
10
-38
20
-20.2923592525947
30
0
41
1
10
-37.2500000499412
20
-20.7253664240883
30
0
41
1
10
-36.5000001
20
-21.1583735955575
30
0
0
SPLINE
5
16D
100
AcDbEntity
8
SK1
62
256
6
ByLayer
370
18
48
1
60
0
100
AcDbSpline
70
4
71
2
72
6
73
3
40
0
40
0
40
0
40
1
40
1
40
1
41
1
10
-1.99993701093305
20
22.0251226942188
30
0
41
1
10
-19.2499685554636
20
21.5917473867183
30
0
41
1
10
-36.5000001
20
21.1583720779215
30
0
0
SPLINE
5
16E
100
AcDbEntity
8
SK1
62
256
6
ByLayer
370
18
48
1
60
0
100
AcDbSpline
70
4
71
2
72
6
73
3
40
0
40
0
40
0
40
1
40
1
40
1
41
1
10
-36.5000001
20
-21.1583720779215
30
0
41
1
10
-19.2499685554636
20
-21.5917473867183
30
0
41
1
10
-1.99993701093305
20
-22.0251226942188
30
0
0
SPLINE
5
16F
100
AcDbEntity
8
SK1
62
256
6
ByLayer
370
18
48
1
60
0
100
AcDbSpline
70
4
71
3
72
43
73
39
40
0
40
0
40
0
40
0
40
0.0387146309701413
40
0.0765153094647605
40
0.113246759214136
40
0.148764077325523
40
0.182934276829539
40
0.215637333342998
40
0.246766739965196
40
0.276229602567785
40
0.301147606306767
40
0.324614960994448
40
0.346590721904465
40
0.36704096646507
40
0.385938109890648
40
0.402964802320687
40
0.418455963177491
40
0.433450365717715
40
0.449986466233582
40
0.468462469823926
40
0.488590472232518
40
0.510363894060034
40
0.533770699779922
40
0.558792422174744
40
0.584914282590007
40
0.612536487400098
40
0.64161785995511
40
0.672107727836417
40
0.700997593055842
40
0.730948167941419
40
0.761898806372006
40
0.793781494891014
40
0.826521038430276
40
0.860035432923127
40
0.894236430665695
40
0.929030295735449
40
0.96431873740856
40
1
40
1
40
1
40
1
41
1
10
-1.79497698875896
20
21.8302113845853
30
0
41
1
10
-1.79903041901804
20
21.8301098383066
30
0
41
1
10
-1.80703143775646
20
21.8301520093745
30
0
41
1
10
-1.8188633202144
20
21.8309257302971
30
0
41
1
10
-1.83029541653666
20
21.8323483927634
30
0
41
1
10
-1.8412566299213
20
21.8343486936923
30
0
41
1
10
-1.85168262904667
20
21.8368472141664
30
0
41
1
10
-1.86152345595418
20
21.839759261735
30
0
41
1
10
-1.87074164387165
20
21.8429975008514
30
0
41
1
10
-1.8790405962408
20
21.8463642895413
30
0
41
1
10
-1.88645817910381
20
21.8497491603999
30
0
41
1
10
-1.89304188354393
20
21.8530612703845
30
0
41
1
10
-1.89909342837953
20
21.856381403028
30
0
41
1
10
-1.90461968514364
20
21.8596575118215
30
0
41
1
10
-1.90960493636828
20
21.8628251248711
30
0
41
1
10
-1.91406879122609
20
21.8658415962794
30
0
41
1
10
-1.91812165082418
20
21.8687338788221
30
0
41
1
10
-1.92206373603754
20
21.8716921722945
30
0
41
1
10
-1.92617767775051
20
21.874941892034
30
0
41
1
10
-1.93061386933593
20
21.8786489527105
30
0
41
1
10
-1.9353460106966
20
21.882853678476
30
0
41
1
10
-1.94031183461426
20
21.8875677374681
30
0
41
1
10
-1.94546613815268
20
21.8928210839234
30
0
41
1
10
-1.95072304317549
20
21.8986037114222
30
0
41
1
10
-1.95602669743343
20
21.9049310303419
30
0
41
1
10
-1.96131736031649
20
21.911813489072
30
0
41
1
10
-1.96655831298261
20
21.9192991928036
30
0
41
1
10
-1.97151389186676
20
21.9271336263805
30
0
41
1
10
-1.9761429861661
20
21.9352684587176
30
0
41
1
10
-1.98041282120567
20
21.9436508632868
30
0
41
1
10
-1.98440534364504
20
21.9525129322594
30
0
41
1
10
-1.98806220563356
20
21.9618322641095
30
0
41
1
10
-1.99132655342398
20
21.9715787748644
30
0
41
1
10
-1.99414436243785
20
21.9817146303292
30
0
41
1
10
-1.99646580386142
20
21.9921948902414
30
0
41
1
10
-1.99824648271287
20
22.0029665574828
30
0
41
1
10
-1.99944899578048
20
22.0139751247035
30
0
41
1
10
-1.99984303082204
20
22.0213871563724
30
0
41
1
10
-1.99993701093305
20
22.0251227040577
30
0
0
SPLINE
5
170
100
AcDbEntity
8
SK1
62
256
6
ByLayer
370
18
48
1
60
0
100
AcDbSpline
70
4
71
3
72
43
73
39
40
0
40
0
40
0
40
0
40
0.0386833867738812
40
0.0764565212716213
40
0.113163853478468
40
0.148660280163958
40
0.182812692176368
40
0.215501027330541
40
0.246618833677193
40
0.276073376321276
40
0.300986943100888
40
0.324453015802947
40
0.34643105948011
40
0.366887699953088
40
0.385796078866459
40
0.402839449283107
40
0.418354102608086
40
0.433377749835789
40
0.449942900393146
40
0.468447454677467
40
0.48860248566293
40
0.510401031671339
40
0.533830745145907
40
0.558872891736015
40
0.58501216044151
40
0.612648926616999
40
0.641741793628442
40
0.672239857786737
40
0.701134101200215
40
0.731085912931803
40
0.762034414959876
40
0.793911334321288
40
0.826641184961892
40
0.860141636727927
40
0.89432407733649
40
0.929094364610284
40
0.96435375688846
40
1
40
1
40
1
40
1
41
1
10
-1.99993701093305
20
-22.0251227040577
30
0
41
1
10
-1.99983496671001
20
-22.0210691007052
30
0
41
1
10
-1.9993912552113
20
-22.0130799295847
30
0
41
1
10
-1.99802456019299
20
-22.0013018253827
30
0
41
1
10
-1.99602978058325
20
-21.9899555896025
30
0
41
1
10
-1.99348168684613
20
-21.9791086576675
30
0
41
1
10
-1.9904628372364
20
-21.968821289983
30
0
41
1
10
-1.98706032885285
20
-21.9591391283539
30
0
41
1
10
-1.98336327229728
20
-21.9500952054159
30
0
41
1
10
-1.97958397658542
20
-21.9419758574082
30
0
41
1
10
-1.97583086838411
20
-21.9347376883539
30
0
41
1
10
-1.97219225837655
20
-21.9283286432885
30
0
41
1
10
-1.96857233456041
20
-21.922451483855
30
0
41
1
10
-1.96502272197245
20
-21.9170967176982
30
0
41
1
10
-1.96160862257922
20
-21.9122768341984
30
0
41
1
10
-1.95837156419461
20
-21.9079700000009
30
0
41
1
10
-1.95527952965973
20
-21.9040678910071
30
0
41
1
10
-1.95212811852014
20
-21.900280864955
30
0
41
1
10
-1.94867577350362
20
-21.8963352900863
30
0
41
1
10
-1.94475061962318
20
-21.8920910196011
30
0
41
1
10
-1.94031349158888
20
-21.8875760768682
30
0
41
1
10
-1.93535594405797
20
-21.8828533380504
30
0
41
1
10
-1.92985031090136
20
-21.8779694286157
30
0
41
1
10
-1.92381089810344
20
-21.8730096179525
30
0
41
1
10
-1.91722512667549
20
-21.8680304684061
30
0
41
1
10
-1.91008557092257
20
-21.8630921752417
30
0
41
1
10
-1.90234602113302
20
-21.8582338196058
30
0
41
1
10
-1.89427246196454
20
-21.8536779564582
30
0
41
1
10
-1.8859152724553
20
-21.8494632500913
30
0
41
1
10
-1.87732890475465
20
-21.8456197952722
30
0
41
1
10
-1.86827739482784
20
-21.8420773807887
30
0
41
1
10
-1.85878604464503
20
-21.8388931535132
30
0
41
1
10
-1.84888775363159
20
-21.836122381908
30
0
41
1
10
-1.83862301896445
20
-21.8338171201594
30
0
41
1
10
-1.82803922496332
20
-21.8320248723616
30
0
41
1
10
-1.81719152479708
20
-21.8307873212065
30
0
41
1
10
-1.80613624679498
20
-21.8301390516081
30
0
41
1
10
-1.79871295928845
20
-21.8301177035748
30
0
41
1
10
-1.79497698875896
20
-21.8302113845853
30
0
0
SPLINE
5
171
100
AcDbEntity
8
SK1
62
256
6
ByLayer
370
18
48
1
60
0
100
AcDbSpline
70
4
71
3
72
120
73
116
40
0
40
0
40
0
40
0
40
0.0100576233662781
40
0.0201154218720577
40
0.0301732122106834
40
0.0402308244397375
40
0.0502885387945516
40
0.0603464474268775
40
0.0704043464254839
40
0.0804620476431519
40
0.090519869080562
40
0.100577907319353
40
0.110635934223874
40
0.120693740205125
40
0.130814817813219
40
0.140936143395312
40
0.151057455366171
40
0.16117851441303
40
0.171357236567785
40
0.181536243268977
40
0.191715233776457
40
0.201893933848255
40
0.210037024306335
40
0.21818036635083
40
0.22632378104194
40
0.234467101719033
40
0.242610174255519
40
0.250753422041903
40
0.258896954467479
40
0.267040569279783
40
0.275184077901609
40
0.283327305722866
40
0.291554619739467
40
0.299782264601446
40
0.30801000585554
40
0.316237624248675
40
0.324464916064713
40
0.332511993513652
40
0.340559416214581
40
0.348606941319119
40
0.35665433985432
40
0.364701397034365
40
0.372748638548381
40
0.380796258764584
40
0.388843993806503
40
0.396891592274275
40
0.404938815546817
40
0.412986195781002
40
0.421033982335717
40
0.429081895711856
40
0.437129665820479
40
0.445177032260472
40
0.453350312769405
40
0.461524037435701
40
0.469697905536039
40
0.477871621350457
40
0.486044894434832
40
0.494312593636481
40
0.502580757042907
40
0.510849076172836
40
0.519117241367399
40
0.527384942068861
40
0.53565259634346
40
0.543920703350772
40
0.552188967941756
40
0.560457087519964
40
0.568724752338475
40
0.576992292839395
40
0.585260260862808
40
0.59352838244954
40
0.601796371352512
40
0.61006392936623
40
0.618482657385759
40
0.62690180002066
40
0.635321095497295
40
0.643740265789798
40
0.652159017007174
40
0.660749048402211
40
0.669339475389539
40
0.677930051047163
40
0.686520509796544
40
0.695110567831956
40
0.703700378512747
40
0.712290539341008
40
0.720880833100778
40
0.729471024579033
40
0.738060860967324
40
0.746650464125445
40
0.755240375046436
40
0.763830403300665
40
0.772420342096141
40
0.781009968633706
40
0.789718396073663
40
0.798427104627744
40
0.807135920526788
40
0.815844654867593
40
0.824553103935829
40
0.833306729861355
40
0.84206060622939
40
0.850814577995512
40
0.859568476895499
40
0.868322121719337
40
0.877075600088405
40
0.885829299070659
40
0.894583081643822
40
0.903336799636292
40
0.912090293949817
40
0.923032013737033
40
0.933973992320429
40
0.944915984700427
40
0.955857723301631
40
0.966893167082578
40
0.977928847535752
40
0.988964539932295
40
1
40
1
40
1
40
1
41
1
10
-1.30710678118655
20
4.81101991917756
30
0
41
1
10
-1.31251256689723
20
4.78043782395492
30
0
41
1
10
-1.32327737363291
20
4.71919715422697
30
0
41
1
10
-1.33928683312494
20
4.62710802760046
30
0
41
1
10
-1.35515013764391
20
4.53479116535756
30
0
41
1
10
-1.37086184167334
20
4.44224700104603
30
0
41
1
10
-1.38641580995148
20
4.34947523145856
30
0
41
1
10
-1.40180558901324
20
4.25647555111125
30
0
41
1
10
-1.41702439719831
20
4.1632492274296
30
0
41
1
10
-1.43206554542741
20
4.06979696477279
30
0
41
1
10
-1.44692247248121
20
3.97611867510717
30
0
41
1
10
-1.46158806020951
20
3.88221432390271
30
0
41
1
10
-1.47605486850485
20
3.78808565961143
30
0
41
1
10
-1.49034539545958
20
3.6935363673598
30
0
41
1
10
-1.50445083408417
20
3.59856499838046
30
0
41
1
10
-1.51836165519888
20
3.50317027454528
30
0
41
1
10
-1.53204019787038
20
3.4075525019224
30
0
41
1
10
-1.54550373294407
20
3.31153185009535
30
0
41
1
10
-1.55874254381814
20
3.21510749157137
30
0
41
1
10
-1.57174620253606
20
3.118278878556
30
0
41
1
10
-1.58448060332997
20
3.02123126585463
30
0
41
1
10
-1.59610631562496
20
2.9304513984634
30
0
41
1
10
-1.60667755344734
20
2.84598816751752
30
0
41
1
10
-1.61624707830045
20
2.76788444163018
30
0
41
1
10
-1.62562308665037
20
2.68964531946178
30
0
41
1
10
-1.63480048864086
20
2.61127389176229
30
0
41
1
10
-1.64377441493695
20
2.53277145261668
30
0
41
1
10
-1.65254001254473
20
2.45413849533909
30
0
41
1
10
-1.66109231858455
20
2.37537579679269
30
0
41
1
10
-1.669426166701
20
2.296486240474
30
0
41
1
10
-1.67753625616019
20
2.21747374877816
30
0
41
1
10
-1.68544457729256
20
2.13806845540846
30
0
41
1
10
-1.69314322554757
20
2.05826983251304
30
0
41
1
10
-1.70062422391458
20
1.97807784448785
30
0
41
1
10
-1.70785599212551
20
1.89776845229098
30
0
41
1
10
-1.71483305831568
20
1.81734671234571
30
0
41
1
10
-1.72150107930404
20
1.73740398999208
30
0
41
1
10
-1.72786149966883
20
1.65794468762431
30
0
41
1
10
-1.73391645474889
20
1.57897334273344
30
0
41
1
10
-1.73970844260091
20
1.49990501457205
30
0
41
1
10
-1.74523264055162
20
1.42074547459577
30
0
41
1
10
-1.75048442591975
20
1.34149812089498
30
0
41
1
10
-1.75545908360227
20
1.26216506683537
30
0
41
1
10
-1.76015268605485
20
1.1827489032445
30
0
41
1
10
-1.76456123812436
20
1.10325490779346
30
0
41
1
10
-1.76868060378112
20
1.02368989680883
30
0
41
1
10
-1.77250680892243
20
0.944058192675825
30
0
41
1
10
-1.7760357812778
20
0.864362571471987
30
0
41
1
10
-1.77926466263207
20
0.784606246613614
30
0
41
1
10
-1.78219055594874
20
0.704795174745588
30
0
41
1
10
-1.78481044770564
20
0.62493708355978
30
0
41
1
10
-1.78713346846047
20
0.544620830342912
30
0
41
1
10
-1.78915091835614
20
0.463848995201788
30
0
41
1
10
-1.79085559935698
20
0.382624795384211
30
0
41
1
10
-1.79223562169347
20
0.301371398664784
30
0
41
1
10
-1.79328942645892
20
0.220097547442303
30
0
41
1
10
-1.79401827690921
20
0.138496537542336
30
0
41
1
10
-1.79441615687939
20
0.0565720881000031
30
0
41
1
10
-1.79447898494772
20
-0.0256717238553575
30
0
41
1
10
-1.79420556054586
20
-0.107915153376759
30
0
41
1
10
-1.79359619666237
20
-0.190148966568977
30
0
41
1
10
-1.7926511610231
20
-0.272366349822168
30
0
41
1
10
-1.79137069943651
20
-0.35456316795626
30
0
41
1
10
-1.78975704010452
20
-0.436735467724404
30
0
41
1
10
-1.78781232395026
20
-0.518876985596031
30
0
41
1
10
-1.78553875573528
20
-0.60097885041915
30
0
41
1
10
-1.7829384452897
20
-0.683034331266849
30
0
41
1
10
-1.78001344612953
20
-0.765039586778795
30
0
41
1
10
-1.77676747047703
20
-0.846991177592893
30
0
41
1
10
-1.77320415788834
20
-0.928883738287285
30
0
41
1
10
-1.76932727236517
20
-1.01070921807302
30
0
41
1
10
-1.76511490588955
20
-1.09296026564776
30
0
41
1
10
-1.76056400990243
20
-1.17563208231007
30
0
41
1
10
-1.75567294151141
20
-1.25872003333578
30
0
41
1
10
-1.75047406520645
20
-1.34172115334633
30
0
41
1
10
-1.74497249369259
20
-1.42462810464792
30
0
41
1
10
-1.73913380926353
20
-1.50799749472358
30
0
41
1
10
-1.73295582232212
20
-1.59182432658849
30
0
41
1
10
-1.72643737642514
20
-1.67610381465507
30
0
41
1
10
-1.71962570535427
20
-1.76027068345134
30
0
41
1
10
-1.71252689420845
20
-1.84431848889145
30
0
41
1
10
-1.70514686204229
20
-1.92824226098729
30
0
41
1
10
-1.69749133960811
20
-2.01204002905726
30
0
41
1
10
-1.68956636862132
20
-2.09571034886088
30
0
41
1
10
-1.68137794284823
20
-2.17925064271896
30
0
41
1
10
-1.67293232548834
20
-2.26265575336725
30
0
41
1
10
-1.66423562076209
20
-2.34592178068517
30
0
41
1
10
-1.6552937025692
20
-2.42904751149452
30
0
41
1
10
-1.64611241672032
20
-2.51203213883065
30
0
41
1
10
-1.63669759972017
20
-2.59487391166783
30
0
41
1
10
-1.62705535894911
20
-2.67756878296091
30
0
41
1
10
-1.61714609792344
20
-2.76049501004421
30
0
41
1
10
-1.60697202065636
20
-2.84364960496396
30
0
41
1
10
-1.59653531638102
20
-2.92702974071452
30
0
41
1
10
-1.58588826888158
20
-3.01025369297122
30
0
41
1
10
-1.57503687474894
20
-3.09331819321584
30
0
41
1
10
-1.56396779821786
20
-3.17636492243031
30
0
41
1
10
-1.55268544627366
20
-3.25939276169955
30
0
41
1
10
-1.54119395763386
20
-3.34240075213068
30
0
41
1
10
-1.52951821807588
20
-3.42524450217262
30
0
41
1
10
-1.5176638472551
20
-3.50792146043664
30
0
41
1
10
-1.50563633478563
20
-3.59042995862594
30
0
41
1
10
-1.49344088329019
20
-3.67277018291298
30
0
41
1
10
-1.48108229027282
20
-3.75494242941322
30
0
41
1
10
-1.46856543499308
20
-3.83694634076127
30
0
41
1
10
-1.45589543286507
20
-3.918779963618
30
0
41
1
10
-1.44200910694644
20
-4.00724722180091
30
0
41
1
10
-1.42686630069868
20
-4.10229559275902
30
0
41
1
10
-1.41042633510125
20
-4.20386617115219
30
0
41
1
10
-1.39377954998781
20
-4.30516881643685
30
0
41
1
10
-1.37688663668128
20
-4.40649063791758
30
0
41
1
10
-1.35975408848966
20
-4.50782932593261
30
0
41
1
10
-1.34238814794552
20
-4.6091825242188
30
0
41
1
10
-1.32484475209836
20
-4.71026158228592
30
0
41
1
10
-1.31303829068517
20
-4.77746451827109
30
0
41
1
10
-1.30710678118663
20
-4.81101991917749
30
0
0
SPLINE
5
172
100
AcDbEntity
8
SK1
62
256
6
ByLayer
370
18
48
1
60
0
100
AcDbSpline
70
4
71
2
72
6
73
3
40
0
40
0
40
0
40
1
40
1
40
1
41
1
10
-0.194913899692032
20
21.870410026113
30
0
41
1
10
-0.99494544422549
20
21.8503107053505
30
0
41
1
10
-1.79497698875896
20
21.8302113845853
30
0
0
SPLINE
5
173
100
AcDbEntity
8
SK1
62
256
6
ByLayer
370
18
48
1
60
0
100
AcDbSpline
70
4
71
2
72
6
73
3
40
0
40
0
40
0
40
1
40
1
40
1
41
1
10
-1.79497698875896
20
-21.8302113845853
30
0
41
1
10
-0.994945444225489
20
-21.8503107053505
30
0
41
1
10
-0.194913899692032
20
-21.870410026113
30
0
0
SPLINE
5
174
100
AcDbEntity
8
SK1
62
256
6
ByLayer
370
18
48
1
60
0
100
AcDbSpline
70
4
71
3
72
18
73
14
40
0
40
0
40
0
40
0
40
0.0672382563210254
40
0.0811096257878865
40
0.0934387461544267
40
0.104680222532266
40
0.116011636981808
40
0.129170963687287
40
0.145842091133619
40
0.194578127710849
40
0.367894501512564
40
0.735617522913832
40
1
40
1
40
1
40
1
41
1
10
-0.394976888875277
20
-21.8653849865467
30
0
41
1
10
-0.385367724925317
20
-21.8650589764544
30
0
41
1
10
-0.370769899633302
20
-21.8668245623102
30
0
41
1
10
-0.350602834672031
20
-21.8713724905555
30
0
41
1
10
-0.341354641125889
20
-21.8739511590898
30
0
41
1
10
-0.331761818972836
20
-21.8771456376099
30
0
41
1
10
-0.322000393797509
20
-21.8809836517657
30
0
41
1
10
-0.312675854503226
20
-21.8852359586888
30
0
41
1
10
-0.299158508391599
20
-21.8922659040288
30
0
41
1
10
-0.274228940510625
20
-21.9083875411196
30
0
41
1
10
-0.246614388206893
20
-21.9342372497572
30
0
41
1
10
-0.224717915265444
20
-21.9626598520362
30
0
41
1
10
-0.216050180133493
20
-21.9783575508406
30
0
41
1
10
-0.21429979634263
20
-21.9837864939943
30
0
0
SPLINE
5
175
100
AcDbEntity
8
SK1
62
256
6
ByLayer
370
18
48
1
60
0
100
AcDbSpline
70
4
71
3
72
21
73
17
40
0
40
0
40
0
40
0
40
0.228918380244801
40
0.519567862882073
40
0.686499133489933
40
0.728866425682466
40
0.742084405934057
40
0.747218466939123
40
0.751689069022936
40
0.755838002852288
40
0.76003650204852
40
0.764600703992212
40
0.769743599359548
40
0.797552158202585
40
0.886046400205756
40
1
40
1
40
1
40
1
41
1
10
-0.207411331258982
20
22.0044787047945
30
0
41
1
10
-0.208318189389644
20
22.001289229706
30
0
41
1
10
-0.213303269205824
20
21.990122066637
30
0
41
1
10
-0.226159555477864
20
21.9654154799143
30
0
41
1
10
-0.24402672496683
20
21.9377710152598
30
0
41
1
10
-0.265879117946639
20
21.9152361581685
30
0
41
1
10
-0.277404558589154
20
21.9056658887584
30
0
41
1
10
-0.283401057762092
20
21.9011770953514
30
0
41
1
10
-0.287668636036187
20
21.8981716907254
30
0
41
1
10
-0.29205958238208
20
21.8952686846974
30
0
41
1
10
-0.296473357627633
20
21.8925343095178
30
0
41
1
10
-0.300857602501282
20
21.8899891408788
30
0
41
1
10
-0.311373677740903
20
21.8842840996069
30
0
41
1
10
-0.335101334244371
20
21.874157081924
30
0
41
1
10
-0.362447610698183
20
21.8680409475184
30
0
41
1
10
-0.385119537986839
20
21.8648047289598
30
0
41
1
10
-0.394976888875306
20
21.865385003355
30
0
0
SPLINE
5
176
100
AcDbEntity
8
1
62
256
6
ByLayer
370
18
48
1
60
0
100
AcDbSpline
70
2053
71
3
72
121
73
117
40
0
40
0
40
0
40
0
40
0.0312499999999994
40
0.0312499999999994
40
0.0624999999999987
40
0.0624999999999987
40
0.0937499999999981
40
0.0937499999999981
40
0.124999999999998
40
0.124999999999998
40
0.156249999999997
40
0.156249999999997
40
0.171874999999996
40
0.171874999999996
40
0.187499999999996
40
0.187499999999996
40
0.218749999999995
40
0.218749999999995
40
0.226562499999995
40
0.226562499999995
40
0.234374999999994
40
0.234374999999994
40
0.249999999999993
40
0.249999999999993
40
0.265624999999992
40
0.265624999999992
40
0.273437499999991
40
0.273437499999991
40
0.281249999999991
40
0.281249999999991
40
0.31249999999999
40
0.31249999999999
40
0.32812499999999
40
0.32812499999999
40
0.34374999999999
40
0.34374999999999
40
0.359374999999991
40
0.359374999999991
40
0.367187499999991
40
0.367187499999991
40
0.374999999999991
40
0.374999999999991
40
0.406249999999992
40
0.406249999999992
40
0.414062499999992
40
0.414062499999992
40
0.421874999999992
40
0.421874999999992
40
0.437499999999992
40
0.437499999999992
40
0.468749999999993
40
0.468749999999993
40
0.484374999999993
40
0.484374999999993
40
0.499999999999993
40
0.499999999999993
40
0.531249999999993
40
0.531249999999993
40
0.546874999999993
40
0.546874999999993
40
0.562499999999993
40
0.562499999999993
40
0.593749999999994
40
0.593749999999994
40
0.601562499999994
40
0.601562499999994
40
0.609374999999993
40
0.609374999999993
40
0.624999999999994
40
0.624999999999994
40
0.656249999999994
40
0.656249999999994
40
0.687499999999995
40
0.687499999999995
40
0.703124999999995
40
0.703124999999995
40
0.710937499999995
40
0.710937499999995
40
0.718749999999995
40
0.718749999999995
40
0.749999999999996
40
0.749999999999996
40
0.757812499999997
40
0.757812499999997
40
0.765624999999998
40
0.765624999999998
40
0.781249999999999
40
0.796875
40
0.796875
40
0.8046875
40
0.8046875
40
0.8125
40
0.8125
40
0.843750000000002
40
0.843750000000002
40
0.851562500000002
40
0.851562500000002
40
0.859375000000003
40
0.859375000000003
40
0.875000000000002
40
0.875000000000002
40
0.906250000000001
40
0.906250000000001
40
0.9375
40
0.9375
40
0.953125
40
0.953125
40
0.9609375
40
0.9609375
40
0.96875
40
0.96875
40
0.984375
40
0.984375
40
0.9921875
40
0.9921875
40
1
40
1
40
1
40
1
41
1
10
46
20
12.98366
30
0
41
1
10
46
20
13.2522169228184
30
0
41
1
10
46.0252142432478
20
13.5150712969292
30
0
41
1
10
46.1225401745456
20
14.0302201015803
30
0
41
1
10
46.1946572859134
20
14.2825118312746
30
0
41
1
10
46.3875673170379
20
14.7765443738196
30
0
41
1
10
46.505631644186
20
15.0113098017361
30
0
41
1
10
46.7841699246136
20
15.4574586965492
30
0
41
1
10
46.9446132319452
20
15.6688742601792
30
0
41
1
10
47.3124839402965
20
16.0669953220961
30
0
41
1
10
47.5139674166367
20
16.24722275523
30
0
41
1
10
47.8432704867204
20
16.4891852229226
30
0
41
1
10
47.9575931049507
20
16.5650848451727
30
0
41
1
10
48.1959562853306
20
16.7069163318038
30
0
41
1
10
48.3201445669977
20
16.7729231091602
30
0
41
1
10
48.7078629664248
20
16.9542696484796
30
0
41
1
10
48.9772915962179
20
17.0489063780016
30
0
41
1
10
49.3285562829687
20
17.1331974622993
30
0
41
1
10
49.3995400504787
20
17.1483380409453
30
0
41
1
10
49.5430186303931
20
17.175080123717
30
0
41
1
10
49.6157694707198
20
17.18671276993
30
0
41
1
10
49.8343111062011
20
17.2158351556289
30
0
41
1
10
49.9799719052099
20
17.2275745277125
30
0
41
1
10
50.2712278407014
20
17.2361034234078
30
0
41
1
10
50.416822973845
20
17.232892110205
30
0
41
1
10
50.6351661863401
20
17.2167998354709
30
0
41
1
10
50.7079389948685
20
17.2095528532236
30
0
41
1
10
50.8534678683437
20
17.1912371011146
30
0
41
1
10
50.9264348084643
20
17.1801218652461
30
0
41
1
10
51.2866468990127
20
17.1156768189201
30
0
41
1
10
51.5628136730124
20
17.0358934310848
30
0
41
1
10
51.9606090993235
20
16.8768220039916
30
0
41
1
10
52.090946831322
20
16.8168435766885
30
0
41
1
10
52.3409655772044
20
16.6863947357453
30
0
41
1
10
52.4612458766723
20
16.61574759442
30
0
41
1
10
52.6929492015014
20
16.4641294826307
30
0
41
1
10
52.8043702344929
20
16.3831564726178
30
0
41
1
10
52.9650730490905
20
16.2540727000508
30
0
41
1
10
53.0176629052051
20
16.2096853564412
30
0
41
1
10
53.1202473109796
20
16.1187641340063
30
0
41
1
10
53.170117846363
20
16.0723499344869
30
0
41
1
10
53.412628446134
20
15.835638485274
30
0
41
1
10
53.5849608129839
20
15.6315585233785
30
0
41
1
10
53.7751356681979
20
15.3586011380473
30
0
41
1
10
53.8118954929885
20
15.3031084025621
30
0
41
1
10
53.8828606221563
20
15.1903009076026
30
0
41
1
10
53.9170998340229
20
15.132913251711
30
0
41
1
10
54.0151464668825
20
14.9594674333408
30
0
41
1
10
54.0745876776298
20
14.8416936817622
30
0
41
1
10
54.2357782846665
20
14.4820296911124
30
0
41
1
10
54.3205510073596
20
14.2338457943879
30
0
41
1
10
54.4131972559072
20
13.848386034307
30
0
41
1
10
54.4383141638817
20
13.7171989642389
30
0
41
1
10
54.4758730287336
20
13.4548840363669
30
0
41
1
10
54.4884661561245
20
13.3233146879269
30
0
41
1
10
54.5078368094546
20
12.9273718251531
30
0
41
1
10
54.4963757337331
20
12.6617636365942
30
0
41
1
10
54.4402623854596
20
12.2608825956735
30
0
41
1
10
54.4148334618669
20
12.1262280001749
30
0
41
1
10
54.3514322283491
20
11.8614830640096
30
0
41
1
10
54.3134528337754
20
11.7309094284398
30
0
41
1
10
54.1806971507097
20
11.3446811664431
30
0
41
1
10
54.0672843494347
20
11.0944558287924
30
0
41
1
10
53.8919371663369
20
10.7919290769022
30
0
41
1
10
53.8550932791979
20
10.7318178563974
30
0
41
1
10
53.7782614685987
20
10.6132461963309
30
0
41
1
10
53.738452928993
20
10.5550483302497
30
0
41
1
10
53.6148979573805
20
10.38369929695
30
0
41
1
10
53.5270314336862
20
10.2737852910435
30
0
41
1
10
53.2469897392573
20
9.95711472110114
30
0
41
1
10
53.0385492705892
20
9.76328402595624
30
0
41
1
10
52.5745944131116
20
9.41391361359769
30
0
41
1
10
52.3276606553422
20
9.26487720654572
30
0
41
1
10
51.9357505532265
20
9.07960763249662
30
0
41
1
10
51.801481595377
20
9.02426287337218
30
0
41
1
10
51.5944411388431
20
8.95124965245702
30
0
41
1
10
51.524261273603
20
8.92852018504482
30
0
41
1
10
51.3833012431233
20
8.88688944203923
30
0
41
1
10
51.3125303358256
20
8.8679742852942
30
0
41
1
10
50.9572481478066
20
8.7827393954239
30
0
41
1
10
50.6685005883938
20
8.74414807478061
30
0
41
1
10
50.3018659951866
20
8.73334337353515
30
0
41
1
10
50.2282511303243
20
8.73307270186635
30
0
41
1
10
50.0804320030469
20
8.73640063815304
30
0
41
1
10
50.0067809915791
20
8.73999029603235
30
0
41
1
10
49.7871824247086
20
8.75638591748907
30
0
41
1
10
49.497464466698
20
8.79322856494849
30
0
41
1
10
49.2137724997614
20
8.85933490411165
30
0
41
1
10
49.003287534551
20
8.91997457163569
30
0
41
1
10
48.9335073128489
20
8.94203468267943
30
0
41
1
10
48.7947233588176
20
8.98990761676973
30
0
41
1
10
48.7257276733952
20
9.0157338366553
30
0
41
1
10
48.3868235624385
20
9.15265749712222
30
0
41
1
10
48.1315776399609
20
9.28799699885616
30
0
41
1
10
47.8317352697795
20
9.48799241866911
30
0
41
1
10
47.7727369950055
20
9.52954744394222
30
0
41
1
10
47.6567024342067
20
9.6157922352146
30
0
41
1
10
47.5995116989517
20
9.6606157295252
30
0
41
1
10
47.4325185505907
20
9.79851571561485
30
0
41
1
10
47.327049333875
20
9.89512642670886
30
0
41
1
10
47.0274763462817
20
10.1982404228061
30
0
41
1
10
46.8500494725373
20
10.4179277372667
30
0
41
1
10
46.5397822456468
20
10.8915486624975
30
0
41
1
10
46.4118702719061
20
11.1379187819159
30
0
41
1
10
46.2575821154363
20
11.5201113849997
30
0
41
1
10
46.2124634981063
20
11.6496338024304
30
0
41
1
10
46.1542332914531
20
11.8470414209945
30
0
41
1
10
46.1363691698228
20
11.9135072595279
30
0
41
1
10
46.1040398971352
20
12.0465365714285
30
0
41
1
10
46.0895549149402
20
12.1131381735215
30
0
41
1
10
46.0510225905988
20
12.3131863315876
30
0
41
1
10
46.0318872167293
20
12.4468750753273
30
0
41
1
10
46.0127535702217
20
12.6478459587982
30
0
41
1
10
46.007973314834
20
12.7149095141104
30
0
41
1
10
46.0015965341102
20
12.8491787286555
30
0
41
1
10
46
20
12.9165207692954
30
0
41
1
10
46
20
12.98366
30
0
0
SPLINE
5
177
100
AcDbEntity
8
1
62
256
6
ByLayer
370
18
48
1
60
0
100
AcDbSpline
70
4
71
3
72
20
73
16
40
0
40
0
40
0
40
0
40
0.124999999999994
40
0.124999999999994
40
0.249999999999989
40
0.249999999999989
40
0.499999999999977
40
0.499999999999977
40
0.624999999999975
40
0.624999999999975
40
0.687499999999978
40
0.687499999999978
40
0.749999999999981
40
0.749999999999981
40
1
40
1
40
1
40
1
41
1
10
50.3790372862344
20
15.322702139159
30
0
41
1
10
50.4587035370345
20
15.2706541255687
30
0
41
1
10
50.5390887862631
20
15.2181363717859
30
0
41
1
10
50.7016743319556
20
15.1119150471118
30
0
41
1
10
50.783674002788
20
15.058342550113
30
0
41
1
10
51.0295718406281
20
14.8976911591262
30
0
41
1
10
51.1942647541586
20
14.7900930367647
30
0
41
1
10
51.4426331236219
20
14.6278275838356
30
0
41
1
10
51.5256414041745
20
14.5735961361281
30
0
41
1
10
51.6504767627044
20
14.492037981049
30
0
41
1
10
51.6921892134304
20
14.4647861626131
30
0
41
1
10
51.7749939367705
20
14.4106877040755
30
0
41
1
10
51.8161739970791
20
14.383783710012
30
0
41
1
10
52.0210519407331
20
14.2499316724354
30
0
41
1
10
52.1816969108847
20
14.1449781757452
30
0
41
1
10
52.340188556151
20
14.0414315016651
30
0
0
SPLINE
5
178
100
AcDbEntity
8
1
62
256
6
ByLayer
370
18
48
1
60
0
100
AcDbSpline
70
4
71
3
72
18
73
14
40
0
40
0
40
0
40
0
40
0.25000000000001
40
0.25000000000001
40
0.375000000000011
40
0.375000000000011
40
0.437500000000012
40
0.437500000000012
40
0.500000000000013
40
0.500000000000013
40
0.750000000000006
40
0.750000000000006
40
1
40
1
40
1
40
1
41
1
10
50.1209627137656
20
10.6446178608411
30
0
41
1
10
50.291818884305
20
10.7310822075855
30
0
41
1
10
50.4641032136628
20
10.8182692956794
30
0
41
1
10
50.7256433819059
20
10.9506256497003
30
0
41
1
10
50.8133439047087
20
10.9950078244227
30
0
41
1
10
50.9457827325813
20
11.0620304944231
30
0
41
1
10
50.9900767567531
20
11.0844461546396
30
0
41
1
10
51.0789736686675
20
11.1294337801494
30
0
41
1
10
51.1236251065816
20
11.1520303149907
30
0
41
1
10
51.3457570461032
20
11.2644435394072
30
0
41
1
10
51.5212576074106
20
11.3532582502767
30
0
41
1
10
51.8686195829748
20
11.5290460266629
30
0
41
1
10
52.0405076555085
20
11.6160325830036
30
0
41
1
10
52.2111512699167
20
11.702389362506
30
0
0
SPLINE
5
179
100
AcDbEntity
8
1
62
256
6
ByLayer
370
18
48
1
60
0
100
AcDbSpline
70
4
71
3
72
18
73
14
40
0
40
0
40
0
40
0
40
0.249999999999997
40
0.249999999999997
40
0.375
40
0.375
40
0.437500000000002
40
0.437500000000002
40
0.500000000000004
40
0.500000000000004
40
0.750000000000002
40
0.750000000000002
40
1
40
1
40
1
40
1
41
1
10
48.2888487300831
20
14.2649306374938
30
0
41
1
10
48.4597049006225
20
14.3513949842383
30
0
41
1
10
48.6319892299803
20
14.4385820723322
30
0
41
1
10
48.8935293982235
20
14.5709384263531
30
0
41
1
10
48.9812299210263
20
14.6153206010755
30
0
41
1
10
49.1136687488989
20
14.6823432710759
30
0
41
1
10
49.1579627730708
20
14.7047589312924
30
0
41
1
10
49.246859684985
20
14.7497465568022
30
0
41
1
10
49.2915111228992
20
14.7723430916435
30
0
41
1
10
49.5136430624209
20
14.8847563160601
30
0
41
1
10
49.6891436237283
20
14.9735710269295
30
0
41
1
10
50.0365055992925
20
15.1493588033158
30
0
41
1
10
50.2083936718263
20
15.2363453596565
30
0
41
1
10
50.3790372862345
20
15.3227021391589
30
0
0
SPLINE
5
17A
100
AcDbEntity
8
1
62
256
6
ByLayer
370
18
48
1
60
0
100
AcDbSpline
70
4
71
3
72
18
73
14
40
0
40
0
40
0
40
0
40
0.249999999999999
40
0.249999999999999
40
0.374999999999999
40
0.374999999999999
40
0.437499999999999
40
0.437499999999999
40
0.5
40
0.5
40
0.75
40
0.75
40
1
40
1
40
1
40
1
41
1
10
48.2888487300833
20
14.2649306374938
30
0
41
1
10
48.2783009656159
20
14.0737326800411
30
0
41
1
10
48.2676650341083
20
13.8809365300963
30
0
41
1
10
48.2515189149211
20
13.5882579232773
30
0
41
1
10
48.2461047443045
20
13.4901159552436
30
0
41
1
10
48.237928665218
20
13.3419092308584
30
0
41
1
10
48.2351941843221
20
13.2923416505814
30
0
41
1
10
48.2297061549124
20
13.1928608537907
30
0
41
1
10
48.2269496091654
20
13.1428933068209
30
0
41
1
10
48.2132363474706
20
12.8943147919949
30
0
41
1
10
48.2024018626597
20
12.6979194920895
30
0
41
1
10
48.1809575549028
20
12.3092013087491
30
0
41
1
10
48.1703460862147
20
12.116848593157
30
0
41
1
10
48.1598114438488
20
11.9258884983346
30
0
0
SPLINE
5
17B
100
AcDbEntity
8
1
62
256
6
ByLayer
370
18
48
1
60
0
100
AcDbSpline
70
4
71
3
72
20
73
16
40
0
40
0
40
0
40
0
40
0.124999999999999
40
0.124999999999999
40
0.249999999999997
40
0.249999999999997
40
0.499999999999997
40
0.499999999999997
40
0.624999999999996
40
0.624999999999996
40
0.687499999999995
40
0.687499999999995
40
0.749999999999994
40
0.749999999999994
40
1
40
1
40
1
40
1
41
1
10
48.159811443849
20
11.9258884983349
30
0
41
1
10
48.2394776946492
20
11.8738404847445
30
0
41
1
10
48.3198629438782
20
11.8213227309615
30
0
41
1
10
48.4824484895714
20
11.7151014062869
30
0
41
1
10
48.5644481604033
20
11.6615289092885
30
0
41
1
10
48.8103459982417
20
11.5008775183027
30
0
41
1
10
48.9750389117703
20
11.3932793959424
30
0
41
1
10
49.2234072812296
20
11.2310139430159
30
0
41
1
10
49.3064155617807
20
11.1767824953094
30
0
41
1
10
49.431250920308
20
11.0952243402321
30
0
41
1
10
49.4729633710345
20
11.0679725217958
30
0
41
1
10
49.5557680943768
20
11.0138740632568
30
0
41
1
10
49.5969481546863
20
10.9869700691926
30
0
41
1
10
49.8018260983448
20
10.8531180316132
30
0
41
1
10
49.9624710684983
20
10.7481645349217
30
0
41
1
10
50.1209627137656
20
10.644617860841
30
0
0
SPLINE
5
17C
100
AcDbEntity
8
1
62
256
6
ByLayer
370
18
48
1
60
0
100
AcDbSpline
70
4
71
3
72
18
73
14
40
0
40
0
40
0
40
0
40
0.250000000000004
40
0.250000000000004
40
0.375000000000004
40
0.375000000000004
40
0.437500000000004
40
0.437500000000004
40
0.500000000000004
40
0.500000000000004
40
0.750000000000002
40
0.750000000000002
40
1
40
1
40
1
40
1
41
1
10
52.3401885561512
20
14.0414315016653
30
0
41
1
10
52.3296407916837
20
13.8502335442125
30
0
41
1
10
52.3190048601762
20
13.6574373942677
30
0
41
1
10
52.302858740989
20
13.3647587874486
30
0
41
1
10
52.2974445703724
20
13.2666168194149
30
0
41
1
10
52.2892684912859
20
13.1184100950297
30
0
41
1
10
52.28653401039
20
13.0688425147526
30
0
41
1
10
52.2810459809803
20
12.969361717962
30
0
41
1
10
52.2782894352333
20
12.9193941709922
30
0
41
1
10
52.2645761735385
20
12.6708156561661
30
0
41
1
10
52.2537416887275
20
12.4744203562607
30
0
41
1
10
52.2322973809707
20
12.0857021729202
30
0
41
1
10
52.2216859122826
20
11.8933494573281
30
0
41
1
10
52.2111512699167
20
11.7023893625057
30
0
0
SPLINE
5
17D
100
AcDbEntity
8
1
62
256
6
ByLayer
370
18
48
1
60
0
100
AcDbSpline
70
4
71
3
72
8
73
4
40
0
40
0
40
0
40
0
40
1
40
1
40
1
40
1
41
1
10
55.7779471889309
20
-28.6203312887908
30
0
41
1
10
55.7785820307745
20
-28.610220867041
30
0
41
1
10
55.779216872614
20
-28.6001104452256
30
0
41
1
10
55.7798517144494
20
-28.5900000233449
30
0
0
SPLINE
5
17E
100
AcDbEntity
8
1
62
256
6
ByLayer
370
18
48
1
60
0
100
AcDbSpline
70
4
71
3
72
8
73
4
40
0
40
0
40
0
40
0
40
1
40
1
40
1
40
1
41
1
10
55.7030951842988
20
-28.6203312887908
30
0
41
1
10
55.7037300261424
20
-28.610220867041
30
0
41
1
10
55.7043648679819
20
-28.6001104452256
30
0
41
1
10
55.7049997098173
20
-28.5900000233449
30
0
0
SPLINE
5
17F
100
AcDbEntity
8
1
62
256
6
ByLayer
370
18
48
1
60
0
100
AcDbSpline
70
4
71
3
72
8
73
4
40
0
40
0
40
0
40
0
40
1
40
1
40
1
40
1
41
1
10
59.9875051607598
20
-28.6203312887908
30
0
41
1
10
59.9918100964486
20
-28.6102206187522
30
0
41
1
10
59.9961150321094
20
-28.6001099486478
30
0
41
1
10
60.0004199677425
20
-28.5899992784782
30
0
0
SPLINE
5
180
100
AcDbEntity
8
1
62
256
6
ByLayer
370
18
48
1
60
0
100
AcDbSpline
70
4
71
3
72
8
73
4
40
0
40
0
40
0
40
0
40
1
40
1
40
1
40
1
41
1
10
60.2535527418942
20
-29.05958049925
30
0
41
1
10
60.2324468174093
20
-29.0596002238944
30
0
41
1
10
60.2113386055275
20
-29.0596002238944
30
0
41
1
10
60.1902281474815
20
-29.05958049925
30
0
0
SPLINE
5
181
100
AcDbEntity
8
1
62
256
6
ByLayer
370
18
48
1
60
0
100
AcDbSpline
70
4
71
3
72
8
73
4
40
0
40
0
40
0
40
0
40
1
40
1
40
1
40
1
41
1
10
61.3509457975228
20
-28.6203312887908
30
0
41
1
10
61.3563633970579
20
-28.6102206108654
30
0
41
1
10
61.3617809965578
20
-28.6001099328744
30
0
41
1
10
61.3671985960228
20
-28.5899992548181
30
0
0
SPLINE
5
182
100
AcDbEntity
8
1
62
256
6
ByLayer
370
18
48
1
60
0
100
AcDbSpline
70
4
71
3
72
8
73
4
40
0
40
0
40
0
40
0
40
1
40
1
40
1
40
1
41
1
10
61.2876212031102
20
-28.6203312887908
30
0
41
1
10
61.2930388026453
20
-28.6102206108654
30
0
41
1
10
61.2984564021452
20
-28.6001099328744
30
0
41
1
10
61.3038740016101
20
-28.5899992548181
30
0
0
SPLINE
5
183
100
AcDbEntity
8
1
62
256
6
ByLayer
370
18
48
1
60
0
100
AcDbSpline
70
4
71
3
72
8
73
4
40
0
40
0
40
0
40
0
40
1
40
1
40
1
40
1
41
1
10
61.2408983353768
20
-29.05958049925
30
0
41
1
10
61.2216382071596
20
-29.0596002238944
30
0
41
1
10
61.2023753635475
20
-29.0596002238944
30
0
41
1
10
61.1831098421686
20
-29.05958049925
30
0
0
SPLINE
5
184
100
AcDbEntity
8
1
62
256
6
ByLayer
370
18
48
1
60
0
100
AcDbSpline
70
4
71
3
72
8
73
4
40
0
40
0
40
0
40
0
40
1
40
1
40
1
40
1
41
1
10
62.5463661962529
20
-28.6203312887908
30
0
41
1
10
62.5528109854475
20
-28.6102206611421
30
0
41
1
10
62.5592557746003
20
-28.6001100334278
30
0
41
1
10
62.5657005637115
20
-28.5899994056482
30
0
0
SPLINE
5
185
100
AcDbEntity
8
1
62
256
6
ByLayer
370
18
48
1
60
0
100
AcDbSpline
70
4
71
3
72
8
73
4
40
0
40
0
40
0
40
0
40
1
40
1
40
1
40
1
41
1
10
62.4885777030447
20
-28.6203312887908
30
0
41
1
10
62.4950224922394
20
-28.6102206611421
30
0
41
1
10
62.5014672813921
20
-28.6001100334278
30
0
41
1
10
62.5079120705033
20
-28.5899994056482
30
0
0
SPLINE
5
186
100
AcDbEntity
8
1
62
256
6
ByLayer
370
18
48
1
60
0
100
AcDbSpline
70
4
71
3
72
8
73
4
40
0
40
0
40
0
40
0
40
1
40
1
40
1
40
1
41
1
10
63.6227758920874
20
-28.6203312887908
30
0
41
1
10
63.6301461347493
20
-28.6102208325567
30
0
41
1
10
63.6375163773633
20
-28.600110376257
30
0
41
1
10
63.6448866199298
20
-28.589999919892
30
0
0
SPLINE
5
187
100
AcDbEntity
8
1
62
256
6
ByLayer
370
18
48
1
60
0
100
AcDbSpline
70
4
71
3
72
8
73
4
40
0
40
0
40
0
40
0
40
1
40
1
40
1
40
1
41
1
10
63.5714348591427
20
-28.6203312887908
30
0
41
1
10
63.5788051018046
20
-28.6102208325567
30
0
41
1
10
63.5861753444187
20
-28.6001103762569
30
0
41
1
10
63.5935455869852
20
-28.589999919892
30
0
0
SPLINE
5
188
100
AcDbEntity
8
1
62
256
6
ByLayer
370
18
48
1
60
0
100
AcDbSpline
70
4
71
3
72
8
73
4
40
0
40
0
40
0
40
0
40
1
40
1
40
1
40
1
41
1
10
63.5580968362837
20
-29.05958049925
30
0
41
1
10
63.5460567055109
20
-29.0596002238944
30
0
41
1
10
63.5340128558162
20
-29.0596002238944
30
0
41
1
10
63.5219653107261
20
-29.05958049925
30
0
0
SPLINE
5
189
100
AcDbEntity
8
1
62
256
6
ByLayer
370
18
48
1
60
0
100
AcDbSpline
70
4
71
3
72
8
73
4
40
0
40
0
40
0
40
0
40
1
40
1
40
1
40
1
41
1
10
64.6639360767684
20
-29.05958049925
30
0
41
1
10
65.3412319587993
20
-28.9131642757223
30
0
41
1
10
66.0185277958886
20
-28.766747840985
30
0
41
1
10
66.6958236079851
20
-28.6203312887908
30
0
0
SPLINE
5
18A
100
AcDbEntity
8
1
62
256
6
ByLayer
370
18
48
1
60
0
100
AcDbSpline
70
4
71
3
72
8
73
4
40
0
40
0
40
0
40
0
40
1
40
1
40
1
40
1
41
1
10
65.3528052650006
20
-28.6203312887908
30
0
41
1
10
65.3616652673609
20
-28.6102207215971
30
0
41
1
10
65.3705252696637
20
-28.6001101543377
30
0
41
1
10
65.3793852719093
20
-28.5899995870131
30
0
0
SPLINE
5
18B
100
AcDbEntity
8
1
62
256
6
ByLayer
370
18
48
1
60
0
100
AcDbSpline
70
4
71
3
72
8
73
4
40
0
40
0
40
0
40
0
40
1
40
1
40
1
40
1
41
1
10
60.0553671896947
20
-28.6203312887908
30
0
41
1
10
60.0596721253836
20
-28.6102206187522
30
0
41
1
10
60.0639770610444
20
-28.6001099486478
30
0
41
1
10
60.0682819966774
20
-28.5899992784782
30
0
0
SPLINE
5
18C
100
AcDbEntity
8
1
62
256
6
ByLayer
370
18
48
1
60
0
100
AcDbSpline
70
4
71
3
72
8
73
4
40
0
40
0
40
0
40
0
40
1
40
1
40
1
40
1
41
1
10
65.316673739443
20
-28.6203312887908
30
0
41
1
10
65.3255337418034
20
-28.6102207215971
30
0
41
1
10
65.3343937441061
20
-28.6001101543377
30
0
41
1
10
65.3432537463517
20
-28.5899995870131
30
0
0
SPLINE
5
18D
100
AcDbEntity
8
1
62
256
6
ByLayer
370
18
48
1
60
0
100
AcDbSpline
70
4
71
3
72
8
73
4
40
0
40
0
40
0
40
0
40
1
40
1
40
1
40
1
41
1
10
64.0749247805283
20
-29.05958049925
30
0
41
1
10
64.0657256030666
20
-29.0596002238944
30
0
41
1
10
64.0565224832571
20
-29.0596002238944
30
0
41
1
10
64.047315439077
20
-29.05958049925
30
0
0
SPLINE
5
18E
100
AcDbEntity
8
1
62
256
6
ByLayer
370
18
48
1
60
0
100
AcDbSpline
70
4
71
3
72
8
73
4
40
0
40
0
40
0
40
0
40
1
40
1
40
1
40
1
41
1
10
65.9791413453991
20
-28.6203312887908
30
0
41
1
10
65.9885419925576
20
-28.61022068718
30
0
41
1
10
65.997942639655
20
-28.6001100855034
30
0
41
1
10
66.0073432866918
20
-28.5899994837617
30
0
0
SPLINE
5
18F
100
AcDbEntity
8
1
62
256
6
ByLayer
370
18
48
1
60
0
100
AcDbSpline
70
4
71
3
72
8
73
4
40
0
40
0
40
0
40
0
40
1
40
1
40
1
40
1
41
1
10
65.9515320039477
20
-28.6203312887908
30
0
41
1
10
65.9609326511062
20
-28.61022068718
30
0
41
1
10
65.9703332982037
20
-28.6001100855034
30
0
41
1
10
65.9797339452405
20
-28.5899994837617
30
0
0
SPLINE
5
190
100
AcDbEntity
8
1
62
256
6
ByLayer
370
18
48
1
60
0
100
AcDbSpline
70
4
71
3
72
8
73
4
40
0
40
0
40
0
40
0
40
1
40
1
40
1
40
1
41
1
10
64.4486357398867
20
-29.05958049925
30
0
41
1
10
64.44242259226
20
-29.0596002238944
30
0
41
1
10
64.4362053410327
20
-29.0596002238944
30
0
41
1
10
64.4299839983494
20
-29.05958049925
30
0
0
SPLINE
5
191
100
AcDbEntity
8
1
62
256
6
ByLayer
370
18
48
1
60
0
100
AcDbSpline
70
4
71
3
72
8
73
4
40
0
40
0
40
0
40
0
40
1
40
1
40
1
40
1
41
1
10
66.4323298081595
20
-28.6203312887908
30
0
41
1
10
66.4421227450051
20
-28.6102207606163
30
0
41
1
10
66.4519156817871
20
-28.6001102323761
30
0
41
1
10
66.4617086185059
20
-28.5899997040707
30
0
0
SPLINE
5
192
100
AcDbEntity
8
1
62
256
6
ByLayer
370
18
48
1
60
0
100
AcDbSpline
70
4
71
3
72
8
73
4
40
0
40
0
40
0
40
0
40
1
40
1
40
1
40
1
41
1
10
64.6733360692857
20
-29.05958049925
30
0
41
1
10
64.6702069365437
20
-29.0596002238944
30
0
41
1
10
64.6670736036644
20
-29.0596002238944
30
0
41
1
10
64.6639360767684
20
-29.05958049925
30
0
0
SPLINE
5
193
100
AcDbEntity
8
1
62
256
6
ByLayer
370
18
48
1
60
0
100
AcDbSpline
70
4
71
3
72
8
73
4
40
0
40
0
40
0
40
0
40
1
40
1
40
1
40
1
41
1
10
66.7052236005025
20
-28.6203312887908
30
0
41
1
10
66.7152545349583
20
-28.6102206798725
30
0
41
1
10
66.725285469349
20
-28.6001100708885
30
0
41
1
10
66.735316403675
20
-28.5899994618393
30
0
0
SPLINE
5
194
100
AcDbEntity
8
1
62
256
6
ByLayer
370
18
48
1
60
0
100
AcDbSpline
70
4
71
3
72
8
73
4
40
0
40
0
40
0
40
0
40
1
40
1
40
1
40
1
41
1
10
66.6958236079851
20
-28.6203312887908
30
0
41
1
10
66.705854542441
20
-28.6102206798725
30
0
41
1
10
66.7158854768317
20
-28.6001100708885
30
0
41
1
10
66.7259164111578
20
-28.5899994618393
30
0
0
SPLINE
5
195
100
AcDbEntity
8
1
62
256
6
ByLayer
370
18
48
1
60
0
100
AcDbSpline
70
4
71
3
72
8
73
4
40
0
40
0
40
0
40
0
40
1
40
1
40
1
40
1
41
1
10
57.2467208702681
20
-28.6203312887908
30
0
41
1
10
57.2486154349897
20
-28.6102205947321
30
0
41
1
10
57.2505099996989
20
-28.6001099006077
30
0
41
1
10
57.252404564396
20
-28.5899992064181
30
0
0
SPLINE
5
196
100
AcDbEntity
8
1
62
256
6
ByLayer
370
18
48
1
60
0
100
AcDbSpline
70
4
71
3
72
8
73
4
40
0
40
0
40
0
40
0
40
1
40
1
40
1
40
1
41
1
10
56.8629570210022
20
-29.05958049925
30
0
41
1
10
56.8384006404335
20
-29.0596002238944
30
0
41
1
10
56.8138434431753
20
-29.0596002238944
30
0
41
1
10
56.7892854771976
20
-29.05958049925
30
0
0
SPLINE
5
197
100
AcDbEntity
8
1
62
256
6
ByLayer
370
18
48
1
60
0
100
AcDbSpline
70
4
71
3
72
8
73
4
40
0
40
0
40
0
40
0
40
1
40
1
40
1
40
1
41
1
10
64.4486357398867
20
-29.05958049925
30
0
41
1
10
65.1098671333614
20
-28.9131642757223
30
0
41
1
10
65.7710984829604
20
-28.766747840985
30
0
41
1
10
66.4323298081595
20
-28.6203312887908
30
0
0
SPLINE
5
198
100
AcDbEntity
8
1
62
256
6
ByLayer
370
18
48
1
60
0
100
AcDbSpline
70
4
71
3
72
8
73
4
40
0
40
0
40
0
40
0
40
1
40
1
40
1
40
1
41
1
10
60.2535527418942
20
-29.05958049925
30
0
41
1
10
60.6193504477846
20
-28.9131642757223
30
0
41
1
10
60.9851481294029
20
-28.766747840985
30
0
41
1
10
61.3509457975228
20
-28.6203312887908
30
0
0
SPLINE
5
199
100
AcDbEntity
8
1
62
256
6
ByLayer
370
18
48
1
60
0
100
AcDbSpline
70
4
71
3
72
8
73
4
40
0
40
0
40
0
40
0
40
1
40
1
40
1
40
1
41
1
10
46.3772241079126
20
-28.6203312887908
30
0
41
1
10
46.3698538652507
20
-28.6102208325567
30
0
41
1
10
46.3624836226367
20
-28.6001103762569
30
0
41
1
10
46.3551133800702
20
-28.589999919892
30
0
0
SPLINE
5
19A
100
AcDbEntity
8
1
62
256
6
ByLayer
370
18
48
1
60
0
100
AcDbSpline
70
4
71
3
72
10
73
6
40
0
40
0
40
0
40
0
40
0.876183133825517
40
0.876183133825517
40
1
40
1
40
1
40
1
41
1
10
51.3912668173669
20
-28.6203312887908
30
0
41
1
10
51.6663577265452
20
-28.81125837528
30
0
41
1
10
51.9414486483853
20
-29.0021852707222
30
0
41
1
10
52.2554137769115
20
-29.2200923038531
30
0
41
1
10
52.29428795581
20
-29.2470728608149
30
0
41
1
10
52.3331621353856
20
-29.2740534075614
30
0
0
SPLINE
5
19B
100
AcDbEntity
8
1
62
256
6
ByLayer
370
18
48
1
60
0
100
AcDbSpline
70
4
71
3
72
8
73
4
40
0
40
0
40
0
40
0
40
1
40
1
40
1
40
1
41
1
10
45.480884632815
20
-28.6203312887908
30
0
41
1
10
46.302855887934
20
-28.838239028758
30
0
41
1
10
47.1248271845437
20
-29.0561465296042
30
0
41
1
10
47.9467985892321
20
-29.2740534075614
30
0
0
SPLINE
5
19C
100
AcDbEntity
8
1
62
256
6
ByLayer
370
18
48
1
60
0
100
AcDbSpline
70
4
71
3
72
8
73
4
40
0
40
0
40
0
40
0
40
1
40
1
40
1
40
1
41
1
10
45.436800738893
20
-28.6203312887908
30
0
41
1
10
46.2587719940121
20
-28.838239028758
30
0
41
1
10
47.0807432906217
20
-29.0561465296042
30
0
41
1
10
47.9027146953101
20
-29.2740534075614
30
0
0
SPLINE
5
19D
100
AcDbEntity
8
1
62
256
6
ByLayer
370
18
48
1
60
0
100
AcDbSpline
70
4
71
3
72
8
73
4
40
0
40
0
40
0
40
0
40
1
40
1
40
1
40
1
41
1
10
64.4299839983494
20
-29.05958049925
30
0
41
1
10
65.091215391824
20
-28.9131642757223
30
0
41
1
10
65.7524467414231
20
-28.766747840985
30
0
41
1
10
66.4136780666221
20
-28.6203312887908
30
0
0
SPLINE
5
19E
100
AcDbEntity
8
1
62
256
6
ByLayer
370
18
48
1
60
0
100
AcDbSpline
70
4
71
3
72
8
73
4
40
0
40
0
40
0
40
0
40
1
40
1
40
1
40
1
41
1
10
66.4136780666221
20
-28.6203312887908
30
0
41
1
10
66.4234710034677
20
-28.6102207606163
30
0
41
1
10
66.4332639402497
20
-28.6001102323761
30
0
41
1
10
66.4430568769685
20
-28.5899997040707
30
0
0
SPLINE
5
19F
100
AcDbEntity
8
1
62
256
6
ByLayer
370
18
48
1
60
0
100
AcDbSpline
70
4
71
3
72
8
73
4
40
0
40
0
40
0
40
0
40
1
40
1
40
1
40
1
41
1
10
57.1730493264635
20
-28.6203312887908
30
0
41
1
10
57.1749438911851
20
-28.6102205947321
30
0
41
1
10
57.1768384558943
20
-28.6001099006078
30
0
41
1
10
57.1787330205913
20
-28.5899992064181
30
0
0
SPLINE
5
1A0
100
AcDbEntity
8
1
62
256
6
ByLayer
370
18
48
1
60
0
100
AcDbSpline
70
4
71
3
72
8
73
4
40
0
40
0
40
0
40
0
40
1
40
1
40
1
40
1
41
1
10
43.2064809756962
20
-28.6203312887908
30
0
41
1
10
44.2224933225741
20
-28.838239028758
30
0
41
1
10
45.2385057207374
20
-29.0561465296042
30
0
41
1
10
46.2545182524932
20
-29.2740534075614
30
0
0
SPLINE
5
1A1
100
AcDbEntity
8
1
62
256
6
ByLayer
370
18
48
1
60
0
100
AcDbSpline
70
4
71
3
72
8
73
4
40
0
40
0
40
0
40
0
40
1
40
1
40
1
40
1
41
1
10
60.1902281474815
20
-29.05958049925
30
0
41
1
10
60.556025853372
20
-28.9131642757223
30
0
41
1
10
60.9218235349902
20
-28.766747840985
30
0
41
1
10
61.2876212031102
20
-28.6203312887908
30
0
0
SPLINE
5
1A2
100
AcDbEntity
8
1
62
256
6
ByLayer
370
18
48
1
60
0
100
AcDbSpline
70
4
71
3
72
8
73
4
40
0
40
0
40
0
40
0
40
1
40
1
40
1
40
1
41
1
10
57.6668378646145
20
-29.2740534075614
30
0
41
1
10
57.6906157246636
20
-29.274075387577
30
0
41
1
10
57.7143921567954
20
-29.274075387577
30
0
41
1
10
57.7381671033366
20
-29.2740534075614
30
0
0
SPLINE
5
1A3
100
AcDbEntity
8
1
62
256
6
ByLayer
370
18
48
1
60
0
100
AcDbSpline
70
4
71
3
72
8
73
4
40
0
40
0
40
0
40
0
40
1
40
1
40
1
40
1
41
1
10
45.3266639307143
20
-29.05958049925
30
0
41
1
10
44.6493680486834
20
-28.9131642757223
30
0
41
1
10
43.9720722115941
20
-28.766747840985
30
0
41
1
10
43.2947763994976
20
-28.6203312887908
30
0
0
SPLINE
5
1A4
100
AcDbEntity
8
1
62
256
6
ByLayer
370
18
48
1
60
0
100
AcDbSpline
70
4
71
3
72
8
73
4
40
0
40
0
40
0
40
0
40
1
40
1
40
1
40
1
41
1
10
47.5114222969553
20
-28.6203312887908
30
0
41
1
10
47.5049775077607
20
-28.6102206611421
30
0
41
1
10
47.4985327186079
20
-28.6001100334278
30
0
41
1
10
47.4920879294967
20
-28.5899994056482
30
0
0
SPLINE
5
1A5
100
AcDbEntity
8
1
62
256
6
ByLayer
370
18
48
1
60
0
100
AcDbSpline
70
4
71
3
72
8
73
4
40
0
40
0
40
0
40
0
40
1
40
1
40
1
40
1
41
1
10
63.5580968362837
20
-29.05958049925
30
0
41
1
10
64.1563330130116
20
-28.9131642757223
30
0
41
1
10
64.7545691500438
20
-28.766747840985
30
0
41
1
10
65.3528052650006
20
-28.6203312887908
30
0
0
SPLINE
5
1A6
100
AcDbEntity
8
1
62
256
6
ByLayer
370
18
48
1
60
0
100
AcDbSpline
70
4
71
3
72
8
73
4
40
0
40
0
40
0
40
0
40
1
40
1
40
1
40
1
41
1
10
56.8629570210022
20
-29.05958049925
30
0
41
1
10
56.9908783113231
20
-28.9131642757223
30
0
41
1
10
57.1187995931558
20
-28.766747840985
30
0
41
1
10
57.2467208702681
20
-28.6203312887908
30
0
0
SPLINE
5
1A7
100
AcDbEntity
8
1
62
256
6
ByLayer
370
18
48
1
60
0
100
AcDbSpline
70
4
71
3
72
8
73
4
40
0
40
0
40
0
40
0
40
1
40
1
40
1
40
1
41
1
10
43.2064809756962
20
-28.6203312887908
30
0
41
1
10
43.1963702659783
20
-28.610220630185
30
0
41
1
10
43.186259556326
20
-28.6001099715134
30
0
41
1
10
43.176148846739
20
-28.5899993127766
30
0
0
SPLINE
5
1A8
100
AcDbEntity
8
1
62
256
6
ByLayer
370
18
48
1
60
0
100
AcDbSpline
70
4
71
3
72
8
73
4
40
0
40
0
40
0
40
0
40
1
40
1
40
1
40
1
41
1
10
47.9027146953101
20
-29.2740534075614
30
0
41
1
10
47.9174055068452
20
-29.274075387577
30
0
41
1
10
47.9321001500339
20
-29.274075387577
30
0
41
1
10
47.9467985892321
20
-29.2740534075614
30
0
0
SPLINE
5
1A9
100
AcDbEntity
8
1
62
256
6
ByLayer
370
18
48
1
60
0
100
AcDbSpline
70
4
71
3
72
8
73
4
40
0
40
0
40
0
40
0
40
1
40
1
40
1
40
1
41
1
10
45.3360639232316
20
-29.05958049925
30
0
41
1
10
45.3329263963357
20
-29.0596002238944
30
0
41
1
10
45.3297930634563
20
-29.0596002238944
30
0
41
1
10
45.3266639307143
20
-29.05958049925
30
0
0
SPLINE
5
1AA
100
AcDbEntity
8
1
62
256
6
ByLayer
370
18
48
1
60
0
100
AcDbSpline
70
4
71
3
72
8
73
4
40
0
40
0
40
0
40
0
40
1
40
1
40
1
40
1
41
1
10
45.480884632815
20
-28.6203312887908
30
0
41
1
10
45.4727049808274
20
-28.6102207340135
30
0
41
1
10
45.4645253288931
20
-28.6001101791705
30
0
41
1
10
45.4563456770114
20
-28.5899996242623
30
0
0
SPLINE
5
1AB
100
AcDbEntity
8
1
62
256
6
ByLayer
370
18
48
1
60
0
100
AcDbSpline
70
4
71
3
72
8
73
4
40
0
40
0
40
0
40
0
40
1
40
1
40
1
40
1
41
1
10
43.3041763920149
20
-28.6203312887908
30
0
41
1
10
43.294145457559
20
-28.6102206798725
30
0
41
1
10
43.2841145231683
20
-28.6001100708885
30
0
41
1
10
43.2740835888423
20
-28.5899994618393
30
0
0
SPLINE
5
1AC
100
AcDbEntity
8
1
62
256
6
ByLayer
370
18
48
1
60
0
100
AcDbSpline
70
4
71
3
72
8
73
4
40
0
40
0
40
0
40
0
40
1
40
1
40
1
40
1
41
1
10
45.436800738893
20
-28.6203312887908
30
0
41
1
10
45.4286210869055
20
-28.6102207340135
30
0
41
1
10
45.4204414349711
20
-28.6001101791705
30
0
41
1
10
45.4122617830895
20
-28.5899996242622
30
0
0
SPLINE
5
1AD
100
AcDbEntity
8
1
62
256
6
ByLayer
370
18
48
1
60
0
100
AcDbSpline
70
4
71
3
72
8
73
4
40
0
40
0
40
0
40
0
40
1
40
1
40
1
40
1
41
1
10
43.2947763994976
20
-28.6203312887908
30
0
41
1
10
43.2847454650417
20
-28.6102206798725
30
0
41
1
10
43.2747145306509
20
-28.6001100708885
30
0
41
1
10
43.2646835963249
20
-28.5899994618393
30
0
0
SPLINE
5
1AE
100
AcDbEntity
8
1
62
256
6
ByLayer
370
18
48
1
60
0
100
AcDbSpline
70
4
71
3
72
8
73
4
40
0
40
0
40
0
40
0
40
1
40
1
40
1
40
1
41
1
10
52.2618328966634
20
-29.2740534075614
30
0
41
1
10
52.2856078432046
20
-29.274075387577
30
0
41
1
10
52.3093842753364
20
-29.274075387577
30
0
41
1
10
52.3331621353856
20
-29.2740534075614
30
0
0
SPLINE
5
1AF
100
AcDbEntity
8
1
62
256
6
ByLayer
370
18
48
1
60
0
100
AcDbSpline
70
4
71
3
72
8
73
4
40
0
40
0
40
0
40
0
40
1
40
1
40
1
40
1
41
1
10
45.5700160016506
20
-29.05958049925
30
0
41
1
10
45.5637946589673
20
-29.0596002238944
30
0
41
1
10
45.55757740774
20
-29.0596002238944
30
0
41
1
10
45.5513642601133
20
-29.05958049925
30
0
0
SPLINE
5
1B0
100
AcDbEntity
8
1
62
256
6
ByLayer
370
18
48
1
60
0
100
AcDbSpline
70
4
71
3
72
8
73
4
40
0
40
0
40
0
40
0
40
1
40
1
40
1
40
1
41
1
10
51.3912668173669
20
-28.6203312887908
30
0
41
1
10
51.3881424557309
20
-28.610220693262
30
0
41
1
10
51.3850180941151
20
-28.6001100976676
30
0
41
1
10
51.3818937325196
20
-28.5899995020079
30
0
0
SPLINE
5
1B1
100
AcDbEntity
8
1
62
256
6
ByLayer
370
18
48
1
60
0
100
AcDbSpline
70
4
71
3
72
8
73
4
40
0
40
0
40
0
40
0
40
1
40
1
40
1
40
1
41
1
10
43.5863219333779
20
-28.6203312887908
30
0
41
1
10
43.5765289965322
20
-28.6102207606163
30
0
41
1
10
43.5667360597503
20
-28.6001102323761
30
0
41
1
10
43.5569431230315
20
-28.5899997040707
30
0
0
SPLINE
5
1B2
100
AcDbEntity
8
1
62
256
6
ByLayer
370
18
48
1
60
0
100
AcDbSpline
70
4
71
3
72
8
73
4
40
0
40
0
40
0
40
0
40
1
40
1
40
1
40
1
41
1
10
51.3199375786448
20
-28.6203312887908
30
0
41
1
10
51.3168132170088
20
-28.610220693262
30
0
41
1
10
51.313688855393
20
-28.6001100976675
30
0
41
1
10
51.3105644937974
20
-28.5899995020079
30
0
0
SPLINE
5
1B3
100
AcDbEntity
8
1
62
256
6
ByLayer
370
18
48
1
60
0
100
AcDbSpline
70
4
71
3
72
8
73
4
40
0
40
0
40
0
40
0
40
1
40
1
40
1
40
1
41
1
10
43.5676701918405
20
-28.6203312887908
30
0
41
1
10
43.5578772549949
20
-28.6102207606163
30
0
41
1
10
43.5480843182129
20
-28.6001102323761
30
0
41
1
10
43.5382913814941
20
-28.5899997040707
30
0
0
SPLINE
5
1B4
100
AcDbEntity
8
1
62
256
6
ByLayer
370
18
48
1
60
0
100
AcDbSpline
70
4
71
3
72
8
73
4
40
0
40
0
40
0
40
0
40
1
40
1
40
1
40
1
41
1
10
45.952684560923
20
-29.05958049925
30
0
41
1
10
45.9434775167429
20
-29.0596002238944
30
0
41
1
10
45.9342743969334
20
-29.0596002238944
30
0
41
1
10
45.9250752194717
20
-29.05958049925
30
0
0
SPLINE
5
1B5
100
AcDbEntity
8
1
62
256
6
ByLayer
370
18
48
1
60
0
100
AcDbSpline
70
4
71
3
72
8
73
4
40
0
40
0
40
0
40
0
40
1
40
1
40
1
40
1
41
1
10
56.7892854771976
20
-29.05958049925
30
0
41
1
10
56.9172067675184
20
-28.9131642757223
30
0
41
1
10
57.0451280493511
20
-28.766747840985
30
0
41
1
10
57.1730493264635
20
-28.6203312887908
30
0
0
SPLINE
5
1B6
100
AcDbEntity
8
1
62
256
6
ByLayer
370
18
48
1
60
0
100
AcDbSpline
70
4
71
3
72
8
73
4
40
0
40
0
40
0
40
0
40
1
40
1
40
1
40
1
41
1
10
44.0484679960522
20
-28.6203312887908
30
0
41
1
10
44.0390673488937
20
-28.61022068718
30
0
41
1
10
44.0296667017963
20
-28.6001100855034
30
0
41
1
10
44.0202660547595
20
-28.5899994837616
30
0
0
SPLINE
5
1B7
100
AcDbEntity
8
1
62
256
6
ByLayer
370
18
48
1
60
0
100
AcDbSpline
70
4
71
3
72
8
73
4
40
0
40
0
40
0
40
0
40
1
40
1
40
1
40
1
41
1
10
44.0208586546009
20
-28.6203312887908
30
0
41
1
10
44.0114580074424
20
-28.61022068718
30
0
41
1
10
44.002057360345
20
-28.6001100855034
30
0
41
1
10
43.9926567133082
20
-28.5899994837617
30
0
0
SPLINE
5
1B8
100
AcDbEntity
8
1
62
256
6
ByLayer
370
18
48
1
60
0
100
AcDbSpline
70
4
71
3
72
8
73
4
40
0
40
0
40
0
40
0
40
1
40
1
40
1
40
1
41
1
10
50.8845065455833
20
-29.05958049925
30
0
41
1
10
50.5938359603688
20
-28.9131642757223
30
0
41
1
10
50.3031653944415
20
-28.766747840985
30
0
41
1
10
50.0124948392402
20
-28.6203312887908
30
0
0
SPLINE
5
1B9
100
AcDbEntity
8
1
62
256
6
ByLayer
370
18
48
1
60
0
100
AcDbSpline
70
4
71
3
72
8
73
4
40
0
40
0
40
0
40
0
40
1
40
1
40
1
40
1
41
1
10
46.4780346892739
20
-29.05958049925
30
0
41
1
10
46.4659871441838
20
-29.0596002238944
30
0
41
1
10
46.4539432944891
20
-29.0596002238944
30
0
41
1
10
46.4419031637163
20
-29.05958049925
30
0
0
SPLINE
5
1BA
100
AcDbEntity
8
1
62
256
6
ByLayer
370
18
48
1
60
0
100
AcDbSpline
70
4
71
3
72
8
73
4
40
0
40
0
40
0
40
0
40
1
40
1
40
1
40
1
41
1
10
50.8166445166484
20
-29.05958049925
30
0
41
1
10
50.5259739314338
20
-28.9131642757223
30
0
41
1
10
50.2353033655066
20
-28.766747840985
30
0
41
1
10
49.9446328103053
20
-28.6203312887908
30
0
0
SPLINE
5
1BB
100
AcDbEntity
8
1
62
256
6
ByLayer
370
18
48
1
60
0
100
AcDbSpline
70
4
71
3
72
8
73
4
40
0
40
0
40
0
40
0
40
1
40
1
40
1
40
1
41
1
10
44.683326260557
20
-28.6203312887908
30
0
41
1
10
44.6744662581967
20
-28.6102207215971
30
0
41
1
10
44.6656062558939
20
-28.6001101543377
30
0
41
1
10
44.6567462536483
20
-28.589999587013
30
0
0
SPLINE
5
1BC
100
AcDbEntity
8
1
62
256
6
ByLayer
370
18
48
1
60
0
100
AcDbSpline
70
4
71
3
72
8
73
4
40
0
40
0
40
0
40
0
40
1
40
1
40
1
40
1
41
1
10
44.6471947349994
20
-28.6203312887908
30
0
41
1
10
44.638334732639
20
-28.6102207215971
30
0
41
1
10
44.6294747303363
20
-28.6001101543377
30
0
41
1
10
44.6206147280906
20
-28.5899995870131
30
0
0
SPLINE
5
1BD
100
AcDbEntity
8
1
62
256
6
ByLayer
370
18
48
1
60
0
100
AcDbSpline
70
4
71
3
72
8
73
4
40
0
40
0
40
0
40
0
40
1
40
1
40
1
40
1
41
1
10
47.9215197989662
20
-29.05958049925
30
0
41
1
10
47.904403043035
20
-29.0596002238944
30
0
41
1
10
47.8872893542435
20
-29.0596002238944
30
0
41
1
10
47.8701787660215
20
-29.05958049925
30
0
0
SPLINE
5
1BE
100
AcDbEntity
8
1
62
256
6
ByLayer
370
18
48
1
60
0
100
AcDbSpline
70
4
71
3
72
8
73
4
40
0
40
0
40
0
40
0
40
1
40
1
40
1
40
1
41
1
10
46.4285651408573
20
-28.6203312887908
30
0
41
1
10
46.4211948981953
20
-28.6102208325567
30
0
41
1
10
46.4138246555813
20
-28.600110376257
30
0
41
1
10
46.4064544130148
20
-28.589999919892
30
0
0
SPLINE
5
1BF
100
AcDbEntity
8
1
62
256
6
ByLayer
370
18
48
1
60
0
100
AcDbSpline
70
4
71
3
72
8
73
4
40
0
40
0
40
0
40
0
40
1
40
1
40
1
40
1
41
1
10
49.8097718525185
20
-29.05958049925
30
0
41
1
10
49.443974146628
20
-28.9131642757223
30
0
41
1
10
49.0781764650098
20
-28.766747840985
30
0
41
1
10
48.7123787968898
20
-28.6203312887908
30
0
0
SPLINE
5
1C0
100
AcDbEntity
8
1
62
256
6
ByLayer
370
18
48
1
60
0
100
AcDbSpline
70
4
71
3
72
8
73
4
40
0
40
0
40
0
40
0
40
1
40
1
40
1
40
1
41
1
10
49.7464472581058
20
-29.05958049925
30
0
41
1
10
49.3806495522154
20
-28.9131642757223
30
0
41
1
10
49.0148518705971
20
-28.766747840985
30
0
41
1
10
48.6490542024772
20
-28.6203312887908
30
0
0
SPLINE
5
1C1
100
AcDbEntity
8
1
62
256
6
ByLayer
370
18
48
1
60
0
100
AcDbSpline
70
4
71
3
72
8
73
4
40
0
40
0
40
0
40
0
40
1
40
1
40
1
40
1
41
1
10
48.8168901578314
20
-29.05958049925
30
0
41
1
10
48.7976246364525
20
-29.0596002238944
30
0
41
1
10
48.7783617928404
20
-29.0596002238944
30
0
41
1
10
48.7591016646232
20
-29.05958049925
30
0
0
SPLINE
5
1C2
100
AcDbEntity
8
1
62
256
6
ByLayer
370
18
48
1
60
0
100
AcDbSpline
70
4
71
3
72
8
73
4
40
0
40
0
40
0
40
0
40
1
40
1
40
1
40
1
41
1
10
47.4536338037471
20
-28.6203312887908
30
0
41
1
10
47.4471890145524
20
-28.6102206611421
30
0
41
1
10
47.4407442253997
20
-28.6001100334278
30
0
41
1
10
47.4342994362885
20
-28.5899994056482
30
0
0
SPLINE
5
1C3
100
AcDbEntity
8
1
62
256
6
ByLayer
370
18
48
1
60
0
100
AcDbSpline
70
4
71
3
72
8
73
4
40
0
40
0
40
0
40
0
40
1
40
1
40
1
40
1
41
1
10
49.8097718525185
20
-29.05958049925
30
0
41
1
10
49.7886613944725
20
-29.0596002238944
30
0
41
1
10
49.7675531825908
20
-29.0596002238944
30
0
41
1
10
49.7464472581058
20
-29.05958049925
30
0
0
SPLINE
5
1C4
100
AcDbEntity
8
1
62
256
6
ByLayer
370
18
48
1
60
0
100
AcDbSpline
70
4
71
3
72
8
73
4
40
0
40
0
40
0
40
0
40
1
40
1
40
1
40
1
41
1
10
48.7123787968898
20
-28.6203312887908
30
0
41
1
10
48.7069611973547
20
-28.6102206108654
30
0
41
1
10
48.7015435978548
20
-28.6001099328744
30
0
41
1
10
48.6961259983899
20
-28.5899992548181
30
0
0
SPLINE
5
1C5
100
AcDbEntity
8
1
62
256
6
ByLayer
370
18
48
1
60
0
100
AcDbSpline
70
4
71
3
72
8
73
4
40
0
40
0
40
0
40
0
40
1
40
1
40
1
40
1
41
1
10
48.8168901578314
20
-29.05958049925
30
0
41
1
10
48.3817341796038
20
-28.9131642757223
30
0
41
1
10
47.9465782302508
20
-28.766747840985
30
0
41
1
10
47.5114222969553
20
-28.6203312887908
30
0
0
SPLINE
5
1C6
100
AcDbEntity
8
1
62
256
6
ByLayer
370
18
48
1
60
0
100
AcDbSpline
70
4
71
3
72
8
73
4
40
0
40
0
40
0
40
0
40
1
40
1
40
1
40
1
41
1
10
48.7591016646232
20
-29.05958049925
30
0
41
1
10
48.3239456863957
20
-28.9131642757223
30
0
41
1
10
47.8887897370426
20
-28.766747840985
30
0
41
1
10
47.4536338037471
20
-28.6203312887908
30
0
0
SPLINE
5
1C7
100
AcDbEntity
8
1
62
256
6
ByLayer
370
18
48
1
60
0
100
AcDbSpline
70
4
71
3
72
8
73
4
40
0
40
0
40
0
40
0
40
1
40
1
40
1
40
1
41
1
10
48.6490542024772
20
-28.6203312887908
30
0
41
1
10
48.643636602942
20
-28.6102206108654
30
0
41
1
10
48.6382190034422
20
-28.6001099328744
30
0
41
1
10
48.6328014039772
20
-28.5899992548181
30
0
0
SPLINE
5
1C8
100
AcDbEntity
8
1
62
256
6
ByLayer
370
18
48
1
60
0
100
AcDbSpline
70
4
71
3
72
10
73
6
40
0
40
0
40
0
40
0
40
0.876183133825517
40
0.876183133825517
40
1
40
1
40
1
40
1
41
1
10
51.3199375786448
20
-28.6203312887908
30
0
41
1
10
51.595028487823
20
-28.81125837528
30
0
41
1
10
51.8701194096631
20
-29.0021852707222
30
0
41
1
10
52.1840845381894
20
-29.2200923038531
30
0
41
1
10
52.2229587170879
20
-29.2470728608149
30
0
41
1
10
52.2618328966634
20
-29.2740534075614
30
0
0
SPLINE
5
1C9
100
AcDbEntity
8
1
62
256
6
ByLayer
370
18
48
1
60
0
100
AcDbSpline
70
4
71
3
72
8
73
4
40
0
40
0
40
0
40
0
40
1
40
1
40
1
40
1
41
1
10
50.8845065455833
20
-29.05958049925
30
0
41
1
10
50.8618840754045
20
-29.0596002238944
30
0
41
1
10
50.8392633843638
20
-29.0596002238944
30
0
41
1
10
50.8166445166484
20
-29.05958049925
30
0
0
SPLINE
5
1CA
100
AcDbEntity
8
1
62
256
6
ByLayer
370
18
48
1
60
0
100
AcDbSpline
70
4
71
3
72
8
73
4
40
0
40
0
40
0
40
0
40
1
40
1
40
1
40
1
41
1
10
50.0124948392402
20
-28.6203312887908
30
0
41
1
10
50.0081899035514
20
-28.6102206187521
30
0
41
1
10
50.0038849678906
20
-28.6001099486478
30
0
41
1
10
49.9995800322575
20
-28.5899992784782
30
0
0
SPLINE
5
1CB
100
AcDbEntity
8
1
62
256
6
ByLayer
370
18
48
1
60
0
100
AcDbSpline
70
4
71
3
72
8
73
4
40
0
40
0
40
0
40
0
40
1
40
1
40
1
40
1
41
1
10
49.9446328103053
20
-28.6203312887908
30
0
41
1
10
49.9403278746165
20
-28.6102206187521
30
0
41
1
10
49.9360229389556
20
-28.6001099486478
30
0
41
1
10
49.9317180033225
20
-28.5899992784782
30
0
0
SPLINE
5
1CC
100
AcDbEntity
8
1
62
256
6
ByLayer
370
18
48
1
60
0
100
AcDbSpline
70
4
71
3
72
8
73
4
40
0
40
0
40
0
40
0
40
1
40
1
40
1
40
1
41
1
10
47.9215197989662
20
-29.05958049925
30
0
41
1
10
47.4238682181277
20
-28.9131642757223
30
0
41
1
10
46.9262166703106
20
-28.766747840985
30
0
41
1
10
46.4285651408573
20
-28.6203312887908
30
0
0
SPLINE
5
1CD
100
AcDbEntity
8
1
62
256
6
ByLayer
370
18
48
1
60
0
100
AcDbSpline
70
4
71
3
72
8
73
4
40
0
40
0
40
0
40
0
40
1
40
1
40
1
40
1
41
1
10
58.6800624213552
20
-28.6203312887908
30
0
41
1
10
58.6831867829912
20
-28.610220693262
30
0
41
1
10
58.686311144607
20
-28.6001100976675
30
0
41
1
10
58.6894355062026
20
-28.5899995020079
30
0
0
SPLINE
5
1CE
100
AcDbEntity
8
1
62
256
6
ByLayer
370
18
48
1
60
0
100
AcDbSpline
70
4
71
3
72
8
73
4
40
0
40
0
40
0
40
0
40
1
40
1
40
1
40
1
41
1
10
47.8701787660215
20
-29.05958049925
30
0
41
1
10
47.3725271851831
20
-28.9131642757223
30
0
41
1
10
46.874875637366
20
-28.766747840985
30
0
41
1
10
46.3772241079126
20
-28.6203312887908
30
0
0
SPLINE
5
1CF
100
AcDbEntity
8
1
62
256
6
ByLayer
370
18
48
1
60
0
100
AcDbSpline
70
4
71
3
72
8
73
4
40
0
40
0
40
0
40
0
40
1
40
1
40
1
40
1
41
1
10
64.6733360692857
20
-29.05958049925
30
0
41
1
10
65.3506319513166
20
-28.9131642757223
30
0
41
1
10
66.0279277884059
20
-28.766747840985
30
0
41
1
10
66.7052236005025
20
-28.6203312887908
30
0
0
SPLINE
5
1D0
100
AcDbEntity
8
1
62
256
6
ByLayer
370
18
48
1
60
0
100
AcDbSpline
70
4
71
3
72
8
73
4
40
0
40
0
40
0
40
0
40
1
40
1
40
1
40
1
41
1
10
58.6087331826331
20
-28.6203312887908
30
0
41
1
10
58.6118575442691
20
-28.610220693262
30
0
41
1
10
58.6149819058849
20
-28.6001100976676
30
0
41
1
10
58.6181062674805
20
-28.5899995020079
30
0
0
SPLINE
5
1D1
100
AcDbEntity
8
1
62
256
6
ByLayer
370
18
48
1
60
0
100
AcDbSpline
70
4
71
3
72
8
73
4
40
0
40
0
40
0
40
0
40
1
40
1
40
1
40
1
41
1
10
62.0532014107679
20
-29.2740534075614
30
0
41
1
10
62.0678998499661
20
-29.274075387577
30
0
41
1
10
62.0825944931548
20
-29.274075387577
30
0
41
1
10
62.0972853046899
20
-29.2740534075614
30
0
0
SPLINE
5
1D2
100
AcDbEntity
8
1
62
256
6
ByLayer
370
18
48
1
60
0
100
AcDbSpline
70
4
71
3
72
8
73
4
40
0
40
0
40
0
40
0
40
1
40
1
40
1
40
1
41
1
10
61.2408983353768
20
-29.05958049925
30
0
41
1
10
61.6760543136043
20
-28.9131642757223
30
0
41
1
10
62.1112102629574
20
-28.766747840985
30
0
41
1
10
62.5463661962529
20
-28.6203312887908
30
0
0
SPLINE
5
1D3
100
AcDbEntity
8
1
62
256
6
ByLayer
370
18
48
1
60
0
100
AcDbSpline
70
4
71
3
72
8
73
4
40
0
40
0
40
0
40
0
40
1
40
1
40
1
40
1
41
1
10
64.563199261107
20
-28.6203312887908
30
0
41
1
10
64.5713789130945
20
-28.6102207340135
30
0
41
1
10
64.5795585650289
20
-28.6001101791705
30
0
41
1
10
64.5877382169105
20
-28.5899996242623
30
0
0
SPLINE
5
1D4
100
AcDbEntity
8
1
62
256
6
ByLayer
370
18
48
1
60
0
100
AcDbSpline
70
4
71
3
72
8
73
4
40
0
40
0
40
0
40
0
40
1
40
1
40
1
40
1
41
1
10
64.5191153671851
20
-28.6203312887908
30
0
41
1
10
64.5272950191726
20
-28.6102207340135
30
0
41
1
10
64.535474671107
20
-28.6001101791705
30
0
41
1
10
64.5436543229886
20
-28.5899996242622
30
0
0
SPLINE
5
1D5
100
AcDbEntity
8
1
62
256
6
ByLayer
370
18
48
1
60
0
100
AcDbSpline
70
4
71
3
72
8
73
4
40
0
40
0
40
0
40
0
40
1
40
1
40
1
40
1
41
1
10
63.5219653107261
20
-29.05958049925
30
0
41
1
10
64.1202014874539
20
-28.9131642757223
30
0
41
1
10
64.7184376244862
20
-28.766747840985
30
0
41
1
10
65.316673739443
20
-28.6203312887908
30
0
0
SPLINE
5
1D6
100
AcDbEntity
8
1
62
256
6
ByLayer
370
18
48
1
60
0
100
AcDbSpline
70
4
71
3
72
8
73
4
40
0
40
0
40
0
40
0
40
1
40
1
40
1
40
1
41
1
10
46.4780346892739
20
-29.05958049925
30
0
41
1
10
45.8797985125461
20
-28.9131642757223
30
0
41
1
10
45.2815623755138
20
-28.766747840985
30
0
41
1
10
44.683326260557
20
-28.6203312887908
30
0
0
SPLINE
5
1D7
100
AcDbEntity
8
1
62
256
6
ByLayer
370
18
48
1
60
0
100
AcDbSpline
70
4
71
3
72
8
73
4
40
0
40
0
40
0
40
0
40
1
40
1
40
1
40
1
41
1
10
46.4419031637163
20
-29.05958049925
30
0
41
1
10
45.8436669869884
20
-28.9131642757223
30
0
41
1
10
45.2454308499562
20
-28.766747840985
30
0
41
1
10
44.6471947349994
20
-28.6203312887908
30
0
0
SPLINE
5
1D8
100
AcDbEntity
8
1
62
256
6
ByLayer
370
18
48
1
60
0
100
AcDbSpline
70
4
71
3
72
8
73
4
40
0
40
0
40
0
40
0
40
1
40
1
40
1
40
1
41
1
10
66.7935190243038
20
-28.6203312887908
30
0
41
1
10
66.8036297340218
20
-28.610220630185
30
0
41
1
10
66.813740443674
20
-28.6001099715134
30
0
41
1
10
66.823851153261
20
-28.5899993127766
30
0
0
SPLINE
5
1D9
100
AcDbEntity
8
1
62
256
6
ByLayer
370
18
48
1
60
0
100
AcDbSpline
70
4
71
3
72
8
73
4
40
0
40
0
40
0
40
0
40
1
40
1
40
1
40
1
41
1
10
66.7935190243038
20
-28.6203312887908
30
0
41
1
10
65.7775066774258
20
-28.838239028758
30
0
41
1
10
64.7614942792626
20
-29.0561465296042
30
0
41
1
10
63.7454817475068
20
-29.2740534075614
30
0
0
SPLINE
5
1DA
100
AcDbEntity
8
1
62
256
6
ByLayer
370
18
48
1
60
0
100
AcDbSpline
70
4
71
3
72
8
73
4
40
0
40
0
40
0
40
0
40
1
40
1
40
1
40
1
41
1
10
64.563199261107
20
-28.6203312887908
30
0
41
1
10
63.7412280059879
20
-28.838239028758
30
0
41
1
10
62.9192567093783
20
-29.0561465296042
30
0
41
1
10
62.0972853046899
20
-29.2740534075614
30
0
0
SPLINE
5
1DB
100
AcDbEntity
8
1
62
256
6
ByLayer
370
18
48
1
60
0
100
AcDbSpline
70
4
71
3
72
8
73
4
40
0
40
0
40
0
40
0
40
1
40
1
40
1
40
1
41
1
10
45.9250752194717
20
-29.05958049925
30
0
41
1
10
45.2903363286288
20
-28.9131642757223
30
0
41
1
10
44.6555974799037
20
-28.766747840985
30
0
41
1
10
44.0208586546009
20
-28.6203312887908
30
0
0
SPLINE
5
1DC
100
AcDbEntity
8
1
62
256
6
ByLayer
370
18
48
1
60
0
100
AcDbSpline
70
4
71
3
72
8
73
4
40
0
40
0
40
0
40
0
40
1
40
1
40
1
40
1
41
1
10
45.5700160016506
20
-29.05958049925
30
0
41
1
10
44.908784608176
20
-28.9131642757223
30
0
41
1
10
44.2475532585769
20
-28.766747840985
30
0
41
1
10
43.5863219333779
20
-28.6203312887908
30
0
0
SPLINE
5
1DD
100
AcDbEntity
8
1
62
256
6
ByLayer
370
18
48
1
60
0
100
AcDbSpline
70
4
71
3
72
8
73
4
40
0
40
0
40
0
40
0
40
1
40
1
40
1
40
1
41
1
10
45.5513642601133
20
-29.05958049925
30
0
41
1
10
44.8901328666386
20
-28.9131642757223
30
0
41
1
10
44.2289015170396
20
-28.766747840985
30
0
41
1
10
43.5676701918405
20
-28.6203312887908
30
0
0
SPLINE
5
1DE
100
AcDbEntity
8
1
62
256
6
ByLayer
370
18
48
1
60
0
100
AcDbSpline
70
4
71
3
72
8
73
4
40
0
40
0
40
0
40
0
40
1
40
1
40
1
40
1
41
1
10
45.3360639232316
20
-29.05958049925
30
0
41
1
10
44.6587680412007
20
-28.9131642757223
30
0
41
1
10
43.9814722041114
20
-28.766747840985
30
0
41
1
10
43.3041763920149
20
-28.6203312887908
30
0
0
SPLINE
5
1DF
100
AcDbEntity
8
1
62
256
6
ByLayer
370
18
48
1
60
0
100
AcDbSpline
70
4
71
3
72
8
73
4
40
0
40
0
40
0
40
0
40
1
40
1
40
1
40
1
41
1
10
45.952684560923
20
-29.05958049925
30
0
41
1
10
45.3179456700802
20
-28.9131642757223
30
0
41
1
10
44.683206821355
20
-28.766747840985
30
0
41
1
10
44.0484679960522
20
-28.6203312887908
30
0
0
SPLINE
5
1E0
100
AcDbEntity
8
1
62
256
6
ByLayer
370
18
48
1
60
0
100
AcDbSpline
70
4
71
3
72
8
73
4
40
0
40
0
40
0
40
0
40
1
40
1
40
1
40
1
41
1
10
64.0749247805283
20
-29.05958049925
30
0
41
1
10
64.7096636713712
20
-28.9131642757223
30
0
41
1
10
65.3444025200964
20
-28.766747840985
30
0
41
1
10
65.9791413453991
20
-28.6203312887908
30
0
0
SPLINE
5
1E1
100
AcDbEntity
8
1
62
256
6
ByLayer
370
18
48
1
60
0
100
AcDbSpline
70
4
71
3
72
8
73
4
40
0
40
0
40
0
40
0
40
1
40
1
40
1
40
1
41
1
10
59.1833554833516
20
-29.05958049925
30
0
41
1
10
59.4740260685662
20
-28.9131642757223
30
0
41
1
10
59.7646966344934
20
-28.766747840985
30
0
41
1
10
60.0553671896947
20
-28.6203312887908
30
0
0
SPLINE
5
1E2
100
AcDbEntity
8
1
62
256
6
ByLayer
370
18
48
1
60
0
100
AcDbSpline
70
4
71
3
72
8
73
4
40
0
40
0
40
0
40
0
40
1
40
1
40
1
40
1
41
1
10
64.5191153671851
20
-28.6203312887908
30
0
41
1
10
63.697144112066
20
-28.838239028758
30
0
41
1
10
62.8751728154564
20
-29.0561465296042
30
0
41
1
10
62.0532014107679
20
-29.2740534075614
30
0
0
SPLINE
5
1E3
100
AcDbEntity
8
1
62
256
6
ByLayer
370
18
48
1
60
0
100
AcDbSpline
70
4
71
3
72
8
73
4
40
0
40
0
40
0
40
0
40
1
40
1
40
1
40
1
41
1
10
58.6800624213552
20
-28.6203312887908
30
0
41
1
10
58.3660973396751
20
-28.838239028758
30
0
41
1
10
58.0521322421471
20
-29.0561465296042
30
0
41
1
10
57.7381671033366
20
-29.2740534075614
30
0
0
SPLINE
5
1E4
100
AcDbEntity
8
1
62
256
6
ByLayer
370
18
48
1
60
0
100
AcDbSpline
70
4
71
3
72
8
73
4
40
0
40
0
40
0
40
0
40
1
40
1
40
1
40
1
41
1
10
53.2107145228024
20
-29.05958049925
30
0
41
1
10
53.1861565568247
20
-29.0596002238944
30
0
41
1
10
53.1615993595665
20
-29.0596002238944
30
0
41
1
10
53.1370429789978
20
-29.05958049925
30
0
0
SPLINE
5
1E5
100
AcDbEntity
8
1
62
256
6
ByLayer
370
18
48
1
60
0
100
AcDbSpline
70
4
71
3
72
8
73
4
40
0
40
0
40
0
40
0
40
1
40
1
40
1
40
1
41
1
10
54.3506501129145
20
-29.05958049925
30
0
41
1
10
54.3077843432092
20
-28.9131642757223
30
0
41
1
10
54.2649185763482
20
-28.766747840985
30
0
41
1
10
54.2220528110691
20
-28.6203312887908
30
0
0
SPLINE
5
1E6
100
AcDbEntity
8
1
62
256
6
ByLayer
370
18
48
1
60
0
100
AcDbSpline
70
4
71
3
72
8
73
4
40
0
40
0
40
0
40
0
40
1
40
1
40
1
40
1
41
1
10
53.2107145228024
20
-29.05958049925
30
0
41
1
10
53.0827932324815
20
-28.9131642757223
30
0
41
1
10
52.9548719506489
20
-28.766747840985
30
0
41
1
10
52.8269506735365
20
-28.6203312887908
30
0
0
SPLINE
5
1E7
100
AcDbEntity
8
1
62
256
6
ByLayer
370
18
48
1
60
0
100
AcDbSpline
70
4
71
3
72
8
73
4
40
0
40
0
40
0
40
0
40
1
40
1
40
1
40
1
41
1
10
54.4255021175466
20
-29.05958049925
30
0
41
1
10
54.3826363478413
20
-28.9131642757223
30
0
41
1
10
54.3397705809804
20
-28.766747840985
30
0
41
1
10
54.2969048157012
20
-28.6203312887908
30
0
0
SPLINE
5
1E8
100
AcDbEntity
8
1
62
256
6
ByLayer
370
18
48
1
60
0
100
AcDbSpline
70
4
71
3
72
8
73
4
40
0
40
0
40
0
40
0
40
1
40
1
40
1
40
1
41
1
10
64.047315439077
20
-29.05958049925
30
0
41
1
10
64.6820543299199
20
-28.9131642757223
30
0
41
1
10
65.316793178645
20
-28.766747840985
30
0
41
1
10
65.9515320039477
20
-28.6203312887908
30
0
0
SPLINE
5
1E9
100
AcDbEntity
8
1
62
256
6
ByLayer
370
18
48
1
60
0
100
AcDbSpline
70
4
71
3
72
8
73
4
40
0
40
0
40
0
40
0
40
1
40
1
40
1
40
1
41
1
10
59.1154934544167
20
-29.05958049925
30
0
41
1
10
59.4061640396312
20
-28.9131642757223
30
0
41
1
10
59.6968346055585
20
-28.766747840985
30
0
41
1
10
59.9875051607598
20
-28.6203312887908
30
0
0
SPLINE
5
1EA
100
AcDbEntity
8
1
62
256
6
ByLayer
370
18
48
1
60
0
100
AcDbSpline
70
4
71
3
72
8
73
4
40
0
40
0
40
0
40
0
40
1
40
1
40
1
40
1
41
1
10
62.0784802010339
20
-29.05958049925
30
0
41
1
10
62.5761317818723
20
-28.9131642757223
30
0
41
1
10
63.0737833296894
20
-28.766747840985
30
0
41
1
10
63.5714348591427
20
-28.6203312887908
30
0
0
SPLINE
5
1EB
100
AcDbEntity
8
1
62
256
6
ByLayer
370
18
48
1
60
0
100
AcDbSpline
70
4
71
3
72
8
73
4
40
0
40
0
40
0
40
0
40
1
40
1
40
1
40
1
41
1
10
55.5744978824534
20
-29.05958049925
30
0
41
1
10
55.6173636521587
20
-28.9131642757223
30
0
41
1
10
55.6602294190196
20
-28.766747840985
30
0
41
1
10
55.7030951842988
20
-28.6203312887908
30
0
0
SPLINE
5
1EC
100
AcDbEntity
8
1
62
256
6
ByLayer
370
18
48
1
60
0
100
AcDbSpline
70
4
71
3
72
8
73
4
40
0
40
0
40
0
40
0
40
1
40
1
40
1
40
1
41
1
10
61.1831098421686
20
-29.05958049925
30
0
41
1
10
61.6182658203962
20
-28.9131642757223
30
0
41
1
10
62.0534217697493
20
-28.766747840985
30
0
41
1
10
62.4885777030447
20
-28.6203312887908
30
0
0
SPLINE
5
1ED
100
AcDbEntity
8
1
62
256
6
ByLayer
370
18
48
1
60
0
100
AcDbSpline
70
4
71
3
72
8
73
4
40
0
40
0
40
0
40
0
40
1
40
1
40
1
40
1
41
1
10
52.8269506735365
20
-28.6203312887908
30
0
41
1
10
52.8250561088149
20
-28.6102205947321
30
0
41
1
10
52.8231615441057
20
-28.6001099006077
30
0
41
1
10
52.8212669794086
20
-28.5899992064181
30
0
0
SPLINE
5
1EE
100
AcDbEntity
8
1
62
256
6
ByLayer
370
18
48
1
60
0
100
AcDbSpline
70
4
71
3
72
8
73
4
40
0
40
0
40
0
40
0
40
1
40
1
40
1
40
1
41
1
10
58.6087331826331
20
-28.6203312887908
30
0
41
1
10
58.294768100953
20
-28.838239028758
30
0
41
1
10
57.9808030034249
20
-29.0561465296042
30
0
41
1
10
57.6668378646145
20
-29.2740534075614
30
0
0
SPLINE
5
1EF
100
AcDbEntity
8
1
62
256
6
ByLayer
370
18
48
1
60
0
100
AcDbSpline
70
4
71
3
72
8
73
4
40
0
40
0
40
0
40
0
40
1
40
1
40
1
40
1
41
1
10
52.7532791297319
20
-28.6203312887908
30
0
41
1
10
52.7513845650103
20
-28.6102205947321
30
0
41
1
10
52.749490000301
20
-28.6001099006078
30
0
41
1
10
52.747595435604
20
-28.5899992064181
30
0
0
SPLINE
5
1F0
100
AcDbEntity
8
1
62
256
6
ByLayer
370
18
48
1
60
0
100
AcDbSpline
70
4
71
3
72
8
73
4
40
0
40
0
40
0
40
0
40
1
40
1
40
1
40
1
41
1
10
62.1298212339785
20
-29.05958049925
30
0
41
1
10
62.1127106457565
20
-29.0596002238944
30
0
41
1
10
62.095596956965
20
-29.0596002238944
30
0
41
1
10
62.0784802010339
20
-29.05958049925
30
0
0
SPLINE
5
1F1
100
AcDbEntity
8
1
62
256
6
ByLayer
370
18
48
1
60
0
100
AcDbSpline
70
4
71
3
72
8
73
4
40
0
40
0
40
0
40
0
40
1
40
1
40
1
40
1
41
1
10
62.1298212339785
20
-29.05958049925
30
0
41
1
10
62.6274728148169
20
-28.9131642757223
30
0
41
1
10
63.125124362634
20
-28.766747840985
30
0
41
1
10
63.6227758920874
20
-28.6203312887908
30
0
0
SPLINE
5
1F2
100
AcDbEntity
8
1
62
256
6
ByLayer
370
18
48
1
60
0
100
AcDbSpline
70
4
71
3
72
8
73
4
40
0
40
0
40
0
40
0
40
1
40
1
40
1
40
1
41
1
10
54.4255021175466
20
-29.05958049925
30
0
41
1
10
54.4005511918278
20
-29.0596002238944
30
0
41
1
10
54.3756005073709
20
-29.0596002238944
30
0
41
1
10
54.3506501129145
20
-29.05958049925
30
0
0
SPLINE
5
1F3
100
AcDbEntity
8
1
62
256
6
ByLayer
370
18
48
1
60
0
100
AcDbSpline
70
4
71
3
72
8
73
4
40
0
40
0
40
0
40
0
40
1
40
1
40
1
40
1
41
1
10
55.6493498870855
20
-29.05958049925
30
0
41
1
10
55.6922156567908
20
-28.9131642757223
30
0
41
1
10
55.7350814236518
20
-28.766747840985
30
0
41
1
10
55.7779471889309
20
-28.6203312887908
30
0
0
SPLINE
5
1F4
100
AcDbEntity
8
1
62
256
6
ByLayer
370
18
48
1
60
0
100
AcDbSpline
70
4
71
3
72
8
73
4
40
0
40
0
40
0
40
0
40
1
40
1
40
1
40
1
41
1
10
54.2969048157012
20
-28.6203312887908
30
0
41
1
10
54.2962699738576
20
-28.610220867041
30
0
41
1
10
54.2956351320181
20
-28.6001104452256
30
0
41
1
10
54.2950002901827
20
-28.5900000233449
30
0
0
SPLINE
5
1F5
100
AcDbEntity
8
1
62
256
6
ByLayer
370
18
48
1
60
0
100
AcDbSpline
70
4
71
3
72
8
73
4
40
0
40
0
40
0
40
0
40
1
40
1
40
1
40
1
41
1
10
54.2220528110691
20
-28.6203312887908
30
0
41
1
10
54.2214179692255
20
-28.610220867041
30
0
41
1
10
54.220783127386
20
-28.6001104452256
30
0
41
1
10
54.2201482855506
20
-28.5900000233449
30
0
0
SPLINE
5
1F6
100
AcDbEntity
8
1
62
256
6
ByLayer
370
18
48
1
60
0
100
AcDbSpline
70
4
71
3
72
8
73
4
40
0
40
0
40
0
40
0
40
1
40
1
40
1
40
1
41
1
10
53.1370429789978
20
-29.05958049925
30
0
41
1
10
53.0091216886769
20
-28.9131642757223
30
0
41
1
10
52.8812004068442
20
-28.766747840985
30
0
41
1
10
52.7532791297319
20
-28.6203312887908
30
0
0
SPLINE
5
1F7
100
AcDbEntity
8
1
62
256
6
ByLayer
370
18
48
1
60
0
100
AcDbSpline
70
4
71
3
72
8
73
4
40
0
40
0
40
0
40
0
40
1
40
1
40
1
40
1
41
1
10
55.6493498870855
20
-29.05958049925
30
0
41
1
10
55.6243994926291
20
-29.0596002238944
30
0
41
1
10
55.5994488081722
20
-29.0596002238944
30
0
41
1
10
55.5744978824534
20
-29.05958049925
30
0
0
SPLINE
5
1F8
100
AcDbEntity
8
1
62
256
6
ByLayer
370
18
48
1
60
0
100
AcDbSpline
70
4
71
3
72
8
73
4
40
0
40
0
40
0
40
0
40
1
40
1
40
1
40
1
41
1
10
59.1833554833516
20
-29.05958049925
30
0
41
1
10
59.1607366156362
20
-29.0596002238944
30
0
41
1
10
59.1381159245955
20
-29.0596002238944
30
0
41
1
10
59.1154934544167
20
-29.05958049925
30
0
0
SPLINE
5
1F9
100
AcDbEntity
8
1
62
256
6
ByLayer
370
18
48
1
60
0
100
AcDbSpline
70
2053
71
3
72
129
73
125
40
0
40
0
40
0
40
0
40
0.0312499999999994
40
0.0312499999999994
40
0.0468749999999992
40
0.0468749999999992
40
0.0624999999999989
40
0.0624999999999989
40
0.0937499999999985
40
0.0937499999999985
40
0.101562499999998
40
0.101562499999998
40
0.109374999999998
40
0.109374999999998
40
0.124999999999998
40
0.140624999999998
40
0.140624999999998
40
0.148437499999998
40
0.148437499999998
40
0.156249999999998
40
0.156249999999998
40
0.187499999999997
40
0.187499999999997
40
0.195312499999997
40
0.195312499999997
40
0.203124999999997
40
0.203124999999997
40
0.218749999999997
40
0.218749999999997
40
0.234374999999996
40
0.234374999999996
40
0.242187499999996
40
0.242187499999996
40
0.249999999999996
40
0.249999999999996
40
0.281249999999996
40
0.281249999999996
40
0.296874999999996
40
0.296874999999996
40
0.304687499999996
40
0.304687499999996
40
0.312499999999996
40
0.312499999999996
40
0.343749999999996
40
0.343749999999996
40
0.351562499999996
40
0.351562499999996
40
0.359374999999996
40
0.359374999999996
40
0.374999999999996
40
0.374999999999996
40
0.406249999999996
40
0.406249999999996
40
0.414062499999996
40
0.414062499999996
40
0.421874999999996
40
0.421874999999996
40
0.437499999999996
40
0.437499999999996
40
0.468749999999996
40
0.468749999999996
40
0.499999999999996
40
0.499999999999996
40
0.515624999999996
40
0.515624999999996
40
0.523437499999996
40
0.523437499999996
40
0.531249999999996
40
0.531249999999996
40
0.562499999999996
40
0.562499999999996
40
0.578124999999996
40
0.578124999999996
40
0.585937499999996
40
0.585937499999996
40
0.593749999999996
40
0.593749999999996
40
0.624999999999996
40
0.624999999999996
40
0.632812499999996
40
0.632812499999996
40
0.640624999999996
40
0.640624999999996
40
0.656249999999995
40
0.656249999999995
40
0.671874999999995
40
0.671874999999995
40
0.679687499999995
40
0.679687499999995
40
0.687499999999995
40
0.687499999999995
40
0.718749999999995
40
0.718749999999995
40
0.726562499999995
40
0.726562499999995
40
0.734374999999995
40
0.734374999999995
40
0.749999999999996
40
0.749999999999996
40
0.781249999999996
40
0.781249999999996
40
0.812499999999996
40
0.812499999999996
40
0.828124999999996
40
0.828124999999996
40
0.835937499999996
40
0.835937499999996
40
0.843749999999996
40
0.843749999999996
40
0.874999999999997
40
0.874999999999997
40
0.890624999999997
40
0.890624999999997
40
0.906249999999997
40
0.906249999999997
40
0.937499999999998
40
0.937499999999998
40
0.945312499999998
40
0.945312499999998
40
0.953124999999998
40
0.953124999999998
40
0.968749999999999
40
0.968749999999999
40
1
40
1
40
1
40
1
41
1
10
9.09205696187373
20
-3.82171263659779
30
0
41
1
10
8.82448756341344
20
-3.64523081229811
30
0
41
1
10
8.57720931904021
20
-3.44604210109043
30
0
41
1
10
8.2369882991932
20
-3.11270127159332
30
0
41
1
10
8.12866506510497
20
-2.99570602983618
30
0
41
1
10
7.92312686619167
20
-2.74981744364376
30
0
41
1
10
7.82746218871605
20
-2.62279165063842
30
0
41
1
10
7.56142180839063
20
-2.22964393044072
30
0
41
1
10
7.41177481276765
20
-1.95158074872734
30
0
41
1
10
7.26142376974965
20
-1.58276005481795
30
0
41
1
10
7.23318984263716
20
-1.50787369587678
30
0
41
1
10
7.18063014597394
20
-1.35608305883943
30
0
41
1
10
7.15652862109607
20
-1.27983439410875
30
0
41
1
10
7.09064991651866
20
-1.05004529162971
30
0
41
1
10
7.01991724338166
20
-0.740882969945488
30
0
41
1
10
6.98304424442165
20
-0.426217961211819
30
0
41
1
10
6.96834900408845
20
-0.188111873235925
30
0
41
1
10
6.96561459880229
20
-0.108391301514359
30
0
41
1
10
6.9645700419851
20
0.0517693035050968
30
0
41
1
10
6.96628066221396
20
0.132390666424129
30
0
41
1
10
6.98586512130075
20
0.53229796831792
30
0
41
1
10
7.03630989018163
20
0.84548972608971
30
0
41
1
10
7.14125841738627
20
1.22888038185315
30
0
41
1
10
7.16436339649951
20
1.30514963142494
30
0
41
1
10
7.21484668667509
20
1.45686268773866
30
0
41
1
10
7.24231605142788
20
1.53252164932343
30
0
41
1
10
7.33033877744006
20
1.75602276860235
30
0
41
1
10
7.39653445997459
20
1.90071240154632
30
0
41
1
10
7.54326354839185
20
2.18188206366119
30
0
41
1
10
7.62379922178133
20
2.31836076846702
30
0
41
1
10
7.75519356839152
20
2.51702918062443
30
0
41
1
10
7.80076025513208
20
2.58224176265782
30
0
41
1
10
7.89544391291648
20
2.71064163694342
30
0
41
1
10
7.94469311210034
20
2.77398687955787
30
0
41
1
10
8.19816945334378
20
3.08350123097841
30
0
41
1
10
8.42269766587515
20
3.30716491038595
30
0
41
1
10
8.78997480405161
20
3.60929101986454
30
0
41
1
10
8.91752310296681
20
3.7043920270786
30
0
41
1
10
9.11661484976972
20
3.83856357333536
30
0
41
1
10
9.18412099346904
20
3.88175611188697
30
0
41
1
10
9.32041050071032
20
3.9645250005515
30
0
41
1
10
9.38933413557646
20
4.00419712943548
30
0
41
1
10
9.73776694629723
20
4.1941832192376
30
0
41
1
10
10.0286155841596
20
4.3196057752597
30
0
41
1
10
10.4071239889611
20
4.44372791233047
30
0
41
1
10
10.4835795027081
20
4.46690520180223
30
0
41
1
10
10.6380197570971
20
4.50992146555419
30
0
41
1
10
10.7157220037634
20
4.52967503033213
30
0
41
1
10
10.9490053567656
20
4.58344835293678
30
0
41
1
10
11.1052742445256
20
4.61213781192555
30
0
41
1
10
11.5762633201201
20
4.677304802653
30
0
41
1
10
11.8931470962235
20
4.69306512725168
30
0
41
1
10
12.2929632045433
20
4.67724936788622
30
0
41
1
10
12.3732500126544
20
4.67227651479737
30
0
41
1
10
12.5326583319443
20
4.65882492250935
30
0
41
1
10
12.6119464343055
20
4.65034573250045
30
0
41
1
10
12.8485817314843
20
4.61972689199087
30
0
41
1
10
13.00470256432
20
4.59241736724985
30
0
41
1
10
13.4682109204568
20
4.49000202537053
30
0
41
1
10
13.7708176834759
20
4.39460038671913
30
0
41
1
10
14.3623031433822
20
4.14614050338713
30
0
41
1
10
14.641833322666
20
3.99700968466871
30
0
41
1
10
15.0372912069151
20
3.73650740085307
30
0
41
1
10
15.1651100391818
20
3.64349619553963
30
0
41
1
10
15.3506362225613
20
3.49437440696411
30
0
41
1
10
15.4114427081959
20
3.44306334875432
30
0
41
1
10
15.5309257875653
20
3.33713768460788
30
0
41
1
10
15.5897144872188
20
3.28240052749311
30
0
41
1
10
15.8749818904682
20
3.00335776220098
30
0
41
1
10
16.078007556069
20
2.76125862580128
30
0
41
1
10
16.344410927316
20
2.36938697734283
30
0
41
1
10
16.4268107967538
20
2.23394202560667
30
0
41
1
10
16.5403067179371
20
2.02314620895655
30
0
41
1
10
16.5765594040417
20
1.95136865089674
30
0
41
1
10
16.6449381581144
20
1.80651541781387
30
0
41
1
10
16.6770595741939
20
1.73349047226225
30
0
41
1
10
16.8274559344975
20
1.36540858478594
30
0
41
1
10
16.9154128300471
20
1.06156991780935
30
0
41
1
10
16.9838103142926
20
0.669703953220079
30
0
41
1
10
16.9953924429614
20
0.590721678066728
30
0
41
1
10
17.0142500361608
20
0.431506004461056
30
0
41
1
10
17.0215143798961
20
0.351185112097937
30
0
41
1
10
17.0365180589707
20
0.111508840472482
30
0
41
1
10
17.0376356433397
20
-0.0475983684101493
30
0
41
1
10
17.0225795375512
20
-0.36449524779087
30
0
41
1
10
17.006404818482
20
-0.522284840249768
30
0
41
1
10
16.9691265312971
20
-0.757977944448641
30
0
41
1
10
16.9545269720305
20
-0.836376791985117
30
0
41
1
10
16.9209224277175
20
-0.99283914416327
30
0
41
1
10
16.9018475623338
20
-1.0711352631719
30
0
41
1
10
16.7963762841055
20
-1.45777008851218
30
0
41
1
10
16.6799762268838
20
-1.75302810054194
30
0
41
1
10
16.4966867374086
20
-2.10558036543776
30
0
41
1
10
16.4581201209413
20
-2.17525646835466
30
0
41
1
10
16.3771502748553
20
-2.31293351808219
30
0
41
1
10
16.3346219025118
20
-2.38111803954459
30
0
41
1
10
16.2022771388342
20
-2.58154663854961
30
0
41
1
10
16.1078353281224
20
-2.70960331887625
30
0
41
1
10
15.8067757176524
20
-3.07793704046767
30
0
41
1
10
15.5825913966714
20
-3.30252666760091
30
0
41
1
10
15.0875804881776
20
-3.71029970914299
30
0
41
1
10
14.8241877206199
20
-3.88736007202169
30
0
41
1
10
14.4070403546688
20
-4.11542630362482
30
0
41
1
10
14.2642738531129
20
-4.18515308795497
30
0
41
1
10
14.0444974719076
20
-4.28023896880521
30
0
41
1
10
13.9701379867773
20
-4.31040731250269
30
0
41
1
10
13.8203055948226
20
-4.36722986120844
30
0
41
1
10
13.7449974295072
20
-4.39383137606819
30
0
41
1
10
13.3665397003474
20
-4.51799766893089
30
0
41
1
10
13.0576900201357
20
-4.58927650658353
30
0
41
1
10
12.5854733638565
20
-4.65507940188547
30
0
41
1
10
12.426567644474
20
-4.67011499434989
30
0
41
1
10
12.1056655888696
20
-4.68598256402512
30
0
41
1
10
11.9460337877236
20
-4.68669568861444
30
0
41
1
10
11.469726338054
20
-4.66787756577608
30
0
41
1
10
11.1555215688551
20
-4.62757498205278
30
0
41
1
10
10.7669819258673
20
-4.54202883729062
30
0
41
1
10
10.6894865322743
20
-4.52314656338481
30
0
41
1
10
10.5349292361306
20
-4.48176288048074
30
0
41
1
10
10.457735826714
20
-4.45921253386533
30
0
41
1
10
10.2289351591426
20
-4.38669448405014
30
0
41
1
10
10.0795024584994
20
-4.33173679238928
30
0
41
1
10
9.64038447384706
20
-4.14724732377914
30
0
41
1
10
9.35962636033403
20
-3.99819446089748
30
0
41
1
10
9.09205696187373
20
-3.82171263659779
30
0
0
SPLINE
5
1FA
100
AcDbEntity
8
1
62
256
6
ByLayer
370
18
48
1
60
0
100
AcDbSpline
70
4
71
3
72
20
73
16
40
0
40
0
40
0
40
0
40
0.0624999999999987
40
0.0624999999999987
40
0.124999999999997
40
0.124999999999997
40
0.249999999999997
40
0.249999999999997
40
0.374999999999997
40
0.374999999999997
40
0.499999999999997
40
0.499999999999997
40
0.749999999999998
40
0.749999999999998
40
1
40
1
40
1
40
1
41
1
10
13.4613248654052
20
9.36062200025654
30
0
41
1
10
13.4770731212947
20
9.36062200025654
30
0
41
1
10
13.4925350531053
20
9.362144584167
30
0
41
1
10
13.5229367939019
20
9.36796585223465
30
0
41
1
10
13.5379944785707
20
9.3723137217448
30
0
41
1
10
13.581579402661
20
9.38893182885511
30
0
41
1
10
13.6080165151673
20
9.4043727914553
30
0
41
1
10
13.6572271663916
20
9.44134468669839
30
0
41
1
10
13.6791465718198
20
9.4622477041475
30
0
41
1
10
13.7192579039604
20
9.50709447041919
30
0
41
1
10
13.7375455444324
20
9.53123512614852
30
0
41
1
10
13.7875212864916
20
9.6061824470201
30
0
41
1
10
13.8142915314464
20
9.65896165930744
30
0
41
1
10
13.8599556230287
20
9.76785216023544
30
0
41
1
10
13.8787495712987
20
9.82417699345555
30
0
41
1
10
13.8943375672975
20
9.88120440340796
30
0
0
SPLINE
5
1FB
100
AcDbEntity
8
1
62
256
6
ByLayer
370
18
48
1
60
0
100
AcDbSpline
70
2053
71
3
72
134
73
130
40
0
40
0
40
0
40
0
40
0.0312499999999987
40
0.0312499999999987
40
0.046874999999998
40
0.046874999999998
40
0.0546874999999975
40
0.0546874999999975
40
0.062499999999997
40
0.062499999999997
40
0.0937499999999955
40
0.0937499999999955
40
0.101562499999995
40
0.101562499999995
40
0.109374999999995
40
0.109374999999995
40
0.124999999999995
40
0.124999999999995
40
0.156249999999995
40
0.156249999999995
40
0.164062499999995
40
0.164062499999995
40
0.171874999999995
40
0.171874999999995
40
0.187499999999994
40
0.203124999999994
40
0.203124999999994
40
0.210937499999994
40
0.210937499999994
40
0.218749999999994
40
0.218749999999994
40
0.249999999999994
40
0.249999999999994
40
0.265624999999995
40
0.265624999999995
40
0.273437499999995
40
0.273437499999995
40
0.281249999999995
40
0.281249999999995
40
0.312499999999994
40
0.312499999999994
40
0.320312499999994
40
0.320312499999994
40
0.328124999999994
40
0.328124999999994
40
0.343749999999993
40
0.359374999999993
40
0.359374999999993
40
0.367187499999993
40
0.367187499999993
40
0.374999999999992
40
0.374999999999992
40
0.406249999999991
40
0.406249999999991
40
0.421874999999991
40
0.421874999999991
40
0.429687499999991
40
0.429687499999991
40
0.43749999999999
40
0.43749999999999
40
0.468749999999989
40
0.468749999999989
40
0.476562499999989
40
0.476562499999989
40
0.484374999999989
40
0.484374999999989
40
0.499999999999989
40
0.499999999999989
40
0.531249999999988
40
0.531249999999988
40
0.539062499999988
40
0.539062499999988
40
0.546874999999987
40
0.546874999999987
40
0.562499999999987
40
0.562499999999987
40
0.578124999999986
40
0.578124999999986
40
0.585937499999986
40
0.585937499999986
40
0.593749999999986
40
0.593749999999986
40
0.624999999999986
40
0.624999999999986
40
0.640624999999986
40
0.640624999999986
40
0.656249999999987
40
0.656249999999987
40
0.687499999999987
40
0.687499999999987
40
0.695312499999987
40
0.695312499999987
40
0.703124999999987
40
0.703124999999987
40
0.718749999999986
40
0.734374999999986
40
0.734374999999986
40
0.742187499999986
40
0.742187499999986
40
0.749999999999986
40
0.749999999999986
40
0.781249999999988
40
0.781249999999988
40
0.79687499999999
40
0.79687499999999
40
0.80468749999999
40
0.80468749999999
40
0.812499999999991
40
0.812499999999991
40
0.843749999999991
40
0.843749999999991
40
0.851562499999992
40
0.851562499999992
40
0.859374999999992
40
0.859374999999992
40
0.874999999999993
40
0.874999999999993
40
0.906249999999995
40
0.906249999999995
40
0.914062499999995
40
0.914062499999995
40
0.921874999999996
40
0.921874999999996
40
0.937499999999997
40
0.953124999999997
40
0.953124999999997
40
0.968749999999998
40
0.968749999999998
40
1
40
1
40
1
40
1
41
1
10
44.299430284568
20
12.3051000639485
30
0
41
1
10
44.194736894877
20
11.9513207756512
30
0
41
1
10
44.0540127568778
20
11.6103462323712
30
0
41
1
10
43.7911662682856
20
11.1180515591315
30
0
41
1
10
43.6948588762232
20
10.9571740742617
30
0
41
1
10
43.5370638917427
20
10.720925798177
30
0
41
1
10
43.4821099889664
20
10.6428506817087
30
0
41
1
10
43.3682618100506
20
10.4892743743947
30
0
41
1
10
43.3095549026145
20
10.4140061313557
30
0
41
1
10
43.0072825405403
20
10.0451655113621
30
0
41
1
10
42.7377588530218
20
9.77387262021631
30
0
41
1
10
42.3663912286098
20
9.46518340596009
30
0
41
1
10
42.290378669814
20
9.40498082921306
30
0
41
1
10
42.1348146671463
20
9.28772134817456
30
0
41
1
10
42.0550358349623
20
9.230515910951
30
0
41
1
10
41.8124622840357
20
9.06523338240748
30
0
41
1
10
41.6462925573238
20
8.96328704830012
30
0
41
1
10
41.1347740794076
20
8.68172796449241
30
0
41
1
10
40.7765417800244
20
8.52616598047806
30
0
41
1
10
40.3064769877364
20
8.37387414151414
30
0
41
1
10
40.2111327649515
20
8.34549663671794
30
0
41
1
10
40.0202006408567
20
8.29364136041565
30
0
41
1
10
39.9244129801243
20
8.27008829169776
30
0
41
1
10
39.6361010154772
20
8.20644892974258
30
0
41
1
10
39.2491587159989
20
8.14028635789057
30
0
41
1
10
38.8572213922432
20
8.11117415802482
30
0
41
1
10
38.5613635283856
20
8.10348579407278
30
0
41
1
10
38.4624262089424
20
8.10328453037445
30
0
41
1
10
38.263903179338
20
8.10769666212758
30
0
41
1
10
38.1642763434209
20
8.1123299627713
30
0
41
1
10
37.6701574294177
20
8.14728041651802
30
0
41
1
10
37.2830972742355
20
8.21264893280954
30
0
41
1
10
36.7145342330698
20
8.36504712173559
30
0
41
1
10
36.5270319135904
20
8.42496519940329
30
0
41
1
10
36.2488976461121
20
8.52886551807873
30
0
41
1
10
36.1570637196285
20
8.56571821312514
30
0
41
1
10
35.9763232866007
20
8.6432942136945
30
0
41
1
10
35.8872298976518
20
8.68408642157974
30
0
41
1
10
35.448041716836
20
8.89786516388472
30
0
41
1
10
35.1166014391348
20
9.1000311785786
30
0
41
1
10
34.7273560801749
20
9.39122126756379
30
0
41
1
10
34.650723664403
20
9.45143988390151
30
0
41
1
10
34.5002353490664
20
9.57565733252369
30
0
41
1
10
34.426909769739
20
9.63921441944277
30
0
41
1
10
34.212565144392
20
9.83410414588519
30
0
41
1
10
33.9417635022248
20
10.1051849046066
30
0
41
1
10
33.7003307436131
20
10.397915262465
30
0
41
1
10
33.5303665119285
20
10.6255256284647
30
0
41
1
10
33.4755668454139
20
10.7027420202035
30
0
41
1
10
33.3697358437741
20
10.8598889625285
30
0
41
1
10
33.3185982159492
20
10.9399976143361
30
0
41
1
10
33.0738008329978
20
11.3453452980577
30
0
41
1
10
32.914998288977
20
11.6803387527327
30
0
41
1
10
32.7303986937401
20
12.197450464182
30
0
41
1
10
32.6778656534409
20
12.3722806246474
30
0
41
1
10
32.6129218543256
20
12.6382321719395
30
0
41
1
10
32.5935426811057
20
12.7277609093696
30
0
41
1
10
32.5597896319698
20
12.9065880113759
30
0
41
1
10
32.5454045054714
20
12.9958486642838
30
0
41
1
10
32.4856879923452
20
13.4413807085724
30
0
41
1
10
32.476635801235
20
13.79533324156
30
0
41
1
10
32.5133665357946
20
14.2346303949073
30
0
41
1
10
32.5231366613712
20
14.3223329684868
30
0
41
1
10
32.5476048496487
20
14.4974243782757
30
0
41
1
10
32.5623447953877
20
14.5849627334919
30
0
41
1
10
32.6135028891858
20
14.8442818020353
30
0
41
1
10
32.6569257095923
20
15.0136305407315
30
0
41
1
10
32.8142971514716
20
15.5115636390144
30
0
41
1
10
32.95508358497
20
15.8301093949747
30
0
41
1
10
33.1771428879197
20
16.2119277084311
30
0
41
1
10
33.2237814505569
20
16.2872717019286
30
0
41
1
10
33.3207111601206
20
16.4347749033981
30
0
41
1
10
33.3711051954172
20
16.507114175712
30
0
41
1
10
33.52798698063
20
16.720006090294
30
0
41
1
10
33.640160426246
20
16.8564422678883
30
0
41
1
10
33.8795597454379
20
17.1186825112779
30
0
41
1
10
34.0067851583951
20
17.2444864131453
30
0
41
1
10
34.2091648106589
20
17.4252548865551
30
0
41
1
10
34.2785518618636
20
17.4841858192712
30
0
41
1
10
34.4212684637319
20
17.599374045787
30
0
41
1
10
34.4941484055537
20
17.6552629959797
30
0
41
1
10
34.8650160377247
20
17.9256282685668
30
0
41
1
10
35.1832535989404
20
18.1139780426944
30
0
41
1
10
35.6929485767641
20
18.3563433396922
30
0
41
1
10
35.8682749357679
20
18.4303872467582
30
0
41
1
10
36.2302823733165
20
18.5646352720414
30
0
41
1
10
36.4140269979576
20
18.6237409579624
30
0
41
1
10
36.9724064551828
20
18.7777028152556
30
0
41
1
10
37.3544989763029
20
18.8495837677658
30
0
41
1
10
37.8447682947837
20
18.900621166573
30
0
41
1
10
37.9435540096195
20
18.9088744119729
30
0
41
1
10
38.1420417618697
20
18.9213466469527
30
0
41
1
10
38.2410564225877
20
18.9255263943753
30
0
41
1
10
38.5374270606034
20
18.932031561544
30
0
41
1
10
38.930795446043
20
18.9246463134811
30
0
41
1
10
39.3206522857921
20
18.8857703191497
30
0
41
1
10
39.6117189758999
20
18.8446609239783
30
0
41
1
10
39.708519840629
20
18.8289618407416
30
0
41
1
10
39.9016726279718
20
18.7934991976683
30
0
41
1
10
39.9982977670754
20
18.773669582488
30
0
41
1
10
40.476170222255
20
18.6650648032103
30
0
41
1
10
40.8419068425082
20
18.5484559164945
30
0
41
1
10
41.3668137075911
20
18.329702330179
30
0
41
1
10
41.5378037179021
20
18.2494200889511
30
0
41
1
10
41.7882000116294
20
18.1175130683704
30
0
41
1
10
41.8706309649789
20
18.071617839214
30
0
41
1
10
42.0316859033872
20
17.9769625937935
30
0
41
1
10
42.1105412570217
20
17.9280849242127
30
0
41
1
10
42.4966201202956
20
17.6760053092519
30
0
41
1
10
42.7794919527501
20
17.449961363545
30
0
41
1
10
43.1007041042787
20
17.1355284997678
30
0
41
1
10
43.1633125091801
20
17.0710333720179
30
0
41
1
10
43.2852014740268
20
16.9387293401677
30
0
41
1
10
43.3442056459961
20
16.8712076893312
30
0
41
1
10
43.5145351374219
20
16.6656462449014
30
0
41
1
10
43.619608903358
20
16.5241697033631
30
0
41
1
10
43.9099576237672
20
16.0863629802581
30
0
41
1
10
44.0706142594277
20
15.7767829129808
30
0
41
1
10
44.2284042750065
20
15.3656266756966
30
0
41
1
10
44.2576003359267
20
15.2826520285483
30
0
41
1
10
44.3111137441833
20
15.1158791722431
30
0
41
1
10
44.3354714920198
20
15.0319762663711
30
0
41
1
10
44.401442128381
20
14.7787174458506
30
0
41
1
10
44.4704914829185
20
14.4369086430598
30
0
41
1
10
44.5018845783406
20
14.0867185486461
30
0
41
1
10
44.5139747937419
20
13.7321981600649
30
0
41
1
10
44.5102455392706
20
13.5520469459956
30
0
41
1
10
44.4696754415928
20
13.014989652137
30
0
41
1
10
44.4041236742589
20
12.6588793522457
30
0
41
1
10
44.299430284568
20
12.3051000639485
30
0
0
SPLINE
5
1FC
100
AcDbEntity
8
1
62
256
6
ByLayer
370
18
48
1
60
0
100
AcDbSpline
70
4
71
3
72
8
73
4
40
0
40
0
40
0
40
0
40
1
40
1
40
1
40
1
41
1
10
72.2
20
20.9693728891648
30
0
41
1
10
72.8000288277968
20
20.5944332644125
30
0
41
1
10
73.4000306672328
20
20.2195105038597
30
0
41
1
10
74
20
19.844608055728
30
0
0
SPLINE
5
1FD
100
AcDbEntity
8
1
62
256
6
ByLayer
370
18
48
1
60
0
100
AcDbSpline
70
4
71
3
72
20
73
16
40
0
40
0
40
0
40
0
40
0.0624999999999998
40
0.0624999999999998
40
0.125
40
0.125
40
0.250000000000001
40
0.250000000000001
40
0.375000000000002
40
0.375000000000002
40
0.500000000000003
40
0.500000000000003
40
0.750000000000001
40
0.750000000000001
40
1
40
1
40
1
40
1
41
1
10
10.5386751345948
20
-9.36062200025657
30
0
41
1
10
10.5229268787053
20
-9.36062200025657
30
0
41
1
10
10.5074649468947
20
-9.362144584167
30
0
41
1
10
10.4770632060981
20
-9.36796585223468
30
0
41
1
10
10.4620055214293
20
-9.3723137217448
30
0
41
1
10
10.418420597339
20
-9.38893182885511
30
0
41
1
10
10.3919834848326
20
-9.40437279145533
30
0
41
1
10
10.3427728336084
20
-9.44134468669839
30
0
41
1
10
10.3208534281802
20
-9.4622477041475
30
0
41
1
10
10.2807420960396
20
-9.50709447041919
30
0
41
1
10
10.2624544555675
20
-9.53123512614852
30
0
41
1
10
10.2124787135084
20
-9.6061824470201
30
0
41
1
10
10.1857084685535
20
-9.65896165930744
30
0
41
1
10
10.1400443769713
20
-9.76785216023544
30
0
41
1
10
10.1212504287013
20
-9.82417699345555
30
0
41
1
10
10.1056624327025
20
-9.88120440340796
30
0
0
SPLINE
5
1FE
100
AcDbEntity
8
1
62
256
6
ByLayer
370
18
48
1
60
0
100
AcDbSpline
70
4
71
3
72
10
73
6
40
0
40
0
40
0
40
0
40
0.5
40
0.5
40
1
40
1
40
1
40
1
41
1
10
72.2
20
-28.59
30
0
41
1
10
72.5532579496484
20
-28.59
30
0
41
1
10
72.8829106925105
20
-28.59
30
0
41
1
10
73.4861238861204
20
-28.59
30
0
41
1
10
73.7596860906092
20
-28.59
30
0
41
1
10
74
20
-28.59
30
0
0
SPLINE
5
1FF
100
AcDbEntity
8
1
62
256
6
ByLayer
370
18
48
1
60
0
100
AcDbSpline
70
4
71
3
72
22
73
18
40
0
40
0
40
0
40
0
40
0.250000000000002
40
0.250000000000002
40
0.375000000000004
40
0.375000000000004
40
0.500000000000007
40
0.500000000000007
40
0.625000000000009
40
0.625000000000009
40
0.750000000000011
40
0.750000000000011
40
0.812500000000009
40
0.812500000000009
40
0.875000000000007
40
0.875000000000007
40
1
40
1
40
1
40
1
41
1
10
13.8943375672974
20
-9.88120440340796
30
0
41
1
10
13.8787554376954
20
-9.82419845518876
30
0
41
1
10
13.8601100335811
20
-9.76828922026249
30
0
41
1
10
13.8259330221577
20
-9.68668796331841
30
0
41
1
10
13.8134955006472
20
-9.6598685694849
30
0
41
1
10
13.7860018849993
20
-9.60719288403385
30
0
41
1
10
13.7708717219144
20
-9.58121374896766
30
0
41
1
10
13.7375398786375
20
-9.53122640830799
30
0
41
1
10
13.7193918475232
20
-9.50724341766031
30
0
41
1
10
13.678999577248
20
-9.46208416538983
30
0
41
1
10
13.6569061770773
20
-9.44111140375267
30
0
41
1
10
13.6205771060822
20
-9.41380562417896
30
0
41
1
10
13.6079022559356
20
-9.40536928677761
30
0
41
1
10
13.5811466609385
20
-9.39015419275739
30
0
41
1
10
13.5670631760719
20
-9.38340549236719
30
0
41
1
10
13.5238451158643
20
-9.36690210248261
30
0
41
1
10
13.4927757288618
20
-9.36062200025646
30
0
41
1
10
13.4613248654052
20
-9.36062200025646
30
0
0
SPLINE
5
200
100
AcDbEntity
8
1
62
256
6
ByLayer
370
18
48
1
60
0
100
AcDbSpline
70
4
71
3
72
22
73
18
40
0
40
0
40
0
40
0
40
0.249999999999997
40
0.249999999999997
40
0.374999999999997
40
0.374999999999997
40
0.499999999999997
40
0.499999999999997
40
0.624999999999997
40
0.624999999999997
40
0.749999999999997
40
0.749999999999997
40
0.812499999999997
40
0.812499999999997
40
0.874999999999996
40
0.874999999999996
40
1
40
1
40
1
40
1
41
1
10
10.1056624327026
20
9.88120440340796
30
0
41
1
10
10.1212445623046
20
9.82419845518876
30
0
41
1
10
10.1398899664189
20
9.76828922026249
30
0
41
1
10
10.1740669778423
20
9.68668796331841
30
0
41
1
10
10.1865044993528
20
9.6598685694849
30
0
41
1
10
10.2139981150007
20
9.60719288403385
30
0
41
1
10
10.2291282780855
20
9.58121374896766
30
0
41
1
10
10.2624601213625
20
9.53122640830802
30
0
41
1
10
10.2806081524768
20
9.50724341766031
30
0
41
1
10
10.321000422752
20
9.46208416538985
30
0
41
1
10
10.3430938229227
20
9.44111140375267
30
0
41
1
10
10.3794228939178
20
9.41380562417896
30
0
41
1
10
10.3920977440644
20
9.40536928677761
30
0
41
1
10
10.4188533390615
20
9.39015419275739
30
0
41
1
10
10.4329368239281
20
9.38340549236722
30
0
41
1
10
10.4761548841357
20
9.36690210248264
30
0
41
1
10
10.5072242711382
20
9.36062200025648
30
0
41
1
10
10.5386751345948
20
9.36062200025648
30
0
0
SPLINE
5
201
100
AcDbEntity
8
1
62
256
6
ByLayer
370
18
48
1
60
0
100
AcDbSpline
70
4
71
3
72
20
73
16
40
0
40
0
40
0
40
0
40
0.0625000000000015
40
0.0625000000000015
40
0.125000000000003
40
0.125000000000003
40
0.250000000000004
40
0.250000000000004
40
0.375000000000004
40
0.375000000000004
40
0.500000000000005
40
0.500000000000005
40
0.750000000000002
40
0.750000000000002
40
1
40
1
40
1
40
1
41
1
10
13.4613248654052
20
-30.0691920745855
30
0
41
1
10
13.4770731212947
20
-30.0691920745855
30
0
41
1
10
13.4925350531053
20
-30.0687182022911
30
0
41
1
10
13.5229367939019
20
-30.0669050840789
30
0
41
1
10
13.5379944785707
20
-30.0655504759426
30
0
41
1
10
13.581579402661
20
-30.060366764964
30
0
41
1
10
13.6080165151673
20
-30.0555436480818
30
0
41
1
10
13.6572271663916
20
-30.0439501745255
30
0
41
1
10
13.6791465718198
20
-30.0373763434828
30
0
41
1
10
13.7192579039604
20
-30.0232120857377
30
0
41
1
10
13.7375455444324
20
-30.015559309112
30
0
41
1
10
13.7875212864916
20
-29.9916915948323
30
0
41
1
10
13.8142915314464
20
-29.9747442332208
30
0
41
1
10
13.8599556230287
20
-29.9394371416491
30
0
41
1
10
13.8787495712987
20
-29.9210078356702
30
0
41
1
10
13.8943375672975
20
-29.9021630620273
30
0
0
SPLINE
5
202
100
AcDbEntity
8
1
62
256
6
ByLayer
370
18
48
1
60
0
100
AcDbSpline
70
4
71
3
72
20
73
16
40
0
40
0
40
0
40
0
40
0.0625000000000021
40
0.0625000000000021
40
0.125000000000004
40
0.125000000000004
40
0.250000000000004
40
0.250000000000004
40
0.375000000000003
40
0.375000000000003
40
0.500000000000002
40
0.500000000000002
40
0.750000000000001
40
0.750000000000001
40
1
40
1
40
1
40
1
41
1
10
10.5386751345948
20
30.0691920745855
30
0
41
1
10
10.5229268787053
20
30.0691920745855
30
0
41
1
10
10.5074649468947
20
30.0687182022911
30
0
41
1
10
10.4770632060981
20
30.0669050840788
30
0
41
1
10
10.4620055214293
20
30.0655504759426
30
0
41
1
10
10.418420597339
20
30.060366764964
30
0
41
1
10
10.3919834848326
20
30.0555436480818
30
0
41
1
10
10.3427728336084
20
30.0439501745255
30
0
41
1
10
10.3208534281802
20
30.0373763434827
30
0
41
1
10
10.2807420960396
20
30.0232120857377
30
0
41
1
10
10.2624544555675
20
30.015559309112
30
0
41
1
10
10.2124787135084
20
29.9916915948323
30
0
41
1
10
10.1857084685535
20
29.9747442332208
30
0
41
1
10
10.1400443769713
20
29.9394371416492
30
0
41
1
10
10.1212504287013
20
29.9210078356702
30
0
41
1
10
10.1056624327025
20
29.9021630620273
30
0
0
SPLINE
5
203
100
AcDbEntity
8
1
62
256
6
ByLayer
370
18
48
1
60
0
100
AcDbSpline
70
4
71
3
72
22
73
18
40
0
40
0
40
0
40
0
40
0.250000000000003
40
0.250000000000003
40
0.375000000000006
40
0.375000000000006
40
0.500000000000009
40
0.500000000000009
40
0.625000000000012
40
0.625000000000012
40
0.750000000000015
40
0.750000000000015
40
0.812500000000013
40
0.812500000000013
40
0.875000000000011
40
0.875000000000011
40
1
40
1
40
1
40
1
41
1
10
13.8943375672974
20
29.9021630620273
30
0
41
1
10
13.8787554376954
20
29.9210007436156
30
0
41
1
10
13.8601100335811
20
29.9392944570177
30
0
41
1
10
13.8259330221577
20
29.9657546243621
30
0
41
1
10
13.8134955006472
20
29.974410098684
30
0
41
1
10
13.7860018849993
20
29.9913348558009
30
0
41
1
10
13.7708717219144
20
29.999643120936
30
0
41
1
10
13.7375398786375
20
30.0155620876989
30
0
41
1
10
13.7193918475232
20
30.0231650487542
30
0
41
1
10
13.6789995772479
20
30.0374279890017
30
0
41
1
10
13.6569061770773
20
30.044023293777
30
0
41
1
10
13.6205771060822
20
30.0525857608201
30
0
41
1
10
13.6079022559356
20
30.0552266396659
30
0
41
1
10
13.5811466609385
20
30.0599837661064
30
0
41
1
10
13.5670631760719
20
30.0620905930185
30
0
41
1
10
13.5238451158643
20
30.0672385509655
30
0
41
1
10
13.4927757288618
20
30.0691920745855
30
0
41
1
10
13.4613248654052
20
30.0691920745855
30
0
0
SPLINE
5
204
100
AcDbEntity
8
1
62
256
6
ByLayer
370
18
48
1
60
0
100
AcDbSpline
70
4
71
3
72
22
73
18
40
0
40
0
40
0
40
0
40
0.250000000000002
40
0.250000000000002
40
0.375000000000004
40
0.375000000000004
40
0.500000000000007
40
0.500000000000007
40
0.625000000000009
40
0.625000000000009
40
0.750000000000011
40
0.750000000000011
40
0.812500000000009
40
0.812500000000009
40
0.875000000000006
40
0.875000000000006
40
1
40
1
40
1
40
1
41
1
10
10.1056624327026
20
-29.9021630620273
30
0
41
1
10
10.1212445623046
20
-29.9210007436156
30
0
41
1
10
10.1398899664189
20
-29.9392944570177
30
0
41
1
10
10.1740669778423
20
-29.9657546243621
30
0
41
1
10
10.1865044993528
20
-29.974410098684
30
0
41
1
10
10.2139981150007
20
-29.9913348558009
30
0
41
1
10
10.2291282780855
20
-29.9996431209361
30
0
41
1
10
10.2624601213625
20
-30.0155620876989
30
0
41
1
10
10.2806081524768
20
-30.0231650487542
30
0
41
1
10
10.321000422752
20
-30.0374279890017
30
0
41
1
10
10.3430938229227
20
-30.044023293777
30
0
41
1
10
10.3794228939178
20
-30.0525857608201
30
0
41
1
10
10.3920977440644
20
-30.0552266396659
30
0
41
1
10
10.4188533390615
20
-30.0599837661064
30
0
41
1
10
10.4329368239281
20
-30.0620905930185
30
0
41
1
10
10.4761548841357
20
-30.0672385509655
30
0
41
1
10
10.5072242711382
20
-30.0691920745855
30
0
41
1
10
10.5386751345948
20
-30.0691920745855
30
0
0
SPLINE
5
205
100
AcDbEntity
8
1
62
256
6
ByLayer
370
18
48
1
60
0
100
AcDbSpline
70
4
71
3
72
28
73
24
40
0
40
0
40
0
40
0
40
0.125
40
0.125
40
0.25
40
0.25
40
0.375
40
0.375
40
0.4375
40
0.4375
40
0.5
40
0.5
40
0.625
40
0.625
40
0.75
40
0.75
40
0.8125
40
0.8125
40
0.84375
40
0.84375
40
0.875
40
0.875
40
1
40
1
40
1
40
1
41
1
10
66.9748107247506
20
41.0239797053979
30
0
41
1
10
66.5638998210467
20
40.8064136630125
30
0
41
1
10
66.1423330231617
20
40.5837833344517
30
0
41
1
10
65.2768706655848
20
40.1336015418863
30
0
41
1
10
64.8329796945662
20
39.9060344799026
30
0
41
1
10
63.920930056534
20
39.4512183994724
30
0
41
1
10
63.4527809953112
20
39.2239541622104
30
0
41
1
10
62.7300538180033
20
38.8876162388896
30
0
41
1
10
62.4852812256821
20
38.7760828495191
30
0
41
1
10
61.992225287456
20
38.5570420798775
30
0
41
1
10
61.7436164134086
20
38.4493747805104
30
0
41
1
10
60.9911555308974
20
38.1330986441919
30
0
41
1
10
60.480689662057
20
37.9311973066534
30
0
41
1
10
59.4395527854816
20
37.5519099808777
30
0
41
1
10
58.9088841206957
20
37.3745243118289
30
0
41
1
10
58.0953036962633
20
37.1322269308396
30
0
41
1
10
57.8211751003812
20
37.0554292152138
30
0
41
1
10
57.4052241912189
20
36.9468940958783
30
0
41
1
10
57.26562031568
20
36.9117885560993
30
0
41
1
10
56.9857396014093
20
36.8441505277964
30
0
41
1
10
56.8454575283713
20
36.8116128235499
30
0
41
1
10
56.1422993540948
20
36.6555139999358
30
0
41
1
10
55.5741713672805
20
36.5517841834332
30
0
41
1
10
55
20
36.4710896602134
30
0
0
SPLINE
5
206
100
AcDbEntity
8
1
62
256
6
ByLayer
370
18
48
1
60
0
100
AcDbSpline
70
4
71
3
72
8
73
4
40
0
40
0
40
0
40
0
40
1
40
1
40
1
40
1
41
1
10
68.4606036913929
20
33
30
0
41
1
10
68.4737942567757
20
33
30
0
41
1
10
68.4869259478244
20
32.999673986816
30
0
41
1
10
68.5
20
32.9990293679635
30
0
0
SPLINE
5
207
100
AcDbEntity
8
1
62
256
6
ByLayer
370
18
48
1
60
0
100
AcDbSpline
70
4
71
3
72
28
73
24
40
0
40
0
40
0
40
0
40
0.0003776008686603
40
0.0003776008686603
40
0.125330400760078
40
0.125330400760078
40
0.250283200651495
40
0.250283200651495
40
0.312759600597204
40
0.312759600597204
40
0.343997800570058
40
0.343997800570058
40
0.375236000542913
40
0.375236000542913
40
0.50018880043433
40
0.50018880043433
40
0.625141600325747
40
0.625141600325747
40
0.750094400217165
40
0.750094400217165
40
0.875047200108582
40
0.875047200108582
40
1
40
1
40
1
40
1
41
1
10
43.2500010718813
20
37.1000000886934
30
0
41
1
10
43.2500000751876
20
37.1000000062211
30
0
41
1
10
43.249998936386
20
37.09999991199
30
0
41
1
10
43.2500619636308
20
37.1000051273574
30
0
41
1
10
43.2739580601606
20
37.1019820416615
30
0
41
1
10
43.3678627397792
20
37.1097560140312
30
0
41
1
10
43.4378755468788
20
37.1155534132766
30
0
41
1
10
43.5775896843705
20
37.1271355020046
30
0
41
1
10
43.6299563003529
20
37.1314783324408
30
0
41
1
10
43.7173308289756
20
37.138728940163
30
0
41
1
10
43.7479272870453
20
37.1412686124027
30
0
41
1
10
43.812095982881
20
37.1465967072477
30
0
41
1
10
43.845719908296
20
37.1493894248366
30
0
41
1
10
44.0207180520658
20
37.1639295061357
30
0
41
1
10
44.1820287182508
20
37.1773479238055
30
0
41
1
10
44.5457578617057
20
37.2076646592331
30
0
41
1
10
44.7481808646378
20
37.2245632807596
30
0
41
1
10
45.1941439883052
20
37.2618830280679
30
0
41
1
10
45.4376795835119
20
37.2823036426632
30
0
41
1
10
45.9673758409514
20
37.3268462129987
30
0
41
1
10
46.2486865838333
20
37.3505607120709
30
0
41
1
10
46.8426581933502
20
37.4007915752035
30
0
41
1
10
47.1553768243795
20
37.4273126953547
30
0
41
1
10
47.4837846492538
20
37.4552628874158
30
0
0
SPLINE
5
208
100
AcDbEntity
8
1
62
256
6
ByLayer
370
18
48
1
60
0
100
AcDbSpline
70
4
71
3
72
8
73
4
40
0
40
0
40
0
40
0
40
1
40
1
40
1
40
1
41
1
10
73.3434062701551
20
43.5091183053412
30
0
41
1
10
73.2663069963239
20
43.5758737296973
30
0
41
1
10
73.2284694548314
20
43.6092210353433
30
0
41
1
10
73.2289551432556
20
43.608818835829
30
0
0
SPLINE
5
209
100
AcDbEntity
8
1
62
256
6
ByLayer
370
18
48
1
60
0
100
AcDbSpline
70
4
71
3
72
22
73
18
40
0
40
0
40
0
40
0
40
0.125
40
0.125
40
0.25
40
0.25
40
0.375
40
0.375
40
0.5
40
0.5
40
0.625
40
0.625
40
0.75
40
0.75
40
0.875
40
0.875
40
1
40
1
40
1
40
1
41
1
10
66.7408673744338
20
42.5811919777815
30
0
41
1
10
66.7144132461852
20
42.5774740925162
30
0
41
1
10
66.6884101671171
20
42.5735334477044
30
0
41
1
10
66.6372888755585
20
42.5652094746701
30
0
41
1
10
66.6119203738483
20
42.560778321672
30
0
41
1
10
66.5634358778195
20
42.551657277164
30
0
41
1
10
66.5404747215716
20
42.5470042648352
30
0
41
1
10
66.4971421064424
20
42.5374838295332
30
0
41
1
10
66.4766064813034
20
42.5325660892452
30
0
41
1
10
66.4400310694351
20
42.522893785383
30
0
41
1
10
66.4237815810508
20
42.5181012190847
30
0
41
1
10
66.3954905638898
20
42.5085710291814
30
0
41
1
10
66.3836251810925
20
42.5038744751197
30
0
41
1
10
66.36529333586
20
42.4949473469499
30
0
41
1
10
66.3586358498141
20
42.4906376076399
30
0
41
1
10
66.3507412474546
20
42.4824845944836
30
0
41
1
10
66.3495340735905
20
42.4787049754412
30
0
41
1
10
66.3510341286929
20
42.4752150513253
30
0
0
SPLINE
5
20A
100
AcDbEntity
8
1
62
256
6
ByLayer
370
18
48
1
60
0
100
AcDbSpline
70
4
71
3
72
16
73
12
40
0
40
0
40
0
40
0
40
0.289654878103314
40
0.289654878103314
40
0.434482317154973
40
0.434482317154973
40
0.579309756206631
40
0.579309756206631
40
0.868964634309944
40
0.868964634309944
40
1
40
1
40
1
40
1
41
1
10
68.5099816234372
20
38.4652935209165
30
0
41
1
10
68.442147513685
20
38.4986793602943
30
0
41
1
10
68.378977132549
20
38.537313769609
30
0
41
1
10
68.290060492145
20
38.6029354282503
30
0
41
1
10
68.2612854080056
20
38.6262138062868
30
0
41
1
10
68.2063750954285
20
38.6747792983947
30
0
41
1
10
68.1802326280501
20
38.7000450649548
30
0
41
1
10
68.1054069566218
20
38.7788861829413
30
0
41
1
10
68.0602804343734
20
38.8354413855037
30
0
41
1
10
68.0011977721976
20
38.9247065114997
30
0
41
1
10
67.9836217900036
20
38.9537198859196
30
0
41
1
10
67.9673126082422
20
38.9832934456006
30
0
0
SPLINE
5
20B
100
AcDbEntity
8
1
62
256
6
ByLayer
370
18
48
1
60
0
100
AcDbSpline
70
4
71
3
72
10
73
6
40
0
40
0
40
0
40
0
40
0.178397706971101
40
0.178397706971101
40
1
40
1
40
1
40
1
41
1
10
67.8164956672019
20
39.6931065441861
30
0
41
1
10
67.8178477046112
20
39.7089904876144
30
0
41
1
10
67.8195034289168
20
39.7248474447497
30
0
41
1
10
67.8304912605196
20
39.8134510071282
30
0
41
1
10
67.8458684855698
20
39.8857379979831
30
0
41
1
10
67.8683585273434
20
39.9580492955022
30
0
0
SPLINE
5
20C
100
AcDbEntity
8
1
62
256
6
ByLayer
370
18
48
1
60
0
100
AcDbSpline
70
4
71
3
72
22
73
18
40
0
40
0
40
0
40
0
40
0.125
40
0.125
40
0.25
40
0.25
40
0.375
40
0.375
40
0.5
40
0.5
40
0.625
40
0.625
40
0.75
40
0.75
40
0.875
40
0.875
40
1
40
1
40
1
40
1
41
1
10
68.8845391027795
20
32.8784384769251
30
0
41
1
10
68.8619697380091
20
32.8925413812622
30
0
41
1
10
68.8390695421462
20
32.9052875378404
30
0
41
1
10
68.7927945390153
20
32.928228090625
30
0
41
1
10
68.7691392776268
20
32.9385202473953
30
0
41
1
10
68.7231340783863
20
32.9560979828636
30
0
41
1
10
68.7008563096021
20
32.9633957115405
30
0
41
1
10
68.6580856189179
20
32.975561229856
30
0
41
1
10
68.6375072408971
20
32.9804249407835
30
0
41
1
10
68.6004166387783
20
32.9879151564525
30
0
41
1
10
68.5836314129027
20
32.9906263034978
30
0
41
1
10
68.5538558068748
20
32.9946885018676
30
0
41
1
10
68.541317206671
20
32.9959834857282
30
0
41
1
10
68.5209633732781
20
32.9977851151177
30
0
41
1
10
68.5130830585058
20
32.9982939825003
30
0
41
1
10
68.5026387347053
20
32.9989120236938
30
0
41
1
10
68.4999890097616
20
32.9990298566983
30
0
41
1
10
68.5000047457848
20
32.9990291569189
30
0
0
SPLINE
5
20D
100
AcDbEntity
8
1
62
256
6
ByLayer
370
18
48
1
60
0
100
AcDbSpline
70
4
71
3
72
29
73
25
40
0
40
0
40
0
40
0
40
0.125000000000001
40
0.125000000000001
40
0.187500000000001
40
0.187500000000001
40
0.218750000000001
40
0.218750000000001
40
0.250000000000001
40
0.250000000000001
40
0.375000000000001
40
0.375000000000001
40
0.500000000000001
40
0.500000000000001
40
0.562500000000001
40
0.593750000000001
40
0.593750000000001
40
0.625000000000001
40
0.625000000000001
40
0.750000000000001
40
0.750000000000001
40
0.875
40
0.875
40
1
40
1
40
1
40
1
41
1
10
48.9708888756895
20
39.7254511224641
30
0
41
1
10
49.1930032562938
20
39.6915033827878
30
0
41
1
10
49.4328610554539
20
39.6575940216662
30
0
41
1
10
49.817051479688
20
39.609365739177
30
0
41
1
10
49.9492024596565
20
39.5937279486271
30
0
41
1
10
50.1534419762133
20
39.5712531313181
30
0
41
1
10
50.2225249674666
20
39.5639252435302
30
0
41
1
10
50.3626888216098
20
39.5496522619126
30
0
41
1
10
50.4338786167654
20
39.5426976519928
30
0
41
1
10
50.7925905880367
20
39.5092244299811
30
0
41
1
10
51.0894620555489
20
39.4864840169117
30
0
41
1
10
51.7012668478347
20
39.451625028027
30
0
41
1
10
52.0162123351217
20
39.4395022160918
30
0
41
1
10
52.5016618773825
20
39.431124602216
30
0
41
1
10
52.7476547853982
20
39.4293870621123
30
0
41
1
10
52.9985361108085
20
39.4316734511469
30
0
41
1
10
53.1668806745043
20
39.4341308624827
30
0
41
1
10
53.2517467148582
20
39.4358303770894
30
0
41
1
10
53.6767299724458
20
39.4467010218135
30
0
41
1
10
54.0182316856383
20
39.4629532053486
30
0
41
1
10
54.7038818230702
20
39.5110229096149
30
0
41
1
10
55.048031909943
20
39.5428395366744
30
0
41
1
10
55.7388027327316
20
39.6222780969035
30
0
41
1
10
56.0854238136842
20
39.6698988478326
30
0
41
1
10
56.4332783255612
20
39.7254511224641
30
0
0
SPLINE
5
20E
100
AcDbEntity
8
1
62
256
6
ByLayer
370
18
48
1
60
0
100
AcDbSpline
70
4
71
3
72
46
73
42
40
0
40
0
40
0
40
0
40
0.125012196497123
40
0.125012196497123
40
0.156265245621403
40
0.156265245621403
40
0.187518294745684
40
0.187518294745684
40
0.250024392994245
40
0.250024392994245
40
0.375036589491367
40
0.375036589491367
40
0.437542687739928
40
0.437542687739928
40
0.468795736864209
40
0.468795736864209
40
0.500048785988489
40
0.500048785988489
40
0.56255488423705
40
0.56255488423705
40
0.625060982485611
40
0.625060982485611
40
0.656314031609891
40
0.656314031609891
40
0.687567080734171
40
0.687567080734171
40
0.750073178982731
40
0.750073178982731
40
0.812579277231291
40
0.812579277231291
40
0.828205801793431
40
0.828205801793431
40
0.843832326355571
40
0.843832326355571
40
0.875085375479851
40
0.875085375479851
40
0.937591473728411
40
0.937591473728411
40
0.968844522852691
40
0.968844522852691
40
1
40
1
40
1
40
1
41
1
10
56.4332783255613
20
39.7254511224641
30
0
41
1
10
56.9713575925801
20
39.8058870789205
30
0
41
1
10
57.5032824907244
20
39.9025937353165
30
0
41
1
10
58.1611229756201
20
40.0413950212746
30
0
41
1
10
58.2923364313906
20
40.070050355052
30
0
41
1
10
58.5540641859667
20
40.1290877400187
30
0
41
1
10
58.6847105006645
20
40.1595015671101
30
0
41
1
10
59.0747400625493
20
40.2530267364313
30
0
41
1
10
59.3305606349414
20
40.3180132948228
30
0
41
1
10
60.0860411736005
20
40.5195993643388
30
0
41
1
10
60.5738272804653
20
40.6628243973761
30
0
41
1
10
61.2822512198055
20
40.8859997124191
30
0
41
1
10
61.5144910347917
20
40.9617829717133
30
0
41
1
10
61.8567953913681
20
41.0769111835243
30
0
41
1
10
61.9700053114993
20
41.1155707068693
30
0
41
1
10
62.1938140809187
20
41.1930792497797
30
0
41
1
10
62.3040124679264
20
41.2317881295721
30
0
41
1
10
62.6294384835975
20
41.347574094349
30
0
41
1
10
62.8395151478669
20
41.4243148368496
30
0
41
1
10
63.2452461071622
20
41.5757311875344
30
0
41
1
10
63.4409072398297
20
41.6504109466628
30
0
41
1
10
63.7225868745437
20
41.7598721916483
30
0
41
1
10
63.8145056672042
20
41.7959310541276
30
0
41
1
10
63.994142195482
20
41.8669930277465
30
0
41
1
10
64.0819601860613
20
41.9020365315911
30
0
41
1
10
64.337985610764
20
42.0049845880708
30
0
41
1
10
64.4967528410751
20
42.0698907640025
30
0
41
1
10
64.7882819965963
20
42.1904383066221
30
0
41
1
10
64.9210642839181
20
42.2460895319984
30
0
41
1
10
65.0685046939897
20
42.3084058640898
30
0
41
1
10
65.0970612160826
20
42.3205049744049
30
0
41
1
10
65.1522324933969
20
42.3439301008221
30
0
41
1
10
65.1788915603974
20
42.3552750219857
30
0
41
1
10
65.2554973304069
20
42.3879380737184
30
0
41
1
10
65.3018956594724
20
42.4078080382461
30
0
41
1
10
65.4267268637938
20
42.4614189555356
30
0
41
1
10
65.4908538758173
20
42.4891774019584
30
0
41
1
10
65.5560790225566
20
42.5174618220327
30
0
41
1
10
65.5726529645117
20
42.5246635691129
30
0
41
1
10
65.5948094143273
20
42.5342952513122
30
0
41
1
10
65.60027377871
20
42.5366736189638
30
0
41
1
10
65.6002960126161
20
42.5366832984751
30
0
0
SPLINE
5
20F
100
AcDbEntity
8
1
62
256
6
ByLayer
370
18
48
1
60
0
100
AcDbSpline
70
4
71
3
72
20
73
16
40
0
40
0
40
0
40
0
40
0.12497382703189
40
0.12497382703189
40
0.249977566027334
40
0.249977566027334
40
0.499985044018222
40
0.499985044018222
40
0.562486913515945
40
0.562486913515945
40
0.624988783013667
40
0.624988783013667
40
0.749992522009111
40
0.749992522009111
40
1
40
1
40
1
40
1
41
1
10
47.4411776860927
20
39.9845850355559
30
0
41
1
10
47.4410297861412
20
39.9846138034763
30
0
41
1
10
47.4495099749157
20
39.9829605096584
30
0
41
1
10
47.4843410794046
20
39.9762136107591
30
0
41
1
10
47.5104288199018
20
39.9711716562944
30
0
41
1
10
47.6133505734533
20
39.9514907611739
30
0
41
1
10
47.7147464149501
20
39.9322786075976
30
0
41
1
10
47.8807525263151
20
39.9021584099843
30
0
41
1
10
47.915928267672
20
39.8958298498863
30
0
41
1
10
47.9902307777581
20
39.882605116815
30
0
41
1
10
48.0291910486026
20
39.8757388596293
30
0
41
1
10
48.1509369897167
20
39.8545384580084
30
0
41
1
10
48.2387391247198
20
39.8395745147064
30
0
41
1
10
48.5209707650874
20
39.7929060180598
30
0
41
1
10
48.7341183879559
20
39.7594180507643
30
0
41
1
10
48.9708888756895
20
39.7254511224641
30
0
0
SPLINE
5
210
100
AcDbEntity
8
1
62
256
6
ByLayer
370
18
48
1
60
0
100
AcDbSpline
70
4
71
3
72
26
73
22
40
0
40
0
40
0
40
0
40
0.0624234038080253
40
0.0624234038080253
40
0.124928510220824
40
0.124928510220824
40
0.249938723046421
40
0.249938723046421
40
0.374948935872017
40
0.374948935872017
40
0.499959148697614
40
0.499959148697614
40
0.562464255110413
40
0.562464255110413
40
0.624969361523211
40
0.624969361523211
40
0.749979574348807
40
0.749979574348807
40
0.874989787174404
40
0.874989787174404
40
1
40
1
40
1
40
1
41
1
10
45.9209303799836
20
39.7709266833751
30
0
41
1
10
45.9208477732523
20
39.771015189854
30
0
41
1
10
45.9236590041912
20
39.7680061711752
30
0
41
1
10
45.9350109036511
20
39.7558233679998
30
0
41
1
10
45.9435433588959
20
39.74665828127
30
0
41
1
10
45.977414729565
20
39.7101130612686
30
0
41
1
10
46.0110440563407
20
39.6736993193933
30
0
41
1
10
46.098522701139
20
39.5772203011426
30
0
41
1
10
46.1523796763067
20
39.5171560593536
30
0
41
1
10
46.277829658635
20
39.3732890776632
30
0
41
1
10
46.3494370147451
20
39.2894899357611
30
0
41
1
10
46.4675862597888
20
39.1454714426932
30
0
41
1
10
46.5087504256843
20
39.0944069572186
30
0
41
1
10
46.5940782674231
20
38.9860058791082
30
0
41
1
10
46.6381600076009
20
38.9287690664108
30
0
41
1
10
46.7730151766689
20
38.7485633249658
30
0
41
1
10
46.866680304754
20
38.616863001559
30
0
41
1
10
47.0542815163183
20
38.3292652096135
30
0
41
1
10
47.1482573394347
20
38.1733800402895
30
0
41
1
10
47.3266280534515
20
37.8351420300542
30
0
41
1
10
47.4110757164487
20
37.6528089554641
30
0
41
1
10
47.4837846492538
20
37.4552628874158
30
0
0
SPLINE
5
211
100
AcDbEntity
8
1
62
256
6
ByLayer
370
18
48
1
60
0
100
AcDbSpline
70
4
71
3
72
27
73
23
40
0
40
0
40
0
40
0
40
0.125
40
0.125
40
0.25
40
0.25
40
0.375
40
0.375
40
0.40625
40
0.40625
40
0.4375
40
0.5
40
0.5
40
0.625
40
0.625
40
0.75
40
0.75
40
0.8125
40
0.8125
40
0.875
40
0.875
40
1
40
1
40
1
40
1
41
1
10
55
20
36.4710896602134
30
0
41
1
10
54.6548297696467
20
36.4225791479251
30
0
41
1
10
54.3115360563525
20
36.3882678845492
30
0
41
1
10
53.6286336099414
20
36.3468862511931
30
0
41
1
10
53.2890250951738
20
36.3398140225735
30
0
41
1
10
52.6135285666253
20
36.3513190090888
30
0
41
1
10
52.2776404169065
20
36.3698934097982
30
0
41
1
10
51.8601909732278
20
36.4079223096597
30
0
41
1
10
51.7766937065331
20
36.416282691121
30
0
41
1
10
51.6107450277947
20
36.4343591317831
30
0
41
1
10
51.3633418267271
20
36.4635035057495
30
0
41
1
10
51.1203831116673
20
36.498419471989
30
0
41
1
10
50.6401324799069
20
36.5751555373904
30
0
41
1
10
50.3275071732854
20
36.6355023709111
30
0
41
1
10
49.7163239492536
20
36.7707818308455
30
0
41
1
10
49.4177675904839
20
36.8457182071516
30
0
41
1
10
48.9800464481188
20
36.966574925936
30
0
41
1
10
48.8355452276911
20
37.0083613014123
30
0
41
1
10
48.5519124497082
20
37.0937528444923
30
0
41
1
10
48.4126465997365
20
37.1373868478796
30
0
41
1
10
48.0022034742926
20
37.2704857863673
30
0
41
1
10
47.7383599962535
20
37.3621331946087
30
0
41
1
10
47.4837846492538
20
37.4552628874158
30
0
0
SPLINE
5
212
100
AcDbEntity
8
1
62
256
6
ByLayer
370
18
48
1
60
0
100
AcDbSpline
70
4
71
3
72
12
73
8
40
0
40
0
40
0
40
0
40
0.5
40
0.5
40
0.75
40
0.75
40
1
40
1
40
1
40
1
41
1
10
68.5
20
37.0639618598494
30
0
41
1
10
68.5
20
37.2039503345926
30
0
41
1
10
68.4854773296949
20
37.3401715799251
30
0
41
1
10
68.4438508105347
20
37.5394059001243
30
0
41
1
10
68.4265214238129
20
37.6052188225297
30
0
41
1
10
68.3862040136085
20
37.7323018295558
30
0
41
1
10
68.3631731448195
20
37.7939120342171
30
0
41
1
10
68.3374553396176
20
37.8537452952991
30
0
0
SPLINE
5
213
100
AcDbEntity
8
1
62
256
6
ByLayer
370
18
48
1
60
0
100
AcDbSpline
70
4
71
3
72
18
73
14
40
0
40
0
40
0
40
0
40
0.125
40
0.125
40
0.25
40
0.25
40
0.375
40
0.375
40
0.5
40
0.5
40
0.75
40
0.75
40
1
40
1
40
1
40
1
41
1
10
74.1103021294389
20
38.513514998233
30
0
41
1
10
74.1013989225157
20
38.519078339373
30
0
41
1
10
74.0930291767601
20
38.5253545434445
30
0
41
1
10
74.0773572625698
20
38.5393332619854
30
0
41
1
10
74.0700695435369
20
38.5470592154965
30
0
41
1
10
74.0571892119633
20
38.5632304808379
30
0
41
1
10
74.0514999569695
20
38.5717543550592
30
0
41
1
10
74.0415794333586
20
38.589648090467
30
0
41
1
10
74.0373476973263
20
38.5990735341495
30
0
41
1
10
74.0272906113336
20
38.6274056610204
30
0
41
1
10
74.0238061067209
20
38.6469595038743
30
0
41
1
10
74.0229569090071
20
38.685750284283
30
0
41
1
10
74.0255294035549
20
38.704480836422
30
0
41
1
10
74.0308403368501
20
38.7225562300308
30
0
0
SPLINE
5
214
100
AcDbEntity
8
1
62
256
6
ByLayer
370
18
48
1
60
0
100
AcDbSpline
70
4
71
3
72
18
73
14
40
0
40
0
40
0
40
0
40
0.25000000000002
40
0.25000000000002
40
0.50000000000004
40
0.50000000000004
40
0.62500000000003
40
0.62500000000003
40
0.75000000000002
40
0.75000000000002
40
0.87500000000001
40
0.87500000000001
40
1
40
1
40
1
40
1
41
1
10
74.3330209011529
20
38.5337328566553
30
0
41
1
10
74.3191381873365
20
38.5210677870004
30
0
41
1
10
74.3033568385042
20
38.5104863750886
30
0
41
1
10
74.268067266619
20
38.4942373134475
30
0
41
1
10
74.2490574063136
20
38.4888164167486
30
0
41
1
10
74.21898001599
20
38.485434932627
30
0
41
1
10
74.2088783054359
20
38.4851242511158
30
0
41
1
10
74.1885256204276
20
38.4861857069137
30
0
41
1
10
74.1781725301616
20
38.4875849952198
30
0
41
1
10
74.157919049259
20
38.4921045181674
30
0
41
1
10
74.1480167792872
20
38.4952022218689
30
0
41
1
10
74.1286724151095
20
38.5031086417925
30
0
41
1
10
74.1191739141859
20
38.5079712918479
30
0
41
1
10
74.1103021294389
20
38.513514998233
30
0
0
SPLINE
5
215
100
AcDbEntity
8
1
62
256
6
ByLayer
370
18
48
1
60
0
100
AcDbSpline
70
4
71
3
72
22
73
18
40
0
40
0
40
0
40
0
40
0.125
40
0.125
40
0.25
40
0.25
40
0.375
40
0.375
40
0.5
40
0.5
40
0.625
40
0.625
40
0.75
40
0.75
40
0.875
40
0.875
40
1
40
1
40
1
40
1
41
1
10
74.3330209011529
20
38.5337328566553
30
0
41
1
10
74.3520151008629
20
38.5510610869673
30
0
41
1
10
74.3728593336874
20
38.5668730969878
30
0
41
1
10
74.4174395771691
20
38.5944984916746
30
0
41
1
10
74.4412011249755
20
38.6063868630075
30
0
41
1
10
74.4922450654453
20
38.6259035809861
30
0
41
1
10
74.5193700584581
20
38.633392796883
30
0
41
1
10
74.5750499608895
20
38.6427894448872
30
0
41
1
10
74.6042181788416
20
38.6447316205174
30
0
41
1
10
74.6612322343531
20
38.6426644278951
30
0
41
1
10
74.6896926334068
20
38.6387138324787
30
0
41
1
10
74.744940709364
20
38.62525487877
30
0
41
1
10
74.7709903212382
20
38.6159914184712
30
0
41
1
10
74.820442575054
20
38.5929413708405
30
0
41
1
10
74.8437151617409
20
38.5791370297228
30
0
41
1
10
74.8860706226961
20
38.5484750501936
30
0
41
1
10
74.9054407748524
20
38.5314853636394
30
0
41
1
10
74.9231521929692
20
38.5128715449897
30
0
0
SPLINE
5
216
100
AcDbEntity
8
1
62
256
6
ByLayer
370
18
48
1
60
0
100
AcDbSpline
70
4
71
3
72
14
73
10
40
0
40
0
40
0
40
0
40
0.25
40
0.25
40
0.5
40
0.5
40
0.75
40
0.75
40
1
40
1
40
1
40
1
41
1
10
75.3076094469139
20
39.0190761147178
30
0
41
1
10
75.3232056732334
20
39.0406739089355
30
0
41
1
10
75.3408036302453
20
39.0606595776254
30
0
41
1
10
75.3782411556177
20
39.0961224966375
30
0
41
1
10
75.3981098080024
20
39.1117230766517
30
0
41
1
10
75.4400446140492
20
39.1390938979661
30
0
41
1
10
75.4617949189569
20
39.150622659988
30
0
41
1
10
75.5058976342542
20
39.1694770489633
30
0
41
1
10
75.5283997635516
20
39.176893651782
30
0
41
1
10
75.5513887017891
20
39.1824027259656
30
0
0
SPLINE
5
217
100
AcDbEntity
8
1
62
256
6
ByLayer
370
18
48
1
60
0
100
AcDbSpline
70
4
71
3
72
18
73
14
40
0
40
0
40
0
40
0
40
0.125
40
0.125
40
0.25
40
0.25
40
0.375
40
0.375
40
0.5
40
0.5
40
0.75
40
0.75
40
1
40
1
40
1
40
1
41
1
10
75.6931686842319
20
39.3560112798507
30
0
41
1
10
75.6928101815715
20
39.345486205257
30
0
41
1
10
75.6915621259084
20
39.335069724242
30
0
41
1
10
75.6872890373401
20
39.3144538741904
30
0
41
1
10
75.6842338499857
20
39.3042462519169
30
0
41
1
10
75.6766447059914
20
39.2849499295442
30
0
41
1
10
75.6720916107572
20
39.275737722247
30
0
41
1
10
75.6615188536446
20
39.2581611807929
30
0
41
1
10
75.6554483854311
20
39.2497646056673
30
0
41
1
10
75.6358627309866
20
39.226844795594
30
0
41
1
10
75.6206166804865
20
39.2140426943089
30
0
41
1
10
75.5873223896575
20
39.1939195764141
30
0
41
1
10
75.5697549283805
20
39.1868040125199
30
0
41
1
10
75.5513887017891
20
39.1824027259656
30
0
0
SPLINE
5
218
100
AcDbEntity
8
1
62
256
6
ByLayer
370
18
48
1
60
0
100
AcDbSpline
70
4
71
3
72
18
73
14
40
0
40
0
40
0
40
0
40
0.250000000000003
40
0.250000000000003
40
0.500000000000006
40
0.500000000000006
40
0.625000000000005
40
0.625000000000005
40
0.750000000000003
40
0.750000000000003
40
0.875000000000002
40
0.875000000000002
40
1
40
1
40
1
40
1
41
1
10
75.5641433528631
20
39.5386718309781
30
0
41
1
10
75.5820580692221
20
39.5329968840434
30
0
41
1
10
75.5991057399936
20
39.524643877648
30
0
41
1
10
75.6308557506541
20
39.5022262995475
30
0
41
1
10
75.6450579247444
20
39.4884960165991
30
0
41
1
10
75.6630538761685
20
39.4641454351944
30
0
41
1
10
75.668381822813
20
39.4555555910754
30
0
41
1
10
75.6776537880373
20
39.4374086837731
30
0
41
1
10
75.6816258424095
20
39.4277500881258
30
0
41
1
10
75.6878579249223
20
39.4079492544246
30
0
41
1
10
75.6901348395545
20
39.3978260915379
30
0
41
1
10
75.6929771587522
20
39.3771272484848
30
0
41
1
10
75.6935249006278
20
39.3664692333105
30
0
41
1
10
75.6931686842319
20
39.3560112798507
30
0
0
SPLINE
5
219
100
AcDbEntity
8
1
62
256
6
ByLayer
370
18
48
1
60
0
100
AcDbSpline
70
4
71
3
72
22
73
18
40
0
40
0
40
0
40
0
40
0.125
40
0.125
40
0.25
40
0.25
40
0.375
40
0.375
40
0.5
40
0.5
40
0.625
40
0.625
40
0.75
40
0.75
40
0.875
40
0.875
40
1
40
1
40
1
40
1
41
1
10
75.5641433528631
20
39.5386718309781
30
0
41
1
10
75.5396328910487
20
39.5464361498405
30
0
41
1
10
75.5155084752421
20
39.5565610862244
30
0
41
1
10
75.4692727967709
20
39.5813163569337
30
0
41
1
10
75.4470838441925
20
39.5959312444341
30
0
41
1
10
75.4046303686102
20
39.6303418186152
30
0
41
1
10
75.3845650803356
20
39.6500709419467
30
0
41
1
10
75.348550069133
20
39.6935619421072
30
0
41
1
10
75.3322631514855
20
39.7178373103866
30
0
41
1
10
75.305503124768
20
39.768223590889
30
0
41
1
10
75.2946714120488
20
39.7948370123634
30
0
41
1
10
75.2786563460993
20
39.8493990248761
30
0
41
1
10
75.2736306062242
20
39.8765860796285
30
0
41
1
10
75.2688197773098
20
39.9309338917178
30
0
41
1
10
75.2691151798599
20
39.9579909864236
30
0
41
1
10
75.2744468773232
20
40.0100074767436
30
0
41
1
10
75.2794536189665
20
40.0352816639655
30
0
41
1
10
75.2866967989905
20
40.059933325479
30
0
0
SPLINE
5
21A
100
AcDbEntity
8
1
62
256
6
ByLayer
370
18
48
1
60
0
100
AcDbSpline
70
4
71
3
72
18
73
14
40
0
40
0
40
0
40
0
40
0.125000000000001
40
0.125000000000001
40
0.250000000000001
40
0.250000000000001
40
0.375000000000002
40
0.375000000000002
40
0.500000000000002
40
0.500000000000002
40
0.750000000000001
40
0.750000000000001
40
1
40
1
40
1
40
1
41
1
10
75.2072350064017
20
40.2689745572768
30
0
41
1
10
75.2161382133249
20
40.2634112161368
30
0
41
1
10
75.2245079590805
20
40.2571350120654
30
0
41
1
10
75.2401798732708
20
40.2431562935244
30
0
41
1
10
75.2474675923037
20
40.2354303400133
30
0
41
1
10
75.2603479238773
20
40.2192590746719
30
0
41
1
10
75.2660371788712
20
40.2107352004506
30
0
41
1
10
75.2759577024821
20
40.1928414650428
30
0
41
1
10
75.2801894385143
20
40.1834160213603
30
0
41
1
10
75.2902465245071
20
40.1550838944894
30
0
41
1
10
75.2937310291197
20
40.1355300516355
30
0
41
1
10
75.2945802268335
20
40.0967392712268
30
0
41
1
10
75.2920077322857
20
40.0780087190878
30
0
41
1
10
75.2866967989905
20
40.059933325479
30
0
0
SPLINE
5
21B
100
AcDbEntity
8
1
62
256
6
ByLayer
370
18
48
1
60
0
100
AcDbSpline
70
4
71
3
72
18
73
14
40
0
40
0
40
0
40
0
40
0.250000000000001
40
0.250000000000001
40
0.500000000000003
40
0.500000000000003
40
0.625000000000002
40
0.625000000000002
40
0.750000000000001
40
0.750000000000001
40
0.875000000000001
40
0.875000000000001
40
1
40
1
40
1
40
1
41
1
10
74.9845162346877
20
40.2487566988545
30
0
41
1
10
74.9983989485041
20
40.2614217685094
30
0
41
1
10
75.0141802973364
20
40.2720031804212
30
0
41
1
10
75.0494698692216
20
40.2882522420623
30
0
41
1
10
75.068479729527
20
40.2936731387612
30
0
41
1
10
75.0985571198506
20
40.2970546228828
30
0
41
1
10
75.1086588304047
20
40.297365304394
30
0
41
1
10
75.129011515413
20
40.2963038485961
30
0
41
1
10
75.139364605679
20
40.29490456029
30
0
41
1
10
75.1596180865816
20
40.2903850373424
30
0
41
1
10
75.1695203565534
20
40.2872873336409
30
0
41
1
10
75.1888647207312
20
40.2793809137173
30
0
41
1
10
75.1983632216547
20
40.2745182636619
30
0
41
1
10
75.2072350064017
20
40.2689745572768
30
0
0
SPLINE
5
21C
100
AcDbEntity
8
1
62
256
6
ByLayer
370
18
48
1
60
0
100
AcDbSpline
70
4
71
3
72
22
73
18
40
0
40
0
40
0
40
0
40
0.125
40
0.125
40
0.25
40
0.25
40
0.375
40
0.375
40
0.5
40
0.5
40
0.625
40
0.625
40
0.75
40
0.75
40
0.875
40
0.875
40
1
40
1
40
1
40
1
41
1
10
74.9845162346877
20
40.2487566988545
30
0
41
1
10
74.9655220349777
20
40.2314284685425
30
0
41
1
10
74.9446778021532
20
40.215616458522
30
0
41
1
10
74.9000975586716
20
40.1879910638351
30
0
41
1
10
74.8763360108652
20
40.1761026925023
30
0
41
1
10
74.8252920703953
20
40.1565859745236
30
0
41
1
10
74.7981670773826
20
40.1490967586268
30
0
41
1
10
74.7424871749511
20
40.1397001106226
30
0
41
1
10
74.713318956999
20
40.1377579349924
30
0
41
1
10
74.6563049014875
20
40.1398251276147
30
0
41
1
10
74.6278445024339
20
40.1437757230311
30
0
41
1
10
74.5725964264766
20
40.1572346767398
30
0
41
1
10
74.5465468146024
20
40.1664981370386
30
0
41
1
10
74.4970945607867
20
40.1895481846693
30
0
41
1
10
74.4738219740997
20
40.203352525787
30
0
41
1
10
74.4314665131445
20
40.2340145053161
30
0
41
1
10
74.4120963609882
20
40.2510041918704
30
0
41
1
10
74.3943849428714
20
40.26961801052
30
0
0
SPLINE
5
21D
100
AcDbEntity
8
1
62
256
6
ByLayer
370
18
48
1
60
0
100
AcDbSpline
70
4
71
3
72
18
73
14
40
0
40
0
40
0
40
0
40
0.125
40
0.125
40
0.25
40
0.25
40
0.375
40
0.375
40
0.5
40
0.5
40
0.75
40
0.75
40
1
40
1
40
1
40
1
41
1
10
74.1736497445475
20
40.3055120949053
30
0
41
1
10
74.1829235642797
20
40.3104328707356
30
0
41
1
10
74.1925473124895
20
40.3145349265856
30
0
41
1
10
74.2124948458036
20
40.3211007341537
30
0
41
1
10
74.2228316659755
20
40.3235402366971
30
0
41
1
10
74.2432791760729
20
40.3265917554109
30
0
41
1
10
74.2535062628781
20
40.3272480843567
30
0
41
1
10
74.2739626525966
20
40.3268750909979
30
0
41
1
10
74.2842402868198
20
40.3258183415524
30
0
41
1
10
74.3138004637138
20
40.3203366101415
30
0
41
1
10
74.3324710612348
20
40.3135613272779
30
0
41
1
10
74.3664734147426
20
40.2948721978344
30
0
41
1
10
74.3813983537836
20
40.2832662690934
30
0
41
1
10
74.3943849428714
20
40.26961801052
30
0
0
SPLINE
5
21E
100
AcDbEntity
8
1
62
256
6
ByLayer
370
18
48
1
60
0
100
AcDbSpline
70
4
71
3
72
18
73
14
40
0
40
0
40
0
40
0
40
0.250000000000012
40
0.250000000000012
40
0.500000000000025
40
0.500000000000025
40
0.625000000000018
40
0.625000000000018
40
0.750000000000012
40
0.750000000000012
40
0.875000000000006
40
0.875000000000006
40
1
40
1
40
1
40
1
41
1
10
74.079763663424
20
40.1019761099424
30
0
41
1
10
74.0756785523099
20
40.1203667614031
30
0
41
1
10
74.074358943925
20
40.1393526225863
30
0
41
1
10
74.0778686818296
20
40.1781593584879
30
0
41
1
10
74.0826605269186
20
40.1973807508687
30
0
41
1
10
74.094777346032
20
40.2252137823229
30
0
41
1
10
74.0995654652525
20
40.2341463381093
30
0
41
1
10
74.1106810664438
20
40.2512943441058
30
0
41
1
10
74.1170832995384
20
40.2595851582581
30
0
41
1
10
74.1311636536385
20
40.2749122554121
30
0
41
1
10
74.1388203820811
20
40.2819582851977
30
0
41
1
10
74.1553914745976
20
40.2947882130826
30
0
41
1
10
74.1643817520741
20
40.3005944110733
30
0
41
1
10
74.1736497445475
20
40.3055120949053
30
0
0
SPLINE
5
21F
100
AcDbEntity
8
1
62
256
6
ByLayer
370
18
48
1
60
0
100
AcDbSpline
70
4
71
3
72
12
73
8
40
0
40
0
40
0
40
0
40
0.5
40
0.5
40
0.75
40
0.75
40
1
40
1
40
1
40
1
41
1
10
74.0797636634241
20
40.1019761099422
30
0
41
1
10
74.0900209912853
20
40.0557989225064
30
0
41
1
10
74.092719464932
20
40.007055781442
30
0
41
1
10
74.0833688160909
20
39.932940400221
30
0
41
1
10
74.0779111840778
20
39.9077215860895
30
0
41
1
10
74.062416963121
20
39.8587269669121
30
0
41
1
10
74.0523946308067
20
39.8347326988532
30
0
41
1
10
74.0398324691554
20
39.8112710931753
30
0
0
SPLINE
5
220
100
AcDbEntity
8
1
62
256
6
ByLayer
370
18
48
1
60
0
100
AcDbSpline
70
4
71
3
72
12
73
8
40
0
40
0
40
0
40
0
40
0.499999999999996
40
0.499999999999996
40
0.749999999999998
40
0.749999999999998
40
1
40
1
40
1
40
1
41
1
10
75.2377734724166
20
38.6805134455676
30
0
41
1
10
75.2275161445553
20
38.7266906330034
30
0
41
1
10
75.2248176709086
20
38.7754337740685
30
0
41
1
10
75.2341683197498
20
38.8495491552889
30
0
41
1
10
75.2396259517629
20
38.8747679694206
30
0
41
1
10
75.25512017272
20
38.9237625885987
30
0
41
1
10
75.2651425050344
20
38.9477568566574
30
0
41
1
10
75.2777046666853
20
38.9712184623345
30
0
0
SPLINE
5
221
100
AcDbEntity
8
1
62
256
6
ByLayer
370
18
48
1
60
0
100
AcDbSpline
70
4
71
3
72
18
73
14
40
0
40
0
40
0
40
0
40
0.249999999999995
40
0.249999999999995
40
0.49999999999999
40
0.49999999999999
40
0.624999999999992
40
0.624999999999992
40
0.749999999999995
40
0.749999999999995
40
0.874999999999997
40
0.874999999999997
40
1
40
1
40
1
40
1
41
1
10
75.2377734724166
20
38.6805134455676
30
0
41
1
10
75.2418585835307
20
38.6621227941069
30
0
41
1
10
75.2431781919157
20
38.6431369329236
30
0
41
1
10
75.239668454011
20
38.604330197022
30
0
41
1
10
75.2348766089221
20
38.5851088046412
30
0
41
1
10
75.2227597898087
20
38.557275773187
30
0
41
1
10
75.2179716705882
20
38.5483432174005
30
0
41
1
10
75.2068560693969
20
38.531195211404
30
0
41
1
10
75.2004538363023
20
38.5229043972517
30
0
41
1
10
75.1863734822022
20
38.5075773000977
30
0
41
1
10
75.1787167537596
20
38.5005312703121
30
0
41
1
10
75.162145661243
20
38.4877013424272
30
0
41
1
10
75.1531553837665
20
38.4818951444366
30
0
41
1
10
75.1438873912931
20
38.4769774606045
30
0
0
SPLINE
5
222
100
AcDbEntity
8
1
62
256
6
ByLayer
370
18
48
1
60
0
100
AcDbSpline
70
4
71
3
72
14
73
10
40
0
40
0
40
0
40
0
40
0.25
40
0.25
40
0.5
40
0.5
40
0.75
40
0.75
40
1
40
1
40
1
40
1
41
1
10
74.0099276889267
20
39.763413440792
30
0
41
1
10
73.9943314626074
20
39.7418156465745
30
0
41
1
10
73.9767335055955
20
39.7218299778846
30
0
41
1
10
73.9392959802231
20
39.6863670588724
30
0
41
1
10
73.9194273278384
20
39.6707664788581
30
0
41
1
10
73.8774925217915
20
39.6433956575437
30
0
41
1
10
73.8557422168838
20
39.6318668955218
30
0
41
1
10
73.8116395015865
20
39.6130125065465
30
0
41
1
10
73.7891373722891
20
39.6055959037278
30
0
41
1
10
73.7661484340516
20
39.6000868295443
30
0
0
SPLINE
5
223
100
AcDbEntity
8
1
62
256
6
ByLayer
370
18
48
1
60
0
100
AcDbSpline
70
4
71
3
72
18
73
14
40
0
40
0
40
0
40
0
40
0.125
40
0.125
40
0.249999999999999
40
0.249999999999999
40
0.374999999999999
40
0.374999999999999
40
0.499999999999998
40
0.499999999999998
40
0.749999999999999
40
0.749999999999999
40
1
40
1
40
1
40
1
41
1
10
73.6243684516087
20
39.4264782756591
30
0
41
1
10
73.6247269542692
20
39.4370033502528
30
0
41
1
10
73.6259750099322
20
39.4474198312678
30
0
41
1
10
73.6302480985006
20
39.4680356813194
30
0
41
1
10
73.6333032858549
20
39.4782433035929
30
0
41
1
10
73.6408924298492
20
39.4975396259656
30
0
41
1
10
73.6454455250834
20
39.5067518332627
30
0
41
1
10
73.656018282196
20
39.5243283747168
30
0
41
1
10
73.6620887504096
20
39.5327249498425
30
0
41
1
10
73.681674404854
20
39.5556447599158
30
0
41
1
10
73.6969204553542
20
39.5684468612009
30
0
41
1
10
73.7302147461831
20
39.5885699790957
30
0
41
1
10
73.7477822074601
20
39.5956855429899
30
0
41
1
10
73.7661484340516
20
39.6000868295443
30
0
0
SPLINE
5
224
100
AcDbEntity
8
1
62
256
6
ByLayer
370
18
48
1
60
0
100
AcDbSpline
70
4
71
3
72
18
73
14
40
0
40
0
40
0
40
0
40
0.249999999999989
40
0.249999999999989
40
0.499999999999978
40
0.499999999999978
40
0.624999999999984
40
0.624999999999984
40
0.749999999999989
40
0.749999999999989
40
0.874999999999995
40
0.874999999999995
40
1
40
1
40
1
40
1
41
1
10
73.7533937829775
20
39.2438177245317
30
0
41
1
10
73.7354790666185
20
39.2494926714664
30
0
41
1
10
73.718431395847
20
39.2578456778618
30
0
41
1
10
73.6866813851865
20
39.2802632559623
30
0
41
1
10
73.6724792110963
20
39.2939935389107
30
0
41
1
10
73.6544832596722
20
39.3183441203154
30
0
41
1
10
73.6491553130276
20
39.3269339644344
30
0
41
1
10
73.6398833478034
20
39.3450808717367
30
0
41
1
10
73.6359112934312
20
39.354739467384
30
0
41
1
10
73.6296792109183
20
39.3745403010851
30
0
41
1
10
73.6274022962862
20
39.3846634639719
30
0
41
1
10
73.6245599770884
20
39.405362307025
30
0
41
1
10
73.6240122352129
20
39.4160203221993
30
0
41
1
10
73.6243684516087
20
39.4264782756591
30
0
0
SPLINE
5
225
100
AcDbEntity
8
1
62
256
6
ByLayer
370
18
48
1
60
0
100
AcDbSpline
70
4
71
3
72
22
73
18
40
0
40
0
40
0
40
0
40
0.125
40
0.125
40
0.25
40
0.25
40
0.375
40
0.375
40
0.5
40
0.5
40
0.625
40
0.625
40
0.75
40
0.75
40
0.875
40
0.875
40
1
40
1
40
1
40
1
41
1
10
73.7533937829775
20
39.2438177245317
30
0
41
1
10
73.777904244792
20
39.2360534056693
30
0
41
1
10
73.8020286605986
20
39.2259284692854
30
0
41
1
10
73.8482643390698
20
39.2011731985761
30
0
41
1
10
73.8704532916481
20
39.1865583110757
30
0
41
1
10
73.9129067672304
20
39.1521477368946
30
0
41
1
10
73.932972055505
20
39.1324186135631
30
0
41
1
10
73.9689870667076
20
39.0889276134026
30
0
41
1
10
73.9852739843551
20
39.0646522451232
30
0
41
1
10
74.0120340110726
20
39.0142659646208
30
0
41
1
10
74.0228657237918
20
38.9876525431464
30
0
41
1
10
74.0388807897413
20
38.9330905306337
30
0
41
1
10
74.0439065296164
20
38.9059034758813
30
0
41
1
10
74.0487173585308
20
38.851555663792
30
0
41
1
10
74.0484219559808
20
38.8244985690862
30
0
41
1
10
74.0430902585174
20
38.7724820787662
30
0
41
1
10
74.0380835168742
20
38.7472078915443
30
0
41
1
10
74.0308403368501
20
38.7225562300308
30
0
0
SPLINE
5
226
100
AcDbEntity
8
1
62
256
6
ByLayer
370
18
48
1
60
0
100
AcDbSpline
70
4
71
3
72
18
73
14
40
0
40
0
40
0
40
0
40
0.124999999999999
40
0.124999999999999
40
0.249999999999998
40
0.249999999999998
40
0.374999999999998
40
0.374999999999998
40
0.499999999999997
40
0.499999999999997
40
0.749999999999998
40
0.749999999999998
40
1
40
1
40
1
40
1
41
1
10
75.1438873912931
20
38.4769774606045
30
0
41
1
10
75.134613571561
20
38.4720566847742
30
0
41
1
10
75.1249898233512
20
38.4679546289242
30
0
41
1
10
75.105042290037
20
38.4613888213561
30
0
41
1
10
75.0947054698651
20
38.4589493188127
30
0
41
1
10
75.0742579597678
20
38.4558978000989
30
0
41
1
10
75.0640308729625
20
38.4552414711531
30
0
41
1
10
75.043574483244
20
38.4556144645119
30
0
41
1
10
75.0332968490208
20
38.4566712139574
30
0
41
1
10
75.0037366721268
20
38.4621529453683
30
0
41
1
10
74.9850660746059
20
38.4689282282319
30
0
41
1
10
74.951063721098
20
38.4876173576754
30
0
41
1
10
74.936138782057
20
38.4992232864164
30
0
41
1
10
74.9231521929692
20
38.5128715449897
30
0
0
LINE
5
83
100
AcDbEntity
8
SK1
62
256
6
ByLayer
370
18
48
1
60
0
100
AcDbLine
10
-38
20
-20.292359
30
0
11
-38
21
20.292359
31
0
39
0
210
0
220
0
230
1
0
LINE
5
85
100
AcDbEntity
8
SK1
62
256
6
ByLayer
370
18
48
1
60
0
100
AcDbLine
10
-1.999937
20
-22.025123
30
0
11
-1.999937
21
22.025123
31
0
39
0
210
0
220
0
230
1
0
LINE
5
86
100
AcDbEntity
8
SK1
62
256
6
ByLayer
370
18
48
1
60
0
100
AcDbLine
10
-36.5
20
21.158372
30
0
11
-36.5
21
-21.158372
31
0
39
0
210
0
220
0
230
1
0
LINE
5
87
100
AcDbEntity
8
SK1
62
256
6
ByLayer
370
18
48
1
60
0
100
AcDbLine
10
-1.794977
20
21.830211
30
0
11
-1.794977
21
-21.830211
31
0
39
0
210
0
220
0
230
1
0
LINE
5
88
100
AcDbEntity
8
SK1
62
256
6
ByLayer
370
18
48
1
60
0
100
AcDbLine
10
-0.194914
20
21.87041
30
0
11
-0.194914
21
6.038944
31
0
39
0
210
0
220
0
230
1
0
LINE
5
89
100
AcDbEntity
8
SK1
62
256
6
ByLayer
370
18
48
1
60
0
100
AcDbLine
10
-0.194914
20
-6.038944
30
0
11
-0.194914
21
-21.87041
31
0
39
0
210
0
220
0
230
1
0
LINE
5
8A
100
AcDbEntity
8
SK1
62
256
6
ByLayer
370
18
48
1
60
0
100
AcDbLine
10
-1.307107
20
-4.81102
30
0
11
-1.307107
21
4.81102
31
0
39
0
210
0
220
0
230
1
0
LINE
5
8B
100
AcDbEntity
8
80
62
256
6
ByLayer
370
18
48
0.05
60
0
100
AcDbLine
10
0
20
0
30
0
11
-40.906192
21
0
31
0
39
0
210
0
220
0
230
1
0
LINE
5
8C
100
AcDbEntity
8
4
62
256
6
ByLayer
370
18
48
0.05
60
0
100
AcDbLine
10
55
20
33
30
0
11
55
21
-29.721199
31
0
39
0
210
0
220
0
230
1
0
LINE
5
8E
100
AcDbEntity
8
SK4
62
256
6
ByLayer
370
18
48
0.05
60
0
100
AcDbLine
10
55
20
-36.221199
30
0
11
55
21
45.778801
31
0
39
0
210
0
220
0
230
1
0
LINE
5
90
100
AcDbEntity
8
4
62
256
6
ByLayer
370
18
48
0.05
60
0
100
AcDbLine
10
0
20
0
30
0
11
79.669211
21
0
31
0
39
0
210
0
220
0
230
1
0
LINE
5
91
100
AcDbEntity
8
SK4
62
256
6
ByLayer
370
18
48
0.05
60
0
100
AcDbLine
10
79.669211
20
0
30
0
11
-40.906192
21
0
31
0
39
0
210
0
220
0
230
1
0
LINE
5
92
100
AcDbEntity
8
2
62
256
6
ByLayer
370
13
48
1
60
0
100
AcDbLine
10
107.582003
20
41.325
30
0
11
108.417997
21
41.325
31
0
39
0
210
0
220
0
230
1
0
LINE
5
94
100
AcDbEntity
8
2
62
256
6
ByLayer
370
13
48
1
60
0
100
AcDbLine
10
108
20
44.5
30
0
11
108.417997
21
41.325
31
0
39
0
210
0
220
0
230
1
0
LINE
5
95
100
AcDbEntity
8
2
62
256
6
ByLayer
370
13
48
1
60
0
100
AcDbLine
10
108
20
44.5
30
0
11
108
21
-15.5
31
0
39
0
210
0
220
0
230
1
0
LINE
5
96
100
AcDbEntity
8
2
62
256
6
ByLayer
370
13
48
1
60
0
100
AcDbLine
10
108.077346
20
43.325
30
0
11
108.208998
21
41.325
31
0
39
0
210
0
220
0
230
1
0
LINE
5
97
100
AcDbEntity
8
2
62
256
6
ByLayer
370
13
48
1
60
0
100
AcDbLine
10
80
20
44.5
30
0
11
110
21
44.5
31
0
39
0
210
0
220
0
230
1
0
LINE
5
98
100
AcDbEntity
8
2
62
256
6
ByLayer
370
13
48
1
60
0
100
AcDbLine
10
108
20
44.5
30
0
11
107.582003
21
41.325
31
0
39
0
210
0
220
0
230
1
0
LINE
5
99
100
AcDbEntity
8
2
62
256
6
ByLayer
370
13
48
1
60
0
100
AcDbLine
10
107.922654
20
43.325
30
0
11
107.791002
21
41.325
31
0
39
0
210
0
220
0
230
1
0
LINE
5
9A
100
AcDbEntity
8
1
62
256
6
ByLayer
370
18
48
1
60
0
100
AcDbLine
10
0.3
20
31.4925
30
0
11
0
21
31.1925
31
0
39
0
210
0
220
0
230
1
0
LINE
5
9B
100
AcDbEntity
8
1
62
256
6
ByLayer
370
18
48
1
60
0
100
AcDbLine
10
0.3
20
-31.4925
30
0
11
39.5975
21
-31.4925
31
0
39
0
210
0
220
0
230
1
0
LINE
5
9C
100
AcDbEntity
8
1
62
256
6
ByLayer
370
18
48
1
60
0
100
AcDbLine
10
22
20
31.4925
30
0
11
0.3
21
31.4925
31
0
39
0
210
0
220
0
230
1
0
LINE
5
9D
100
AcDbEntity
8
1
62
256
6
ByLayer
370
18
48
1
60
0
100
AcDbLine
10
0
20
-31.1925
30
0
11
0.3
21
-31.4925
31
0
39
0
210
0
220
0
230
1
0
LINE
5
9E
100
AcDbEntity
8
1
62
256
6
ByLayer
370
18
48
1
60
0
100
AcDbLine
10
46.254515
20
-29.27407
30
0
11
50.25
21
-30.131
31
0
39
0
210
0
220
0
230
1
0
LINE
5
9F
100
AcDbEntity
8
1
62
256
6
ByLayer
370
18
48
1
60
0
100
AcDbLine
10
59.75
20
-30.131
30
0
11
63.745485
21
-29.27407
31
0
39
0
210
0
220
0
230
1
0
LINE
5
A0
100
AcDbEntity
8
1
62
256
6
ByLayer
370
18
48
1
60
0
100
AcDbLine
10
59.75
20
-30.131
30
0
11
50.25
21
-30.131
31
0
39
0
210
0
220
0
230
1
0
LINE
5
A1
100
AcDbEntity
8
1
62
256
6
ByLayer
370
18
48
1
60
0
100
AcDbLine
10
53.139007
20
-29.010707
30
0
11
53.168015
21
-29.010707
31
0
39
0
210
0
220
0
230
1
0
LINE
5
A2
100
AcDbEntity
8
1
62
256
6
ByLayer
370
18
48
1
60
0
100
AcDbLine
10
54.35065
20
-29.05958
30
0
11
54.351308
21
-29.010707
31
0
39
0
210
0
220
0
230
1
0
LINE
5
A3
100
AcDbEntity
8
1
62
256
6
ByLayer
370
18
48
1
60
0
100
AcDbLine
10
64.074925
20
-29.05958
30
0
11
64.07371
21
-29.053491
31
0
39
0
210
0
220
0
230
1
0
LINE
5
A4
100
AcDbEntity
8
1
62
256
6
ByLayer
370
18
48
1
60
0
100
AcDbLine
10
45.326664
20
-29.05958
30
0
11
45.327077
21
-29.057638
31
0
39
0
210
0
220
0
230
1
0
LINE
5
A5
100
AcDbEntity
8
1
62
256
6
ByLayer
370
18
48
1
60
0
100
AcDbLine
10
59.183355
20
-29.05958
30
0
11
59.180371
21
-29.026901
31
0
39
0
210
0
220
0
230
1
0
LINE
5
A6
100
AcDbEntity
8
1
62
256
6
ByLayer
370
18
48
1
60
0
100
AcDbLine
10
64.563199
20
-28.620331
30
0
11
65.316674
21
-28.620331
31
0
39
0
210
0
220
0
230
1
0
LINE
5
A7
100
AcDbEntity
8
1
62
256
6
ByLayer
370
18
48
1
60
0
100
AcDbLine
10
65.352805
20
-28.620331
30
0
11
65.951532
21
-28.620331
31
0
39
0
210
0
220
0
230
1
0
LINE
5
A8
100
AcDbEntity
8
1
62
256
6
ByLayer
370
18
48
1
60
0
100
AcDbLine
10
65.979141
20
-28.620331
30
0
11
66.413678
21
-28.620331
31
0
39
0
210
0
220
0
230
1
0
LINE
5
A9
100
AcDbEntity
8
1
62
256
6
ByLayer
370
18
48
1
60
0
100
AcDbLine
10
66.43233
20
-28.620331
30
0
11
66.695824
21
-28.620331
31
0
39
0
210
0
220
0
230
1
0
LINE
5
AA
100
AcDbEntity
8
1
62
256
6
ByLayer
370
18
48
1
60
0
100
AcDbLine
10
66.705224
20
-28.620331
30
0
11
66.793519
21
-28.620331
31
0
39
0
210
0
220
0
230
1
0
LINE
5
AB
100
AcDbEntity
8
1
62
256
6
ByLayer
370
18
48
1
60
0
100
AcDbLine
10
62.129821
20
-29.05958
30
0
11
62.127563
21
-29.045139
31
0
39
0
210
0
220
0
230
1
0
LINE
5
AC
100
AcDbEntity
8
1
62
256
6
ByLayer
370
18
48
1
60
0
100
AcDbLine
10
54.351308
20
-29.010707
30
0
11
54.228142
21
-28.590006
31
0
39
0
210
0
220
0
230
1
0
LINE
5
AD
100
AcDbEntity
8
1
62
256
6
ByLayer
370
18
48
1
60
0
100
AcDbLine
10
59.996686
20
-28.598766
30
0
11
60.014078
21
-28.590006
31
0
39
0
210
0
220
0
230
1
0
LINE
5
AE
100
AcDbEntity
8
1
62
256
6
ByLayer
370
18
48
1
60
0
100
AcDbLine
10
55.648692
20
-29.010707
30
0
11
55.771858
21
-28.590006
31
0
39
0
210
0
220
0
230
1
0
LINE
5
AF
100
AcDbEntity
8
1
62
256
6
ByLayer
370
18
48
1
60
0
100
AcDbLine
10
52.826951
20
-28.620331
30
0
11
54.222053
21
-28.620331
31
0
39
0
210
0
220
0
230
1
0
LINE
5
B0
100
AcDbEntity
8
1
62
256
6
ByLayer
370
18
48
1
60
0
100
AcDbLine
10
43.206481
20
-28.620331
30
0
11
43.294776
21
-28.620331
31
0
39
0
210
0
220
0
230
1
0
LINE
5
B1
100
AcDbEntity
8
1
62
256
6
ByLayer
370
18
48
1
60
0
100
AcDbLine
10
43.304176
20
-28.620331
30
0
11
43.56767
21
-28.620331
31
0
39
0
210
0
220
0
230
1
0
LINE
5
B2
100
AcDbEntity
8
1
62
256
6
ByLayer
370
18
48
1
60
0
100
AcDbLine
10
43.586322
20
-28.620331
30
0
11
44.020859
21
-28.620331
31
0
39
0
210
0
220
0
230
1
0
LINE
5
B3
100
AcDbEntity
8
1
62
256
6
ByLayer
370
18
48
1
60
0
100
AcDbLine
10
44.048468
20
-28.620331
30
0
11
44.647195
21
-28.620331
31
0
39
0
210
0
220
0
230
1
0
LINE
5
B4
100
AcDbEntity
8
1
62
256
6
ByLayer
370
18
48
1
60
0
100
AcDbLine
10
45.480885
20
-28.620331
30
0
11
46.377224
21
-28.620331
31
0
39
0
210
0
220
0
230
1
0
LINE
5
B5
100
AcDbEntity
8
1
62
256
6
ByLayer
370
18
48
1
60
0
100
AcDbLine
10
46.428565
20
-28.620331
30
0
11
47.453634
21
-28.620331
31
0
39
0
210
0
220
0
230
1
0
LINE
5
B6
100
AcDbEntity
8
1
62
256
6
ByLayer
370
18
48
1
60
0
100
AcDbLine
10
47.511422
20
-28.620331
30
0
11
48.649054
21
-28.620331
31
0
39
0
210
0
220
0
230
1
0
LINE
5
B7
100
AcDbEntity
8
1
62
256
6
ByLayer
370
18
48
1
60
0
100
AcDbLine
10
50.012495
20
-28.620331
30
0
11
51.319938
21
-28.620331
31
0
39
0
210
0
220
0
230
1
0
LINE
5
B8
100
AcDbEntity
8
1
62
256
6
ByLayer
370
18
48
1
60
0
100
AcDbLine
10
48.712379
20
-28.620331
30
0
11
49.944633
21
-28.620331
31
0
39
0
210
0
220
0
230
1
0
LINE
5
B9
100
AcDbEntity
8
1
62
256
6
ByLayer
370
18
48
1
60
0
100
AcDbLine
10
51.349898
20
-28.590001
30
0
11
51.390634
21
-28.618274
31
0
39
0
210
0
220
0
230
1
0
LINE
5
BA
100
AcDbEntity
8
1
62
256
6
ByLayer
370
18
48
1
60
0
100
AcDbLine
10
53.139007
20
-29.010707
30
0
11
52.77145
21
-28.590006
31
0
39
0
210
0
220
0
230
1
0
LINE
5
BB
100
AcDbEntity
8
1
62
256
6
ByLayer
370
18
48
1
60
0
100
AcDbLine
10
52.26497
20
-29.226725
30
0
11
52.261833
21
-29.274053
31
0
39
0
210
0
220
0
230
1
0
LINE
5
BC
100
AcDbEntity
8
1
62
256
6
ByLayer
370
18
48
1
60
0
100
AcDbLine
10
61.240898
20
-29.05958
30
0
11
61.238357
21
-29.040991
31
0
39
0
210
0
220
0
230
1
0
LINE
5
BD
100
AcDbEntity
8
1
62
256
6
ByLayer
370
18
48
1
60
0
100
AcDbLine
10
62.095347
20
-29.26288
30
0
11
62.097285
21
-29.274053
31
0
39
0
210
0
220
0
230
1
0
LINE
5
BE
100
AcDbEntity
8
1
62
256
6
ByLayer
370
18
48
1
60
0
100
AcDbLine
10
58.650102
20
-28.590001
30
0
11
58.609366
21
-28.618274
31
0
39
0
210
0
220
0
230
1
0
LINE
5
BF
100
AcDbEntity
8
1
62
256
6
ByLayer
370
18
48
1
60
0
100
AcDbLine
10
55.777947
20
-28.620331
30
0
11
57.173049
21
-28.620331
31
0
39
0
210
0
220
0
230
1
0
LINE
5
C0
100
AcDbEntity
8
1
62
256
6
ByLayer
370
18
48
1
60
0
100
AcDbLine
10
64.673336
20
-29.05958
30
0
11
64.672923
21
-29.057638
31
0
39
0
210
0
220
0
230
1
0
LINE
5
C1
100
AcDbEntity
8
1
62
256
6
ByLayer
370
18
48
1
60
0
100
AcDbLine
10
57.246721
20
-28.620331
30
0
11
58.608733
21
-28.620331
31
0
39
0
210
0
220
0
230
1
0
LINE
5
C2
100
AcDbEntity
8
1
62
256
6
ByLayer
370
18
48
1
60
0
100
AcDbLine
10
46.254514
20
-29.274072
30
0
11
46.254518
21
-29.274053
31
0
39
0
210
0
220
0
230
1
0
LINE
5
C3
100
AcDbEntity
8
1
62
256
6
ByLayer
370
18
48
1
60
0
100
AcDbLine
10
64.448636
20
-29.05958
30
0
11
64.447815
21
-29.055632
31
0
39
0
210
0
220
0
230
1
0
LINE
5
C4
100
AcDbEntity
8
1
62
256
6
ByLayer
370
18
48
1
60
0
100
AcDbLine
10
60.253553
20
-29.05958
30
0
11
60.250768
21
-29.035348
31
0
39
0
210
0
220
0
230
1
0
LINE
5
C5
100
AcDbEntity
8
1
62
256
6
ByLayer
370
18
48
1
60
0
100
AcDbLine
10
57.73503
20
-29.226725
30
0
11
57.738167
21
-29.274053
31
0
39
0
210
0
220
0
230
1
0
LINE
5
C6
100
AcDbEntity
8
1
62
256
6
ByLayer
370
18
48
1
60
0
100
AcDbLine
10
58.680062
20
-28.620331
30
0
11
59.987505
21
-28.620331
31
0
39
0
210
0
220
0
230
1
0
LINE
5
C7
100
AcDbEntity
8
1
62
256
6
ByLayer
370
18
48
1
60
0
100
AcDbLine
10
50.816645
20
-29.05958
30
0
11
50.819629
21
-29.026901
31
0
39
0
210
0
220
0
230
1
0
LINE
5
C8
100
AcDbEntity
8
1
62
256
6
ByLayer
370
18
48
1
60
0
100
AcDbLine
10
63.622776
20
-28.620331
30
0
11
64.519115
21
-28.620331
31
0
39
0
210
0
220
0
230
1
0
LINE
5
C9
100
AcDbEntity
8
1
62
256
6
ByLayer
370
18
48
1
60
0
100
AcDbLine
10
51.391267
20
-28.620331
30
0
11
52.753279
21
-28.620331
31
0
39
0
210
0
220
0
230
1
0
LINE
5
CA
100
AcDbEntity
8
1
62
256
6
ByLayer
370
18
48
1
60
0
100
AcDbLine
10
46.441903
20
-29.05958
30
0
11
46.443492
21
-29.051126
31
0
39
0
210
0
220
0
230
1
0
LINE
5
CB
100
AcDbEntity
8
1
62
256
6
ByLayer
370
18
48
1
60
0
100
AcDbLine
10
49.746447
20
-29.05958
30
0
11
49.749232
21
-29.035348
31
0
39
0
210
0
220
0
230
1
0
LINE
5
CC
100
AcDbEntity
8
1
62
256
6
ByLayer
370
18
48
1
60
0
100
AcDbLine
10
56.831985
20
-29.010707
30
0
11
56.860993
21
-29.010707
31
0
39
0
210
0
220
0
230
1
0
LINE
5
CD
100
AcDbEntity
8
1
62
256
6
ByLayer
370
18
48
1
60
0
100
AcDbLine
10
48.759102
20
-29.05958
30
0
11
48.761643
21
-29.040991
31
0
39
0
210
0
220
0
230
1
0
LINE
5
CE
100
AcDbEntity
8
1
62
256
6
ByLayer
370
18
48
1
60
0
100
AcDbLine
10
60.055367
20
-28.620331
30
0
11
61.287621
21
-28.620331
31
0
39
0
210
0
220
0
230
1
0
LINE
5
CF
100
AcDbEntity
8
1
62
256
6
ByLayer
370
18
48
1
60
0
100
AcDbLine
10
47.870179
20
-29.05958
30
0
11
47.872437
21
-29.045139
31
0
39
0
210
0
220
0
230
1
0
LINE
5
D0
100
AcDbEntity
8
1
62
256
6
ByLayer
370
18
48
1
60
0
100
AcDbLine
10
63.745482
20
-29.274053
30
0
11
63.745486
21
-29.274072
31
0
39
0
210
0
220
0
230
1
0
LINE
5
D1
100
AcDbEntity
8
1
62
256
6
ByLayer
370
18
48
1
60
0
100
AcDbLine
10
63.558097
20
-29.05958
30
0
11
63.556508
21
-29.051126
31
0
39
0
210
0
220
0
230
1
0
LINE
5
D2
100
AcDbEntity
8
1
62
256
6
ByLayer
370
18
48
1
60
0
100
AcDbLine
10
45.925075
20
-29.05958
30
0
11
45.92629
21
-29.053491
31
0
39
0
210
0
220
0
230
1
0
LINE
5
D3
100
AcDbEntity
8
1
62
256
6
ByLayer
370
18
48
1
60
0
100
AcDbLine
10
56.862957
20
-29.05958
30
0
11
56.860993
21
-29.010707
31
0
39
0
210
0
220
0
230
1
0
LINE
5
D4
100
AcDbEntity
8
1
62
256
6
ByLayer
370
18
48
1
60
0
100
AcDbLine
10
54.296905
20
-28.620331
30
0
11
55.703095
21
-28.620331
31
0
39
0
210
0
220
0
230
1
0
LINE
5
D5
100
AcDbEntity
8
1
62
256
6
ByLayer
370
18
48
1
60
0
100
AcDbLine
10
61.350946
20
-28.620331
30
0
11
62.488578
21
-28.620331
31
0
39
0
210
0
220
0
230
1
0
LINE
5
D6
100
AcDbEntity
8
1
62
256
6
ByLayer
370
18
48
1
60
0
100
AcDbLine
10
62.546366
20
-28.620331
30
0
11
63.571435
21
-28.620331
31
0
39
0
210
0
220
0
230
1
0
LINE
5
D7
100
AcDbEntity
8
1
62
256
6
ByLayer
370
18
48
1
60
0
100
AcDbLine
10
45.551364
20
-29.05958
30
0
11
45.552185
21
-29.055632
31
0
39
0
210
0
220
0
230
1
0
LINE
5
D8
100
AcDbEntity
8
1
62
256
6
ByLayer
370
18
48
1
60
0
100
AcDbLine
10
55.64935
20
-29.05958
30
0
11
55.648692
21
-29.010707
31
0
39
0
210
0
220
0
230
1
0
LINE
5
D9
100
AcDbEntity
8
1
62
256
6
ByLayer
370
18
48
1
60
0
100
AcDbLine
10
56.860993
20
-29.010707
30
0
11
57.22855
21
-28.590006
31
0
39
0
210
0
220
0
230
1
0
LINE
5
DA
100
AcDbEntity
8
1
62
256
6
ByLayer
370
18
48
1
60
0
100
AcDbLine
10
54.351308
20
-29.010707
30
0
11
54.411193
21
-29.010707
31
0
39
0
210
0
220
0
230
1
0
LINE
5
DB
100
AcDbEntity
8
1
62
256
6
ByLayer
370
18
48
1
60
0
100
AcDbLine
10
55.588807
20
-29.010707
30
0
11
55.648692
21
-29.010707
31
0
39
0
210
0
220
0
230
1
0
LINE
5
DC
100
AcDbEntity
8
1
62
256
6
ByLayer
370
18
48
1
60
0
100
AcDbLine
10
53.137043
20
-29.05958
30
0
11
53.139007
21
-29.010707
31
0
39
0
210
0
220
0
230
1
0
LINE
5
DD
100
AcDbEntity
8
1
62
256
6
ByLayer
370
18
48
1
60
0
100
AcDbLine
10
47.904653
20
-29.26288
30
0
11
47.902715
21
-29.274053
31
0
39
0
210
0
220
0
230
1
0
LINE
5
DE
100
AcDbEntity
8
1
62
256
6
ByLayer
370
18
48
1
60
0
100
AcDbLine
10
50.25
20
-30.131
30
0
11
59.75
21
-30.131
31
0
39
0
210
0
220
0
230
1
0
LINE
5
DF
100
AcDbEntity
8
1
62
256
6
ByLayer
370
18
48
1
60
0
100
AcDbLine
10
44.683326
20
-28.620331
30
0
11
45.436801
21
-28.620331
31
0
39
0
210
0
220
0
230
1
0
LINE
5
E0
100
AcDbEntity
8
1
62
256
6
ByLayer
370
18
48
1
60
0
100
AcDbLine
10
50.003314
20
-28.598766
30
0
11
49.985922
21
-28.590006
31
0
39
0
210
0
220
0
230
1
0
LINE
5
E1
100
AcDbEntity
8
1
62
256
6
ByLayer
370
18
48
1
60
0
100
AcDbLine
10
0
20
-31.1925
30
0
11
0
21
31.1925
31
0
39
0
210
0
220
0
230
1
0
LINE
5
E2
100
AcDbEntity
8
1
62
256
6
ByLayer
370
18
48
1
60
0
100
AcDbLine
10
41.335486
20
25.372989
30
0
11
23.639718
21
25.372989
31
0
39
0
210
0
220
0
230
1
0
LINE
5
E3
100
AcDbEntity
8
1
62
256
6
ByLayer
370
18
48
1
60
0
100
AcDbLine
10
74
20
19.844608
30
0
11
74
21
-28.59
31
0
39
0
210
0
220
0
230
1
0
LINE
5
E4
100
AcDbEntity
8
1
62
256
6
ByLayer
370
18
48
1
60
0
100
AcDbLine
10
55
20
27.852989
30
0
11
67.5
21
23.906259
31
0
39
0
210
0
220
0
230
1
0
LINE
5
E5
100
AcDbEntity
8
1
62
256
6
ByLayer
370
18
48
1
60
0
100
AcDbLine
10
67.5
20
23.906259
30
0
11
72.2
21
20.969373
31
0
39
0
210
0
220
0
230
1
0
LINE
5
E6
100
AcDbEntity
8
SK1
62
256
6
ByLayer
370
18
48
1
60
0
100
AcDbLine
10
-0.2
20
-22.533485
30
0
11
-0.2
21
-7.059517
31
0
39
0
210
0
220
0
230
1
0
LINE
5
E7
100
AcDbEntity
8
SK1
62
256
6
ByLayer
370
18
48
1
60
0
100
AcDbLine
10
-0.2
20
7.059518
30
0
11
-0.2
21
22.533485
31
0
39
0
210
0
220
0
230
1
0
LINE
5
E8
100
AcDbEntity
8
1
62
256
6
ByLayer
370
18
48
1
60
0
100
AcDbLine
10
13.461325
20
-9.360622
30
0
11
10.538675
21
-9.360622
31
0
39
0
210
0
220
0
230
1
0
LINE
5
E9
100
AcDbEntity
8
1
62
256
6
ByLayer
370
18
48
1
60
0
100
AcDbLine
10
0.3
20
-31.4925
30
0
11
0.3
21
31.4925
31
0
39
0
210
0
220
0
230
1
0
LINE
5
EA
100
AcDbEntity
8
1
62
256
6
ByLayer
370
18
48
1
60
0
100
AcDbLine
10
39.5975
20
-31.4925
30
0
11
42.5
21
-28.59
31
0
39
0
210
0
220
0
230
1
0
LINE
5
EB
100
AcDbEntity
8
1
62
256
6
ByLayer
370
18
48
1
60
0
100
AcDbLine
10
42
20
27.852989
30
0
11
41.335486
21
25.372989
31
0
39
0
210
0
220
0
230
1
0
LINE
5
EC
100
AcDbEntity
8
1
62
256
6
ByLayer
370
18
48
1
60
0
100
AcDbLine
10
10.538675
20
-9.360622
30
0
11
10.538675
21
-30.069192
31
0
39
0
210
0
220
0
230
1
0
LINE
5
ED
100
AcDbEntity
8
1
62
256
6
ByLayer
370
18
48
1
60
0
100
AcDbLine
10
13.461325
20
30.069192
30
0
11
10.538675
21
30.069192
31
0
39
0
210
0
220
0
230
1
0
LINE
5
EE
100
AcDbEntity
8
1
62
256
6
ByLayer
370
18
48
1
60
0
100
AcDbLine
10
13.461325
20
30.069192
30
0
11
13.461325
21
9.360622
31
0
39
0
210
0
220
0
230
1
0
LINE
5
EF
100
AcDbEntity
8
1
62
256
6
ByLayer
370
18
48
1
60
0
100
AcDbLine
10
13.894338
20
29.902163
30
0
11
13.894338
21
9.881204
31
0
39
0
210
0
220
0
230
1
0
LINE
5
F0
100
AcDbEntity
8
1
62
256
6
ByLayer
370
18
48
1
60
0
100
AcDbLine
10
10.105662
20
-9.881204
30
0
11
10.105662
21
-29.902163
31
0
39
0
210
0
220
0
230
1
0
LINE
5
F1
100
AcDbEntity
8
1
62
256
6
ByLayer
370
18
48
1
60
0
100
AcDbLine
10
13.894338
20
-9.881204
30
0
11
13.894338
21
-29.902163
31
0
39
0
210
0
220
0
230
1
0
LINE
5
F2
100
AcDbEntity
8
1
62
256
6
ByLayer
370
18
48
1
60
0
100
AcDbLine
10
42.5
20
-28.59
30
0
11
72.2
21
-28.59
31
0
39
0
210
0
220
0
230
1
0
LINE
5
F3
100
AcDbEntity
8
1
62
256
6
ByLayer
370
18
48
1
60
0
100
AcDbLine
10
72.2
20
-28.59
30
0
11
72.2
21
20.969373
31
0
39
0
210
0
220
0
230
1
0
LINE
5
F4
100
AcDbEntity
8
1
62
256
6
ByLayer
370
18
48
1
60
0
100
AcDbLine
10
55
20
27.852989
30
0
11
42
21
27.852989
31
0
39
0
210
0
220
0
230
1
0
LINE
5
F5
100
AcDbEntity
8
1
62
256
6
ByLayer
370
18
48
1
60
0
100
AcDbLine
10
23.639718
20
25.372989
30
0
11
22
21
31.4925
31
0
39
0
210
0
220
0
230
1
0
LINE
5
F6
100
AcDbEntity
8
1
62
256
6
ByLayer
370
18
48
1
60
0
100
AcDbLine
10
10.538675
20
-30.069192
30
0
11
13.461325
21
-30.069192
31
0
39
0
210
0
220
0
230
1
0
LINE
5
F7
100
AcDbEntity
8
1
62
256
6
ByLayer
370
18
48
1
60
0
100
AcDbLine
10
10.538675
20
9.360622
30
0
11
13.461325
21
9.360622
31
0
39
0
210
0
220
0
230
1
0
LINE
5
F8
100
AcDbEntity
8
1
62
256
6
ByLayer
370
18
48
1
60
0
100
AcDbLine
10
13.461325
20
-9.360622
30
0
11
13.461325
21
-30.069192
31
0
39
0
210
0
220
0
230
1
0
LINE
5
F9
100
AcDbEntity
8
1
62
256
6
ByLayer
370
18
48
1
60
0
100
AcDbLine
10
10.538675
20
30.069192
30
0
11
10.538675
21
9.360622
31
0
39
0
210
0
220
0
230
1
0
LINE
5
FA
100
AcDbEntity
8
1
62
256
6
ByLayer
370
18
48
1
60
0
100
AcDbLine
10
10.105662
20
29.902163
30
0
11
10.105662
21
9.881204
31
0
39
0
210
0
220
0
230
1
0
LINE
5
FB
100
AcDbEntity
8
4
62
256
6
ByLayer
370
18
48
0.05
60
0
100
AcDbLine
10
55
20
33
30
0
11
55
21
46.149685
31
0
39
0
210
0
220
0
230
1
0
LINE
5
FC
100
AcDbEntity
8
2
62
256
6
ByLayer
370
13
48
1
60
0
100
AcDbLine
10
108
20
44.5
30
0
11
107.582003
21
41.325
31
0
39
0
210
0
220
0
230
1
0
LINE
5
FD
100
AcDbEntity
8
2
62
256
6
ByLayer
370
13
48
1
60
0
100
AcDbLine
10
80
20
44.5
30
0
11
110
21
44.5
31
0
39
0
210
0
220
0
230
1
0
LINE
5
FE
100
AcDbEntity
8
2
62
256
6
ByLayer
370
13
48
1
60
0
100
AcDbLine
10
107.582003
20
41.325
30
0
11
108.417997
21
41.325
31
0
39
0
210
0
220
0
230
1
0
LINE
5
FF
100
AcDbEntity
8
2
62
256
6
ByLayer
370
13
48
1
60
0
100
AcDbLine
10
108
20
44.5
30
0
11
108.417997
21
41.325
31
0
39
0
210
0
220
0
230
1
0
LINE
5
100
100
AcDbEntity
8
2
62
256
6
ByLayer
370
13
48
1
60
0
100
AcDbLine
10
107.922654
20
43.325
30
0
11
107.791002
21
41.325
31
0
39
0
210
0
220
0
230
1
0
LINE
5
101
100
AcDbEntity
8
2
62
256
6
ByLayer
370
13
48
1
60
0
100
AcDbLine
10
108.077346
20
43.325
30
0
11
108.208998
21
41.325
31
0
39
0
210
0
220
0
230
1
0
LINE
5
102
100
AcDbEntity
8
2
62
256
6
ByLayer
370
13
48
1
60
0
100
AcDbLine
10
108
20
44.5
30
0
11
108
21
-20.5
31
0
39
0
210
0
220
0
230
1
0
LINE
5
103
100
AcDbEntity
8
81
62
256
6
ByLayer
370
18
48
0.05
60
0
100
AcDbLine
10
78
20
44.5
30
0
11
88.236752
21
44.5
31
0
39
0
210
0
220
0
230
1
0
LINE
5
104
100
AcDbEntity
8
1
62
256
6
ByLayer
370
18
48
1
60
0
100
AcDbLine
10
43.15
20
33
30
0
11
43
21
32.85
31
0
39
0
210
0
220
0
230
1
0
LINE
5
105
100
AcDbEntity
8
1
62
256
6
ByLayer
370
18
48
1
60
0
100
AcDbLine
10
67
20
32.85
30
0
11
66.85
21
33
31
0
39
0
210
0
220
0
230
1
0
LINE
5
106
100
AcDbEntity
8
1
62
256
6
ByLayer
370
18
48
1
60
0
100
AcDbLine
10
43
20
32.85
30
0
11
43
21
27.840806
31
0
39
0
210
0
220
0
230
1
0
LINE
5
107
100
AcDbEntity
8
1
62
256
6
ByLayer
370
18
48
1
60
0
100
AcDbLine
10
67
20
24.052314
30
0
11
67
21
32.85
31
0
39
0
210
0
220
0
230
1
0
LINE
5
108
100
AcDbEntity
8
1
62
256
6
ByLayer
370
18
48
1
60
0
100
AcDbLine
10
43
20
32.85
30
0
11
67
21
32.85
31
0
39
0
210
0
220
0
230
1
0
LINE
5
109
100
AcDbEntity
8
1
62
256
6
ByLayer
370
18
48
1
60
0
100
AcDbLine
10
43.15
20
33
30
0
11
66.85
21
33
31
0
39
0
210
0
220
0
230
1
0
LINE
5
10A
100
AcDbEntity
8
1
62
256
6
ByLayer
370
18
48
1
60
0
100
AcDbLine
10
45.920638
20
39.770638
30
0
11
43.25
21
37.1
31
0
39
0
210
0
220
0
230
1
0
LINE
5
10B
100
AcDbEntity
8
1
62
256
6
ByLayer
370
18
48
1
60
0
100
AcDbLine
10
73.23286
20
43.60937
30
0
11
65.582889
21
42.534237
31
0
39
0
210
0
220
0
230
1
0
LINE
5
10C
100
AcDbEntity
8
1
62
256
6
ByLayer
370
18
48
1
60
0
100
AcDbLine
10
47.441899
20
39.984687
30
0
11
45.928211
21
39.771952
31
0
39
0
210
0
220
0
230
1
0
LINE
5
10D
100
AcDbEntity
8
1
62
256
6
ByLayer
370
18
48
1
60
0
100
AcDbLine
10
67.117271
20
40.867642
30
0
11
67.024675
21
40.907961
31
0
39
0
210
0
220
0
230
1
0
LINE
5
10E
100
AcDbEntity
8
1
62
256
6
ByLayer
370
18
48
1
60
0
100
AcDbLine
10
67.924023
20
38.815602
30
0
11
67.958484
21
38.910534
31
0
39
0
210
0
220
0
230
1
0
LINE
5
10F
100
AcDbEntity
8
1
62
256
6
ByLayer
370
18
48
1
60
0
100
AcDbLine
10
43.25
20
37.100465
30
0
11
43.25
21
33
31
0
39
0
210
0
220
0
230
1
0
LINE
5
110
100
AcDbEntity
8
1
62
256
6
ByLayer
370
18
48
1
60
0
100
AcDbLine
10
75.209919
20
43.712639
30
0
11
73.233277
21
43.609048
31
0
39
0
210
0
220
0
230
1
0
LINE
5
111
100
AcDbEntity
8
1
62
256
6
ByLayer
370
18
48
1
60
0
100
AcDbLine
10
69.192404
20
41.022173
30
0
11
69.086421
21
40.852563
31
0
39
0
210
0
220
0
230
1
0
LINE
5
112
100
AcDbEntity
8
1
62
256
6
ByLayer
370
18
48
1
60
0
100
AcDbLine
10
76.969706
20
33.647031
30
0
11
76.988717
21
34.191438
31
0
39
0
210
0
220
0
230
1
0
LINE
5
113
100
AcDbEntity
8
1
62
256
6
ByLayer
370
18
48
1
60
0
100
AcDbLine
10
74.20458
20
43.577214
30
0
11
74.204308
21
43.569408
31
0
39
0
210
0
220
0
230
1
0
LINE
5
114
100
AcDbEntity
8
1
62
256
6
ByLayer
370
18
48
1
60
0
100
AcDbLine
10
74.510491
20
43.593246
30
0
11
74.20458
21
43.577214
31
0
39
0
210
0
220
0
230
1
0
LINE
5
115
100
AcDbEntity
8
1
62
256
6
ByLayer
370
18
48
1
60
0
100
AcDbLine
10
75.207599
20
43.646201
30
0
11
75.209919
21
43.712639
31
0
39
0
210
0
220
0
230
1
0
LINE
5
116
100
AcDbEntity
8
1
62
256
6
ByLayer
370
18
48
1
60
0
100
AcDbLine
10
43.25
20
33
30
0
11
55
21
33
31
0
39
0
210
0
220
0
230
1
0
LINE
5
117
100
AcDbEntity
8
1
62
256
6
ByLayer
370
18
48
1
60
0
100
AcDbLine
10
76.035502
20
43.719178
30
0
11
75.208634
21
43.675844
31
0
39
0
210
0
220
0
230
1
0
LINE
5
118
100
AcDbEntity
8
1
62
256
6
ByLayer
370
18
48
1
60
0
100
AcDbLine
10
68.9
20
32.868777
30
0
11
70.507823
21
31.864098
31
0
39
0
210
0
220
0
230
1
0
LINE
5
119
100
AcDbEntity
8
1
62
256
6
ByLayer
370
18
48
1
60
0
100
AcDbLine
10
69.393036
20
38.38146
30
0
11
76.969706
21
33.647031
31
0
39
0
210
0
220
0
230
1
0
LINE
5
11A
100
AcDbEntity
8
1
62
256
6
ByLayer
370
18
48
1
60
0
100
AcDbLine
10
70.910718
20
41.53999
30
0
11
73.71474
21
43.015257
31
0
39
0
210
0
220
0
230
1
0
LINE
5
11B
100
AcDbEntity
8
1
62
256
6
ByLayer
370
18
48
1
60
0
100
AcDbLine
10
68.337455
20
37.853745
30
0
11
66.974811
21
41.02398
31
0
39
0
210
0
220
0
230
1
0
LINE
5
11C
100
AcDbEntity
8
1
62
256
6
ByLayer
370
18
48
1
60
0
100
AcDbLine
10
76.969706
20
33.647031
30
0
11
76.887952
21
31.305909
31
0
39
0
210
0
220
0
230
1
0
LINE
5
11D
100
AcDbEntity
8
1
62
256
6
ByLayer
370
18
48
1
60
0
100
AcDbLine
10
68.509982
20
38.465294
30
0
11
68.9
21
37.557904
31
0
39
0
210
0
220
0
230
1
0
LINE
5
11E
100
AcDbEntity
8
1
62
256
6
ByLayer
370
18
48
1
60
0
100
AcDbLine
10
66.740867
20
42.581192
30
0
11
67.868359
21
39.958049
31
0
39
0
210
0
220
0
230
1
0
LINE
5
11F
100
AcDbEntity
8
1
62
256
6
ByLayer
370
18
48
1
60
0
100
AcDbLine
10
68.5
20
37.063962
30
0
11
68.5
21
32.999029
31
0
39
0
210
0
220
0
230
1
0
LINE
5
120
100
AcDbEntity
8
1
62
256
6
ByLayer
370
18
48
1
60
0
100
AcDbLine
10
74.510491
20
43.593246
30
0
11
74.598812
21
42.955281
31
0
39
0
210
0
220
0
230
1
0
LINE
5
121
100
AcDbEntity
8
1
62
256
6
ByLayer
370
18
48
1
60
0
100
AcDbLine
10
68.9
20
32.868777
30
0
11
68.9
21
37.557904
31
0
39
0
210
0
220
0
230
1
0
LINE
5
122
100
AcDbEntity
8
1
62
256
6
ByLayer
370
18
48
1
60
0
100
AcDbLine
10
66.351034
20
42.475215
30
0
11
66.974811
21
41.02398
31
0
39
0
210
0
220
0
230
1
0
LINE
5
123
100
AcDbEntity
8
1
62
256
6
ByLayer
370
18
48
1
60
0
100
AcDbLine
10
74.193757
20
43.26728
30
0
11
74.204308
21
43.569408
31
0
39
0
210
0
220
0
230
1
0
LINE
5
124
100
AcDbEntity
8
1
62
256
6
ByLayer
370
18
48
1
60
0
100
AcDbLine
10
69.536914
20
41.476977
30
0
11
68.32723
21
40.59809
31
0
39
0
210
0
220
0
230
1
0
LINE
5
125
100
AcDbEntity
8
1
62
256
6
ByLayer
370
18
48
1
60
0
100
AcDbLine
10
73.644186
20
43.524882
30
0
11
73.71474
21
43.015257
31
0
39
0
210
0
220
0
230
1
0
LINE
5
126
100
AcDbEntity
8
1
62
256
6
ByLayer
370
18
48
1
60
0
100
AcDbLine
10
68.9
20
32.868777
30
0
11
68.884539
21
32.878438
31
0
39
0
210
0
220
0
230
1
0
LINE
5
127
100
AcDbEntity
8
1
62
256
6
ByLayer
370
18
48
1
60
0
100
AcDbLine
10
68.460604
20
33
30
0
11
55
21
33
31
0
39
0
210
0
220
0
230
1
0
LINE
5
128
100
AcDbEntity
8
1
62
256
6
ByLayer
370
18
48
1
60
0
100
AcDbLine
10
75.207599
20
43.646201
30
0
11
75.194532
21
43.27203
31
0
39
0
210
0
220
0
230
1
0
LINE
5
129
100
AcDbEntity
8
1
62
256
6
ByLayer
370
18
48
1
60
0
100
AcDbLine
10
74.193757
20
43.26728
30
0
11
73.71474
21
43.015257
31
0
39
0
210
0
220
0
230
1
0
LINE
5
12A
100
AcDbEntity
8
1
62
256
6
ByLayer
370
18
48
1
60
0
100
AcDbLine
10
70.914864
20
41.419834
30
0
11
71.280894
21
41.191113
31
0
39
0
210
0
220
0
230
1
0
LINE
5
12B
100
AcDbEntity
8
1
62
256
6
ByLayer
370
18
48
1
60
0
100
AcDbLine
10
70.507823
20
31.864098
30
0
11
76.887952
21
31.305909
31
0
39
0
210
0
220
0
230
1
0
LINE
5
12C
100
AcDbEntity
8
1
62
256
6
ByLayer
370
18
48
1
60
0
100
AcDbLine
10
66.740867
20
42.581192
30
0
11
73.343406
21
43.509118
31
0
39
0
210
0
220
0
230
1
0
LINE
5
12D
100
AcDbEntity
8
1
62
256
6
ByLayer
370
18
48
1
60
0
100
AcDbLine
10
68.9
20
37.557904
30
0
11
68.5
21
37.063962
31
0
39
0
210
0
220
0
230
1
0
LINE
5
12E
100
AcDbEntity
8
1
62
256
6
ByLayer
370
18
48
1
60
0
100
AcDbLine
10
68.337455
20
37.853745
30
0
11
68.9
21
37.557904
31
0
39
0
210
0
220
0
230
1
0
LINE
5
12F
100
AcDbEntity
8
1
62
256
6
ByLayer
370
18
48
1
60
0
100
AcDbLine
10
73.343406
20
43.509118
30
0
11
73.644186
21
43.524882
31
0
39
0
210
0
220
0
230
1
0
LINE
5
130
100
AcDbEntity
8
1
62
256
6
ByLayer
370
18
48
1
60
0
100
AcDbLine
10
77.663903
20
34.471516
30
0
11
77.999766
21
44.089361
31
0
39
0
210
0
220
0
230
1
0
LINE
5
131
100
AcDbEntity
8
1
62
256
6
ByLayer
370
18
48
1
60
0
100
AcDbLine
10
68.895592
20
39.248586
30
0
11
77.056958
21
34.148798
31
0
39
0
210
0
220
0
230
1
0
LINE
5
132
100
AcDbEntity
8
1
62
256
6
ByLayer
370
18
48
1
60
0
100
AcDbLine
10
77.416811
20
44.453632
30
0
11
68.919582
21
39.935575
31
0
39
0
210
0
220
0
230
1
0
MTEXT
5
227
100
AcDbEntity
8
SK6
62
256
6
ByLayer
370
18
48
1
60
0
100
AcDbMText
10
85.75
20
50.25
30
0
210
0
220
0
230
1
1
\W0.7123;826-89TC11-C6HP
40
3
41
0
44
1.084337
50
0
71
7
72
5
7
iso_b_vert
0
MTEXT
5
22B
100
AcDbEntity
8
2
62
256
6
ByLayer
370
18
48
1
60
0
100
AcDbMText
10
107.285823
20
-14.333825
30
0
210
0
220
0
230
1
1
\W0.7746;Dc = 88.35 - 89.65
40
3
41
0
44
1.084337
50
89.9999999999983
71
7
72
5
7
iso_b_vert
0
DIMENSION
5
235
100
AcDbEntity
8
SK2
62
256
6
ByLayer
370
18
48
1
60
0
100
AcDbDimension
2
DimnDraft3D1
10
-50.786756
20
-31.4925
30
0
11
-50.286756
21
-4.073684
31
0
70
33
71
5
72
1
41
1
210
0
220
0
230
1
3
Standard
100
AcDbAlignedDimension
13
-1.7
23
31.4925
33
0
14
-1.7
24
-31.4925
34
0
1001
ACAD
1000
DSTYLE
1002
{
1070
   279
1070
     0
1070
    74
1070
     0
1070
   173
1070
     1
1070
   340
1005
228
1070
   271
1070
     0
1070
    77
1070
     1
1070
    73
1070
     0
1070
   171
1070
     4
1070
   274
1070
     4
1070
   177
1070
     7
1070
   176
1070
     7
1070
   178
1070
     7
1070
    78
1070
     8
1070
    41
1041
3.175
1070
   147
1041
1.5
1070
    42
1041
2.0
1070
    44
1041
2.0
1070
   140
1041
3.0
1070
   343
1005
0
1070
   344
1005
0
1002
}
0
DIMENSION
5
23F
100
AcDbEntity
8
2
62
256
6
ByLayer
370
18
48
1
60
0
100
AcDbDimension
2
DimnDraft3D2
10
78
20
73.5
30
0
11
35.557895
21
73.5
31
0
70
32
71
5
72
1
41
1
210
0
220
0
230
1
3
Standard
100
AcDbAlignedDimension
13
0
23
33.1925
33
0
14
78
24
46.5
34
0
50
0
100
AcDbRotatedDimension
1001
ACAD
1000
DSTYLE
1002
{
1070
   279
1070
     0
1070
   172
1070
     1
1070
   173
1070
     1
1070
   340
1005
228
1070
   271
1070
     1
1070
    77
1070
     1
1070
    73
1070
     0
1070
   171
1070
     4
1070
   274
1070
     4
1070
   177
1070
     7
1070
   176
1070
     7
1070
   178
1070
     7
1070
    41
1041
3.175
1070
   147
1041
1.5
1070
    42
1041
2.0
1070
    44
1041
2.0
1070
   140
1041
3.0
1070
   343
1005
0
1070
   344
1005
0
1002
}
0
DIMENSION
5
249
100
AcDbEntity
8
SK2
62
256
6
ByLayer
370
18
48
1
60
0
100
AcDbDimension
2
DimnDraft3D3
10
55
20
-46.5
30
0
11
24.057895
21
-46.5
31
0
70
32
71
5
72
1
41
1
210
0
220
0
230
1
3
Standard
100
AcDbAlignedDimension
13
0
23
-33.1925
33
0
14
55
24
-31.721199
34
0
50
0
100
AcDbRotatedDimension
1001
ACAD
1000
DSTYLE
1002
{
1070
   279
1070
     0
1070
   172
1070
     1
1070
   173
1070
     1
1070
   340
1005
228
1070
   271
1070
     1
1070
    77
1070
     1
1070
    73
1070
     0
1070
   171
1070
     4
1070
   274
1070
     4
1070
   177
1070
     7
1070
   176
1070
     7
1070
   178
1070
     7
1070
    41
1041
3.175
1070
   147
1041
1.5
1070
    42
1041
2.0
1070
    44
1041
2.0
1070
   140
1041
3.0
1070
   343
1005
0
1070
   344
1005
0
1002
}
0
DIMENSION
5
253
100
AcDbEntity
8
SK2
62
256
6
ByLayer
370
18
48
1
60
0
100
AcDbDimension
2
DimnDraft3D4
10
74
20
-61.5
30
0
11
33.4
21
-61.5
31
0
70
32
71
5
72
1
41
1
210
0
220
0
230
1
3
Standard
100
AcDbAlignedDimension
13
0
23
-33.1925
33
0
14
74
24
-30.59
34
0
50
0
100
AcDbRotatedDimension
1001
ACAD
1000
DSTYLE
1002
{
1070
   279
1070
     0
1070
   172
1070
     1
1070
   173
1070
     1
1070
   340
1005
228
1070
   271
1070
     1
1070
    77
1070
     1
1070
    73
1070
     0
1070
   171
1070
     4
1070
   274
1070
     4
1070
   177
1070
     7
1070
   176
1070
     7
1070
   178
1070
     7
1070
    41
1041
3.175
1070
   147
1041
1.5
1070
    42
1041
2.0
1070
    44
1041
2.0
1070
   140
1041
3.0
1070
   343
1005
0
1070
   344
1005
0
1002
}
0
DIMENSION
5
25D
100
AcDbEntity
8
SK2
62
256
6
ByLayer
370
18
48
1
60
0
100
AcDbDimension
2
DimnDraft3D5
10
74
20
-76.5
30
0
11
14.206579
21
-76.5
31
0
70
32
71
5
72
1
41
1
210
0
220
0
230
1
3
Standard
100
AcDbAlignedDimension
13
-38
23
-22.292359
33
0
14
74
24
-30.59
34
0
50
0
100
AcDbRotatedDimension
1001
ACAD
1000
DSTYLE
1002
{
1070
   279
1070
     0
1070
   172
1070
     1
1070
   173
1070
     1
1070
   340
1005
228
1070
   271
1070
     1
1070
    77
1070
     1
1070
    73
1070
     0
1070
   171
1070
     4
1070
   274
1070
     4
1070
   177
1070
     7
1070
   176
1070
     7
1070
   178
1070
     7
1070
    41
1041
3.175
1070
   147
1041
1.5
1070
    42
1041
2.0
1070
    44
1041
2.0
1070
   140
1041
3.0
1070
   343
1005
0
1070
   344
1005
0
1002
}
0
DIMENSION
5
266
100
AcDbEntity
8
2
62
256
6
ByLayer
370
13
48
1
60
0
100
AcDbDimension
2
DimnDraft3D6
10
110
20
44.5
30
0
11
88.043363
21
34.1144
31
0
70
34
71
5
72
1
41
1
210
0
220
0
230
1
3
Standard
100
AcDb2LineAngularDimension
13
77.663903
23
34.471516
33
0
14
77.999766
24
44.089361
34
0
15
80
25
44.5
35
0
16
90.127338
26
31.956381
36
0
40
0
0
ENDSEC
0
SECTION
2
OBJECTS
0
DICTIONARY
5
2d1
330
0
100
AcDbDictionary
280
0
281
1
3
ACAD_GROUP
350
2d2
3
ACAD_MLINESTYLE
350
2d3
0
DICTIONARY
5
2d2
330
0
100
AcDbDictionary
280
0
281
1
0
DICTIONARY
5
2d3
330
0
100
AcDbDictionary
280
0
281
1
3
Standard
350
18
0
MLINESTYLE
5
18
330
2d3
100
AcDbMlineStyle
2
Standard
70
0
3

62
256
51
90
52
90
71
2
49
-0.5
62
256
6
ByLayer
49
0.5
62
256
6
ByLayer
0
RASTERVARIABLES
5
2bf
330

100
AcDbRasterVariables
90
0
70
1
71
1
72
1
0
ENDSEC
0
EOF
