0
SECTION
2
HEADER
9
$ACADVER
1
AC1015
9
$DWGCODEPAGE
3
ANSI_1252
9
$HANDSEED
5
2ef
9
$ANGBASE
50
0
9
$ANGDIR
70
0
9
$ATTMODE
70
1
9
$AUNITS
70
0
9
$AUPREC
70
0
9
$CECOLOR
62
256
9
$CELTSCALE
40
1
9
$CELTYPE
6
ByLayer
9
$CELWEIGHT
370
18
9
$CLAYER
8
0
9
$CMLJUST
70
0
9
$CMLSCALE
40
1
9
$CMLSTYLE
2
Standard
9
$DIMSTYLE
2
Standard
9
$TEXTSIZE
40
0.2
9
$TEXTSTYLE
7
Standard
9
$LUNITS
70
2
9
$LUPREC
70
4
9
$EXTNAMES
290
1
9
$INSUNITS
70
4
9
$LTSCALE
40
1
9
$LWDISPLAY
290
1
9
$PDMODE
70
0
9
$PDSIZE
40
0
9
$PLINEGEN
70
0
0
ENDSEC
0
SECTION
2
CLASSES
0
CLASS
1
RASTERVARIABLES
2
AcDbRasterVariables
3
ISM
90
0
280
0
281
0
0
ENDSEC
0
SECTION
2
TABLES
0
TABLE
2
VPORT
5
2e5
100
AcDbSymbolTable
0
VPORT
5
1
100
AcDbSymbolTableRecord
100
AcDbViewportTableRecord
2
*Active
70
0
10
0
20
0
11
1
21
1
12
-1
22
1
13
0
23
0
14
0.5
24
0.5
15
10
25
10
16
0
26
0
36
1
17
0
27
0
37
0
0
ENDTAB
0
TABLE
2
LTYPE
5
2e6
100
AcDbSymbolTable
0
LTYPE
5
14
100
AcDbSymbolTableRecord
100
AcDbLinetypeTableRecord
70
0
2
ByBlock
3

72
65
73
0
40
0
0
LTYPE
5
15
100
AcDbSymbolTableRecord
100
AcDbLinetypeTableRecord
70
0
2
ByLayer
3

72
65
73
0
40
0
0
LTYPE
5
16
100
AcDbSymbolTableRecord
100
AcDbLinetypeTableRecord
70
0
2
CONTINUOUS
3
Solid line
72
65
73
0
40
0
0
LTYPE
5
6A
100
AcDbSymbolTableRecord
100
AcDbLinetypeTableRecord
70
0
2
CENTER
3
____ _ ____ _ ____ _ ____
72
65
73
4
40
47.5
49
22
74
0
49
-8.5
74
0
49
8.5
74
0
49
-8.5
74
0
0
LTYPE
5
6B
100
AcDbSymbolTableRecord
100
AcDbLinetypeTableRecord
70
0
2
DASHED
3
__ __ __ __ __ __ __ __ __
72
65
73
2
40
25.72
49
12.86
74
0
49
-12.86
74
0
0
ENDTAB
0
TABLE
2
LAYER
5
2e7
100
AcDbSymbolTable
0
LAYER
5
10
100
AcDbSymbolTableRecord
100
AcDbLayerTableRecord
2
0
70
0
62
7
6
CONTINUOUS
290
1
370
-3
390
0
0
LAYER
5
6D
100
AcDbSymbolTableRecord
100
AcDbLayerTableRecord
2
80
70
0
62
-6
6
CONTINUOUS
290
1
370
-3
390
0
0
LAYER
5
71
100
AcDbSymbolTableRecord
100
AcDbLayerTableRecord
2
1
70
0
62
4
6
CONTINUOUS
290
1
370
-3
390
0
0
LAYER
5
78
100
AcDbSymbolTableRecord
100
AcDbLayerTableRecord
2
81
70
0
62
-3
6
CONTINUOUS
290
1
370
-3
390
0
0
LAYER
5
87
100
AcDbSymbolTableRecord
100
AcDbLayerTableRecord
2
4
70
0
62
-2
6
CENTER
290
1
370
-3
390
0
0
LAYER
5
8A
100
AcDbSymbolTableRecord
100
AcDbLayerTableRecord
2
2
70
0
62
7
6
CONTINUOUS
290
1
370
-3
390
0
0
LAYER
5
2d1
100
AcDbSymbolTableRecord
100
AcDbLayerTableRecord
2
SK2
70
0
62
7
6
CONTINUOUS
290
1
370
-3
390
0
0
LAYER
5
2d2
100
AcDbSymbolTableRecord
100
AcDbLayerTableRecord
2
SK1
70
0
62
4
6
CONTINUOUS
290
1
370
-3
390
0
0
LAYER
5
2d3
100
AcDbSymbolTableRecord
100
AcDbLayerTableRecord
2
SK4
70
0
62
2
6
CENTER
290
1
370
-3
390
0
0
LAYER
5
2d4
100
AcDbSymbolTableRecord
100
AcDbLayerTableRecord
2
SK6
70
0
62
5
6
CONTINUOUS
290
1
370
-3
390
0
0
ENDTAB
0
TABLE
2
STYLE
5
2e8
100
AcDbSymbolTable
0
STYLE
5
11
100
AcDbSymbolTableRecord
100
AcDbTextStyleTableRecord
2
Standard
3
txt
70
0
71
0
40
0
41
1
42
0
50
0
0
STYLE
5
238
100
AcDbSymbolTableRecord
100
AcDbTextStyleTableRecord
2
iso_b_vert
3
simplex.shx
70
0
71
0
40
0
41
1
42
0
50
0
0
STYLE
5
239
100
AcDbSymbolTableRecord
100
AcDbTextStyleTableRecord
2
DWGDirectTextStyle
3
simplex
70
0
71
0
40
0
41
1
42
0
50
0
0
ENDTAB
0
TABLE
2
DIMSTYLE
5
2e9
100
AcDbSymbolTable
100
AcDbDimStyleTable
0
DIMSTYLE
105
27
100
AcDbSymbolTableRecord
100
AcDbDimStyleTableRecord
2
Standard
70
0
3
<>
41
0.18
42
0.0625
44
0.18
140
0.18
147
0.09
73
0
74
0
77
1
271
2
275
0
278
52
280
0
340
11
0
ENDTAB
0
TABLE
2
VIEW
5
2ea
100
AcDbSymbolTable
0
ENDTAB
0
TABLE
2
UCS
5
2eb
100
AcDbSymbolTable
0
ENDTAB
0
TABLE
2
APPID
5
2ec
100
AcDbSymbolTable
0
APPID
5
12
100
AcDbSymbolTableRecord
100
AcDbRegAppTableRecord
2
ACAD
70
0
0
ENDTAB
0
TABLE
2
BLOCK_RECORD
5
2ed
100
AcDbSymbolTable
0
BLOCK_RECORD
5
1F
100
AcDbSymbolTableRecord
100
AcDbBlockTableRecord
2
*Model_Space
340
0
70
0
0
BLOCK_RECORD
5
1B
100
AcDbSymbolTableRecord
100
AcDbBlockTableRecord
2
*Paper_Space
340
0
70
0
0
BLOCK_RECORD
5
23
100
AcDbSymbolTableRecord
100
AcDbBlockTableRecord
2
*Paper_Space0
340
0
70
0
0
BLOCK_RECORD
5
23C
100
AcDbSymbolTableRecord
100
AcDbBlockTableRecord
2
DimnDraft3D1
340
0
70
0
0
BLOCK_RECORD
5
246
100
AcDbSymbolTableRecord
100
AcDbBlockTableRecord
2
DimnDraft3D2
340
0
70
0
0
BLOCK_RECORD
5
250
100
AcDbSymbolTableRecord
100
AcDbBlockTableRecord
2
DimnDraft3D3
340
0
70
0
0
BLOCK_RECORD
5
25A
100
AcDbSymbolTableRecord
100
AcDbBlockTableRecord
2
DimnDraft3D4
340
0
70
0
0
BLOCK_RECORD
5
264
100
AcDbSymbolTableRecord
100
AcDbBlockTableRecord
2
DimnDraft3D5
340
0
70
0
0
BLOCK_RECORD
5
26E
100
AcDbSymbolTableRecord
100
AcDbBlockTableRecord
2
DimnDraft3D6
340
0
70
0
0
ENDTAB
0
ENDSEC
0
SECTION
2
BLOCKS
0
BLOCK
5
20
100
AcDbEntity
8
0
100
AcDbBlockBegin
2
*Model_Space
70
0
10
0
20
0
30
0
3
*Model_Space
0
ENDBLK
5
21
100
AcDbEntity
8
0
100
AcDbBlockEnd
0
BLOCK
5
1C
100
AcDbEntity
8
0
100
AcDbBlockBegin
2
*Paper_Space
70
0
10
0
20
0
30
0
3
*Paper_Space
0
ENDBLK
5
1D
100
AcDbEntity
8
0
100
AcDbBlockEnd
0
BLOCK
5
24
100
AcDbEntity
8
0
100
AcDbBlockBegin
2
*Paper_Space0
70
0
10
0
20
0
30
0
3
*Paper_Space0
0
ENDBLK
5
25
100
AcDbEntity
8
0
100
AcDbBlockEnd
0
BLOCK
5
243
100
AcDbEntity
8
0
100
AcDbBlockBegin
2
DimnDraft3D1
70
0
10
0
20
0
30
0
3
DimnDraft3D1
0
MTEXT
5
23D
100
AcDbEntity
8
SK2
62
256
6
ByLayer
370
18
48
1
60
0
100
AcDbMText
10
-33.229978
20
-3.481579
30
0
210
0
220
0
230
1
1
\W0.8203;%%c 40
40
3
41
0
44
1.084337
50
90
71
7
72
5
7
iso_b_vert
0
LINE
5
23E
100
AcDbEntity
8
SK2
62
256
6
ByLayer
370
13
48
1
60
0
100
AcDbLine
10
-1.69625
20
-19.99375
30
0
11
-34.479978
21
-19.99375
31
0
39
0
210
0
220
0
230
1
0
LINE
5
23F
100
AcDbEntity
8
SK2
62
256
6
ByLayer
370
13
48
1
60
0
100
AcDbLine
10
-1.69625
20
19.99375
30
0
11
-34.479978
21
19.99375
31
0
39
0
210
0
220
0
230
1
0
LINE
5
240
100
AcDbEntity
8
SK2
62
256
6
ByLayer
370
13
48
1
60
0
100
AcDbLine
10
-32.479978
20
-19.99375
30
0
11
-32.479978
21
19.99375
31
0
39
0
210
0
220
0
230
1
0
SOLID
5
241
100
AcDbEntity
8
SK2
62
256
6
ByLayer
370
13
48
1
60
0
100
AcDbTrace
10
-32.479978
20
-19.99375
30
0
11
-32.897975
21
-16.818752
31
0
12
-32.061981
22
-16.818748
32
0
13
-32.479978
23
-19.99375
33
0
39
0
210
0
220
0
230
1
0
SOLID
5
242
100
AcDbEntity
8
SK2
62
256
6
ByLayer
370
13
48
1
60
0
100
AcDbTrace
10
-32.479978
20
19.99375
30
0
11
-32.061981
21
16.818752
31
0
12
-32.897975
22
16.818748
32
0
13
-32.479978
23
19.99375
33
0
39
0
210
0
220
0
230
1
0
ENDBLK
5
244
100
AcDbEntity
8
0
100
AcDbBlockEnd
0
BLOCK
5
24D
100
AcDbEntity
8
0
100
AcDbBlockBegin
2
DimnDraft3D2
70
0
10
0
20
0
30
0
3
DimnDraft3D2
0
MTEXT
5
247
100
AcDbEntity
8
SK2
62
256
6
ByLayer
370
18
48
1
60
0
100
AcDbMText
10
16.807895
20
-30.75
30
0
210
0
220
0
230
1
1
\W0.7150;39.0
40
3
41
0
44
1.084337
50
0
71
7
72
5
7
iso_b_vert
0
LINE
5
248
100
AcDbEntity
8
SK2
62
256
6
ByLayer
370
13
48
1
60
0
100
AcDbLine
10
0
20
-21.69
30
0
11
0
21
-33.5
31
0
39
0
210
0
220
0
230
1
0
LINE
5
249
100
AcDbEntity
8
SK2
62
256
6
ByLayer
370
13
48
1
60
0
100
AcDbLine
10
39
20
-24.006082
30
0
11
39
21
-33.5
31
0
39
0
210
0
220
0
230
1
0
LINE
5
24A
100
AcDbEntity
8
SK2
62
256
6
ByLayer
370
13
48
1
60
0
100
AcDbLine
10
0
20
-31.5
30
0
11
39
21
-31.5
31
0
39
0
210
0
220
0
230
1
0
SOLID
5
24B
100
AcDbEntity
8
SK2
62
256
6
ByLayer
370
13
48
1
60
0
100
AcDbTrace
10
0
20
-31.5
30
0
11
3.174998
21
-31.082003
31
0
12
3.175002
22
-31.917997
32
0
13
0
23
-31.5
33
0
39
0
210
0
220
0
230
1
0
SOLID
5
24C
100
AcDbEntity
8
SK2
62
256
6
ByLayer
370
13
48
1
60
0
100
AcDbTrace
10
39
20
-31.5
30
0
11
35.825002
21
-31.917997
31
0
12
35.824998
22
-31.082003
32
0
13
39
23
-31.5
33
0
39
0
210
0
220
0
230
1
0
ENDBLK
5
24E
100
AcDbEntity
8
0
100
AcDbBlockEnd
0
BLOCK
5
257
100
AcDbEntity
8
0
100
AcDbBlockBegin
2
DimnDraft3D3
70
0
10
0
20
0
30
0
3
DimnDraft3D3
0
MTEXT
5
251
100
AcDbEntity
8
SK2
62
256
6
ByLayer
370
18
48
1
60
0
100
AcDbMText
10
23.807895
20
-45.75
30
0
210
0
220
0
230
1
1
\W0.7150;53.0
40
3
41
0
44
1.084337
50
0
71
7
72
5
7
iso_b_vert
0
LINE
5
252
100
AcDbEntity
8
SK2
62
256
6
ByLayer
370
13
48
1
60
0
100
AcDbLine
10
0
20
-21.69
30
0
11
0
21
-48.5
31
0
39
0
210
0
220
0
230
1
0
LINE
5
253
100
AcDbEntity
8
SK2
62
256
6
ByLayer
370
13
48
1
60
0
100
AcDbLine
10
53
20
-20
30
0
11
53
21
-48.5
31
0
39
0
210
0
220
0
230
1
0
LINE
5
254
100
AcDbEntity
8
SK2
62
256
6
ByLayer
370
13
48
1
60
0
100
AcDbLine
10
0
20
-46.5
30
0
11
53
21
-46.5
31
0
39
0
210
0
220
0
230
1
0
SOLID
5
255
100
AcDbEntity
8
SK2
62
256
6
ByLayer
370
13
48
1
60
0
100
AcDbTrace
10
0
20
-46.5
30
0
11
3.174998
21
-46.082003
31
0
12
3.175002
22
-46.917997
32
0
13
0
23
-46.5
33
0
39
0
210
0
220
0
230
1
0
SOLID
5
256
100
AcDbEntity
8
SK2
62
256
6
ByLayer
370
13
48
1
60
0
100
AcDbTrace
10
53
20
-46.5
30
0
11
49.825002
21
-46.917997
31
0
12
49.824998
22
-46.082003
32
0
13
53
23
-46.5
33
0
39
0
210
0
220
0
230
1
0
ENDBLK
5
258
100
AcDbEntity
8
0
100
AcDbBlockEnd
0
BLOCK
5
261
100
AcDbEntity
8
0
100
AcDbBlockBegin
2
DimnDraft3D4
70
0
10
0
20
0
30
0
3
DimnDraft3D4
0
MTEXT
5
25B
100
AcDbEntity
8
SK2
62
256
6
ByLayer
370
18
48
1
60
0
100
AcDbMText
10
11.807895
20
-60.75
30
0
210
0
220
0
230
1
1
\W0.7150;77.0
40
3
41
0
44
1.084337
50
0
71
7
72
5
7
iso_b_vert
0
LINE
5
25C
100
AcDbEntity
8
SK2
62
256
6
ByLayer
370
13
48
1
60
0
100
AcDbLine
10
-24
20
-14.631506
30
0
11
-24
21
-63.5
31
0
39
0
210
0
220
0
230
1
0
LINE
5
25D
100
AcDbEntity
8
SK2
62
256
6
ByLayer
370
13
48
1
60
0
100
AcDbLine
10
53
20
-20
30
0
11
53
21
-63.5
31
0
39
0
210
0
220
0
230
1
0
LINE
5
25E
100
AcDbEntity
8
SK2
62
256
6
ByLayer
370
13
48
1
60
0
100
AcDbLine
10
-24
20
-61.5
30
0
11
53
21
-61.5
31
0
39
0
210
0
220
0
230
1
0
SOLID
5
25F
100
AcDbEntity
8
SK2
62
256
6
ByLayer
370
13
48
1
60
0
100
AcDbTrace
10
-24
20
-61.5
30
0
11
-20.825002
21
-61.082003
31
0
12
-20.824998
22
-61.917997
32
0
13
-24
23
-61.5
33
0
39
0
210
0
220
0
230
1
0
SOLID
5
260
100
AcDbEntity
8
SK2
62
256
6
ByLayer
370
13
48
1
60
0
100
AcDbTrace
10
53
20
-61.5
30
0
11
49.825002
21
-61.917997
31
0
12
49.824998
22
-61.082003
32
0
13
53
23
-61.5
33
0
39
0
210
0
220
0
230
1
0
ENDBLK
5
262
100
AcDbEntity
8
0
100
AcDbBlockEnd
0
BLOCK
5
26B
100
AcDbEntity
8
0
100
AcDbBlockBegin
2
DimnDraft3D5
70
0
10
0
20
0
30
0
3
DimnDraft3D5
0
MTEXT
5
265
100
AcDbEntity
8
2
62
256
6
ByLayer
370
18
48
1
60
0
100
AcDbMText
10
25.307895
20
59.25
30
0
210
0
220
0
230
1
1
\W0.7150;56.0
40
3
41
0
44
1.084337
50
0
71
7
72
5
7
iso_b_vert
0
LINE
5
266
100
AcDbEntity
8
2
62
256
6
ByLayer
370
13
48
1
60
0
100
AcDbLine
10
0
20
21.69
30
0
11
0
21
60.5
31
0
39
0
210
0
220
0
230
1
0
LINE
5
267
100
AcDbEntity
8
2
62
256
6
ByLayer
370
13
48
1
60
0
100
AcDbLine
10
56
20
24.50001
30
0
11
56
21
60.5
31
0
39
0
210
0
220
0
230
1
0
LINE
5
268
100
AcDbEntity
8
2
62
256
6
ByLayer
370
13
48
1
60
0
100
AcDbLine
10
0
20
58.5
30
0
11
56
21
58.5
31
0
39
0
210
0
220
0
230
1
0
SOLID
5
269
100
AcDbEntity
8
2
62
256
6
ByLayer
370
13
48
1
60
0
100
AcDbTrace
10
0
20
58.5
30
0
11
3.174998
21
58.917997
31
0
12
3.175002
22
58.082003
32
0
13
0
23
58.5
33
0
39
0
210
0
220
0
230
1
0
SOLID
5
26A
100
AcDbEntity
8
2
62
256
6
ByLayer
370
13
48
1
60
0
100
AcDbTrace
10
56
20
58.5
30
0
11
52.825002
21
58.082003
31
0
12
52.824998
22
58.917997
32
0
13
56
23
58.5
33
0
39
0
210
0
220
0
230
1
0
ENDBLK
5
26C
100
AcDbEntity
8
0
100
AcDbBlockEnd
0
BLOCK
5
275
100
AcDbEntity
8
0
100
AcDbBlockBegin
2
DimnDraft3D6
70
0
10
0
20
0
30
0
3
DimnDraft3D6
0
MTEXT
5
26F
100
AcDbEntity
8
2
62
256
6
ByLayer
370
18
48
1
60
0
100
AcDbMText
10
63.226178
20
12.216021
30
0
210
0
220
0
230
1
1
\W0.8385;92%%d
40
3
41
0
44
1.084337
50
44.0000000000001
71
7
72
5
7
iso_b_vert
0
LINE
5
270
100
AcDbEntity
8
2
62
256
6
ByLayer
370
13
48
1
60
0
100
AcDbLine
10
55.641865
20
11.840438
30
0
11
55.485113
21
7.351632
31
0
39
0
210
0
220
0
230
1
0
LINE
5
271
100
AcDbEntity
8
2
62
256
6
ByLayer
370
13
48
1
60
0
100
AcDbLine
10
58
20
22.5
30
0
11
71.171707
21
22.5
31
0
39
0
210
0
220
0
230
1
0
ARC
5
272
100
AcDbEntity
8
2
62
256
6
ByLayer
370
13
48
1
60
0
100
AcDbCircle
39
0
10
56.014106
20
22.5
30
0
40
13.1576016742551
210
0
220
0
230
1
100
AcDbArc
50
268
51
0
0
SOLID
5
273
100
AcDbEntity
8
2
62
256
6
ByLayer
370
13
48
1
60
0
100
AcDbTrace
10
55.554912
20
9.350414
30
0
11
58.718405
21
9.848056
31
0
12
58.739414
22
9.012327
32
0
13
55.554912
23
9.350414
33
0
39
0
210
0
220
0
230
1
0
SOLID
5
274
100
AcDbEntity
8
2
62
256
6
ByLayer
370
13
48
1
60
0
100
AcDbTrace
10
69.171707
20
22.5
30
0
11
69.398451
21
19.305642
31
0
12
68.563963
22
19.355798
32
0
13
69.171707
23
22.5
33
0
39
0
210
0
220
0
230
1
0
ENDBLK
5
276
100
AcDbEntity
8
0
100
AcDbBlockEnd
0
ENDSEC
0
SECTION
2
ENTITIES
0
ARC
5
13F
100
AcDbEntity
8
1
62
256
6
ByLayer
370
18
48
1
60
0
100
AcDbCircle
39
0
10
46.645644
20
-12.3
30
0
40
6.8
210
0
220
0
230
1
100
AcDbArc
50
0
51
20.858074
0
ARC
5
140
100
AcDbEntity
8
1
62
256
6
ByLayer
370
18
48
1
60
0
100
AcDbCircle
39
0
10
43.837742
20
6.95329
30
0
40
10
210
0
220
0
230
1
100
AcDbArc
50
0
51
23.578178
0
ARC
5
141
100
AcDbEntity
8
1
62
256
6
ByLayer
370
18
48
1
60
0
100
AcDbCircle
39
0
10
43.837742
20
6.95329
30
0
40
10
210
0
220
0
230
1
100
AcDbArc
50
336.421822
51
0
0
ARC
5
142
100
AcDbEntity
8
1
62
256
6
ByLayer
370
18
48
1
60
0
100
AcDbCircle
39
0
10
46.646
20
-14.156
30
0
40
6.8
210
0
220
0
230
1
100
AcDbArc
50
339.133501
51
0
0
ARC
5
143
100
AcDbEntity
8
1
62
256
6
ByLayer
370
18
48
1
60
0
100
AcDbCircle
39
0
10
46.646
20
-14.156
30
0
40
6.8
210
0
220
0
230
1
100
AcDbArc
50
0
51
7.854721
0
ARC
5
144
100
AcDbEntity
8
1
62
256
6
ByLayer
370
18
48
1
60
0
100
AcDbCircle
39
0
10
46.645644
20
-12.3
30
0
40
6.8
210
0
220
0
230
1
100
AcDbArc
50
339.141926
51
0
0
ARC
5
14A
100
AcDbEntity
8
1
62
256
6
ByLayer
370
18
48
1
60
0
100
AcDbCircle
39
0
10
53.078083
20
18.062288
30
0
40
0.747999999999999
210
0
220
0
230
1
100
AcDbArc
50
330.161847
51
28.024579
0
ARC
5
14B
100
AcDbEntity
8
1
62
256
6
ByLayer
370
18
48
1
60
0
100
AcDbCircle
39
0
10
53.078083
20
18.062288
30
0
40
0.747999999999999
210
0
220
0
230
1
100
AcDbArc
50
208.024579
51
267.975421
0
ARC
5
14C
100
AcDbEntity
8
1
62
256
6
ByLayer
370
18
48
1
60
0
100
AcDbCircle
39
0
10
53.078083
20
18.062288
30
0
40
0.747999999999999
210
0
220
0
230
1
100
AcDbArc
50
267.975421
51
325.838153
0
ARC
5
14D
100
AcDbEntity
8
1
62
256
6
ByLayer
370
18
48
1
60
0
100
AcDbCircle
39
0
10
53.078083
20
18.062288
30
0
40
0.747999999999999
210
0
220
0
230
1
100
AcDbArc
50
87.975421
51
145.838153
0
ARC
5
14E
100
AcDbEntity
8
1
62
256
6
ByLayer
370
18
48
1
60
0
100
AcDbCircle
39
0
10
-53.078083
20
18.062288
30
0
40
1.035
210
0
220
0
230
-1
100
AcDbArc
50
242.049159
51
302
0
ARC
5
14F
100
AcDbEntity
8
1
62
256
6
ByLayer
370
18
48
1
60
0
100
AcDbCircle
39
0
10
-53.078083
20
18.062288
30
0
40
1.035
210
0
220
0
230
-1
100
AcDbArc
50
122
51
181.950841
0
ARC
5
150
100
AcDbEntity
8
1
62
256
6
ByLayer
370
18
48
1
60
0
100
AcDbCircle
39
0
10
53.078083
20
18.062288
30
0
40
0.747999999999999
210
0
220
0
230
1
100
AcDbArc
50
150.161847
51
208.024579
0
ARC
5
151
100
AcDbEntity
8
1
62
256
6
ByLayer
370
18
48
1
60
0
100
AcDbCircle
39
0
10
53.078083
20
18.062288
30
0
40
0.747999999999999
210
0
220
0
230
1
100
AcDbArc
50
145.838153
51
150.161847
0
ARC
5
152
100
AcDbEntity
8
1
62
256
6
ByLayer
370
18
48
1
60
0
100
AcDbCircle
39
0
10
53.078083
20
18.062288
30
0
40
0.747999999999999
210
0
220
0
230
1
100
AcDbArc
50
325.838153
51
330.161847
0
ARC
5
153
100
AcDbEntity
8
1
62
256
6
ByLayer
370
18
48
1
60
0
100
AcDbCircle
39
0
10
-53.078083
20
18.062288
30
0
40
1.035
210
0
220
0
230
-1
100
AcDbArc
50
302
51
1.950841
0
ARC
5
154
100
AcDbEntity
8
1
62
256
6
ByLayer
370
18
48
1
60
0
100
AcDbCircle
39
0
10
-53.078083
20
18.062288
30
0
40
1.035
210
0
220
0
230
-1
100
AcDbArc
50
62.049159
51
122
0
ARC
5
155
100
AcDbEntity
8
1
62
256
6
ByLayer
370
18
48
1
60
0
100
AcDbCircle
39
0
10
-53.078083
20
18.062288
30
0
40
1.035
210
0
220
0
230
-1
100
AcDbArc
50
1.950841
51
62.049159
0
ARC
5
156
100
AcDbEntity
8
1
62
256
6
ByLayer
370
18
48
1
60
0
100
AcDbCircle
39
0
10
53.078083
20
18.062288
30
0
40
0.747999999999999
210
0
220
0
230
1
100
AcDbArc
50
28.024579
51
87.975421
0
ARC
5
157
100
AcDbEntity
8
1
62
256
6
ByLayer
370
18
48
1
60
0
100
AcDbCircle
39
0
10
-53.078083
20
18.062288
30
0
40
1.035
210
0
220
0
230
-1
100
AcDbArc
50
181.950841
51
242.049159
0
ARC
5
159
100
AcDbEntity
8
1
62
256
6
ByLayer
370
18
48
1
60
0
100
AcDbCircle
39
0
10
48.080451
20
18.2357
30
0
40
0.875
210
0
220
0
230
1
100
AcDbArc
50
97.083483
51
309.335207
0
ARC
5
15A
100
AcDbEntity
8
1
62
256
6
ByLayer
370
18
48
1
60
0
100
AcDbCircle
39
0
10
-48.080451
20
18.2357
30
0
40
0.875
210
0
220
0
230
-1
100
AcDbArc
50
89.933071
51
133.33721
0
ARC
5
15B
100
AcDbEntity
8
1
62
256
6
ByLayer
370
18
48
1
60
0
100
AcDbCircle
39
0
10
47.930604
20
14.7
30
0
40
0.8
210
0
220
0
230
1
100
AcDbArc
50
58
51
68.088064
0
ARC
5
15C
100
AcDbEntity
8
1
62
256
6
ByLayer
370
18
48
1
60
0
100
AcDbCircle
39
0
10
-48.080451
20
18.2357
30
0
40
1
210
0
220
0
230
-1
100
AcDbArc
50
248.852679
51
296.889013
0
ARC
5
15D
100
AcDbEntity
8
1
62
256
6
ByLayer
370
18
48
1
60
0
100
AcDbCircle
39
0
10
-48.080451
20
18.2357
30
0
40
1
210
0
220
0
230
-1
100
AcDbArc
50
28.035005
51
48
0
ARC
5
15E
100
AcDbEntity
8
1
62
256
6
ByLayer
370
18
48
1
60
0
100
AcDbCircle
39
0
10
-48.977584
20
18.671022
30
0
40
1
210
0
220
0
230
-1
100
AcDbArc
50
26.083329
51
122
0
ARC
5
15F
100
AcDbEntity
8
1
62
256
6
ByLayer
370
18
48
1
60
0
100
AcDbCircle
39
0
10
-48.969441
20
19.036151
30
0
40
1
210
0
220
0
230
-1
100
AcDbArc
50
48
51
122
0
ARC
5
160
100
AcDbEntity
8
1
62
256
6
ByLayer
370
18
48
1
60
0
100
AcDbCircle
39
0
10
-48.977584
20
18.671022
30
0
40
1.09434144308426
210
0
220
0
230
-1
100
AcDbArc
50
23.307879
51
122
0
ARC
5
163
100
AcDbEntity
8
1
62
256
6
ByLayer
370
18
48
1
60
0
100
AcDbCircle
39
0
10
-55.603
20
22.103
30
0
40
0.397000000000055
210
0
220
0
230
-1
100
AcDbArc
50
62
51
182
0
ARC
5
164
100
AcDbEntity
8
1
62
256
6
ByLayer
370
18
48
1
60
0
100
AcDbCircle
39
0
10
-55.314906
20
13.853075
30
0
40
0.39700000000003
210
0
220
0
230
-1
100
AcDbArc
50
182
51
302
0
ARC
5
165
100
AcDbEntity
8
1
62
256
6
ByLayer
370
18
48
1
60
0
100
AcDbCircle
39
0
10
-48.314308
20
18.227534
30
0
40
0.397000000000055
210
0
220
0
230
-1
100
AcDbArc
50
302
51
62
0
CIRCLE
5
145
100
AcDbEntity
8
1
62
256
6
ByLayer
370
18
48
1
60
0
100
AcDbCircle
10
-36.309
20
6.95329
30
0
40
3
39
0
210
0
220
0
230
-1
0
CIRCLE
5
146
100
AcDbEntity
8
1
62
256
6
ByLayer
370
18
48
1
60
0
100
AcDbCircle
10
36.309
20
6.95329
30
0
40
2.3975
39
0
210
0
220
0
230
1
0
CIRCLE
5
147
100
AcDbEntity
8
1
62
256
6
ByLayer
370
18
48
1
60
0
100
AcDbCircle
10
-36.309
20
6.95329
30
0
40
2.8975
39
0
210
0
220
0
230
-1
0
CIRCLE
5
148
100
AcDbEntity
8
1
62
256
6
ByLayer
370
18
48
1
60
0
100
AcDbCircle
10
-53.078083
20
18.062288
30
0
40
1.55
39
0
210
0
220
0
230
-1
0
CIRCLE
5
149
100
AcDbEntity
8
1
62
256
6
ByLayer
370
18
48
1
60
0
100
AcDbCircle
10
-53.077405
20
18.061203
30
0
40
1.69405389152441
39
0
210
0
220
0
230
-1
0
CIRCLE
5
158
100
AcDbEntity
8
1
62
256
6
ByLayer
370
18
48
1
60
0
100
AcDbCircle
10
-53.078083
20
18.062288
30
0
40
1.1
39
0
210
0
220
0
230
-1
0
CIRCLE
5
161
100
AcDbEntity
8
1
62
256
6
ByLayer
370
18
48
1
60
0
100
AcDbCircle
10
53.077405
20
18.061203
30
0
40
1.60759144878563
39
0
210
0
220
0
230
1
0
CIRCLE
5
162
100
AcDbEntity
8
1
62
256
6
ByLayer
370
18
48
1
60
0
100
AcDbCircle
10
-53.077405
20
18.061203
30
0
40
1.65562313415252
39
0
210
0
220
0
230
-1
0
ELLIPSE
5
166
100
AcDbEntity
8
1
62
256
6
ByLayer
370
18
48
1
60
0
100
AcDbEllipse
10
16.948929
20
0
30
0
11
9.36449056169493
21
19.7355798561404
31
0
210
0
220
0
230
-1
40
0.341999
41
-2.98825337786556
42
-2.0458861569158
0
ELLIPSE
5
167
100
AcDbEntity
8
1
62
256
6
ByLayer
370
18
48
1
60
0
100
AcDbEllipse
10
-0.948929
20
0
30
0
11
9.36449056169538
21
-19.735579856141
31
0
210
0
220
0
230
-1
40
0.341999
41
-1.09570649667397
42
-0.153339275724231
0
ELLIPSE
5
168
100
AcDbEntity
8
1
62
256
6
ByLayer
370
18
48
1
60
0
100
AcDbEllipse
10
16.948929
20
0
30
0
11
9.36449056169497
21
-19.7355798561404
31
0
210
0
220
0
230
-1
40
0.341999
41
2.0458861569158
42
2.98825337786556
0
ELLIPSE
5
169
100
AcDbEntity
8
1
62
256
6
ByLayer
370
18
48
1
60
0
100
AcDbEllipse
10
-0.948929
20
0
30
0
11
9.36449056169533
21
19.7355798561409
31
0
210
0
220
0
230
-1
40
0.341999
41
0.153339275724231
42
1.09570649667397
0
ELLIPSE
5
16A
100
AcDbEntity
8
1
62
256
6
ByLayer
370
18
48
1
60
0
100
AcDbEllipse
10
28.75
20
7.02826
30
0
11
-4
21
4.89842541528951E-16
31
0
210
0
220
0
230
1
40
0.945519
41
0
42
0.0322995987036576
0
ELLIPSE
5
16B
100
AcDbEntity
8
1
62
256
6
ByLayer
370
18
48
1
60
0
100
AcDbEllipse
10
28.75
20
7.02826
30
0
11
-4
21
4.89842541528951E-16
31
0
210
0
220
0
230
1
40
0.945519
41
3.10791859845923
42
-0.0141371598163947
0
ELLIPSE
5
16C
100
AcDbEntity
8
1
62
256
6
ByLayer
370
18
48
1
60
0
100
AcDbEllipse
10
46.439612
20
19.351125
30
0
11
-0.286271201849461
21
0.90584148668057
31
0
210
0
220
0
230
1
40
0.252711
41
-2.57708792541902
42
-0.564604191610508
0
ELLIPSE
5
16D
100
AcDbEntity
8
1
62
256
6
ByLayer
370
18
48
1
60
0
100
AcDbEllipse
10
58.167351
20
6.072004
30
0
11
60.407654718171
21
3.63005474737273
31
0
210
0
220
0
230
-1
40
0.264338
41
-1.66640370852684
42
-1.64309070211685
0
ELLIPSE
5
16E
100
AcDbEntity
8
1
62
256
6
ByLayer
370
18
48
1
60
0
100
AcDbEllipse
10
52.37864
20
5.692591
30
0
11
0.581227795707386
21
16.0714106409175
31
0
210
0
220
0
230
-1
40
0.110418
41
-0.0630141404098033
42
-0.0187567258455753
0
POINT
5
6C
100
AcDbEntity
8
80
62
256
6
ByLayer
370
18
48
0.05
60
0
100
AcDbPoint
10
0
20
0
30
0
39
0
210
0
220
0
230
1
50
360
0
POINT
5
6E
100
AcDbEntity
8
SK2
62
256
6
ByLayer
370
18
48
0.05
60
0
100
AcDbPoint
10
56
20
22.50001
30
0
39
0
210
0
220
0
230
1
50
360
0
POINT
5
70
100
AcDbEntity
8
1
62
256
6
ByLayer
370
13
48
1
60
1
100
AcDbPoint
10
285.8546
20
133.679623
30
0
39
0
210
0
220
0
230
1
50
360
0
POINT
5
72
100
AcDbEntity
8
1
62
256
6
ByLayer
370
13
48
1
60
1
100
AcDbPoint
10
285.8546
20
133.679623
30
0
39
0
210
0
220
0
230
1
50
360
0
POINT
5
73
100
AcDbEntity
8
1
62
256
6
ByLayer
370
13
48
1
60
1
100
AcDbPoint
10
285.8546
20
133.679623
30
0
39
0
210
0
220
0
230
1
50
360
0
POINT
5
74
100
AcDbEntity
8
1
62
256
6
ByLayer
370
13
48
1
60
1
100
AcDbPoint
10
285.8546
20
133.679623
30
0
39
0
210
0
220
0
230
1
50
360
0
POINT
5
75
100
AcDbEntity
8
1
62
256
6
ByLayer
370
13
48
1
60
1
100
AcDbPoint
10
285.8546
20
133.679623
30
0
39
0
210
0
220
0
230
1
50
360
0
POINT
5
76
100
AcDbEntity
8
1
62
256
6
ByLayer
370
13
48
1
60
1
100
AcDbPoint
10
285.8546
20
133.679623
30
0
39
0
210
0
220
0
230
1
50
360
0
POINT
5
77
100
AcDbEntity
8
81
62
256
6
ByLayer
370
18
48
0.05
60
0
100
AcDbPoint
10
56
20
22.5
30
0
39
0
210
0
220
0
230
1
50
360
0
SPLINE
5
16F
100
AcDbEntity
8
SK1
62
256
6
ByLayer
370
18
48
1
60
0
100
AcDbSpline
70
4
71
3
72
79
73
75
40
0
40
0
40
0
40
0
40
0.0253872101536617
40
0.0507763365371065
40
0.0761624608889573
40
0.0952870312812822
40
0.114415369492401
40
0.133542422164987
40
0.152665239183395
40
0.169595241382575
40
0.186527296705427
40
0.203456150299809
40
0.216161730774488
40
0.228871202572385
40
0.24157943992516
40
0.254283336520219
40
0.264821840056365
40
0.275367957221267
40
0.285914595986943
40
0.29645681240137
40
0.306992042073706
40
0.3168034832868
40
0.32663576538213
40
0.336473696133558
40
0.346305685648154
40
0.356124243884729
40
0.365926518541151
40
0.373252600300617
40
0.380585528701962
40
0.387917369929937
40
0.395241967754484
40
0.402832256250728
40
0.410432514288958
40
0.418032039519142
40
0.425621327401452
40
0.434432611289843
40
0.443273153538714
40
0.452131545053318
40
0.460993329579781
40
0.469841715687847
40
0.478658246944756
40
0.486837142290609
40
0.495024350186494
40
0.503213187457284
40
0.511394306855118
40
0.519799798389324
40
0.52821084893671
40
0.536623167187636
40
0.545030388504132
40
0.556625712196584
40
0.568231046580755
40
0.579843068266448
40
0.591454631288775
40
0.603055183734593
40
0.617892547902827
40
0.632736729545065
40
0.647583140364329
40
0.662423545632832
40
0.680574292164655
40
0.698732114706559
40
0.716894856428526
40
0.735057446025649
40
0.753212192375813
40
0.775873250486068
40
0.798538735096804
40
0.821205598338217
40
0.843868536745792
40
0.866519508543259
40
0.889172741651764
40
0.91182654368197
40
0.934478291355663
40
0.96691852571927
40
0.999360961224818
40
1
40
1
40
1
40
1
41
1
10
-0.194913899692039
20
-13.8568040577414
30
0
41
1
10
-0.199626111553959
20
-13.8565595092047
30
0
41
1
10
-0.209242643597979
20
-13.8560449375481
30
0
41
1
10
-0.224217846493415
20
-13.8551960726406
30
0
41
1
10
-0.238534545404412
20
-13.8543481290273
30
0
41
1
10
-0.25205679511291
20
-13.8535220827153
30
0
41
1
10
-0.264662488677954
20
-13.8527364102733
30
0
41
1
10
-0.277716870694722
20
-13.8519109930447
30
0
41
1
10
-0.290735587035714
20
-13.8510800455243
30
0
41
1
10
-0.30368658606772
20
-13.8502496292124
30
0
41
1
10
-0.316545258255963
20
-13.8494257332707
30
0
41
1
10
-0.328774550923124
20
-13.8486461837881
30
0
41
1
10
-0.340269000560131
20
-13.8479192532137
30
0
41
1
10
-0.35092832003604
20
-13.8472518497045
30
0
41
1
10
-0.361919091071122
20
-13.8465727019487
30
0
41
1
10
-0.37261592933382
20
-13.8459223032315
30
0
41
1
10
-0.382968963158227
20
-13.845303549267
30
0
41
1
10
-0.392931425746377
20
-13.8447190982948
30
0
41
1
10
-0.40318087723612
20
-13.8441306845128
30
0
41
1
10
-0.413726490458121
20
-13.8435399809077
30
0
41
1
10
-0.424330481377658
20
-13.8429620716986
30
0
41
1
10
-0.434988248766057
20
-13.8423981324583
30
0
41
1
10
-0.445690840324527
20
-13.8418498125925
30
0
41
1
10
-0.456698090542618
20
-13.8413058168128
30
0
41
1
10
-0.468001418088081
20
-13.8407691046389
30
0
41
1
10
-0.479591976468957
20
-13.8402426577985
30
0
41
1
10
-0.490467575654958
20
-13.8397723588828
30
0
41
1
10
-0.500546650456968
20
-13.8393569059324
30
0
41
1
10
-0.509758498362156
20
-13.8389935922398
30
0
41
1
10
-0.519109244692921
20
-13.8386418750888
30
0
41
1
10
-0.528697679586739
20
-13.8382992657839
30
0
41
1
10
-0.538519033953741
20
-13.8379680112529
30
0
41
1
10
-0.54855737129384
20
-13.8376499353875
30
0
41
1
10
-0.55866786486031
20
-13.8373503756227
30
0
41
1
10
-0.569364729274387
20
-13.8370556892697
30
0
41
1
10
-0.580638464744149
20
-13.8367719870502
30
0
41
1
10
-0.592456317581688
20
-13.8365040161173
30
0
41
1
10
-0.604232058994227
20
-13.8362650212875
30
0
41
1
10
-0.615908067395642
20
-13.8360552274703
30
0
41
1
10
-0.627427333632171
20
-13.8358746968741
30
0
41
1
10
-0.638480248169443
20
-13.8357272151818
30
0
41
1
10
-0.649063417191238
20
-13.8356093985403
30
0
41
1
10
-0.659200230523587
20
-13.8355163347938
30
0
41
1
10
-0.669143841331927
20
-13.8354438567121
30
0
41
1
10
-0.678972816694862
20
-13.8353900174701
30
0
41
1
10
-0.688677620682254
20
-13.8353539011909
30
0
41
1
10
-0.698254991868324
20
-13.8353343395625
30
0
41
1
10
-0.707616998346522
20
-13.8353301002514
30
0
41
1
10
-0.717920325274604
20
-13.8353408703615
30
0
41
1
10
-0.729073529974398
20
-13.8353709005749
30
0
41
1
10
-0.740975841026334
20
-13.8354237611732
30
0
41
1
10
-0.752515980368129
20
-13.8354935291907
30
0
41
1
10
-0.763704748804866
20
-13.8355772297839
30
0
41
1
10
-0.775569750178577
20
-13.8356807587702
30
0
41
1
10
-0.788027354606838
20
-13.8358043293184
30
0
41
1
10
-0.800987983030633
20
-13.8359477647277
30
0
41
1
10
-0.813504188059508
20
-13.8360978073134
30
0
41
1
10
-0.826506483318018
20
-13.8362623901124
30
0
41
1
10
-0.839929183694182
20
-13.8364378776013
30
0
41
1
10
-0.853696826741409
20
-13.8366206748855
30
0
41
1
10
-0.866975785731976
20
-13.8367961131054
30
0
41
1
10
-0.879799788682225
20
-13.8369608430069
30
0
41
1
10
-0.893234098431295
20
-13.8371239289274
30
0
41
1
10
-0.907198973814407
20
-13.8372771065363
30
0
41
1
10
-0.921602595953443
20
-13.8374116373914
30
0
41
1
10
-0.93549517284518
20
-13.8375132130652
30
0
41
1
10
-0.948916054239425
20
-13.8375784619687
30
0
41
1
10
-0.961906684323494
20
-13.8376042113073
30
0
41
1
10
-0.9744911276542
20
-13.837588672606
30
0
41
1
10
-0.986696426843423
20
-13.837529881548
30
0
41
1
10
-1.00025839014571
20
-13.8374106158971
30
0
41
1
10
-1.01500165966215
20
-13.837203277169
30
0
41
1
10
-1.0256536216088
20
-13.8369776579398
30
0
41
1
10
-1.03089632464088
20
-13.8368481986519
30
0
41
1
10
-1.03099755479875
20
-13.8368456915933
30
0
0
SPLINE
5
170
100
AcDbEntity
8
SK1
62
256
6
ByLayer
370
18
48
1
60
0
100
AcDbSpline
70
4
71
3
72
61
73
57
40
0
40
0
40
0
40
0
40
0.0224320647339669
40
0.0448682497193961
40
0.067294548819872
40
0.0810197086804081
40
0.0947668845374786
40
0.10850976543744
40
0.122234025242014
40
0.135939936905926
40
0.146771224571041
40
0.157610564400937
40
0.168429094119802
40
0.175212770818334
40
0.182016613165672
40
0.188810238763638
40
0.19557993820789
40
0.202100289570164
40
0.208637674598339
40
0.215152084345817
40
0.221685347951225
40
0.228242308998977
40
0.234779986192158
40
0.24098924512187
40
0.24722042332983
40
0.253459956181041
40
0.259680645167638
40
0.26824165031003
40
0.276823618470623
40
0.285425528454161
40
0.294031213003173
40
0.302612162337314
40
0.315506298677597
40
0.328414414653557
40
0.341336072459846
40
0.354260505598578
40
0.367168343518077
40
0.389210966707894
40
0.411262688534072
40
0.433310621574271
40
0.460360350666149
40
0.487419359839312
40
0.514486575559157
40
0.541555030865125
40
0.56861268546029
40
0.602379084538381
40
0.636149878436106
40
0.669922301682336
40
0.70369092286897
40
0.748698489787175
40
0.79370888748647
40
0.838717535203774
40
0.886240165326512
40
0.933764644003058
40
0.981287844212017
40
1
40
1
40
1
40
1
41
1
10
-0.194913899692019
20
-4.73810576234495
30
0
41
1
10
-0.192605677588736
20
-4.73377725999966
30
0
41
1
10
-0.187852317370199
20
-4.7252295854919
30
0
41
1
10
-0.180347681632275
20
-4.71270166009623
30
0
41
1
10
-0.17339833032909
20
-4.70214887214588
30
0
41
1
10
-0.167173764886016
20
-4.69344340803281
30
0
41
1
10
-0.161805330882767
20
-4.6864727962493
30
0
41
1
10
-0.156163070096191
20
-4.6797852984274
30
0
41
1
10
-0.150212378181972
20
-4.67345477786848
30
0
41
1
10
-0.144359542692958
20
-4.66796509344983
30
0
41
1
10
-0.138654219889846
20
-4.66328675972584
30
0
41
1
10
-0.133126305434833
20
-4.65942046952628
30
0
41
1
10
-0.128007788128111
20
-4.65650928765274
30
0
41
1
10
-0.123410177085455
20
-4.65443079050185
30
0
41
1
10
-0.119432879077897
20
-4.65301589961834
30
0
41
1
10
-0.115324641553179
20
-4.65197521601015
30
0
41
1
10
-0.111153271603431
20
-4.65137436605194
30
0
41
1
10
-0.106940384923681
20
-4.65126724085498
30
0
41
1
10
-0.102730274171459
20
-4.65166009279834
30
0
41
1
10
-0.0985125393426817
20
-4.65257779797792
30
0
41
1
10
-0.0943482841862037
20
-4.65406252155711
30
0
41
1
10
-0.0902915273880809
20
-4.65605430962924
30
0
41
1
10
-0.0864556260799993
20
-4.65846587617859
30
0
41
1
10
-0.082871475004935
20
-4.66123010912575
30
0
41
1
10
-0.0795287524565591
20
-4.66425486865834
30
0
41
1
10
-0.0763705373834382
20
-4.66753301850997
30
0
41
1
10
-0.0730257961822505
20
-4.67145367033262
30
0
41
1
10
-0.0695614817996297
20
-4.67605797775208
30
0
41
1
10
-0.0660402686683889
20
-4.68136864191325
30
0
41
1
10
-0.0627858661438089
20
-4.68687394972602
30
0
41
1
10
-0.0597728179656175
20
-4.69251902278961
30
0
41
1
10
-0.0565010573853734
20
-4.69922564486065
30
0
41
1
10
-0.0530510182316392
20
-4.70702082814351
30
0
41
1
10
-0.0495197322349853
20
-4.71593029746197
30
0
41
1
10
-0.0462982026077318
20
-4.72494252125651
30
0
41
1
10
-0.0433461487471287
20
-4.73402310206978
30
0
41
1
10
-0.0399734788514098
20
-4.74529837088567
30
0
41
1
10
-0.0363300412109347
20
-4.75878949697838
30
0
41
1
10
-0.0325872072816447
20
-4.77450341331485
30
0
41
1
10
-0.0289924149545539
20
-4.79144080373266
30
0
41
1
10
-0.0255524670567801
20
-4.80958710956032
30
0
41
1
10
-0.022310036609408
20
-4.82893102990586
30
0
41
1
10
-0.0194411701547822
20
-4.84826828722329
30
0
41
1
10
-0.0168956113339744
20
-4.86758536028294
30
0
41
1
10
-0.0144310479275981
20
-4.88846933700979
30
0
41
1
10
-0.0120771742433112
20
-4.91091022307332
30
0
41
1
10
-0.0098889614130049
20
-4.93489590440114
30
0
41
1
10
-0.007994210345351
20
-4.95883143620961
30
0
41
1
10
-0.0061754611967794
20
-4.98536442949761
30
0
41
1
10
-0.0044958084873108
20
-5.01447406126065
30
0
41
1
10
-0.0030277174589141
20
-5.04613407062223
30
0
41
1
10
-0.0018598846038508
20
-5.0782903574382
30
0
41
1
10
-0.0009724043727163
20
-5.11093912837203
30
0
41
1
10
-0.000359491856834
20
-5.14407486826816
30
0
41
1
10
-8.11697350622E-05
20
-5.17043696583612
30
0
41
1
10
4.3770611923E-06
20
-5.18575527099956
30
0
41
1
10
2.21389495795E-05
20
-5.19008036909933
30
0
0
SPLINE
5
171
100
AcDbEntity
8
SK1
62
256
6
ByLayer
370
18
48
1
60
0
100
AcDbSpline
70
4
71
3
72
97
73
93
40
0
40
0
40
0
40
0
40
0.0285136594372383
40
0.057029204539783
40
0.0855451641290517
40
0.114060297767103
40
0.14257361208267
40
0.166338494014615
40
0.19010576317889
40
0.213873859776025
40
0.23764151130399
40
0.261407753337229
40
0.285171950451296
40
0.308930946945886
40
0.332690710361955
40
0.356449418957826
40
0.374297683415011
40
0.392147130342229
40
0.409996277971532
40
0.427844134266914
40
0.444372517217188
40
0.460901564779775
40
0.4774296566399
40
0.48982791354544
40
0.502227264750182
40
0.514626318260822
40
0.527024169182259
40
0.539552045226336
40
0.552082054986874
40
0.564611324166391
40
0.577138190144388
40
0.586540439609492
40
0.59594450802036
40
0.605347989563285
40
0.614749438590004
40
0.622336908883045
40
0.629927750704562
40
0.637518775940908
40
0.645107800349688
40
0.652693745713074
40
0.658951041637347
40
0.66521071850543
40
0.671469665771321
40
0.677725966383787
40
0.684089850018248
40
0.690458652886018
40
0.696825791641125
40
0.703187404168381
40
0.708578817816998
40
0.713972552182711
40
0.71936303278461
40
0.723496943632297
40
0.727634497476873
40
0.731771429512676
40
0.735904491668735
40
0.740534248276388
40
0.745178932092907
40
0.749830343923442
40
0.754480720031004
40
0.759123009904933
40
0.763751165540988
40
0.768376372717066
40
0.773013697294369
40
0.777658878579058
40
0.782306028092524
40
0.786947901164767
40
0.791576149106557
40
0.796569989218552
40
0.801568938104821
40
0.806569042979628
40
0.811564460985423
40
0.816693676273303
40
0.821826093735016
40
0.826959303540145
40
0.832089599940376
40
0.839578195367435
40
0.847073143930369
40
0.854572547820872
40
0.862071837727812
40
0.869564077539788
40
0.879138669940868
40
0.888717349521999
40
0.898297426541866
40
0.907873925303959
40
0.919350503430634
40
0.930830249140705
40
0.942311038734973
40
0.953789040709396
40
0.965340740645027
40
0.976894018410279
40
0.988447720865904
40
1
40
1
40
1
40
1
41
1
10
-1.29497698875893
20
-3.68810918443444
30
0
41
1
10
-1.29084953452076
20
-3.70822680717693
30
0
41
1
10
-1.28243287598074
20
-3.74838486501723
30
0
41
1
10
-1.26933540908772
20
-3.80839062361724
30
0
41
1
10
-1.25572888044998
20
-3.86815527330522
30
0
41
1
10
-1.24159071838496
20
-3.92766926723861
30
0
41
1
10
-1.22770908808002
20
-3.98363457131167
30
0
41
1
10
-1.21416881185954
20
-4.03609422414447
30
0
41
1
10
-1.20104444231146
20
-4.08508863364166
30
0
41
1
10
-1.1874623824468
20
-4.13388487426558
30
0
41
1
10
-1.173396306411
20
-4.18247163920672
30
0
41
1
10
-1.15881930866295
20
-4.23083750541955
30
0
41
1
10
-1.14370636023521
20
-4.27896936159357
30
0
41
1
10
-1.12802673678862
20
-4.3268572051379
30
0
41
1
10
-1.11173019736285
20
-4.37448477032698
30
0
41
1
10
-1.09617586315685
20
-4.41791132631003
30
0
41
1
10
-1.08151026053974
20
-4.45719687289315
30
0
41
1
10
-1.06787266099225
20
-4.49240071985005
30
0
41
1
10
-1.05377424561667
20
-4.5274143675363
30
0
41
1
10
-1.03954457030453
20
-4.56136559626241
30
0
41
1
10
-1.02519650295028
20
-4.5942583866684
30
0
41
1
10
-1.01073398605491
20
-4.62609366233106
30
0
41
1
10
-0.996995434260402
20
-4.65507258558048
30
0
41
1
10
-0.98409669283186
20
-4.68124125942922
30
0
41
1
10
-0.972148028619073
20
-4.70464666207323
30
0
41
1
10
-0.959836434496914
20
-4.72788994822753
30
0
41
1
10
-0.947093527098357
20
-4.75103678304489
30
0
41
1
10
-0.933892048606728
20
-4.77407204567133
30
0
41
1
10
-0.920187416036961
20
-4.79697064341453
30
0
41
1
10
-0.905985061366663
20
-4.81962477071399
30
0
41
1
10
-0.892471651774453
20
-4.8401442772669
30
0
41
1
10
-0.879763670462037
20
-4.85858120183352
30
0
41
1
10
-0.867969371058995
20
-4.87498902748771
30
0
41
1
10
-0.855794892022821
20
-4.89118300402228
30
0
41
1
10
-0.844022864157806
20
-4.90611190817713
30
0
41
1
10
-0.832719914638888
20
-4.919808742031
30
0
41
1
10
-0.821946409732146
20
-4.93230580440734
30
0
41
1
10
-0.810845843809206
20
-4.94458974617122
30
0
41
1
10
-0.799399638656139
20
-4.95663246614618
30
0
41
1
10
-0.788277442650371
20
-4.9677203712783
30
0
41
1
10
-0.777532479003885
20
-4.97788300774351
30
0
41
1
10
-0.767213850370639
20
-4.98714998864315
30
0
41
1
10
-0.756596784198727
20
-4.99616618418742
30
0
41
1
10
-0.745605304724299
20
-5.00495290353029
30
0
41
1
10
-0.734216249157654
20
-5.01347641091823
30
0
41
1
10
-0.722403630645503
20
-5.02168928668477
30
0
41
1
10
-0.710219905795065
20
-5.02949487274733
30
0
41
1
10
-0.698295602226226
20
-5.03646819455803
30
0
41
1
10
-0.686688073743009
20
-5.04264108120455
30
0
41
1
10
-0.675455296966839
20
-5.04805676308108
30
0
41
1
10
-0.664837758792893
20
-5.05263807407748
30
0
41
1
10
-0.654910984828657
20
-5.05646308667827
30
0
41
1
10
-0.645741363993434
20
-5.05962650372579
30
0
41
1
10
-0.636427920076496
20
-5.06245914100027
30
0
41
1
10
-0.626607334103185
20
-5.06504163450731
30
0
41
1
10
-0.61625904661265
20
-5.06728689306246
30
0
41
1
10
-0.605385433469638
20
-5.06911996735571
30
0
41
1
10
-0.594402864816737
20
-5.07045181278456
30
0
41
1
10
-0.583361270723736
20
-5.07126795615067
30
0
41
1
10
-0.572310891637311
20
-5.0715554799851
30
0
41
1
10
-0.561289091886769
20
-5.07129932170669
30
0
41
1
10
-0.550319754965782
20
-5.07048588581543
30
0
41
1
10
-0.539419529617887
20
-5.06914681109899
30
0
41
1
10
-0.528613896000794
20
-5.06730545841742
30
0
41
1
10
-0.517942319628245
20
-5.06498730023549
30
0
41
1
10
-0.507443807069232
20
-5.06221833070671
30
0
41
1
10
-0.496871182012228
20
-5.05893149124181
30
0
41
1
10
-0.486251273574859
20
-5.05511150404064
30
0
41
1
10
-0.475597840849097
20
-5.05076475293605
30
0
41
1
10
-0.465187263449664
20
-5.04602073085374
30
0
41
1
10
-0.454935223757562
20
-5.04086878598841
30
0
41
1
10
-0.444847601623471
20
-5.03532873520125
30
0
41
1
10
-0.434924584083776
20
-5.02942037155471
30
0
41
1
10
-0.425251354068141
20
-5.02322149253007
30
0
41
1
10
-0.414378864358046
20
-5.01576951498617
30
0
41
1
10
-0.402432919931789
20
-5.00694390161866
30
0
41
1
10
-0.389554048543219
20
-4.99663210649902
30
0
41
1
10
-0.377120112861945
20
-4.98591890525518
30
0
41
1
10
-0.365110997661037
20
-4.97485792085709
30
0
41
1
10
-0.352422664158921
20
-4.9624422543812
30
0
41
1
10
-0.339148067551871
20
-4.94861318925829
30
0
41
1
10
-0.325388962779688
20
-4.93331263730653
30
0
41
1
10
-0.312143672867091
20
-4.91767011113569
30
0
41
1
10
-0.298526575257886
20
-4.90067670238378
30
0
41
1
10
-0.284597636914578
20
-4.8823057071696
30
0
41
1
10
-0.270427625488897
20
-4.86252676600739
30
0
41
1
10
-0.256787187266696
20
-4.84245217108913
30
0
41
1
10
-0.243603309409605
20
-4.82207518399049
30
0
41
1
10
-0.230834989444999
20
-4.80142405346633
30
0
41
1
10
-0.218458970488329
20
-4.78051497707225
30
0
41
1
10
-0.206477691617894
20
-4.75941042536285
30
0
41
1
10
-0.198727368196614
20
-4.74522690866755
30
0
41
1
10
-0.194913899692548
20
-4.73810576234554
30
0
0
SPLINE
5
172
100
AcDbEntity
8
SK1
62
256
6
ByLayer
370
18
48
1
60
0
100
AcDbSpline
70
4
71
1
72
4
73
2
40
0
40
0
40
1
40
1
41
1
10
-1.30710678118655
20
-3.62976580696274
30
0
41
1
10
-1.29497698875894
20
-3.68810918443433
30
0
0
SPLINE
5
173
100
AcDbEntity
8
SK1
62
256
6
ByLayer
370
18
48
1
60
0
100
AcDbSpline
70
4
71
1
72
4
73
2
40
0
40
0
40
1
40
1
41
1
10
-1.29497698875894
20
3.6881091844343
30
0
41
1
10
-1.30710678118656
20
3.62976580696269
30
0
0
SPLINE
5
174
100
AcDbEntity
8
SK1
62
256
6
ByLayer
370
18
48
1
60
0
100
AcDbSpline
70
4
71
3
72
97
73
93
40
0
40
0
40
0
40
0
40
0.0142806602470876
40
0.0285623984001846
40
0.0428424478685869
40
0.05360028579135
40
0.0643602431648029
40
0.0751194774048785
40
0.0858763290303273
40
0.0953996916970198
40
0.104924209274451
40
0.114446925834905
40
0.121593992286975
40
0.128743247662697
40
0.135891808645799
40
0.143037927892067
40
0.148965983302704
40
0.154898321485842
40
0.1608309530767
40
0.166761097033222
40
0.172687310849746
40
0.178206383550148
40
0.183737179537853
40
0.189271152973498
40
0.194801784380454
40
0.200324860505954
40
0.205838776890217
40
0.209959800189588
40
0.214084674820631
40
0.218208937901471
40
0.222329126466727
40
0.226598769745218
40
0.230874021030302
40
0.235148860100627
40
0.239417940519806
40
0.244374410757738
40
0.249347339232038
40
0.254330308167579
40
0.259315185719675
40
0.264292526474313
40
0.269251948430318
40
0.273852691281682
40
0.278458110058526
40
0.283064445381507
40
0.28766643929317
40
0.29239464566493
40
0.297125979059236
40
0.301858025554487
40
0.306587204952942
40
0.313109736460127
40
0.319637899121206
40
0.32616982348278
40
0.332701489839804
40
0.339226962593778
40
0.347573187144103
40
0.355923246618762
40
0.364274560036629
40
0.372622495248324
40
0.382832543649979
40
0.393046572406123
40
0.403263368269749
40
0.413480078561025
40
0.423692376916355
40
0.436439538567959
40
0.449189190187899
40
0.461939617306848
40
0.474687836651952
40
0.487429324611756
40
0.500172084590598
40
0.512915164595842
40
0.525657088996858
40
0.543905173858421
40
0.562154496893065
40
0.580402983810344
40
0.601255759616833
40
0.62211095081117
40
0.642967600234378
40
0.663824012238005
40
0.684677812072487
40
0.705524699640434
40
0.726372926687673
40
0.747221845236334
40
0.768070531818817
40
0.788917804828867
40
0.814973569893322
40
0.841030558935371
40
0.867087728313362
40
0.89314373930171
40
0.919857250206639
40
0.94657175156853
40
0.973286352844135
40
1
40
1
40
1
40
1
41
1
10
-0.194913899692019
20
4.73810576235147
30
0
41
1
10
-0.19962611155394
20
4.74691001956502
30
0
41
1
10
-0.20924264359796
20
4.76442558709893
30
0
41
1
10
-0.224217846493413
20
4.79043289791282
30
0
41
1
10
-0.238534545404412
20
4.81401550344493
30
0
41
1
10
-0.252056795112907
20
4.8352331838149
30
0
41
1
10
-0.264662488677947
20
4.8541446239168
30
0
41
1
10
-0.27771687069471
20
4.87280946280652
30
0
41
1
10
-0.290735587035701
20
4.89049534308406
30
0
41
1
10
-0.303686586067701
20
4.90721111006084
30
0
41
1
10
-0.316545258255933
20
4.92296195151668
30
0
41
1
10
-0.32877455092309
20
4.93712035633423
30
0
41
1
10
-0.340269000560095
20
4.94974202904246
30
0
41
1
10
-0.350928320036005
20
4.9608878300532
30
0
41
1
10
-0.361919091071086
20
4.97178980574592
30
0
41
1
10
-0.372615929333785
20
4.98181569842676
30
0
41
1
10
-0.382968963158192
20
4.99099537494897
30
0
41
1
10
-0.392931425746347
20
4.9993592463151
30
0
41
1
10
-0.403180877236093
20
5.00746836062535
30
0
41
1
10
-0.413726490458098
20
5.01529081879516
30
0
41
1
10
-0.424330481377635
20
5.02262549899734
30
0
41
1
10
-0.434988248766035
20
5.02947023430182
30
0
41
1
10
-0.445690840324507
20
5.03581973640925
30
0
41
1
10
-0.4566980905426
20
5.04180129588561
30
0
41
1
10
-0.468001418088064
20
5.04736822466412
30
0
41
1
10
-0.479591976468942
20
5.05247377670362
30
0
41
1
10
-0.490467575654942
20
5.05668693410962
30
0
41
1
10
-0.500546650456951
20
5.06011012573413
30
0
41
1
10
-0.509758498362132
20
5.06286127194085
30
0
41
1
10
-0.519109244692894
20
5.0652674718234
30
0
41
1
10
-0.52869767958671
20
5.06733312089842
30
0
41
1
10
-0.538519033953714
20
5.06901832241476
30
0
41
1
10
-0.548557371293814
20
5.07029626871265
30
0
41
1
10
-0.558667864860286
20
5.07113567852248
30
0
41
1
10
-0.569364729274366
20
5.0715478888152
30
0
41
1
10
-0.580638464744131
20
5.0714137586443
30
0
41
1
10
-0.592456317581675
20
5.07064802651899
30
0
41
1
10
-0.604232058994217
20
5.06928408024307
30
0
41
1
10
-0.615908067395635
20
5.06734386806442
30
0
41
1
10
-0.627427333632168
20
5.06485200414343
30
0
41
1
10
-0.638480248169441
20
5.0618941760346
30
0
41
1
10
-0.64906341719124
20
5.05853833724448
30
0
41
1
10
-0.659200230523593
20
5.05486825290229
30
0
41
1
10
-0.669143841331938
20
5.05082533471997
30
0
41
1
10
-0.678972816694876
20
5.04639845610098
30
0
41
1
10
-0.688677620682263
20
5.04160216326473
30
0
41
1
10
-0.698254991868326
20
5.03645377380096
30
0
41
1
10
-0.707616998346513
20
5.03102269691811
30
0
41
1
10
-0.71792032527459
20
5.02461485829128
30
0
41
1
10
-0.729073529974387
20
5.0171363061172
30
0
41
1
10
-0.740975841026326
20
5.00850141294007
30
0
41
1
10
-0.752515980368124
20
4.9995062055718
30
0
41
1
10
-0.763704748804866
20
4.99019556439925
30
0
41
1
10
-0.775569750178576
20
4.97971595517896
30
0
41
1
10
-0.788027354606831
20
4.96801003712565
30
0
41
1
10
-0.800987983030626
20
4.95502351456199
30
0
41
1
10
-0.813504188059489
20
4.94171814112774
30
0
41
1
10
-0.826506483318035
20
4.92712456473676
30
0
41
1
10
-0.839929183694027
20
4.91120961808216
30
0
41
1
10
-0.853696826741901
20
4.89393718615159
30
0
41
1
10
-0.866975785730045
20
4.87637282325596
30
0
41
1
10
-0.879799788689312
20
4.85855431445111
30
0
41
1
10
-0.893234098401944
20
4.83902162259416
30
0
41
1
10
-0.907198973954457
20
4.81773712907816
30
0
41
1
10
-0.921602595434333
20
4.79466033205142
30
0
41
1
10
-0.935495174781372
20
4.77133329364312
30
0
41
1
10
-0.948916047016667
20
4.74778879337728
30
0
41
1
10
-0.961906711264477
20
4.7240504717372
30
0
41
1
10
-0.974491027094959
20
4.70013199849439
30
0
41
1
10
-0.986696802130866
20
4.67604499874156
30
0
41
1
10
-1.00025673392165
20
4.64831260205508
30
0
41
1
10
-1.01501087842834
20
4.61686614793632
30
0
41
1
10
-1.03078970107206
20
4.58163775170399
30
0
41
1
10
-1.04671452154558
20
4.5444799052815
30
0
41
1
10
-1.06274714813147
20
4.50537614662954
30
0
41
1
10
-1.07883680108791
20
4.46430642792174
30
0
41
1
10
-1.09432764074259
20
4.42298798626431
30
0
41
1
10
-1.10926051349391
20
4.38144155504115
30
0
41
1
10
-1.12367679797201
20
4.33968890392016
30
0
41
1
10
-1.13761619714872
20
4.29774288723145
30
0
41
1
10
-1.15109905764731
20
4.2556099436801
30
0
41
1
10
-1.16415090157203
20
4.21329458495832
30
0
41
1
10
-1.1767940041068
20
4.17080678108368
30
0
41
1
10
-1.19007283792662
20
4.12460279789763
30
0
41
1
10
-1.20389625545791
20
4.07463880832329
30
0
41
1
10
-1.21816584582891
20
4.02086894063107
30
0
41
1
10
-1.23192294513396
20
3.96687000404642
30
0
41
1
10
-1.24530715479802
20
3.91219535917593
30
0
41
1
10
-1.25833213268141
20
3.85684582170706
30
0
41
1
10
-1.27100407961069
20
3.80082058560646
30
0
41
1
10
-1.2832333248395
20
3.74458367931135
30
0
41
1
10
-1.29110960019856
20
3.70695672297801
30
0
41
1
10
-1.29497698875897
20
3.68810918443453
30
0
0
SPLINE
5
175
100
AcDbEntity
8
SK1
62
256
6
ByLayer
370
18
48
1
60
0
100
AcDbSpline
70
4
71
3
72
12
73
8
40
0
40
0
40
0
40
0
40
0.273499797130478
40
0.547049829721134
40
0.820479330048769
40
0.987821412920798
40
1
40
1
40
1
40
1
41
1
10
-0.194913899692039
20
13.8568040577414
30
0
41
1
10
-0.192605677589307
20
13.8569176405515
30
0
41
1
10
-0.187849851791995
20
13.857242645677
30
0
41
1
10
-0.180356311229948
20
13.8579782021902
30
0
41
1
10
-0.173371552007938
20
13.8589529724055
30
0
41
1
10
-0.168800362472119
20
13.8596744855996
30
0
41
1
10
-0.166878480274591
20
13.8600447805591
30
0
41
1
10
-0.166747787479567
20
13.8600701391087
30
0
0
SPLINE
5
176
100
AcDbEntity
8
SK1
62
256
6
ByLayer
370
18
48
1
60
0
100
AcDbSpline
70
4
71
2
72
6
73
3
40
0
40
0
40
0
40
1
40
1
40
1
41
1
10
-1.49993701093306
20
14.0251236975378
30
0
41
1
10
-11.9999685554648
20
13.761329728022
30
0
41
1
10
-22.5000001
20
13.4975357576218
30
0
0
SPLINE
5
177
100
AcDbEntity
8
SK1
62
256
6
ByLayer
370
18
48
1
60
0
100
AcDbSpline
70
4
71
2
72
6
73
3
40
0
40
0
40
0
40
1
40
1
40
1
41
1
10
-22.5000001
20
-13.4975357576218
30
0
41
1
10
-11.9999685554648
20
-13.761329728022
30
0
41
1
10
-1.49993701093306
20
-14.0251236975378
30
0
0
SPLINE
5
178
100
AcDbEntity
8
SK1
62
256
6
ByLayer
370
18
48
1
60
0
100
AcDbSpline
70
4
71
3
72
116
73
112
40
0
40
0
40
0
40
0
40
0.0103764764495986
40
0.0207532989041014
40
0.031130219986706
40
0.0415070105860392
40
0.0518834603175143
40
0.062260185521825
40
0.0726373100956446
40
0.0830145462848601
40
0.0933916298402301
40
0.103768320640657
40
0.114145366912154
40
0.124522881471216
40
0.134900524330753
40
0.145277985865889
40
0.155654987663718
40
0.166166655880727
40
0.176678904108935
40
0.187191307907661
40
0.197703484064347
40
0.208215091830972
40
0.217101206060762
40
0.225987894307164
40
0.234874836575609
40
0.243761739436186
40
0.252648336738492
40
0.26153439033507
40
0.270421117139266
40
0.279308543306618
40
0.288196278648723
40
0.297083965572831
40
0.305971280002056
40
0.314857932308461
40
0.32374538747509
40
0.33263368800266
40
0.341522365698392
40
0.350410988966384
40
0.359299163885644
40
0.368186535305633
40
0.377325027308731
40
0.386464601150742
40
0.395604668380898
40
0.404744678692869
40
0.413884121177597
40
0.423022525599016
40
0.430454362139896
40
0.437886674615793
40
0.445319134922901
40
0.452751426746543
40
0.460183245965072
40
0.467615192757916
40
0.475047635759996
40
0.482480239912094
40
0.489912674726589
40
0.497344614651969
40
0.504776577334697
40
0.512209036600637
40
0.519641664721174
40
0.527074130187123
40
0.534506098070207
40
0.54210285019742
40
0.549700111193821
40
0.557297552926287
40
0.564894834874813
40
0.572491604575956
40
0.580186004598929
40
0.58788089281843
40
0.595575960835859
40
0.603270881279712
40
0.610965308331283
40
0.61865946690335
40
0.62635406286753
40
0.634048823933714
40
0.64174345636548
40
0.649437645525015
40
0.659055075783507
40
0.668673016036323
40
0.678290987535476
40
0.687908460404843
40
0.697711009411402
40
0.70751402804945
40
0.717317077444057
40
0.727119668393362
40
0.735580101258105
40
0.744040797334315
40
0.752501508383409
40
0.760961961666349
40
0.769430381560615
40
0.777899034494586
40
0.78636770042767
40
0.794836138048484
40
0.804507822024962
40
0.814180192612143
40
0.823853019939787
40
0.833526044490891
40
0.843198977875902
40
0.852871503598701
40
0.862543277813828
40
0.873826019615032
40
0.885109473987953
40
0.896393331376481
40
0.907677243338266
40
0.918960823653571
40
0.930243649421823
40
0.941869124083716
40
0.953495241637443
40
0.965121718243554
40
0.976748238786791
40
0.988374457736769
40
1
40
1
40
1
40
1
41
1
10
-1.49993701093304
20
-3.70674994460911
30
0
41
1
10
-1.50459225276995
20
-3.68281164335588
30
0
41
1
10
-1.51387395629961
20
-3.63485801416773
30
0
41
1
10
-1.52771263833633
20
-3.56269842371094
30
0
41
1
10
-1.54145902171185
20
-3.49030906237834
30
0
41
1
10
-1.55510734175942
20
-3.41769133153713
30
0
41
1
10
-1.56865136184447
20
-3.34484467802562
30
0
41
1
10
-1.5820852413981
20
-3.27176787392439
30
0
41
1
10
-1.59540223461329
20
-3.19845957536807
30
0
41
1
10
-1.60859512439429
20
-3.12492061582968
30
0
41
1
10
-1.62165652365945
20
-3.05115285808816
30
0
41
1
10
-1.63457942621645
20
-2.97715586676054
30
0
41
1
10
-1.64735698843521
20
-2.90292847393777
30
0
41
1
10
-1.65998137312753
20
-2.82846947627331
30
0
41
1
10
-1.67244419864026
20
-2.75378035890589
30
0
41
1
10
-1.68473690339942
20
-2.67886376157731
30
0
41
1
10
-1.69690358945626
20
-2.60339557230179
30
0
41
1
10
-1.70893344593638
20
-2.52737131847083
30
0
41
1
10
-1.72081416137299
20
-2.45078671337447
30
0
41
1
10
-1.73248424704016
20
-2.37396924999451
30
0
41
1
10
-1.74393340822492
20
-2.29692292966457
30
0
41
1
10
-1.75457343143106
20
-2.22363263967426
30
0
41
1
10
-1.76443602826061
20
-2.15413749402865
30
0
41
1
10
-1.77355339471348
20
-2.08847280489129
30
0
41
1
10
-1.78248556013307
20
-2.02264604884759
30
0
41
1
10
-1.79122543065374
20
-1.95666077236951
30
0
41
1
10
-1.79976590411292
20
-1.89052053043787
30
0
41
1
10
-1.80810035995498
20
-1.82422534471194
30
0
41
1
10
-1.81622205409809
20
-1.75777462302431
30
0
41
1
10
-1.82412375278261
20
-1.69116828573307
30
0
41
1
10
-1.83179781760645
20
-1.62441045566748
30
0
41
1
10
-1.83923644335081
20
-1.55750635751227
30
0
41
1
10
-1.84643181195963
20
-1.49046121274743
30
0
41
1
10
-1.85337663413013
20
-1.42327593781082
30
0
41
1
10
-1.86006329926177
20
-1.35595064545382
30
0
41
1
10
-1.86648433675858
20
-1.2884863141884
30
0
41
1
10
-1.87263203965746
20
-1.22088906053324
30
0
41
1
10
-1.87849849130116
20
-1.15316635596585
30
0
41
1
10
-1.88407575566694
20
-1.08532566609412
30
0
41
1
10
-1.88940600122461
20
-1.01673163819383
30
0
41
1
10
-1.89447115261681
20
-0.947381557767678
30
0
41
1
10
-1.899253822239
20
-0.877274533037766
30
0
41
1
10
-1.90370027350592
20
-0.807058298323772
30
0
41
1
10
-1.90780310599834
20
-0.736743832690241
30
0
41
1
10
-1.91155498608005
20
-0.66634215451293
30
0
41
1
10
-1.91473741716047
20
-0.600247636887297
30
0
41
1
10
-1.91741877487809
20
-0.538481341259454
30
0
41
1
10
-1.91966590592025
20
-0.48105892290265
30
0
41
1
10
-1.92166687482598
20
-0.423593858988987
30
0
41
1
10
-1.92341908440969
20
-0.36609322179424
30
0
41
1
10
-1.92491999850245
20
-0.308561796454244
30
0
41
1
10
-1.92616699488522
20
-0.251002689230313
30
0
41
1
10
-1.92715913634868
20
-0.193419286749639
30
0
41
1
10
-1.9278954690051
20
-0.13581740427231
30
0
41
1
10
-1.92837497531703
20
-0.0782046854454199
30
0
41
1
10
-1.92859665905575
20
-0.0205866065515184
30
0
41
1
10
-1.92855945090376
20
0.0370333864772999
30
0
41
1
10
-1.92826414369674
20
0.0946518270530303
30
0
41
1
10
-1.92771150508811
20
0.152263093754538
30
0
41
1
10
-1.92690230213252
20
0.209859504035627
30
0
41
1
10
-1.92582937331184
20
0.267861050034517
30
0
41
1
10
-1.92448676357602
20
0.326263795011802
30
0
41
1
10
-1.92287036252547
20
0.385063617179044
30
0
41
1
10
-1.92099246115663
20
0.443829634195768
30
0
41
1
10
-1.918855650005
20
0.502554175238944
30
0
41
1
10
-1.9164521364936
20
0.561483181550836
30
0
41
1
10
-1.91378054029358
20
0.620612717526051
30
0
41
1
10
-1.910841065033
20
0.679939084713039
30
0
41
1
10
-1.90764901594314
20
0.739206181455692
30
0
41
1
10
-1.90420848741423
20
0.798407053030793
30
0
41
1
10
-1.90052342668883
20
0.857536245278713
30
0
41
1
10
-1.89659773475084
20
0.916591104927363
30
0
41
1
10
-1.89243623627364
20
0.975569539027274
30
0
41
1
10
-1.88804361702131
20
1.03446824607433
30
0
41
1
10
-1.88342477864119
20
1.09328150605888
30
0
41
1
10
-1.87818112051669
20
1.15689829692512
30
0
41
1
10
-1.87224947456806
20
1.22528889334716
30
0
41
1
10
-1.86556524254428
20
1.2984174221943
30
0
41
1
10
-1.85856190585412
20
1.3713931851199
30
0
41
1
10
-1.85120237142027
20
1.44467707972855
30
0
41
1
10
-1.84348946846046
20
1.51826209498627
30
0
41
1
10
-1.8354266238985
20
1.59214160943387
30
0
41
1
10
-1.82707296109723
20
1.66584451743509
30
0
41
1
10
-1.8188327666352
20
1.7360106844784
30
0
41
1
10
-1.81075757530353
20
1.80266551281487
30
0
41
1
10
-1.80289249169488
20
1.86583489614069
30
0
41
1
10
-1.79483820365347
20
1.9288640742517
30
0
41
1
10
-1.78659834748699
20
1.99177059525923
30
0
41
1
10
-1.77817876108976
20
2.05455346066753
30
0
41
1
10
-1.76958494901766
20
2.11721187185753
30
0
41
1
10
-1.76082538847732
20
2.17972441653832
30
0
41
1
10
-1.75148336314848
20
2.24504316257792
30
0
41
1
10
-1.74153794792049
20
2.31314357733372
30
0
41
1
10
-1.73096865104271
20
2.38399897708861
30
0
41
1
10
-1.720213128749
20
2.45466243082666
30
0
41
1
10
-1.70927918978292
20
2.52513105294461
30
0
41
1
10
-1.69817461603465
20
2.59540195498483
30
0
41
1
10
-1.68690719406856
20
2.66547225935194
30
0
41
1
10
-1.67485007793895
20
2.73922089145728
30
0
41
1
10
-1.66197985323697
20
2.81661007639652
30
0
41
1
10
-1.6482736710195
20
2.89759848717561
30
0
41
1
10
-1.63438448872244
20
2.97831844657224
30
0
41
1
10
-1.62032252167639
20
3.0587670947389
30
0
41
1
10
-1.60609798030082
20
3.13894158687717
30
0
41
1
10
-1.59157503374144
20
3.21965074510217
30
0
41
1
10
-1.57675769251966
20
3.30088754211069
30
0
41
1
10
-1.56164918639256
20
3.38264454917516
30
0
41
1
10
-1.5464053116842
20
3.46411582913165
30
0
41
1
10
-1.53103553233638
20
3.54529938184704
30
0
41
1
10
-1.51554815898289
20
3.62619311991622
30
0
41
1
10
-1.5051528394354
20
3.67993008656834
30
0
41
1
10
-1.49993701093304
20
3.70674994460905
30
0
0
SPLINE
5
179
100
AcDbEntity
8
SK1
62
256
6
ByLayer
370
18
48
1
60
0
100
AcDbSpline
70
4
71
3
72
65
73
61
40
0
40
0
40
0
40
0
40
0.0402875996056287
40
0.0805765252210811
40
0.120863318580113
40
0.151086152463765
40
0.181311941689202
40
0.211536340940078
40
0.241757279202667
40
0.26624063462516
40
0.29073553192662
40
0.315227865773247
40
0.339710153764212
40
0.364182929087743
40
0.379306825352985
40
0.394432844477104
40
0.409553031698869
40
0.41879841453274
40
0.42806109978559
40
0.437318709367266
40
0.446559864533116
40
0.455787159412363
40
0.461523139775511
40
0.467275008633294
40
0.473013083329502
40
0.478730192945086
40
0.482296331475678
40
0.48586785264461
40
0.489428906075024
40
0.493034863523596
40
0.49665414602045
40
0.500256331570936
40
0.503400010605437
40
0.506554582626278
40
0.509701339856757
40
0.514179759430276
40
0.518676156502605
40
0.523165125095394
40
0.52955339963462
40
0.535961020612864
40
0.542381836766038
40
0.548788152325734
40
0.560185896007579
40
0.571599405172648
40
0.58302443874599
40
0.594437916352314
40
0.609968882340011
40
0.62550456136618
40
0.641038563853721
40
0.664840753511148
40
0.688649107275408
40
0.712464252015611
40
0.736281278252653
40
0.760090743693699
40
0.799711873051111
40
0.839336108596689
40
0.878959164731084
40
0.919305584206602
40
0.959653056894861
40
1
40
1
40
1
40
1
41
1
10
-1.49993701093304
20
3.70674994460789
30
0
41
1
10
-1.49988282705592
20
3.69466788534004
30
0
41
1
10
-1.49968063369342
20
3.6704742244816
30
0
41
1
10
-1.49911273255219
20
3.63409781390088
30
0
41
1
10
-1.49830318468419
20
3.6006684891983
30
0
41
1
10
-1.49731883682754
20
3.57021156052004
30
0
41
1
10
-1.49621008610914
20
3.54274565797676
30
0
41
1
10
-1.49484497130409
20
3.51522832545526
30
0
41
1
10
-1.4932878539012
20
3.48940547752981
30
0
41
1
10
-1.4915933278621
20
3.46528922673891
30
0
41
1
10
-1.48977298363899
20
3.44288757560341
30
0
41
1
10
-1.48763164170487
20
3.4204584901837
30
0
41
1
10
-1.48510325236234
20
3.39801725190061
30
0
41
1
10
-1.48250318381396
20
3.37843532798399
30
0
41
1
10
-1.47996378461597
20
3.36172651183484
30
0
41
1
10
-1.47758934891184
20
3.34789436119167
30
0
41
1
10
-1.47522936078517
20
3.33589171127383
30
0
41
1
10
-1.47300006229699
20
3.32571265451445
30
0
41
1
10
-1.4709867741661
20
3.31734688122418
30
0
41
1
10
-1.46874379515534
20
3.30904667801302
30
0
41
1
10
-1.46622335518633
20
3.30085616893072
30
0
41
1
10
-1.46373641439195
20
3.29383299532924
30
0
41
1
10
-1.46138049632053
20
3.28795144251613
30
0
41
1
10
-1.45923010591104
20
3.28318579344649
30
0
41
1
10
-1.45685043995828
20
3.27861034388556
30
0
41
1
10
-1.45454116436074
20
3.27484398669007
30
0
41
1
10
-1.45238692740511
20
3.27185056306148
30
0
41
1
10
-1.45046898184415
20
3.26955181351843
30
0
41
1
10
-1.44841924127198
20
3.26748367795557
30
0
41
1
10
-1.44623516506884
20
3.26572419684194
30
0
41
1
10
-1.44394532758586
20
3.26431980496453
30
0
41
1
10
-1.441690191112
20
3.26336173212005
30
0
41
1
10
-1.43951608839344
20
3.26283960308526
30
0
41
1
10
-1.43745319884846
20
3.26265923992209
30
0
41
1
10
-1.43513666463921
20
3.26279648537851
30
0
41
1
10
-1.43261008855818
20
3.26338508173751
30
0
41
1
10
-1.42992939643606
20
3.26449080569016
30
0
41
1
10
-1.42701771524207
20
3.26617461936644
30
0
41
1
10
-1.42392930975026
20
3.26850785569169
30
0
41
1
10
-1.4207197503795
20
3.27154126878465
30
0
41
1
10
-1.41770671834226
20
3.27492015560087
30
0
41
1
10
-1.41411883026483
20
3.27949341721074
30
0
41
1
10
-1.41005779136204
20
3.28539045418208
30
0
41
1
10
-1.40565220047948
20
3.29274814100494
30
0
41
1
10
-1.40153749440017
20
3.30044862424227
30
0
41
1
10
-1.39717821379402
20
3.30934303687436
30
0
41
1
10
-1.3926009470457
20
3.31944363415716
30
0
41
1
10
-1.38786857231883
20
3.33079912929649
30
0
41
1
10
-1.38257218539505
20
3.3444173865998
30
0
41
1
10
-1.37678457617695
20
3.36035087110492
30
0
41
1
10
-1.3706022701699
20
3.37866582697617
30
0
41
1
10
-1.36473476366106
20
3.39722461551852
30
0
41
1
10
-1.35913245888608
20
3.41597462343467
30
0
41
1
10
-1.35254558869346
20
3.43904630501265
30
0
41
1
10
-1.34509720624018
20
3.46651344873213
30
0
41
1
10
-1.33694432773385
20
3.49846479282299
30
0
41
1
10
-1.32910385698578
20
3.53081865441449
30
0
41
1
10
-1.32151888650644
20
3.56352957383776
30
0
41
1
10
-1.31417261719022
20
3.5965820756319
30
0
41
1
10
-1.30943387411182
20
3.61869104662093
30
0
41
1
10
-1.30710678118653
20
3.62976580696271
30
0
0
SPLINE
5
17A
100
AcDbEntity
8
SK1
62
256
6
ByLayer
370
18
48
1
60
0
100
AcDbSpline
70
4
71
3
72
65
73
61
40
0
40
0
40
0
40
0
40
0.0537916874306741
40
0.107582934973489
40
0.14344777122558
40
0.179313399110903
40
0.215177238951546
40
0.242087052037424
40
0.269000336637777
40
0.295911007852475
40
0.322817256707915
40
0.341156417477175
40
0.359496915145093
40
0.377833929488688
40
0.391707966998627
40
0.405590629069398
40
0.419465158358875
40
0.433328097630051
40
0.442981833106081
40
0.45263968657229
40
0.462281401447701
40
0.468289625764185
40
0.474303297376419
40
0.480299577537269
40
0.484159239033978
40
0.488025263105979
40
0.491878109878831
40
0.495010200574358
40
0.498150848540098
40
0.501280453033042
40
0.504414853330613
40
0.507560327492108
40
0.510697291083563
40
0.514906659716944
40
0.519132830241369
40
0.523351471816129
40
0.529072251484
40
0.534810765517258
40
0.540560733992746
40
0.54629717597267
40
0.555689144471758
40
0.565094241113945
40
0.574508208046806
40
0.58391228720828
40
0.596733285383856
40
0.609558862701852
40
0.622382648309667
40
0.643135867504036
40
0.663896787380724
40
0.684668216544622
40
0.705446987036978
40
0.726224853095938
40
0.74698937547157
40
0.778045197614343
40
0.809105130797791
40
0.840166820800584
40
0.871225038898568
40
0.914148772220528
40
0.957075187829701
40
1
40
1
40
1
40
1
41
1
10
-1.30710678118655
20
-3.62976580696275
30
0
41
1
10
-1.3102059908423
20
-3.61499815249619
30
0
41
1
10
-1.31656122189633
20
-3.58554032264856
30
0
41
1
10
-1.32542443297027
20
-3.54644618127628
30
0
41
1
10
-1.33352718778064
20
-3.51242038619936
30
0
41
1
10
-1.34074688586607
20
-3.48340704087055
30
0
41
1
10
-1.34766226816513
20
-3.45698437070945
30
0
41
1
10
-1.35420881380504
20
-3.43312093871182
30
0
41
1
10
-1.36034417929783
20
-3.41179880775788
30
0
41
1
10
-1.36677485088806
20
-3.39068285391492
30
0
41
1
10
-1.37283030900761
20
-3.37203463480742
30
0
41
1
10
-1.37842833186961
20
-3.35580403695821
30
0
41
1
10
-1.38350235883666
20
-3.34194779728982
30
0
41
1
10
-1.38842300509972
20
-3.32943774215195
30
0
41
1
10
-1.39313508861224
20
-3.31823520749788
30
0
41
1
10
-1.39761754927827
20
-3.30833300788542
30
0
41
1
10
-1.40239261815709
20
-3.29873230803043
30
0
41
1
10
-1.40700009818991
20
-3.29045571390164
30
0
41
1
10
-1.41136203284277
20
-3.28344209856135
30
0
41
1
10
-1.4154391454729
20
-3.27767155886708
30
0
41
1
10
-1.41929843346297
20
-3.27305380703941
30
0
41
1
10
-1.42283906341489
20
-3.26949735608745
30
0
41
1
10
-1.4259732147059
20
-3.26689184133794
30
0
41
1
10
-1.42892319248252
20
-3.2650069035143
30
0
41
1
10
-1.43161518487278
20
-3.26376201793195
30
0
41
1
10
-1.43398186890303
20
-3.26302420442388
30
0
41
1
10
-1.43628048320089
20
-3.26267828526895
30
0
41
1
10
-1.43847728378656
20
-3.26271005794009
30
0
41
1
10
-1.44053933018525
20
-3.26304825709375
30
0
41
1
10
-1.44260007829952
20
-3.26370724013177
30
0
41
1
10
-1.44462904135774
20
-3.26470674350236
30
0
41
1
10
-1.44660165128032
20
-3.26600520170442
30
0
41
1
10
-1.44871277711078
20
-3.26775046327101
30
0
41
1
10
-1.45090589329864
20
-3.27001907831206
30
0
41
1
10
-1.453128236172
20
-3.27281724349467
30
0
41
1
10
-1.45542411979766
20
-3.27622228924361
30
0
41
1
10
-1.45774213832196
20
-3.28025016485987
30
0
41
1
10
-1.46003652356693
20
-3.28489879631598
30
0
41
1
10
-1.46211443735911
20
-3.28971437420987
30
0
41
1
10
-1.46441575637362
20
-3.29568522185312
30
0
41
1
10
-1.46685755557317
20
-3.30284214925958
30
0
41
1
10
-1.46933918108114
20
-3.31120764609913
30
0
41
1
10
-1.47155066667247
20
-3.31966656445769
30
0
41
1
10
-1.47379371259514
20
-3.32921144187899
30
0
41
1
10
-1.47603826613177
20
-3.3398380439345
30
0
41
1
10
-1.47822820235039
20
-3.35154525887573
30
0
41
1
10
-1.48059838844332
20
-3.36569674012426
30
0
41
1
10
-1.48306186821905
20
-3.38229257730718
30
0
41
1
10
-1.4855072212659
20
-3.40132618600501
30
0
41
1
10
-1.48761935664369
20
-3.4203633901704
30
0
41
1
10
-1.48944866489474
20
-3.43939164469671
30
0
41
1
10
-1.49104207582314
20
-3.45839846011274
30
0
41
1
10
-1.49268807930824
20
-3.48051606941295
30
0
41
1
10
-1.49431435594434
20
-3.50573251789946
30
0
41
1
10
-1.49581068682656
20
-3.53402775714911
30
0
41
1
10
-1.49702387830204
20
-3.56226876662929
30
0
41
1
10
-1.49811696533264
20
-3.59404423840215
30
0
41
1
10
-1.49902393910762
20
-3.6293312049946
30
0
41
1
10
-1.49965827859857
20
-3.66809777218502
30
0
41
1
10
-1.49987996481515
20
-3.69387710021581
30
0
41
1
10
-1.49993701093293
20
-3.70674994460807
30
0
0
SPLINE
5
17B
100
AcDbEntity
8
SK1
62
256
6
ByLayer
370
18
48
1
60
0
100
AcDbSpline
70
4
71
2
72
6
73
3
40
0
40
0
40
0
40
1
40
1
40
1
41
1
10
-22.5000001
20
13.4975194392912
30
0
41
1
10
-23.2500000499078
20
13.064512833488
30
0
41
1
10
-24
20
12.631506216852
30
0
0
SPLINE
5
17C
100
AcDbEntity
8
SK1
62
256
6
ByLayer
370
18
48
1
60
0
100
AcDbSpline
70
4
71
2
72
6
73
3
40
0
40
0
40
0
40
1
40
1
40
1
41
1
10
-24
20
-12.631506216852
30
0
41
1
10
-23.2500000499078
20
-13.064512833488
30
0
41
1
10
-22.5000001
20
-13.4975194392912
30
0
0
SPLINE
5
17D
100
AcDbEntity
8
SK1
62
256
6
ByLayer
370
18
48
1
60
0
100
AcDbSpline
70
4
71
3
72
43
73
39
40
0
40
0
40
0
40
0
40
0.0386745842103785
40
0.0764414314826108
40
0.113144694902148
40
0.148638982990168
40
0.182790898667045
40
0.215480082643386
40
0.246599765510129
40
0.276056860940814
40
0.300972957412148
40
0.324441441024791
40
0.34642137330129
40
0.366878888589781
40
0.385786516466341
40
0.402826811648137
40
0.418335107561578
40
0.433350442394124
40
0.449909533221186
40
0.468409867163727
40
0.488562269207147
40
0.510359485093892
40
0.533788936065962
40
0.558831701818173
40
0.584972289471287
40
0.612610958722772
40
0.641706211816217
40
0.672207058342605
40
0.701104110983733
40
0.731058946493991
40
0.762010640993429
40
0.793890879238235
40
0.826624135591454
40
0.860128042271694
40
0.894313950690711
40
0.929087683143973
40
0.964350462748554
40
1
40
1
40
1
40
1
41
1
10
-1.49993701093306
20
-14.0251250145241
30
0
41
1
10
-1.49983494857339
20
-14.021071330197
30
0
41
1
10
-1.49939123003503
20
-14.0130819961621
30
0
41
1
10
-1.49802451102846
20
-14.0013040513153
30
0
41
1
10
-1.49602972287987
20
-13.9899579531113
30
0
41
1
10
-1.4934816224208
20
-13.9791111437915
30
0
41
1
10
-1.49046277150274
20
-13.9688238830805
30
0
41
1
10
-1.48706026707633
20
-13.9591418144944
30
0
41
1
10
-1.48336322108462
20
-13.9500979720906
30
0
41
1
10
-1.47958394742397
20
-13.9419786995817
30
0
41
1
10
-1.47583086495749
20
-13.9347405846787
30
0
41
1
10
-1.47219228738717
20
-13.9283315825754
30
0
41
1
10
-1.46857240895361
20
-13.9224544644859
30
0
41
1
10
-1.46502286428858
20
-13.9170997491607
30
0
41
1
10
-1.46160884496015
20
-13.9122799098899
30
0
41
1
10
-1.45837193474094
20
-13.9079731849434
30
0
41
1
10
-1.45527979452564
20
-13.9040708304059
30
0
41
1
10
-1.45212774807351
20
-13.9002829518003
30
0
41
1
10
-1.44867554410992
20
-13.8963374885384
30
0
41
1
10
-1.44475041085898
20
-13.8920931792407
30
0
41
1
10
-1.4403133321586
20
-13.8875782379291
30
0
41
1
10
-1.4353558143614
20
-13.8828554813558
30
0
41
1
10
-1.4298502078985
20
-13.8779715565372
30
0
41
1
10
-1.42381081743527
20
-13.873011731089
30
0
41
1
10
-1.41722506418167
20
-13.86803256844
30
0
41
1
10
-1.41008552235458
20
-13.8630942643533
30
0
41
1
10
-1.40234598436864
20
-13.8582359018196
30
0
41
1
10
-1.39427243750103
20
-13.8536800378095
30
0
41
1
10
-1.38591525703079
20
-13.8494653337958
30
0
41
1
10
-1.37732889518767
20
-13.845621884725
30
0
41
1
10
-1.36827739048084
20
-13.8420794806215
30
0
41
1
10
-1.35878604503126
20
-13.8388952684514
30
0
41
1
10
-1.34888775837512
20
-13.8361245167104
30
0
41
1
10
-1.33862302778397
20
-13.833819279612
30
0
41
1
10
-1.32803923771924
20
-13.8320270611885
30
0
41
1
10
-1.31719154126103
20
-13.8307895442842
30
0
41
1
10
-1.30613626751712
20
-13.8301413130405
30
0
41
1
10
-1.29871296613584
20
-13.8301199948955
30
0
41
1
10
-1.29497698875896
20
-13.8302136909754
30
0
0
SPLINE
5
17E
100
AcDbEntity
8
SK1
62
256
6
ByLayer
370
18
48
1
60
0
100
AcDbSpline
70
4
71
3
72
43
73
39
40
0
40
0
40
0
40
0
40
0.0386992680732523
40
0.0764872347514671
40
0.113208354146752
40
0.148717484509931
40
0.182881428037436
40
0.215579974604059
40
0.246706453488843
40
0.276167825196636
40
0.30108560599375
40
0.324553699110806
40
0.346531076569432
40
0.36698373271598
40
0.385883995481207
40
0.402914346307138
40
0.41840964557497
40
0.433409190292297
40
0.449952135398531
40
0.468436226530612
40
0.488572933015803
40
0.51035527546283
40
0.533770898907604
40
0.558801073519547
40
0.584930663432325
40
0.612559844309439
40
0.641647269591037
40
0.672142105542098
40
0.701035412057983
40
0.730988279673871
40
0.761939936591753
40
0.793822236567371
40
0.826559842379152
40
0.860070596383818
40
0.89426608398326
40
0.929052387282475
40
0.964331016853032
40
1
40
1
40
1
40
1
41
1
10
-1.29497698875896
20
13.8302136908638
30
0
41
1
10
-1.29903054273503
20
13.8301120655168
30
0
41
1
10
-1.30703180406006
20
13.830154055365
30
0
41
1
10
-1.31886363992822
20
13.8309275522535
30
0
41
1
10
-1.33029570086856
20
13.8323499920003
30
0
41
1
10
-1.34125688371552
20
13.8343500862176
30
0
41
1
10
-1.35168285803398
20
13.836848413419
30
0
41
1
10
-1.36152366491934
20
13.8397602827742
30
0
41
1
10
-1.37074183703677
20
13.8429983590645
30
0
41
1
10
-1.37904075964883
20
13.8463649981699
30
0
41
1
10
-1.38645831745781
20
13.8497497369038
30
0
41
1
10
-1.39304201633898
20
13.8530617407571
30
0
41
1
10
-1.39909355678069
20
13.8563817802273
30
0
41
1
10
-1.40461980866781
20
13.8596578077731
30
0
41
1
10
-1.40960505543562
20
13.8628253526892
30
0
41
1
10
-1.41406889559903
20
13.8658417608555
30
0
41
1
10
-1.41812180234495
20
13.8687340351879
30
0
41
1
10
-1.42206388189059
20
13.8716922973478
30
0
41
1
10
-1.42617772114358
20
13.8749419252606
30
0
41
1
10
-1.43061385582874
20
13.8786489373758
30
0
41
1
10
-1.43534595371967
20
13.8828536367509
30
0
41
1
10
-1.440311750286
20
13.8875676942654
30
0
41
1
10
-1.44546603585167
20
13.8928210598466
30
0
41
1
10
-1.45072293217703
20
13.8986037277323
30
0
41
1
10
-1.45602658264275
20
13.9049311048226
30
0
41
1
10
-1.46131724310684
20
13.9118136351591
30
0
41
1
10
-1.46655819569428
20
13.9192994256985
30
0
41
1
10
-1.47151378689234
20
13.9271339742316
30
0
41
1
10
-1.4761428927915
20
13.9352689331833
30
0
41
1
10
-1.48041273084629
20
13.9436514557852
30
0
41
1
10
-1.48440525716936
20
13.9525136536356
30
0
41
1
10
-1.48806212401659
20
13.9618331248485
30
0
41
1
10
-1.49132647794797
20
13.971579785118
30
0
41
1
10
-1.49414429451006
20
13.9817158000641
30
0
41
1
10
-1.49646574620599
20
13.9921962287658
30
0
41
1
10
-1.49824643530011
20
14.0029680755711
30
0
41
1
10
-1.49944897182398
20
14.0139768263236
30
0
41
1
10
-1.49984301392135
20
14.0213892626396
30
0
41
1
10
-1.49993701093306
20
14.0251250144113
30
0
0
SPLINE
5
17F
100
AcDbEntity
8
SK1
62
256
6
ByLayer
370
18
48
1
60
0
100
AcDbSpline
70
4
71
1
72
4
73
2
40
0
40
0
40
1
40
1
41
1
10
-1.29497698875896
20
-13.8302136935866
30
0
41
1
10
-1.03099338136029
20
-13.8368457965427
30
0
0
SPLINE
5
180
100
AcDbEntity
8
SK1
62
256
6
ByLayer
370
18
48
1
60
0
100
AcDbSpline
70
4
71
3
72
79
73
75
40
0
40
0
40
0
40
0
40
0.0122261751864997
40
0.0416108997324176
40
0.0709939252661283
40
0.0930350841798132
40
0.115078188497822
40
0.137120763586356
40
0.159161200756637
40
0.181432791742562
40
0.203708175970064
40
0.225982243620236
40
0.24825203894834
40
0.264967007525868
40
0.281685209757365
40
0.298402368676911
40
0.31511591426492
40
0.328604636086409
40
0.342099351685526
40
0.355594393352688
40
0.369085878023199
40
0.382571888881596
40
0.393695876301183
40
0.404824096473913
40
0.415951019587065
40
0.427073237578428
40
0.438386712655571
40
0.449708932962301
40
0.461028194871575
40
0.472337632458997
40
0.481922286648695
40
0.491511066522728
40
0.501094061976755
40
0.508443174567338
40
0.515798763541978
40
0.523153247088164
40
0.53050085090641
40
0.538731459603863
40
0.546988605336743
40
0.555257711882118
40
0.563524977157802
40
0.571777867028795
40
0.580005629578625
40
0.588228150466226
40
0.596472213217982
40
0.604730243331227
40
0.612991772488213
40
0.621243921384704
40
0.629471848032226
40
0.638349710810602
40
0.647236655777427
40
0.656125655817578
40
0.66500632371673
40
0.674124851435942
40
0.683249071860416
40
0.692374700883478
40
0.701495150563921
40
0.714808096335852
40
0.728132336475893
40
0.74146449713119
40
0.754796455150759
40
0.768115879774331
40
0.785137233199742
40
0.802165852661475
40
0.819196956437694
40
0.836221698920641
40
0.856624331660584
40
0.877032595612199
40
0.897442715342222
40
0.91784787934561
40
0.938384060836842
40
0.958923047334747
40
0.979462788831351
40
1
40
1
40
1
40
1
41
1
10
-1.03098999151997
20
13.8368458803583
30
0
41
1
10
-1.0290461580172
20
13.8368943466176
30
0
41
1
10
-1.02238126869566
20
13.8370510983493
30
0
41
1
10
-1.01073409944825
20
13.8372701543548
30
0
41
1
10
-0.996995412195336
20
13.8374447085898
30
0
41
1
10
-0.984096698011218
20
13.8375459128034
30
0
41
1
10
-0.972148027227118
20
13.8375944823073
30
0
41
1
10
-0.959836434865302
20
13.8376024121211
30
0
41
1
10
-0.947093526993807
20
13.8375714997806
30
0
41
1
10
-0.933892048629895
20
13.8375029835369
30
0
41
1
10
-0.920187416025464
20
13.8373994797654
30
0
41
1
10
-0.905985061364137
20
13.8372644867278
30
0
41
1
10
-0.892471651769558
20
13.8371147835134
30
0
41
1
10
-0.879763670457876
20
13.8369603546447
30
0
41
1
10
-0.867969371055305
20
13.8368095440057
30
0
41
1
10
-0.855794892019781
20
13.8366493058983
30
0
41
1
10
-0.844022864155386
20
13.8364928209352
30
0
41
1
10
-0.832719914637101
20
13.8363432915638
30
0
41
1
10
-0.821946409730983
20
13.8362036691701
30
0
41
1
10
-0.810845843808706
20
13.8360651612499
30
0
41
1
10
-0.799399638656344
20
13.8359300163
30
0
41
1
10
-0.788277442650933
20
13.835808004089
30
0
41
1
10
-0.77753247900441
20
13.8356999421071
30
0
41
1
10
-0.767213850370699
20
13.8356065573979
30
0
41
1
10
-0.756596784198296
20
13.8355227871632
30
0
41
1
10
-0.745605304723339
20
13.8354503551259
30
0
41
1
10
-0.734216249156132
20
13.8353916662257
30
0
41
1
10
-0.722403630643382
20
13.8353501910418
30
0
41
1
10
-0.710219905792304
20
13.8353295725477
30
0
41
1
10
-0.698295602223079
20
13.8353329329067
30
0
41
1
10
-0.686688073739745
20
13.8353591223732
30
0
41
1
10
-0.675455296963767
20
13.8354062694934
30
0
41
1
10
-0.664837758790021
20
13.8354726380828
30
0
41
1
10
-0.65491098482599
20
13.835553912339
30
0
41
1
10
-0.645741363990964
20
13.8356448632247
30
0
41
1
10
-0.636427920074236
20
13.8357539013227
30
0
41
1
10
-0.626607334101063
20
13.8358868765502
30
0
41
1
10
-0.6162590466106
20
13.8360486757528
30
0
41
1
10
-0.605385433467585
20
13.8362429212695
30
0
41
1
10
-0.594402864814689
20
13.8364631506741
30
0
41
1
10
-0.583361270721699
20
13.8367089009891
30
0
41
1
10
-0.572310891635291
20
13.8369796136929
30
0
41
1
10
-0.561289091884775
20
13.8372751819074
30
0
41
1
10
-0.55031975496382
20
13.8375957141884
30
0
41
1
10
-0.539419529615966
20
13.8379389590399
30
0
41
1
10
-0.528613895998917
20
13.8383028899278
30
0
41
1
10
-0.517942319626415
20
13.8386850064127
30
0
41
1
10
-0.507443807067452
20
13.8390827931404
30
0
41
1
10
-0.496871182010451
20
13.8395053896063
30
0
41
1
10
-0.486251273573043
20
13.8399522758423
30
0
41
1
10
-0.475597840847202
20
13.8404220981506
30
0
41
1
10
-0.465187263447698
20
13.8409013766931
30
0
41
1
10
-0.454935223755527
20
13.8413921839762
30
0
41
1
10
-0.444847601621368
20
13.8418928170314
30
0
41
1
10
-0.434924584081608
20
13.8424018233999
30
0
41
1
10
-0.425251354065913
20
13.8429131355402
30
0
41
1
10
-0.414378864355721
20
13.8435036539914
30
0
41
1
10
-0.402432919929344
20
13.8441717779784
30
0
41
1
10
-0.389554048540627
20
13.8449142406088
30
0
41
1
10
-0.37712011285922
20
13.8456502255847
30
0
41
1
10
-0.36511099765819
20
13.8463770079789
30
0
41
1
10
-0.352422664155945
20
13.847158597556
30
0
41
1
10
-0.339148067548752
20
13.8479888153819
30
0
41
1
10
-0.325388962776421
20
13.8488607462412
30
0
41
1
10
-0.312143672863682
20
13.8497073448494
30
0
41
1
10
-0.298526575254725
20
13.8505808101186
30
0
41
1
10
-0.284597636912012
20
13.851472452819
30
0
41
1
10
-0.270427625487232
20
13.8523731479453
30
0
41
1
10
-0.256787187265823
20
13.8532292124715
30
0
41
1
10
-0.24360330940964
20
13.854040856895
30
0
41
1
10
-0.230834989445296
20
13.8548064437187
30
0
41
1
10
-0.218458970488105
20
13.8555249377909
30
0
41
1
10
-0.206477691617107
20
13.8561939552625
30
0
41
1
10
-0.198727368195963
20
13.8566062740806
30
0
41
1
10
-0.194913899692039
20
13.8568040577414
30
0
0
SPLINE
5
181
100
AcDbEntity
8
SK1
62
256
6
ByLayer
370
18
48
1
60
0
100
AcDbSpline
70
4
71
1
72
4
73
2
40
0
40
0
40
1
40
1
41
1
10
-1.03093383223988
20
13.8368472926049
30
0
41
1
10
-1.29497698875896
20
13.8302136935866
30
0
0
SPLINE
5
182
100
AcDbEntity
8
SK1
62
256
6
ByLayer
370
18
48
1
60
0
100
AcDbSpline
70
4
71
3
72
28
73
24
40
0
40
0
40
0
40
0
40
0.009931200331912
40
0.0297230629228808
40
0.0635214861784293
40
0.0973338605667529
40
0.131140425528898
40
0.172616350827456
40
0.214106505472149
40
0.255609243389527
40
0.297113881990687
40
0.338601959632107
40
0.390376697967091
40
0.44215817497255
40
0.493942150292749
40
0.545720295834051
40
0.614731356056823
40
0.683746756776481
40
0.752759474211512
40
0.825626934372247
40
0.898497228959878
40
0.971365563245948
40
1
40
1
40
1
40
1
41
1
10
-0.0448470063570303
20
13.9310068950261
30
0
41
1
10
-0.0443482485958253
20
13.9316055246848
30
0
41
1
10
-0.0428849977188802
20
13.9333813276902
30
0
41
1
10
-0.039977685052609
20
13.9370613622666
30
0
41
1
10
-0.0363286749104967
20
13.9419249958499
30
0
41
1
10
-0.0325875708860242
20
13.9472833662651
30
0
41
1
10
-0.0289922926550905
20
13.9527868981556
30
0
41
1
10
-0.0255525026168518
20
13.9584173421097
30
0
41
1
10
-0.0223100270756986
20
13.9641399881698
30
0
41
1
10
-0.0194411727072717
20
13.9696098901804
30
0
41
1
10
-0.0168956106541532
20
13.9748520750331
30
0
41
1
10
-0.014431048159337
20
13.9803115695722
30
0
41
1
10
-0.0120771741743245
20
13.9859561683924
30
0
41
1
10
-0.0098889614303365
20
13.9917393254914
30
0
41
1
10
-0.0079942103397008
20
13.9972826319341
30
0
41
1
10
-0.0061754611976386
20
14.0031971997403
30
0
41
1
10
-0.0044958084867709
20
14.0094171862358
30
0
41
1
10
-0.0030277174558277
20
14.0158685832715
30
0
41
1
10
-0.0018598846132666
20
14.0221272767499
30
0
41
1
10
-0.000972404332812
20
14.0281988401214
30
0
41
1
10
-0.0003594920037917
20
14.0340808158821
30
0
41
1
10
-8.12607705747E-05
20
14.0385484605135
30
0
41
1
10
4.2801553699E-06
20
14.0410642915128
30
0
41
1
10
2.20311595119E-05
20
14.041767069536
30
0
0
SPLINE
5
183
100
AcDbEntity
8
SK1
62
256
6
ByLayer
370
18
48
1
60
0
100
AcDbSpline
70
4
71
3
72
60
73
56
40
0
40
0
40
0
40
0
40
0.0532221939045023
40
0.11305915221643
40
0.157945756402714
40
0.202836215860103
40
0.247725241974324
40
0.292609891422512
40
0.328896985368729
40
0.365193784676494
40
0.4014898439984
40
0.437778906958172
40
0.474059510730302
40
0.4975178760904
40
0.520986473440636
40
0.544453904728805
40
0.567913569224197
40
0.59136443947373
40
0.610912447343733
40
0.630464283842971
40
0.650006910027934
40
0.661981528708373
40
0.673976114998065
40
0.685967094487631
40
0.697941479532971
40
0.709899129250236
40
0.717736525600555
40
0.725587110166307
40
0.733429945029535
40
0.741256753894466
40
0.749301476492766
40
0.757361455614615
40
0.765391013091648
40
0.771790693734514
40
0.778208617132307
40
0.784604400878615
40
0.791001489158986
40
0.797420231827989
40
0.803822806311145
40
0.810502641038736
40
0.817205741203951
40
0.823918624345682
40
0.830611842321649
40
0.840292297109363
40
0.849995663337756
40
0.859721757206253
40
0.869452720475241
40
0.879156381126856
40
0.89411546683997
40
0.909088862620339
40
0.924070128920599
40
0.939039956394408
40
0.959356569229542
40
0.97967981949557
40
1
40
1
40
1
40
1
41
1
10
1.72526100575E-05
20
5.18893836314481
30
0
41
1
10
-3.22346671607E-05
20
5.17665611025372
30
0
41
1
10
-0.0002543481145226
20
5.15052206236992
30
0
41
1
10
-0.0008980396268427
20
5.11388475489775
30
0
41
1
10
-0.0018352550244568
20
5.07906778464415
30
0
41
1
10
-0.002962485707364
20
5.04763984305166
30
0
41
1
10
-0.0044099947930814
20
5.01612101469312
30
0
41
1
10
-0.0061015490635245
20
4.98652972168866
30
0
41
1
10
-0.0079799104828499
20
4.95888544235066
30
0
41
1
10
-0.0100125723031789
20
4.93320332007368
30
0
41
1
10
-0.0123916072852716
20
4.90746183465725
30
0
41
1
10
-0.0151669808079018
20
4.88166875900961
30
0
41
1
10
-0.018012708402839
20
4.85887404489434
30
0
41
1
10
-0.0207889296463598
20
4.83909906125443
30
0
41
1
10
-0.0233847218645188
20
4.82235687626055
30
0
41
1
10
-0.0262752934205964
20
4.80560862091031
30
0
41
1
10
-0.0295057636174486
20
4.78886875283875
30
0
41
1
10
-0.0329201010392169
20
4.77307808991196
30
0
41
1
10
-0.0364871980259249
20
4.75824603993258
30
0
41
1
10
-0.0402097213528448
20
4.74438750538612
30
0
41
1
10
-0.0438491413218295
20
4.73238661793247
30
0
41
1
10
-0.0472553349902431
20
4.72223183711951
30
0
41
1
10
-0.0502988016134671
20
4.71390023108287
30
0
41
1
10
-0.0536203221123952
20
4.7056566429785
30
0
41
1
10
-0.0572614206344404
20
4.69754368567718
30
0
41
1
10
-0.0608035129132608
20
4.69051377742595
30
0
41
1
10
-0.0641455706825123
20
4.68453861020727
30
0
41
1
10
-0.0671979235234822
20
4.67958105786879
30
0
41
1
10
-0.0704818828051646
20
4.67479254472751
30
0
41
1
10
-0.0740489985685023
20
4.67017912016324
30
0
41
1
10
-0.0779353783341144
20
4.66580895408384
30
0
41
1
10
-0.0821646529769281
20
4.66178308773644
30
0
41
1
10
-0.0863950138640318
20
4.65848255739748
30
0
41
1
10
-0.0905439451723286
20
4.65591724606633
30
0
41
1
10
-0.0945152092831846
20
4.65399610621572
30
0
41
1
10
-0.0985911335082517
20
4.65255961482799
30
0
41
1
10
-0.102721387855467
20
4.65166441909272
30
0
41
1
10
-0.106848655645496
20
4.65127308175742
30
0
41
1
10
-0.110987353004988
20
4.6513631622928
30
0
41
1
10
-0.11509504727141
20
4.65193236023067
30
0
41
1
10
-0.119149703231319
20
4.65293249857131
30
0
41
1
10
-0.123077982807221
20
4.65429916150363
30
0
41
1
10
-0.127433706686936
20
4.65623172343966
30
0
41
1
10
-0.132152351636687
20
4.65883086098103
30
0
41
1
10
-0.137164335970185
20
4.66217926648609
30
0
41
1
10
-0.141943280877669
20
4.66590819738831
30
0
41
1
10
-0.146504518014342
20
4.66994131685322
30
0
41
1
10
-0.151662290118259
20
4.67498340560337
30
0
41
1
10
-0.157329506154603
20
4.68112834939108
30
0
41
1
10
-0.163399042444081
20
4.68847779217408
30
0
41
1
10
-0.169160912885337
20
4.69614292415332
30
0
41
1
10
-0.175314627235181
20
4.70499820219234
30
0
41
1
10
-0.181801485438905
20
4.71508314209921
30
0
41
1
10
-0.188537125687201
20
4.72645411435014
30
0
41
1
10
-0.192824876003834
20
4.7341928843335
30
0
41
1
10
-0.194913899692019
20
4.73810576235147
30
0
0
SPLINE
5
184
100
AcDbEntity
8
SK1
62
256
6
ByLayer
370
18
48
1
60
0
100
AcDbSpline
70
4
71
3
72
24
73
20
40
0
40
0
40
0
40
0
40
0.0233728607338191
40
0.0722097997383483
40
0.121385429773231
40
0.173567839305984
40
0.228715012854773
40
0.286771171110627
40
0.347665236908407
40
0.407867500807148
40
0.47044686308897
40
0.53529894693975
40
0.602303846721827
40
0.671325983844643
40
0.742214305928004
40
0.814802861716616
40
0.888911771162955
40
0.964348594005106
40
1
40
1
40
1
40
1
41
1
10
-0.0448207113531254
20
13.9310391023237
30
0
41
1
10
-0.0455297289687772
20
13.930168121272
30
0
41
1
10
-0.0477423774656764
20
13.9274962921956
30
0
41
1
10
-0.0515787313169874
20
13.9231017327992
30
0
41
1
10
-0.0565144286523412
20
13.917835437447
30
0
41
1
10
-0.0618547884614032
20
13.912539001441
30
0
41
1
10
-0.0677105986313898
20
13.9071642396051
30
0
41
1
10
-0.0741007485574769
20
13.901762244468
30
0
41
1
10
-0.0809089207079338
20
13.8964900674648
30
0
41
1
10
-0.0881181233655446
20
13.891394465262
30
0
41
1
10
-0.0957060026150674
20
13.8865197325802
30
0
41
1
10
-0.103792844275445
20
13.881834424234
30
0
41
1
10
-0.112368415010697
20
13.8773960597103
30
0
41
1
10
-0.121415361070377
20
13.8732625550296
30
0
41
1
10
-0.130908814350282
20
13.8694910866508
30
0
41
1
10
-0.140816492069792
20
13.8661368100395
30
0
41
1
10
-0.151097874302229
20
13.8632517240128
30
0
41
1
10
-0.159788408103386
20
13.8613113409118
30
0
41
1
10
-0.165039819756286
20
13.8603577020047
30
0
41
1
10
-0.166729714876306
20
13.8600731802917
30
0
0
SPLINE
5
185
100
AcDbEntity
8
SK1
62
256
6
ByLayer
370
18
48
1
60
0
100
AcDbSpline
70
4
71
3
72
12
73
8
40
0
40
0
40
0
40
0
40
0.0842001155877103
40
0.26475311897482
40
0.509794384310347
40
0.754915704548618
40
1
40
1
40
1
40
1
41
1
10
-0.166457038824012
20
-13.8601232835657
30
0
41
1
10
-0.167354249830382
20
-13.8599577339531
30
0
41
1
10
-0.17014527245787
20
-13.8594597691189
30
0
41
1
10
-0.175312223034921
20
-13.8586580004338
30
0
41
1
10
-0.181802214088715
20
-13.8578290402771
30
0
41
1
10
-0.188536917506133
20
-13.8571927893713
30
0
41
1
10
-0.192824876003857
20
-13.8569080432899
30
0
41
1
10
-0.194913899692039
20
-13.8568040577414
30
0
0
SPLINE
5
186
100
AcDbEntity
8
SK1
62
256
6
ByLayer
370
18
48
1
60
0
100
AcDbSpline
70
4
71
3
72
27
73
23
40
0
40
0
40
0
40
0
40
0.0811344862936295
40
0.172383850696078
40
0.240834424016183
40
0.309290876496052
40
0.37774514317543
40
0.446192735585177
40
0.501529342792769
40
0.556880750352811
40
0.612231029459116
40
0.667570639346668
40
0.722897349255382
40
0.758670573520413
40
0.794459401228916
40
0.830246450731683
40
0.866021656134675
40
0.901783450606237
40
0.931593510204749
40
0.961409408335065
40
0.991211261043502
40
1
40
1
40
1
40
1
41
1
10
1.71974741496E-05
20
-14.0415831345441
30
0
41
1
10
-3.23076238819E-05
20
-14.0395835420212
30
0
41
1
10
-0.0002544208323669
20
-14.035210716316
30
0
41
1
10
-0.0008980398306094
20
-14.0287420534201
30
0
41
1
10
-0.0018352549766003
20
-14.0222739270223
30
0
41
1
10
-0.0029624857202547
20
-14.0161699012515
30
0
41
1
10
-0.0044099947894833
20
-14.0097606659336
30
0
41
1
10
-0.0061015490648063
20
-14.0034524404826
30
0
41
1
10
-0.0079799104811289
20
-13.9973022234383
30
0
41
1
10
-0.010012572309122
20
-13.9913519662136
30
0
41
1
10
-0.0123916072633448
20
-13.9851206161694
30
0
41
1
10
-0.0151669808897641
20
-13.9785807839154
30
0
41
1
10
-0.0180127081431227
20
-13.9725129715876
30
0
41
1
10
-0.0207889302437684
20
-13.9670273401817
30
0
41
1
10
-0.0233847196016236
20
-13.9622132978105
30
0
41
1
10
-0.0262753018728748
20
-13.9572015599751
30
0
41
1
10
-0.0295057320875311
20
-13.9519705495765
30
0
41
1
10
-0.0329202103900426
20
-13.9468022532116
30
0
41
1
10
-0.0364868647083296
20
-13.9417225027889
30
0
41
1
10
-0.0402109729113563
20
-13.9367394410316
30
0
41
1
10
-0.0434032103763666
20
-13.9327356294465
30
0
41
1
10
-0.0453544821622532
20
-13.9303968700112
30
0
41
1
10
-0.0458061079977749
20
-13.9298603053234
30
0
0
SPLINE
5
187
100
AcDbEntity
8
SK1
62
256
6
ByLayer
370
18
48
1
60
0
100
AcDbSpline
70
4
71
3
72
25
73
21
40
0
40
0
40
0
40
0
40
0.0181179599152638
40
0.0884889912304178
40
0.157113012040289
40
0.223811929933001
40
0.301076551842933
40
0.375078563503776
40
0.445594038424165
40
0.512430288540315
40
0.575424793862209
40
0.63063535186501
40
0.682293595114718
40
0.73032884507732
40
0.774686203417518
40
0.817035307126727
40
0.85980334680431
40
0.92784526716208
40
0.996842273023546
40
1
40
1
40
1
40
1
41
1
10
-0.166406588128511
20
-13.8601316985547
30
0
41
1
10
-0.16555962500032
20
-13.8602758337856
30
0
41
1
10
-0.16142837424489
20
-13.8610062877985
30
0
41
1
10
-0.154133524629587
20
-13.8625341958576
30
0
41
1
10
-0.144694717513017
20
-13.8650036881224
30
0
41
1
10
-0.135073603807004
20
-13.86802217154
30
0
41
1
10
-0.125378851202665
20
-13.8716183064674
30
0
41
1
10
-0.115725835013908
20
-13.8758022717708
30
0
41
1
10
-0.106743930792163
20
-13.8802566328301
30
0
41
1
10
-0.0984464254455855
20
-13.8848894679688
30
0
41
1
10
-0.0909886526055913
20
-13.8895173668513
30
0
41
1
10
-0.0843276892721818
20
-13.8940492157314
30
0
41
1
10
-0.0784148575395066
20
-13.8984096457896
30
0
41
1
10
-0.0730636102339023
20
-13.9026567794164
30
0
41
1
10
-0.0681914930055016
20
-13.9067915986086
30
0
41
1
10
-0.0636345675118367
20
-13.9109071729934
30
0
41
1
10
-0.0583938938545734
20
-13.9159364468765
30
0
41
1
10
-0.0524772563369983
20
-13.9220800879662
30
0
41
1
10
-0.0481025451339584
20
-13.9270897762405
30
0
41
1
10
-0.0459189586215154
20
-13.9297237487494
30
0
41
1
10
-0.0458235247645049
20
-13.9298391301498
30
0
0
SPLINE
5
188
100
AcDbEntity
8
1
62
256
6
ByLayer
370
18
48
1
60
0
100
AcDbSpline
70
4
71
3
72
8
73
4
40
0
40
0
40
0
40
0
40
1
40
1
40
1
40
1
41
1
10
34.2777798216924
20
-18.5391792108505
30
0
41
1
10
34.2606523156976
20
-18.5392279555204
30
0
41
1
10
34.2435385630819
20
-18.5392279555204
30
0
41
1
10
34.2264387887477
20
-18.5391792108505
30
0
0
SPLINE
5
189
100
AcDbEntity
8
1
62
256
6
ByLayer
370
18
48
1
60
0
100
AcDbSpline
70
4
71
3
72
8
73
4
40
0
40
0
40
0
40
0
40
1
40
1
40
1
40
1
41
1
10
45.3178648186111
20
-18.5391792108505
30
0
41
1
10
45.7183179354346
20
-18.3778483418919
30
0
41
1
10
46.1187708895069
20
-18.2165170423224
30
0
41
1
10
46.5192237481604
20
-18.0551854902939
30
0
0
SPLINE
5
18A
100
AcDbEntity
8
1
62
256
6
ByLayer
370
18
48
1
60
0
100
AcDbSpline
70
4
71
3
72
8
73
4
40
0
40
0
40
0
40
0
40
1
40
1
40
1
40
1
41
1
10
35.5417356279426
20
-18.5391792108505
30
0
41
1
10
35.5206172839897
20
-18.5392279555204
30
0
41
1
10
35.4995089933864
20
-18.5392279555204
30
0
41
1
10
35.47841103353
20
-18.5391792108505
30
0
0
SPLINE
5
18B
100
AcDbEntity
8
1
62
256
6
ByLayer
370
18
48
1
60
0
100
AcDbSpline
70
4
71
3
72
8
73
4
40
0
40
0
40
0
40
0
40
1
40
1
40
1
40
1
41
1
10
41.7392384477118
20
-18.5391792108505
30
0
41
1
10
41.9152735588194
20
-18.3778483418919
30
0
41
1
10
42.0913085983831
20
-18.2165170423224
30
0
41
1
10
42.2673435960017
20
-18.0551854902939
30
0
0
SPLINE
5
18C
100
AcDbEntity
8
1
62
256
6
ByLayer
370
18
48
1
60
0
100
AcDbSpline
70
4
71
3
72
8
73
4
40
0
40
0
40
0
40
0
40
1
40
1
40
1
40
1
41
1
10
43.9711534760896
20
-18.0551854902939
30
0
41
1
10
43.9828790341838
20
-18.0367904798412
30
0
41
1
10
43.9946045917901
20
-18.0183954686231
30
0
41
1
10
44.0063301489185
20
-18.0000004566553
30
0
0
SPLINE
5
18D
100
AcDbEntity
8
1
62
256
6
ByLayer
370
18
48
1
60
0
100
AcDbSpline
70
4
71
3
72
8
73
4
40
0
40
0
40
0
40
0
40
1
40
1
40
1
40
1
41
1
10
32.7052545282837
20
-18.0551854902939
30
0
41
1
10
32.6903725966371
20
-18.0367906262877
30
0
41
1
10
32.6754906656098
20
-18.0183957615161
30
0
41
1
10
32.660608735189
20
-18.0000008959948
30
0
0
SPLINE
5
18E
100
AcDbEntity
8
1
62
256
6
ByLayer
370
18
48
1
60
0
100
AcDbSpline
70
4
71
3
72
8
73
4
40
0
40
0
40
0
40
0
40
1
40
1
40
1
40
1
41
1
10
44.7255930492015
20
-18.5391792108505
30
0
41
1
10
44.7135659020996
20
-18.5392279555204
30
0
41
1
10
44.7015220074882
20
-18.5392279555204
30
0
41
1
10
44.6894615236438
20
-18.5391792108505
30
0
0
SPLINE
5
18F
100
AcDbEntity
8
1
62
256
6
ByLayer
370
18
48
1
60
0
100
AcDbSpline
70
4
71
3
72
8
73
4
40
0
40
0
40
0
40
0
40
1
40
1
40
1
40
1
41
1
10
40.2572806119556
20
-18.5391792108505
30
0
41
1
10
40.2327270486848
20
-18.5392279555204
30
0
41
1
10
40.2081697598424
20
-18.5392279555204
30
0
41
1
10
40.183609068151
20
-18.5391792108505
30
0
0
SPLINE
5
190
100
AcDbEntity
8
1
62
256
6
ByLayer
370
18
48
1
60
0
100
AcDbSpline
70
4
71
3
72
8
73
4
40
0
40
0
40
0
40
0
40
1
40
1
40
1
40
1
41
1
10
44.7255930492015
20
-18.5391792108505
30
0
41
1
10
45.0878951781255
20
-18.3778483418919
30
0
41
1
10
45.4501971598035
20
-18.2165170423224
30
0
41
1
10
45.8124990551532
20
-18.0551854902939
30
0
0
SPLINE
5
191
100
AcDbEntity
8
1
62
256
6
ByLayer
370
18
48
1
60
0
100
AcDbSpline
70
4
71
3
72
8
73
4
40
0
40
0
40
0
40
0
40
1
40
1
40
1
40
1
41
1
10
34.8138110996536
20
-18.0551854902939
30
0
41
1
10
34.8039544561829
20
-18.03679050094
30
0
41
1
10
34.7940978131224
20
-18.0183955108205
30
0
41
1
10
34.7842411704635
20
-18.0000005199514
30
0
0
SPLINE
5
192
100
AcDbEntity
8
1
62
256
6
ByLayer
370
18
48
1
60
0
100
AcDbSpline
70
4
71
3
72
8
73
4
40
0
40
0
40
0
40
0
40
1
40
1
40
1
40
1
41
1
10
43.7735612112523
20
-18.5391792108505
30
0
41
1
10
43.7564614369181
20
-18.5392279555204
30
0
41
1
10
43.7393476843024
20
-18.5392279555204
30
0
41
1
10
43.7222201783076
20
-18.5391792108505
30
0
0
SPLINE
5
193
100
AcDbEntity
8
1
62
256
6
ByLayer
370
18
48
1
60
0
100
AcDbSpline
70
4
71
3
72
8
73
4
40
0
40
0
40
0
40
0
40
1
40
1
40
1
40
1
41
1
10
37.1988718773651
20
-18.8513503669791
30
0
41
1
10
37.2226415216966
20
-18.8514059369886
30
0
41
1
10
37.2464180699678
20
-18.8514059369886
30
0
41
1
10
37.2702011160872
20
-18.8513503669791
30
0
0
SPLINE
5
194
100
AcDbEntity
8
1
62
256
6
ByLayer
370
18
48
1
60
0
100
AcDbSpline
70
4
71
3
72
8
73
4
40
0
40
0
40
0
40
0
40
1
40
1
40
1
40
1
41
1
10
40.4160229945359
20
-18.0551854902939
30
0
41
1
10
40.4194698842068
20
-18.0367906499953
30
0
41
1
10
40.4229167737344
20
-18.0183958089312
30
0
41
1
10
40.4263636631214
20
-18.0000009671175
30
0
0
SPLINE
5
195
100
AcDbEntity
8
1
62
256
6
ByLayer
370
18
48
1
60
0
100
AcDbSpline
70
4
71
3
72
8
73
4
40
0
40
0
40
0
40
0
40
1
40
1
40
1
40
1
41
1
10
34.8772485986114
20
-18.5391792108505
30
0
41
1
10
34.6137106457777
20
-18.3778483418919
30
0
41
1
10
34.3501728000506
20
-18.2165170423224
30
0
41
1
10
34.0866350171185
20
-18.0551854902939
30
0
0
SPLINE
5
196
100
AcDbEntity
8
1
62
256
6
ByLayer
370
18
48
1
60
0
100
AcDbSpline
70
4
71
3
72
8
73
4
40
0
40
0
40
0
40
0
40
1
40
1
40
1
40
1
41
1
10
41.4316241644663
20
-18.0551854902939
30
0
41
1
10
41.437308613921
20
-18.0367904405917
30
0
41
1
10
41.4429930631391
20
-18.018395390124
30
0
41
1
10
41.4486775121255
20
-18.0000003389068
30
0
0
SPLINE
5
197
100
AcDbEntity
8
1
62
256
6
ByLayer
370
18
48
1
60
0
100
AcDbSpline
70
4
71
3
72
8
73
4
40
0
40
0
40
0
40
0
40
1
40
1
40
1
40
1
41
1
10
32.5334963247713
20
-18.5391792108505
30
0
41
1
10
32.1233142770833
20
-18.3778483418919
30
0
41
1
10
31.7131323961006
20
-18.2165170423224
30
0
41
1
10
31.3029506128548
20
-18.0551854902939
30
0
0
SPLINE
5
198
100
AcDbEntity
8
1
62
256
6
ByLayer
370
18
48
1
60
0
100
AcDbSpline
70
4
71
3
72
8
73
4
40
0
40
0
40
0
40
0
40
1
40
1
40
1
40
1
41
1
10
37.5839770054641
20
-18.0551854902939
30
0
41
1
10
37.5805301157931
20
-18.0367906499953
30
0
41
1
10
37.5770832262656
20
-18.0183958089312
30
0
41
1
10
37.5736363368786
20
-18.0000009671175
30
0
0
SPLINE
5
199
100
AcDbEntity
8
1
62
256
6
ByLayer
370
18
48
1
60
0
100
AcDbSpline
70
4
71
3
72
8
73
4
40
0
40
0
40
0
40
0
40
1
40
1
40
1
40
1
41
1
10
36.2607615522882
20
-18.5391792108505
30
0
41
1
10
36.0847264411806
20
-18.3778483418919
30
0
41
1
10
35.9086914016169
20
-18.2165170423224
30
0
41
1
10
35.7326564039983
20
-18.0551854902939
30
0
0
SPLINE
5
19A
100
AcDbEntity
8
1
62
256
6
ByLayer
370
18
48
1
60
0
100
AcDbSpline
70
4
71
3
72
8
73
4
40
0
40
0
40
0
40
0
40
1
40
1
40
1
40
1
41
1
10
36.5683758355337
20
-18.0551854902939
30
0
41
1
10
36.562691386079
20
-18.0367904405917
30
0
41
1
10
36.5570069368609
20
-18.018395390124
30
0
41
1
10
36.5513224878745
20
-18.0000003389068
30
0
0
SPLINE
5
19B
100
AcDbEntity
8
1
62
256
6
ByLayer
370
18
48
1
60
0
100
AcDbSpline
70
4
71
3
72
8
73
4
40
0
40
0
40
0
40
0
40
1
40
1
40
1
40
1
41
1
10
44.6777199918918
20
-18.0551854902939
30
0
41
1
10
44.6911294342474
20
-18.0367906170212
30
0
41
1
10
44.7045388760449
20
-18.018395742983
30
0
41
1
10
44.7179483172961
20
-18.0000008681952
30
0
0
SPLINE
5
19C
100
AcDbEntity
8
1
62
256
6
ByLayer
370
18
48
1
60
0
100
AcDbSpline
70
4
71
3
72
8
73
4
40
0
40
0
40
0
40
0
40
1
40
1
40
1
40
1
41
1
10
31.7771845410993
20
-18.0551854902939
30
0
41
1
10
31.760081190145
20
-18.0367905844469
30
0
41
1
10
31.7429778399024
20
-18.0183956778344
30
0
41
1
10
31.7258744903567
20
-18.0000007704723
30
0
0
SPLINE
5
19D
100
AcDbEntity
8
1
62
256
6
ByLayer
370
18
48
1
60
0
100
AcDbSpline
70
4
71
3
72
8
73
4
40
0
40
0
40
0
40
0
40
1
40
1
40
1
40
1
41
1
10
45.4665036752287
20
-18.5391792108505
30
0
41
1
10
45.8766857229167
20
-18.3778483418919
30
0
41
1
10
46.2868676038994
20
-18.2165170423224
30
0
41
1
10
46.6970493871452
20
-18.0551854902939
30
0
0
SPLINE
5
19E
100
AcDbEntity
8
1
62
256
6
ByLayer
370
18
48
1
60
0
100
AcDbSpline
70
4
71
3
72
8
73
4
40
0
40
0
40
0
40
0
40
1
40
1
40
1
40
1
41
1
10
34.8772485986114
20
-18.5391792108505
30
0
41
1
10
34.8579736851881
20
-18.5392279555204
30
0
41
1
10
34.8387107697367
20
-18.5392279555204
30
0
41
1
10
34.8194601054032
20
-18.5391792108505
30
0
0
SPLINE
5
19F
100
AcDbEntity
8
1
62
256
6
ByLayer
370
18
48
1
60
0
100
AcDbSpline
70
4
71
3
72
8
73
4
40
0
40
0
40
0
40
0
40
1
40
1
40
1
40
1
41
1
10
31.2465120406998
20
-18.0551854902939
30
0
41
1
10
31.2281170216197
20
-18.0367906863586
30
0
41
1
10
31.2097220033051
20
-18.0183958816577
30
0
41
1
10
31.19132698574
20
-18.0000010762073
30
0
0
SPLINE
5
1A0
100
AcDbEntity
8
1
62
256
6
ByLayer
370
18
48
1
60
0
100
AcDbSpline
70
4
71
3
72
8
73
4
40
0
40
0
40
0
40
0
40
1
40
1
40
1
40
1
41
1
10
44.6894615236438
20
-18.5391792108505
30
0
41
1
10
45.0517636525679
20
-18.3778483418919
30
0
41
1
10
45.4140656342458
20
-18.2165170423224
30
0
41
1
10
45.7763675295956
20
-18.0551854902939
30
0
0
SPLINE
5
1A1
100
AcDbEntity
8
1
62
256
6
ByLayer
370
18
48
1
60
0
100
AcDbSpline
70
4
71
3
72
8
73
4
40
0
40
0
40
0
40
0
40
1
40
1
40
1
40
1
41
1
10
33.2744069507985
20
-18.5391792108505
30
0
41
1
10
32.9121048218745
20
-18.3778483418919
30
0
41
1
10
32.5498028401965
20
-18.2165170423224
30
0
41
1
10
32.1875009448468
20
-18.0551854902939
30
0
0
SPLINE
5
1A2
100
AcDbEntity
8
1
62
256
6
ByLayer
370
18
48
1
60
0
100
AcDbSpline
70
4
71
3
72
8
73
4
40
0
40
0
40
0
40
0
40
1
40
1
40
1
40
1
41
1
10
43.6000015105075
20
-18.8513503669791
30
0
41
1
10
44.1502219450858
20
-18.5859633803057
30
0
41
1
10
44.7004418590617
20
-18.3205747445285
30
0
41
1
10
45.2506615777944
20
-18.0551854902939
30
0
0
SPLINE
5
1A3
100
AcDbEntity
8
1
62
256
6
ByLayer
370
18
48
1
60
0
100
AcDbSpline
70
4
71
3
72
8
73
4
40
0
40
0
40
0
40
0
40
1
40
1
40
1
40
1
41
1
10
45.3178648186111
20
-18.5391792108505
30
0
41
1
10
45.3116660086266
20
-18.5392279555204
30
0
41
1
10
45.3054487342124
20
-18.5392279555204
30
0
41
1
10
45.2992130770737
20
-18.5391792108505
30
0
0
SPLINE
5
1A4
100
AcDbEntity
8
1
62
256
6
ByLayer
370
18
48
1
60
0
100
AcDbSpline
70
4
71
3
72
8
73
4
40
0
40
0
40
0
40
0
40
1
40
1
40
1
40
1
41
1
10
32.9580198817569
20
-18.5391792108505
30
0
41
1
10
32.9487991026681
20
-18.5392279555204
30
0
41
1
10
32.9395959485362
20
-18.5392279555204
30
0
41
1
10
32.9304105403055
20
-18.5391792108505
30
0
0
SPLINE
5
1A5
100
AcDbEntity
8
1
62
256
6
ByLayer
370
18
48
1
60
0
100
AcDbSpline
70
4
71
3
72
8
73
4
40
0
40
0
40
0
40
0
40
1
40
1
40
1
40
1
41
1
10
45.0695894596945
20
-18.5391792108505
30
0
41
1
10
45.4539982607822
20
-18.3778483418919
30
0
41
1
10
45.8384069056393
20
-18.2165170423224
30
0
41
1
10
46.2228154589007
20
-18.0551854902939
30
0
0
SPLINE
5
1A6
100
AcDbEntity
8
1
62
256
6
ByLayer
370
18
48
1
60
0
100
AcDbSpline
70
4
71
3
72
8
73
4
40
0
40
0
40
0
40
0
40
1
40
1
40
1
40
1
41
1
10
37.816390931849
20
-18.5391792108505
30
0
41
1
10
37.7389195959103
20
-18.3778483418919
30
0
41
1
10
37.6614482914574
20
-18.2165170423224
30
0
41
1
10
37.5839770054641
20
-18.0551854902939
30
0
0
SPLINE
5
1A7
100
AcDbEntity
8
1
62
256
6
ByLayer
370
18
48
1
60
0
100
AcDbSpline
70
4
71
3
72
8
73
4
40
0
40
0
40
0
40
0
40
1
40
1
40
1
40
1
41
1
10
42.4582643720574
20
-18.5391792108505
30
0
41
1
10
42.6797977609684
20
-18.3778483418919
30
0
41
1
10
42.9013310598442
20
-18.2165170423224
30
0
41
1
10
43.1228643059337
20
-18.0551854902939
30
0
0
SPLINE
5
1A8
100
AcDbEntity
8
1
62
256
6
ByLayer
370
18
48
1
60
0
100
AcDbSpline
70
4
71
3
72
8
73
4
40
0
40
0
40
0
40
0
40
1
40
1
40
1
40
1
41
1
10
36.1928995233532
20
-18.5391792108505
30
0
41
1
10
36.0168644122457
20
-18.3778483418919
30
0
41
1
10
35.840829372682
20
-18.2165170423224
30
0
41
1
10
35.6647943750634
20
-18.0551854902939
30
0
0
SPLINE
5
1A9
100
AcDbEntity
8
1
62
256
6
ByLayer
370
18
48
1
60
0
100
AcDbSpline
70
4
71
3
72
8
73
4
40
0
40
0
40
0
40
0
40
1
40
1
40
1
40
1
41
1
10
42.52158896647
20
-18.5391792108505
30
0
41
1
10
42.5004910066136
20
-18.5392279555204
30
0
41
1
10
42.4793827160103
20
-18.5392279555204
30
0
41
1
10
42.4582643720574
20
-18.5391792108505
30
0
0
SPLINE
5
1AA
100
AcDbEntity
8
1
62
256
6
ByLayer
370
18
48
1
60
0
100
AcDbSpline
70
4
71
3
72
8
73
4
40
0
40
0
40
0
40
0
40
1
40
1
40
1
40
1
41
1
10
40.7297988839128
20
-18.8513503669791
30
0
41
1
10
40.939964388617
20
-18.5859633803057
30
0
41
1
10
41.1501296944687
20
-18.3205747445285
30
0
41
1
10
41.3602949257442
20
-18.0551854902939
30
0
0
SPLINE
5
1AB
100
AcDbEntity
8
1
62
256
6
ByLayer
370
18
48
1
60
0
100
AcDbSpline
70
4
71
3
72
8
73
4
40
0
40
0
40
0
40
0
40
1
40
1
40
1
40
1
41
1
10
41.8071004766468
20
-18.5391792108505
30
0
41
1
10
41.9831355877543
20
-18.3778483418919
30
0
41
1
10
42.159170627318
20
-18.2165170423224
30
0
41
1
10
42.3352056249366
20
-18.0551854902939
30
0
0
SPLINE
5
1AC
100
AcDbEntity
8
1
62
256
6
ByLayer
370
18
48
1
60
0
100
AcDbSpline
70
4
71
3
72
8
73
4
40
0
40
0
40
0
40
0
40
1
40
1
40
1
40
1
41
1
10
31.4807762518396
20
-18.0551854902939
30
0
41
1
10
31.4629591079274
20
-18.0367906469381
30
0
41
1
10
31.4451419647568
20
-18.0183958028167
30
0
41
1
10
31.4273248223121
20
-18.0000009579458
30
0
0
SPLINE
5
1AD
100
AcDbEntity
8
1
62
256
6
ByLayer
370
18
48
1
60
0
100
AcDbSpline
70
4
71
3
72
8
73
4
40
0
40
0
40
0
40
0
40
1
40
1
40
1
40
1
41
1
10
43.1861889003464
20
-18.0551854902939
30
0
41
1
10
43.1960455438171
20
-18.03679050094
30
0
41
1
10
43.2059021868776
20
-18.0183955108205
30
0
41
1
10
43.2157588295365
20
-18.0000005199514
30
0
0
SPLINE
5
1AE
100
AcDbEntity
8
1
62
256
6
ByLayer
370
18
48
1
60
0
100
AcDbSpline
70
4
71
3
72
8
73
4
40
0
40
0
40
0
40
0
40
1
40
1
40
1
40
1
41
1
10
33.3105384763562
20
-18.5391792108505
30
0
41
1
10
32.9482363474321
20
-18.3778483418919
30
0
41
1
10
32.5859343657541
20
-18.2165170423224
30
0
41
1
10
32.2236324704044
20
-18.0551854902939
30
0
0
SPLINE
5
1AF
100
AcDbEntity
8
1
62
256
6
ByLayer
370
18
48
1
60
0
100
AcDbSpline
70
4
71
3
72
8
73
4
40
0
40
0
40
0
40
0
40
1
40
1
40
1
40
1
41
1
10
43.1805398945968
20
-18.5391792108505
30
0
41
1
10
43.4440778474304
20
-18.3778483418919
30
0
41
1
10
43.7076156931576
20
-18.2165170423224
30
0
41
1
10
43.9711534760896
20
-18.0551854902939
30
0
0
SPLINE
5
1B0
100
AcDbEntity
8
1
62
256
6
ByLayer
370
18
48
1
60
0
100
AcDbSpline
70
4
71
3
72
8
73
4
40
0
40
0
40
0
40
0
40
1
40
1
40
1
40
1
41
1
10
38.6284611824607
20
-18.5391792108505
30
0
41
1
10
38.6035093745503
20
-18.5392279555204
30
0
41
1
10
38.5785585970416
20
-18.5392279555204
30
0
41
1
10
38.5536091778285
20
-18.5391792108505
30
0
0
SPLINE
5
1B1
100
AcDbEntity
8
1
62
256
6
ByLayer
370
18
48
1
60
0
100
AcDbSpline
70
4
71
3
72
8
73
4
40
0
40
0
40
0
40
0
40
1
40
1
40
1
40
1
41
1
10
35.47841103353
20
-18.5391792108505
30
0
41
1
10
35.256877644619
20
-18.3778483418919
30
0
41
1
10
35.0353443457432
20
-18.2165170423224
30
0
41
1
10
34.8138110996536
20
-18.0551854902939
30
0
0
SPLINE
5
1B2
100
AcDbEntity
8
1
62
256
6
ByLayer
370
18
48
1
60
0
100
AcDbSpline
70
4
71
3
72
8
73
4
40
0
40
0
40
0
40
0
40
1
40
1
40
1
40
1
41
1
10
45.4571036827114
20
-18.5391792108505
30
0
41
1
10
45.8672857303994
20
-18.3778483418919
30
0
41
1
10
46.2774676113821
20
-18.2165170423224
30
0
41
1
10
46.6876493946278
20
-18.0551854902939
30
0
0
SPLINE
5
1B3
100
AcDbEntity
8
1
62
256
6
ByLayer
370
18
48
1
60
0
100
AcDbSpline
70
4
71
3
72
8
73
4
40
0
40
0
40
0
40
0
40
1
40
1
40
1
40
1
41
1
10
42.52158896647
20
-18.5391792108505
30
0
41
1
10
42.743122355381
20
-18.3778483418919
30
0
41
1
10
42.9646556542568
20
-18.2165170423224
30
0
41
1
10
43.1861889003464
20
-18.0551854902939
30
0
0
SPLINE
5
1B4
100
AcDbEntity
8
1
62
256
6
ByLayer
370
18
48
1
60
0
100
AcDbSpline
70
4
71
3
72
8
73
4
40
0
40
0
40
0
40
0
40
1
40
1
40
1
40
1
41
1
10
45.8124990551532
20
-18.0551854902939
30
0
41
1
10
45.8286189156083
20
-18.0367904782653
30
0
41
1
10
45.8447387753925
20
-18.0183954654713
30
0
41
1
10
45.8608586345199
20
-18.0000004519276
30
0
0
SPLINE
5
1B5
100
AcDbEntity
8
1
62
256
6
ByLayer
370
18
48
1
60
0
100
AcDbSpline
70
4
71
3
72
8
73
4
40
0
40
0
40
0
40
0
40
1
40
1
40
1
40
1
41
1
10
45.2992130770737
20
-18.5391792108505
30
0
41
1
10
45.6996661938973
20
-18.3778483418919
30
0
41
1
10
46.1001191479696
20
-18.2165170423224
30
0
41
1
10
46.5005720066231
20
-18.0551854902939
30
0
0
SPLINE
5
1B6
100
AcDbEntity
8
1
62
256
6
ByLayer
370
18
48
1
60
0
100
AcDbSpline
70
4
71
3
72
8
73
4
40
0
40
0
40
0
40
0
40
1
40
1
40
1
40
1
41
1
10
46.2228154589007
20
-18.0551854902939
30
0
41
1
10
46.2399188098551
20
-18.0367905844469
30
0
41
1
10
46.2570221600976
20
-18.0183956778343
30
0
41
1
10
46.2741255096433
20
-18.0000007704723
30
0
0
SPLINE
5
1B7
100
AcDbEntity
8
1
62
256
6
ByLayer
370
18
48
1
60
0
100
AcDbSpline
70
4
71
3
72
8
73
4
40
0
40
0
40
0
40
0
40
1
40
1
40
1
40
1
41
1
10
31.3029506128548
20
-18.0551854902939
30
0
41
1
10
31.2847006226802
20
-18.0367906648751
30
0
41
1
10
31.266450633265
20
-18.0183958386909
30
0
41
1
10
31.2482006445935
20
-18.000001011757
30
0
0
SPLINE
5
1B8
100
AcDbEntity
8
1
62
256
6
ByLayer
370
18
48
1
60
0
100
AcDbSpline
70
4
71
3
72
8
73
4
40
0
40
0
40
0
40
0
40
1
40
1
40
1
40
1
41
1
10
45.0419801182431
20
-18.5391792108505
30
0
41
1
10
45.4263889193309
20
-18.3778483418919
30
0
41
1
10
45.810797564188
20
-18.2165170423224
30
0
41
1
10
46.1952061174493
20
-18.0551854902939
30
0
0
SPLINE
5
1B9
100
AcDbEntity
8
1
62
256
6
ByLayer
370
18
48
1
60
0
100
AcDbSpline
70
4
71
3
72
8
73
4
40
0
40
0
40
0
40
0
40
1
40
1
40
1
40
1
41
1
10
32.7493384222056
20
-18.0551854902939
30
0
41
1
10
32.734456490559
20
-18.0367906262877
30
0
41
1
10
32.7195745595318
20
-18.0183957615161
30
0
41
1
10
32.7046926291109
20
-18.0000008959948
30
0
0
SPLINE
5
1BA
100
AcDbEntity
8
1
62
256
6
ByLayer
370
18
48
1
60
0
100
AcDbSpline
70
4
71
3
72
8
73
4
40
0
40
0
40
0
40
0
40
1
40
1
40
1
40
1
41
1
10
41.8071004766468
20
-18.5391792108505
30
0
41
1
10
41.7844879486976
20
-18.5392279555204
30
0
41
1
10
41.7618671732947
20
-18.5392279555204
30
0
41
1
10
41.7392384477118
20
-18.5391792108505
30
0
0
SPLINE
5
1BB
100
AcDbEntity
8
1
62
256
6
ByLayer
370
18
48
1
60
0
100
AcDbSpline
70
4
71
3
72
8
73
4
40
0
40
0
40
0
40
0
40
1
40
1
40
1
40
1
41
1
10
39.4463908221715
20
-18.5391792108505
30
0
41
1
10
39.4723510703583
20
-18.3778483418919
30
0
41
1
10
39.4983113079944
20
-18.2165170423224
30
0
41
1
10
39.5242715394448
20
-18.0551854902939
30
0
0
SPLINE
5
1BC
100
AcDbEntity
8
1
62
256
6
ByLayer
370
18
48
1
60
0
100
AcDbSpline
70
4
71
3
72
8
73
4
40
0
40
0
40
0
40
0
40
1
40
1
40
1
40
1
41
1
10
40.8011281226349
20
-18.8513503669791
30
0
41
1
10
41.0112936273391
20
-18.5859633803057
30
0
41
1
10
41.2214589331909
20
-18.3205747445285
30
0
41
1
10
41.4316241644664
20
-18.0551854902939
30
0
0
SPLINE
5
1BD
100
AcDbEntity
8
1
62
256
6
ByLayer
370
18
48
1
60
0
100
AcDbSpline
70
4
71
3
72
8
73
4
40
0
40
0
40
0
40
0
40
1
40
1
40
1
40
1
41
1
10
45.2947454717163
20
-18.0551854902939
30
0
41
1
10
45.3096274033629
20
-18.0367906262877
30
0
41
1
10
45.3245093343901
20
-18.0183957615161
30
0
41
1
10
45.339391264811
20
-18.0000008959948
30
0
0
SPLINE
5
1BE
100
AcDbEntity
8
1
62
256
6
ByLayer
370
18
48
1
60
0
100
AcDbSpline
70
4
71
3
72
8
73
4
40
0
40
0
40
0
40
0
40
1
40
1
40
1
40
1
41
1
10
43.6440854044294
20
-18.8513503669791
30
0
41
1
10
44.1943058390077
20
-18.5859633803057
30
0
41
1
10
44.7445257529836
20
-18.3205747445285
30
0
41
1
10
45.2947454717163
20
-18.0551854902939
30
0
0
SPLINE
5
1BF
100
AcDbEntity
8
1
62
256
6
ByLayer
370
18
48
1
60
0
100
AcDbSpline
70
4
71
3
72
8
73
4
40
0
40
0
40
0
40
0
40
1
40
1
40
1
40
1
41
1
10
45.7763675295956
20
-18.0551854902939
30
0
41
1
10
45.7924873900507
20
-18.0367904782653
30
0
41
1
10
45.8086072498349
20
-18.0183954654713
30
0
41
1
10
45.8247271089622
20
-18.0000004519276
30
0
0
SPLINE
5
1C0
100
AcDbEntity
8
1
62
256
6
ByLayer
370
18
48
1
60
0
100
AcDbSpline
70
4
71
3
72
8
73
4
40
0
40
0
40
0
40
0
40
1
40
1
40
1
40
1
41
1
10
33.2868400916108
20
-18.8513503669791
30
0
41
1
10
32.6067302318625
20
-18.5859633803057
30
0
41
1
10
31.9266210156143
20
-18.3205747445285
30
0
41
1
10
31.2465120406998
20
-18.0551854902939
30
0
0
SPLINE
5
1C1
100
AcDbEntity
8
1
62
256
6
ByLayer
370
18
48
1
60
0
100
AcDbSpline
70
4
71
3
72
8
73
4
40
0
40
0
40
0
40
0
40
1
40
1
40
1
40
1
41
1
10
46.1952061174493
20
-18.0551854902939
30
0
41
1
10
46.2123094684037
20
-18.0367905844469
30
0
41
1
10
46.2294128186463
20
-18.0183956778343
30
0
41
1
10
46.246516168192
20
-18.0000007704723
30
0
0
SPLINE
5
1C2
100
AcDbEntity
8
1
62
256
6
ByLayer
370
18
48
1
60
0
100
AcDbSpline
70
4
71
3
72
8
73
4
40
0
40
0
40
0
40
0
40
1
40
1
40
1
40
1
41
1
10
38.5505804651873
20
-18.0551854902939
30
0
41
1
10
38.5494254343877
20
-18.0367907182922
30
0
41
1
10
38.5482704036361
20
-18.018395945525
30
0
41
1
10
38.5471153729316
20
-18.0000011720082
30
0
0
SPLINE
5
1C3
100
AcDbEntity
8
1
62
256
6
ByLayer
370
18
48
1
60
0
100
AcDbSpline
70
4
71
3
72
8
73
4
40
0
40
0
40
0
40
0
40
1
40
1
40
1
40
1
41
1
10
46.5005720066231
20
-18.0551854902939
30
0
41
1
10
46.5183891505352
20
-18.0367906469381
30
0
41
1
10
46.5362062937059
20
-18.0183958028167
30
0
41
1
10
46.5540234361505
20
-18.0000009579458
30
0
0
SPLINE
5
1C4
100
AcDbEntity
8
1
62
256
6
ByLayer
370
18
48
1
60
0
100
AcDbSpline
70
4
71
3
72
8
73
4
40
0
40
0
40
0
40
0
40
1
40
1
40
1
40
1
41
1
10
32.1875009448468
20
-18.0551854902939
30
0
41
1
10
32.1713810843917
20
-18.0367904782653
30
0
41
1
10
32.1552612246075
20
-18.0183954654713
30
0
41
1
10
32.1391413654801
20
-18.0000004519277
30
0
0
SPLINE
5
1C5
100
AcDbEntity
8
1
62
256
6
ByLayer
370
18
48
1
60
0
100
AcDbSpline
70
4
71
3
72
8
73
4
40
0
40
0
40
0
40
0
40
1
40
1
40
1
40
1
41
1
10
43.9133649828815
20
-18.0551854902939
30
0
41
1
10
43.9250905409757
20
-18.0367904798412
30
0
41
1
10
43.9368160985819
20
-18.0183954686231
30
0
41
1
10
43.9485416557103
20
-18.0000004566553
30
0
0
SPLINE
5
1C6
100
AcDbEntity
8
1
62
256
6
ByLayer
370
18
48
1
60
0
100
AcDbSpline
70
4
71
3
72
8
73
4
40
0
40
0
40
0
40
0
40
1
40
1
40
1
40
1
41
1
10
44.7131599083892
20
-18.8513503669791
30
0
41
1
10
45.3932697681375
20
-18.5859633803057
30
0
41
1
10
46.0733789843857
20
-18.3205747445285
30
0
41
1
10
46.7534879593002
20
-18.0551854902939
30
0
0
SPLINE
5
1C7
100
AcDbEntity
8
1
62
256
6
ByLayer
370
18
48
1
60
0
100
AcDbSpline
70
4
71
3
72
8
73
4
40
0
40
0
40
0
40
0
40
1
40
1
40
1
40
1
41
1
10
40.4896945383406
20
-18.0551854902939
30
0
41
1
10
40.4931414280115
20
-18.0367906499953
30
0
41
1
10
40.496588317539
20
-18.0183958089312
30
0
41
1
10
40.500035206926
20
-18.0000009671175
30
0
0
SPLINE
5
1C8
100
AcDbEntity
8
1
62
256
6
ByLayer
370
18
48
1
60
0
100
AcDbSpline
70
4
71
3
72
8
73
4
40
0
40
0
40
0
40
0
40
1
40
1
40
1
40
1
41
1
10
38.6284611824607
20
-18.5391792108505
30
0
41
1
10
38.6025009342738
20
-18.3778483418919
30
0
41
1
10
38.5765406966377
20
-18.2165170423224
30
0
41
1
10
38.5505804651873
20
-18.0551854902939
30
0
0
SPLINE
5
1C9
100
AcDbEntity
8
1
62
256
6
ByLayer
370
18
48
1
60
0
100
AcDbSpline
70
4
71
3
72
8
73
4
40
0
40
0
40
0
40
0
40
1
40
1
40
1
40
1
41
1
10
39.3715388175393
20
-18.5391792108505
30
0
41
1
10
39.3974990657262
20
-18.3778483418919
30
0
41
1
10
39.4234593033623
20
-18.2165170423224
30
0
41
1
10
39.4494195348127
20
-18.0551854902939
30
0
0
SPLINE
5
1CA
100
AcDbEntity
8
1
62
256
6
ByLayer
370
18
48
1
60
0
100
AcDbSpline
70
4
71
3
72
8
73
4
40
0
40
0
40
0
40
0
40
1
40
1
40
1
40
1
41
1
10
32.5428963172886
20
-18.5391792108505
30
0
41
1
10
32.5397441221381
20
-18.5392279555204
30
0
41
1
10
32.5366107775732
20
-18.5392279555204
30
0
41
1
10
32.5334963247713
20
-18.5391792108505
30
0
0
SPLINE
5
1CB
100
AcDbEntity
8
1
62
256
6
ByLayer
370
18
48
1
60
0
100
AcDbSpline
70
4
71
3
72
8
73
4
40
0
40
0
40
0
40
0
40
1
40
1
40
1
40
1
41
1
10
38.5536091778285
20
-18.5391792108505
30
0
41
1
10
38.5276489296417
20
-18.3778483418919
30
0
41
1
10
38.5016886920056
20
-18.2165170423224
30
0
41
1
10
38.4757284605552
20
-18.0551854902939
30
0
0
SPLINE
5
1CC
100
AcDbEntity
8
1
62
256
6
ByLayer
370
18
48
1
60
0
100
AcDbSpline
70
4
71
3
72
8
73
4
40
0
40
0
40
0
40
0
40
1
40
1
40
1
40
1
41
1
10
32.7007869229263
20
-18.5391792108505
30
0
41
1
10
32.3003338061027
20
-18.3778483418919
30
0
41
1
10
31.8998808520305
20
-18.2165170423224
30
0
41
1
10
31.4994279933769
20
-18.0551854902939
30
0
0
SPLINE
5
1CD
100
AcDbEntity
8
1
62
256
6
ByLayer
370
18
48
1
60
0
100
AcDbSpline
70
4
71
3
72
8
73
4
40
0
40
0
40
0
40
0
40
1
40
1
40
1
40
1
41
1
10
43.1805398945968
20
-18.5391792108505
30
0
41
1
10
43.1612892302633
20
-18.5392279555204
30
0
41
1
10
43.1420263148119
20
-18.5392279555204
30
0
41
1
10
43.1227514013886
20
-18.5391792108505
30
0
0
SPLINE
5
1CE
100
AcDbEntity
8
1
62
256
6
ByLayer
370
18
48
1
60
0
100
AcDbSpline
70
4
71
3
72
8
73
4
40
0
40
0
40
0
40
0
40
1
40
1
40
1
40
1
41
1
10
34.2777798216924
20
-18.5391792108505
30
0
41
1
10
33.9763934558822
20
-18.3778483418919
30
0
41
1
10
33.6750072125608
20
-18.2165170423224
30
0
41
1
10
33.3736210410528
20
-18.0551854902939
30
0
0
SPLINE
5
1CF
100
AcDbEntity
8
1
62
256
6
ByLayer
370
18
48
1
60
0
100
AcDbSpline
70
4
71
3
72
8
73
4
40
0
40
0
40
0
40
0
40
1
40
1
40
1
40
1
41
1
10
32.5428963172886
20
-18.5391792108505
30
0
41
1
10
32.1327142696006
20
-18.3778483418919
30
0
41
1
10
31.7225323886179
20
-18.2165170423224
30
0
41
1
10
31.3123506053722
20
-18.0551854902939
30
0
0
SPLINE
5
1D0
100
AcDbEntity
8
1
62
256
6
ByLayer
370
18
48
1
60
0
100
AcDbSpline
70
4
71
3
72
8
73
4
40
0
40
0
40
0
40
0
40
1
40
1
40
1
40
1
41
1
10
34.8194601054032
20
-18.5391792108505
30
0
41
1
10
34.5559221525696
20
-18.3778483418919
30
0
41
1
10
34.2923843068425
20
-18.2165170423224
30
0
41
1
10
34.0288465239104
20
-18.0551854902939
30
0
0
SPLINE
5
1D1
100
AcDbEntity
8
1
62
256
6
ByLayer
370
18
48
1
60
0
100
AcDbSpline
70
4
71
3
72
8
73
4
40
0
40
0
40
0
40
0
40
1
40
1
40
1
40
1
41
1
10
45.0695894596945
20
-18.5391792108505
30
0
41
1
10
45.0604040514638
20
-18.5392279555204
30
0
41
1
10
45.0512008973319
20
-18.5392279555204
30
0
41
1
10
45.0419801182431
20
-18.5391792108505
30
0
0
SPLINE
5
1D2
100
AcDbEntity
8
1
62
256
6
ByLayer
370
18
48
1
60
0
100
AcDbSpline
70
4
71
3
72
8
73
4
40
0
40
0
40
0
40
0
40
1
40
1
40
1
40
1
41
1
10
33.3105384763562
20
-18.5391792108505
30
0
41
1
10
33.2984779925118
20
-18.5392279555204
30
0
41
1
10
33.2864340979004
20
-18.5392279555204
30
0
41
1
10
33.2744069507985
20
-18.5391792108505
30
0
0
SPLINE
5
1D3
100
AcDbEntity
8
1
62
256
6
ByLayer
370
18
48
1
60
0
100
AcDbSpline
70
4
71
3
72
8
73
4
40
0
40
0
40
0
40
0
40
1
40
1
40
1
40
1
41
1
10
37.816390931849
20
-18.5391792108505
30
0
41
1
10
37.7918302401576
20
-18.5392279555204
30
0
41
1
10
37.7672729513152
20
-18.5392279555204
30
0
41
1
10
37.7427193880444
20
-18.5391792108505
30
0
0
SPLINE
5
1D4
100
AcDbEntity
8
1
62
256
6
ByLayer
370
18
48
1
60
0
100
AcDbSpline
70
4
71
3
72
8
73
4
40
0
40
0
40
0
40
0
40
1
40
1
40
1
40
1
41
1
10
32.9580198817569
20
-18.5391792108505
30
0
41
1
10
32.5736110806691
20
-18.3778483418919
30
0
41
1
10
32.189202435812
20
-18.2165170423224
30
0
41
1
10
31.8047938825507
20
-18.0551854902939
30
0
0
SPLINE
5
1D5
100
AcDbEntity
8
1
62
256
6
ByLayer
370
18
48
1
60
0
100
AcDbSpline
70
4
71
3
72
8
73
4
40
0
40
0
40
0
40
0
40
1
40
1
40
1
40
1
41
1
10
46.6876493946278
20
-18.0551854902939
30
0
41
1
10
46.7058993848025
20
-18.0367906648751
30
0
41
1
10
46.7241493742177
20
-18.0183958386909
30
0
41
1
10
46.7423993628892
20
-18.000001011757
30
0
0
SPLINE
5
1D6
100
AcDbEntity
8
1
62
256
6
ByLayer
370
18
48
1
60
0
100
AcDbSpline
70
4
71
3
72
8
73
4
40
0
40
0
40
0
40
0
40
1
40
1
40
1
40
1
41
1
10
36.2607615522882
20
-18.5391792108505
30
0
41
1
10
36.2381328267053
20
-18.5392279555204
30
0
41
1
10
36.2155120513024
20
-18.5392279555204
30
0
41
1
10
36.1928995233532
20
-18.5391792108505
30
0
0
SPLINE
5
1D7
100
AcDbEntity
8
1
62
256
6
ByLayer
370
18
48
1
60
0
100
AcDbSpline
70
4
71
3
72
8
73
4
40
0
40
0
40
0
40
0
40
1
40
1
40
1
40
1
41
1
10
43.7735612112523
20
-18.5391792108505
30
0
41
1
10
44.0749475770625
20
-18.3778483418919
30
0
41
1
10
44.3763338203838
20
-18.2165170423224
30
0
41
1
10
44.6777199918918
20
-18.0551854902939
30
0
0
SPLINE
5
1D8
100
AcDbEntity
8
1
62
256
6
ByLayer
370
18
48
1
60
0
100
AcDbSpline
70
4
71
3
72
8
73
4
40
0
40
0
40
0
40
0
40
1
40
1
40
1
40
1
41
1
10
32.2236324704044
20
-18.0551854902939
30
0
41
1
10
32.2075126099493
20
-18.0367904782653
30
0
41
1
10
32.1913927501651
20
-18.0183954654713
30
0
41
1
10
32.1752728910378
20
-18.0000004519277
30
0
0
SPLINE
5
1D9
100
AcDbEntity
8
1
62
256
6
ByLayer
370
18
48
1
60
0
100
AcDbSpline
70
4
71
3
72
8
73
4
40
0
40
0
40
0
40
0
40
1
40
1
40
1
40
1
41
1
10
43.1228643059337
20
-18.0551854902939
30
0
41
1
10
43.1327209494044
20
-18.03679050094
30
0
41
1
10
43.1425775924649
20
-18.0183955108205
30
0
41
1
10
43.1524342351238
20
-18.0000005199514
30
0
0
SPLINE
5
1DA
100
AcDbEntity
8
1
62
256
6
ByLayer
370
18
48
1
60
0
100
AcDbSpline
70
4
71
3
72
8
73
4
40
0
40
0
40
0
40
0
40
1
40
1
40
1
40
1
41
1
10
38.4757284605552
20
-18.0551854902939
30
0
41
1
10
38.4745734297556
20
-18.0367907182922
30
0
41
1
10
38.473418399004
20
-18.0183959455249
30
0
41
1
10
38.4722633682995
20
-18.0000011720081
30
0
0
SPLINE
5
1DB
100
AcDbEntity
8
1
62
256
6
ByLayer
370
18
48
1
60
0
100
AcDbSpline
70
4
71
3
72
8
73
4
40
0
40
0
40
0
40
0
40
1
40
1
40
1
40
1
41
1
10
37.7427193880444
20
-18.5391792108505
30
0
41
1
10
37.6652480521057
20
-18.3778483418919
30
0
41
1
10
37.5877767476527
20
-18.2165170423224
30
0
41
1
10
37.5103054616594
20
-18.0551854902939
30
0
0
SPLINE
5
1DC
100
AcDbEntity
8
1
62
256
6
ByLayer
370
18
48
1
60
0
100
AcDbSpline
70
4
71
3
72
8
73
4
40
0
40
0
40
0
40
0
40
1
40
1
40
1
40
1
41
1
10
39.4494195348127
20
-18.0551854902939
30
0
41
1
10
39.4505745656123
20
-18.0367907182922
30
0
41
1
10
39.4517295963639
20
-18.018395945525
30
0
41
1
10
39.4528846270684
20
-18.0000011720082
30
0
0
SPLINE
5
1DD
100
AcDbEntity
8
1
62
256
6
ByLayer
370
18
48
1
60
0
100
AcDbSpline
70
4
71
3
72
8
73
4
40
0
40
0
40
0
40
0
40
1
40
1
40
1
40
1
41
1
10
41.3602949257442
20
-18.0551854902939
30
0
41
1
10
41.3659793751988
20
-18.0367904405917
30
0
41
1
10
41.3716638244169
20
-18.018395390124
30
0
41
1
10
41.3773482734033
20
-18.0000003389068
30
0
0
SPLINE
5
1DE
100
AcDbEntity
8
1
62
256
6
ByLayer
370
18
48
1
60
0
100
AcDbSpline
70
4
71
3
72
8
73
4
40
0
40
0
40
0
40
0
40
1
40
1
40
1
40
1
41
1
10
37.5103054616594
20
-18.0551854902939
30
0
41
1
10
37.5068585719885
20
-18.0367906499953
30
0
41
1
10
37.503411682461
20
-18.0183958089312
30
0
41
1
10
37.499964793074
20
-18.0000009671175
30
0
0
SPLINE
5
1DF
100
AcDbEntity
8
1
62
256
6
ByLayer
370
18
48
1
60
0
100
AcDbSpline
70
4
71
3
72
8
73
4
40
0
40
0
40
0
40
0
40
1
40
1
40
1
40
1
41
1
10
31.3123506053722
20
-18.0551854902939
30
0
41
1
10
31.2941006151975
20
-18.0367906648751
30
0
41
1
10
31.2758506257823
20
-18.0183958386909
30
0
41
1
10
31.2576006371109
20
-18.000001011757
30
0
0
SPLINE
5
1E0
100
AcDbEntity
8
1
62
256
6
ByLayer
370
18
48
1
60
0
100
AcDbSpline
70
4
71
3
72
8
73
4
40
0
40
0
40
0
40
0
40
1
40
1
40
1
40
1
41
1
10
32.9304105403055
20
-18.5391792108505
30
0
41
1
10
32.5460017392178
20
-18.3778483418919
30
0
41
1
10
32.1615930943607
20
-18.2165170423224
30
0
41
1
10
31.7771845410993
20
-18.0551854902939
30
0
0
SPLINE
5
1E1
100
AcDbEntity
8
1
62
256
6
ByLayer
370
18
48
1
60
0
100
AcDbSpline
70
4
71
3
72
8
73
4
40
0
40
0
40
0
40
0
40
1
40
1
40
1
40
1
41
1
10
46.6970493871452
20
-18.0551854902939
30
0
41
1
10
46.7152993773198
20
-18.0367906648751
30
0
41
1
10
46.733549366735
20
-18.0183958386909
30
0
41
1
10
46.7517993554065
20
-18.000001011757
30
0
0
SPLINE
5
1E2
100
AcDbEntity
8
1
62
256
6
ByLayer
370
18
48
1
60
0
100
AcDbSpline
70
4
71
3
72
12
73
8
40
0
40
0
40
0
40
0
40
0.151633307455324
40
0.151633307455324
40
0.84015315797671
40
0.84015315797671
40
1
40
1
40
1
40
1
41
1
10
37.2702011160872
20
-18.8513503669791
30
0
41
1
10
37.2383330254959
20
-18.8111088604342
30
0
41
1
10
37.206464939804
20
-18.7708673132587
30
0
41
1
10
37.0298937776414
20
-18.5479011810731
30
0
41
1
10
36.8851907803578
20
-18.365175939358
30
0
41
1
10
36.7068935734806
20
-18.1400287406094
30
0
41
1
10
36.6732993227783
20
-18.0976071244902
30
0
41
1
10
36.6397050742558
20
-18.0551854902939
30
0
0
SPLINE
5
1E3
100
AcDbEntity
8
1
62
256
6
ByLayer
370
18
48
1
60
0
100
AcDbSpline
70
4
71
3
72
8
73
4
40
0
40
0
40
0
40
0
40
1
40
1
40
1
40
1
41
1
10
34.0288465239104
20
-18.0551854902939
30
0
41
1
10
34.0171209658162
20
-18.0367904798412
30
0
41
1
10
34.0053954082099
20
-18.0183954686231
30
0
41
1
10
33.9936698510815
20
-18.0000004566553
30
0
0
SPLINE
5
1E4
100
AcDbEntity
8
1
62
256
6
ByLayer
370
18
48
1
60
0
100
AcDbSpline
70
4
71
3
72
8
73
4
40
0
40
0
40
0
40
0
40
1
40
1
40
1
40
1
41
1
10
34.3999984894925
20
-18.8513503669791
30
0
41
1
10
33.8497780549142
20
-18.5859633803057
30
0
41
1
10
33.2995581409383
20
-18.3205747445285
30
0
41
1
10
32.7493384222056
20
-18.0551854902939
30
0
0
SPLINE
5
1E5
100
AcDbEntity
8
1
62
256
6
ByLayer
370
18
48
1
60
0
100
AcDbSpline
70
4
71
3
72
8
73
4
40
0
40
0
40
0
40
0
40
1
40
1
40
1
40
1
41
1
10
40.2572806119556
20
-18.5391792108505
30
0
41
1
10
40.3347519478943
20
-18.3778483418919
30
0
41
1
10
40.4122232523473
20
-18.2165170423224
30
0
41
1
10
40.4896945383406
20
-18.0551854902939
30
0
0
SPLINE
5
1E6
100
AcDbEntity
8
1
62
256
6
ByLayer
370
18
48
1
60
0
100
AcDbSpline
70
4
71
3
72
8
73
4
40
0
40
0
40
0
40
0
40
1
40
1
40
1
40
1
41
1
10
43.6000015105075
20
-18.8513503669791
30
0
41
1
10
43.6147136431531
20
-18.8514059369886
30
0
41
1
10
43.6294083581199
20
-18.8514059369886
30
0
41
1
10
43.6440854044294
20
-18.8513503669791
30
0
0
SPLINE
5
1E7
100
AcDbEntity
8
1
62
256
6
ByLayer
370
18
48
1
60
0
100
AcDbSpline
70
4
71
3
72
8
73
4
40
0
40
0
40
0
40
0
40
1
40
1
40
1
40
1
41
1
10
42.3352056249366
20
-18.0551854902939
30
0
41
1
10
42.3430379173184
20
-18.0367905121165
30
0
41
1
10
42.3508702093743
20
-18.0183955331735
30
0
41
1
10
42.358702501111
20
-18.000000553481
30
0
0
SPLINE
5
1E8
100
AcDbEntity
8
1
62
256
6
ByLayer
370
18
48
1
60
0
100
AcDbSpline
70
4
71
3
72
8
73
4
40
0
40
0
40
0
40
0
40
1
40
1
40
1
40
1
41
1
10
44.6263789589472
20
-18.0551854902939
30
0
41
1
10
44.6397884013027
20
-18.0367906170212
30
0
41
1
10
44.6531978431003
20
-18.018395742983
30
0
41
1
10
44.6666072843514
20
-18.0000008681952
30
0
0
SPLINE
5
1E9
100
AcDbEntity
8
1
62
256
6
ByLayer
370
18
48
1
60
0
100
AcDbSpline
70
4
71
3
72
8
73
4
40
0
40
0
40
0
40
0
40
1
40
1
40
1
40
1
41
1
10
45.4665036752287
20
-18.5391792108505
30
0
41
1
10
45.4633892224268
20
-18.5392279555204
30
0
41
1
10
45.4602558778619
20
-18.5392279555204
30
0
41
1
10
45.4571036827114
20
-18.5391792108505
30
0
0
SPLINE
5
1EA
100
AcDbEntity
8
1
62
256
6
ByLayer
370
18
48
1
60
0
100
AcDbSpline
70
4
71
3
72
8
73
4
40
0
40
0
40
0
40
0
40
1
40
1
40
1
40
1
41
1
10
35.6647943750634
20
-18.0551854902939
30
0
41
1
10
35.6569620826816
20
-18.0367905121165
30
0
41
1
10
35.6491297906257
20
-18.0183955331735
30
0
41
1
10
35.641297498889
20
-18.000000553481
30
0
0
SPLINE
5
1EB
100
AcDbEntity
8
1
62
256
6
ByLayer
370
18
48
1
60
0
100
AcDbSpline
70
4
71
3
72
8
73
4
40
0
40
0
40
0
40
0
40
1
40
1
40
1
40
1
41
1
10
39.4463908221715
20
-18.5391792108505
30
0
41
1
10
39.4214414029584
20
-18.5392279555204
30
0
41
1
10
39.3964906254497
20
-18.5392279555204
30
0
41
1
10
39.3715388175393
20
-18.5391792108505
30
0
0
SPLINE
5
1EC
100
AcDbEntity
8
1
62
256
6
ByLayer
370
18
48
1
60
0
100
AcDbSpline
70
4
71
3
72
8
73
4
40
0
40
0
40
0
40
0
40
1
40
1
40
1
40
1
41
1
10
35.7326564039983
20
-18.0551854902939
30
0
41
1
10
35.7248241116165
20
-18.0367905121165
30
0
41
1
10
35.7169918195606
20
-18.0183955331735
30
0
41
1
10
35.7091595278239
20
-18.000000553481
30
0
0
SPLINE
5
1ED
100
AcDbEntity
8
1
62
256
6
ByLayer
370
18
48
1
60
0
100
AcDbSpline
70
4
71
3
72
8
73
4
40
0
40
0
40
0
40
0
40
1
40
1
40
1
40
1
41
1
10
42.2673435960017
20
-18.0551854902939
30
0
41
1
10
42.2751758883835
20
-18.0367905121165
30
0
41
1
10
42.2830081804394
20
-18.0183955331735
30
0
41
1
10
42.2908404721761
20
-18.000000553481
30
0
0
SPLINE
5
1EE
100
AcDbEntity
8
1
62
256
6
ByLayer
370
18
48
1
60
0
100
AcDbSpline
70
4
71
3
72
8
73
4
40
0
40
0
40
0
40
0
40
1
40
1
40
1
40
1
41
1
10
33.3736210410528
20
-18.0551854902939
30
0
41
1
10
33.3602115986972
20
-18.0367906170212
30
0
41
1
10
33.3468021568997
20
-18.018395742983
30
0
41
1
10
33.3333927156486
20
-18.0000008681953
30
0
0
SPLINE
5
1EF
100
AcDbEntity
8
1
62
256
6
ByLayer
370
18
48
1
60
0
100
AcDbSpline
70
4
71
3
72
8
73
4
40
0
40
0
40
0
40
0
40
1
40
1
40
1
40
1
41
1
10
40.183609068151
20
-18.5391792108505
30
0
41
1
10
40.2610804040896
20
-18.3778483418919
30
0
41
1
10
40.3385517085426
20
-18.2165170423224
30
0
41
1
10
40.4160229945359
20
-18.0551854902939
30
0
0
SPLINE
5
1F0
100
AcDbEntity
8
1
62
256
6
ByLayer
370
18
48
1
60
0
100
AcDbSpline
70
4
71
3
72
8
73
4
40
0
40
0
40
0
40
0
40
1
40
1
40
1
40
1
41
1
10
40.7297988839128
20
-18.8513503669791
30
0
41
1
10
40.7535819300322
20
-18.8514059369886
30
0
41
1
10
40.7773584783034
20
-18.8514059369886
30
0
41
1
10
40.8011281226349
20
-18.8513503669791
30
0
0
SPLINE
5
1F1
100
AcDbEntity
8
1
62
256
6
ByLayer
370
18
48
1
60
0
100
AcDbSpline
70
4
71
3
72
8
73
4
40
0
40
0
40
0
40
0
40
1
40
1
40
1
40
1
41
1
10
45.2506615777944
20
-18.0551854902939
30
0
41
1
10
45.265543509441
20
-18.0367906262877
30
0
41
1
10
45.2804254404682
20
-18.0183957615161
30
0
41
1
10
45.2953073708891
20
-18.0000008959948
30
0
0
SPLINE
5
1F2
100
AcDbEntity
8
1
62
256
6
ByLayer
370
18
48
1
60
0
100
AcDbSpline
70
4
71
3
72
8
73
4
40
0
40
0
40
0
40
0
40
1
40
1
40
1
40
1
41
1
10
34.0866350171185
20
-18.0551854902939
30
0
41
1
10
34.0749094590243
20
-18.0367904798412
30
0
41
1
10
34.0631839014181
20
-18.0183954686231
30
0
41
1
10
34.0514583442897
20
-18.0000004566553
30
0
0
SPLINE
5
1F3
100
AcDbEntity
8
1
62
256
6
ByLayer
370
18
48
1
60
0
100
AcDbSpline
70
4
71
3
72
12
73
8
40
0
40
0
40
0
40
0
40
0.151633307455322
40
0.151633307455322
40
0.840153157976709
40
0.840153157976709
40
1
40
1
40
1
40
1
41
1
10
37.1988718773651
20
-18.8513503669791
30
0
41
1
10
37.1670037867738
20
-18.8111088604342
30
0
41
1
10
37.1351357010818
20
-18.7708673132587
30
0
41
1
10
36.9585645389193
20
-18.5479011810731
30
0
41
1
10
36.8138615416357
20
-18.365175939358
30
0
41
1
10
36.6355643347584
20
-18.1400287406094
30
0
41
1
10
36.6019700840561
20
-18.0976071244902
30
0
41
1
10
36.5683758355337
20
-18.0551854902939
30
0
0
SPLINE
5
1F4
100
AcDbEntity
8
1
62
256
6
ByLayer
370
18
48
1
60
0
100
AcDbSpline
70
4
71
3
72
8
73
4
40
0
40
0
40
0
40
0
40
1
40
1
40
1
40
1
41
1
10
36.6397050742558
20
-18.0551854902939
30
0
41
1
10
36.6340206248012
20
-18.0367904405917
30
0
41
1
10
36.6283361755831
20
-18.018395390124
30
0
41
1
10
36.6226517265966
20
-18.0000003389068
30
0
0
SPLINE
5
1F5
100
AcDbEntity
8
1
62
256
6
ByLayer
370
18
48
1
60
0
100
AcDbSpline
70
4
71
3
72
8
73
4
40
0
40
0
40
0
40
0
40
1
40
1
40
1
40
1
41
1
10
39.5242715394448
20
-18.0551854902939
30
0
41
1
10
39.5254265702445
20
-18.0367907182922
30
0
41
1
10
39.526581600996
20
-18.0183959455249
30
0
41
1
10
39.5277366317005
20
-18.0000011720081
30
0
0
SPLINE
5
1F6
100
AcDbEntity
8
1
62
256
6
ByLayer
370
18
48
1
60
0
100
AcDbSpline
70
4
71
3
72
8
73
4
40
0
40
0
40
0
40
0
40
1
40
1
40
1
40
1
41
1
10
34.3559145955706
20
-18.8513503669791
30
0
41
1
10
34.3705916418801
20
-18.8514059369886
30
0
41
1
10
34.3852863568469
20
-18.8514059369886
30
0
41
1
10
34.3999984894925
20
-18.8513503669791
30
0
0
SPLINE
5
1F7
100
AcDbEntity
8
1
62
256
6
ByLayer
370
18
48
1
60
0
100
AcDbSpline
70
4
71
3
72
8
73
4
40
0
40
0
40
0
40
0
40
1
40
1
40
1
40
1
41
1
10
33.3222800081082
20
-18.0551854902939
30
0
41
1
10
33.3088705657526
20
-18.0367906170212
30
0
41
1
10
33.2954611239551
20
-18.018395742983
30
0
41
1
10
33.2820516827039
20
-18.0000008681953
30
0
0
SPLINE
5
1F8
100
AcDbEntity
8
1
62
256
6
ByLayer
370
18
48
1
60
0
100
AcDbSpline
70
4
71
3
72
8
73
4
40
0
40
0
40
0
40
0
40
1
40
1
40
1
40
1
41
1
10
35.5417356279426
20
-18.5391792108505
30
0
41
1
10
35.3202022390316
20
-18.3778483418919
30
0
41
1
10
35.0986689401558
20
-18.2165170423224
30
0
41
1
10
34.8771356940663
20
-18.0551854902939
30
0
0
SPLINE
5
1F9
100
AcDbEntity
8
1
62
256
6
ByLayer
370
18
48
1
60
0
100
AcDbSpline
70
4
71
3
72
8
73
4
40
0
40
0
40
0
40
0
40
1
40
1
40
1
40
1
41
1
10
34.8771356940663
20
-18.0551854902939
30
0
41
1
10
34.8672790505956
20
-18.03679050094
30
0
41
1
10
34.857422407535
20
-18.0183955108205
30
0
41
1
10
34.8475657648762
20
-18.0000005199514
30
0
0
SPLINE
5
1FA
100
AcDbEntity
8
1
62
256
6
ByLayer
370
18
48
1
60
0
100
AcDbSpline
70
4
71
3
72
8
73
4
40
0
40
0
40
0
40
0
40
1
40
1
40
1
40
1
41
1
10
46.5192237481604
20
-18.0551854902939
30
0
41
1
10
46.5370408920726
20
-18.0367906469381
30
0
41
1
10
46.5548580352432
20
-18.0183958028167
30
0
41
1
10
46.5726751776879
20
-18.0000009579458
30
0
0
SPLINE
5
1FB
100
AcDbEntity
8
1
62
256
6
ByLayer
370
18
48
1
60
0
100
AcDbSpline
70
4
71
3
72
8
73
4
40
0
40
0
40
0
40
0
40
1
40
1
40
1
40
1
41
1
10
46.7534879593002
20
-18.0551854902939
30
0
41
1
10
46.7718829783803
20
-18.0367906863586
30
0
41
1
10
46.7902779966949
20
-18.0183958816577
30
0
41
1
10
46.80867301426
20
-18.0000010762073
30
0
0
SPLINE
5
1FC
100
AcDbEntity
8
1
62
256
6
ByLayer
370
18
48
1
60
0
100
AcDbSpline
70
4
71
3
72
8
73
4
40
0
40
0
40
0
40
0
40
1
40
1
40
1
40
1
41
1
10
32.6821351813889
20
-18.5391792108505
30
0
41
1
10
32.2816820645653
20
-18.3778483418919
30
0
41
1
10
31.8812291104931
20
-18.2165170423224
30
0
41
1
10
31.4807762518396
20
-18.0551854902939
30
0
0
SPLINE
5
1FD
100
AcDbEntity
8
1
62
256
6
ByLayer
370
18
48
1
60
0
100
AcDbSpline
70
4
71
3
72
8
73
4
40
0
40
0
40
0
40
0
40
1
40
1
40
1
40
1
41
1
10
34.2264387887477
20
-18.5391792108505
30
0
41
1
10
33.9250524229375
20
-18.3778483418919
30
0
41
1
10
33.6236661796161
20
-18.2165170423224
30
0
41
1
10
33.3222800081082
20
-18.0551854902939
30
0
0
SPLINE
5
1FE
100
AcDbEntity
8
1
62
256
6
ByLayer
370
18
48
1
60
0
100
AcDbSpline
70
4
71
3
72
8
73
4
40
0
40
0
40
0
40
0
40
1
40
1
40
1
40
1
41
1
10
31.8047938825507
20
-18.0551854902939
30
0
41
1
10
31.7876905315963
20
-18.0367905844469
30
0
41
1
10
31.7705871813537
20
-18.0183956778344
30
0
41
1
10
31.7534838318081
20
-18.0000007704723
30
0
0
SPLINE
5
1FF
100
AcDbEntity
8
1
62
256
6
ByLayer
370
18
48
1
60
0
100
AcDbSpline
70
4
71
3
72
8
73
4
40
0
40
0
40
0
40
0
40
1
40
1
40
1
40
1
41
1
10
34.3559145955706
20
-18.8513503669791
30
0
41
1
10
33.8056941609923
20
-18.5859633803057
30
0
41
1
10
33.2554742470164
20
-18.3205747445285
30
0
41
1
10
32.7052545282837
20
-18.0551854902939
30
0
0
SPLINE
5
200
100
AcDbEntity
8
1
62
256
6
ByLayer
370
18
48
1
60
0
100
AcDbSpline
70
4
71
3
72
8
73
4
40
0
40
0
40
0
40
0
40
1
40
1
40
1
40
1
41
1
10
43.1227514013886
20
-18.5391792108505
30
0
41
1
10
43.3862893542223
20
-18.3778483418919
30
0
41
1
10
43.6498271999494
20
-18.2165170423224
30
0
41
1
10
43.9133649828815
20
-18.0551854902939
30
0
0
SPLINE
5
201
100
AcDbEntity
8
1
62
256
6
ByLayer
370
18
48
1
60
0
100
AcDbSpline
70
4
71
3
72
8
73
4
40
0
40
0
40
0
40
0
40
1
40
1
40
1
40
1
41
1
10
43.7222201783076
20
-18.5391792108505
30
0
41
1
10
44.0236065441178
20
-18.3778483418919
30
0
41
1
10
44.3249927874392
20
-18.2165170423224
30
0
41
1
10
44.6263789589472
20
-18.0551854902939
30
0
0
SPLINE
5
202
100
AcDbEntity
8
1
62
256
6
ByLayer
370
18
48
1
60
0
100
AcDbSpline
70
4
71
3
72
8
73
4
40
0
40
0
40
0
40
0
40
1
40
1
40
1
40
1
41
1
10
31.4994279933769
20
-18.0551854902939
30
0
41
1
10
31.4816108494648
20
-18.0367906469381
30
0
41
1
10
31.4637937062942
20
-18.0183958028167
30
0
41
1
10
31.4459765638495
20
-18.0000009579458
30
0
0
SPLINE
5
203
100
AcDbEntity
8
1
62
256
6
ByLayer
370
18
48
1
60
0
100
AcDbSpline
70
4
71
3
72
8
73
4
40
0
40
0
40
0
40
0
40
1
40
1
40
1
40
1
41
1
10
32.7007869229263
20
-18.5391792108505
30
0
41
1
10
32.6945512657876
20
-18.5392279555204
30
0
41
1
10
32.6883339913734
20
-18.5392279555204
30
0
41
1
10
32.6821351813889
20
-18.5391792108505
30
0
0
SPLINE
5
204
100
AcDbEntity
8
1
62
256
6
ByLayer
370
18
48
1
60
0
100
AcDbSpline
70
2053
71
3
72
118
73
114
40
0
40
0
40
0
40
0
40
0.0312500000000008
40
0.0312500000000008
40
0.0468750000000012
40
0.0468750000000012
40
0.0625000000000015
40
0.0625000000000015
40
0.093750000000002
40
0.093750000000002
40
0.101562500000002
40
0.101562500000002
40
0.109375000000002
40
0.109375000000002
40
0.125000000000002
40
0.140625000000003
40
0.140625000000003
40
0.156250000000003
40
0.156250000000003
40
0.187500000000003
40
0.187500000000003
40
0.203125000000003
40
0.203125000000003
40
0.218750000000004
40
0.218750000000004
40
0.234375000000004
40
0.234375000000004
40
0.250000000000004
40
0.250000000000004
40
0.281250000000005
40
0.281250000000005
40
0.296875000000005
40
0.296875000000005
40
0.312500000000005
40
0.312500000000005
40
0.343750000000006
40
0.343750000000006
40
0.359375000000006
40
0.359375000000006
40
0.375000000000006
40
0.375000000000006
40
0.406250000000006
40
0.406250000000006
40
0.414062500000006
40
0.414062500000006
40
0.421875000000006
40
0.421875000000006
40
0.437500000000006
40
0.437500000000006
40
0.468750000000006
40
0.468750000000006
40
0.484375000000005
40
0.484375000000005
40
0.500000000000005
40
0.500000000000005
40
0.515625000000005
40
0.515625000000005
40
0.523437500000005
40
0.523437500000005
40
0.531250000000004
40
0.531250000000004
40
0.562500000000004
40
0.562500000000004
40
0.578125000000004
40
0.578125000000004
40
0.585937500000004
40
0.585937500000004
40
0.593750000000004
40
0.593750000000004
40
0.625000000000004
40
0.625000000000004
40
0.640625000000003
40
0.640625000000003
40
0.656250000000003
40
0.671875000000003
40
0.671875000000003
40
0.687500000000003
40
0.687500000000003
40
0.718750000000003
40
0.718750000000003
40
0.734375000000002
40
0.734375000000002
40
0.750000000000002
40
0.750000000000002
40
0.765625000000002
40
0.765625000000002
40
0.773437500000002
40
0.773437500000002
40
0.781250000000002
40
0.781250000000002
40
0.812500000000002
40
0.812500000000002
40
0.828125000000002
40
0.828125000000002
40
0.835937500000002
40
0.835937500000002
40
0.843750000000002
40
0.843750000000002
40
0.875000000000002
40
0.875000000000002
40
0.890625000000002
40
0.890625000000002
40
0.906250000000001
40
0.906250000000001
40
0.937500000000001
40
0.937500000000001
40
0.945312500000001
40
0.945312500000001
40
0.953125000000001
40
0.953125000000001
40
0.96875
40
0.96875
40
1
40
1
40
1
40
1
41
1
10
10.5082924296399
20
2.38476749006717
30
0
41
1
10
10.6784350958629
20
2.23238048487599
30
0
41
1
10
10.8313548549214
20
2.06575952619781
30
0
41
1
10
11.0344837274955
20
1.79397601960068
30
0
41
1
10
11.097786782076
20
1.69971353992349
30
0
41
1
10
11.2150794708909
20
1.50341120249962
30
0
41
1
10
11.268089100132
20
1.40299368158523
30
0
41
1
10
11.4102166073444
20
1.09554125263708
30
0
41
1
10
11.4827467666659
20
0.882154169670685
30
0
41
1
10
11.5440040931309
20
0.60423713161947
30
0
41
1
10
11.5547963646271
20
0.547922325401203
30
0
41
1
10
11.5731794153306
20
0.434939989836124
30
0
41
1
10
11.5807521525419
20
0.378449739282075
30
0
41
1
10
11.5987045910112
20
0.208981689059442
30
0
41
1
10
11.6099564384886
20
-0.016968520704296
30
0
41
1
10
11.5961939223906
20
-0.242904546401775
30
0
41
1
10
11.5697123025863
20
-0.468833362565874
30
0
41
1
10
11.5499239008694
20
-0.582353845832074
30
0
41
1
10
11.4727483019118
20
-0.914925135899324
30
0
41
1
10
11.397736201644
20
-1.1282015111228
30
0
41
1
10
11.2511910464258
20
-1.43597870185252
30
0
41
1
10
11.1963224079367
20
-1.53693258791941
30
0
41
1
10
11.0775462157435
20
-1.73061260148967
30
0
41
1
10
11.0134735709347
20
-1.82380331515623
30
0
41
1
10
10.8763359949938
20
-2.00320236112333
30
0
41
1
10
10.8032698926178
20
-2.08940974410544
30
0
41
1
10
10.6482314763254
20
-2.25493316236791
30
0
41
1
10
10.565822248116
20
-2.33459446837068
30
0
41
1
10
10.3095625669474
20
-2.55925528281568
30
0
41
1
10
10.1262715660019
20
-2.69094710159908
30
0
41
1
10
9.83355470830705
20
-2.86285402531871
30
0
41
1
10
9.73277247904434
20
-2.91595508708915
30
0
41
1
10
9.52608174191474
20
-3.01296653919357
30
0
41
1
10
9.42122327661716
20
-3.05641108697569
30
0
41
1
10
9.10228651677255
20
-3.17219910886308
30
0
41
1
10
8.8838834822985
20
-3.23012165504238
30
0
41
1
10
8.54759685407092
20
-3.28817424654716
30
0
41
1
10
8.43361770456329
20
-3.30268590345841
30
0
41
1
10
8.20688252083892
20
-3.3214438083977
30
0
41
1
10
8.09370947081629
20
-3.32579876545859
30
0
41
1
10
7.75476150839475
20
-3.32411774350669
30
0
41
1
10
7.52955283939644
20
-3.30346731307287
30
0
41
1
10
7.24902039237011
20
-3.25236118943849
30
0
41
1
10
7.19285735691901
20
-3.24083548988506
30
0
41
1
10
7.081702337016
20
-3.21543133610012
30
0
41
1
10
7.02660067816714
20
-3.20153781121627
30
0
41
1
10
6.86270332482027
20
-3.15632929683389
30
0
41
1
10
6.75531216594567
20
-3.12149427466801
30
0
41
1
10
6.43871510116298
20
-3.00297937096474
30
0
41
1
10
6.23502898231743
20
-2.90543550392943
30
0
41
1
10
5.9413298247475
20
-2.72921424185284
30
0
41
1
10
5.84675099375937
20
-2.66623371017141
30
0
41
1
10
5.66495508612076
20
-2.53245419885519
30
0
41
1
10
5.57759650745652
20
-2.46157056077175
30
0
41
1
10
5.41001582227179
20
-2.31172056367521
30
0
41
1
10
5.32979283597649
20
-2.2327552542632
30
0
41
1
10
5.21501749241006
20
-2.10798786973427
30
0
41
1
10
5.17768734966398
20
-2.06534347012254
30
0
41
1
10
5.10494221802293
20
-1.97787367018174
30
0
41
1
10
5.0694353123736
20
-1.93291671682275
30
0
41
1
10
4.89875237497782
20
-1.70503785108224
30
0
41
1
10
4.78282349265959
20
-1.51181525177583
30
0
41
1
10
4.64023541009456
20
-1.20530351607789
30
0
41
1
10
4.59796157692827
20
-1.10033337879952
30
0
41
1
10
4.54286599857997
20
-0.93843890253973
30
0
41
1
10
4.52584487966323
20
-0.883552102636315
30
0
41
1
10
4.49503596333045
20
-0.77354607571246
30
0
41
1
10
4.48121056503325
20
-0.71835048669314
30
0
41
1
10
4.41986850166867
20
-0.441422433449361
30
0
41
1
10
4.39546632793145
20
-0.216868378389421
30
0
41
1
10
4.39667030815431
20
0.124583776496934
30
0
41
1
10
4.40355046009142
20
0.239742464220171
30
0
41
1
10
4.42984009855766
20
0.465970138166028
30
0
41
1
10
4.46853906840448
20
0.689283230172123
30
0
41
1
10
4.53134759609213
20
0.906939534210238
30
0
41
1
10
4.60623573925585
20
1.12176632989906
30
0
41
1
10
4.64999178385372
20
1.22821459935645
30
0
41
1
10
4.79641484556061
20
1.53640606276125
30
0
41
1
10
4.91454683321277
20
1.72910623247003
30
0
41
1
10
5.12104836018932
20
2.00004017025893
30
0
41
1
10
5.19518377645898
20
2.08765493792777
30
0
41
1
10
5.35040953893241
20
2.25358424504958
30
0
41
1
10
5.43169787340196
20
2.33224208167374
30
0
41
1
10
5.60133668697776
20
2.48131331167838
30
0
41
1
10
5.68968811335162
20
2.55172554327041
30
0
41
1
10
5.82746184544393
20
2.65124165075019
30
0
41
1
10
5.87426247767553
20
2.68339474405744
30
0
41
1
10
5.96962665821349
20
2.7456541932103
30
0
41
1
10
6.01829602935504
20
2.77581787538799
30
0
41
1
10
6.26388084617153
20
2.92019763176933
30
0
41
1
10
6.46857731577097
20
3.01613198703382
30
0
41
1
10
6.78736946061611
20
3.13227154948012
30
0
41
1
10
6.89560577519561
20
3.16632297015343
30
0
41
1
10
7.06096789575341
20
3.21030801214687
30
0
41
1
10
7.11670810390274
20
3.22380719827658
30
0
41
1
10
7.22821116651761
20
3.24819343367688
30
0
41
1
10
7.2840583621817
20
3.25910849343615
30
0
41
1
10
7.56376380221545
20
3.30741689591912
30
0
41
1
10
7.78901850778567
20
3.32617319293314
30
0
41
1
10
8.12911504732932
20
3.3247948578879
30
0
41
1
10
8.2429388515813
20
3.31937684352053
30
0
41
1
10
8.47100023920501
20
3.29832587053099
30
0
41
1
10
8.58369189147231
20
3.28284328793791
30
0
41
1
10
8.91786795019783
20
3.22194544465199
30
0
41
1
10
9.13548728897098
20
3.16220894695436
30
0
41
1
10
9.40093021225928
20
3.0630462466647
30
0
41
1
10
9.453687009791
20
3.04197872748261
30
0
41
1
10
9.55852237354975
20
2.99731556517935
30
0
41
1
10
9.61070616433085
20
2.97366456370239
30
0
41
1
10
9.7648149571134
20
2.89950135966674
30
0
41
1
10
9.86465068349085
20
2.84566220363689
30
0
41
1
10
10.1555264129844
20
2.6710292607408
30
0
41
1
10
10.3381497634169
20
2.53715449525833
30
0
41
1
10
10.5082924296399
20
2.38476749006717
30
0
0
SPLINE
5
205
100
AcDbEntity
8
1
62
256
6
ByLayer
370
18
48
1
60
0
100
AcDbSpline
70
2053
71
3
72
129
73
125
40
0
40
0
40
0
40
0
40
0.0312499999999977
40
0.0312499999999977
40
0.0468749999999965
40
0.0468749999999965
40
0.0624999999999953
40
0.0624999999999953
40
0.0937499999999925
40
0.0937499999999925
40
0.109374999999991
40
0.109374999999991
40
0.117187499999991
40
0.117187499999991
40
0.12499999999999
40
0.12499999999999
40
0.156249999999989
40
0.156249999999989
40
0.171874999999988
40
0.171874999999988
40
0.187499999999987
40
0.203124999999987
40
0.203124999999987
40
0.210937499999986
40
0.210937499999986
40
0.218749999999985
40
0.218749999999985
40
0.249999999999981
40
0.249999999999981
40
0.26562499999998
40
0.26562499999998
40
0.27343749999998
40
0.27343749999998
40
0.281249999999979
40
0.281249999999979
40
0.312499999999975
40
0.312499999999975
40
0.320312499999974
40
0.320312499999974
40
0.328124999999974
40
0.328124999999974
40
0.343749999999974
40
0.359374999999974
40
0.359374999999974
40
0.367187499999975
40
0.367187499999975
40
0.374999999999975
40
0.374999999999975
40
0.406249999999977
40
0.406249999999977
40
0.414062499999977
40
0.414062499999977
40
0.421874999999977
40
0.421874999999977
40
0.437499999999978
40
0.437499999999978
40
0.468749999999978
40
0.468749999999978
40
0.476562499999978
40
0.476562499999978
40
0.484374999999979
40
0.484374999999979
40
0.499999999999979
40
0.515624999999979
40
0.515624999999979
40
0.523437499999979
40
0.523437499999979
40
0.531249999999979
40
0.531249999999979
40
0.562499999999979
40
0.562499999999979
40
0.578124999999979
40
0.578124999999979
40
0.593749999999979
40
0.593749999999979
40
0.624999999999979
40
0.624999999999979
40
0.640624999999979
40
0.640624999999979
40
0.648437499999979
40
0.648437499999979
40
0.65624999999998
40
0.65624999999998
40
0.68749999999998
40
0.68749999999998
40
0.703124999999979
40
0.703124999999979
40
0.71093749999998
40
0.71093749999998
40
0.71874999999998
40
0.71874999999998
40
0.74999999999998
40
0.74999999999998
40
0.75781249999998
40
0.75781249999998
40
0.765624999999981
40
0.765624999999981
40
0.781249999999981
40
0.796874999999981
40
0.796874999999981
40
0.804687499999981
40
0.804687499999981
40
0.812499999999982
40
0.812499999999982
40
0.843749999999985
40
0.843749999999985
40
0.851562499999986
40
0.851562499999986
40
0.859374999999987
40
0.859374999999987
40
0.874999999999989
40
0.89062499999999
40
0.89062499999999
40
0.906249999999992
40
0.906249999999992
40
0.937499999999995
40
0.937499999999995
40
0.953124999999996
40
0.953124999999996
40
0.968749999999997
40
0.968749999999997
40
0.984374999999999
40
0.984374999999999
40
1
40
1
40
1
40
1
41
1
10
39.409
20
6.95329
30
0
41
1
10
39.409
20
6.75450705276373
30
0
41
1
10
39.3900493129988
20
6.55755166828081
30
0
41
1
10
39.3332547128084
20
6.26499365674601
30
0
41
1
10
39.3095646453667
20
6.16795807387041
30
0
41
1
10
39.2522904470937
20
5.97493639865223
30
0
41
1
10
39.218481473616
20
5.87848220542099
30
0
41
1
10
39.1037216712771
20
5.59656315110891
30
0
41
1
10
39.0093914781328
20
5.41720381702487
30
0
41
1
10
38.8408228196969
20
5.16156124434616
30
0
41
1
10
38.7800925074065
20
5.07859445371798
30
0
41
1
10
38.6818549485959
20
4.95773123469723
30
0
41
1
10
38.6479728772949
20
4.91812575025389
30
0
41
1
10
38.5786143152997
20
4.84105457184518
30
0
41
1
10
38.5430475980914
20
4.8034757764446
30
0
41
1
10
38.3608295461459
20
4.62032763961139
30
0
41
1
10
38.2011517699879
20
4.48885834101728
30
0
41
1
10
37.9402713569315
20
4.31513360003598
30
0
41
1
10
37.849229936695
20
4.26095158062847
30
0
41
1
10
37.6637867423424
20
4.16303063838348
30
0
41
1
10
37.4743474698475
20
4.07500105319039
30
0
41
1
10
37.2770687899276
20
4.00645649172358
30
0
41
1
10
37.1261357799773
20
3.96246480551537
30
0
41
1
10
37.0753281652077
20
3.94903932451893
30
0
41
1
10
36.9727020191905
20
3.9247126759679
30
0
41
1
10
36.9207268208958
20
3.91378553261581
30
0
41
1
10
36.660634119938
20
3.86604086588028
30
0
41
1
10
36.4518154286128
20
3.84949687011897
30
0
41
1
10
36.1375030091703
20
3.85626387933635
30
0
41
1
10
36.0325500330975
20
3.86382399457864
30
0
41
1
10
35.8748380077563
20
3.88338616433924
30
0
41
1
10
35.8223921511949
20
3.89126599742846
30
0
41
1
10
35.7185778147273
20
3.90957847720733
30
0
41
1
10
35.6670839812009
20
3.92002591717304
30
0
41
1
10
35.4116488945136
20
3.97861090214317
30
0
41
1
10
35.2137466968672
20
4.04560057841945
30
0
41
1
10
34.9745506151868
20
4.15471720524883
30
0
41
1
10
34.9269881244761
20
4.17789487809171
30
0
41
1
10
34.8334903008495
20
4.22645189800088
30
0
41
1
10
34.7875717667505
20
4.25181108126634
30
0
41
1
10
34.6522552954132
20
4.33105378297938
30
0
41
1
10
34.4783242318563
20
4.44513336307747
30
0
41
1
10
34.3171284159393
20
4.57563410167674
30
0
41
1
10
34.2010555116239
20
4.67968712603985
30
0
41
1
10
34.1631699792794
20
4.71540287240717
30
0
41
1
10
34.0890358024659
20
4.78892306360999
30
0
41
1
10
34.0528890090806
20
4.82663690074307
30
0
41
1
10
33.8781867879476
20
5.01829892639643
30
0
41
1
10
33.756098182934
20
5.1828652688929
30
0
41
1
10
33.6247206756853
20
5.40175802399611
30
0
41
1
10
33.5995162065772
20
5.44620189306048
30
0
41
1
10
33.5512647951265
20
5.53642249430288
30
0
41
1
10
33.5281649947455
20
5.58231356840818
30
0
41
1
10
33.462549908395
20
5.72113713378658
30
0
41
1
10
33.4238511763825
20
5.81484809042237
30
0
41
1
10
33.3221795930897
20
6.09921815262567
30
0
41
1
10
33.2735116682857
20
6.29308281151359
30
0
41
1
10
33.2362010579935
20
6.54048181695978
30
0
41
1
10
33.2299208559475
20
6.59030541631228
30
0
41
1
10
33.2198398495254
20
6.68951784822139
30
0
41
1
10
33.2160197262427
20
6.73900621128979
30
0
41
1
10
33.2081291703096
20
6.88712232361212
30
0
41
1
10
33.2071113628333
20
7.0836805178061
30
0
41
1
10
33.2245445522171
20
7.27841127172096
30
0
41
1
10
33.244520849862
20
7.4237789489035
30
0
41
1
10
33.2523317872843
20
7.47212136985604
30
0
41
1
10
33.2702789270392
20
7.56857919518973
30
0
41
1
10
33.2804402983634
20
7.61678450680543
30
0
41
1
10
33.3366199208356
20
7.85514248017264
30
0
41
1
10
33.3987714064925
20
8.03865835224167
30
0
41
1
10
33.5169638436271
20
8.30380761674397
30
0
41
1
10
33.5605524850722
20
8.39049249652913
30
0
41
1
10
33.6563451801906
20
8.5604418799679
30
0
41
1
10
33.7087870299345
20
8.64398750723623
30
0
41
1
10
33.8764070264882
20
8.88480588859852
30
0
41
1
10
34.0023977363807
20
9.03373527382584
30
0
41
1
10
34.2134189454704
20
9.23981720930155
30
0
41
1
10
34.2874583957404
20
9.30560554322611
30
0
41
1
10
34.4044268527213
20
9.3997375969922
30
0
41
1
10
34.4445234655591
20
9.43044046809942
30
0
41
1
10
34.5261489238359
20
9.48982094388907
30
0
41
1
10
34.567609378908
20
9.51845924647841
30
0
41
1
10
34.7781436245759
20
9.65644217675919
30
0
41
1
10
34.9568108414797
20
9.75032899737656
30
0
41
1
10
35.2412493866608
20
9.86539736341058
30
0
41
1
10
35.3388211694317
20
9.89942812353024
30
0
41
1
10
35.4896664272053
20
9.94351351974592
30
0
41
1
10
35.5404665083387
20
9.95696928262444
30
0
41
1
10
35.642181493437
20
9.98117474681214
30
0
41
1
10
35.6932340924923
20
9.99196547282827
30
0
41
1
10
35.9494667014828
20
10.0394196666745
30
0
41
1
10
36.1575278093749
20
10.0567899842216
30
0
41
1
10
36.4216281539249
20
10.0516937660513
30
0
41
1
10
36.4748400428383
20
10.049303867242
30
0
41
1
10
36.5804966635159
20
10.0418324309313
30
0
41
1
10
36.6329660673683
20
10.0367625676072
30
0
41
1
10
36.7893264854108
20
10.0176520574894
30
0
41
1
10
36.9950180675048
20
9.98178977714576
30
0
41
1
10
37.1953091725585
20
9.92571561981111
30
0
41
1
10
37.3435099770578
20
9.87604616688009
30
0
41
1
10
37.3926496852585
20
9.85818059670967
30
0
41
1
10
37.4891467809796
20
9.820333702938
30
0
41
1
10
37.5366379823777
20
9.80031233960906
30
0
41
1
10
37.7704403442476
20
9.69487560113603
30
0
41
1
10
37.9459041346809
20
9.59364163688949
30
0
41
1
10
38.1516624361792
20
9.44671177355326
30
0
41
1
10
38.1921076512784
20
9.41630142877204
30
0
41
1
10
38.2708643035265
20
9.35404158629825
30
0
41
1
10
38.3092795652387
20
9.32212001122537
30
0
41
1
10
38.421728110979
20
9.22403344078157
30
0
41
1
10
38.5642158357038
20
9.08707205146072
30
0
41
1
10
38.6923988085618
20
8.93800559483586
30
0
41
1
10
38.8134913103564
20
8.78282796063033
30
0
41
1
10
38.8705366312621
20
8.7020270574028
30
0
41
1
10
39.0281339258171
20
8.45479442236902
30
0
41
1
10
39.1164280009877
20
8.28222578340547
30
0
41
1
10
39.224365670438
20
8.01162528804352
30
0
41
1
10
39.25623048695
20
7.91945480463704
30
0
41
1
10
39.3114681871561
20
7.73099608718383
30
0
41
1
10
39.3345244332673
20
7.63575799281131
30
0
41
1
10
39.3715197609875
20
7.44373201601269
30
0
41
1
10
39.3854812306287
20
7.34686713853887
30
0
41
1
10
39.4042209107629
20
7.15139916174368
30
0
41
1
10
39.409
20
7.05268147361815
30
0
41
1
10
39.409
20
6.95329
30
0
0
SPLINE
5
206
100
AcDbEntity
8
1
62
256
6
ByLayer
370
18
48
1
60
0
100
AcDbSpline
70
4
71
3
72
8
73
4
40
0
40
0
40
0
40
0
40
1
40
1
40
1
40
1
41
1
10
51.8
20
13.0311453160691
30
0
41
1
10
52.2015109575177
20
12.8999433445168
30
0
41
1
10
52.6016343591773
20
12.7691947854077
30
0
41
1
10
53
20
12.6390206108403
30
0
0
SPLINE
5
207
100
AcDbEntity
8
1
62
256
6
ByLayer
370
18
48
1
60
0
100
AcDbSpline
70
4
71
3
72
10
73
6
40
0
40
0
40
0
40
0
40
0.5
40
0.5
40
1
40
1
40
1
40
1
41
1
10
51.8
20
-18
30
0
41
1
10
52.0331529168518
20
-18
30
0
41
1
10
52.251656955563
20
-18
30
0
41
1
10
52.6537126860381
20
-18
30
0
41
1
10
52.8372666246158
20
-18
30
0
41
1
10
53
20
-18
30
0
0
SPLINE
5
208
100
AcDbEntity
8
1
62
256
6
ByLayer
370
18
48
1
60
0
100
AcDbSpline
70
4
71
3
72
8
73
4
40
0
40
0
40
0
40
0
40
1
40
1
40
1
40
1
41
1
10
31.4103078090762
20
4.31192822194575
30
0
41
1
10
31.3179093654422
20
4.22304451813136
30
0
41
1
10
31.217817084407
20
4.14371339486098
30
0
41
1
10
31.1100412839429
20
4.07399752557717
30
0
0
SPLINE
5
209
100
AcDbEntity
8
1
62
256
6
ByLayer
370
18
48
1
60
0
100
AcDbSpline
70
4
71
3
72
34
73
30
40
0
40
0
40
0
40
0
40
0.125000000000003
40
0.125000000000003
40
0.187500000000004
40
0.187500000000004
40
0.218750000000005
40
0.218750000000005
40
0.250000000000005
40
0.250000000000005
40
0.375000000000008
40
0.375000000000008
40
0.437500000000009
40
0.437500000000009
40
0.500000000000009
40
0.500000000000009
40
0.625000000000008
40
0.625000000000008
40
0.687500000000008
40
0.687500000000008
40
0.718750000000007
40
0.718750000000007
40
0.750000000000007
40
0.750000000000007
40
0.875000000000003
40
0.875000000000003
40
0.937500000000002
40
0.937500000000002
40
1
40
1
40
1
40
1
41
1
10
31.1100412839431
20
4.07399752557728
30
0
41
1
10
30.9406056913037
20
3.95222390038631
30
0
41
1
10
30.7625290943502
20
3.8438063518247
30
0
41
1
10
30.4823529923036
20
3.70157649013637
30
0
41
1
10
30.3867742278397
20
3.65758094353896
30
0
41
1
10
30.2400187440287
20
3.59689977933493
30
0
41
1
10
30.1906035586287
20
3.57759316143026
30
0
41
1
10
30.091519664811
20
3.54109626964652
30
0
41
1
10
30.0417483469157
20
3.52386270582946
30
0
41
1
10
29.7917591987688
20
3.44271276995857
30
0
41
1
10
29.5881640617709
20
3.39376269227535
30
0
41
1
10
29.2773888625389
20
3.34428328127524
30
0
41
1
10
29.1728960666308
20
3.33179816135055
30
0
41
1
10
28.9620625499308
20
3.31505598830867
30
0
41
1
10
28.855501516389
20
3.31083797866964
30
0
41
1
10
28.5387520646318
20
3.31084442735889
30
0
41
1
10
28.3296565159947
20
3.32743260419568
30
0
41
1
10
28.0190494120318
20
3.37659922797602
30
0
41
1
10
27.9160220394165
20
3.39705321202479
30
0
41
1
10
27.7622555187053
20
3.4339183205258
30
0
41
1
10
27.711129247318
20
3.44723850284487
30
0
41
1
10
27.6091390278167
20
3.47597111623969
30
0
41
1
10
27.5582847258206
20
3.49138724309677
30
0
41
1
10
27.3069485693919
20
3.57299119241495
30
0
41
1
10
27.1133718452263
20
3.65316199555275
30
0
41
1
10
26.8338435463886
20
3.79479544723097
30
0
41
1
10
26.7424822484213
20
3.84558626798855
30
0
41
1
10
26.5634247313164
20
3.954365377269
30
0
41
1
10
26.4755201578707
20
4.01250438364687
30
0
41
1
10
26.3899587160566
20
4.07399752557745
30
0
0
SPLINE
5
20A
100
AcDbEntity
8
1
62
256
6
ByLayer
370
18
48
1
60
0
100
AcDbSpline
70
4
71
3
72
50
73
46
40
0
40
0
40
0
40
0
40
0.072087657316511
40
0.072087657316511
40
0.108131485974767
40
0.108131485974767
40
0.144175314633022
40
0.144175314633022
40
0.216262971949533
40
0.216262971949533
40
0.252306800607788
40
0.252306800607788
40
0.288350629266044
40
0.288350629266044
40
0.360438286582554
40
0.360438286582554
40
0.432525943899064
40
0.432525943899064
40
0.504613601215574
40
0.504613601215574
40
0.576701258532084
40
0.576701258532084
40
0.594723172861212
40
0.594723172861212
40
0.61274508719034
40
0.61274508719034
40
0.648788915848596
40
0.648788915848596
40
0.720876573165108
40
0.720876573165108
40
0.738898487494235
40
0.738898487494235
40
0.756920401823363
40
0.756920401823363
40
0.792964230481618
40
0.792964230481618
40
0.865051887798128
40
0.865051887798128
40
0.901095716456384
40
0.901095716456384
40
0.919117630785511
40
0.919117630785511
40
0.937139545114639
40
0.937139545114639
40
1
40
1
40
1
40
1
41
1
10
26.08969219092
20
4.31192822194944
30
0
41
1
10
25.9390978924724
20
4.44322124940334
30
0
41
1
10
25.7992136829034
20
4.58453921112249
30
0
41
1
10
25.6055038064518
20
4.81136825106651
30
0
41
1
10
25.5436313566352
20
4.88946395065744
30
0
41
1
10
25.4254365231233
20
5.05073151314849
30
0
41
1
10
25.3696972699979
20
5.13312832231662
30
0
41
1
10
25.2131085302941
20
5.38421515356083
30
0
41
1
10
25.1224542895696
20
5.55728608352237
30
0
41
1
10
25.0069044020978
20
5.82511163933279
30
0
41
1
10
24.9718075866624
20
5.91576322047493
30
0
41
1
10
24.9086048134564
20
6.099848519066
30
0
41
1
10
24.8804244830079
20
6.19365290361367
30
0
41
1
10
24.8078463164563
20
6.4747907292919
30
0
41
1
10
24.7748882595424
20
6.66280478096118
30
0
41
1
10
24.7389966205974
20
7.03982794202022
30
0
41
1
10
24.7360711273097
20
7.22899393440457
30
0
41
1
10
24.7614716045559
20
7.60770942755832
30
0
41
1
10
24.7894564964777
20
7.79258100121027
30
0
41
1
10
24.8746198545768
20
8.1538911501616
30
0
41
1
10
24.9318015088842
20
8.33032804424033
30
0
41
1
10
25.0219663727264
20
8.54565588419595
30
0
41
1
10
25.0409823198553
20
8.5885492187565
30
0
41
1
10
25.0806729508611
20
8.67328164889841
30
0
41
1
10
25.1013396941765
20
8.71511659557609
30
0
41
1
10
25.1657641509753
20
8.83906424866348
30
0
41
1
10
25.2119424761216
20
8.91962191983586
30
0
41
1
10
25.3599805863221
20
9.15528264845329
30
0
41
1
10
25.4712878134998
20
9.30440488779465
30
0
41
1
10
25.6264326221719
20
9.48103064501154
30
0
41
1
10
25.6582665609448
20
9.51586442955829
30
0
41
1
10
25.7235687936996
20
9.58454410671516
30
0
41
1
10
25.7570945300273
20
9.61844185970364
30
0
41
1
10
25.8593522325444
20
9.71786595026896
30
0
41
1
10
25.9299548971834
20
9.78134695075957
30
0
41
1
10
26.1488993772832
20
9.96369400884441
30
0
41
1
10
26.3043366638632
20
10.0745104311971
30
0
41
1
10
26.5518488452648
20
10.2249598260072
30
0
41
1
10
26.6367558083622
20
10.2724687743459
30
0
41
1
10
26.7678366033727
20
10.3397051107308
30
0
41
1
10
26.8122305424566
20
10.3614795283488
30
0
41
1
10
26.9015555242622
20
10.4033319792266
30
0
41
1
10
26.9465521565842
20
10.4234471133743
30
0
41
1
10
27.1499790403696
20
10.5101482974524
30
0
41
1
10
27.31207532802
20
10.5678938138216
30
0
41
1
10
27.4781521149743
20
10.6162123667316
30
0
0
SPLINE
5
20B
100
AcDbEntity
8
1
62
256
6
ByLayer
370
18
48
1
60
0
100
AcDbSpline
70
4
71
3
72
50
73
46
40
0
40
0
40
0
40
0
40
0.0045506412008777
40
0.0045506412008777
40
0.0756541668293849
40
0.0756541668293849
40
0.111205929643639
40
0.111205929643639
40
0.146757692457893
40
0.146757692457893
40
0.217861218086402
40
0.217861218086402
40
0.253412980900657
40
0.253412980900657
40
0.288964743714911
40
0.288964743714911
40
0.360068269343422
40
0.360068269343422
40
0.395620032157677
40
0.395620032157677
40
0.431171794971933
40
0.431171794971933
40
0.502275320600442
40
0.502275320600442
40
0.537827083414696
40
0.537827083414696
40
0.573378846228951
40
0.573378846228951
40
0.644482371857459
40
0.644482371857459
40
0.680034134671713
40
0.680034134671713
40
0.69781001607884
40
0.69781001607884
40
0.715585897485967
40
0.715585897485967
40
0.786689423114475
40
0.786689423114475
40
0.822241185928729
40
0.822241185928729
40
0.857792948742983
40
0.857792948742983
40
0.928896474371491
40
0.928896474371491
40
1
40
1
40
1
40
1
41
1
10
29.9057904507664
20
10.6482754177842
30
0
41
1
10
29.9181231114779
20
10.6450475434894
30
0
41
1
10
29.9304349102931
20
10.6417684485939
30
0
41
1
10
30.1347719932581
20
10.5864035207946
30
0
41
1
10
30.3217595048198
20
10.5219425645175
30
0
41
1
10
30.5945795654824
20
10.4060374893817
30
0
41
1
10
30.6845129556714
20
10.3640203245451
30
0
41
1
10
30.8590023110086
20
10.2747653002317
30
0
41
1
10
30.9438550376077
20
10.2274257441959
30
0
41
1
10
31.1914265257956
20
10.0773656576569
30
0
41
1
10
31.3471985265205
20
9.9666518711108
30
0
41
1
10
31.5669499270944
20
9.78406577315883
30
0
41
1
10
31.638020438107
20
9.72029460067796
30
0
41
1
10
31.7747359032919
20
9.58761491898395
30
0
41
1
10
31.8398562848811
20
9.51923894247363
30
0
41
1
10
32.025787508218
20
9.30806405101572
30
0
41
1
10
32.1372222522951
20
9.15925099648598
30
0
41
1
10
32.2856914523125
20
8.92362155937934
30
0
41
1
10
32.3320538402804
20
8.84300197471686
30
0
41
1
10
32.4183705907349
20
8.67744417817042
30
0
41
1
10
32.4583502323524
20
8.5923526365959
30
0
41
1
10
32.5665676261316
20
8.33482260240785
30
0
41
1
10
32.6239308415143
20
8.15877790105134
30
0
41
1
10
32.6881785015791
20
7.88807051243364
30
0
41
1
10
32.705945752988
20
7.79672443859678
30
0
41
1
10
32.7340544616777
20
7.61175011334132
30
0
41
1
10
32.7444072071195
20
7.51795562214963
30
0
41
1
10
32.7638589677639
20
7.23407863438916
30
0
41
1
10
32.7612664193171
20
7.04453774075648
30
0
41
1
10
32.7344369064179
20
6.75981345054589
30
0
41
1
10
32.7216537056852
20
6.66483731850653
30
0
41
1
10
32.6966178755638
20
6.52228115415417
30
0
41
1
10
32.6872819005235
20
6.47470598246213
30
0
41
1
10
32.6667962891027
20
6.3802508750077
30
0
41
1
10
32.6556333889174
20
6.33328403912353
30
0
41
1
10
32.5952873012201
20
6.09974083086351
30
0
41
1
10
32.5325872955318
20
5.91701146620807
30
0
41
1
10
32.4172568785904
20
5.64915167176838
30
0
41
1
10
32.375251383325
20
5.56090918647166
30
0
41
1
10
32.2839890189794
20
5.38658838534579
30
0
41
1
10
32.234494125742
20
5.30015242901243
30
0
41
1
10
32.0770038444169
20
5.04775461330823
30
0
41
1
10
31.9600388925629
20
4.8882950891375
30
0
41
1
10
31.7028565418571
20
4.58678737712526
30
0
41
1
10
31.5626404954625
20
4.44473683277641
30
0
41
1
10
31.410307809076
20
4.31192822194598
30
0
0
SPLINE
5
20C
100
AcDbEntity
8
1
62
256
6
ByLayer
370
18
48
1
60
0
100
AcDbSpline
70
4
71
3
72
10
73
6
40
0
40
0
40
0
40
0
40
0.5
40
0.5
40
1
40
1
40
1
40
1
41
1
10
26.3899587160566
20
4.07399752557745
30
0
41
1
10
26.3365056957342
20
4.10857415374056
30
0
41
1
10
26.2844733788826
20
4.1458559356214
30
0
41
1
10
26.1838699008465
20
4.22556807562813
30
0
41
1
10
26.1357187844141
20
4.2676524317647
30
0
41
1
10
26.08969219092
20
4.31192822194944
30
0
0
SPLINE
5
20D
100
AcDbEntity
8
1
62
256
6
ByLayer
370
18
48
1
60
0
100
AcDbSpline
70
4
71
3
72
18
73
14
40
0
40
0
40
0
40
0
40
0.250000000000005
40
0.250000000000005
40
0.500000000000011
40
0.500000000000011
40
0.625000000000008
40
0.625000000000008
40
0.750000000000005
40
0.750000000000005
40
0.875000000000003
40
0.875000000000003
40
1
40
1
40
1
40
1
41
1
10
6.66339745962156
20
-19.0148446044599
30
0
41
1
10
6.67273182336305
20
-19.0258524408563
30
0
41
1
10
6.68407519584443
20
-19.0367169792443
30
0
41
1
10
6.71155949137986
20
-19.0574602556584
30
0
41
1
10
6.72762078686955
20
-19.0673664621696
30
0
41
1
10
6.75724781919919
20
-19.0812262991449
30
0
41
1
10
6.76805722599428
20
-19.085677945013
30
0
41
1
10
6.79239758071739
20
-19.0941147953036
30
0
41
1
10
6.80572337573042
20
-19.0980229736812
30
0
41
1
10
6.83516510173445
20
-19.1048181450169
30
0
41
1
10
6.85132433302664
20
-19.1076949861959
30
0
41
1
10
6.88576248771605
20
-19.1117057751264
30
0
41
1
10
6.90455991418168
20
-19.1128522109089
30
0
41
1
10
6.9232050807569
20
-19.1128522109089
30
0
0
SPLINE
5
20E
100
AcDbEntity
8
1
62
256
6
ByLayer
370
18
48
1
60
0
100
AcDbSpline
70
4
71
3
72
16
73
12
40
0
40
0
40
0
40
0
40
0.125000000000002
40
0.125000000000002
40
0.250000000000004
40
0.250000000000004
40
0.500000000000003
40
0.500000000000003
40
0.750000000000001
40
0.750000000000001
40
1
40
1
40
1
40
1
41
1
10
6.9232050807569
20
-5.869320184353
30
0
41
1
10
6.90440582785348
20
-5.869320184353
30
0
41
1
10
6.88612359158401
20
-5.87294427612974
30
0
41
1
10
6.85135983149505
20
-5.88605388130955
30
0
41
1
10
6.83553109577304
20
-5.89519964295732
30
0
41
1
10
6.79131207245837
20
-5.92807829985927
30
0
41
1
10
6.76782026226485
20
-5.95569790062279
30
0
41
1
10
6.72771448686728
20
-6.01528157085994
30
0
41
1
10
6.71159928084086
20
-6.04676928825288
30
0
41
1
10
6.6841066073037
20
-6.11175544342746
30
0
41
1
10
6.6727875096235
20
-6.14538548785706
30
0
41
1
10
6.66339745962154
20
-6.17945982515798
30
0
0
SPLINE
5
20F
100
AcDbEntity
8
1
62
256
6
ByLayer
370
18
48
1
60
0
100
AcDbSpline
70
4
71
3
72
20
73
16
40
0
40
0
40
0
40
0
40
0.0625000000000011
40
0.0625000000000011
40
0.125000000000002
40
0.125000000000002
40
0.250000000000002
40
0.250000000000002
40
0.375000000000002
40
0.375000000000002
40
0.500000000000001
40
0.500000000000001
40
0.750000000000001
40
0.750000000000001
40
1
40
1
40
1
40
1
41
1
10
9.0767949192431
20
-19.1128522109089
30
0
41
1
10
9.08606335453527
20
-19.112852210909
30
0
41
1
10
9.09546908761465
20
-19.1125747096437
30
0
41
1
10
9.11363159107751
20
-19.1115162487481
30
0
41
1
10
9.12249126302584
20
-19.1107385512547
30
0
41
1
10
9.14847076247716
20
-19.1077304659048
30
0
41
1
10
9.1644644486629
20
-19.1048858973236
30
0
41
1
10
9.19372420798533
20
-19.0981676682137
30
0
41
1
10
9.20707097213506
20
-19.0942733183036
30
0
41
1
10
9.23119079936438
20
-19.085962949144
30
0
41
1
10
9.24212837518587
20
-19.0814983206178
30
0
41
1
10
9.27225960797068
20
-19.0674606986257
30
0
41
1
10
9.28845519612329
20
-19.0574595985211
30
0
41
1
10
9.31609545093178
20
-19.0365776885407
30
0
41
1
10
9.32734163908708
20
-19.0257658079958
30
0
41
1
10
9.33660254037844
20
-19.0148446044599
30
0
0
SPLINE
5
210
100
AcDbEntity
8
1
62
256
6
ByLayer
370
18
48
1
60
0
100
AcDbSpline
70
4
71
3
72
18
73
14
40
0
40
0
40
0
40
0
40
0.249999999999994
40
0.249999999999994
40
0.499999999999988
40
0.499999999999988
40
0.624999999999991
40
0.624999999999991
40
0.749999999999994
40
0.749999999999994
40
0.874999999999997
40
0.874999999999997
40
1
40
1
40
1
40
1
41
1
10
9.33660254037844
20
-6.17945982515801
30
0
41
1
10
9.32726817663695
20
-6.14558756052136
30
0
41
1
10
9.3159248041556
20
-6.11184172102108
30
0
41
1
10
9.28844050862014
20
-6.04685134385321
30
0
41
1
10
9.27237921313045
20
-6.01552389236093
30
0
41
1
10
9.24275218080084
20
-5.97135496292535
30
0
41
1
10
9.23194277400574
20
-5.95710817530872
30
0
41
1
10
9.20760241928261
20
-5.93001017004636
30
0
41
1
10
9.19427662426958
20
-5.91740566762448
30
0
41
1
10
9.16483489826555
20
-5.89543000843213
30
0
41
1
10
9.14867566697336
20
-5.88609190224432
30
0
41
1
10
9.11423751228395
20
-5.87305609816246
30
0
41
1
10
9.09544008581832
20
-5.869320184353
30
0
41
1
10
9.07679491924313
20
-5.869320184353
30
0
0
SPLINE
5
211
100
AcDbEntity
8
1
62
256
6
ByLayer
370
18
48
1
60
0
100
AcDbSpline
70
4
71
3
72
18
73
14
40
0
40
0
40
0
40
0
40
0.250000000000002
40
0.250000000000002
40
0.500000000000005
40
0.500000000000005
40
0.625000000000004
40
0.625000000000004
40
0.750000000000002
40
0.750000000000002
40
0.875000000000001
40
0.875000000000001
40
1
40
1
40
1
40
1
41
1
10
6.66339745962156
20
6.17945982515798
30
0
41
1
10
6.67273182336305
20
6.14558756052136
30
0
41
1
10
6.68407519584443
20
6.11184172102108
30
0
41
1
10
6.71155949137986
20
6.04685134385321
30
0
41
1
10
6.72762078686955
20
6.01552389236093
30
0
41
1
10
6.75724781919919
20
5.97135496292535
30
0
41
1
10
6.76805722599428
20
5.95710817530872
30
0
41
1
10
6.79239758071739
20
5.93001017004636
30
0
41
1
10
6.80572337573042
20
5.91740566762448
30
0
41
1
10
6.83516510173445
20
5.89543000843213
30
0
41
1
10
6.85132433302664
20
5.88609190224435
30
0
41
1
10
6.88576248771605
20
5.87305609816249
30
0
41
1
10
6.90455991418168
20
5.86932018435303
30
0
41
1
10
6.9232050807569
20
5.86932018435303
30
0
0
SPLINE
5
212
100
AcDbEntity
8
1
62
256
6
ByLayer
370
18
48
1
60
0
100
AcDbSpline
70
4
71
3
72
16
73
12
40
0
40
0
40
0
40
0
40
0.125000000000003
40
0.125000000000003
40
0.250000000000006
40
0.250000000000006
40
0.500000000000004
40
0.500000000000004
40
0.750000000000002
40
0.750000000000002
40
1
40
1
40
1
40
1
41
1
10
6.9232050807569
20
19.1128522109089
30
0
41
1
10
6.90440582785348
20
19.1128522109089
30
0
41
1
10
6.88612359158401
20
19.1117401516599
30
0
41
1
10
6.85135983149505
20
19.1077067122514
30
0
41
1
10
6.83553109577304
20
19.1048892126364
30
0
41
1
10
6.79131207245837
20
19.0947231745573
30
0
41
1
10
6.76782026226485
20
19.0861383340545
30
0
41
1
10
6.72771448686728
20
19.0674434996782
30
0
41
1
10
6.71159928084086
20
19.0574862873059
30
0
41
1
10
6.6841066073037
20
19.0367446748636
30
0
41
1
10
6.6727875096235
20
19.0259181105969
30
0
41
1
10
6.66339745962154
20
19.0148446044599
30
0
0
SPLINE
5
213
100
AcDbEntity
8
1
62
256
6
ByLayer
370
18
48
1
60
0
100
AcDbSpline
70
4
71
3
72
20
73
16
40
0
40
0
40
0
40
0
40
0.0625000000000011
40
0.0625000000000011
40
0.125000000000002
40
0.125000000000002
40
0.250000000000002
40
0.250000000000002
40
0.375000000000002
40
0.375000000000002
40
0.500000000000001
40
0.500000000000001
40
0.750000000000001
40
0.750000000000001
40
1
40
1
40
1
40
1
41
1
10
9.07679491924313
20
5.869320184353
30
0
41
1
10
9.08606335453527
20
5.869320184353
30
0
41
1
10
9.09546908761465
20
5.87022403984938
30
0
41
1
10
9.11363159107751
20
5.87366912445503
30
0
41
1
10
9.12249126302584
20
5.87619968301422
30
0
41
1
10
9.14847076247716
20
5.88597672532919
30
0
41
1
10
9.1644644486629
20
5.89521019347018
30
0
41
1
10
9.19372420798535
20
5.91693840526904
30
0
41
1
10
9.20707097213506
20
5.92949921438566
30
0
41
1
10
9.23119079936438
20
5.95619448904941
30
0
41
1
10
9.24212837518587
20
5.97048617918659
30
0
41
1
10
9.27225960797068
20
6.01522724601986
30
0
41
1
10
9.28845519612329
20
6.04685469814535
30
0
41
1
10
9.31609545093178
20
6.11227682601978
30
0
41
1
10
9.32734163908705
20
6.14585413889992
30
0
41
1
10
9.33660254037844
20
6.17945982515798
30
0
0
SPLINE
5
214
100
AcDbEntity
8
1
62
256
6
ByLayer
370
18
48
1
60
0
100
AcDbSpline
70
4
71
3
72
18
73
14
40
0
40
0
40
0
40
0
40
0.249999999999994
40
0.249999999999994
40
0.499999999999988
40
0.499999999999988
40
0.624999999999991
40
0.624999999999991
40
0.749999999999994
40
0.749999999999994
40
0.874999999999997
40
0.874999999999997
40
1
40
1
40
1
40
1
41
1
10
9.33660254037844
20
19.0148446044599
30
0
41
1
10
9.32726817663695
20
19.0258524408563
30
0
41
1
10
9.31592480415557
20
19.0367169792442
30
0
41
1
10
9.28844050862014
20
19.0574602556584
30
0
41
1
10
9.27237921313045
20
19.0673664621696
30
0
41
1
10
9.24275218080084
20
19.0812262991449
30
0
41
1
10
9.23194277400572
20
19.085677945013
30
0
41
1
10
9.20760241928261
20
19.0941147953036
30
0
41
1
10
9.19427662426958
20
19.0980229736812
30
0
41
1
10
9.16483489826555
20
19.1048181450169
30
0
41
1
10
9.14867566697336
20
19.1076949861959
30
0
41
1
10
9.11423751228395
20
19.1117057751264
30
0
41
1
10
9.09544008581832
20
19.1128522109089
30
0
41
1
10
9.07679491924313
20
19.1128522109089
30
0
0
SPLINE
5
215
100
AcDbEntity
8
1
62
256
6
ByLayer
370
18
48
1
60
0
100
AcDbSpline
70
4
71
3
72
18
73
14
40
0
40
0
40
0
40
0
40
0.25
40
0.25
40
0.375
40
0.375
40
0.4375
40
0.4375
40
0.5
40
0.5
40
0.75
40
0.75
40
1
40
1
40
1
40
1
41
1
10
39.7
20
18.8720679044477
30
0
41
1
10
40.2944720638241
20
18.9289117076213
30
0
41
1
10
40.8791022558124
20
19.0075905637938
30
0
41
1
10
41.7424650467501
20
19.1534629023016
30
0
41
1
10
42.0279846729246
20
19.2067145976315
30
0
41
1
10
42.4529710063888
20
19.2928003089684
30
0
41
1
10
42.5940839929922
20
19.3225294639191
30
0
41
1
10
42.8752264351577
20
19.3839242021235
30
0
41
1
10
43.0153761163413
20
19.4156179482987
30
0
41
1
10
43.7121489801288
20
19.5782800656384
30
0
41
1
10
44.2489165070528
20
19.7198849193219
30
0
41
1
10
45.2856388288566
20
20.0144132801383
30
0
41
1
10
45.7855810043767
20
20.1673739564142
30
0
41
1
10
46.2680426258674
20
20.3202773176056
30
0
0
SPLINE
5
216
100
AcDbEntity
8
1
62
256
6
ByLayer
370
18
48
1
60
0
100
AcDbSpline
70
4
71
3
72
18
73
14
40
0
40
0
40
0
40
0
40
0.124999999999998
40
0.124999999999998
40
0.249999999999996
40
0.249999999999996
40
0.374999999999994
40
0.374999999999994
40
0.499999999999992
40
0.499999999999992
40
0.749999999999996
40
0.749999999999996
40
1
40
1
40
1
40
1
41
1
10
54.1124829037427
20
18.0270543038517
30
0
41
1
10
54.1121244010823
20
18.016529229258
30
0
41
1
10
54.1108763454192
20
18.006112748243
30
0
41
1
10
54.1066032568509
20
17.9854968981914
30
0
41
1
10
54.1035480694965
20
17.9752892759179
30
0
41
1
10
54.0959589255022
20
17.9559929535452
30
0
41
1
10
54.091405830268
20
17.946780746248
30
0
41
1
10
54.0808330731554
20
17.9292042047939
30
0
41
1
10
54.0747626049419
20
17.9208076296683
30
0
41
1
10
54.0551769504974
20
17.897887819595
30
0
41
1
10
54.0399308999973
20
17.8850857183098
30
0
41
1
10
54.0066366091683
20
17.8649626004151
30
0
41
1
10
53.9890691478913
20
17.8578470365209
30
0
41
1
10
53.9707029212999
20
17.8534457499665
30
0
0
SPLINE
5
217
100
AcDbEntity
8
1
62
256
6
ByLayer
370
18
48
1
60
0
100
AcDbSpline
70
4
71
3
72
22
73
18
40
0
40
0
40
0
40
0
40
0.125
40
0.125
40
0.25
40
0.25
40
0.375
40
0.375
40
0.5
40
0.5
40
0.625
40
0.625
40
0.75
40
0.75
40
0.875
40
0.875
40
1
40
1
40
1
40
1
41
1
10
53.9834575723739
20
18.2097148549791
30
0
41
1
10
53.9589471105595
20
18.2174791738415
30
0
41
1
10
53.9348226947529
20
18.2276041102254
30
0
41
1
10
53.8885870162817
20
18.2523593809347
30
0
41
1
10
53.8663980637033
20
18.2669742684351
30
0
41
1
10
53.823944588121
20
18.3013848426162
30
0
41
1
10
53.8038792998464
20
18.3211139659477
30
0
41
1
10
53.7678642886438
20
18.3646049661082
30
0
41
1
10
53.7515773709963
20
18.3888803343876
30
0
41
1
10
53.7248173442788
20
18.43926661489
30
0
41
1
10
53.7139856315596
20
18.4658800363644
30
0
41
1
10
53.6979705656101
20
18.5204420488771
30
0
41
1
10
53.692944825735
20
18.5476291036295
30
0
41
1
10
53.6881339968206
20
18.6019769157188
30
0
41
1
10
53.6884293993707
20
18.6290340104246
30
0
41
1
10
53.693761096834
20
18.6810505007446
30
0
41
1
10
53.6987678384773
20
18.7063246879665
30
0
41
1
10
53.7060110185013
20
18.73097634948
30
0
0
SPLINE
5
218
100
AcDbEntity
8
1
62
256
6
ByLayer
370
18
48
1
60
0
100
AcDbSpline
70
4
71
3
72
18
73
14
40
0
40
0
40
0
40
0
40
0.125000000000001
40
0.125000000000001
40
0.250000000000003
40
0.250000000000003
40
0.375000000000004
40
0.375000000000004
40
0.500000000000005
40
0.500000000000005
40
0.750000000000003
40
0.750000000000003
40
1
40
1
40
1
40
1
41
1
10
53.6265492259125
20
18.9400175812778
30
0
41
1
10
53.6354524328357
20
18.9344542401378
30
0
41
1
10
53.6438221785913
20
18.9281780360664
30
0
41
1
10
53.6594940927816
20
18.9141993175254
30
0
41
1
10
53.6667818118145
20
18.9064733640143
30
0
41
1
10
53.6796621433881
20
18.8903020986729
30
0
41
1
10
53.6853513983819
20
18.8817782244516
30
0
41
1
10
53.6952719219929
20
18.8638844890438
30
0
41
1
10
53.6995036580251
20
18.8544590453613
30
0
41
1
10
53.7095607440179
20
18.8261269184904
30
0
41
1
10
53.7130452486305
20
18.8065730756365
30
0
41
1
10
53.7138944463444
20
18.7677822952278
30
0
41
1
10
53.7113219517965
20
18.7490517430888
30
0
41
1
10
53.7060110185013
20
18.73097634948
30
0
0
SPLINE
5
219
100
AcDbEntity
8
1
62
256
6
ByLayer
370
18
48
1
60
0
100
AcDbSpline
70
4
71
3
72
18
73
14
40
0
40
0
40
0
40
0
40
0.25
40
0.25
40
0.500000000000001
40
0.500000000000001
40
0.625000000000001
40
0.625000000000001
40
0.75
40
0.75
40
0.875
40
0.875
40
1
40
1
40
1
40
1
41
1
10
53.4038304541985
20
18.9197997228555
30
0
41
1
10
53.4177131680149
20
18.9324647925104
30
0
41
1
10
53.4334945168472
20
18.9430462044222
30
0
41
1
10
53.4687840887324
20
18.9592952660633
30
0
41
1
10
53.4877939490378
20
18.9647161627622
30
0
41
1
10
53.5178713393614
20
18.9680976468838
30
0
41
1
10
53.5279730499155
20
18.968408328395
30
0
41
1
10
53.5483257349238
20
18.9673468725971
30
0
41
1
10
53.5586788251898
20
18.965947584291
30
0
41
1
10
53.5789323060924
20
18.9614280613434
30
0
41
1
10
53.5888345760642
20
18.9583303576419
30
0
41
1
10
53.608178940242
20
18.9504239377183
30
0
41
1
10
53.6176774411655
20
18.9455612876629
30
0
41
1
10
53.6265492259125
20
18.9400175812778
30
0
0
SPLINE
5
21A
100
AcDbEntity
8
1
62
256
6
ByLayer
370
18
48
1
60
0
100
AcDbSpline
70
4
71
3
72
22
73
18
40
0
40
0
40
0
40
0
40
0.125
40
0.125
40
0.25
40
0.25
40
0.375
40
0.375
40
0.5
40
0.5
40
0.625
40
0.625
40
0.75
40
0.75
40
0.875
40
0.875
40
1
40
1
40
1
40
1
41
1
10
53.4038304541985
20
18.9197997228555
30
0
41
1
10
53.3848362544885
20
18.9024714925436
30
0
41
1
10
53.363992021664
20
18.886659482523
30
0
41
1
10
53.3194117781824
20
18.8590340878361
30
0
41
1
10
53.295650230376
20
18.8471457165033
30
0
41
1
10
53.2446062899061
20
18.8276289985246
30
0
41
1
10
53.2174812968934
20
18.8201397826278
30
0
41
1
10
53.1618013944619
20
18.8107431346236
30
0
41
1
10
53.1326331765099
20
18.8088009589934
30
0
41
1
10
53.0756191209983
20
18.8108681516157
30
0
41
1
10
53.0471587219447
20
18.8148187470321
30
0
41
1
10
52.9919106459874
20
18.8282777007408
30
0
41
1
10
52.9658610341132
20
18.8375411610396
30
0
41
1
10
52.9164087802975
20
18.8605912086703
30
0
41
1
10
52.8931361936105
20
18.874395549788
30
0
41
1
10
52.8507807326553
20
18.9050575293171
30
0
41
1
10
52.831410580499
20
18.9220472158714
30
0
41
1
10
52.8136991623823
20
18.940661034521
30
0
0
SPLINE
5
21B
100
AcDbEntity
8
1
62
256
6
ByLayer
370
18
48
1
60
0
100
AcDbSpline
70
4
71
3
72
22
73
18
40
0
40
0
40
0
40
0
40
0.125
40
0.125
40
0.25
40
0.25
40
0.375
40
0.375
40
0.5
40
0.5
40
0.625
40
0.625
40
0.75
40
0.75
40
0.875
40
0.875
40
1
40
1
40
1
40
1
41
1
10
52.7523351206637
20
17.2047758806563
30
0
41
1
10
52.7713293203737
20
17.2221041109683
30
0
41
1
10
52.7921735531982
20
17.2379161209888
30
0
41
1
10
52.8367537966799
20
17.2655415156757
30
0
41
1
10
52.8605153444863
20
17.2774298870085
30
0
41
1
10
52.9115592849561
20
17.2969466049871
30
0
41
1
10
52.9386842779689
20
17.304435820884
30
0
41
1
10
52.9943641804003
20
17.3138324688882
30
0
41
1
10
53.0235323983524
20
17.3157746445184
30
0
41
1
10
53.0805464538639
20
17.3137074518961
30
0
41
1
10
53.1090068529176
20
17.3097568564797
30
0
41
1
10
53.1642549288748
20
17.296297902771
30
0
41
1
10
53.190304540749
20
17.2870344424722
30
0
41
1
10
53.2397567945648
20
17.2639843948415
30
0
41
1
10
53.2630293812517
20
17.2501800537238
30
0
41
1
10
53.3053848422069
20
17.2195180741946
30
0
41
1
10
53.3247549943632
20
17.2025283876404
30
0
41
1
10
53.34246641248
20
17.1839145689907
30
0
0
SPLINE
5
21C
100
AcDbEntity
8
1
62
256
6
ByLayer
370
18
48
1
60
0
100
AcDbSpline
70
4
71
3
72
18
73
14
40
0
40
0
40
0
40
0
40
0.125
40
0.125
40
0.249999999999999
40
0.249999999999999
40
0.374999999999999
40
0.374999999999999
40
0.499999999999998
40
0.499999999999998
40
0.749999999999999
40
0.749999999999999
40
1
40
1
40
1
40
1
41
1
10
52.5929639640583
20
18.9765551189063
30
0
41
1
10
52.6022377837905
20
18.9814758947366
30
0
41
1
10
52.6118615320003
20
18.9855779505866
30
0
41
1
10
52.6318090653144
20
18.9921437581547
30
0
41
1
10
52.6421458854863
20
18.9945832606981
30
0
41
1
10
52.6625933955837
20
18.9976347794119
30
0
41
1
10
52.6728204823889
20
18.9982911083577
30
0
41
1
10
52.6932768721074
20
18.9979181149989
30
0
41
1
10
52.7035545063306
20
18.9968613655534
30
0
41
1
10
52.7331146832246
20
18.9913796341425
30
0
41
1
10
52.7517852807456
20
18.9846043512789
30
0
41
1
10
52.7857876342534
20
18.9659152218354
30
0
41
1
10
52.8007125732944
20
18.9543092930944
30
0
41
1
10
52.8136991623822
20
18.940661034521
30
0
0
SPLINE
5
21D
100
AcDbEntity
8
1
62
256
6
ByLayer
370
18
48
1
60
0
100
AcDbSpline
70
4
71
3
72
18
73
14
40
0
40
0
40
0
40
0
40
0.250000000000003
40
0.250000000000003
40
0.500000000000005
40
0.500000000000005
40
0.625000000000004
40
0.625000000000004
40
0.750000000000003
40
0.750000000000003
40
0.875000000000001
40
0.875000000000001
40
1
40
1
40
1
40
1
41
1
10
52.4990778829348
20
18.7730191339434
30
0
41
1
10
52.4949927718207
20
18.7914097854041
30
0
41
1
10
52.4936731634358
20
18.8103956465873
30
0
41
1
10
52.4971829013404
20
18.8492023824889
30
0
41
1
10
52.5019747464294
20
18.8684237748697
30
0
41
1
10
52.5140915655428
20
18.8962568063239
30
0
41
1
10
52.5188796847633
20
18.9051893621103
30
0
41
1
10
52.5299952859546
20
18.9223373681068
30
0
41
1
10
52.5363975190492
20
18.9306281822591
30
0
41
1
10
52.5504778731492
20
18.9459552794132
30
0
41
1
10
52.5581346015919
20
18.9530013091987
30
0
41
1
10
52.5747056941084
20
18.9658312370836
30
0
41
1
10
52.5836959715849
20
18.9716374350743
30
0
41
1
10
52.5929639640583
20
18.9765551189063
30
0
0
SPLINE
5
21E
100
AcDbEntity
8
1
62
256
6
ByLayer
370
18
48
1
60
0
100
AcDbSpline
70
4
71
3
72
12
73
8
40
0
40
0
40
0
40
0
40
0.499999999999999
40
0.499999999999999
40
0.749999999999999
40
0.749999999999999
40
1
40
1
40
1
40
1
41
1
10
52.4990778829349
20
18.7730191339432
30
0
41
1
10
52.5093352107961
20
18.7268419465075
30
0
41
1
10
52.5120336844428
20
18.678098805443
30
0
41
1
10
52.5026830356017
20
18.603983424222
30
0
41
1
10
52.4972254035886
20
18.5787646100906
30
0
41
1
10
52.4817311826318
20
18.529769990913
30
0
41
1
10
52.4717088503175
20
18.5057757228542
30
0
41
1
10
52.4591466886662
20
18.4823141171763
30
0
0
SPLINE
5
21F
100
AcDbEntity
8
1
62
256
6
ByLayer
370
18
48
1
60
0
100
AcDbSpline
70
4
71
3
72
18
73
14
40
0
40
0
40
0
40
0
40
0.25
40
0.25
40
0.5
40
0.5
40
0.625
40
0.625
40
0.75
40
0.75
40
0.875
40
0.875
40
1
40
1
40
1
40
1
41
1
10
53.6570876919274
20
17.3515564695686
30
0
41
1
10
53.6611728030415
20
17.3331658181079
30
0
41
1
10
53.6624924114265
20
17.3141799569246
30
0
41
1
10
53.6589826735218
20
17.275373221023
30
0
41
1
10
53.6541908284329
20
17.2561518286422
30
0
41
1
10
53.6420740093195
20
17.228318797188
30
0
41
1
10
53.637285890099
20
17.2193862414015
30
0
41
1
10
53.6261702889077
20
17.2022382354051
30
0
41
1
10
53.6197680558131
20
17.1939474212527
30
0
41
1
10
53.605687701713
20
17.1786203240987
30
0
41
1
10
53.5980309732703
20
17.1715742943131
30
0
41
1
10
53.5814598807538
20
17.1587443664282
30
0
41
1
10
53.5724696032773
20
17.1529381684375
30
0
41
1
10
53.563201610804
20
17.1480204846055
30
0
0
SPLINE
5
220
100
AcDbEntity
8
1
62
256
6
ByLayer
370
18
48
1
60
0
100
AcDbSpline
70
4
71
3
72
14
73
10
40
0
40
0
40
0
40
0
40
0.25
40
0.25
40
0.5
40
0.5
40
0.75
40
0.75
40
1
40
1
40
1
40
1
41
1
10
52.4292419084375
20
18.434456464793
30
0
41
1
10
52.4136456821182
20
18.4128586705755
30
0
41
1
10
52.3960477251063
20
18.3928730018856
30
0
41
1
10
52.3586101997339
20
18.3574100828734
30
0
41
1
10
52.3387415473492
20
18.3418095028591
30
0
41
1
10
52.2968067413023
20
18.3144386815447
30
0
41
1
10
52.2750564363946
20
18.3029099195228
30
0
41
1
10
52.2309537210973
20
18.2840555305475
30
0
41
1
10
52.2084515917999
20
18.2766389277288
30
0
41
1
10
52.1854626535623
20
18.2711298535453
30
0
0
SPLINE
5
221
100
AcDbEntity
8
1
62
256
6
ByLayer
370
18
48
1
60
0
100
AcDbSpline
70
4
71
3
72
18
73
14
40
0
40
0
40
0
40
0
40
0.125000000000001
40
0.125000000000001
40
0.250000000000002
40
0.250000000000002
40
0.375000000000003
40
0.375000000000003
40
0.500000000000004
40
0.500000000000004
40
0.750000000000002
40
0.750000000000002
40
1
40
1
40
1
40
1
41
1
10
52.0436826711195
20
18.0975212996601
30
0
41
1
10
52.04404117378
20
18.1080463742538
30
0
41
1
10
52.045289229443
20
18.1184628552688
30
0
41
1
10
52.0495623180114
20
18.1390787053203
30
0
41
1
10
52.0526175053657
20
18.1492863275939
30
0
41
1
10
52.06020664936
20
18.1685826499666
30
0
41
1
10
52.0647597445942
20
18.1777948572637
30
0
41
1
10
52.0753325017068
20
18.1953713987178
30
0
41
1
10
52.0814029699204
20
18.2037679738435
30
0
41
1
10
52.1009886243648
20
18.2266877839168
30
0
41
1
10
52.116234674865
20
18.2394898852019
30
0
41
1
10
52.149528965694
20
18.2596130030967
30
0
41
1
10
52.1670964269709
20
18.2667285669909
30
0
41
1
10
52.1854626535623
20
18.2711298535453
30
0
0
SPLINE
5
222
100
AcDbEntity
8
1
62
256
6
ByLayer
370
18
48
1
60
0
100
AcDbSpline
70
4
71
3
72
18
73
14
40
0
40
0
40
0
40
0
40
0.249999999999998
40
0.249999999999998
40
0.499999999999996
40
0.499999999999996
40
0.624999999999997
40
0.624999999999997
40
0.749999999999998
40
0.749999999999998
40
0.874999999999999
40
0.874999999999999
40
1
40
1
40
1
40
1
41
1
10
52.1727080024883
20
17.9148607485327
30
0
41
1
10
52.1547932861293
20
17.9205356954674
30
0
41
1
10
52.1377456153578
20
17.9288887018628
30
0
41
1
10
52.1059956046973
20
17.9513062799633
30
0
41
1
10
52.0917934306071
20
17.9650365629117
30
0
41
1
10
52.073797479183
20
17.9893871443164
30
0
41
1
10
52.0684695325384
20
17.9979769884353
30
0
41
1
10
52.0591975673142
20
18.0161238957377
30
0
41
1
10
52.055225512942
20
18.025782491385
30
0
41
1
10
52.0489934304291
20
18.0455833250862
30
0
41
1
10
52.046716515797
20
18.0557064879729
30
0
41
1
10
52.0438741965992
20
18.076405331026
30
0
41
1
10
52.0433264547237
20
18.0870633462003
30
0
41
1
10
52.0436826711195
20
18.0975212996601
30
0
0
SPLINE
5
223
100
AcDbEntity
8
1
62
256
6
ByLayer
370
18
48
1
60
0
100
AcDbSpline
70
4
71
3
72
22
73
18
40
0
40
0
40
0
40
0
40
0.125
40
0.125
40
0.25
40
0.25
40
0.375
40
0.375
40
0.5
40
0.5
40
0.625000000000001
40
0.625000000000001
40
0.750000000000001
40
0.750000000000001
40
0.875000000000001
40
0.875000000000001
40
1
40
1
40
1
40
1
41
1
10
52.1727080024883
20
17.9148607485327
30
0
41
1
10
52.1972184643028
20
17.9070964296703
30
0
41
1
10
52.2213428801093
20
17.8969714932864
30
0
41
1
10
52.2675785585806
20
17.8722162225771
30
0
41
1
10
52.2897675111589
20
17.8576013350767
30
0
41
1
10
52.3322209867412
20
17.8231907608956
30
0
41
1
10
52.3522862750158
20
17.8034616375641
30
0
41
1
10
52.3883012862184
20
17.7599706374037
30
0
41
1
10
52.4045882038659
20
17.7356952691242
30
0
41
1
10
52.4313482305834
20
17.6853089886218
30
0
41
1
10
52.4421799433026
20
17.6586955671474
30
0
41
1
10
52.4581950092521
20
17.6041335546347
30
0
41
1
10
52.4632207491272
20
17.5769464998822
30
0
41
1
10
52.4680315780416
20
17.522598687793
30
0
41
1
10
52.4677361754916
20
17.4955415930872
30
0
41
1
10
52.4624044780282
20
17.4435251027672
30
0
41
1
10
52.457397736385
20
17.4182509155453
30
0
41
1
10
52.4501545563609
20
17.3935992540318
30
0
0
SPLINE
5
224
100
AcDbEntity
8
1
62
256
6
ByLayer
370
18
48
1
60
0
100
AcDbSpline
70
4
71
3
72
18
73
14
40
0
40
0
40
0
40
0
40
0.125
40
0.125
40
0.25
40
0.25
40
0.375
40
0.375
40
0.499999999999999
40
0.499999999999999
40
0.75
40
0.75
40
1
40
1
40
1
40
1
41
1
10
53.563201610804
20
17.1480204846055
30
0
41
1
10
53.5539277910718
20
17.1430997087752
30
0
41
1
10
53.544304042862
20
17.1389976529252
30
0
41
1
10
53.5243565095478
20
17.1324318453571
30
0
41
1
10
53.5140196893759
20
17.1299923428137
30
0
41
1
10
53.4935721792786
20
17.1269408240999
30
0
41
1
10
53.4833450924733
20
17.1262844951541
30
0
41
1
10
53.4628887027548
20
17.1266574885129
30
0
41
1
10
53.4526110685316
20
17.1277142379584
30
0
41
1
10
53.4230508916376
20
17.1331959693693
30
0
41
1
10
53.4043802941167
20
17.1399712522329
30
0
41
1
10
53.3703779406088
20
17.1586603816764
30
0
41
1
10
53.3554530015678
20
17.1702663104174
30
0
41
1
10
53.34246641248
20
17.1839145689907
30
0
0
SPLINE
5
225
100
AcDbEntity
8
1
62
256
6
ByLayer
370
18
48
1
60
0
100
AcDbSpline
70
4
71
3
72
14
73
10
40
0
40
0
40
0
40
0
40
0.25
40
0.25
40
0.5
40
0.5
40
0.75
40
0.75
40
1
40
1
40
1
40
1
41
1
10
53.7269236664247
20
17.6901191387188
30
0
41
1
10
53.7425198927442
20
17.7117169329365
30
0
41
1
10
53.7601178497561
20
17.7317026016264
30
0
41
1
10
53.7975553751285
20
17.7671655206385
30
0
41
1
10
53.8174240275132
20
17.7827661006528
30
0
41
1
10
53.85935883356
20
17.8101369219671
30
0
41
1
10
53.8811091384677
20
17.821665683989
30
0
41
1
10
53.925211853765
20
17.8405200729643
30
0
41
1
10
53.9477139830624
20
17.847936675783
30
0
41
1
10
53.9707029212999
20
17.8534457499665
30
0
0
SPLINE
5
226
100
AcDbEntity
8
1
62
256
6
ByLayer
370
18
48
1
60
0
100
AcDbSpline
70
4
71
3
72
12
73
8
40
0
40
0
40
0
40
0
40
0.5
40
0.5
40
0.75
40
0.75
40
1
40
1
40
1
40
1
41
1
10
53.6570876919274
20
17.3515564695686
30
0
41
1
10
53.6468303640661
20
17.3977336570044
30
0
41
1
10
53.6441318904195
20
17.4464767980695
30
0
41
1
10
53.6534825392606
20
17.5205921792899
30
0
41
1
10
53.6589401712737
20
17.5458109934216
30
0
41
1
10
53.6744343922308
20
17.5948056125997
30
0
41
1
10
53.6844567245452
20
17.6187998806583
30
0
41
1
10
53.697018886196
20
17.6422614863355
30
0
0
SPLINE
5
227
100
AcDbEntity
8
1
62
256
6
ByLayer
370
18
48
1
60
0
100
AcDbSpline
70
4
71
3
72
18
73
14
40
0
40
0
40
0
40
0
40
0.250000000000009
40
0.250000000000009
40
0.500000000000019
40
0.500000000000019
40
0.625000000000014
40
0.625000000000014
40
0.750000000000009
40
0.750000000000009
40
0.875000000000005
40
0.875000000000005
40
1
40
1
40
1
40
1
41
1
10
52.7523351206637
20
17.2047758806563
30
0
41
1
10
52.7384524068473
20
17.1921108110014
30
0
41
1
10
52.722671058015
20
17.1815293990896
30
0
41
1
10
52.6873814861298
20
17.1652803374485
30
0
41
1
10
52.6683716258244
20
17.1598594407496
30
0
41
1
10
52.6382942355008
20
17.156477956628
30
0
41
1
10
52.6281925249467
20
17.1561672751168
30
0
41
1
10
52.6078398399384
20
17.1572287309147
30
0
41
1
10
52.5974867496724
20
17.1586280192208
30
0
41
1
10
52.5772332687698
20
17.1631475421684
30
0
41
1
10
52.567330998798
20
17.1662452458699
30
0
41
1
10
52.5479866346203
20
17.1741516657935
30
0
41
1
10
52.5384881336967
20
17.1790143158489
30
0
41
1
10
52.5296163489497
20
17.184558022234
30
0
0
SPLINE
5
228
100
AcDbEntity
8
1
62
256
6
ByLayer
370
18
48
1
60
0
100
AcDbSpline
70
4
71
3
72
18
73
14
40
0
40
0
40
0
40
0
40
0.124999999999998
40
0.124999999999998
40
0.249999999999996
40
0.249999999999996
40
0.374999999999995
40
0.374999999999995
40
0.499999999999993
40
0.499999999999993
40
0.749999999999996
40
0.749999999999996
40
1
40
1
40
1
40
1
41
1
10
52.5296163489497
20
17.184558022234
30
0
41
1
10
52.5207131420265
20
17.190121363374
30
0
41
1
10
52.5123433962709
20
17.1963975674454
30
0
41
1
10
52.4966714820806
20
17.2103762859864
30
0
41
1
10
52.4893837630477
20
17.2181022394975
30
0
41
1
10
52.4765034314741
20
17.2342735048389
30
0
41
1
10
52.4708141764803
20
17.2427973790602
30
0
41
1
10
52.4608936528693
20
17.260691114468
30
0
41
1
10
52.4566619168371
20
17.2701165581505
30
0
41
1
10
52.4466048308444
20
17.2984486850214
30
0
41
1
10
52.4431203262317
20
17.3180025278753
30
0
41
1
10
52.4422711285179
20
17.356793308284
30
0
41
1
10
52.4448436230657
20
17.375523860423
30
0
41
1
10
52.4501545563609
20
17.3935992540318
30
0
0
SPLINE
5
229
100
AcDbEntity
8
1
62
256
6
ByLayer
370
18
48
1
60
0
100
AcDbSpline
70
4
71
3
72
18
73
14
40
0
40
0
40
0
40
0
40
0.249999999999994
40
0.249999999999994
40
0.499999999999988
40
0.499999999999988
40
0.624999999999991
40
0.624999999999991
40
0.749999999999994
40
0.749999999999994
40
0.874999999999997
40
0.874999999999997
40
1
40
1
40
1
40
1
41
1
10
53.9834575723739
20
18.2097148549791
30
0
41
1
10
54.0013722887329
20
18.2040399080444
30
0
41
1
10
54.0184199595044
20
18.195686901649
30
0
41
1
10
54.0501699701649
20
18.1732693235485
30
0
41
1
10
54.0643721442552
20
18.1595390406001
30
0
41
1
10
54.0823680956793
20
18.1351884591954
30
0
41
1
10
54.0876960423238
20
18.1265986150765
30
0
41
1
10
54.0969680075481
20
18.1084517077741
30
0
41
1
10
54.1009400619203
20
18.0987931121268
30
0
41
1
10
54.1071721444331
20
18.0789922784256
30
0
41
1
10
54.1094490590653
20
18.0688691155389
30
0
41
1
10
54.112291378263
20
18.0481702724858
30
0
41
1
10
54.1128391201386
20
18.0375122573115
30
0
41
1
10
54.1124829037427
20
18.0270543038517
30
0
0
SPLINE
5
22A
100
AcDbEntity
8
1
62
256
6
ByLayer
370
18
48
1
60
0
100
AcDbSpline
70
4
71
3
72
22
73
18
40
0
40
0
40
0
40
0
40
0.250051317316987
40
0.250051317316987
40
0.375076975975481
40
0.375076975975481
40
0.437589805304727
40
0.437589805304727
40
0.500102634633973
40
0.500102634633973
40
0.750153951950959
40
0.750153951950959
40
0.875179610609452
40
0.875179610609452
40
0.937692439938698
40
0.937692439938698
40
1
40
1
40
1
40
1
41
1
10
35.2544893554868
20
20.304423760466
30
0
41
1
10
35.0496166406628
20
20.3303937811557
30
0
41
1
10
34.863676866617
20
20.3567034347745
30
0
41
1
10
34.6150846896534
20
20.3941904566752
30
0
41
1
10
34.5373029553858
20
20.4063566993638
30
0
41
1
10
34.4288249483954
20
20.4237815446987
30
0
41
1
10
34.393940263391
20
20.429467690463
30
0
41
1
10
34.3275001955373
20
20.4404293213979
30
0
41
1
10
34.2960374958204
20
20.4456888921105
30
0
41
1
10
34.1474612748524
20
20.4707839056978
30
0
41
1
10
34.0563361567931
20
20.4870045128551
30
0
41
1
10
33.9629606247984
20
20.503818419447
30
0
41
1
10
33.9390968149102
20
20.5081715963084
30
0
41
1
10
33.9148570599901
20
20.5126063017394
30
0
41
1
10
33.9087229020729
20
20.5137323004619
30
0
41
1
10
33.9005318179425
20
20.5152369366706
30
0
41
1
10
33.8984278071136
20
20.5156241988114
30
0
41
1
10
33.8982745710701
20
20.5156523878547
30
0
0
SPLINE
5
22B
100
AcDbEntity
8
1
62
256
6
ByLayer
370
18
48
1
60
0
100
AcDbSpline
70
4
71
3
72
42
73
38
40
0
40
0
40
0
40
0
40
9.40099613833E-05
40
9.40099613833E-05
40
0.0313410721500901
40
0.0313410721500901
40
0.0625881343387966
40
0.0625881343387966
40
0.12508225871621
40
0.12508225871621
40
0.187576383093623
40
0.187576383093623
40
0.21882344528233
40
0.21882344528233
40
0.250070507471037
40
0.250070507471037
40
0.375058756225864
40
0.375058756225864
40
0.406305818414571
40
0.406305818414571
40
0.437552880603278
40
0.437552880603278
40
0.500047004980691
40
0.500047004980691
40
0.625035253735518
40
0.625035253735518
40
0.656282315924225
40
0.656282315924225
40
0.687529378112932
40
0.687529378112932
40
0.750023502490345
40
0.750023502490345
40
0.875011751245173
40
0.875011751245173
40
0.937505875622586
40
0.937505875622586
40
1
40
1
40
1
40
1
41
1
10
44.9662337343449
20
21.2410771696296
30
0
41
1
10
44.9662347238538
20
21.2410774703927
30
0
41
1
10
44.9662356957091
20
21.2410777657627
30
0
41
1
10
44.9665538077295
20
21.2411744382894
30
0
41
1
10
44.9649066033012
20
21.2406736581291
30
0
41
1
10
44.9576033765504
20
21.2384555278359
30
0
41
1
10
44.9519148827914
20
21.2367283299847
30
0
41
1
10
44.9289903075906
20
21.229779415131
30
0
41
1
10
44.9059482286963
20
21.2228044400984
30
0
41
1
10
44.8451623714688
20
21.2045267357931
30
0
41
1
10
44.8074163279018
20
21.1932233547826
30
0
41
1
10
44.7400880623144
20
21.1732496980136
30
0
41
1
10
44.7158576250228
20
21.1660883651518
30
0
41
1
10
44.6638421686672
20
21.1507932647392
30
0
41
1
10
44.6360026158089
20
21.1426438408209
30
0
41
1
10
44.4895303138384
20
21.1000142685624
30
0
41
1
10
44.3483901290804
20
21.0596634956444
30
0
41
1
10
44.1454829598318
20
21.0037613806205
30
0
41
1
10
44.1035644131169
20
20.9923052776163
30
0
41
1
10
44.0170918149158
20
20.9688920772092
30
0
41
1
10
43.972467851034
20
20.9569167825976
30
0
41
1
10
43.8357626119474
20
20.9205983790285
30
0
41
1
10
43.7405833085203
20
20.895789435238
30
0
41
1
10
43.4437140288455
20
20.8202027559554
30
0
41
1
10
43.2307775065154
20
20.7682747573569
30
0
41
1
10
42.9469057410956
20
20.7032566007894
30
0
41
1
10
42.88915420016
20
20.6902282976011
30
0
41
1
10
42.7726168961319
20
20.6643664036795
30
0
41
1
10
42.7137667362571
20
20.6515174744315
30
0
41
1
10
42.5355126549857
20
20.6132710131567
30
0
41
1
10
42.414408255239
20
20.5881742443066
30
0
41
1
10
42.044492707297
20
20.5144991127483
30
0
41
1
10
41.7891203721872
20
20.4675362278137
30
0
41
1
10
41.3929008143245
20
20.4018997496388
30
0
41
1
10
41.2582295026321
20
20.3807696912987
30
0
41
1
10
40.9878939086039
20
20.3408763502904
30
0
41
1
10
40.8519178851222
20
20.3220546011466
30
0
41
1
10
40.7151425997106
20
20.3044237604661
30
0
0
SPLINE
5
22C
100
AcDbEntity
8
1
62
256
6
ByLayer
370
18
48
1
60
0
100
AcDbSpline
70
4
71
3
72
42
73
38
40
0
40
0
40
0
40
0
40
0.0624989401883759
40
0.0624989401883759
40
0.124997880376752
40
0.124997880376752
40
0.15624735047094
40
0.15624735047094
40
0.187496820565128
40
0.187496820565128
40
0.249995760753503
40
0.249995760753503
40
0.281245230847691
40
0.281245230847691
40
0.312494700941879
40
0.312494700941879
40
0.374993641130255
40
0.374993641130255
40
0.499991521507007
40
0.499991521507007
40
0.531240991601195
40
0.531240991601195
40
0.562490461695383
40
0.562490461695383
40
0.62498940188376
40
0.62498940188376
40
0.749987282260512
40
0.749987282260512
40
0.812486222448889
40
0.812486222448889
40
0.843735692543077
40
0.843735692543077
40
0.874985162637265
40
0.874985162637265
40
0.999983043014018
40
0.999983043014018
40
1
40
1
40
1
40
1
41
1
10
38.8915521380124
20
18.8089651826572
30
0
41
1
10
38.6717838361605
20
18.8051725977541
30
0
41
1
10
38.4586382751179
20
18.8133446942917
30
0
41
1
10
38.0435934967005
20
18.8489736770543
30
0
41
1
10
37.8416929311772
20
18.8764149703534
30
0
41
1
10
37.5461188597423
20
18.9287080843528
30
0
41
1
10
37.4498520002723
20
18.9478152509425
30
0
41
1
10
37.2622918605245
20
18.9884870318576
30
0
41
1
10
37.1708107082893
20
19.0100862341495
30
0
41
1
10
36.9024394773396
20
19.0778469860663
30
0
41
1
10
36.731575555791
20
19.1269365071937
30
0
41
1
10
36.4851579404432
20
19.2039818854099
30
0
41
1
10
36.4046780627989
20
19.2302421234651
30
0
41
1
10
36.246798059208
20
19.2836047165646
30
0
41
1
10
36.1693525833448
20
19.3107282448327
30
0
41
1
10
35.9434478385079
20
19.3921840823246
30
0
41
1
10
35.8006064648807
20
19.4468407146222
30
0
41
1
10
35.3921837469047
20
19.6094847733658
30
0
41
1
10
35.1464412599788
20
19.7160688077589
30
0
41
1
10
34.8683859970066
20
19.8416399710908
30
0
41
1
10
34.8142547503104
20
19.8663788237001
30
0
41
1
10
34.7089345394727
20
19.9149947159608
30
0
41
1
10
34.6576759316502
20
19.9389047055202
30
0
41
1
10
34.5088137656217
20
20.0089513238328
30
0
41
1
10
34.4165792754586
20
20.0531790905829
30
0
41
1
10
34.1601619499046
20
20.1776763853515
30
0
41
1
10
34.0161278625111
20
20.249766547188
30
0
41
1
10
33.8405957973312
20
20.3386222532614
30
0
41
1
10
33.7888752870546
20
20.3650277001174
30
0
41
1
10
33.7218147628495
20
20.3994236364309
30
0
41
1
10
33.7011843177228
20
20.4100366689683
30
0
41
1
10
33.6637916369578
20
20.4293118287039
30
0
41
1
10
33.6469950497231
20
20.4379914772202
30
0
41
1
10
33.572394198076
20
20.4766004663598
30
0
41
1
10
33.5426032474219
20
20.4921791390801
30
0
41
1
10
33.5423271864747
20
20.4923230012209
30
0
41
1
10
33.5423262995777
20
20.4923234634045
30
0
41
1
10
33.5423254126762
20
20.4923239255796
30
0
0
SPLINE
5
22D
100
AcDbEntity
8
1
62
256
6
ByLayer
370
18
48
1
60
0
100
AcDbSpline
70
4
71
3
72
43
73
39
40
0
40
0
40
0
40
0
40
0.0624996408722476
40
0.0624996408722476
40
0.0937494613083714
40
0.0937494613083714
40
0.124999281744495
40
0.124999281744495
40
0.24999856348899
40
0.24999856348899
40
0.312498204361238
40
0.312498204361238
40
0.343748024797362
40
0.343748024797362
40
0.374997845233486
40
0.374997845233486
40
0.499997126977981
40
0.499997126977981
40
0.531246947414105
40
0.531246947414105
40
0.562496767850229
40
0.562496767850229
40
0.624996408722478
40
0.624996408722478
40
0.749995690466974
40
0.749995690466974
40
0.781245510903098
40
0.781245510903098
40
0.812495331339222
40
0.812495331339222
40
0.87499497221147
40
0.937494613083719
40
0.937494613083719
40
0.968744433519843
40
0.968744433519843
40
0.999994253955967
40
0.999994253955967
40
1
40
1
40
1
40
1
41
1
10
38.8915521380124
20
18.8089651826572
30
0
41
1
10
38.6392311816159
20
18.7864394990462
30
0
41
1
10
38.3875989754225
20
18.76407235462
30
0
41
1
10
38.0111861605052
20
18.730753651784
30
0
41
1
10
37.885888109027
20
18.7196861166004
30
0
41
1
10
37.6356419219877
20
18.6976278412605
30
0
41
1
10
37.510569059429
20
18.6866261543378
30
0
41
1
10
36.8874193758918
20
18.6319249256834
30
0
41
1
10
36.4070783773737
20
18.5901184735581
30
0
41
1
10
35.7128140244416
20
18.5301194372742
30
0
41
1
10
35.485798750949
20
18.5105745774071
30
0
41
1
10
35.1520419663008
20
18.4819382738315
30
0
41
1
10
35.0417701634234
20
18.4724937602493
30
0
41
1
10
34.8241847295117
20
18.4538894645913
30
0
41
1
10
34.7174531001
20
18.4447793882899
30
0
41
1
10
34.1938956112458
20
18.4001624151865
30
0
41
1
10
33.8070895765351
20
18.367429837366
30
0
41
1
10
33.3632889272274
20
18.3300570091488
30
0
41
1
10
33.2765316775189
20
18.3227611847164
30
0
41
1
10
33.1070859606449
20
18.3085294887299
30
0
41
1
10
33.024254095575
20
18.3015816066336
30
0
41
1
10
32.7829707871383
20
18.28136674743
30
0
41
1
10
32.6330840581349
20
18.2688415333359
30
0
41
1
10
32.215278201895
20
18.2339944025538
30
0
41
1
10
31.9789180373313
20
18.214374885688
30
0
41
1
10
31.737291176827
20
18.194362331998
30
0
41
1
10
31.6915837296394
20
18.1905794968628
30
0
41
1
10
31.6061963057819
20
18.1835168078889
30
0
41
1
10
31.5666225643889
20
18.1802457231255
30
0
41
1
10
31.457078727676
20
18.1711954743392
30
0
41
1
10
31.3354504370516
20
18.1611593396005
30
0
41
1
10
31.2618303357696
20
18.1550931928001
30
0
41
1
10
31.2248140262302
20
18.1520436929489
30
0
41
1
10
31.2155136255085
20
18.1512776733151
30
0
41
1
10
31.2030885312638
20
18.1502543380384
30
0
41
1
10
31.1999678657892
20
18.1499973536532
30
0
41
1
10
31.1999992663294
20
18.14999993958
30
0
41
1
10
31.2000002630552
20
18.1500000216633
30
0
41
1
10
31.2000012597811
20
18.1500001037449
30
0
0
SPLINE
5
22E
100
AcDbEntity
8
1
62
256
6
ByLayer
370
18
48
1
60
0
100
AcDbSpline
70
4
71
3
72
22
73
18
40
0
40
0
40
0
40
0
40
0.125
40
0.125
40
0.25
40
0.25
40
0.375
40
0.375
40
0.5
40
0.5
40
0.625
40
0.625
40
0.75
40
0.75
40
0.875
40
0.875
40
1
40
1
40
1
40
1
41
1
10
46.3814972148583
20
21.2886881275186
30
0
41
1
10
46.354876710933
20
21.2869433275094
30
0
41
1
10
46.3286881946921
20
21.2850394568866
30
0
41
1
10
46.2771517604695
20
21.2809155693813
30
0
41
1
10
46.251554268496
20
21.2786709925073
30
0
41
1
10
46.2025480659438
20
21.273942681173
30
0
41
1
10
46.1792998494733
20
21.2714794086876
30
0
41
1
10
46.135323693742
20
21.2663235945783
30
0
41
1
10
46.1144286553686
20
21.2636020582451
30
0
41
1
10
46.0770330678094
20
21.2581094977348
30
0
41
1
10
46.0603284453166
20
21.2553199782844
30
0
41
1
10
46.0310231950368
20
21.2496139761751
30
0
41
1
10
46.0185747509048
20
21.2467140923439
30
0
41
1
10
45.9990292498475
20
21.2410215677683
30
0
41
1
10
45.9917345579007
20
21.2381847087847
30
0
41
1
10
45.9824757976949
20
21.2325818377014
30
0
41
1
10
45.980584977519
20
21.2298730500949
30
0
41
1
10
45.9814132088907
20
21.2272522963055
30
0
0
SPLINE
5
22F
100
AcDbEntity
8
1
62
256
6
ByLayer
370
18
48
1
60
0
100
AcDbSpline
70
4
71
3
72
8
73
4
40
0
40
0
40
0
40
0
40
1
40
1
40
1
40
1
41
1
10
47.9725496688286
20
19.1040218439278
30
0
41
1
10
48.0087141501294
20
19.1085157815799
30
0
41
1
10
48.0443815175032
20
19.1106587204792
30
0
41
1
10
48.0794285311455
20
19.1106996602425
30
0
0
SPLINE
5
230
100
AcDbEntity
8
1
62
256
6
ByLayer
370
18
48
1
60
0
100
AcDbSpline
70
4
71
3
72
30
73
26
40
0
40
0
40
0
40
0
40
0.125000000000001
40
0.125000000000001
40
0.250000000000002
40
0.250000000000002
40
0.281250000000002
40
0.281250000000002
40
0.312500000000002
40
0.312500000000002
40
0.375000000000002
40
0.375000000000002
40
0.500000000000001
40
0.500000000000001
40
0.562500000000001
40
0.562500000000001
40
0.625000000000001
40
0.625000000000001
40
0.750000000000001
40
0.750000000000001
40
0.875
40
0.875
40
0.9375
40
0.9375
40
1
40
1
40
1
40
1
41
1
10
35.2544893554864
20
20.3044237604661
30
0
41
1
10
35.4286489352023
20
20.2812138269505
30
0
41
1
10
35.6137205396266
20
20.2586519231221
30
0
41
1
10
36.0038241644244
20
20.2167935871732
30
0
41
1
10
36.2088704746953
20
20.1974903178348
30
0
41
1
10
36.4774202907196
20
20.1765962339388
30
0
41
1
10
36.5317454589364
20
20.1725793261838
30
0
41
1
10
36.641632185277
20
20.1649003969674
30
0
41
1
10
36.6972868104472
20
20.161233110021
30
0
41
1
10
36.8650309250322
20
20.1508756892419
30
0
41
1
10
36.9781087521778
20
20.1448124823491
30
0
41
1
10
37.3209487026382
20
20.1293638763448
30
0
41
1
10
37.5543010016736
20
20.1227207193987
30
0
41
1
10
37.9112980223929
20
20.1190617251128
30
0
41
1
10
38.0314627102931
20
20.1188925938171
30
0
41
1
10
38.2741357289227
20
20.1207900850479
30
0
41
1
10
38.397048458784
20
20.122871197019
30
0
41
1
10
38.7650360824905
20
20.1325343243533
30
0
41
1
10
39.0100225678965
20
20.1435108633347
30
0
41
1
10
39.4993281010023
20
20.1744367615785
30
0
41
1
10
39.7436471492698
20
20.194385978337
30
0
41
1
10
40.1096328626782
20
20.2309158822685
30
0
41
1
10
40.2317787029606
20
20.2442212282662
30
0
41
1
10
40.4747163951149
20
20.2728628203286
30
0
41
1
10
40.5953463424829
20
20.2881748654041
30
0
41
1
10
40.7151425997112
20
20.3044237604662
30
0
0
SPLINE
5
231
100
AcDbEntity
8
1
62
256
6
ByLayer
370
18
48
1
60
0
100
AcDbSpline
70
4
71
3
72
14
73
10
40
0
40
0
40
0
40
0
40
0.25
40
0.25
40
0.5
40
0.5
40
0.75
40
0.75
40
1
40
1
40
1
40
1
41
1
10
48.2291485468122
20
15.442206823805
30
0
41
1
10
48.2034648675743
20
15.4525378124982
30
0
41
1
10
48.1775700699753
20
15.4614075137497
30
0
41
1
10
48.1254997256345
20
15.4763693257603
30
0
41
1
10
48.0990478009874
20
15.4825059920113
30
0
41
1
10
48.0473893873128
20
15.4918649801697
30
0
41
1
10
48.0224646004604
20
15.4950697450039
30
0
41
1
10
47.9747077720186
20
15.4991427632829
30
0
41
1
10
47.9516976574111
20
15.5
30
0
41
1
10
47.930603691393
20
15.5
30
0
0
SPLINE
5
232
100
AcDbEntity
8
1
62
256
6
ByLayer
370
18
48
1
60
0
100
AcDbSpline
70
4
71
3
72
8
73
4
40
0
40
0
40
0
40
0
40
1
40
1
40
1
40
1
41
1
10
39
20
18.8156513977279
30
0
41
1
10
39.2061511479939
20
18.8291632578308
30
0
41
1
10
39.4111020113691
20
18.8453415449035
30
0
41
1
10
39.6148923781469
20
18.8640849986517
30
0
0
SPLINE
5
233
100
AcDbEntity
8
1
62
256
6
ByLayer
370
18
48
1
60
0
100
AcDbSpline
70
4
71
3
72
8
73
4
40
0
40
0
40
0
40
0
40
1
40
1
40
1
40
1
41
1
10
38.8915521380125
20
18.8089651826572
30
0
41
1
10
38.9276904450031
20
18.8110526798683
30
0
41
1
10
38.9638397272784
20
18.8132813282374
30
0
41
1
10
39
20
18.8156513977279
30
0
0
SPLINE
5
234
100
AcDbEntity
8
1
62
256
6
ByLayer
370
18
48
1
60
0
100
AcDbSpline
70
4
71
3
72
8
73
4
40
0
40
0
40
0
40
0
40
1
40
1
40
1
40
1
41
1
10
39.7
20
18.8688598343597
30
0
41
1
10
39.6716288809278
20
18.867329939212
30
0
41
1
10
39.6432596772504
20
18.8657382606131
30
0
41
1
10
39.6148923781469
20
18.8640849986517
30
0
0
SPLINE
5
235
100
AcDbEntity
8
1
62
256
6
ByLayer
370
18
48
1
60
0
100
AcDbSpline
70
4
71
3
72
8
73
4
40
0
40
0
40
0
40
0
40
1
40
1
40
1
40
1
41
1
10
39.7
20
18.8761084937192
30
0
41
1
10
39.6716930824233
20
18.8719195722745
30
0
41
1
10
39.6433242610433
20
18.8679103860316
30
0
41
1
10
39.6148923781469
20
18.8640849986517
30
0
0
SPLINE
5
236
100
AcDbEntity
8
1
62
256
6
ByLayer
370
18
48
1
60
0
100
AcDbSpline
70
4
71
3
72
30
73
26
40
0
40
0
40
0
40
0
40
0.125
40
0.125
40
0.1875
40
0.1875
40
0.25
40
0.25
40
0.375000000000001
40
0.375000000000001
40
0.500000000000003
40
0.500000000000003
40
0.562500000000003
40
0.562500000000003
40
0.625000000000003
40
0.625000000000003
40
0.687500000000002
40
0.687500000000002
40
0.750000000000002
40
0.750000000000002
40
0.875000000000002
40
0.875000000000002
40
0.937500000000001
40
0.937500000000001
40
1
40
1
40
1
40
1
41
1
10
47.6281869559634
20
17.3438159880362
30
0
41
1
10
47.5673663470548
20
17.3746573811452
30
0
41
1
10
47.5113622317274
20
17.4107539191272
30
0
41
1
10
47.4333961766578
20
17.4725357735943
30
0
41
1
10
47.4083668296453
20
17.4944999219187
30
0
41
1
10
47.3612671564753
20
17.5401072000895
30
0
41
1
10
47.3390551106797
20
17.5638487293459
30
0
41
1
10
47.2760926651424
20
17.6380251582342
30
0
41
1
10
47.2388874226373
20
17.6914467947504
30
0
41
1
10
47.174114054145
20
17.8079217258835
30
0
41
1
10
47.1476241616978
20
17.8690824369344
30
0
41
1
10
47.1169724952796
20
17.9657867267362
30
0
41
1
10
47.1083257300621
20
17.9988559617895
30
0
41
1
10
47.0946552905381
20
18.0644414195963
30
0
41
1
10
47.0895301743414
20
18.0972439681456
30
0
41
1
10
47.0825478970062
20
18.1630116844551
30
0
41
1
10
47.0806933162447
20
18.1961403651145
30
0
41
1
10
47.0802528990959
20
18.2618569111968
30
0
41
1
10
47.081646477716
20
18.2943896189819
30
0
41
1
10
47.0905127138143
20
18.3913914739068
30
0
41
1
10
47.1025840300293
20
18.4552665659016
30
0
41
1
10
47.1308872477898
20
18.5510373238111
30
0
41
1
10
47.1420306310012
20
18.5828267351035
30
0
41
1
10
47.1674473068582
20
18.6450336411488
30
0
41
1
10
47.1817657557578
20
18.6756182286463
30
0
41
1
10
47.1977900509093
20
18.7057111762987
30
0
0
LINE
5
79
100
AcDbEntity
8
SK1
62
256
6
ByLayer
370
18
48
1
60
0
100
AcDbLine
10
-1.499937
20
14.025124
30
0
11
-1.499937
21
3.70675
31
0
39
0
210
0
220
0
230
1
0
LINE
5
7B
100
AcDbEntity
8
SK1
62
256
6
ByLayer
370
18
48
1
60
0
100
AcDbLine
10
-1.499937
20
-3.70675
30
0
11
-1.499937
21
-14.025124
31
0
39
0
210
0
220
0
230
1
0
LINE
5
7C
100
AcDbEntity
8
SK1
62
256
6
ByLayer
370
18
48
1
60
0
100
AcDbLine
10
-22.5
20
-13.497519
30
0
11
-22.5
21
13.497519
31
0
39
0
210
0
220
0
230
1
0
LINE
5
7D
100
AcDbEntity
8
SK1
62
256
6
ByLayer
370
18
48
1
60
0
100
AcDbLine
10
-24
20
12.631506
30
0
11
-24
21
-12.631506
31
0
39
0
210
0
220
0
230
1
0
LINE
5
7E
100
AcDbEntity
8
SK1
62
256
6
ByLayer
370
18
48
1
60
0
100
AcDbLine
10
-1.294977
20
-13.830214
30
0
11
-1.294977
21
-3.688109
31
0
39
0
210
0
220
0
230
1
0
LINE
5
7F
100
AcDbEntity
8
SK1
62
256
6
ByLayer
370
18
48
1
60
0
100
AcDbLine
10
-1.294977
20
3.688109
30
0
11
-1.294977
21
13.830214
31
0
39
0
210
0
220
0
230
1
0
LINE
5
80
100
AcDbEntity
8
SK1
62
256
6
ByLayer
370
18
48
1
60
0
100
AcDbLine
10
-0.194914
20
-13.856804
30
0
11
-0.194914
21
-4.738106
31
0
39
0
210
0
220
0
230
1
0
LINE
5
81
100
AcDbEntity
8
SK1
62
256
6
ByLayer
370
18
48
1
60
0
100
AcDbLine
10
-0.194914
20
4.738106
30
0
11
-0.194914
21
13.856804
31
0
39
0
210
0
220
0
230
1
0
LINE
5
82
100
AcDbEntity
8
SK1
62
256
6
ByLayer
370
18
48
1
60
0
100
AcDbLine
10
-1.307107
20
-3.629766
30
0
11
-1.307107
21
3.629766
31
0
39
0
210
0
220
0
230
1
0
LINE
5
83
100
AcDbEntity
8
80
62
256
6
ByLayer
370
18
48
0.05
60
0
100
AcDbLine
10
0
20
0
30
0
11
-26.423573
21
0
31
0
39
0
210
0
220
0
230
1
0
LINE
5
84
100
AcDbEntity
8
SK4
62
256
6
ByLayer
370
18
48
0.05
60
0
100
AcDbLine
10
39
20
-22.006082
30
0
11
39
21
24.715185
31
0
39
0
210
0
220
0
230
1
0
LINE
5
86
100
AcDbEntity
8
4
62
256
6
ByLayer
370
18
48
0.05
60
0
100
AcDbLine
10
0
20
0
30
0
11
56.525413
21
0
31
0
39
0
210
0
220
0
230
1
0
LINE
5
88
100
AcDbEntity
8
SK4
62
256
6
ByLayer
370
18
48
0.05
60
0
100
AcDbLine
10
56.525413
20
0
30
0
11
-26.423573
21
0
31
0
39
0
210
0
220
0
230
1
0
LINE
5
89
100
AcDbEntity
8
2
62
256
6
ByLayer
370
13
48
1
60
0
100
AcDbLine
10
86.077346
20
21.32501
30
0
11
86.208998
21
19.32501
31
0
39
0
210
0
220
0
230
1
0
LINE
5
8B
100
AcDbEntity
8
2
62
256
6
ByLayer
370
13
48
1
60
0
100
AcDbLine
10
58
20
22.50001
30
0
11
88
21
22.50001
31
0
39
0
210
0
220
0
230
1
0
LINE
5
8C
100
AcDbEntity
8
2
62
256
6
ByLayer
370
13
48
1
60
0
100
AcDbLine
10
86
20
22.50001
30
0
11
86.417997
21
19.32501
31
0
39
0
210
0
220
0
230
1
0
LINE
5
8D
100
AcDbEntity
8
2
62
256
6
ByLayer
370
13
48
1
60
0
100
AcDbLine
10
85.922654
20
21.32501
30
0
11
85.791002
21
19.32501
31
0
39
0
210
0
220
0
230
1
0
LINE
5
8E
100
AcDbEntity
8
2
62
256
6
ByLayer
370
13
48
1
60
0
100
AcDbLine
10
86
20
22.50001
30
0
11
85.582003
21
19.32501
31
0
39
0
210
0
220
0
230
1
0
LINE
5
8F
100
AcDbEntity
8
2
62
256
6
ByLayer
370
18
48
1
60
0
100
AcDbLine
10
86
20
22.50001
30
0
11
86
21
-24.49999
31
0
39
0
210
0
220
0
230
1
0
LINE
5
90
100
AcDbEntity
8
2
62
256
6
ByLayer
370
13
48
1
60
0
100
AcDbLine
10
85.582003
20
19.32501
30
0
11
86.417997
21
19.32501
31
0
39
0
210
0
220
0
230
1
0
LINE
5
91
100
AcDbEntity
8
1
62
256
6
ByLayer
370
18
48
1
60
0
100
AcDbLine
10
53.002894
20
10.95329
30
0
11
52.999999
21
10.95329
31
0
39
0
210
0
220
0
230
1
0
LINE
5
92
100
AcDbEntity
8
1
62
256
6
ByLayer
370
18
48
1
60
0
100
AcDbLine
10
52.999999
20
2.95329
30
0
11
53.002894
21
2.95329
31
0
39
0
210
0
220
0
230
1
0
LINE
5
93
100
AcDbEntity
8
1
62
256
6
ByLayer
370
18
48
1
60
0
100
AcDbLine
10
35.763571
20
4.00329
30
0
11
36.854573
21
4.00329
31
0
39
0
210
0
220
0
230
1
0
LINE
5
94
100
AcDbEntity
8
1
62
256
6
ByLayer
370
18
48
1
60
0
100
AcDbLine
10
36.854573
20
9.90329
30
0
11
35.763571
21
9.90329
31
0
39
0
210
0
220
0
230
1
0
LINE
5
95
100
AcDbEntity
8
1
62
256
6
ByLayer
370
18
48
1
60
0
100
AcDbLine
10
47
20
14.562718
30
0
11
47
21
15.35
31
0
39
0
210
0
220
0
230
1
0
LINE
5
96
100
AcDbEntity
8
1
62
256
6
ByLayer
370
18
48
1
60
0
100
AcDbLine
10
0.30375
20
-19.99375
30
0
11
28.50625
21
-19.99375
31
0
39
0
210
0
220
0
230
1
0
LINE
5
97
100
AcDbEntity
8
1
62
256
6
ByLayer
370
18
48
1
60
0
100
AcDbLine
10
20
20
19.99375
30
0
11
0.30375
21
19.99375
31
0
39
0
210
0
220
0
230
1
0
LINE
5
98
100
AcDbEntity
8
1
62
256
6
ByLayer
370
18
48
1
60
0
100
AcDbLine
10
0.30375
20
19.99375
30
0
11
0
21
19.69
31
0
39
0
210
0
220
0
230
1
0
LINE
5
99
100
AcDbEntity
8
1
62
256
6
ByLayer
370
18
48
1
60
0
100
AcDbLine
10
0
20
-19.69
30
0
11
0.30375
21
-19.99375
31
0
39
0
210
0
220
0
230
1
0
LINE
5
9A
100
AcDbEntity
8
1
62
256
6
ByLayer
370
18
48
1
60
0
100
AcDbLine
10
47
20
15.35
30
0
11
46.85
21
15.5
31
0
39
0
210
0
220
0
230
1
0
LINE
5
9B
100
AcDbEntity
8
1
62
256
6
ByLayer
370
18
48
1
60
0
100
AcDbLine
10
33.286824
20
-18.851392
30
0
11
35.24625
21
-19.616
31
0
39
0
210
0
220
0
230
1
0
LINE
5
9C
100
AcDbEntity
8
1
62
256
6
ByLayer
370
18
48
1
60
0
100
AcDbLine
10
42.75375
20
-19.616
30
0
11
44.713176
21
-18.851392
31
0
39
0
210
0
220
0
230
1
0
LINE
5
9D
100
AcDbEntity
8
1
62
256
6
ByLayer
370
18
48
1
60
0
100
AcDbLine
10
35.486779
20
-18.499158
30
0
11
35.478411
21
-18.539179
31
0
39
0
210
0
220
0
230
1
0
LINE
5
9E
100
AcDbEntity
8
1
62
256
6
ByLayer
370
18
48
1
60
0
100
AcDbLine
10
32.6846
20
-18.532657
30
0
11
32.682135
21
-18.539179
31
0
39
0
210
0
220
0
230
1
0
LINE
5
9F
100
AcDbEntity
8
1
62
256
6
ByLayer
370
18
48
1
60
0
100
AcDbLine
10
37.204484
20
-18.804813
30
0
11
36.567156
21
-18.000008
31
0
39
0
210
0
220
0
230
1
0
LINE
5
A0
100
AcDbEntity
8
1
62
256
6
ByLayer
370
18
48
1
60
0
100
AcDbLine
10
31.312351
20
-18.055185
30
0
11
31.480776
21
-18.055185
31
0
39
0
210
0
220
0
230
1
0
LINE
5
A1
100
AcDbEntity
8
1
62
256
6
ByLayer
370
18
48
1
60
0
100
AcDbLine
10
40.490436
20
-18.000005
30
0
11
40.253877
21
-18.492637
31
0
39
0
210
0
220
0
230
1
0
LINE
5
A2
100
AcDbEntity
8
1
62
256
6
ByLayer
370
18
48
1
60
0
100
AcDbLine
10
45.294745
20
-18.055185
30
0
11
45.776368
21
-18.055185
31
0
39
0
210
0
220
0
230
1
0
LINE
5
A3
100
AcDbEntity
8
1
62
256
6
ByLayer
370
18
48
1
60
0
100
AcDbLine
10
38.55058
20
-18.055185
30
0
11
39.44942
21
-18.055185
31
0
39
0
210
0
220
0
230
1
0
LINE
5
A4
100
AcDbEntity
8
1
62
256
6
ByLayer
370
18
48
1
60
0
100
AcDbLine
10
34.086635
20
-18.055185
30
0
11
34.813811
21
-18.055185
31
0
39
0
210
0
220
0
230
1
0
LINE
5
A5
100
AcDbEntity
8
1
62
256
6
ByLayer
370
18
48
1
60
0
100
AcDbLine
10
34.026325
20
-18.000005
30
0
11
34.067548
21
-18.025241
31
0
39
0
210
0
220
0
230
1
0
LINE
5
A6
100
AcDbEntity
8
1
62
256
6
ByLayer
370
18
48
1
60
0
100
AcDbLine
10
35.66311
20
-18.000005
30
0
11
36.200632
21
-18.492637
31
0
39
0
210
0
220
0
230
1
0
LINE
5
A7
100
AcDbEntity
8
1
62
256
6
ByLayer
370
18
48
1
60
0
100
AcDbLine
10
40.795516
20
-18.804813
30
0
11
41.432844
21
-18.000008
31
0
39
0
210
0
220
0
230
1
0
LINE
5
A8
100
AcDbEntity
8
1
62
256
6
ByLayer
370
18
48
1
60
0
100
AcDbLine
10
32.706401
20
-18.002102
30
0
11
32.70206
21
-18.000008
31
0
39
0
210
0
220
0
230
1
0
LINE
5
A9
100
AcDbEntity
8
1
62
256
6
ByLayer
370
18
48
1
60
0
100
AcDbLine
10
45.293599
20
-18.002102
30
0
11
45.29794
21
-18.000008
31
0
39
0
210
0
220
0
230
1
0
LINE
5
AA
100
AcDbEntity
8
1
62
256
6
ByLayer
370
18
48
1
60
0
100
AcDbLine
10
44.71316
20
-18.85135
30
0
11
44.713177
21
-18.851394
31
0
39
0
210
0
220
0
230
1
0
LINE
5
AB
100
AcDbEntity
8
1
62
256
6
ByLayer
370
18
48
1
60
0
100
AcDbLine
10
31.246512
20
-18.055185
30
0
11
31.302951
21
-18.055185
31
0
39
0
210
0
220
0
230
1
0
LINE
5
AC
100
AcDbEntity
8
1
62
256
6
ByLayer
370
18
48
1
60
0
100
AcDbLine
10
42.75375
20
-19.616
30
0
11
35.24625
21
-19.616
31
0
39
0
210
0
220
0
230
1
0
LINE
5
AD
100
AcDbEntity
8
1
62
256
6
ByLayer
370
18
48
1
60
0
100
AcDbLine
10
37.583977
20
-18.055185
30
0
11
38.475728
21
-18.055185
31
0
39
0
210
0
220
0
230
1
0
LINE
5
AE
100
AcDbEntity
8
1
62
256
6
ByLayer
370
18
48
1
60
0
100
AcDbLine
10
34.827097
20
-18.508478
30
0
11
34.81946
21
-18.539179
31
0
39
0
210
0
220
0
230
1
0
LINE
5
AF
100
AcDbEntity
8
1
62
256
6
ByLayer
370
18
48
1
60
0
100
AcDbLine
10
45.065941
20
-18.529123
30
0
11
45.069589
21
-18.539179
31
0
39
0
210
0
220
0
230
1
0
LINE
5
B0
100
AcDbEntity
8
1
62
256
6
ByLayer
370
18
48
1
60
0
100
AcDbLine
10
42.33689
20
-18.000005
30
0
11
41.799368
21
-18.492637
31
0
39
0
210
0
220
0
230
1
0
LINE
5
B1
100
AcDbEntity
8
1
62
256
6
ByLayer
370
18
48
1
60
0
100
AcDbLine
10
44.67772
20
-18.055185
30
0
11
45.250662
21
-18.055185
31
0
39
0
210
0
220
0
230
1
0
LINE
5
B2
100
AcDbEntity
8
1
62
256
6
ByLayer
370
18
48
1
60
0
100
AcDbLine
10
33.279182
20
-18.525216
30
0
11
33.274407
21
-18.539179
31
0
39
0
210
0
220
0
230
1
0
LINE
5
B3
100
AcDbEntity
8
1
62
256
6
ByLayer
370
18
48
1
60
0
100
AcDbLine
10
42.335206
20
-18.055185
30
0
11
43.122864
21
-18.055185
31
0
39
0
210
0
220
0
230
1
0
LINE
5
B4
100
AcDbEntity
8
1
62
256
6
ByLayer
370
18
48
1
60
0
100
AcDbLine
10
31.804794
20
-18.055185
30
0
11
32.187501
21
-18.055185
31
0
39
0
210
0
220
0
230
1
0
LINE
5
B5
100
AcDbEntity
8
1
62
256
6
ByLayer
370
18
48
1
60
0
100
AcDbLine
10
46.519224
20
-18.055185
30
0
11
46.687649
21
-18.055185
31
0
39
0
210
0
220
0
230
1
0
LINE
5
B6
100
AcDbEntity
8
1
62
256
6
ByLayer
370
18
48
1
60
0
100
AcDbLine
10
34.355915
20
-18.85135
30
0
11
34.36174
21
-18.832897
31
0
39
0
210
0
220
0
230
1
0
LINE
5
B7
100
AcDbEntity
8
1
62
256
6
ByLayer
370
18
48
1
60
0
100
AcDbLine
10
32.534739
20
-18.53597
30
0
11
32.533496
21
-18.539179
31
0
39
0
210
0
220
0
230
1
0
LINE
5
B8
100
AcDbEntity
8
1
62
256
6
ByLayer
370
18
48
1
60
0
100
AcDbLine
10
34.877136
20
-18.055185
30
0
11
35.664794
21
-18.055185
31
0
39
0
210
0
220
0
230
1
0
LINE
5
B9
100
AcDbEntity
8
1
62
256
6
ByLayer
370
18
48
1
60
0
100
AcDbLine
10
40.253877
20
-18.492637
30
0
11
40.20596
21
-18.492637
31
0
39
0
210
0
220
0
230
1
0
LINE
5
BA
100
AcDbEntity
8
1
62
256
6
ByLayer
370
18
48
1
60
0
100
AcDbLine
10
33.286823
20
-18.851394
30
0
11
33.28684
21
-18.85135
31
0
39
0
210
0
220
0
230
1
0
LINE
5
BB
100
AcDbEntity
8
1
62
256
6
ByLayer
370
18
48
1
60
0
100
AcDbLine
10
38.55475
20
-18.492637
30
0
11
38.553609
21
-18.539179
31
0
39
0
210
0
220
0
230
1
0
LINE
5
BC
100
AcDbEntity
8
1
62
256
6
ByLayer
370
18
48
1
60
0
100
AcDbLine
10
34.233223
20
-18.515329
30
0
11
34.226439
21
-18.539179
31
0
39
0
210
0
220
0
230
1
0
LINE
5
BD
100
AcDbEntity
8
1
62
256
6
ByLayer
370
18
48
1
60
0
100
AcDbLine
10
39.44525
20
-18.492637
30
0
11
39.446391
21
-18.539179
31
0
39
0
210
0
220
0
230
1
0
LINE
5
BE
100
AcDbEntity
8
1
62
256
6
ByLayer
370
18
48
1
60
0
100
AcDbLine
10
32.934059
20
-18.529123
30
0
11
32.930411
21
-18.539179
31
0
39
0
210
0
220
0
230
1
0
LINE
5
BF
100
AcDbEntity
8
1
62
256
6
ByLayer
370
18
48
1
60
0
100
AcDbLine
10
33.319396
20
-18.000005
30
0
11
33.34237
21
-18.012303
31
0
39
0
210
0
220
0
230
1
0
LINE
5
C0
100
AcDbEntity
8
1
62
256
6
ByLayer
370
18
48
1
60
0
100
AcDbLine
10
39.52452
20
-18.000005
30
0
11
39.44525
21
-18.492637
31
0
39
0
210
0
220
0
230
1
0
LINE
5
C1
100
AcDbEntity
8
1
62
256
6
ByLayer
370
18
48
1
60
0
100
AcDbLine
10
46.222815
20
-18.055185
30
0
11
46.500572
21
-18.055185
31
0
39
0
210
0
220
0
230
1
0
LINE
5
C2
100
AcDbEntity
8
1
62
256
6
ByLayer
370
18
48
1
60
0
100
AcDbLine
10
43.971153
20
-18.055185
30
0
11
44.626379
21
-18.055185
31
0
39
0
210
0
220
0
230
1
0
LINE
5
C3
100
AcDbEntity
8
1
62
256
6
ByLayer
370
18
48
1
60
0
100
AcDbLine
10
35.732656
20
-18.055185
30
0
11
36.568376
21
-18.055185
31
0
39
0
210
0
220
0
230
1
0
LINE
5
C4
100
AcDbEntity
8
1
62
256
6
ByLayer
370
18
48
1
60
0
100
AcDbLine
10
37.79404
20
-18.492637
30
0
11
37.746123
21
-18.492637
31
0
39
0
210
0
220
0
230
1
0
LINE
5
C5
100
AcDbEntity
8
1
62
256
6
ByLayer
370
18
48
1
60
0
100
AcDbLine
10
44.720818
20
-18.525216
30
0
11
44.725593
21
-18.539179
31
0
39
0
210
0
220
0
230
1
0
LINE
5
C6
100
AcDbEntity
8
1
62
256
6
ByLayer
370
18
48
1
60
0
100
AcDbLine
10
39.524272
20
-18.055185
30
0
11
40.416023
21
-18.055185
31
0
39
0
210
0
220
0
230
1
0
LINE
5
C7
100
AcDbEntity
8
1
62
256
6
ByLayer
370
18
48
1
60
0
100
AcDbLine
10
38.620971
20
-18.492637
30
0
11
38.55475
21
-18.492637
31
0
39
0
210
0
220
0
230
1
0
LINE
5
C8
100
AcDbEntity
8
1
62
256
6
ByLayer
370
18
48
1
60
0
100
AcDbLine
10
43.766777
20
-18.515329
30
0
11
43.773561
21
-18.539179
31
0
39
0
210
0
220
0
230
1
0
LINE
5
C9
100
AcDbEntity
8
1
62
256
6
ByLayer
370
18
48
1
60
0
100
AcDbLine
10
34.811691
20
-18.000005
30
0
11
34.870536
21
-18.042859
31
0
39
0
210
0
220
0
230
1
0
LINE
5
CA
100
AcDbEntity
8
1
62
256
6
ByLayer
370
18
48
1
60
0
100
AcDbLine
10
33.373621
20
-18.055185
30
0
11
34.028847
21
-18.055185
31
0
39
0
210
0
220
0
230
1
0
LINE
5
CB
100
AcDbEntity
8
1
62
256
6
ByLayer
370
18
48
1
60
0
100
AcDbLine
10
45.812499
20
-18.055185
30
0
11
46.195206
21
-18.055185
31
0
39
0
210
0
220
0
230
1
0
LINE
5
CC
100
AcDbEntity
8
1
62
256
6
ByLayer
370
18
48
1
60
0
100
AcDbLine
10
43.644085
20
-18.85135
30
0
11
43.63826
21
-18.832897
31
0
39
0
210
0
220
0
230
1
0
LINE
5
CD
100
AcDbEntity
8
1
62
256
6
ByLayer
370
18
48
1
60
0
100
AcDbLine
10
38.47548
20
-18.000005
30
0
11
38.55475
21
-18.492637
31
0
39
0
210
0
220
0
230
1
0
LINE
5
CE
100
AcDbEntity
8
1
62
256
6
ByLayer
370
18
48
1
60
0
100
AcDbLine
10
40.801128
20
-18.85135
30
0
11
40.795516
21
-18.804813
31
0
39
0
210
0
220
0
230
1
0
LINE
5
CF
100
AcDbEntity
8
1
62
256
6
ByLayer
370
18
48
1
60
0
100
AcDbLine
10
45.465261
20
-18.53597
30
0
11
45.466504
21
-18.539179
31
0
39
0
210
0
220
0
230
1
0
LINE
5
D0
100
AcDbEntity
8
1
62
256
6
ByLayer
370
18
48
1
60
0
100
AcDbLine
10
40.253877
20
-18.492637
30
0
11
40.257281
21
-18.539179
31
0
39
0
210
0
220
0
230
1
0
LINE
5
D1
100
AcDbEntity
8
1
62
256
6
ByLayer
370
18
48
1
60
0
100
AcDbLine
10
45.3154
20
-18.532657
30
0
11
45.317865
21
-18.539179
31
0
39
0
210
0
220
0
230
1
0
LINE
5
D2
100
AcDbEntity
8
1
62
256
6
ByLayer
370
18
48
1
60
0
100
AcDbLine
10
36.639705
20
-18.055185
30
0
11
37.510305
21
-18.055185
31
0
39
0
210
0
220
0
230
1
0
LINE
5
D3
100
AcDbEntity
8
1
62
256
6
ByLayer
370
18
48
1
60
0
100
AcDbLine
10
40.489695
20
-18.055185
30
0
11
41.360295
21
-18.055185
31
0
39
0
210
0
220
0
230
1
0
LINE
5
D4
100
AcDbEntity
8
1
62
256
6
ByLayer
370
18
48
1
60
0
100
AcDbLine
10
32.223632
20
-18.055185
30
0
11
32.705255
21
-18.055185
31
0
39
0
210
0
220
0
230
1
0
LINE
5
D5
100
AcDbEntity
8
1
62
256
6
ByLayer
370
18
48
1
60
0
100
AcDbLine
10
39.44525
20
-18.492637
30
0
11
39.379029
21
-18.492637
31
0
39
0
210
0
220
0
230
1
0
LINE
5
D6
100
AcDbEntity
8
1
62
256
6
ByLayer
370
18
48
1
60
0
100
AcDbLine
10
40.795516
20
-18.804813
30
0
11
40.766653
21
-18.804813
31
0
39
0
210
0
220
0
230
1
0
LINE
5
D7
100
AcDbEntity
8
1
62
256
6
ByLayer
370
18
48
1
60
0
100
AcDbLine
10
41.431624
20
-18.055185
30
0
11
42.267344
21
-18.055185
31
0
39
0
210
0
220
0
230
1
0
LINE
5
D8
100
AcDbEntity
8
1
62
256
6
ByLayer
370
18
48
1
60
0
100
AcDbLine
10
32.749338
20
-18.055185
30
0
11
33.32228
21
-18.055185
31
0
39
0
210
0
220
0
230
1
0
LINE
5
D9
100
AcDbEntity
8
1
62
256
6
ByLayer
370
18
48
1
60
0
100
AcDbLine
10
44.680604
20
-18.000005
30
0
11
44.65763
21
-18.012303
31
0
39
0
210
0
220
0
230
1
0
LINE
5
DA
100
AcDbEntity
8
1
62
256
6
ByLayer
370
18
48
1
60
0
100
AcDbLine
10
37.198872
20
-18.85135
30
0
11
37.204484
21
-18.804813
31
0
39
0
210
0
220
0
230
1
0
LINE
5
DB
100
AcDbEntity
8
1
62
256
6
ByLayer
370
18
48
1
60
0
100
AcDbLine
10
43.172903
20
-18.508478
30
0
11
43.18054
21
-18.539179
31
0
39
0
210
0
220
0
230
1
0
LINE
5
DC
100
AcDbEntity
8
1
62
256
6
ByLayer
370
18
48
1
60
0
100
AcDbLine
10
37.746123
20
-18.492637
30
0
11
37.742719
21
-18.539179
31
0
39
0
210
0
220
0
230
1
0
LINE
5
DD
100
AcDbEntity
8
1
62
256
6
ByLayer
370
18
48
1
60
0
100
AcDbLine
10
46.697049
20
-18.055185
30
0
11
46.753488
21
-18.055185
31
0
39
0
210
0
220
0
230
1
0
LINE
5
DE
100
AcDbEntity
8
1
62
256
6
ByLayer
370
18
48
1
60
0
100
AcDbLine
10
43.186189
20
-18.055185
30
0
11
43.913365
21
-18.055185
31
0
39
0
210
0
220
0
230
1
0
LINE
5
DF
100
AcDbEntity
8
1
62
256
6
ByLayer
370
18
48
1
60
0
100
AcDbLine
10
37.509564
20
-18.000005
30
0
11
37.746123
21
-18.492637
31
0
39
0
210
0
220
0
230
1
0
LINE
5
E0
100
AcDbEntity
8
1
62
256
6
ByLayer
370
18
48
1
60
0
100
AcDbLine
10
43.973675
20
-18.000005
30
0
11
43.932452
21
-18.025241
31
0
39
0
210
0
220
0
230
1
0
LINE
5
E1
100
AcDbEntity
8
1
62
256
6
ByLayer
370
18
48
1
60
0
100
AcDbLine
10
42.513221
20
-18.499158
30
0
11
42.521589
21
-18.539179
31
0
39
0
210
0
220
0
230
1
0
LINE
5
E2
100
AcDbEntity
8
1
62
256
6
ByLayer
370
18
48
1
60
0
100
AcDbLine
10
41.799368
20
-18.492637
30
0
11
41.790023
21
-18.492637
31
0
39
0
210
0
220
0
230
1
0
LINE
5
E3
100
AcDbEntity
8
1
62
256
6
ByLayer
370
18
48
1
60
0
100
AcDbLine
10
41.799368
20
-18.492637
30
0
11
41.8071
21
-18.539179
31
0
39
0
210
0
220
0
230
1
0
LINE
5
E4
100
AcDbEntity
8
1
62
256
6
ByLayer
370
18
48
1
60
0
100
AcDbLine
10
31.499428
20
-18.055185
30
0
11
31.777185
21
-18.055185
31
0
39
0
210
0
220
0
230
1
0
LINE
5
E5
100
AcDbEntity
8
1
62
256
6
ByLayer
370
18
48
1
60
0
100
AcDbLine
10
36.200632
20
-18.492637
30
0
11
36.1929
21
-18.539179
31
0
39
0
210
0
220
0
230
1
0
LINE
5
E6
100
AcDbEntity
8
1
62
256
6
ByLayer
370
18
48
1
60
0
100
AcDbLine
10
36.209977
20
-18.492637
30
0
11
36.200632
21
-18.492637
31
0
39
0
210
0
220
0
230
1
0
LINE
5
E7
100
AcDbEntity
8
1
62
256
6
ByLayer
370
18
48
1
60
0
100
AcDbLine
10
43.188309
20
-18.000005
30
0
11
43.129464
21
-18.042859
31
0
39
0
210
0
220
0
230
1
0
LINE
5
E8
100
AcDbEntity
8
1
62
256
6
ByLayer
370
18
48
1
60
0
100
AcDbLine
10
37.233347
20
-18.804813
30
0
11
37.204484
21
-18.804813
31
0
39
0
210
0
220
0
230
1
0
LINE
5
E9
100
AcDbEntity
8
1
62
256
6
ByLayer
370
18
48
1
60
0
100
AcDbLine
10
39
20
17.213809
30
0
11
22.779941
21
17.213809
31
0
39
0
210
0
220
0
230
1
0
LINE
5
EA
100
AcDbEntity
8
1
62
256
6
ByLayer
370
18
48
1
60
0
100
AcDbLine
10
6.663397
20
6.17946
30
0
11
6.663397
21
19.014845
31
0
39
0
210
0
220
0
230
1
0
LINE
5
EB
100
AcDbEntity
8
1
62
256
6
ByLayer
370
18
48
1
60
0
100
AcDbLine
10
6.923205
20
5.86932
30
0
11
6.923205
21
19.112852
31
0
39
0
210
0
220
0
230
1
0
LINE
5
EC
100
AcDbEntity
8
1
62
256
6
ByLayer
370
18
48
1
60
0
100
AcDbLine
10
9.076795
20
5.86932
30
0
11
9.076795
21
19.112852
31
0
39
0
210
0
220
0
230
1
0
LINE
5
ED
100
AcDbEntity
8
1
62
256
6
ByLayer
370
18
48
1
60
0
100
AcDbLine
10
9.336603
20
6.17946
30
0
11
9.336603
21
19.014845
31
0
39
0
210
0
220
0
230
1
0
LINE
5
EE
100
AcDbEntity
8
1
62
256
6
ByLayer
370
18
48
1
60
0
100
AcDbLine
10
6.663397
20
-19.014845
30
0
11
6.663397
21
-6.17946
31
0
39
0
210
0
220
0
230
1
0
LINE
5
EF
100
AcDbEntity
8
1
62
256
6
ByLayer
370
18
48
1
60
0
100
AcDbLine
10
6.923205
20
-19.112852
30
0
11
6.923205
21
-5.86932
31
0
39
0
210
0
220
0
230
1
0
LINE
5
F0
100
AcDbEntity
8
1
62
256
6
ByLayer
370
18
48
1
60
0
100
AcDbLine
10
9.076795
20
-19.112852
30
0
11
9.076795
21
-5.86932
31
0
39
0
210
0
220
0
230
1
0
LINE
5
F1
100
AcDbEntity
8
1
62
256
6
ByLayer
370
18
48
1
60
0
100
AcDbLine
10
9.336603
20
-19.014845
30
0
11
9.336603
21
-6.17946
31
0
39
0
210
0
220
0
230
1
0
LINE
5
F2
100
AcDbEntity
8
1
62
256
6
ByLayer
370
18
48
1
60
0
100
AcDbLine
10
30.5
20
-18
30
0
11
28.50625
21
-19.99375
31
0
39
0
210
0
220
0
230
1
0
LINE
5
F3
100
AcDbEntity
8
1
62
256
6
ByLayer
370
18
48
1
60
0
100
AcDbLine
10
30.5
20
-18
30
0
11
51.8
21
-18
31
0
39
0
210
0
220
0
230
1
0
LINE
5
F4
100
AcDbEntity
8
1
62
256
6
ByLayer
370
18
48
1
60
0
100
AcDbLine
10
0.30375
20
19.99375
30
0
11
0.30375
21
-19.99375
31
0
39
0
210
0
220
0
230
1
0
LINE
5
F5
100
AcDbEntity
8
1
62
256
6
ByLayer
370
18
48
1
60
0
100
AcDbLine
10
0
20
-19.69
30
0
11
0
21
19.69
31
0
39
0
210
0
220
0
230
1
0
LINE
5
F6
100
AcDbEntity
8
1
62
256
6
ByLayer
370
18
48
1
60
0
100
AcDbLine
10
9.076795
20
-5.86932
30
0
11
6.923205
21
-5.86932
31
0
39
0
210
0
220
0
230
1
0
LINE
5
F7
100
AcDbEntity
8
1
62
256
6
ByLayer
370
18
48
1
60
0
100
AcDbLine
10
6.923205
20
-19.112852
30
0
11
9.076795
21
-19.112852
31
0
39
0
210
0
220
0
230
1
0
LINE
5
F8
100
AcDbEntity
8
1
62
256
6
ByLayer
370
18
48
1
60
0
100
AcDbLine
10
9.076795
20
19.112852
30
0
11
6.923205
21
19.112852
31
0
39
0
210
0
220
0
230
1
0
LINE
5
F9
100
AcDbEntity
8
1
62
256
6
ByLayer
370
18
48
1
60
0
100
AcDbLine
10
6.923205
20
5.86932
30
0
11
9.076795
21
5.86932
31
0
39
0
210
0
220
0
230
1
0
LINE
5
FA
100
AcDbEntity
8
1
62
256
6
ByLayer
370
18
48
1
60
0
100
AcDbLine
10
22.779941
20
17.213809
30
0
11
20
21
19.99375
31
0
39
0
210
0
220
0
230
1
0
LINE
5
FB
100
AcDbEntity
8
1
62
256
6
ByLayer
370
18
48
1
60
0
100
AcDbLine
10
39
20
17.213809
30
0
11
51.8
21
13.031145
31
0
39
0
210
0
220
0
230
1
0
LINE
5
FC
100
AcDbEntity
8
1
62
256
6
ByLayer
370
18
48
1
60
0
100
AcDbLine
10
51.8
20
-18
30
0
11
51.8
21
13.031145
31
0
39
0
210
0
220
0
230
1
0
LINE
5
FD
100
AcDbEntity
8
1
62
256
6
ByLayer
370
18
48
1
60
0
100
AcDbLine
10
53
20
12.639021
30
0
11
53
21
-18
31
0
39
0
210
0
220
0
230
1
0
LINE
5
FE
100
AcDbEntity
8
1
62
256
6
ByLayer
370
18
48
1
60
0
100
AcDbLine
10
36.136593
20
9.948265
30
0
11
36.136593
21
9.903215
31
0
39
0
210
0
220
0
230
1
0
LINE
5
FF
100
AcDbEntity
8
1
62
256
6
ByLayer
370
18
48
1
60
0
100
AcDbLine
10
36.136593
20
4.003365
30
0
11
36.136593
21
3.958315
31
0
39
0
210
0
220
0
230
1
0
LINE
5
100
100
AcDbEntity
8
1
62
256
6
ByLayer
370
18
48
1
60
0
100
AcDbLine
10
38.916656
20
5.47005
30
0
11
38.798063
21
5.47005
31
0
39
0
210
0
220
0
230
1
0
LINE
5
101
100
AcDbEntity
8
1
62
256
6
ByLayer
370
18
48
1
60
0
100
AcDbLine
10
33.819937
20
5.47005
30
0
11
33.701344
21
5.47005
31
0
39
0
210
0
220
0
230
1
0
LINE
5
102
100
AcDbEntity
8
1
62
256
6
ByLayer
370
18
48
1
60
0
100
AcDbLine
10
33.701344
20
8.43653
30
0
11
33.819937
21
8.43653
31
0
39
0
210
0
220
0
230
1
0
LINE
5
103
100
AcDbEntity
8
1
62
256
6
ByLayer
370
18
48
1
60
0
100
AcDbLine
10
38.798063
20
8.43653
30
0
11
38.916656
21
8.43653
31
0
39
0
210
0
220
0
230
1
0
LINE
5
104
100
AcDbEntity
8
1
62
256
6
ByLayer
370
18
48
1
60
0
100
AcDbLine
10
34.809
20
6.087265
30
0
11
34.809
21
7.819315
31
0
39
0
210
0
220
0
230
1
0
LINE
5
105
100
AcDbEntity
8
1
62
256
6
ByLayer
370
18
48
1
60
0
100
AcDbLine
10
36.309
20
5.221239
30
0
11
34.809
21
6.087265
31
0
39
0
210
0
220
0
230
1
0
LINE
5
106
100
AcDbEntity
8
1
62
256
6
ByLayer
370
18
48
1
60
0
100
AcDbLine
10
37.809
20
6.087265
30
0
11
36.309
21
5.221239
31
0
39
0
210
0
220
0
230
1
0
LINE
5
107
100
AcDbEntity
8
1
62
256
6
ByLayer
370
18
48
1
60
0
100
AcDbLine
10
37.809
20
7.819315
30
0
11
37.809
21
6.087265
31
0
39
0
210
0
220
0
230
1
0
LINE
5
108
100
AcDbEntity
8
1
62
256
6
ByLayer
370
18
48
1
60
0
100
AcDbLine
10
36.309
20
8.685341
30
0
11
37.809
21
7.819315
31
0
39
0
210
0
220
0
230
1
0
LINE
5
109
100
AcDbEntity
8
1
62
256
6
ByLayer
370
18
48
1
60
0
100
AcDbLine
10
34.809
20
7.819315
30
0
11
36.309
21
8.685341
31
0
39
0
210
0
220
0
230
1
0
LINE
5
10A
100
AcDbEntity
8
1
62
256
6
ByLayer
370
18
48
1
60
0
100
AcDbLine
10
53.002894
20
2.95329
30
0
11
53.002894
21
10.95329
31
0
39
0
210
0
220
0
230
1
0
LINE
5
10B
100
AcDbEntity
8
4
62
256
6
ByLayer
370
18
48
0.05
60
0
100
AcDbLine
10
39
20
15.5
30
0
11
39
21
-19.042972
31
0
39
0
210
0
220
0
230
1
0
LINE
5
10C
100
AcDbEntity
8
4
62
256
6
ByLayer
370
18
48
0.05
60
0
100
AcDbLine
10
39
20
15.5
30
0
11
39
21
25.5
31
0
39
0
210
0
220
0
230
1
0
LINE
5
10D
100
AcDbEntity
8
SK4
62
256
6
ByLayer
370
18
48
0.05
60
0
100
AcDbLine
10
39
20
15.5
30
0
11
39
21
11.352788
31
0
39
0
210
0
220
0
230
1
0
LINE
5
10E
100
AcDbEntity
8
81
62
256
6
ByLayer
370
18
48
0.05
60
0
100
AcDbLine
10
56
20
22.5
30
0
11
65.096212
21
22.5
31
0
39
0
210
0
220
0
230
1
0
LINE
5
10F
100
AcDbEntity
8
SK4
62
256
6
ByLayer
370
18
48
0.05
60
0
100
AcDbLine
10
39
20
15.5
30
0
11
39
21
23.979019
31
0
39
0
210
0
220
0
230
1
0
LINE
5
110
100
AcDbEntity
8
SK4
62
256
6
ByLayer
370
18
48
0.05
60
0
100
AcDbLine
10
39
20
23.979019
30
0
11
39
21
11.352788
31
0
39
0
210
0
220
0
230
1
0
LINE
5
111
100
AcDbEntity
8
2
62
256
6
ByLayer
370
13
48
1
60
0
100
AcDbLine
10
86.077346
20
21.28811
30
0
11
86.208998
21
19.28811
31
0
39
0
210
0
220
0
230
1
0
LINE
5
112
100
AcDbEntity
8
2
62
256
6
ByLayer
370
13
48
1
60
0
100
AcDbLine
10
58
20
22.5
30
0
11
88
21
22.5
31
0
39
0
210
0
220
0
230
1
0
LINE
5
113
100
AcDbEntity
8
2
62
256
6
ByLayer
370
13
48
1
60
0
100
AcDbLine
10
86
20
22.46311
30
0
11
86.417997
21
19.28811
31
0
39
0
210
0
220
0
230
1
0
LINE
5
114
100
AcDbEntity
8
2
62
256
6
ByLayer
370
13
48
1
60
0
100
AcDbLine
10
85.922654
20
21.28811
30
0
11
85.791002
21
19.28811
31
0
39
0
210
0
220
0
230
1
0
LINE
5
115
100
AcDbEntity
8
2
62
256
6
ByLayer
370
13
48
1
60
0
100
AcDbLine
10
86
20
22.46311
30
0
11
85.582003
21
19.28811
31
0
39
0
210
0
220
0
230
1
0
LINE
5
116
100
AcDbEntity
8
2
62
256
6
ByLayer
370
18
48
1
60
0
100
AcDbLine
10
86
20
22.46311
30
0
11
86
21
-27.53689
31
0
39
0
210
0
220
0
230
1
0
LINE
5
117
100
AcDbEntity
8
2
62
256
6
ByLayer
370
13
48
1
60
0
100
AcDbLine
10
85.582003
20
19.28811
30
0
11
86.417997
21
19.28811
31
0
39
0
210
0
220
0
230
1
0
LINE
5
118
100
AcDbEntity
8
1
62
256
6
ByLayer
370
18
48
1
60
0
100
AcDbLine
10
33.544086
20
20.494086
30
0
11
31.2
21
18.15
31
0
39
0
210
0
220
0
230
1
0
LINE
5
119
100
AcDbEntity
8
1
62
256
6
ByLayer
370
18
48
1
60
0
100
AcDbLine
10
52.926498
20
21.76283
30
0
11
44.949807
21
21.24001
31
0
39
0
210
0
220
0
230
1
0
LINE
5
11A
100
AcDbEntity
8
1
62
256
6
ByLayer
370
18
48
1
60
0
100
AcDbLine
10
33.912654
20
20.516597
30
0
11
33.549412
21
20.492789
31
0
39
0
210
0
220
0
230
1
0
LINE
5
11B
100
AcDbEntity
8
1
62
256
6
ByLayer
370
18
48
1
60
0
100
AcDbLine
10
54.191395
20
21.802071
30
0
11
52.924969
21
21.719065
31
0
39
0
210
0
220
0
230
1
0
LINE
5
11C
100
AcDbEntity
8
1
62
256
6
ByLayer
370
18
48
1
60
0
100
AcDbLine
10
52.926498
20
21.76283
30
0
11
52.926482
21
21.762378
31
0
39
0
210
0
220
0
230
1
0
LINE
5
11D
100
AcDbEntity
8
1
62
256
6
ByLayer
370
18
48
1
60
0
100
AcDbLine
10
52.426137
20
20.863464
30
0
11
52.379979
21
21.196872
31
0
39
0
210
0
220
0
230
1
0
LINE
5
11E
100
AcDbEntity
8
1
62
256
6
ByLayer
370
18
48
1
60
0
100
AcDbLine
10
52.820356
20
21.073074
30
0
11
52.846965
21
21.736146
31
0
39
0
210
0
220
0
230
1
0
LINE
5
11F
100
AcDbEntity
8
1
62
256
6
ByLayer
370
18
48
1
60
0
100
AcDbLine
10
49.557497
20
19.599076
30
0
11
49.783073
21
19.45812
31
0
39
0
210
0
220
0
230
1
0
LINE
5
120
100
AcDbEntity
8
1
62
256
6
ByLayer
370
18
48
1
60
0
100
AcDbLine
10
55.116613
20
13.131794
30
0
11
55.129541
21
13.502006
31
0
39
0
210
0
220
0
230
1
0
LINE
5
121
100
AcDbEntity
8
1
62
256
6
ByLayer
370
18
48
1
60
0
100
AcDbLine
10
49.507503
20
19.51907
30
0
11
49.686887
21
19.406979
31
0
39
0
210
0
220
0
230
1
0
LINE
5
122
100
AcDbEntity
8
1
62
256
6
ByLayer
370
18
48
1
60
0
100
AcDbLine
10
52.903963
20
21.117532
30
0
11
52.926482
21
21.762378
31
0
39
0
210
0
220
0
230
1
0
LINE
5
123
100
AcDbEntity
8
1
62
256
6
ByLayer
370
18
48
1
60
0
100
AcDbLine
10
47.930604
20
15.5
30
0
11
47.791385
21
15.5
31
0
39
0
210
0
220
0
230
1
0
LINE
5
124
100
AcDbEntity
8
1
62
256
6
ByLayer
370
18
48
1
60
0
100
AcDbLine
10
55.116613
20
13.131794
30
0
11
48.441218
21
17.303044
31
0
39
0
210
0
220
0
230
1
0
LINE
5
125
100
AcDbEntity
8
1
62
256
6
ByLayer
370
18
48
1
60
0
100
AcDbLine
10
46.268043
20
20.320277
30
0
11
45.981413
21
21.227252
31
0
39
0
210
0
220
0
230
1
0
LINE
5
126
100
AcDbEntity
8
1
62
256
6
ByLayer
370
18
48
1
60
0
100
AcDbLine
10
46.268043
20
20.320277
30
0
11
46.382262
21
19.958856
31
0
39
0
210
0
220
0
230
1
0
LINE
5
127
100
AcDbEntity
8
1
62
256
6
ByLayer
370
18
48
1
60
0
100
AcDbLine
10
47.791385
20
15.5
30
0
11
46.382262
21
19.958856
31
0
39
0
210
0
220
0
230
1
0
LINE
5
128
100
AcDbEntity
8
1
62
256
6
ByLayer
370
18
48
1
60
0
100
AcDbLine
10
49.507503
20
19.51907
30
0
11
49.557497
21
19.599076
31
0
39
0
210
0
220
0
230
1
0
LINE
5
129
100
AcDbEntity
8
1
62
256
6
ByLayer
370
18
48
1
60
0
100
AcDbLine
10
46.382262
20
19.958856
30
0
11
46.382262
21
15.5
31
0
39
0
210
0
220
0
230
1
0
LINE
5
12A
100
AcDbEntity
8
1
62
256
6
ByLayer
370
18
48
1
60
0
100
AcDbLine
10
52
20
13.100502
30
0
11
48.354539
21
15.378438
31
0
39
0
210
0
220
0
230
1
0
LINE
5
12B
100
AcDbEntity
8
1
62
256
6
ByLayer
370
18
48
1
60
0
100
AcDbLine
10
55.106031
20
12.828759
30
0
11
52
21
13.100502
31
0
39
0
210
0
220
0
230
1
0
LINE
5
12C
100
AcDbEntity
8
1
62
256
6
ByLayer
370
18
48
1
60
0
100
AcDbLine
10
55.106031
20
12.828759
30
0
11
55.116613
21
13.131794
31
0
39
0
210
0
220
0
230
1
0
LINE
5
12D
100
AcDbEntity
8
1
62
256
6
ByLayer
370
18
48
1
60
0
100
AcDbLine
10
51.445548
20
21.620604
30
0
11
46.381497
21
21.288688
31
0
39
0
210
0
220
0
230
1
0
LINE
5
12E
100
AcDbEntity
8
1
62
256
6
ByLayer
370
18
48
1
60
0
100
AcDbLine
10
51.563668
20
20.76739
30
0
11
51.445548
21
21.620604
31
0
39
0
210
0
220
0
230
1
0
LINE
5
12F
100
AcDbEntity
8
1
62
256
6
ByLayer
370
18
48
1
60
0
100
AcDbLine
10
49.675637
20
19.774048
30
0
11
51.563668
21
20.76739
31
0
39
0
210
0
220
0
230
1
0
LINE
5
130
100
AcDbEntity
8
1
62
256
6
ByLayer
370
18
48
1
60
0
100
AcDbLine
10
51.563668
20
20.76739
30
0
11
52.379979
21
21.196872
31
0
39
0
210
0
220
0
230
1
0
LINE
5
131
100
AcDbEntity
8
1
62
256
6
ByLayer
370
18
48
1
60
0
100
AcDbLine
10
47.41132
20
18.978845
30
0
11
48.30031
21
19.779295
31
0
39
0
210
0
220
0
230
1
0
LINE
5
132
100
AcDbEntity
8
1
62
256
6
ByLayer
370
18
48
1
60
0
100
AcDbLine
10
39.7
20
18.876108
30
0
11
39.7
21
18.872068
31
0
39
0
210
0
220
0
230
1
0
LINE
5
133
100
AcDbEntity
8
1
62
256
6
ByLayer
370
18
48
1
60
0
100
AcDbLine
10
47.628187
20
17.343816
30
0
11
48.229149
21
15.442207
31
0
39
0
210
0
220
0
230
1
0
LINE
5
134
100
AcDbEntity
8
1
62
256
6
ByLayer
370
18
48
1
60
0
100
AcDbLine
10
46.381497
20
21.288688
30
0
11
47.19779
21
18.705711
31
0
39
0
210
0
220
0
230
1
0
LINE
5
135
100
AcDbEntity
8
1
62
256
6
ByLayer
370
18
48
1
60
0
100
AcDbLine
10
47.791385
20
15.5
30
0
11
46.382262
21
15.5
31
0
39
0
210
0
220
0
230
1
0
LINE
5
136
100
AcDbEntity
8
1
62
256
6
ByLayer
370
18
48
1
60
0
100
AcDbLine
10
39.7
20
18.86886
30
0
11
39.7
21
18.872068
31
0
39
0
210
0
220
0
230
1
0
LINE
5
137
100
AcDbEntity
8
1
62
256
6
ByLayer
370
18
48
1
60
0
100
AcDbLine
10
49.49936
20
19.884199
30
0
11
49.675637
21
19.774048
31
0
39
0
210
0
220
0
230
1
0
LINE
5
138
100
AcDbEntity
8
1
62
256
6
ByLayer
370
18
48
1
60
0
100
AcDbLine
10
55.41662
20
22.45353
30
0
11
48.127928
21
18.578064
31
0
39
0
210
0
220
0
230
1
0
LINE
5
139
100
AcDbEntity
8
1
62
256
6
ByLayer
370
18
48
1
60
0
100
AcDbLine
10
55.711664
20
13.839219
30
0
11
55.999758
21
22.089145
31
0
39
0
210
0
220
0
230
1
0
LINE
5
13A
100
AcDbEntity
8
1
62
256
6
ByLayer
370
18
48
1
60
0
100
AcDbLine
10
48.10393
20
17.890859
30
0
11
55.104528
21
13.516399
31
0
39
0
210
0
220
0
230
1
0
LINE
5
13B
100
AcDbEntity
8
1
62
256
6
ByLayer
370
18
48
1
60
0
100
AcDbLine
10
31.2
20
18.150299
30
0
11
31.2
21
17.213809
31
0
39
0
210
0
220
0
230
1
0
LINE
5
13C
100
AcDbEntity
8
1
62
256
6
ByLayer
370
18
48
1
60
0
100
AcDbLine
10
46.382262
20
15.5
30
0
11
44.244685
21
15.5
31
0
39
0
210
0
220
0
230
1
0
LINE
5
13D
100
AcDbEntity
8
1
62
256
6
ByLayer
370
18
48
1
60
0
100
AcDbLine
10
44.244685
20
15.5
30
0
11
46.85
21
15.5
31
0
39
0
210
0
220
0
230
1
0
LINE
5
13E
100
AcDbEntity
8
1
62
256
6
ByLayer
370
18
48
1
60
0
100
AcDbLine
10
44.703723
20
15.35
30
0
11
47
21
15.35
31
0
39
0
210
0
220
0
230
1
0
MTEXT
5
237
100
AcDbEntity
8
SK6
62
256
6
ByLayer
370
18
48
1
60
0
100
AcDbMText
10
60.625
20
29.375
30
0
210
0
220
0
230
1
1
\W0.7610;826-45TC09-C4HP
40
2.5
41
0
44
1.084337
50
0
71
7
72
5
7
iso_b_vert
0
MTEXT
5
23B
100
AcDbEntity
8
2
62
256
6
ByLayer
370
18
48
1
60
0
100
AcDbMText
10
85.622915
20
-22.517884
30
0
210
0
220
0
230
1
1
\W0.8054;Dc = 44.45 - 45.55
40
3
41
0
44
1.084337
50
89.9999999999994
71
7
72
5
7
iso_b_vert
0
DIMENSION
5
245
100
AcDbEntity
8
SK2
62
256
6
ByLayer
370
13
48
1
60
0
100
AcDbDimension
2
DimnDraft3D1
10
-34.479978
20
19.99375
30
0
11
-33.979978
21
-4.231579
31
0
70
33
71
5
72
1
41
1
210
0
220
0
230
1
3
Standard
100
AcDbAlignedDimension
13
-1.69625
23
-19.99375
33
0
14
-1.69625
24
19.99375
34
0
1001
ACAD
1000
DSTYLE
1002
{
1070
   279
1070
     0
1070
    74
1070
     0
1070
   173
1070
     1
1070
   340
1005
238
1070
   271
1070
     1
1070
    77
1070
     1
1070
    73
1070
     0
1070
   171
1070
     4
1070
   274
1070
     4
1070
   177
1070
     7
1070
   176
1070
     7
1070
   178
1070
     7
1070
    78
1070
     8
1070
    41
1041
3.175
1070
   147
1041
1.5
1070
    42
1041
2.0
1070
    44
1041
2.0
1070
   140
1041
3.0
1070
   343
1005
0
1070
   344
1005
0
1002
}
0
DIMENSION
5
24F
100
AcDbEntity
8
SK2
62
256
6
ByLayer
370
13
48
1
60
0
100
AcDbDimension
2
DimnDraft3D2
10
39
20
-31.5
30
0
11
16.057895
21
-31.5
31
0
70
32
71
5
72
1
41
1
210
0
220
0
230
1
3
Standard
100
AcDbAlignedDimension
13
0
23
-21.69
33
0
14
39
24
-24.006082
34
0
50
0
100
AcDbRotatedDimension
1001
ACAD
1000
DSTYLE
1002
{
1070
   279
1070
     0
1070
   172
1070
     1
1070
   173
1070
     1
1070
   340
1005
238
1070
   271
1070
     1
1070
    77
1070
     1
1070
    73
1070
     0
1070
   171
1070
     4
1070
   274
1070
     4
1070
   177
1070
     7
1070
   176
1070
     7
1070
   178
1070
     7
1070
    41
1041
3.175
1070
   147
1041
1.5
1070
    42
1041
2.0
1070
    44
1041
2.0
1070
   140
1041
3.0
1070
   343
1005
0
1070
   344
1005
0
1002
}
0
DIMENSION
5
259
100
AcDbEntity
8
SK2
62
256
6
ByLayer
370
13
48
1
60
0
100
AcDbDimension
2
DimnDraft3D3
10
53
20
-46.5
30
0
11
23.057895
21
-46.5
31
0
70
32
71
5
72
1
41
1
210
0
220
0
230
1
3
Standard
100
AcDbAlignedDimension
13
0
23
-21.69
33
0
14
53
24
-20
34
0
50
0
100
AcDbRotatedDimension
1001
ACAD
1000
DSTYLE
1002
{
1070
   279
1070
     0
1070
   172
1070
     1
1070
   173
1070
     1
1070
   340
1005
238
1070
   271
1070
     1
1070
    77
1070
     1
1070
    73
1070
     0
1070
   171
1070
     4
1070
   274
1070
     4
1070
   177
1070
     7
1070
   176
1070
     7
1070
   178
1070
     7
1070
    41
1041
3.175
1070
   147
1041
1.5
1070
    42
1041
2.0
1070
    44
1041
2.0
1070
   140
1041
3.0
1070
   343
1005
0
1070
   344
1005
0
1002
}
0
DIMENSION
5
263
100
AcDbEntity
8
SK2
62
256
6
ByLayer
370
13
48
1
60
0
100
AcDbDimension
2
DimnDraft3D4
10
53
20
-61.5
30
0
11
11.057895
21
-61.5
31
0
70
32
71
5
72
1
41
1
210
0
220
0
230
1
3
Standard
100
AcDbAlignedDimension
13
-24
23
-14.631506
33
0
14
53
24
-20
34
0
50
0
100
AcDbRotatedDimension
1001
ACAD
1000
DSTYLE
1002
{
1070
   279
1070
     0
1070
   172
1070
     1
1070
   173
1070
     1
1070
   340
1005
238
1070
   271
1070
     1
1070
    77
1070
     1
1070
    73
1070
     0
1070
   171
1070
     4
1070
   274
1070
     4
1070
   177
1070
     7
1070
   176
1070
     7
1070
   178
1070
     7
1070
    41
1041
3.175
1070
   147
1041
1.5
1070
    42
1041
2.0
1070
    44
1041
2.0
1070
   140
1041
3.0
1070
   343
1005
0
1070
   344
1005
0
1002
}
0
DIMENSION
5
26D
100
AcDbEntity
8
2
62
256
6
ByLayer
370
13
48
1
60
0
100
AcDbDimension
2
DimnDraft3D5
10
56
20
58.5
30
0
11
24.557895
21
58.5
31
0
70
32
71
5
72
1
41
1
210
0
220
0
230
1
3
Standard
100
AcDbAlignedDimension
13
0
23
21.69
33
0
14
56
24
24.50001
34
0
50
0
100
AcDbRotatedDimension
1001
ACAD
1000
DSTYLE
1002
{
1070
   279
1070
     0
1070
   172
1070
     1
1070
   173
1070
     1
1070
   340
1005
238
1070
   271
1070
     1
1070
    77
1070
     1
1070
    73
1070
     0
1070
   171
1070
     4
1070
   274
1070
     4
1070
   177
1070
     7
1070
   176
1070
     7
1070
   178
1070
     7
1070
    41
1041
3.175
1070
   147
1041
1.5
1070
    42
1041
2.0
1070
    44
1041
2.0
1070
   140
1041
3.0
1070
   343
1005
0
1070
   344
1005
0
1002
}
0
DIMENSION
5
277
100
AcDbEntity
8
2
62
256
6
ByLayer
370
13
48
1
60
0
100
AcDbDimension
2
DimnDraft3D6
10
57
20
22.5
30
0
11
63.070169
21
15.193233
31
0
70
34
71
5
72
1
41
1
210
0
220
0
230
1
3
Standard
100
AcDb2LineAngularDimension
13
55.711664
23
13.839219
33
0
14
55.999758
24
22.089145
34
0
15
56
25
22.5
35
0
16
65.154144
26
13.035213
36
0
40
0
0
ENDSEC
0
SECTION
2
OBJECTS
0
DICTIONARY
5
2e2
330
0
100
AcDbDictionary
280
0
281
1
3
ACAD_GROUP
350
2e3
3
ACAD_MLINESTYLE
350
2e4
0
DICTIONARY
5
2e3
330
0
100
AcDbDictionary
280
0
281
1
0
DICTIONARY
5
2e4
330
0
100
AcDbDictionary
280
0
281
1
3
Standard
350
18
0
MLINESTYLE
5
18
330
2e4
100
AcDbMlineStyle
2
Standard
70
0
3

62
256
51
90
52
90
71
2
49
-0.5
62
256
6
ByLayer
49
0.5
62
256
6
ByLayer
0
RASTERVARIABLES
5
2d0
330

100
AcDbRasterVariables
90
0
70
1
71
1
72
1
0
ENDSEC
0
EOF
