0
SECTION
2
HEADER
9
$ACADVER
1
AC1015
9
$DWGCODEPAGE
3
ANSI_1252
9
$HANDSEED
5
179
9
$ANGBASE
50
0
9
$ANGDIR
70
0
9
$ATTMODE
70
1
9
$AUNITS
70
0
9
$AUPREC
70
0
9
$CECOLOR
62
256
9
$CELTSCALE
40
1
9
$CELTYPE
6
ByLayer
9
$CELWEIGHT
370
-1
9
$CLAYER
8
0
9
$CMLJUST
70
0
9
$CMLSCALE
40
1
9
$CMLSTYLE
2
Standard
9
$DIMSTYLE
2
Standard
9
$TEXTSIZE
40
0.2
9
$TEXTSTYLE
7
Standard
9
$LUNITS
70
2
9
$LUPREC
70
4
9
$EXTNAMES
290
1
9
$INSUNITS
70
4
9
$LTSCALE
40
1
9
$LWDISPLAY
290
0
9
$PDMODE
70
0
9
$PDSIZE
40
0
9
$PLINEGEN
70
0
0
ENDSEC
0
SECTION
2
CLASSES
0
CLASS
1
RASTERVARIABLES
2
AcDbRasterVariables
3
ISM
90
0
280
0
281
0
0
ENDSEC
0
SECTION
2
TABLES
0
TABLE
2
VPORT
5
16f
100
AcDbSymbolTable
0
VPORT
5
1
100
AcDbSymbolTableRecord
100
AcDbViewportTableRecord
2
*Active
70
0
10
0
20
0
11
1
21
1
12
-1
22
1
13
0
23
0
14
0.5
24
0.5
15
10
25
10
16
0
26
0
36
1
17
0
27
0
37
0
0
ENDTAB
0
TABLE
2
LTYPE
5
170
100
AcDbSymbolTable
0
LTYPE
5
14
100
AcDbSymbolTableRecord
100
AcDbLinetypeTableRecord
70
0
2
ByBlock
3

72
65
73
0
40
0
0
LTYPE
5
15
100
AcDbSymbolTableRecord
100
AcDbLinetypeTableRecord
70
0
2
ByLayer
3

72
65
73
0
40
0
0
LTYPE
5
16
100
AcDbSymbolTableRecord
100
AcDbLinetypeTableRecord
70
0
2
CONTINUOUS
3
Solid line
72
65
73
0
40
0
0
LTYPE
5
3B
100
AcDbSymbolTableRecord
100
AcDbLinetypeTableRecord
70
0
2
DASHED
3
__ __ __ __ __ __ __ __ __
72
65
73
2
40
25.72
49
12.86
74
0
49
-12.86
74
0
0
LTYPE
5
3C
100
AcDbSymbolTableRecord
100
AcDbLinetypeTableRecord
70
0
2
HIDDEN
3
_ _ _ _ _ _ _ _ _ _ _ _ _ _ _
72
65
73
2
40
0.5
49
0.25
74
0
49
-0.25
74
0
0
LTYPE
5
3D
100
AcDbSymbolTableRecord
100
AcDbLinetypeTableRecord
70
0
2
PHANTOM
3
____ _ _ ____ _ _ _____ _ _ ____
72
65
73
6
40
50.5
49
18
74
0
49
-6.5
74
0
49
6.5
74
0
49
-6.5
74
0
49
6.5
74
0
49
-6.5
74
0
0
LTYPE
5
3E
100
AcDbSymbolTableRecord
100
AcDbLinetypeTableRecord
70
0
2
CENTER
3
____ _ ____ _ ____ _ ____
72
65
73
4
40
47.5
49
22
74
0
49
-8.5
74
0
49
8.5
74
0
49
-8.5
74
0
0
LTYPE
5
3F
100
AcDbSymbolTableRecord
100
AcDbLinetypeTableRecord
70
0
2
DOT
3
.........................
72
65
73
2
40
10
49
0
74
0
49
-10
74
0
0
LTYPE
5
40
100
AcDbSymbolTableRecord
100
AcDbLinetypeTableRecord
70
0
2
DASHDOT
3
_._._._._._._._._._._._._._._._.
72
65
73
4
40
70
49
31
74
0
49
-13
74
0
49
13
74
0
49
-13
74
0
0
ENDTAB
0
TABLE
2
LAYER
5
171
100
AcDbSymbolTable
0
LAYER
5
10
100
AcDbSymbolTableRecord
100
AcDbLayerTableRecord
2
0
70
0
62
7
6
CONTINUOUS
290
1
370
-3
390
0
0
LAYER
5
42
100
AcDbSymbolTableRecord
100
AcDbLayerTableRecord
2
80
70
0
62
-6
6
CONTINUOUS
290
1
370
-3
390
0
0
LAYER
5
44
100
AcDbSymbolTableRecord
100
AcDbLayerTableRecord
2
81
70
0
62
-3
6
CONTINUOUS
290
1
370
-3
390
0
0
LAYER
5
46
100
AcDbSymbolTableRecord
100
AcDbLayerTableRecord
2
1
70
0
62
4
6
CONTINUOUS
290
1
370
-3
390
0
0
LAYER
5
48
100
AcDbSymbolTableRecord
100
AcDbLayerTableRecord
2
2
70
0
62
7
6
CONTINUOUS
290
1
370
-3
390
0
0
LAYER
5
4E
100
AcDbSymbolTableRecord
100
AcDbLayerTableRecord
2
4
70
0
62
-2
6
CENTER
290
1
370
-3
390
0
0
LAYER
5
15b
100
AcDbSymbolTableRecord
100
AcDbLayerTableRecord
2
SK4
70
0
62
2
6
CENTER
290
1
370
-3
390
0
0
LAYER
5
15c
100
AcDbSymbolTableRecord
100
AcDbLayerTableRecord
2
SK1
70
0
62
4
6
CONTINUOUS
290
1
370
-3
390
0
0
LAYER
5
15d
100
AcDbSymbolTableRecord
100
AcDbLayerTableRecord
2
SK6
70
0
62
5
6
CONTINUOUS
290
1
370
-3
390
0
0
LAYER
5
15e
100
AcDbSymbolTableRecord
100
AcDbLayerTableRecord
2
SK2
70
0
62
7
6
CONTINUOUS
290
1
370
-3
390
0
0
ENDTAB
0
TABLE
2
STYLE
5
172
100
AcDbSymbolTable
0
STYLE
5
11
100
AcDbSymbolTableRecord
100
AcDbTextStyleTableRecord
2
Standard
3
txt
70
0
71
0
40
0
41
1
42
0
50
0
0
STYLE
5
D7
100
AcDbSymbolTableRecord
100
AcDbTextStyleTableRecord
2
DEFAULT
3
simplex.shx
70
0
71
0
40
0
41
1
42
0
50
0
0
STYLE
5
FA
100
AcDbSymbolTableRecord
100
AcDbTextStyleTableRecord
2
DWGDirectTextStyle
3
SIMPLEX
70
0
71
0
40
0
41
1
42
0
50
0
0
ENDTAB
0
TABLE
2
DIMSTYLE
5
173
100
AcDbSymbolTable
100
AcDbDimStyleTable
0
DIMSTYLE
105
27
100
AcDbSymbolTableRecord
100
AcDbDimStyleTableRecord
2
Standard
70
0
3
<>
41
0.18
42
0.0625
44
0.18
140
0.18
147
0.09
73
0
74
0
77
1
271
2
275
0
278
52
280
0
340
11
0
ENDTAB
0
TABLE
2
VIEW
5
174
100
AcDbSymbolTable
0
ENDTAB
0
TABLE
2
UCS
5
175
100
AcDbSymbolTable
0
ENDTAB
0
TABLE
2
APPID
5
176
100
AcDbSymbolTable
0
APPID
5
12
100
AcDbSymbolTableRecord
100
AcDbRegAppTableRecord
2
ACAD
70
0
0
ENDTAB
0
TABLE
2
BLOCK_RECORD
5
177
100
AcDbSymbolTable
0
BLOCK_RECORD
5
1F
100
AcDbSymbolTableRecord
100
AcDbBlockTableRecord
2
*Model_Space
340
0
70
0
0
BLOCK_RECORD
5
1B
100
AcDbSymbolTableRecord
100
AcDbBlockTableRecord
2
*Paper_Space
340
0
70
0
0
BLOCK_RECORD
5
23
100
AcDbSymbolTableRecord
100
AcDbBlockTableRecord
2
*Paper_Space0
340
0
70
0
0
BLOCK_RECORD
5
FC
100
AcDbSymbolTableRecord
100
AcDbBlockTableRecord
2
DimnDraft3D1
340
0
70
0
0
BLOCK_RECORD
5
10B
100
AcDbSymbolTableRecord
100
AcDbBlockTableRecord
2
_CLOSED
340
0
70
0
0
BLOCK_RECORD
5
112
100
AcDbSymbolTableRecord
100
AcDbBlockTableRecord
2
DimnDraft3D2
340
0
70
0
0
BLOCK_RECORD
5
120
100
AcDbSymbolTableRecord
100
AcDbBlockTableRecord
2
DimnDraft3D3
340
0
70
0
0
BLOCK_RECORD
5
12E
100
AcDbSymbolTableRecord
100
AcDbBlockTableRecord
2
DimnDraft3D4
340
0
70
0
0
ENDTAB
0
ENDSEC
0
SECTION
2
BLOCKS
0
BLOCK
5
20
100
AcDbEntity
8
0
100
AcDbBlockBegin
2
*Model_Space
70
0
10
0
20
0
30
0
3
*Model_Space
0
ENDBLK
5
21
100
AcDbEntity
8
0
100
AcDbBlockEnd
0
BLOCK
5
1C
100
AcDbEntity
8
0
100
AcDbBlockBegin
2
*Paper_Space
70
0
10
0
20
0
30
0
3
*Paper_Space
0
ENDBLK
5
1D
100
AcDbEntity
8
0
100
AcDbBlockEnd
0
BLOCK
5
24
100
AcDbEntity
8
0
100
AcDbBlockBegin
2
*Paper_Space0
70
0
10
0
20
0
30
0
3
*Paper_Space0
0
ENDBLK
5
25
100
AcDbEntity
8
0
100
AcDbBlockEnd
0
BLOCK
5
108
100
AcDbEntity
8
0
100
AcDbBlockBegin
2
DimnDraft3D1
70
0
10
0
20
0
30
0
3
DimnDraft3D1
0
MTEXT
5
FD
100
AcDbEntity
8
SK2
62
256
6
ByLayer
370
-1
48
1
60
0
100
AcDbMText
10
-10.875
20
-3.096711
30
0
210
0
220
0
230
1
1
\W01.000;\fsimplex.shx,bigfont.shx;%%c16 
40
4.5
41
0
44
1.084337
50
90
71
7
72
5
7
DEFAULT
0
LINE
5
FF
100
AcDbEntity
8
SK2
62
256
6
ByLayer
370
-1
48
1
60
0
100
AcDbLine
10
-2
20
-8
30
0
11
-11.75
21
-8
31
0
39
0
210
0
220
0
230
1
0
LINE
5
100
100
AcDbEntity
8
SK2
62
256
6
ByLayer
370
-1
48
1
60
0
100
AcDbLine
10
-2
20
8
30
0
11
-11.75
21
8
31
0
39
0
210
0
220
0
230
1
0
LINE
5
101
100
AcDbEntity
8
SK2
62
256
6
ByLayer
370
-1
48
1
60
0
100
AcDbLine
10
-9.75
20
-19.25
30
0
11
-9.75
21
19.25
31
0
39
0
210
0
220
0
230
1
0
LINE
5
102
100
AcDbEntity
8
SK2
62
256
6
ByLayer
370
-1
48
1
60
0
100
AcDbLine
10
-9.75
20
-8
30
0
11
-9.332003
21
-11.174998
31
0
39
0
210
0
220
0
230
1
0
LINE
5
103
100
AcDbEntity
8
SK2
62
256
6
ByLayer
370
-1
48
1
60
0
100
AcDbLine
10
-9.75
20
-8
30
0
11
-10.167997
21
-11.175002
31
0
39
0
210
0
220
0
230
1
0
LINE
5
104
100
AcDbEntity
8
SK2
62
256
6
ByLayer
370
-1
48
1
60
0
100
AcDbLine
10
-9.332003
20
-11.174998
30
0
11
-10.167997
21
-11.175002
31
0
39
0
210
0
220
0
230
1
0
LINE
5
105
100
AcDbEntity
8
SK2
62
256
6
ByLayer
370
-1
48
1
60
0
100
AcDbLine
10
-9.75
20
8
30
0
11
-10.167997
21
11.174998
31
0
39
0
210
0
220
0
230
1
0
LINE
5
106
100
AcDbEntity
8
SK2
62
256
6
ByLayer
370
-1
48
1
60
0
100
AcDbLine
10
-9.75
20
8
30
0
11
-9.332003
21
11.175002
31
0
39
0
210
0
220
0
230
1
0
LINE
5
107
100
AcDbEntity
8
SK2
62
256
6
ByLayer
370
-1
48
1
60
0
100
AcDbLine
10
-10.167997
20
11.174998
30
0
11
-9.332003
21
11.175002
31
0
39
0
210
0
220
0
230
1
0
ENDBLK
5
109
100
AcDbEntity
8
0
100
AcDbBlockEnd
0
BLOCK
5
10C
100
AcDbEntity
8
0
100
AcDbBlockBegin
2
_CLOSED
70
0
10
0
20
0
30
0
3
_CLOSED
0
LINE
5
10E
100
AcDbEntity
8
0
62
256
6
ByLayer
370
-2
48
1
60
0
100
AcDbLine
10
-1
20
0.166667
30
0
11
0
21
0
31
0
39
0
210
0
220
0
230
1
0
LINE
5
10F
100
AcDbEntity
8
0
62
256
6
ByLayer
370
-2
48
1
60
0
100
AcDbLine
10
0
20
0
30
0
11
-1
21
-0.166667
31
0
39
0
210
0
220
0
230
1
0
LINE
5
110
100
AcDbEntity
8
0
62
256
6
ByLayer
370
-2
48
1
60
0
100
AcDbLine
10
-1
20
0.166667
30
0
11
-1
21
-0.166667
31
0
39
0
210
0
220
0
230
1
0
LINE
5
111
100
AcDbEntity
8
0
62
256
6
ByLayer
370
-2
48
1
60
0
100
AcDbLine
10
0
20
0
30
0
11
-1
21
0
31
0
39
0
210
0
220
0
230
1
0
ENDBLK
5
10D
100
AcDbEntity
8
0
100
AcDbBlockEnd
0
BLOCK
5
11D
100
AcDbEntity
8
0
100
AcDbBlockBegin
2
DimnDraft3D2
70
0
10
0
20
0
30
0
3
DimnDraft3D2
0
MTEXT
5
113
100
AcDbEntity
8
2
62
256
6
ByLayer
370
-1
48
1
60
0
100
AcDbMText
10
31.125
20
22.28
30
0
210
0
220
0
230
1
1
\W01.000;\fsimplex.shx,bigfont.shx;11.0 
40
4.5
41
0
44
1.084337
50
90
71
7
72
5
7
DEFAULT
0
LINE
5
114
100
AcDbEntity
8
2
62
256
6
ByLayer
370
-1
48
1
60
0
100
AcDbLine
10
22
20
10.9
30
0
11
34.25
21
10.9
31
0
39
0
210
0
220
0
230
1
0
LINE
5
115
100
AcDbEntity
8
2
62
256
6
ByLayer
370
-1
48
1
60
0
100
AcDbLine
10
22
20
0
30
0
11
34.25
21
0
31
0
39
0
210
0
220
0
230
1
0
LINE
5
116
100
AcDbEntity
8
2
62
256
6
ByLayer
370
-1
48
1
60
0
100
AcDbLine
10
32.25
20
0
30
0
11
32.25
21
29.231316
31
0
39
0
210
0
220
0
230
1
0
LINE
5
117
100
AcDbEntity
8
2
62
256
6
ByLayer
370
-1
48
1
60
0
100
AcDbLine
10
32.25
20
10.9
30
0
11
32.667997
21
7.725002
31
0
39
0
210
0
220
0
230
1
0
LINE
5
118
100
AcDbEntity
8
2
62
256
6
ByLayer
370
-1
48
1
60
0
100
AcDbLine
10
32.25
20
10.9
30
0
11
31.832003
21
7.724998
31
0
39
0
210
0
220
0
230
1
0
LINE
5
119
100
AcDbEntity
8
2
62
256
6
ByLayer
370
-1
48
1
60
0
100
AcDbLine
10
32.667997
20
7.725002
30
0
11
31.832003
21
7.724998
31
0
39
0
210
0
220
0
230
1
0
LINE
5
11A
100
AcDbEntity
8
2
62
256
6
ByLayer
370
-1
48
1
60
0
100
AcDbLine
10
32.25
20
0
30
0
11
31.832003
21
3.174998
31
0
39
0
210
0
220
0
230
1
0
LINE
5
11B
100
AcDbEntity
8
2
62
256
6
ByLayer
370
-1
48
1
60
0
100
AcDbLine
10
32.25
20
0
30
0
11
32.667997
21
3.175002
31
0
39
0
210
0
220
0
230
1
0
LINE
5
11C
100
AcDbEntity
8
2
62
256
6
ByLayer
370
-1
48
1
60
0
100
AcDbLine
10
31.832003
20
3.174998
30
0
11
32.667997
21
3.175002
31
0
39
0
210
0
220
0
230
1
0
ENDBLK
5
11E
100
AcDbEntity
8
0
100
AcDbBlockEnd
0
BLOCK
5
12B
100
AcDbEntity
8
0
100
AcDbBlockBegin
2
DimnDraft3D3
70
0
10
0
20
0
30
0
3
DimnDraft3D3
0
MTEXT
5
121
100
AcDbEntity
8
2
62
256
6
ByLayer
370
-1
48
1
60
0
100
AcDbMText
10
5.961842
20
24.775
30
0
210
0
220
0
230
1
1
\W01.000;\fsimplex.shx,bigfont.shx;20.0 
40
4.5
41
0
44
1.084337
50
0
71
7
72
5
7
DEFAULT
0
LINE
5
122
100
AcDbEntity
8
2
62
256
6
ByLayer
370
-1
48
1
60
0
100
AcDbLine
10
0
20
10
30
0
11
0
21
25.65
31
0
39
0
210
0
220
0
230
1
0
LINE
5
123
100
AcDbEntity
8
2
62
256
6
ByLayer
370
-1
48
1
60
0
100
AcDbLine
10
20
20
12.9
30
0
11
20
21
25.65
31
0
39
0
210
0
220
0
230
1
0
LINE
5
124
100
AcDbEntity
8
2
62
256
6
ByLayer
370
-1
48
1
60
0
100
AcDbLine
10
-11.25
20
23.65
30
0
11
31.25
21
23.65
31
0
39
0
210
0
220
0
230
1
0
LINE
5
125
100
AcDbEntity
8
2
62
256
6
ByLayer
370
-1
48
1
60
0
100
AcDbLine
10
0
20
23.65
30
0
11
-3.174998
21
23.232003
31
0
39
0
210
0
220
0
230
1
0
LINE
5
126
100
AcDbEntity
8
2
62
256
6
ByLayer
370
-1
48
1
60
0
100
AcDbLine
10
0
20
23.65
30
0
11
-3.175002
21
24.067997
31
0
39
0
210
0
220
0
230
1
0
LINE
5
127
100
AcDbEntity
8
2
62
256
6
ByLayer
370
-1
48
1
60
0
100
AcDbLine
10
-3.174998
20
23.232003
30
0
11
-3.175002
21
24.067997
31
0
39
0
210
0
220
0
230
1
0
LINE
5
128
100
AcDbEntity
8
2
62
256
6
ByLayer
370
-1
48
1
60
0
100
AcDbLine
10
20
20
23.65
30
0
11
23.174998
21
24.067997
31
0
39
0
210
0
220
0
230
1
0
LINE
5
129
100
AcDbEntity
8
2
62
256
6
ByLayer
370
-1
48
1
60
0
100
AcDbLine
10
20
20
23.65
30
0
11
23.175002
21
23.232003
31
0
39
0
210
0
220
0
230
1
0
LINE
5
12A
100
AcDbEntity
8
2
62
256
6
ByLayer
370
-1
48
1
60
0
100
AcDbLine
10
23.174998
20
24.067997
30
0
11
23.175002
21
23.232003
31
0
39
0
210
0
220
0
230
1
0
ENDBLK
5
12C
100
AcDbEntity
8
0
100
AcDbBlockEnd
0
BLOCK
5
139
100
AcDbEntity
8
0
100
AcDbBlockBegin
2
DimnDraft3D4
70
0
10
0
20
0
30
0
3
DimnDraft3D4
0
MTEXT
5
12F
100
AcDbEntity
8
2
62
256
6
ByLayer
370
-1
48
1
60
0
100
AcDbMText
10
46.12156
20
-37.312521
30
0
210
0
220
0
230
1
1
\W01.000;\fsimplex.shx,bigfont.shx;95%%d0' 
40
4.5
41
0
44
1.084337
50
42.5000000000001
71
7
72
5
7
DEFAULT
0
LINE
5
130
100
AcDbEntity
8
2
62
256
6
ByLayer
370
-1
48
1
60
0
100
AcDbLine
10
19.477066
20
4.922832
30
0
11
14.782156
21
-48.740227
31
0
39
0
210
0
220
0
230
1
0
LINE
5
131
100
AcDbEntity
8
2
62
256
6
ByLayer
370
-1
48
1
60
0
100
AcDbLine
10
22
20
0
30
0
11
67.97278
21
0
31
0
39
0
210
0
220
0
230
1
0
ARC
5
132
100
AcDbEntity
8
2
62
256
6
ByLayer
370
-1
48
1
60
0
100
AcDbCircle
39
0
10
19.046374
20
0
30
0
40
46.9264068782928
210
0
220
0
230
1
100
AcDbArc
50
265
51
0
0
LINE
5
133
100
AcDbEntity
8
2
62
256
6
ByLayer
370
-1
48
1
60
0
100
AcDbLine
10
14.956468
20
-46.747838
30
0
11
18.152996
21
-46.554078
31
0
39
0
210
0
220
0
230
1
0
LINE
5
134
100
AcDbEntity
8
2
62
256
6
ByLayer
370
-1
48
1
60
0
100
AcDbLine
10
14.956468
20
-46.747838
30
0
11
18.094229
21
-47.388003
31
0
39
0
210
0
220
0
230
1
0
LINE
5
135
100
AcDbEntity
8
2
62
256
6
ByLayer
370
-1
48
1
60
0
100
AcDbLine
10
18.152996
20
-46.554078
30
0
11
18.094229
21
-47.388003
31
0
39
0
210
0
220
0
230
1
0
LINE
5
136
100
AcDbEntity
8
2
62
256
6
ByLayer
370
-1
48
1
60
0
100
AcDbLine
10
65.97278
20
0
30
0
11
66.337036
21
-3.181612
31
0
39
0
210
0
220
0
230
1
0
LINE
5
137
100
AcDbEntity
8
2
62
256
6
ByLayer
370
-1
48
1
60
0
100
AcDbLine
10
65.97278
20
0
30
0
11
65.501162
21
-3.16748
31
0
39
0
210
0
220
0
230
1
0
LINE
5
138
100
AcDbEntity
8
2
62
256
6
ByLayer
370
-1
48
1
60
0
100
AcDbLine
10
66.337036
20
-3.181612
30
0
11
65.501162
21
-3.16748
31
0
39
0
210
0
220
0
230
1
0
ENDBLK
5
13A
100
AcDbEntity
8
0
100
AcDbBlockEnd
0
ENDSEC
0
SECTION
2
ENTITIES
0
ARC
5
84
100
AcDbEntity
8
1
62
256
6
ByLayer
370
-1
48
1
60
0
100
AcDbCircle
39
0
10
-12.990545
20
1.860672
30
0
40
3.70000000000025
210
0
220
0
230
-1
100
AcDbArc
50
204.886065
51
270
0
ARC
5
85
100
AcDbEntity
8
1
62
256
6
ByLayer
370
-1
48
1
60
0
100
AcDbCircle
39
0
10
-12.835684
20
-9.839328
30
0
40
7.99999999999996
210
0
220
0
230
-1
100
AcDbArc
50
37.174627
51
90
0
ELLIPSE
5
86
100
AcDbEntity
8
1
62
256
6
ByLayer
370
-1
48
1
60
0
100
AcDbEllipse
10
15.108842
20
5.938765
30
0
11
-0.489302318586301
21
-1.15025355510256
31
0
210
0
220
0
230
1
40
0.993946
41
-1.0154784757247
42
0.267214920108926
0
ELLIPSE
5
87
100
AcDbEntity
8
1
62
256
6
ByLayer
370
-1
48
1
60
0
100
AcDbEllipse
10
7.139435
20
2.782371
30
0
11
-3.05810129995702
21
-34.9336292205145
31
0
210
0
220
0
230
1
40
0.03422
41
-1.26872785854756
42
-1.25698126498074
0
ELLIPSE
5
88
100
AcDbEntity
8
1
62
256
6
ByLayer
370
-1
48
1
60
0
100
AcDbEllipse
10
5.978911
20
3.358757
30
0
11
0.240453983060479
21
2.74999990648876
31
0
210
0
220
0
230
-1
40
0.002982
41
2.29123707024077
42
0.918548935743397
0
ELLIPSE
5
89
100
AcDbEntity
8
1
62
256
6
ByLayer
370
-1
48
1
60
0
100
AcDbEllipse
10
5.695326
20
0
30
0
11
0.699502496176038
21
7.99999972796842
31
0
210
0
220
0
230
-1
40
0.002982
41
-2.93858914771488
42
-0.134810153481069
0
ELLIPSE
5
8A
100
AcDbEntity
8
1
62
256
6
ByLayer
370
-1
48
1
60
0
100
AcDbEllipse
10
14.941488
20
5.844956
30
0
11
1.25263106493546
21
-0.0983071298860941
31
0
210
0
220
0
230
-1
40
0.994257
41
2.10329021073294
42
2.45671938425492
0
ELLIPSE
5
8B
100
AcDbEntity
8
1
62
256
6
ByLayer
370
-1
48
1
60
0
100
AcDbEllipse
10
14.988845
20
5.824811
30
0
11
0.489302318586301
21
1.15025355510256
31
0
210
0
220
0
230
1
40
0.993946
41
2.58128908284634
42
2.93471825637519
0
ELLIPSE
5
8C
100
AcDbEntity
8
1
62
256
6
ByLayer
370
-1
48
1
60
0
100
AcDbEllipse
10
5.391552
20
-3.358757
30
0
11
0.240453983060529
21
2.74999990648932
31
0
210
0
220
0
230
-1
40
0.002982
41
2.41467208939184
42
0.795113916592509
0
ELLIPSE
5
8D
100
AcDbEntity
8
1
62
256
6
ByLayer
370
-1
48
1
60
0
100
AcDbEllipse
10
19.986126
20
-3.508856
30
0
11
8.33282136147631
21
-11.8485611526848
31
0
210
0
220
0
230
-1
40
0.045707
41
-3.11916417956574
42
-3.04693538939722
0
ELLIPSE
5
8E
100
AcDbEntity
8
1
62
256
6
ByLayer
370
-1
48
1
60
0
100
AcDbEllipse
10
15.326217
20
5.846297
30
0
11
-0.489302318586301
21
-1.15025355510256
31
0
210
0
220
0
230
1
40
0.993946
41
-0.749498623360399
42
-0.0952301961370143
0
ELLIPSE
5
8F
100
AcDbEntity
8
1
62
256
6
ByLayer
370
-1
48
1
60
0
100
AcDbEllipse
10
16.563493
20
7.438093
30
0
11
-1.2428278892092
21
-2.9216440299605
31
0
210
0
220
0
230
1
40
0.993946
41
-0.555940247613462
42
-0.206874397214596
0
ELLIPSE
5
90
100
AcDbEntity
8
1
62
256
6
ByLayer
370
-1
48
1
60
0
100
AcDbEllipse
10
16.563493
20
7.438093
30
0
11
-1.2428278892092
21
-2.9216440299605
31
0
210
0
220
0
230
1
40
0.993946
41
-2.65033535000666
42
-2.30126949960779
0
ELLIPSE
5
91
100
AcDbEntity
8
1
62
256
6
ByLayer
370
-1
48
1
60
0
100
AcDbEllipse
10
16.563493
20
7.438093
30
0
11
-1.2428278892092
21
-2.9216440299605
31
0
210
0
220
0
230
1
40
0.993946
41
1.53845485477973
42
1.8875207051786
0
ELLIPSE
5
92
100
AcDbEntity
8
1
62
256
6
ByLayer
370
-1
48
1
60
0
100
AcDbEllipse
10
19.605159
20
10.503492
30
0
11
0.155353486151149
21
0.365205503745059
31
0
210
0
220
0
230
1
40
0.993946
41
-1.25407194841119
42
0.491257303583145
0
ELLIPSE
5
93
100
AcDbEntity
8
1
62
256
6
ByLayer
370
-1
48
1
60
0
100
AcDbEllipse
10
12.410603
20
8.539082
30
0
11
0.155353486151149
21
0.365205503745059
31
0
210
0
220
0
230
1
40
0.993946
41
0.840323153982004
42
2.58565240597635
0
ELLIPSE
5
94
100
AcDbEntity
8
1
62
256
6
ByLayer
370
-1
48
1
60
0
100
AcDbEllipse
10
17.674718
20
3.271705
30
0
11
0.155353486151149
21
0.365205503745059
31
0
210
0
220
0
230
1
40
0.993946
41
2.9347182563752
42
-1.60313779881006
0
ELLIPSE
5
95
100
AcDbEntity
8
1
62
256
6
ByLayer
370
-1
48
1
60
0
100
AcDbEllipse
10
16.563493
20
7.438093
30
0
11
-0.733953477879453
21
-1.72538033265384
31
0
210
0
220
0
230
1
40
0.993946
41
0
42
6.28318530717959
0
ELLIPSE
5
96
100
AcDbEntity
8
1
62
256
6
ByLayer
370
-1
48
1
60
0
100
AcDbEllipse
10
16.642842
20
7.404339
30
0
11
-0.695389396933097
21
-1.63472375997302
31
0
210
0
220
0
230
1
40
0.993946
41
-0.829525802057288
42
0
0
ELLIPSE
5
97
100
AcDbEntity
8
1
62
256
6
ByLayer
370
-1
48
1
60
0
100
AcDbEllipse
10
16.642842
20
7.404339
30
0
11
-0.695389396933097
21
-1.63472375997302
31
0
210
0
220
0
230
1
40
0.993946
41
0
42
-2.31216127703139
0
ELLIPSE
5
98
100
AcDbEntity
8
1
62
256
6
ByLayer
370
-1
48
1
60
0
100
AcDbEllipse
10
16.618369
20
7.41475
30
0
11
0.724677274001645
21
1.70357380102094
31
0
210
0
220
0
230
1
40
0.993946
41
-0.406097803027278
42
-9.65361647438725E-16
0
ELLIPSE
5
99
100
AcDbEntity
8
1
62
256
6
ByLayer
370
-1
48
1
60
0
100
AcDbEllipse
10
16.618369
20
7.41475
30
0
11
0.724677274001645
21
1.70357380102094
31
0
210
0
220
0
230
1
40
0.993946
41
0
42
-2.73558868654001
0
ELLIPSE
5
9A
100
AcDbEntity
8
1
62
256
6
ByLayer
370
-1
48
1
60
0
100
AcDbEllipse
10
16.566862
20
7.43666
30
0
11
0.363168275071336
21
0.853737216508998
31
0
210
0
220
0
230
1
40
0.993946
41
3.02187394764256
42
3.02209549030727
0
ELLIPSE
5
9B
100
AcDbEntity
8
1
62
256
6
ByLayer
370
-1
48
1
60
0
100
AcDbEllipse
10
16.566862
20
7.43666
30
0
11
0.363168275071336
21
0.853737216508998
31
0
210
0
220
0
230
1
40
0.993946
41
-2.73771258393873
42
-2.73749104127402
0
ELLIPSE
5
9C
100
AcDbEntity
8
1
62
256
6
ByLayer
370
-1
48
1
60
0
100
AcDbEllipse
10
15.91847
20
8.081852
30
0
11
0.163940957767654
21
0.179389574399346
31
0
210
0
220
0
230
-1
40
0.497719
41
-1.51271189960983
42
-1.36073531687702
0
ELLIPSE
5
9D
100
AcDbEntity
8
1
62
256
6
ByLayer
370
-1
48
1
60
0
100
AcDbEllipse
10
16.560599
20
7.439324
30
0
11
0.405161891882203
21
0.952455953767125
31
0
210
0
220
0
230
1
40
0.993946
41
1.18104609034247
42
2.2365861642291
0
ELLIPSE
5
9E
100
AcDbEntity
8
1
62
256
6
ByLayer
370
-1
48
1
60
0
100
AcDbEllipse
10
16.560599
20
7.439324
30
0
11
0.405161891882203
21
0.952455953767125
31
0
210
0
220
0
230
1
40
0.993946
41
-0.905005706663986
42
1.14560311937173
0
ELLIPSE
5
9F
100
AcDbEntity
8
1
62
256
6
ByLayer
370
-1
48
1
60
0
100
AcDbEllipse
10
16.661704
20
7.396316
30
0
11
-0.309708795572387
21
-0.728064490237719
31
0
210
0
220
0
230
1
40
0.993946
41
-1.17078054923278
42
0
0
ELLIPSE
5
A0
100
AcDbEntity
8
1
62
256
6
ByLayer
370
-1
48
1
60
0
100
AcDbEllipse
10
16.661704
20
7.396316
30
0
11
-0.309708795572387
21
-0.728064490237719
31
0
210
0
220
0
230
1
40
0.993946
41
0
42
0.391473762290918
0
ELLIPSE
5
A1
100
AcDbEntity
8
1
62
256
6
ByLayer
370
-1
48
1
60
0
100
AcDbEllipse
10
16.661704
20
7.396316
30
0
11
-0.309708795572387
21
-0.728064490237719
31
0
210
0
220
0
230
1
40
0.993946
41
0.807833305677851
42
1.46491720956329
0
ELLIPSE
5
A2
100
AcDbEntity
8
1
62
256
6
ByLayer
370
-1
48
1
60
0
100
AcDbEllipse
10
16.661704
20
7.396316
30
0
11
-0.309708795572387
21
-0.728064490237719
31
0
210
0
220
0
230
1
40
0.993946
41
1.99938095851122
42
2.67462702583004
0
ELLIPSE
5
A3
100
AcDbEntity
8
1
62
256
6
ByLayer
370
-1
48
1
60
0
100
AcDbEllipse
10
16.661704
20
7.396316
30
0
11
-0.309708795572387
21
-0.728064490237719
31
0
210
0
220
0
230
1
40
0.993946
41
2.95000647408355
42
-1.17078181429427
0
ELLIPSE
5
A4
100
AcDbEntity
8
1
62
256
6
ByLayer
370
-1
48
1
60
0
100
AcDbEllipse
10
16.019574
20
8.038843
30
0
11
0.163940958488108
21
0.179389575518061
31
0
210
0
220
0
230
-1
40
0.497719
41
-3.12574686228192
42
-0.565064583498011
0
ELLIPSE
5
A5
100
AcDbEntity
8
1
62
256
6
ByLayer
370
-1
48
1
60
0
100
AcDbEllipse
10
16.426924
20
8.276589
30
0
11
0.233044957034579
21
0.0640781651529031
31
0
210
0
220
0
230
-1
40
0.481981
41
0.149520003708819
42
2.59549575189855
0
ELLIPSE
5
A6
100
AcDbEntity
8
1
62
256
6
ByLayer
370
-1
48
1
60
0
100
AcDbEllipse
10
16.661704
20
7.396316
30
0
11
-0.363168275071336
21
-0.853737216508998
31
0
210
0
220
0
230
1
40
0.993946
41
-2.73771258393874
42
-2.73749104127403
0
ELLIPSE
5
A7
100
AcDbEntity
8
1
62
256
6
ByLayer
370
-1
48
1
60
0
100
AcDbEllipse
10
16.897183
20
8.278467
30
0
11
0.233140195151708
21
-0.0616785820921978
31
0
210
0
220
0
230
-1
40
0.484114
41
2.99685401732855
42
-1.28063075386264
0
ELLIPSE
5
A8
100
AcDbEntity
8
1
62
256
6
ByLayer
370
-1
48
1
60
0
100
AcDbEllipse
10
17.304346
20
8.043973
30
0
11
0.170378848985106
21
-0.170921262678481
31
0
210
0
220
0
230
-1
40
0.483412
41
0.118710158648236
42
0.873468988261271
0
ELLIPSE
5
A9
100
AcDbEntity
8
1
62
256
6
ByLayer
370
-1
48
1
60
0
100
AcDbEllipse
10
16.426224
20
6.514165
30
0
11
0.233140195151708
21
-0.0616785820922008
31
0
210
0
220
0
230
-1
40
0.484114
41
1.86096057767531
42
-2.99469940314318
0
ELLIPSE
5
AA
100
AcDbEntity
8
1
62
256
6
ByLayer
370
-1
48
1
60
0
100
AcDbEllipse
10
16.661704
20
7.396316
30
0
11
-0.363168275071336
21
-0.853737216508998
31
0
210
0
220
0
230
1
40
0.993946
41
-0.119718705947246
42
-0.119497163282528
0
ELLIPSE
5
AB
100
AcDbEntity
8
1
62
256
6
ByLayer
370
-1
48
1
60
0
100
AcDbEllipse
10
16.019061
20
6.748659
30
0
11
0.170378848985102
21
-0.170921262678485
31
0
210
0
220
0
230
-1
40
0.483412
41
-2.26811875583881
42
-0.148462886370362
0
ELLIPSE
5
AC
100
AcDbEntity
8
1
62
256
6
ByLayer
370
-1
48
1
60
0
100
AcDbEllipse
10
15.784094
20
7.156692
30
0
11
0.0619106958082872
21
-0.233990260726979
31
0
210
0
220
0
230
-1
40
0.501736
41
0.662645387235759
42
-3.02902134742254
0
ELLIPSE
5
AD
100
AcDbEntity
8
1
62
256
6
ByLayer
370
-1
48
1
60
0
100
AcDbEllipse
10
15.784282
20
7.628932
30
0
11
0.0626793953442493
21
0.234332746023847
31
0
210
0
220
0
230
-1
40
0.478503
41
0.0661754112833951
42
3.01917818948848
0
ELLIPSE
5
AE
100
AcDbEntity
8
1
62
256
6
ByLayer
370
-1
48
1
60
0
100
AcDbEllipse
10
16.560599
20
7.439324
30
0
11
0.405161891882203
21
0.952455953767125
31
0
210
0
220
0
230
1
40
0.993946
41
2.2365861642291
42
-1.94386073517366
0
ELLIPSE
5
AF
100
AcDbEntity
8
1
62
256
6
ByLayer
370
-1
48
1
60
0
100
AcDbEllipse
10
16.671814
20
7.392015
30
0
11
0.309708795572387
21
0.728064490237719
31
0
210
0
220
0
230
1
40
0.993946
41
0
42
-3.14154121960814
0
ELLIPSE
5
B0
100
AcDbEntity
8
1
62
256
6
ByLayer
370
-1
48
1
60
0
100
AcDbEllipse
10
16.560599
20
7.439324
30
0
11
0.405161891882203
21
0.952455953767125
31
0
210
0
220
0
230
1
40
0.993946
41
-1.90841776419679
42
-0.905005706663986
0
ELLIPSE
5
B1
100
AcDbEntity
8
1
62
256
6
ByLayer
370
-1
48
1
60
0
100
AcDbEllipse
10
16.566862
20
7.43666
30
0
11
0.363168275071336
21
0.853737216508998
31
0
210
0
220
0
230
1
40
0.993946
41
-1.69234131711276
42
-1.69029349007743
0
ELLIPSE
5
B2
100
AcDbEntity
8
1
62
256
6
ByLayer
370
-1
48
1
60
0
100
AcDbEllipse
10
16.566862
20
7.43666
30
0
11
0.363168275071336
21
0.853737216508998
31
0
210
0
220
0
230
1
40
0.993946
41
-0.119718705947264
42
-0.119497163282542
0
ELLIPSE
5
B3
100
AcDbEntity
8
1
62
256
6
ByLayer
370
-1
48
1
60
0
100
AcDbEllipse
10
16.566862
20
7.43666
30
0
11
0.363168275071336
21
0.853737216508998
31
0
210
0
220
0
230
1
40
0.993946
41
0.403880069651037
42
0.404101612315758
0
ELLIPSE
5
B4
100
AcDbEntity
8
1
62
256
6
ByLayer
370
-1
48
1
60
0
100
AcDbEllipse
10
16.566862
20
7.43666
30
0
11
0.363168275071336
21
0.853737216508998
31
0
210
0
220
0
230
1
40
0.993946
41
0.927478845249337
42
0.929526672284674
0
ELLIPSE
5
B5
100
AcDbEntity
8
1
62
256
6
ByLayer
370
-1
48
1
60
0
100
AcDbEllipse
10
17.202729
20
6.796797
30
0
11
0.177596482450936
21
0.165763213415786
31
0
210
0
220
0
230
-1
40
0.49805
41
1.36627313265408
42
1.51824971384913
0
ELLIPSE
5
B6
100
AcDbEntity
8
1
62
256
6
ByLayer
370
-1
48
1
60
0
100
AcDbEllipse
10
16.651593
20
7.400617
30
0
11
0.675237199649093
21
1.58734990604152
31
0
210
0
220
0
230
1
40
0.993946
41
-3.14154125400713
42
-1.17078080899209
0
ELLIPSE
5
B7
100
AcDbEntity
8
1
62
256
6
ByLayer
370
-1
48
1
60
0
100
AcDbEllipse
10
16.651593
20
7.400617
30
0
11
0.675237199649093
21
1.58734990604152
31
0
210
0
220
0
230
1
40
0.993946
41
-1.17078138923361
42
0
0
ELLIPSE
5
B8
100
AcDbEntity
8
1
62
256
6
ByLayer
370
-1
48
1
60
0
100
AcDbEllipse
10
16.578184
20
7.431844
30
0
11
0.675237199649099
21
1.58734990604154
31
0
210
0
220
0
230
1
40
0.993946
41
0
42
6.28318530717959
0
ELLIPSE
5
B9
100
AcDbEntity
8
1
62
256
6
ByLayer
370
-1
48
1
60
0
100
AcDbEllipse
10
16.560599
20
7.439324
30
0
11
0.508874411329751
21
1.19626369730666
31
0
210
0
220
0
230
1
40
0.993946
41
0
42
6.28318530717959
0
POINT
5
41
100
AcDbEntity
8
80
62
256
6
ByLayer
370
-1
48
1
60
0
100
AcDbPoint
10
0
20
0
30
0
39
0
210
0
220
0
230
1
50
360
0
POINT
5
43
100
AcDbEntity
8
81
62
256
6
ByLayer
370
-1
48
1
60
0
100
AcDbPoint
10
20
20
10.9
30
0
39
0
210
0
220
0
230
1
50
360
0
POINT
5
45
100
AcDbEntity
8
1
62
256
6
ByLayer
370
-1
48
1
60
0
100
AcDbPoint
10
0
20
0
30
0
39
0
210
0
220
0
230
1
50
360
0
POINT
5
47
100
AcDbEntity
8
2
62
256
6
ByLayer
370
-1
48
1
60
0
100
AcDbPoint
10
20
20
10.9
30
0
39
0
210
0
220
0
230
1
50
360
0
SPLINE
5
BA
100
AcDbEntity
8
1
62
256
6
ByLayer
370
-1
48
1
60
0
100
AcDbSpline
70
4
71
3
72
8
73
4
40
0
40
0
40
0
40
0
40
1
40
1
40
1
40
1
41
1
10
5.1735502455212
20
-7.53895650048418
30
0
41
1
10
5.43533233547185
20
-6.66700636469369
30
0
41
1
10
5.85781709153133
20
-5.80115259468659
30
0
41
1
10
6.46130313396219
20
-5.00535756030038
30
0
0
SPLINE
5
BB
100
AcDbEntity
8
1
62
256
6
ByLayer
370
-1
48
1
60
0
100
AcDbSpline
70
4
71
3
72
8
73
4
40
0
40
0
40
0
40
0
40
1
40
1
40
1
40
1
41
1
10
12.02783569776
20
8.44693146133642
30
0
41
1
10
11.9324785335209
20
8.40553136889378
30
0
41
1
10
11.8371311866449
20
8.36410827624667
30
0
41
1
10
11.7417941067857
20
8.32266117859243
30
0
0
SPLINE
5
BC
100
AcDbEntity
8
1
62
256
6
ByLayer
370
-1
48
1
60
0
100
AcDbSpline
70
4
71
3
72
8
73
4
40
0
40
0
40
0
40
0
40
1
40
1
40
1
40
1
41
1
10
6.40698182115017
20
7.95354295553983
30
0
41
1
10
6.39360375314732
20
7.9459693966943
30
0
41
1
10
6.38632797377005
20
7.93730380249175
30
0
41
1
10
6.38527448815762
20
7.92769504748497
30
0
0
SPLINE
5
BD
100
AcDbEntity
8
1
62
256
6
ByLayer
370
-1
48
1
60
0
100
AcDbSpline
70
4
71
3
72
14
73
10
40
0
40
0
40
0
40
0
40
0.277996188676893
40
0.277996188676893
40
0.55598197424764
40
0.55598197424764
40
0.834105393661219
40
0.834105393661219
40
1
40
1
40
1
40
1
41
1
10
7.59970389709662
20
7.99894356087205
30
0
41
1
10
7.46429074059307
20
7.99894356087205
30
0
41
1
10
7.32701084843518
20
7.99941515743743
30
0
41
1
10
7.07146139363715
20
8.0001076506318
30
0
41
1
10
6.94967190872995
20
8.00028709832375
30
0
41
1
10
6.73808965962667
20
7.99743041311896
30
0
41
1
10
6.64540364335244
20
7.99427384239971
30
0
41
1
10
6.53028668713722
20
7.98423136375075
30
0
41
1
10
6.49389547945015
20
7.9793201134101
30
0
41
1
10
6.4652102978194
20
7.97311496764206
30
0
0
SPLINE
5
BE
100
AcDbEntity
8
1
62
256
6
ByLayer
370
-1
48
1
60
0
100
AcDbSpline
70
4
71
3
72
8
73
4
40
0
40
0
40
0
40
0
40
1
40
1
40
1
40
1
41
1
10
5.00537651815768
20
-7.83530274686399
30
0
41
1
10
5.0035397479013
20
-7.86051369763626
30
0
41
1
10
5.02147162638192
20
-7.88309606519206
30
0
41
1
10
5.05838388137647
20
-7.90174031463954
30
0
0
SPLINE
5
BF
100
AcDbEntity
8
1
62
256
6
ByLayer
370
-1
48
1
60
0
100
AcDbSpline
70
4
71
3
72
10
73
6
40
0
40
0
40
0
40
0
40
0.392905124695653
40
0.392905124695653
40
1
40
1
40
1
40
1
41
1
10
0
20
-7.36592407527772
30
0
41
1
10
0.069218257321495
20
-7.43613193952342
30
0
41
1
10
0.138450552692575
20
-7.50632596592732
30
0
41
1
10
0.314689584719701
20
-7.68494747337274
30
0
41
1
10
0.421714209566005
20
-7.79335731426616
30
0
41
1
10
0.528766000000019
20
-7.90174031463954
30
0
0
SPLINE
5
C0
100
AcDbEntity
8
1
62
256
6
ByLayer
370
-1
48
1
60
0
100
AcDbSpline
70
4
71
3
72
18
73
14
40
0
40
0
40
0
40
0
40
0.134035194113924
40
0.134035194113924
40
0.350240769160631
40
0.350240769160631
40
0.510139996266066
40
0.510139996266066
40
0.670857972384902
40
0.670857972384902
40
0.878347562719708
40
0.878347562719708
40
1
40
1
40
1
40
1
41
1
10
5.21732931146136
20
-5.41410097253899
30
0
41
1
10
5.22952213918745
20
-5.27984515337698
30
0
41
1
10
5.26986010152081
20
-5.12892111665573
30
0
41
1
10
5.40387021103629
20
-4.71563632968514
30
0
41
1
10
5.5185780942092
20
-4.43354673479291
30
0
41
1
10
5.67728314244567
20
-3.91271328699421
30
0
41
1
10
5.73150311852032
20
-3.67470970861052
30
0
41
1
10
5.77031290705662
20
-3.19406046686342
30
0
41
1
10
5.75441631194212
20
-2.94721681483179
30
0
41
1
10
5.68185656242861
20
-2.4139011055
30
0
41
1
10
5.61802589174567
20
-2.1246606198917
30
0
41
1
10
5.56459261020802
20
-1.71093376157955
30
0
41
1
10
5.55468965214203
20
-1.56489994936757
30
0
41
1
10
5.56577405157668
20
-1.43370982094476
30
0
0
SPLINE
5
C1
100
AcDbEntity
8
1
62
256
6
ByLayer
370
-1
48
1
60
0
100
AcDbSpline
70
4
71
3
72
8
73
4
40
0
40
0
40
0
40
0
40
1
40
1
40
1
40
1
41
1
10
10.8472586778936
20
7.99894356087205
30
0
41
1
10
11.1206875182063
20
8.11438526944633
30
0
41
1
10
11.3941166520203
20
8.22982628367174
30
0
41
1
10
11.6675460442284
20
8.34526668659083
30
0
0
SPLINE
5
C2
100
AcDbEntity
8
1
62
256
6
ByLayer
370
-1
48
1
60
0
100
AcDbSpline
70
4
71
3
72
8
73
4
40
0
40
0
40
0
40
0
40
1
40
1
40
1
40
1
41
1
10
0.528766000000019
20
7.90174031463954
30
0
41
1
10
0.352431500249054
20
7.72321306091618
30
0
41
1
10
0.176170448695245
20
7.54461321633264
30
0
41
1
10
0
20
7.36592407527772
30
0
0
SPLINE
5
C3
100
AcDbEntity
8
1
62
256
6
ByLayer
370
-1
48
1
60
0
100
AcDbSpline
70
4
71
3
72
18
73
14
40
0
40
0
40
0
40
0
40
0.210008167496886
40
0.210008167496886
40
0.428336282849765
40
0.428336282849765
40
0.428336282849765
40
0.675702794814991
40
0.675702794814991
40
0.675702794814991
40
0.89044218184886
40
0.89044218184886
40
1
40
1
40
1
40
1
41
1
10
5.82644369074006
20
1.54399942750544
30
0
41
1
10
5.84436775009146
20
1.74298625379456
30
0
41
1
10
5.89903657071193
20
1.96716449217459
30
0
41
1
10
6.01591611642601
20
2.44696619479845
30
0
41
1
10
6.07980129448333
20
2.71085937843952
30
0
41
1
10
6.12018949244344
20
2.98145474663912
30
0
41
1
10
6.16563037442631
20
3.28590240245217
30
0
41
1
10
6.17818661824361
20
3.60770603043255
30
0
41
1
10
6.16723057030413
20
3.91186278174004
30
0
41
1
10
6.15765214109859
20
4.1777747169447
30
0
41
1
10
6.13353943797165
20
4.43772469897792
30
0
41
1
10
6.12163910027652
20
4.79857122907515
30
0
41
1
10
6.12195083690608
20
4.91663576746618
30
0
41
1
10
6.13137870925556
20
5.02736568267835
30
0
0
SPLINE
5
C4
100
AcDbEntity
8
SK1
62
256
6
ByLayer
370
-1
48
1
60
0
100
AcDbSpline
70
4
71
3
72
10
73
6
40
0
40
0
40
0
40
0
40
0.291147397352682
40
0.291147397352682
40
1
40
1
40
1
40
1
41
1
10
0
20
7.36592407527772
30
0
41
1
10
-0.0214753676849
20
7.34414167627796
30
0
41
1
10
-0.042949383330722
20
7.32235794420944
30
0
41
1
10
-0.116701085448312
20
7.24753299510235
30
0
41
1
10
-0.168971934603121
20
7.19448503730376
30
0
41
1
10
-0.221233999999981
20
7.14142842854284
30
0
0
SPLINE
5
C5
100
AcDbEntity
8
SK1
62
256
6
ByLayer
370
-1
48
1
60
0
100
AcDbSpline
70
4
71
3
72
8
73
4
40
0
40
0
40
0
40
0
40
1
40
1
40
1
40
1
41
1
10
-0.221234122599981
20
-7.14142830407894
30
0
41
1
10
-0.147506375802607
20
-7.2162769383412
30
0
41
1
10
-0.073761155179227
20
-7.29110836379027
30
0
41
1
10
0
20
-7.36592407527772
30
0
0
SPLINE
5
C6
100
AcDbEntity
8
1
62
256
6
ByLayer
370
-1
48
1
60
0
100
AcDbSpline
70
4
71
3
72
34
73
30
40
0
40
0
40
0
40
0
40
0.0484619167057259
40
0.0484619167057259
40
0.123250895849082
40
0.123250895849082
40
0.183570929309635
40
0.183570929309635
40
0.243735544402828
40
0.243735544402828
40
0.303833391333722
40
0.303833391333722
40
0.401539481582446
40
0.401539481582446
40
0.499173133035681
40
0.499173133035681
40
0.596804264320314
40
0.596804264320314
40
0.692486849042305
40
0.692486849042305
40
0.773267829408528
40
0.773267829408528
40
0.836555694129421
40
0.836555694129421
40
0.884954691232778
40
0.884954691232778
40
0.961866476551773
40
0.961866476551773
40
1
40
1
40
1
40
1
41
1
10
15.6407500640893
20
7.4331084508768
30
0
41
1
10
15.6494064939782
20
7.43282505760115
30
0
41
1
10
15.6581491710827
20
7.43425360874809
30
0
41
1
10
15.679165258363
20
7.44086983259726
30
0
41
1
10
15.6912089630442
20
7.4476909037854
30
0
41
1
10
15.7110383112312
20
7.46247747448678
30
0
41
1
10
15.7193541987937
20
7.4700937524114
30
0
41
1
10
15.7348358772185
20
7.48650529216727
30
0
41
1
10
15.7420530355891
20
7.49535371794494
30
0
41
1
10
15.7554872130232
20
7.51388913786886
30
0
41
1
10
15.7617319683026
20
7.52361514546868
30
0
41
1
10
15.7769078860865
20
7.54994371139893
30
0
41
1
10
15.785151397944
20
7.56715836424601
30
0
41
1
10
15.7993307449211
20
7.60254687002845
30
0
41
1
10
15.8053137510988
20
7.62084273188276
30
0
41
1
10
15.8149367441642
20
7.65793504420316
30
0
41
1
10
15.8186077447988
20
7.67685008719974
30
0
41
1
10
15.8233656511058
20
7.71435193076138
30
0
41
1
10
15.8245217461195
20
7.73306264803819
30
0
41
1
10
15.8240467858204
20
7.76716475190813
30
0
41
1
10
15.8228217307733
20
7.78272185830744
30
0
41
1
10
15.8184195482103
20
7.8097720793335
30
0
41
1
10
15.815709755987
20
7.82148852304033
30
0
41
1
10
15.8092244114355
20
7.84135510086452
30
0
41
1
10
15.8058308229843
20
7.84974548842268
30
0
41
1
10
15.7953085586543
20
7.87012556328511
30
0
41
1
10
15.7869327439083
20
7.88177633550316
30
0
41
1
10
15.7711112126484
20
7.8949459828556
30
0
41
1
10
15.7651919062846
20
7.89867101122397
30
0
41
1
10
15.7588520394983
20
7.90134531296187
30
0
0
SPLINE
5
C7
100
AcDbEntity
8
1
62
256
6
ByLayer
370
-1
48
1
60
0
100
AcDbSpline
70
4
71
3
72
42
73
38
40
0
40
0
40
0
40
0
40
0.0453868446055345
40
0.0453868446055345
40
0.0855289172227137
40
0.0855289172227137
40
0.136755260759473
40
0.136755260759473
40
0.176187381923018
40
0.176187381923018
40
0.232899104725526
40
0.232899104725526
40
0.289415721421977
40
0.289415721421977
40
0.345854377934253
40
0.345854377934253
40
0.459254087222259
40
0.459254087222259
40
0.515653380606289
40
0.515653380606289
40
0.572053913253637
40
0.572053913253637
40
0.659762760606611
40
0.659762760606611
40
0.726494882950813
40
0.726494882950813
40
0.778219441680453
40
0.778219441680453
40
0.861348933301192
40
0.861348933301192
40
0.909456127368981
40
0.909456127368981
40
0.950205311078238
40
0.950205311078238
40
0.991117202000588
40
0.991117202000588
40
1
40
1
40
1
40
1
41
1
10
16.5673321845628
20
8.36356564109568
30
0
41
1
10
16.56657177131
20
8.37201203047155
30
0
41
1
10
16.5675310162301
20
8.38068016851412
30
0
41
1
10
16.5728376778487
20
8.39568346734967
30
0
41
1
10
16.576836213686
20
8.40235106331491
30
0
41
1
10
16.5881980782127
20
8.41556963984874
30
0
41
1
10
16.5963082292039
20
8.42182248104172
30
0
41
1
10
16.6118859739134
20
8.43077846798573
30
0
41
1
10
16.6191860171533
20
8.43404565087192
30
0
41
1
10
16.637507388636
20
8.44068006544549
30
0
41
1
10
16.6488589106244
20
8.44351370761885
30
0
41
1
10
16.6718324194869
20
8.44754870802362
30
0
41
1
10
16.6835319817988
20
8.44876552104364
30
0
41
1
10
16.7070030568973
20
8.44994206866315
30
0
41
1
10
16.7188168343511
20
8.44990329148885
30
0
41
1
10
16.7542614407621
20
8.44821918286829
30
0
41
1
10
16.7779756376016
20
8.44501164763892
30
0
41
1
10
16.8129278275297
20
8.43768684316208
30
0
41
1
10
16.8244895811391
20
8.43482085021506
30
0
41
1
10
16.8473852743247
20
8.42826406591547
30
0
41
1
10
16.8587357908264
20
8.42456857956347
30
0
41
1
10
16.8873310630327
20
8.41406771887037
30
0
41
1
10
16.9044273476686
20
8.40665665471653
30
0
41
1
10
16.9335053499652
20
8.39165547840014
30
0
41
1
10
16.9457796039419
20
8.38450631928279
30
0
41
1
10
16.9666365261325
20
8.37049086356618
30
0
41
1
10
16.9754610681747
20
8.36389958065755
30
0
41
1
10
16.9971033405405
20
8.34544975627753
30
0
41
1
10
17.0094610492512
20
8.33256844465754
30
0
41
1
10
17.0244696693115
20
8.30989577815421
30
0
41
1
10
17.0290764151696
20
8.30090580499586
30
0
41
1
10
17.034510622448
20
8.28390472691396
30
0
41
1
10
17.0358256556464
20
8.27578320686561
30
0
41
1
10
17.0354480687341
20
8.26019862338933
30
0
41
1
10
17.0337284696455
20
8.25254828467985
30
0
41
1
10
17.0300906284713
20
8.24419548668649
30
0
41
1
10
17.0293731307035
20
8.24271876128549
30
0
41
1
10
17.0286003370459
20
8.24127705073568
30
0
0
SPLINE
5
C8
100
AcDbEntity
8
1
62
256
6
ByLayer
370
-1
48
1
60
0
100
AcDbSpline
70
4
71
3
72
22
73
18
40
0
40
0
40
0
40
0
40
0.0986115253808973
40
0.0986115253808973
40
0.183915875236124
40
0.183915875236124
40
0.29983819838681
40
0.29983819838681
40
0.483762819016332
40
0.483762819016332
40
0.582277256960155
40
0.582277256960155
40
0.774223519347232
40
0.774223519347232
40
0.965774542234406
40
0.965774542234406
40
1
40
1
40
1
40
1
41
1
10
17.3687265761911
20
7.90491723754388
30
0
41
1
10
17.3761059157266
20
7.90941242060981
30
0
41
1
10
17.3845841575952
20
7.9122482245831
30
0
41
1
10
17.4008555177615
20
7.91357546862761
30
0
41
1
10
17.4087722424746
20
7.91263531455985
30
0
41
1
10
17.4267904861395
20
7.90746491887288
30
0
41
1
10
17.436953976867
20
7.90216419509449
30
0
41
1
10
17.4611029222821
20
7.8852905200074
30
0
41
1
10
17.4744099339399
20
7.87166100066486
30
0
41
1
10
17.492391255345
20
7.84891744562313
30
0
41
1
10
17.4982857170205
20
7.84051825748895
30
0
41
1
10
17.5145001141946
20
7.81499161210581
30
0
41
1
10
17.5238227224359
20
7.79701427713727
30
0
41
1
10
17.5399423248404
20
7.76002413992259
30
0
41
1
10
17.5467898379375
20
7.74088947651941
30
0
41
1
10
17.5534548846746
20
7.71793980744619
30
0
41
1
10
17.5544286207622
20
7.71444362015433
30
0
41
1
10
17.5553640561136
20
7.71093634532909
30
0
0
SPLINE
5
C9
100
AcDbEntity
8
1
62
256
6
ByLayer
370
-1
48
1
60
0
100
AcDbSpline
70
4
71
3
72
34
73
30
40
0
40
0
40
0
40
0
40
0.0495805136006498
40
0.0495805136006498
40
0.129698637862947
40
0.129698637862947
40
0.194505892890833
40
0.194505892890833
40
0.259150175590214
40
0.259150175590214
40
0.323725661314044
40
0.323725661314044
40
0.425534197335528
40
0.425534197335528
40
0.527282435054677
40
0.527282435054677
40
0.629041292372155
40
0.629041292372155
40
0.724169483475258
40
0.724169483475258
40
0.802896330501572
40
0.802896330501572
40
0.863925138213307
40
0.863925138213307
40
0.910648821183635
40
0.910648821183635
40
0.947136701919326
40
0.947136701919326
40
1
40
1
40
1
40
1
41
1
10
16.5671276970152
20
8.36356482469202
30
0
41
1
10
16.5673229123965
20
8.35515940473056
30
0
41
1
10
16.5658703530016
20
8.34673151148996
30
0
41
1
10
16.5591481520419
20
8.32591759308517
30
0
41
1
10
16.5520656526618
20
8.31384987581254
30
0
41
1
10
16.5366924182724
20
8.29400382666944
30
0
41
1
10
16.5287555008923
20
8.28569042693792
30
0
41
1
10
16.5116338549212
20
8.27024234577686
30
0
41
1
10
16.502393182898
20
8.26305659749934
30
0
41
1
10
16.4830120721703
20
8.24971037920071
30
0
41
1
10
16.4728300104983
20
8.24352194153437
30
0
41
1
10
16.4457498400111
20
8.22880976894285
30
0
41
1
10
16.4282459958043
20
8.22092489959505
30
0
41
1
10
16.3922200907622
20
8.20741788821351
30
0
41
1
10
16.3735729665443
20
8.20175023936093
30
0
41
1
10
16.3357300989547
20
8.19275031430192
30
0
41
1
10
16.3164085202068
20
8.18938741509527
30
0
41
1
10
16.2789562553379
20
8.18538236464519
30
0
41
1
10
16.2607080527059
20
8.18456142535337
30
0
41
1
10
16.2277400664419
20
8.18551717960526
30
0
41
1
10
16.2128577656296
20
8.18687236136688
30
0
41
1
10
16.1871001646301
20
8.19133054390602
30
0
41
1
10
16.1760083031874
20
8.19398531874674
30
0
41
1
10
16.1571962789972
20
8.20023350710696
30
0
41
1
10
16.1492484750928
20
8.20347917358365
30
0
41
1
10
16.1358827134128
20
8.21039842923665
30
0
41
1
10
16.1302591715826
20
8.21384243121173
30
0
41
1
10
16.1175834897791
20
8.22333754863527
30
0
41
1
10
16.1108609370652
20
8.23000229656805
30
0
41
1
10
16.1057608749585
20
8.23759267229372
30
0
0
SPLINE
5
CA
100
AcDbEntity
8
1
62
256
6
ByLayer
370
-1
48
1
60
0
100
AcDbSpline
70
4
71
3
72
34
73
30
40
0
40
0
40
0
40
0
40
0.048935220944801
40
0.048935220944801
40
0.117200042217494
40
0.117200042217494
40
0.171506955646251
40
0.171506955646251
40
0.225668649239262
40
0.225668649239262
40
0.27976532045937
40
0.27976532045937
40
0.373225321592584
40
0.373225321592584
40
0.466583477789776
40
0.466583477789776
40
0.55991586737522
40
0.55991586737522
40
0.653268378335675
40
0.653268378335675
40
0.74470314693133
40
0.74470314693133
40
0.818565955739614
40
0.818565955739614
40
0.875584577609734
40
0.875584577609734
40
0.965112275153926
40
0.965112275153926
40
1
40
1
40
1
40
1
41
1
10
17.0317100585566
20
6.62769866928616
30
0
41
1
10
17.0289882199548
20
6.63507319286671
30
0
41
1
10
17.0245918061279
20
6.64174040490934
30
0
41
1
10
17.0117600649522
20
6.65526830607217
30
0
41
1
10
17.0022628752783
20
6.66148098363527
30
0
41
1
10
16.9838321010549
20
6.67014430050821
30
0
41
1
10
16.9750314846997
20
6.67317294972884
30
0
41
1
10
16.9568636069803
20
6.67790894181144
30
0
41
1
10
16.947437849985
20
6.67963331944256
30
0
41
1
10
16.9282385519661
20
6.68203283369323
30
0
41
1
10
16.918426124485
20
6.68271268800524
30
0
41
1
10
16.891403147948
20
6.68336618184037
30
0
41
1
10
16.8738742880433
20
6.68247878738381
30
0
41
1
10
16.8387201474402
20
6.67859973227945
30
0
41
1
10
16.8209767154914
20
6.67559307473746
30
0
41
1
10
16.7857433978775
20
6.66772312208815
30
0
41
1
10
16.7681507241475
20
6.662836382949
30
0
41
1
10
16.7335960238364
20
6.65131360063805
30
0
41
1
10
16.716532294858
20
6.64464446871881
30
0
41
1
10
16.6838504190494
20
6.62970418903697
30
0
41
1
10
16.6681012077542
20
6.62142321544445
30
0
41
1
10
16.6411714241299
20
6.60479309247125
30
0
41
1
10
16.6296173897693
20
6.59671542694738
30
0
41
1
10
16.6106800917123
20
6.58119230139553
30
0
41
1
10
16.6028981939376
20
6.5739810366411
30
0
41
1
10
16.5850436695202
20
6.55442066829747
30
0
41
1
10
16.5757602211723
20
6.54106399511213
30
0
41
1
10
16.5685524471971
20
6.52131592822769
30
0
41
1
10
16.5671464209977
20
6.51553135983119
30
0
41
1
10
16.5665954002504
20
6.50975585728548
30
0
0
SPLINE
5
CB
100
AcDbEntity
8
1
62
256
6
ByLayer
370
-1
48
1
60
0
100
AcDbSpline
70
4
71
3
72
34
73
30
40
0
40
0
40
0
40
0
40
0.0493619475591325
40
0.0493619475591325
40
0.125539901664504
40
0.125539901664504
40
0.186980193980894
40
0.186980193980894
40
0.248262181512401
40
0.248262181512401
40
0.34054787191871
40
0.34054787191871
40
0.432709445704558
40
0.432709445704558
40
0.524833165866645
40
0.524833165866645
40
0.6169622517669
40
0.6169622517669
40
0.709145696793767
40
0.709145696793767
40
0.791292482820583
40
0.791292482820583
40
0.854807499469166
40
0.854807499469166
40
0.90351977451618
40
0.90351977451618
40
0.980968575571184
40
0.980968575571184
40
1
40
1
40
1
40
1
41
1
10
17.3687265761915
20
7.90491723754329
30
0
41
1
10
17.3621791576076
20
7.90048256718163
30
0
41
1
10
17.3547141050218
20
7.89748574030665
30
0
41
1
10
17.3351831397479
20
7.89303094812459
30
0
41
1
10
17.3224798854415
20
7.89309507984583
30
0
41
1
10
17.299767447419
20
7.8962659900383
30
0
41
1
10
17.2895272823533
20
7.8988157010198
30
0
41
1
10
17.2693185521296
20
7.90548228864245
30
0
41
1
10
17.2592836800029
20
7.90962019924913
30
0
41
1
10
17.2345500015366
20
7.92148303081319
30
0
41
1
10
17.2199399545176
20
7.93001327257372
30
0
41
1
10
17.19161612595
20
7.94903587032965
30
0
41
1
10
17.1778068853175
20
7.95959493201298
30
0
41
1
10
17.1512309432126
20
7.98227267981517
30
0
41
1
10
17.1383894309762
20
7.99445619471896
30
0
41
1
10
17.1139755661628
20
8.02009945775848
30
0
41
1
10
17.1023361032796
20
8.03362921478177
30
0
41
1
10
17.080655959667
20
8.06174715507049
30
0
41
1
10
17.0705484726965
20
8.07641928204504
30
0
41
1
10
17.0534441459558
20
8.10498093543697
30
0
41
1
10
17.0461742278911
20
8.11886763387051
30
0
41
1
10
17.0353583582059
20
8.1439511540564
30
0
41
1
10
17.0313140046829
20
8.15511120046406
30
0
41
1
10
17.0258970391115
20
8.17494988827593
30
0
41
1
10
17.0241098701182
20
8.18365151504054
30
0
41
1
10
17.021537659275
20
8.20587499548185
30
0
41
1
10
17.0219037958788
20
8.21969984754011
30
0
41
1
10
17.0263669394885
20
8.23522870279237
30
0
41
1
10
17.0274647897488
20
8.23826330431245
30
0
41
1
10
17.0287773876497
20
8.24117508327168
30
0
0
SPLINE
5
CC
100
AcDbEntity
8
1
62
256
6
ByLayer
370
-1
48
1
60
0
100
AcDbSpline
70
4
71
3
72
22
73
18
40
0
40
0
40
0
40
0
40
0.0986115253821142
40
0.0986115253821142
40
0.183915875237333
40
0.183915875237333
40
0.299838198394097
40
0.299838198394097
40
0.483762819036943
40
0.483762819036943
40
0.582277256988327
40
0.582277256988327
40
0.774223519388322
40
0.774223519388322
40
0.965774542288435
40
0.965774542288435
40
1
40
1
40
1
40
1
41
1
10
15.6407500640893
20
7.43310845087734
30
0
41
1
10
15.6312690561916
20
7.43300006438645
30
0
41
1
10
15.6216514829171
20
7.43089496521227
30
0
41
1
10
15.6054395113462
20
7.4233529212612
30
0
41
1
10
15.5984167338336
20
7.41833366752411
30
0
41
1
10
15.5840736051047
20
7.40432728376743
30
0
41
1
10
15.5772728383278
20
7.39439461870109
30
0
41
1
10
15.5633960050916
20
7.36713833924094
30
0
41
1
10
15.5580574113849
20
7.34841780136628
30
0
41
1
10
15.5530991400124
20
7.31941079230015
30
0
41
1
10
15.5519667064365
20
7.30909297222809
30
0
41
1
10
15.5501060616051
20
7.27863109561844
30
0
41
1
10
15.5507447425994
20
7.25828269070098
30
0
41
1
10
15.5548742010978
20
7.21801875016024
30
0
41
1
10
15.5583815849884
20
7.19797209385703
30
0
41
1
10
15.5640043711233
20
7.17473784469931
30
0
41
1
10
15.5648990699976
20
7.1712200769976
30
0
41
1
10
15.5658344983253
20
7.16771280026057
30
0
0
SPLINE
5
CD
100
AcDbEntity
8
1
62
256
6
ByLayer
370
-1
48
1
60
0
100
AcDbSpline
70
4
71
3
72
22
73
18
40
0
40
0
40
0
40
0
40
0.167842784247896
40
0.167842784247896
40
0.335898034471465
40
0.335898034471465
40
0.454065247809255
40
0.454065247809255
40
0.64255808316752
40
0.64255808316752
40
0.755508761175318
40
0.755508761175318
40
0.870151412064105
40
0.870151412064105
40
0.967012982270535
40
0.967012982270535
40
1
40
1
40
1
40
1
41
1
10
15.8653319217952
20
8.1990605758767
30
0
41
1
10
15.8771659069973
20
8.20951186994685
30
0
41
1
10
15.8895724428943
20
8.21936907654708
30
0
41
1
10
15.9154519619889
20
8.23751317300213
30
0
41
1
10
15.9289822921788
20
8.24584265781735
30
0
41
1
10
15.9529229750275
20
8.25816136430464
30
0
41
1
10
15.9631096437914
20
8.26272368283074
30
0
41
1
10
15.9900263235696
20
8.27258385602136
30
0
41
1
10
16.007458634178
20
8.27689738426523
30
0
41
1
10
16.0351944531761
20
8.27836266812261
30
0
41
1
10
16.0457596252267
20
8.27764609065983
30
0
41
1
10
16.0656516532961
20
8.27277954509151
30
0
41
1
10
16.0752245365147
20
8.26844130519123
30
0
41
1
10
16.0898652907391
20
8.2574050444907
30
0
41
1
10
16.0955839973427
20
8.2510550215884
30
0
41
1
10
16.1015063280297
20
8.24167697711715
30
0
41
1
10
16.1028844366261
20
8.23918674065408
30
0
41
1
10
16.1041244187352
20
8.23663556940332
30
0
0
SPLINE
5
CE
100
AcDbEntity
8
1
62
256
6
ByLayer
370
-1
48
1
60
0
100
AcDbSpline
70
4
71
3
72
24
73
20
40
0
40
0
40
0
40
0
40
0.157271741032027
40
0.157271741032027
40
0.34894895203786
40
0.34894895203786
40
0.44442485118122
40
0.44442485118122
40
0.539981403188361
40
0.539981403188361
40
0.635703613088324
40
0.635703613088324
40
0.713564507855703
40
0.713564507855703
40
0.838051590547608
40
0.838051590547608
40
0.92425303397834
40
0.92425303397834
40
1
40
1
40
1
40
1
41
1
10
17.5553640561136
20
7.71093634532909
30
0
41
1
10
17.5596561581551
20
7.69484375120626
30
0
41
1
10
17.5631537240431
20
7.67848805308779
30
0
41
1
10
17.5689956113989
20
7.64193503912188
30
0
41
1
10
17.5709451859048
20
7.62157387050743
30
0
41
1
10
17.5715362432482
20
7.59111481315907
30
0
41
1
10
17.5713433986508
20
7.58095978249611
30
0
41
1
10
17.5700472860775
20
7.5607586124018
30
0
41
1
10
17.5689421863096
20
7.55068331570624
30
0
41
1
10
17.5656273317827
20
7.53081622857408
30
0
41
1
10
17.5634086583848
20
7.52097725681969
30
0
41
1
10
17.5581347743342
20
7.50371990650933
30
0
41
1
10
17.5552974078389
20
7.49614965660643
30
0
41
1
10
17.5465673102669
20
7.47762425910068
30
0
41
1
10
17.5396633167501
20
7.46699208969289
30
0
41
1
10
17.5255105275122
20
7.45296708497546
30
0
41
1
10
17.5188635739259
20
7.44825724760344
30
0
41
1
10
17.5056992293023
20
7.44237694048272
30
0
41
1
10
17.4991389052213
20
7.44078697136507
30
0
41
1
10
17.4926296157296
20
7.44035815571192
30
0
0
SPLINE
5
CF
100
AcDbEntity
8
1
62
256
6
ByLayer
370
-1
48
1
60
0
100
AcDbSpline
70
4
71
3
72
22
73
18
40
0
40
0
40
0
40
0
40
0.099135488406943
40
0.099135488406943
40
0.206229847800826
40
0.206229847800826
40
0.367627630833934
40
0.367627630833934
40
0.50752928858352
40
0.50752928858352
40
0.647011593783066
40
0.647011593783066
40
0.786332448957785
40
0.786332448957785
40
0.892876682578109
40
0.892876682578109
40
1
40
1
40
1
40
1
41
1
10
17.0317100585566
20
6.62769866928616
30
0
41
1
10
17.0374541568827
20
6.62148703987742
30
0
41
1
10
17.0449136156219
20
6.61656380017527
30
0
41
1
10
17.0620967014738
20
6.60979201095103
30
0
41
1
10
17.0721752243132
20
6.60806094860644
30
0
41
1
10
17.0977248603331
20
6.60726063621237
30
0
41
1
10
17.1138050987467
20
6.60983351066812
30
0
41
1
10
17.1429538557621
20
6.61780880638128
30
0
41
1
10
17.1563924139667
20
6.62286656513999
30
0
41
1
10
17.1825025563201
20
6.63471696057039
30
0
41
1
10
17.1952594736649
20
6.64154750198108
30
0
41
1
10
17.2200046798321
20
6.65651919844939
30
0
41
1
10
17.2320389677768
20
6.66468891410793
30
0
41
1
10
17.2525871375991
20
6.68006360132506
30
0
41
1
10
17.2612804569559
20
6.68705822544155
30
0
41
1
10
17.2782314474496
20
6.70166103399276
30
0
41
1
10
17.2864982247473
20
6.7092825378426
30
0
41
1
10
17.2945010947242
20
6.71717328509135
30
0
0
SPLINE
5
D0
100
AcDbEntity
8
1
62
256
6
ByLayer
370
-1
48
1
60
0
100
AcDbSpline
70
4
71
3
72
42
73
38
40
0
40
0
40
0
40
0
40
0.0453868446055332
40
0.0453868446055332
40
0.0855289172227157
40
0.0855289172227157
40
0.136755260759477
40
0.136755260759477
40
0.176187381923028
40
0.176187381923028
40
0.23289910472554
40
0.23289910472554
40
0.289415721421995
40
0.289415721421995
40
0.34585437793428
40
0.34585437793428
40
0.459254087222291
40
0.459254087222291
40
0.515653380606322
40
0.515653380606322
40
0.572053913253673
40
0.572053913253673
40
0.659762760606641
40
0.659762760606641
40
0.726494882950828
40
0.726494882950828
40
0.778219441680462
40
0.778219441680462
40
0.861348933301191
40
0.861348933301191
40
0.909456127368983
40
0.909456127368983
40
0.950205311078244
40
0.950205311078244
40
0.991117202000596
40
0.991117202000596
40
1
40
1
40
1
40
1
41
1
10
16.105122760219
20
6.632043631226
30
0
41
1
10
16.1002900464573
20
6.62523442954176
30
0
41
1
10
16.0968400759227
20
6.61738483080953
30
0
41
1
10
16.0940331377266
20
6.6019930837669
30
0
41
1
10
16.0942091755053
20
6.59434089486243
30
0
41
1
10
16.0975394902153
20
6.57747179998924
30
0
41
1
10
16.1014893570944
20
6.5681394472677
30
0
41
1
10
16.1105861774579
20
6.55281669267529
30
0
41
1
10
16.1153088028735
20
6.54642839158296
30
0
41
1
10
16.1279358423176
20
6.53173078491901
30
0
41
1
10
16.1363909292276
20
6.52371384546359
30
0
41
1
10
16.1543441645122
20
6.50894197232199
30
0
41
1
10
16.1639020181751
20
6.50213554853795
30
0
41
1
10
16.1837031376521
20
6.48956376347704
30
0
41
1
10
16.1939823652452
20
6.48377627864159
30
0
41
1
10
16.2256003222324
20
6.46775683336915
30
0
41
1
10
16.2477861755065
20
6.45882384040863
30
0
41
1
10
16.2817748167039
20
6.44788940413531
30
0
41
1
10
16.2932377103383
20
6.44465306343318
30
0
41
1
10
16.3163750105547
20
6.43900138376691
30
0
41
1
10
16.3280661432933
20
6.43658190885051
30
0
41
1
10
16.3581104449457
20
6.43150938052528
30
0
41
1
10
16.3766352524782
20
6.42944982741147
30
0
41
1
10
16.4093311653773
20
6.42800201350587
30
0
41
1
10
16.4235377037736
20
6.42809154928682
30
0
41
1
10
16.4486032875763
20
6.42984251854904
30
0
41
1
10
16.459536210795
20
6.43114962156668
30
0
41
1
10
16.487480575706
20
6.43630860171461
30
0
41
1
10
16.5045987867338
20
6.44126101244191
30
0
41
1
10
16.5288660025745
20
6.45327275852264
30
0
41
1
10
16.5373192220941
20
6.45869238727801
30
0
41
1
10
16.5504540459446
20
6.47053924344772
30
0
41
1
10
16.5556143643224
20
6.476822873039
30
0
41
1
10
16.5629924787848
20
6.49029258167556
30
0
41
1
10
16.5652793922812
20
6.49765138029318
30
0
41
1
10
16.5662444889319
20
6.50654203891091
30
0
41
1
10
16.5663504167475
20
6.50815001807467
30
0
41
1
10
16.5663909127021
20
6.509755040866
30
0
0
SPLINE
5
D1
100
AcDbEntity
8
1
62
256
6
ByLayer
370
-1
48
1
60
0
100
AcDbSpline
70
4
71
3
72
36
73
32
40
0
40
0
40
0
40
0
40
0.0492962859146024
40
0.0492962859146024
40
0.128955121084944
40
0.128955121084944
40
0.193390858861425
40
0.193390858861425
40
0.257664558572562
40
0.257664558572562
40
0.321869855697075
40
0.321869855697075
40
0.386043638223807
40
0.386043638223807
40
0.490448583703646
40
0.490448583703646
40
0.594841290248395
40
0.594841290248395
40
0.692807648700566
40
0.692807648700566
40
0.776462598778961
40
0.776462598778961
40
0.842223390286647
40
0.842223390286647
40
0.892525018755483
40
0.892525018755483
40
0.931489584935938
40
0.931489584935938
40
0.988987173585856
40
0.988987173585856
40
1
40
1
40
1
40
1
41
1
10
17.3660842932245
20
6.97648839547276
30
0
41
1
10
17.3596334391317
20
6.98060122589931
30
0
41
1
10
17.3539952784525
20
6.98615850142124
30
0
41
1
10
17.3416433354386
20
7.00260851627377
30
0
41
1
10
17.336078425676
20
7.0149150759822
30
0
41
1
10
17.3287615001717
20
7.03838883636837
30
0
41
1
10
17.3264339657874
20
7.04952183288933
30
0
41
1
10
17.3232559811631
20
7.07226718616761
30
0
41
1
10
17.3223948334784
20
7.08395417939596
30
0
41
1
10
17.3218479877428
20
7.10758172640482
30
0
41
1
10
17.3221617132987
20
7.11957267793099
30
0
41
1
10
17.3237846267084
20
7.14365505884101
30
0
41
1
10
17.3250968844941
20
7.15578595677286
30
0
41
1
10
17.3296981470333
20
7.18758212994373
30
0
41
1
10
17.3337247271797
20
7.2073446236908
30
0
41
1
10
17.3438260641454
20
7.2462492880347
30
0
41
1
10
17.3499365314401
20
7.26552905055058
30
0
41
1
10
17.3636968013324
20
7.30177210152647
30
0
41
1
10
17.3712729038351
20
7.31892630002915
30
0
41
1
10
17.3870215499223
20
7.34921120002349
30
0
41
1
10
17.394991962174
20
7.36265630546362
30
0
41
1
10
17.4105833800533
20
7.38503271712017
30
0
41
1
10
17.417957396482
20
7.39437462719505
30
0
41
1
10
17.4319200280856
20
7.40934355134868
30
0
41
1
10
17.4383227252887
20
7.41536404118943
30
0
41
1
10
17.4502869914093
20
7.42472810274228
30
0
41
1
10
17.4557445208735
20
7.42839069299947
30
0
41
1
10
17.4696591730046
20
7.43586774273226
30
0
41
1
10
17.4785201505195
20
7.43902685353876
30
0
41
1
10
17.4891589395019
20
7.44021651403091
30
0
41
1
10
17.4908953147447
20
7.44033003032257
30
0
41
1
10
17.4926296157295
20
7.44035815571482
30
0
0
SPLINE
5
D2
100
AcDbEntity
8
1
62
256
6
ByLayer
370
-1
48
1
60
0
100
AcDbSpline
70
4
71
3
72
24
73
20
40
0
40
0
40
0
40
0
40
0.157271741132724
40
0.157271741132724
40
0.348948952192725
40
0.348948952192725
40
0.444424851362996
40
0.444424851362996
40
0.539981403397126
40
0.539981403397126
40
0.635703613324264
40
0.635703613324264
40
0.713564508082772
40
0.713564508082772
40
0.838051590779641
40
0.838051590779641
40
0.924253034227019
40
0.924253034227019
40
1
40
1
40
1
40
1
41
1
10
15.5658344983253
20
7.16771280026057
30
0
41
1
10
15.5701265681485
20
7.15162019733367
30
0
41
1
10
15.5752801170448
20
7.13571665080175
30
0
41
1
10
15.588609623902
20
7.10120806546848
30
0
41
1
10
15.597230925904
20
7.0826685533587
30
0
41
1
10
15.6122825007306
20
7.05615781310752
30
0
41
1
10
15.6176621364936
20
7.04752429918886
30
0
41
1
10
15.6292159874092
20
7.03083169859133
30
0
41
1
10
15.6354067804359
20
7.02274848124557
30
0
41
1
10
15.6486839274192
20
7.007411694176
30
0
41
1
10
15.6558027029266
20
7.00012223070945
30
0
41
1
10
15.6696024446787
20
6.98807276614903
30
0
41
1
10
15.6761537710192
20
6.98306601624148
30
0
41
1
10
15.6938951438423
20
6.97176842087987
30
0
41
1
10
15.7058887109225
20
6.96629606416613
30
0
41
1
10
15.7265752479071
20
6.96178363101771
30
0
41
1
10
15.7353494401509
20
6.9612844018657
30
0
41
1
10
15.7510086873464
20
6.96327412295403
30
0
41
1
10
15.7581444754968
20
6.96542375680082
30
0
41
1
10
15.7646538215479
20
6.9685495650543
30
0
0
SPLINE
5
D3
100
AcDbEntity
8
1
62
256
6
ByLayer
370
-1
48
1
60
0
100
AcDbSpline
70
4
71
3
72
22
73
18
40
0
40
0
40
0
40
0
40
0.0991354884062656
40
0.0991354884062656
40
0.206229847799441
40
0.206229847799441
40
0.36762763083148
40
0.36762763083148
40
0.507529288580147
40
0.507529288580147
40
0.64701159377877
40
0.64701159377877
40
0.786332448952563
40
0.786332448952563
40
0.892876682567197
40
0.892876682567197
40
1
40
1
40
1
40
1
41
1
10
15.7588520394983
20
7.90134531296187
30
0
41
1
10
15.7519180158759
20
7.90781966048533
30
0
41
1
10
15.7462823359588
20
7.91599967279427
30
0
41
1
10
15.738185615868
20
7.93452335212154
30
0
41
1
10
15.7358317124495
20
7.94523241879301
30
0
41
1
10
15.7336777291123
20
7.97215289008687
30
0
41
1
10
15.7355902752415
20
7.98890223470403
30
0
41
1
10
15.7425343817514
20
8.01909593825746
30
0
41
1
10
15.7471868209386
20
8.03294525964918
30
0
41
1
10
15.7583326080093
20
8.05976928182753
30
0
41
1
10
15.7648618603367
20
8.07283134673
30
0
41
1
10
15.7793072625415
20
8.09810922860999
30
0
41
1
10
15.7872511803362
20
8.11037184868903
30
0
41
1
10
15.8022818376156
20
8.13126746693354
30
0
41
1
10
15.8091452729857
20
8.14009310877722
30
0
41
1
10
15.823518792015
20
8.15727498571519
30
0
41
1
10
15.8310422280243
20
8.16564029140471
30
0
41
1
10
15.8388520031697
20
8.17372425311999
30
0
0
SPLINE
5
D4
100
AcDbEntity
8
1
62
256
6
ByLayer
370
-1
48
1
60
0
100
AcDbSpline
70
4
71
3
72
36
73
32
40
0
40
0
40
0
40
0
40
0.0492962859085503
40
0.0492962859085503
40
0.128955121069248
40
0.128955121069248
40
0.193390858837927
40
0.193390858837927
40
0.257664558541283
40
0.257664558541283
40
0.321869855658024
40
0.321869855658024
40
0.386043638176987
40
0.386043638176987
40
0.490448583644106
40
0.490448583644106
40
0.594841290176147
40
0.594841290176147
40
0.692807648616332
40
0.692807648616332
40
0.776462598684466
40
0.776462598684466
40
0.842223390184063
40
0.842223390184063
40
0.892525018646725
40
0.892525018646725
40
0.9314895848224
40
0.9314895848224
40
0.988987173442037
40
0.988987173442037
40
1
40
1
40
1
40
1
41
1
10
16.1049457096153
20
6.63214559868999
30
0
41
1
10
16.1092677052449
20
6.63919986097099
30
0
41
1
10
16.1121708567808
20
6.64708926666054
30
0
41
1
10
16.1166204031307
20
6.66812678039136
30
0
41
1
10
16.11643652757
20
6.68190258415495
30
0
41
1
10
16.1129027411645
20
6.70640929739406
30
0
41
1
10
16.1101239181927
20
6.71741907353589
30
0
41
1
10
16.1029028817071
20
6.73906050706779
30
0
41
1
10
16.0984373606976
20
6.74976335786531
30
0
41
1
10
16.0882212131387
20
6.77075078706628
30
0
41
1
10
16.0824482999894
20
6.78107983543453
30
0
41
1
10
16.069849843765
20
6.8012791964627
30
0
41
1
10
16.0630032899388
20
6.81118240265207
30
0
41
1
10
16.0438668367269
20
6.83649720134341
30
0
41
1
10
16.0307756483099
20
6.85158583895887
30
0
41
1
10
16.0027501434438
20
6.88008030451931
30
0
41
1
10
15.9877167397842
20
6.89358691906094
30
0
41
1
10
15.9571177368969
20
6.91771806080593
30
0
41
1
10
15.9415413208187
20
6.9285506677688
30
0
41
1
10
15.9116476045261
20
6.9463733222035
30
0
41
1
10
15.8973888431817
20
6.95374894732976
30
0
41
1
10
15.8713559000553
20
6.96476019335793
30
0
41
1
10
15.8596316645608
20
6.96888749374091
30
0
41
1
10
15.8387471203517
20
6.97434170306838
30
0
41
1
10
15.829578316905
20
6.97611053162976
30
0
41
1
10
15.8133697732186
20
6.97778225528393
30
0
41
1
10
15.8062747141996
20
6.97801747167327
30
0
41
1
10
15.7891048354127
20
6.97700716366978
30
0
41
1
10
15.7789631579168
20
6.97497776668072
30
0
41
1
10
15.7680812766942
20
6.97029139747659
30
0
41
1
10
15.7663453187117
20
6.96945682371964
30
0
41
1
10
15.7646538215479
20
6.96854956505433
30
0
0
SPLINE
5
D5
100
AcDbEntity
8
1
62
256
6
ByLayer
370
-1
48
1
60
0
100
AcDbSpline
70
4
71
3
72
22
73
18
40
0
40
0
40
0
40
0
40
0.167842784246521
40
0.167842784246521
40
0.335898034470228
40
0.335898034470228
40
0.454065247808168
40
0.454065247808168
40
0.642558083166723
40
0.642558083166723
40
0.7555087611749
40
0.7555087611749
40
0.870151412064057
40
0.870151412064057
40
0.967012982270871
40
0.967012982270871
40
1
40
1
40
1
40
1
41
1
10
17.3196364609088
20
6.74385499333033
30
0
41
1
10
17.3300293967526
20
6.75574822958967
30
0
41
1
10
17.3398653586916
20
6.7681776027982
30
0
41
1
10
17.3580623862613
20
6.79400895061906
30
0
41
1
10
17.366465843424
20
6.80746848491802
30
0
41
1
10
17.3790282776029
20
6.83117248969626
30
0
41
1
10
17.3837260182326
20
6.84122713713168
30
0
41
1
10
17.3940596350769
20
6.86768064762379
30
0
41
1
10
17.3987870193934
20
6.88470697375038
30
0
41
1
10
17.4012487393475
20
6.91146201572474
30
0
41
1
10
17.4009921275972
20
6.9215739269151
30
0
41
1
10
17.3972327622946
20
6.94037342841219
30
0
41
1
10
17.393564881361
20
6.94928415624395
30
0
41
1
10
17.3838713691251
20
6.96259723878455
30
0
41
1
10
17.378193169828
20
6.96765118296378
30
0
41
1
10
17.3697152867173
20
6.97268227423041
30
0
41
1
10
17.3674569567931
20
6.97383072931598
30
0
41
1
10
17.3651370569033
20
6.97484164566026
30
0
0
LINE
5
49
100
AcDbEntity
8
80
62
256
6
ByLayer
370
-1
48
1
60
0
100
AcDbLine
10
0
20
0
30
0
11
-10
21
0
31
0
39
0
210
0
220
0
230
1
0
LINE
5
4A
100
AcDbEntity
8
81
62
256
6
ByLayer
370
-1
48
1
60
0
100
AcDbLine
10
20
20
10.9
30
0
11
30
21
10.9
31
0
39
0
210
0
220
0
230
1
0
LINE
5
4B
100
AcDbEntity
8
SK4
62
256
6
ByLayer
370
-1
48
0.05
60
0
100
AcDbLine
10
-10
20
0
30
0
11
24.60697
21
0
31
0
39
0
210
0
220
0
230
1
0
LINE
5
4D
100
AcDbEntity
8
4
62
256
6
ByLayer
370
-1
48
0.05
60
0
100
AcDbLine
10
0
20
0
30
0
11
29.60697
21
0
31
0
39
0
210
0
220
0
230
1
0
LINE
5
4F
100
AcDbEntity
8
1
62
256
6
ByLayer
370
-1
48
1
60
0
100
AcDbLine
10
7.087734
20
8
30
0
11
6.545196
21
8
31
0
39
0
210
0
220
0
230
1
0
LINE
5
50
100
AcDbEntity
8
1
62
256
6
ByLayer
370
-1
48
1
60
0
100
AcDbLine
10
17.079598
20
6.629135
30
0
11
16.987709
21
6.668223
31
0
39
0
210
0
220
0
230
1
0
LINE
5
51
100
AcDbEntity
8
SK1
62
256
6
ByLayer
370
-1
48
1
60
0
100
AcDbLine
10
-0.221242
20
1.955
30
0
11
-1.49
21
1.955
31
0
39
0
210
0
220
0
230
1
0
LINE
5
53
100
AcDbEntity
8
SK1
62
256
6
ByLayer
370
-1
48
1
60
0
100
AcDbLine
10
-1.49
20
-1.955
30
0
11
-0.221242
21
-1.955
31
0
39
0
210
0
220
0
230
1
0
LINE
5
54
100
AcDbEntity
8
1
62
256
6
ByLayer
370
-1
48
1
60
0
100
AcDbLine
10
17.32683
20
8.987967
30
0
11
17.253421
21
9.019194
31
0
39
0
210
0
220
0
230
1
0
LINE
5
55
100
AcDbEntity
8
1
62
256
6
ByLayer
370
-1
48
1
60
0
100
AcDbLine
10
15.902947
20
5.844494
30
0
11
15.976356
21
5.813267
31
0
39
0
210
0
220
0
230
1
0
LINE
5
56
100
AcDbEntity
8
1
62
256
6
ByLayer
370
-1
48
1
60
0
100
AcDbLine
10
17.260793
20
7.909202
30
0
11
17.350423
21
7.871075
31
0
39
0
210
0
220
0
230
1
0
LINE
5
57
100
AcDbEntity
8
1
62
256
6
ByLayer
370
-1
48
1
60
0
100
AcDbLine
10
15.972985
20
6.921557
30
0
11
15.883382
21
6.959673
31
0
39
0
210
0
220
0
230
1
0
LINE
5
58
100
AcDbEntity
8
1
62
256
6
ByLayer
370
-1
48
1
60
0
100
AcDbLine
10
16.151918
20
8.202586
30
0
11
16.24381
21
8.163497
31
0
39
0
210
0
220
0
230
1
0
LINE
5
59
100
AcDbEntity
8
SK1
62
256
6
ByLayer
370
-1
48
1
60
0
100
AcDbLine
10
-1.49
20
1.955
30
0
11
-1.99
21
1.821025
31
0
39
0
210
0
220
0
230
1
0
LINE
5
5A
100
AcDbEntity
8
SK1
62
256
6
ByLayer
370
-1
48
1
60
0
100
AcDbLine
10
-1.99
20
-1.821025
30
0
11
-1.49
21
-1.955
31
0
39
0
210
0
220
0
230
1
0
LINE
5
5B
100
AcDbEntity
8
SK1
62
256
6
ByLayer
370
-1
48
1
60
0
100
AcDbLine
10
-1.99
20
-1.821025
30
0
11
-1.99
21
1.821025
31
0
39
0
210
0
220
0
230
1
0
LINE
5
5C
100
AcDbEntity
8
SK1
62
256
6
ByLayer
370
-1
48
1
60
0
100
AcDbLine
10
-1.49
20
-1.955
30
0
11
-1.49
21
1.955
31
0
39
0
210
0
220
0
230
1
0
LINE
5
5D
100
AcDbEntity
8
1
62
256
6
ByLayer
370
-1
48
1
60
0
100
AcDbLine
10
13.966766
20
5.108901
30
0
11
13.909497
21
5.133262
31
0
39
0
210
0
220
0
230
1
0
LINE
5
5E
100
AcDbEntity
8
1
62
256
6
ByLayer
370
-1
48
1
60
0
100
AcDbLine
10
11.667546
20
8.345267
30
0
11
13.909497
21
5.133262
31
0
39
0
210
0
220
0
230
1
0
LINE
5
5F
100
AcDbEntity
8
1
62
256
6
ByLayer
370
-1
48
1
60
0
100
AcDbLine
10
6.252864
20
7.90174
30
0
11
0.528766
21
7.90174
31
0
39
0
210
0
220
0
230
1
0
LINE
5
60
100
AcDbEntity
8
1
62
256
6
ByLayer
370
-1
48
1
60
0
100
AcDbLine
10
6.385274
20
7.927695
30
0
11
6.131379
21
5.027366
31
0
39
0
210
0
220
0
230
1
0
LINE
5
61
100
AcDbEntity
8
1
62
256
6
ByLayer
370
-1
48
1
60
0
100
AcDbLine
10
5.17355
20
-7.538957
30
0
11
5.08836
21
-7.510322
31
0
39
0
210
0
220
0
230
1
0
LINE
5
62
100
AcDbEntity
8
1
62
256
6
ByLayer
370
-1
48
1
60
0
100
AcDbLine
10
14.221338
20
4.821866
30
0
11
17.412151
21
2.599818
31
0
39
0
210
0
220
0
230
1
0
LINE
5
63
100
AcDbEntity
8
1
62
256
6
ByLayer
370
-1
48
1
60
0
100
AcDbLine
10
7.599704
20
7.998944
30
0
11
6.461303
21
-5.005358
31
0
39
0
210
0
220
0
230
1
0
LINE
5
64
100
AcDbEntity
8
1
62
256
6
ByLayer
370
-1
48
1
60
0
100
AcDbLine
10
0
20
7.365924
30
0
11
0
21
-7.365924
31
0
39
0
210
0
220
0
230
1
0
LINE
5
65
100
AcDbEntity
8
1
62
256
6
ByLayer
370
-1
48
1
60
0
100
AcDbLine
10
14.221338
20
4.821866
30
0
11
14.275141
21
4.798979
31
0
39
0
210
0
220
0
230
1
0
LINE
5
66
100
AcDbEntity
8
1
62
256
6
ByLayer
370
-1
48
1
60
0
100
AcDbLine
10
10.847259
20
7.998944
30
0
11
7.599704
21
7.998944
31
0
39
0
210
0
220
0
230
1
0
LINE
5
67
100
AcDbEntity
8
1
62
256
6
ByLayer
370
-1
48
1
60
0
100
AcDbLine
10
17.413994
20
2.60379
30
0
11
14.275141
21
4.798979
31
0
39
0
210
0
220
0
230
1
0
LINE
5
68
100
AcDbEntity
8
1
62
256
6
ByLayer
370
-1
48
1
60
0
100
AcDbLine
10
17.412151
20
2.599818
30
0
11
17.413994
21
2.60379
31
0
39
0
210
0
220
0
230
1
0
LINE
5
69
100
AcDbEntity
8
1
62
256
6
ByLayer
370
-1
48
1
60
0
100
AcDbLine
10
13.966766
20
5.108901
30
0
11
11.741794
21
8.322661
31
0
39
0
210
0
220
0
230
1
0
LINE
5
6A
100
AcDbEntity
8
1
62
256
6
ByLayer
370
-1
48
1
60
0
100
AcDbLine
10
6.406982
20
7.953543
30
0
11
6.252864
21
7.90174
31
0
39
0
210
0
220
0
230
1
0
LINE
5
6B
100
AcDbEntity
8
1
62
256
6
ByLayer
370
-1
48
1
60
0
100
AcDbLine
10
17.412151
20
2.599818
30
0
11
16.346987
21
0.303656
31
0
39
0
210
0
220
0
230
1
0
LINE
5
6C
100
AcDbEntity
8
1
62
256
6
ByLayer
370
-1
48
1
60
0
100
AcDbLine
10
12.835684
20
-1.839328
30
0
11
12.990545
21
-1.839328
31
0
39
0
210
0
220
0
230
1
0
LINE
5
6D
100
AcDbEntity
8
1
62
256
6
ByLayer
370
-1
48
1
60
0
100
AcDbLine
10
0.528766
20
-7.90174
30
0
11
5.058384
21
-7.90174
31
0
39
0
210
0
220
0
230
1
0
LINE
5
6E
100
AcDbEntity
8
1
62
256
6
ByLayer
370
-1
48
1
60
0
100
AcDbLine
10
17.413994
20
2.60379
30
0
11
17.549186
21
2.895222
31
0
39
0
210
0
220
0
230
1
0
LINE
5
6F
100
AcDbEntity
8
1
62
256
6
ByLayer
370
-1
48
1
60
0
100
AcDbLine
10
5.217329
20
-5.414101
30
0
11
5.005377
21
-7.835303
31
0
39
0
210
0
220
0
230
1
0
LINE
5
70
100
AcDbEntity
8
1
62
256
6
ByLayer
370
-1
48
1
60
0
100
AcDbLine
10
0.528766
20
-7.90174
30
0
11
0.528766
21
7.90174
31
0
39
0
210
0
220
0
230
1
0
LINE
5
71
100
AcDbEntity
8
1
62
256
6
ByLayer
370
-1
48
1
60
0
100
AcDbLine
10
5.826444
20
1.543999
30
0
11
5.565774
21
-1.43371
31
0
39
0
210
0
220
0
230
1
0
LINE
5
72
100
AcDbEntity
8
SK1
62
256
6
ByLayer
370
-1
48
1
60
0
100
AcDbLine
10
0
20
7.365924
30
0
11
0
21
-7.365924
31
0
39
0
210
0
220
0
230
1
0
LINE
5
73
100
AcDbEntity
8
SK1
62
256
6
ByLayer
370
-1
48
1
60
0
100
AcDbLine
10
-0.221234
20
-7.141428
30
0
11
-0.221234
21
7.141428
31
0
39
0
210
0
220
0
230
1
0
LINE
5
74
100
AcDbEntity
8
1
62
256
6
ByLayer
370
-1
48
1
60
0
100
AcDbLine
10
12.087077
20
8.310365
30
0
11
13.97529
21
5.608357
31
0
39
0
210
0
220
0
230
1
0
LINE
5
75
100
AcDbEntity
8
1
62
256
6
ByLayer
370
-1
48
1
60
0
100
AcDbLine
10
15.229699
20
10.307605
30
0
11
12.243879
21
8.897771
31
0
39
0
210
0
220
0
230
1
0
LINE
5
76
100
AcDbEntity
8
1
62
256
6
ByLayer
370
-1
48
1
60
0
100
AcDbLine
10
19.570903
20
10.898351
30
0
11
16.289448
21
10.596961
31
0
39
0
210
0
220
0
230
1
0
LINE
5
77
100
AcDbEntity
8
1
62
256
6
ByLayer
370
-1
48
1
60
0
100
AcDbLine
10
19.710094
20
7.174195
30
0
11
19.998484
21
10.470505
31
0
39
0
210
0
220
0
230
1
0
LINE
5
78
100
AcDbEntity
8
1
62
256
6
ByLayer
370
-1
48
1
60
0
100
AcDbLine
10
18.032499
20
3.105564
30
0
11
19.425743
21
6.108962
31
0
39
0
210
0
220
0
230
1
0
LINE
5
79
100
AcDbEntity
8
1
62
256
6
ByLayer
370
-1
48
1
60
0
100
AcDbLine
10
14.750687
20
4.832479
30
0
11
17.448117
21
2.946003
31
0
39
0
210
0
220
0
230
1
0
LINE
5
7A
100
AcDbEntity
8
1
62
256
6
ByLayer
370
-1
48
1
60
0
100
AcDbLine
10
15.735764
20
7.392691
30
0
11
15.64075
21
7.433108
31
0
39
0
210
0
220
0
230
1
0
LINE
5
7B
100
AcDbEntity
8
1
62
256
6
ByLayer
370
-1
48
1
60
0
100
AcDbLine
10
16.199788
20
6.591801
30
0
11
16.104946
21
6.632146
31
0
39
0
210
0
220
0
230
1
0
LINE
5
7C
100
AcDbEntity
8
1
62
256
6
ByLayer
370
-1
48
1
60
0
100
AcDbLine
10
16.199965
20
6.591699
30
0
11
16.105123
21
6.632044
31
0
39
0
210
0
220
0
230
1
0
LINE
5
7D
100
AcDbEntity
8
1
62
256
6
ByLayer
370
-1
48
1
60
0
100
AcDbLine
10
17.075575
20
6.609039
30
0
11
17.03171
21
6.627699
31
0
39
0
210
0
220
0
230
1
0
LINE
5
7E
100
AcDbEntity
8
1
62
256
6
ByLayer
370
-1
48
1
60
0
100
AcDbLine
10
17.46374
20
7.8645
30
0
11
17.368727
21
7.904917
31
0
39
0
210
0
220
0
230
1
0
LINE
5
7F
100
AcDbEntity
8
1
62
256
6
ByLayer
370
-1
48
1
60
0
100
AcDbLine
10
16.662174
20
8.323221
30
0
11
16.567332
21
8.363566
31
0
39
0
210
0
220
0
230
1
0
LINE
5
80
100
AcDbEntity
8
1
62
256
6
ByLayer
370
-1
48
1
60
0
100
AcDbLine
10
16.66197
20
8.32322
30
0
11
16.567128
21
8.363565
31
0
39
0
210
0
220
0
230
1
0
LINE
5
81
100
AcDbEntity
8
1
62
256
6
ByLayer
370
-1
48
1
60
0
100
AcDbLine
10
16.108502
20
8.234773
30
0
11
16.104124
21
8.236636
31
0
39
0
210
0
220
0
230
1
0
LINE
5
82
100
AcDbEntity
8
1
62
256
6
ByLayer
370
-1
48
1
60
0
100
AcDbLine
10
15.854239
20
7.860769
30
0
11
15.758852
21
7.901345
31
0
39
0
210
0
220
0
230
1
0
LINE
5
83
100
AcDbEntity
8
2
62
256
6
ByLayer
370
-1
48
1
60
1
100
AcDbLine
10
20
20
0
30
0
11
20.001
21
0.001
31
0
39
0
210
0
220
0
230
1
0
MTEXT
5
D6
100
AcDbEntity
8
SK6
62
256
6
ByLayer
370
-1
48
1
60
0
100
AcDbMText
10
10.875
20
-20.325
30
0
210
0
220
0
230
1
1
\W00.746;\fsimplex.shx,bigfont.shx;570-SWLPR-16-04 
40
3.5
41
0
44
1.084337
50
0
71
7
72
5
7
DEFAULT
0
DIMENSION
5
10A
100
AcDbEntity
8
SK2
62
256
6
ByLayer
370
-3
48
1
60
0
100
AcDbDimension
2
DimnDraft3D1
10
-9.75
20
8
30
0
11
-9.75
21
-4.221711
31
0
70
32
71
5
72
1
41
1
210
0
220
0
230
1
3
Standard
100
AcDbAlignedDimension
13
-2
23
-8
33
0
14
-2
24
8
34
0
50
90
100
AcDbRotatedDimension
1001
ACAD
1000
DSTYLE
1002
{
1070
    74
1070
     0
1070
   279
1070
     0
1070
   172
1070
     1
1070
   173
1070
     1
1070
   340
1005
D7
1070
    77
1070
     1
1070
    73
1070
     0
1070
   171
1070
     4
1070
   274
1070
     4
1070
   177
1070
     2
1070
   176
1070
     2
1070
   178
1070
     7
1070
    78
1070
     8
1070
    41
1041
3.175
1070
   147
1041
2.25
1070
    42
1041
2.0
1070
    44
1041
2.0
1070
   140
1041
4.5
1070
   343
1005
10B
1070
   344
1005
10B
1002
}
0
DIMENSION
5
11F
100
AcDbEntity
8
2
62
256
6
ByLayer
370
-3
48
1
60
0
100
AcDbDimension
2
DimnDraft3D2
10
32.25
20
0
30
0
11
32.25
21
21.155
31
0
70
32
71
5
72
1
41
1
210
0
220
0
230
1
3
Standard
100
AcDbAlignedDimension
13
22
23
10.9
33
0
14
22
24
0
34
0
50
90
100
AcDbRotatedDimension
1001
ACAD
1000
DSTYLE
1002
{
1070
    74
1070
     0
1070
   279
1070
     0
1070
   172
1070
     1
1070
   173
1070
     1
1070
   340
1005
D7
1070
    77
1070
     1
1070
    73
1070
     0
1070
   171
1070
     4
1070
   274
1070
     4
1070
   177
1070
     2
1070
   176
1070
     2
1070
   178
1070
     7
1070
    78
1070
     8
1070
    41
1041
3.175
1070
   147
1041
2.25
1070
    42
1041
2.0
1070
    44
1041
2.0
1070
   140
1041
4.5
1070
   343
1005
10B
1070
   344
1005
10B
1002
}
0
DIMENSION
5
12D
100
AcDbEntity
8
2
62
256
6
ByLayer
370
-3
48
1
60
0
100
AcDbDimension
2
DimnDraft3D3
10
20
20
23.65
30
0
11
4.836842
21
23.65
31
0
70
32
71
5
72
1
41
1
210
0
220
0
230
1
3
Standard
100
AcDbAlignedDimension
13
0
23
10
33
0
14
20
24
12.9
34
0
50
0
100
AcDbRotatedDimension
1001
ACAD
1000
DSTYLE
1002
{
1070
   279
1070
     0
1070
   172
1070
     1
1070
   173
1070
     1
1070
   340
1005
D7
1070
    77
1070
     1
1070
    73
1070
     0
1070
   171
1070
     4
1070
   274
1070
     4
1070
   177
1070
     2
1070
   176
1070
     2
1070
   178
1070
     7
1070
    78
1070
     8
1070
    41
1041
3.175
1070
   147
1041
2.25
1070
    42
1041
2.0
1070
    44
1041
2.0
1070
   140
1041
4.5
1070
   343
1005
10B
1070
   344
1005
10B
1002
}
0
DIMENSION
5
13B
100
AcDbEntity
8
2
62
256
6
ByLayer
370
-3
48
1
60
0
100
AcDbDimension
2
DimnDraft3D4
10
67.97278
20
0
30
0
11
44.532084
21
-37.243123
31
0
70
34
71
5
72
1
41
1
210
0
220
0
230
1
3
Standard
100
AcDb2LineAngularDimension
13
19.477066
23
4.922832
33
0
14
14.782156
24
-48.740227
34
0
15
22
25
0
35
0
16
47.709239
26
-31.280028
36
0
40
0
0
ENDSEC
0
SECTION
2
OBJECTS
0
DICTIONARY
5
16c
330
0
100
AcDbDictionary
280
0
281
1
3
ACAD_GROUP
350
16d
3
ACAD_MLINESTYLE
350
16e
0
DICTIONARY
5
16d
330
0
100
AcDbDictionary
280
0
281
1
0
DICTIONARY
5
16e
330
0
100
AcDbDictionary
280
0
281
1
3
Standard
350
18
0
MLINESTYLE
5
18
330
16e
100
AcDbMlineStyle
2
Standard
70
0
3

62
256
51
90
52
90
71
2
49
-0.5
62
256
6
ByLayer
49
0.5
62
256
6
ByLayer
0
RASTERVARIABLES
5
15a
330

100
AcDbRasterVariables
90
0
70
1
71
1
72
1
0
ENDSEC
0
EOF
