0
SECTION
2
HEADER
9
$ACADVER
1
AC1015
9
$DWGCODEPAGE
3
ANSI_1252
9
$HANDSEED
5
22d
9
$ANGBASE
50
0
9
$ANGDIR
70
0
9
$ATTMODE
70
1
9
$AUNITS
70
0
9
$AUPREC
70
0
9
$CECOLOR
62
256
9
$CELTSCALE
40
1
9
$CELTYPE
6
ByLayer
9
$CELWEIGHT
370
18
9
$CLAYER
8
0
9
$CMLJUST
70
0
9
$CMLSCALE
40
1
9
$CMLSTYLE
2
Standard
9
$DIMSTYLE
2
Standard
9
$TEXTSIZE
40
0.2
9
$TEXTSTYLE
7
Standard
9
$LUNITS
70
2
9
$LUPREC
70
4
9
$EXTNAMES
290
1
9
$INSUNITS
70
4
9
$LTSCALE
40
1
9
$LWDISPLAY
290
1
9
$PDMODE
70
0
9
$PDSIZE
40
0
9
$PLINEGEN
70
0
0
ENDSEC
0
SECTION
2
CLASSES
0
CLASS
1
RASTERVARIABLES
2
AcDbRasterVariables
3
ISM
90
0
280
0
281
0
0
ENDSEC
0
SECTION
2
TABLES
0
TABLE
2
VPORT
5
223
100
AcDbSymbolTable
0
VPORT
5
1
100
AcDbSymbolTableRecord
100
AcDbViewportTableRecord
2
*Active
70
0
10
0
20
0
11
1
21
1
12
-1
22
1
13
0
23
0
14
0.5
24
0.5
15
10
25
10
16
0
26
0
36
1
17
0
27
0
37
0
0
ENDTAB
0
TABLE
2
LTYPE
5
224
100
AcDbSymbolTable
0
LTYPE
5
14
100
AcDbSymbolTableRecord
100
AcDbLinetypeTableRecord
70
0
2
ByBlock
3

72
65
73
0
40
0
0
LTYPE
5
15
100
AcDbSymbolTableRecord
100
AcDbLinetypeTableRecord
70
0
2
ByLayer
3

72
65
73
0
40
0
0
LTYPE
5
16
100
AcDbSymbolTableRecord
100
AcDbLinetypeTableRecord
70
0
2
CONTINUOUS
3
Solid line
72
65
73
0
40
0
0
LTYPE
5
6A
100
AcDbSymbolTableRecord
100
AcDbLinetypeTableRecord
70
0
2
CENTER
3
____ _ ____ _ ____ _ ____
72
65
73
4
40
47.5
49
22
74
0
49
-8.5
74
0
49
8.5
74
0
49
-8.5
74
0
0
LTYPE
5
6B
100
AcDbSymbolTableRecord
100
AcDbLinetypeTableRecord
70
0
2
DASHED
3
__ __ __ __ __ __ __ __ __
72
65
73
2
40
25.72
49
12.86
74
0
49
-12.86
74
0
0
ENDTAB
0
TABLE
2
LAYER
5
225
100
AcDbSymbolTable
0
LAYER
5
10
100
AcDbSymbolTableRecord
100
AcDbLayerTableRecord
2
0
70
0
62
7
6
CONTINUOUS
290
1
370
-3
390
0
0
LAYER
5
6D
100
AcDbSymbolTableRecord
100
AcDbLayerTableRecord
2
80
70
0
62
-6
6
CONTINUOUS
290
1
370
-3
390
0
0
LAYER
5
6F
100
AcDbSymbolTableRecord
100
AcDbLayerTableRecord
2
81
70
0
62
-3
6
CONTINUOUS
290
1
370
-3
390
0
0
LAYER
5
78
100
AcDbSymbolTableRecord
100
AcDbLayerTableRecord
2
1
70
0
62
4
6
CONTINUOUS
290
1
370
-3
390
0
0
LAYER
5
D5
100
AcDbSymbolTableRecord
100
AcDbLayerTableRecord
2
4
70
0
62
-2
6
CENTER
290
1
370
-3
390
0
0
LAYER
5
184
100
AcDbSymbolTableRecord
100
AcDbLayerTableRecord
2
2
70
0
62
7
6
CONTINUOUS
290
1
370
-3
390
0
0
LAYER
5
20f
100
AcDbSymbolTableRecord
100
AcDbLayerTableRecord
2
SK1
70
0
62
4
6
CONTINUOUS
290
1
370
-3
390
0
0
LAYER
5
210
100
AcDbSymbolTableRecord
100
AcDbLayerTableRecord
2
SK4
70
0
62
2
6
CENTER
290
1
370
-3
390
0
0
LAYER
5
211
100
AcDbSymbolTableRecord
100
AcDbLayerTableRecord
2
SK6
70
0
62
5
6
CONTINUOUS
290
1
370
-3
390
0
0
LAYER
5
212
100
AcDbSymbolTableRecord
100
AcDbLayerTableRecord
2
SK2
70
0
62
7
6
CONTINUOUS
290
1
370
-3
390
0
0
ENDTAB
0
TABLE
2
STYLE
5
226
100
AcDbSymbolTable
0
STYLE
5
11
100
AcDbSymbolTableRecord
100
AcDbTextStyleTableRecord
2
Standard
3
txt
70
0
71
0
40
0
41
1
42
0
50
0
0
STYLE
5
17F
100
AcDbSymbolTableRecord
100
AcDbTextStyleTableRecord
2
blockfont
3
simplex.shx
70
0
71
0
40
0
41
1
42
0
50
0
0
STYLE
5
180
100
AcDbSymbolTableRecord
100
AcDbTextStyleTableRecord
2
DWGDirectTextStyle
3
simplex
70
0
71
0
40
0
41
1
42
0
50
0
0
ENDTAB
0
TABLE
2
DIMSTYLE
5
227
100
AcDbSymbolTable
100
AcDbDimStyleTable
0
DIMSTYLE
105
27
100
AcDbSymbolTableRecord
100
AcDbDimStyleTableRecord
2
Standard
70
0
3
<>
41
0.18
42
0.0625
44
0.18
140
0.18
147
0.09
73
0
74
0
77
1
271
2
275
0
278
52
280
0
340
11
0
ENDTAB
0
TABLE
2
VIEW
5
228
100
AcDbSymbolTable
0
ENDTAB
0
TABLE
2
UCS
5
229
100
AcDbSymbolTable
0
ENDTAB
0
TABLE
2
APPID
5
22a
100
AcDbSymbolTable
0
APPID
5
12
100
AcDbSymbolTableRecord
100
AcDbRegAppTableRecord
2
ACAD
70
0
0
ENDTAB
0
TABLE
2
BLOCK_RECORD
5
22b
100
AcDbSymbolTable
0
BLOCK_RECORD
5
1F
100
AcDbSymbolTableRecord
100
AcDbBlockTableRecord
2
*Model_Space
340
0
70
0
0
BLOCK_RECORD
5
1B
100
AcDbSymbolTableRecord
100
AcDbBlockTableRecord
2
*Paper_Space
340
0
70
0
0
BLOCK_RECORD
5
23
100
AcDbSymbolTableRecord
100
AcDbBlockTableRecord
2
*Paper_Space0
340
0
70
0
0
BLOCK_RECORD
5
182
100
AcDbSymbolTableRecord
100
AcDbBlockTableRecord
2
DimnDraft3D1
340
0
70
0
0
BLOCK_RECORD
5
18D
100
AcDbSymbolTableRecord
100
AcDbBlockTableRecord
2
DimnDraft3D2
340
0
70
0
0
BLOCK_RECORD
5
197
100
AcDbSymbolTableRecord
100
AcDbBlockTableRecord
2
DimnDraft3D3
340
0
70
0
0
BLOCK_RECORD
5
1A1
100
AcDbSymbolTableRecord
100
AcDbBlockTableRecord
2
DimnDraft3D44
340
0
70
0
0
BLOCK_RECORD
5
1AB
100
AcDbSymbolTableRecord
100
AcDbBlockTableRecord
2
DimnDraft3D5
340
0
70
0
0
ENDTAB
0
ENDSEC
0
SECTION
2
BLOCKS
0
BLOCK
5
20
100
AcDbEntity
8
0
100
AcDbBlockBegin
2
*Model_Space
70
0
10
0
20
0
30
0
3
*Model_Space
0
ENDBLK
5
21
100
AcDbEntity
8
0
100
AcDbBlockEnd
0
BLOCK
5
1C
100
AcDbEntity
8
0
100
AcDbBlockBegin
2
*Paper_Space
70
0
10
0
20
0
30
0
3
*Paper_Space
0
ENDBLK
5
1D
100
AcDbEntity
8
0
100
AcDbBlockEnd
0
BLOCK
5
24
100
AcDbEntity
8
0
100
AcDbBlockBegin
2
*Paper_Space0
70
0
10
0
20
0
30
0
3
*Paper_Space0
0
ENDBLK
5
25
100
AcDbEntity
8
0
100
AcDbBlockEnd
0
BLOCK
5
18A
100
AcDbEntity
8
0
100
AcDbBlockBegin
2
DimnDraft3D1
70
0
10
0
20
0
30
0
3
DimnDraft3D1
0
MTEXT
5
183
100
AcDbEntity
8
2
62
256
6
ByLayer
370
13
48
1
60
0
100
AcDbMText
10
36.412652
20
-13.506927
30
0
210
0
220
0
230
1
1
\W1.1795;22
40
3.175
41
0
44
0.903614
50
90
71
7
72
5
7
blockfont
0
LINE
5
185
100
AcDbEntity
8
2
62
256
6
ByLayer
370
13
48
1
60
0
100
AcDbLine
10
33.5875
20
0
30
0
11
40.149891
21
0
31
0
39
0
210
0
220
0
230
1
0
LINE
5
186
100
AcDbEntity
8
2
62
256
6
ByLayer
370
13
48
1
60
0
100
AcDbLine
10
16.5875
20
-22
30
0
11
40.149891
21
-22
31
0
39
0
210
0
220
0
230
1
0
LINE
5
187
100
AcDbEntity
8
2
62
256
6
ByLayer
370
13
48
1
60
0
100
AcDbLine
10
36.974891
20
0
30
0
11
36.974891
21
-22
31
0
39
0
210
0
220
0
230
1
0
SOLID
5
188
100
AcDbEntity
8
2
62
256
6
ByLayer
370
13
48
1
60
0
100
AcDbTrace
10
36.974891
20
0
30
0
11
37.392888
21
-3.174998
31
0
12
36.556894
22
-3.175002
32
0
13
36.974891
23
0
33
0
39
0
210
0
220
0
230
1
0
SOLID
5
189
100
AcDbEntity
8
2
62
256
6
ByLayer
370
13
48
1
60
0
100
AcDbTrace
10
36.974891
20
-22
30
0
11
36.556894
21
-18.825002
31
0
12
37.392888
22
-18.824998
32
0
13
36.974891
23
-22
33
0
39
0
210
0
220
0
230
1
0
ENDBLK
5
18B
100
AcDbEntity
8
0
100
AcDbBlockEnd
0
BLOCK
5
194
100
AcDbEntity
8
0
100
AcDbBlockBegin
2
DimnDraft3D2
70
0
10
0
20
0
30
0
3
DimnDraft3D2
0
MTEXT
5
18E
100
AcDbEntity
8
2
62
256
6
ByLayer
370
13
48
1
60
0
100
AcDbMText
10
4.993073
20
-29.768585
30
0
210
0
220
0
230
1
1
\W1.1795;15
40
3.175
41
0
44
0.903614
50
0
71
7
72
5
7
blockfont
0
LINE
5
18F
100
AcDbEntity
8
2
62
256
6
ByLayer
370
13
48
1
60
0
100
AcDbLine
10
0
20
-1.5875
30
0
11
0
21
-33.505825
31
0
39
0
210
0
220
0
230
1
0
LINE
5
190
100
AcDbEntity
8
2
62
256
6
ByLayer
370
13
48
1
60
0
100
AcDbLine
10
15
20
-23.5875
30
0
11
15
21
-33.505825
31
0
39
0
210
0
220
0
230
1
0
LINE
5
191
100
AcDbEntity
8
2
62
256
6
ByLayer
370
13
48
1
60
0
100
AcDbLine
10
0
20
-30.330825
30
0
11
15
21
-30.330825
31
0
39
0
210
0
220
0
230
1
0
SOLID
5
192
100
AcDbEntity
8
2
62
256
6
ByLayer
370
13
48
1
60
0
100
AcDbTrace
10
0
20
-30.330825
30
0
11
3.174998
21
-29.912828
31
0
12
3.175002
22
-30.748821
32
0
13
0
23
-30.330825
33
0
39
0
210
0
220
0
230
1
0
SOLID
5
193
100
AcDbEntity
8
2
62
256
6
ByLayer
370
13
48
1
60
0
100
AcDbTrace
10
15
20
-30.330825
30
0
11
11.825002
21
-30.748821
31
0
12
11.824998
22
-29.912828
32
0
13
15
23
-30.330825
33
0
39
0
210
0
220
0
230
1
0
ENDBLK
5
195
100
AcDbEntity
8
0
100
AcDbBlockEnd
0
BLOCK
5
19E
100
AcDbEntity
8
0
100
AcDbBlockBegin
2
DimnDraft3D3
70
0
10
0
20
0
30
0
3
DimnDraft3D3
0
MTEXT
5
198
100
AcDbEntity
8
SK2
62
256
6
ByLayer
370
13
48
1
60
0
100
AcDbMText
10
6.951441
20
-19.702685
30
0
210
0
220
0
230
1
1
\W1.4729;93%%d
40
3.175
41
0
44
0.903614
50
43.4999999999998
71
7
72
5
7
blockfont
0
LINE
5
19A
100
AcDbEntity
8
SK2
62
256
6
ByLayer
370
13
48
1
60
0
100
AcDbLine
10
11.9125
20
-22
30
0
11
5.171881
21
-22
31
0
39
0
210
0
220
0
230
1
0
ARC
5
19B
100
AcDbEntity
8
SK2
62
256
6
ByLayer
370
13
48
1
60
0
100
AcDbCircle
39
0
10
14.972138
20
-22
30
0
40
6.62525702116853
210
0
220
0
230
1
100
AcDbArc
50
87
51
180
0
SOLID
5
19C
100
AcDbEntity
8
SK2
62
256
6
ByLayer
370
13
48
1
60
0
100
AcDbTrace
10
15.318877
20
-15.383823
30
0
11
12.177877
21
-16.007888
31
0
12
12.123381
22
-15.173673
32
0
13
15.318877
23
-15.383823
33
0
39
0
210
0
220
0
230
1
0
SOLID
5
19D
100
AcDbEntity
8
SK2
62
256
6
ByLayer
370
13
48
1
60
0
100
AcDbTrace
10
8.346881
20
-22
30
0
11
8.304258
21
-18.797888
31
0
12
9.134479
22
-18.895963
32
0
13
8.346881
23
-22
33
0
39
0
210
0
220
0
230
1
0
ENDBLK
5
19F
100
AcDbEntity
8
0
100
AcDbBlockEnd
0
BLOCK
5
1A2
100
AcDbEntity
8
0
100
AcDbBlockBegin
2
DimnDraft3D44
70
0
10
0
20
0
30
0
3
DimnDraft3D44
0
LINE
5
1A4
100
AcDbEntity
8
SK2
62
256
6
ByLayer
370
25
48
1
60
0
100
AcDbLine
10
0
20
-1.5875
30
0
11
0
21
-46.565448
31
0
39
0
210
0
220
0
230
1
0
LINE
5
1A5
100
AcDbEntity
8
SK2
62
256
6
ByLayer
370
25
48
1
60
0
100
AcDbLine
10
27
20
-8.480237
30
0
11
27
21
-46.565448
31
0
39
0
210
0
220
0
230
1
0
LINE
5
1A6
100
AcDbEntity
8
SK2
62
256
6
ByLayer
370
25
48
1
60
0
100
AcDbLine
10
0
20
-43.390448
30
0
11
27
21
-43.390448
31
0
39
0
210
0
220
0
230
1
0
SOLID
5
1A7
100
AcDbEntity
8
SK2
62
256
6
ByLayer
370
25
48
1
60
0
100
AcDbTrace
10
0
20
-43.390448
30
0
11
3.174998
21
-42.972451
31
0
12
3.175002
22
-43.808445
32
0
13
0
23
-43.390448
33
0
39
0
210
0
220
0
230
1
0
SOLID
5
1A8
100
AcDbEntity
8
SK2
62
256
6
ByLayer
370
25
48
1
60
0
100
AcDbTrace
10
27
20
-43.390448
30
0
11
23.825002
21
-43.808445
31
0
12
23.824998
22
-42.972451
32
0
13
27
23
-43.390448
33
0
39
0
210
0
220
0
230
1
0
MTEXT
5
1A9
100
AcDbEntity
8
SK2
62
256
6
ByLayer
370
13
48
1
60
0
100
AcDbMText
10
7.818073
20
-41.439146
30
0
210
0
220
0
230
1
1
\W1.3381;(27)
40
3.175
41
0
44
0.903614
50
0
71
7
72
5
7
blockfont
0
ENDBLK
5
1A3
100
AcDbEntity
8
0
100
AcDbBlockEnd
0
BLOCK
5
1B3
100
AcDbEntity
8
0
100
AcDbBlockBegin
2
DimnDraft3D5
70
0
10
0
20
0
30
0
3
DimnDraft3D5
0
MTEXT
5
1AC
100
AcDbEntity
8
SK2
62
256
6
ByLayer
370
13
48
1
60
0
100
AcDbMText
10
-11.615455
20
-1.280892
30
0
210
0
220
0
230
1
1
\W1.1795;25
40
3.175
41
0
44
0.903614
50
90
71
7
72
5
7
blockfont
0
MTEXT
5
1AD
100
AcDbEntity
8
SK2
62
256
6
ByLayer
370
13
48
1
60
0
100
AcDbMText
10
-11.615455
20
-8.399837
30
0
210
0
220
0
230
1
1
%%c
40
3.175
41
0
44
0.903614
50
90
71
7
72
5
7
blockfont
0
LINE
5
1AE
100
AcDbEntity
8
SK2
62
256
6
ByLayer
370
13
48
1
60
0
100
AcDbLine
10
2.594324
20
-12.5
30
0
11
-13.434465
21
-12.5
31
0
39
0
210
0
220
0
230
1
0
LINE
5
1AF
100
AcDbEntity
8
SK2
62
256
6
ByLayer
370
13
48
1
60
0
100
AcDbLine
10
2.594324
20
12.5
30
0
11
-13.434465
21
12.5
31
0
39
0
210
0
220
0
230
1
0
LINE
5
1B0
100
AcDbEntity
8
SK2
62
256
6
ByLayer
370
13
48
1
60
0
100
AcDbLine
10
-10.259465
20
-12.5
30
0
11
-10.259465
21
12.5
31
0
39
0
210
0
220
0
230
1
0
SOLID
5
1B1
100
AcDbEntity
8
SK2
62
256
6
ByLayer
370
13
48
1
60
0
100
AcDbTrace
10
-10.259465
20
-12.5
30
0
11
-10.677462
21
-9.325002
31
0
12
-9.841468
22
-9.324998
32
0
13
-10.259465
23
-12.5
33
0
39
0
210
0
220
0
230
1
0
SOLID
5
1B2
100
AcDbEntity
8
SK2
62
256
6
ByLayer
370
13
48
1
60
0
100
AcDbTrace
10
-10.259465
20
12.5
30
0
11
-9.841468
21
9.325002
31
0
12
-10.677462
22
9.324998
32
0
13
-10.259465
23
12.5
33
0
39
0
210
0
220
0
230
1
0
ENDBLK
5
1B4
100
AcDbEntity
8
0
100
AcDbBlockEnd
0
ENDSEC
0
SECTION
2
ENTITIES
0
ARC
5
DA
100
AcDbEntity
8
1
62
256
6
ByLayer
370
18
48
1
60
0
100
AcDbCircle
39
0
10
-22
20
-1
30
0
40
5.00000000000009
210
0
220
0
230
-1
100
AcDbArc
50
90
51
180
0
ARC
5
DB
100
AcDbEntity
8
1
62
256
6
ByLayer
370
18
48
1
60
0
100
AcDbCircle
39
0
10
-13.3
20
12.2
30
0
40
8.19999999999995
210
0
220
0
230
-1
100
AcDbArc
50
270
51
332.445714
0
ELLIPSE
5
DC
100
AcDbEntity
8
1
62
256
6
ByLayer
370
18
48
1
60
0
100
AcDbEllipse
10
21.863963
20
-4.175214
30
0
11
-0.29493560260966
21
-0.265561209400535
31
0
210
0
220
0
230
-1
40
0.998783
41
1.39565441401608
42
-2.35680347777177
0
ELLIPSE
5
DD
100
AcDbEntity
8
1
62
256
6
ByLayer
370
18
48
1
60
0
100
AcDbEllipse
10
22.462388
20
-4.653517
30
0
11
-1.11471723821907
21
-1.00369590953497
31
0
210
0
220
0
230
-1
40
0.998783
41
0.712961705953185
42
3.14159265358979
0
ELLIPSE
5
DE
100
AcDbEntity
8
1
62
256
6
ByLayer
370
18
48
1
60
0
100
AcDbEllipse
10
15.396638
20
-21.478656
30
0
11
-0.294935602619391
21
-0.26556120938967
31
0
210
0
220
0
230
-1
40
0.998783
41
-1.74593823961057
42
0.784789175781371
0
ELLIPSE
5
DF
100
AcDbEntity
8
1
62
256
6
ByLayer
370
18
48
1
60
0
100
AcDbEllipse
10
21.357292
20
-13.843072
30
0
11
-0.294935603469406
21
-0.265561208452252
31
0
210
0
220
0
230
-1
40
0.998783
41
-2.35680348099405
42
-1.74593824280174
0
ELLIPSE
5
E0
100
AcDbEntity
8
1
62
256
6
ByLayer
370
18
48
1
60
0
100
AcDbEllipse
10
15.903309
20
-11.810799
30
0
11
-0.294935602594006
21
-0.265561209417787
31
0
210
0
220
0
230
-1
40
0.998783
41
0.78478917587669
42
1.3956544140748
0
ELLIPSE
5
E1
100
AcDbEntity
8
1
62
256
6
ByLayer
370
18
48
1
60
0
100
AcDbEllipse
10
18.630301
20
-12.826935
30
0
11
-1.41546010212436
21
-1.27448600095608
31
0
210
0
220
0
230
-1
40
0.998783
41
2.05705898668421
42
2.66101812188553
0
ELLIPSE
5
E2
100
AcDbEntity
8
1
62
256
6
ByLayer
370
18
48
1
60
0
100
AcDbEllipse
10
18.630301
20
-12.826935
30
0
11
-1.41546010235256
21
-1.27448600070076
31
0
210
0
220
0
230
-1
40
0.998783
41
2.66101812170585
42
1.08453366708574
0
ELLIPSE
5
E3
100
AcDbEntity
8
1
62
256
6
ByLayer
370
18
48
1
60
0
100
AcDbEllipse
10
18.630301
20
-12.826935
30
0
11
-1.41546010234875
21
-1.27448600070568
31
0
210
0
220
0
230
-1
40
0.998783
41
1.08453366708914
42
2.05705898650741
0
ELLIPSE
5
E4
100
AcDbEntity
8
1
62
256
6
ByLayer
370
18
48
1
60
0
100
AcDbEllipse
10
18.61256
20
-12.807233
30
0
11
-1.39802015687675
21
-1.25878300258692
31
0
210
0
220
0
230
-1
40
0.998783
41
2.05705898623744
42
2.6610181214394
0
ELLIPSE
5
E5
100
AcDbEntity
8
1
62
256
6
ByLayer
370
18
48
1
60
0
100
AcDbEllipse
10
18.61256
20
-12.807233
30
0
11
-1.39802015654227
21
-1.25878300296092
31
0
210
0
220
0
230
-1
40
0.998783
41
2.66101812170588
42
-0.480500620735262
0
ELLIPSE
5
E6
100
AcDbEntity
8
1
62
256
6
ByLayer
370
18
48
1
60
0
100
AcDbEllipse
10
18.61256
20
-12.807233
30
0
11
-1.39802015655611
21
-1.25878300294575
31
0
210
0
220
0
230
-1
40
0.998783
41
-0.480500620746146
42
1.08453366707482
0
ELLIPSE
5
E7
100
AcDbEntity
8
1
62
256
6
ByLayer
370
18
48
1
60
0
100
AcDbEllipse
10
18.604312
20
-12.798071
30
0
11
-1.3387119685656
21
-1.2053816706475
31
0
210
0
220
0
230
-1
40
0.998783
41
0
42
6.28318530717959
0
ELLIPSE
5
E8
100
AcDbEntity
8
1
62
256
6
ByLayer
370
18
48
1
60
0
100
AcDbEllipse
10
18.624122
20
-12.820073
30
0
11
-1.28192482395022
21
-1.15425029596713
31
0
210
0
220
0
230
-1
40
0.998783
41
0
42
2.66101812170426
0
ELLIPSE
5
E9
100
AcDbEntity
8
1
62
256
6
ByLayer
370
18
48
1
60
0
100
AcDbEllipse
10
18.629862
20
-12.826448
30
0
11
-0.966088273120431
21
-0.869869788266717
31
0
210
0
220
0
230
-1
40
0.998783
41
0
42
6.28318530717959
0
ELLIPSE
5
EA
100
AcDbEntity
8
1
62
256
6
ByLayer
370
18
48
1
60
0
100
AcDbEllipse
10
18.629862
20
-12.826448
30
0
11
-0.769154894264574
21
-0.692550177696787
31
0
210
0
220
0
230
-1
40
0.998783
41
-2.57582761378696
42
-1.52691410327012
0
ELLIPSE
5
EB
100
AcDbEntity
8
1
62
256
6
ByLayer
370
18
48
1
60
0
100
AcDbEllipse
10
18.629862
20
-12.826448
30
0
11
-0.769154894442908
21
-0.692550177498937
31
0
210
0
220
0
230
-1
40
0.998783
41
-1.52691410352783
42
-0.48057453199085
0
ELLIPSE
5
EC
100
AcDbEntity
8
1
62
256
6
ByLayer
370
18
48
1
60
0
100
AcDbEllipse
10
18.629862
20
-12.826448
30
0
11
-0.769154894385011
21
-0.692550177564458
31
0
210
0
220
0
230
-1
40
0.998783
41
-0.480574531906379
42
0.56576503963007
0
ELLIPSE
5
ED
100
AcDbEntity
8
1
62
256
6
ByLayer
370
18
48
1
60
0
100
AcDbEllipse
10
18.629862
20
-12.826448
30
0
11
-0.769154894467206
21
-0.692550177473186
31
0
210
0
220
0
230
-1
40
0.998783
41
0.565765039511753
42
1.61467855002772
0
ELLIPSE
5
EE
100
AcDbEntity
8
1
62
256
6
ByLayer
370
18
48
1
60
0
100
AcDbEllipse
10
18.629862
20
-12.826448
30
0
11
-0.769154894428293
21
-0.69255017751529
31
0
210
0
220
0
230
-1
40
0.998783
41
1.61467855008319
42
2.66101812162008
0
ELLIPSE
5
EF
100
AcDbEntity
8
1
62
256
6
ByLayer
370
18
48
1
60
0
100
AcDbEllipse
10
18.629862
20
-12.826448
30
0
11
-0.769154894376813
21
-0.692550177574074
31
0
210
0
220
0
230
-1
40
0.998783
41
2.66101812169569
42
-2.57582761394762
0
ELLIPSE
5
F0
100
AcDbEntity
8
1
62
256
6
ByLayer
370
18
48
1
60
0
100
AcDbEllipse
10
18.624393
20
-12.820374
30
0
11
-0.555871950295076
21
-0.500510111542039
31
0
210
0
220
0
230
-1
40
0.998783
41
1.05249119728144
42
1.12795390129295
0
ELLIPSE
5
F1
100
AcDbEntity
8
1
62
256
6
ByLayer
370
18
48
1
60
0
100
AcDbEllipse
10
17.759092
20
-12.931725
30
0
11
-0.137481792668508
21
-0.123789162227003
31
0
210
0
220
0
230
-1
40
0.998783
41
-0.732304473602009
42
-0.11750429453578
0
ELLIPSE
5
F2
100
AcDbEntity
8
1
62
256
6
ByLayer
370
18
48
1
60
0
100
AcDbEllipse
10
18.894368
20
-11.993795
30
0
11
-0.137481791946878
21
-0.123789163018138
31
0
210
0
220
0
230
-1
40
0.998783
41
-3.03703415014764
42
-2.32409766569233
0
ELLIPSE
5
F3
100
AcDbEntity
8
1
62
256
6
ByLayer
370
18
48
1
60
0
100
AcDbEllipse
10
18.299346
20
-13.585789
30
0
11
-0.13748179269507
21
-0.123789162196762
31
0
210
0
220
0
230
-1
40
0.998783
41
-1.77864404535675
42
-0.162269009461728
0
ELLIPSE
5
F4
100
AcDbEntity
8
1
62
256
6
ByLayer
370
18
48
1
60
0
100
AcDbEllipse
10
19.434622
20
-12.64786
30
0
11
-0.13748179271795
21
-0.123789162171269
31
0
210
0
220
0
230
-1
40
0.998783
41
-2.99852018525489
42
-1.27428465882434
0
ELLIPSE
5
F5
100
AcDbEntity
8
1
62
256
6
ByLayer
370
18
48
1
60
0
100
AcDbEllipse
10
18.624393
20
-12.820374
30
0
11
-0.555873029787488
21
-0.50050892147907
31
0
210
0
220
0
230
-1
40
0.998783
41
-2.08910360387739
42
-2.01364090036714
0
ELLIPSE
5
F6
100
AcDbEntity
8
1
62
256
6
ByLayer
370
18
48
1
60
0
100
AcDbEllipse
10
17.69487
20
-13.534985
30
0
11
-0.313607115643587
21
-0.282373116679808
31
0
210
0
220
0
230
-1
40
0.998783
41
2.40928818214958
42
-3.14159265106826
0
ELLIPSE
5
F7
100
AcDbEntity
8
1
62
256
6
ByLayer
370
18
48
1
60
0
100
AcDbEllipse
10
19.498844
20
-12.044599
30
0
11
-0.313607292963577
21
-0.282372943552714
31
0
210
0
220
0
230
-1
40
0.998783
41
-5.82803951460776E-07
42
0.0425946702754352
0
ELLIPSE
5
F8
100
AcDbEntity
8
1
62
256
6
ByLayer
370
18
48
1
60
0
100
AcDbEllipse
10
19.498844
20
-12.044599
30
0
11
-0.313607116063312
21
-0.28237311620064
31
0
210
0
220
0
230
-1
40
0.998783
41
0.042595254898467
42
0.817494982752927
0
ELLIPSE
5
F9
100
AcDbEntity
8
1
62
256
6
ByLayer
370
18
48
1
60
0
100
AcDbEllipse
10
19.136669
20
-13.44504
30
0
11
-0.137481792710815
21
-0.123789162179174
31
0
210
0
220
0
230
-1
40
0.998783
41
-2.82845705855056
42
-0.228844589779742
0
ELLIPSE
5
FA
100
AcDbEntity
8
1
62
256
6
ByLayer
370
18
48
1
60
0
100
AcDbEllipse
10
18.600158
20
-12.793458
30
0
11
-1.28192482245856
21
-1.15425029765373
31
0
210
0
220
0
230
-1
40
0.998783
41
2.66101812301073
42
-3.14159265228771
0
ELLIPSE
5
FB
100
AcDbEntity
8
1
62
256
6
ByLayer
370
18
48
1
60
0
100
AcDbEllipse
10
18.624122
20
-12.820073
30
0
11
-1.28192482235499
21
-1.15425029777341
31
0
210
0
220
0
230
-1
40
0.998783
41
2.6610181231028
42
-3.14159265219608
0
ELLIPSE
5
FC
100
AcDbEntity
8
1
62
256
6
ByLayer
370
18
48
1
60
0
100
AcDbEllipse
10
18.624122
20
-12.820073
30
0
11
-1.28192482394822
21
-1.15425029596935
31
0
210
0
220
0
230
-1
40
0.998783
41
3.14159265358979
42
0
0
ELLIPSE
5
FD
100
AcDbEntity
8
1
62
256
6
ByLayer
370
18
48
1
60
0
100
AcDbEllipse
10
18.600158
20
-12.793458
30
0
11
-1.28192482394818
21
-1.15425029596939
31
0
210
0
220
0
230
-1
40
0.998783
41
0
42
2.66101812170603
0
ELLIPSE
5
FE
100
AcDbEntity
8
1
62
256
6
ByLayer
370
18
48
1
60
0
100
AcDbEllipse
10
18.789367
20
-13.942819
30
0
11
-0.313607116492195
21
-0.282373115725825
31
0
210
0
220
0
230
-1
40
0.998783
41
2.13784833543617
42
2.91274806328957
0
ELLIPSE
5
FF
100
AcDbEntity
8
1
62
256
6
ByLayer
370
18
48
1
60
0
100
AcDbEllipse
10
18.789367
20
-13.942819
30
0
11
-0.313607116140561
21
-0.282373116120643
31
0
210
0
220
0
230
-1
40
0.998783
41
1.36294860883897
42
2.13784833668772
0
ELLIPSE
5
100
100
AcDbEntity
8
1
62
256
6
ByLayer
370
18
48
1
60
0
100
AcDbEllipse
10
19.690785
20
-13.197414
30
0
11
-0.313607116316869
21
-0.282373115921205
31
0
210
0
220
0
230
-1
40
0.998783
41
1.15713511734804
42
1.8673079949246
0
ELLIPSE
5
101
100
AcDbEntity
8
1
62
256
6
ByLayer
370
18
48
1
60
0
100
AcDbEllipse
10
19.690785
20
-13.197414
30
0
11
-0.313607116105167
21
-0.282373116154607
31
0
210
0
220
0
230
-1
40
0.998783
41
0.313135595886407
42
1.02330847346377
0
ELLIPSE
5
102
100
AcDbEntity
8
1
62
256
6
ByLayer
370
18
48
1
60
0
100
AcDbEllipse
10
18.596857
20
-12.789792
30
0
11
-0.555873195569221
21
-0.500508738697928
31
0
210
0
220
0
230
-1
40
0.998783
41
-2.08910393372717
42
-2.01364123029189
0
ELLIPSE
5
103
100
AcDbEntity
8
1
62
256
6
ByLayer
370
18
48
1
60
0
100
AcDbEllipse
10
18.596857
20
-12.789792
30
0
11
-0.555872329418947
21
-0.500509693599518
31
0
210
0
220
0
230
-1
40
0.998783
41
1.24467040902106
42
2.01790408179537
0
ELLIPSE
5
104
100
AcDbEntity
8
1
62
256
6
ByLayer
370
18
48
1
60
0
100
AcDbEllipse
10
18.596857
20
-12.789792
30
0
11
-0.55587232936193
21
-0.500509693661127
31
0
210
0
220
0
230
-1
40
0.998783
41
0.0425952540731971
42
0.893307603103473
0
ELLIPSE
5
105
100
AcDbEntity
8
1
62
256
6
ByLayer
370
18
48
1
60
0
100
AcDbEllipse
10
18.596857
20
-12.789792
30
0
11
-0.555872329540778
21
-0.500509693462559
31
0
210
0
220
0
230
-1
40
0.998783
41
-1.00374431782078
42
0.0425952537164249
0
ELLIPSE
5
106
100
AcDbEntity
8
1
62
256
6
ByLayer
370
18
48
1
60
0
100
AcDbEllipse
10
18.596857
20
-12.789792
30
0
11
-0.555872329469824
21
-0.500509693541707
31
0
210
0
220
0
230
-1
40
0.998783
41
-2.01363950678821
42
-1.00374431767813
0
ELLIPSE
5
107
100
AcDbEntity
8
1
62
256
6
ByLayer
370
18
48
1
60
0
100
AcDbEllipse
10
18.596857
20
-12.789792
30
0
11
-0.555872515087525
21
-0.500509497741952
31
0
210
0
220
0
230
-1
40
0.998783
41
-3.09899776006327
42
-2.98603082979917
0
ELLIPSE
5
108
100
AcDbEntity
8
1
62
256
6
ByLayer
370
18
48
1
60
0
100
AcDbEllipse
10
18.596857
20
-12.789792
30
0
11
-0.555872329714439
21
-0.500509693272759
31
0
210
0
220
0
230
-1
40
0.998783
41
-2.98603046942741
42
-2.08910221110849
0
ELLIPSE
5
109
100
AcDbEntity
8
1
62
256
6
ByLayer
370
18
48
1
60
0
100
AcDbEllipse
10
18.596857
20
-12.789792
30
0
11
-0.555872329349899
21
-0.500509693676994
31
0
210
0
220
0
230
-1
40
0.998783
41
2.29436880475323
42
-3.09899739949012
0
ELLIPSE
5
10A
100
AcDbEntity
8
1
62
256
6
ByLayer
370
18
48
1
60
0
100
AcDbEllipse
10
7.748746
20
-10.949882
30
0
11
-0.747737588930103
21
-0.628180215134694
31
0
210
0
220
0
230
-1
40
0.040383
41
0.563927466596343
42
1.56941004722861
0
ELLIPSE
5
10B
100
AcDbEntity
8
1
62
256
6
ByLayer
370
18
48
1
60
0
100
AcDbEllipse
10
12.116864
20
-12.44638
30
0
11
-2.97257929588938
21
-2.67652243186414
31
0
210
0
220
0
230
-1
40
0.998783
41
-3.14159265139105
42
-2.88944965955999
0
ELLIPSE
5
10C
100
AcDbEntity
8
1
62
256
6
ByLayer
370
18
48
1
60
0
100
AcDbEllipse
10
12.116864
20
-12.44638
30
0
11
-2.97257930193701
21
-2.67652242540479
31
0
210
0
220
0
230
-1
40
0.998783
41
1.60509729888698
42
3.14159265358979
0
ELLIPSE
5
10D
100
AcDbEntity
8
1
62
256
6
ByLayer
370
18
48
1
60
0
100
AcDbEllipse
10
12.019499
20
-12.338246
30
0
11
-2.97257933895588
21
-2.67652238485473
31
0
210
0
220
0
230
-1
40
0.998783
41
-2.8894496754952
42
-2.69085630269698
0
ELLIPSE
5
10E
100
AcDbEntity
8
1
62
256
6
ByLayer
370
18
48
1
60
0
100
AcDbEllipse
10
23.646658
20
-16.66993
30
0
11
-2.9725766056625
21
-2.67652544924315
31
0
210
0
220
0
230
-1
40
0.998783
41
1.82075574636044
42
1.89053781848391
0
ELLIPSE
5
10F
100
AcDbEntity
8
1
62
256
6
ByLayer
370
18
48
1
60
0
100
AcDbEllipse
10
20.690429
20
0
30
0
11
-14.9054962419326
21
-12.491065487761
31
0
210
0
220
0
230
-1
40
0.031702
41
-0.398537789938334
42
-0.0378112720058086
0
ELLIPSE
5
110
100
AcDbEntity
8
1
62
256
6
ByLayer
370
18
48
1
60
0
100
AcDbEllipse
10
5.937515
20
0
30
0
11
-1.11017716765246
21
12.499956934662
31
0
210
0
220
0
230
-1
40
0.029556
41
0.176201846533835
42
2.7834911038553
0
ELLIPSE
5
111
100
AcDbEntity
8
1
62
256
6
ByLayer
370
18
48
1
60
0
100
AcDbEllipse
10
22.365023
20
-4.545382
30
0
11
-1.11471723781455
21
-1.0036959099873
31
0
210
0
220
0
230
-1
40
0.998783
41
-1.29507831954199
42
-0.703789117709221
0
ELLIPSE
5
112
100
AcDbEntity
8
1
62
256
6
ByLayer
370
18
48
1
60
0
100
AcDbEllipse
10
22.462388
20
-4.653517
30
0
11
-1.11471723820291
21
-1.00369590955286
31
0
210
0
220
0
230
-1
40
0.998783
41
3.14159265358979
42
-1.41685232735725
0
ELLIPSE
5
113
100
AcDbEntity
8
1
62
256
6
ByLayer
370
18
48
1
60
0
100
AcDbEllipse
10
22.355122
20
-4.534386
30
0
11
-1.11471723821983
21
-1.00369590953415
31
0
210
0
220
0
230
-1
40
0.998783
41
-3.0880662201957
42
-0.710790712864843
0
ELLIPSE
5
114
100
AcDbEntity
8
1
62
256
6
ByLayer
370
18
48
1
60
0
100
AcDbEllipse
10
22.874352
20
-5.111049
30
0
11
-0.990895891315804
21
-1.13801679571742
31
0
210
0
220
0
230
-1
40
0.438365
41
-1.24166811913591
42
-1.09060670535609
0
ELLIPSE
5
115
100
AcDbEntity
8
1
62
256
6
ByLayer
370
18
48
1
60
0
100
AcDbEllipse
10
22.040269
20
-4.184707
30
0
11
-1.55739178831948
21
1.49761657775214
31
0
210
0
220
0
230
-1
40
0.692302
41
-2.88395187176596
42
-2.61111645044093
0
POINT
5
6C
100
AcDbEntity
8
80
62
256
6
ByLayer
370
18
48
1
60
0
100
AcDbPoint
10
0
20
0
30
0
39
0
210
0
220
0
230
1
50
360
0
POINT
5
6E
100
AcDbEntity
8
81
62
256
6
ByLayer
370
18
48
1
60
0
100
AcDbPoint
10
15
20
-22
30
0
39
0
210
0
220
0
230
1
50
360
0
SPLINE
5
116
100
AcDbEntity
8
1
62
256
6
ByLayer
370
18
48
1
60
0
100
AcDbSpline
70
4
71
1
72
4
73
2
40
0
40
0
40
1
40
1
41
1
10
-0.271
20
11.6655760252119
30
0
41
1
10
0.2683318287498
20
12.1687415592248
30
0
0
SPLINE
5
117
100
AcDbEntity
8
1
62
256
6
ByLayer
370
18
48
1
60
0
100
AcDbSpline
70
4
71
3
72
11
73
7
40
0
40
0
40
0
40
0
40
0.30533470117854
40
0.566670533472727
40
0.785166129615038
40
1
40
1
40
1
40
1
41
1
10
0.268331828749773
20
12.1687415592248
30
0
41
1
10
0.283217655583704
20
12.1826435743731
30
0
41
1
10
0.308152648795546
20
12.2049941013474
30
0
41
1
10
0.33809344337224
20
12.2295124190781
30
0
41
1
10
0.355640806340483
20
12.2406233998851
30
0
41
1
10
0.359193571016924
20
12.2397309857166
30
0
41
1
10
0.359331826023105
20
12.2375190696703
30
0
0
SPLINE
5
118
100
AcDbEntity
8
1
62
256
6
ByLayer
370
18
48
1
60
0
100
AcDbSpline
70
4
71
1
72
4
73
2
40
0
40
0
40
1
40
1
41
1
10
-0.271
20
11.5138249074754
30
0
41
1
10
0.268331828749801
20
12.1200720484261
30
0
0
SPLINE
5
119
100
AcDbEntity
8
1
62
256
6
ByLayer
370
18
48
1
60
0
100
AcDbSpline
70
4
71
1
72
4
73
2
40
0
40
0
40
1
40
1
41
1
10
-0.271
20
11.4458797826991
30
0
41
1
10
0.2683318287498
20
11.9256996731398
30
0
0
SPLINE
5
11A
100
AcDbEntity
8
1
62
256
6
ByLayer
370
18
48
1
60
0
100
AcDbSpline
70
4
71
3
72
12
73
8
40
0
40
0
40
0
40
0
40
0.276374459700147
40
0.527068997920372
40
0.739352031508913
40
0.952080087822827
40
1
40
1
40
1
40
1
41
1
10
0.268331828749747
20
11.9256996731398
30
0
41
1
10
0.281796496511545
20
11.9377516403157
30
0
41
1
10
0.305324905981323
20
11.9574502392373
30
0
41
1
10
0.334750107021627
20
11.9785454703085
30
0
41
1
10
0.353360017939275
20
11.9869676998408
30
0
41
1
10
0.358899750643326
20
11.9842876866774
30
0
41
1
10
0.359338236301603
20
11.9802358944881
30
0
41
1
10
0.359331760064782
20
11.9793990344134
30
0
0
SPLINE
5
11B
100
AcDbEntity
8
1
62
256
6
ByLayer
370
18
48
1
60
0
100
AcDbSpline
70
4
71
1
72
4
73
2
40
0
40
0
40
1
40
1
41
1
10
-0.271
20
11.1868522829257
30
0
41
1
10
0.268331828749801
20
11.8428081509547
30
0
0
SPLINE
5
11C
100
AcDbEntity
8
1
62
256
6
ByLayer
370
18
48
1
60
0
100
AcDbSpline
70
4
71
1
72
4
73
2
40
0
40
0
40
1
40
1
41
1
10
-0.271
20
11.0817716995073
30
0
41
1
10
0.2683318287498
20
11.5430218856524
30
0
0
SPLINE
5
11D
100
AcDbEntity
8
1
62
256
6
ByLayer
370
18
48
1
60
0
100
AcDbSpline
70
4
71
3
72
12
73
8
40
0
40
0
40
0
40
0
40
0.246906046477276
40
0.485032711050052
40
0.724878208682725
40
0.92906672591234
40
1
40
1
40
1
40
1
41
1
10
0.268331828749694
20
11.5430218856523
30
0
41
1
10
0.280380192303373
20
11.5534371238155
30
0
41
1
10
0.302394949583377
20
11.5708114950485
30
0
41
1
10
0.332501154433384
20
11.5899306836977
30
0
41
1
10
0.352440182646739
20
11.5953422966892
30
0
41
1
10
0.3587123608123
20
11.5891002928853
30
0
41
1
10
0.359352312878337
20
11.5831506043792
30
0
41
1
10
0.359331568261182
20
11.5814200468529
30
0
0
SPLINE
5
11E
100
AcDbEntity
8
1
62
256
6
ByLayer
370
18
48
1
60
0
100
AcDbSpline
70
4
71
1
72
4
73
2
40
0
40
0
40
1
40
1
41
1
10
-0.271
20
10.7050531993073
30
0
41
1
10
0.268331828749801
20
11.4229183373425
30
0
0
SPLINE
5
11F
100
AcDbEntity
8
1
62
256
6
ByLayer
370
18
48
1
60
0
100
AcDbSpline
70
4
71
1
72
4
73
2
40
0
40
0
40
1
40
1
41
1
10
-0.271
20
10.5583220257766
30
0
41
1
10
0.2683318287498
20
11.0061526343846
30
0
0
SPLINE
5
120
100
AcDbEntity
8
1
62
256
6
ByLayer
370
18
48
1
60
0
100
AcDbSpline
70
4
71
3
72
12
73
8
40
0
40
0
40
0
40
0
40
0.215919551435539
40
0.438606705213586
40
0.662811235534138
40
0.855417451380321
40
1
40
1
40
1
40
1
41
1
10
0.268331828749585
20
11.0061526343845
30
0
41
1
10
0.278941214840581
20
11.0150943469462
30
0
41
1
10
0.299287206148939
20
11.0304218172409
30
0
41
1
10
0.328165933937004
20
11.0469069833106
30
0
41
1
10
0.348843794130817
20
11.0503247797689
30
0
41
1
10
0.357936067414267
20
11.0418960092203
30
0
41
1
10
0.359441914104706
20
11.0329806068844
30
0
41
1
10
0.359330518587423
20
11.0283357433787
30
0
0
SPLINE
5
121
100
AcDbEntity
8
1
62
256
6
ByLayer
370
18
48
1
60
0
100
AcDbSpline
70
4
71
1
72
4
73
2
40
0
40
0
40
1
40
1
41
1
10
-0.271
20
10.0461765861446
30
0
41
1
10
0.268331828749801
20
10.8438471855183
30
0
0
SPLINE
5
122
100
AcDbEntity
8
1
62
256
6
ByLayer
370
18
48
1
60
0
100
AcDbSpline
70
4
71
1
72
4
73
2
40
0
40
0
40
1
40
1
41
1
10
-0.271
20
9.85016060782767
30
0
41
1
10
0.2683318287498
20
10.2909881629557
30
0
0
SPLINE
5
123
100
AcDbEntity
8
1
62
256
6
ByLayer
370
18
48
1
60
0
100
AcDbSpline
70
4
71
3
72
12
73
8
40
0
40
0
40
0
40
0
40
0.184269843805183
40
0.389527077536961
40
0.596145831485378
40
0.77438323292498
40
1
40
1
40
1
40
1
41
1
10
0.268331828749331
20
10.2909881629555
30
0
41
1
10
0.277448232722891
20
10.2985777129342
30
0
41
1
10
0.295919536916762
20
10.3120918870976
30
0
41
1
10
0.323194234188899
20
10.3264524470617
30
0
41
1
10
0.344320170425647
20
10.3284066412758
30
0
41
1
10
0.356864389313925
20
10.3175891487659
30
0
41
1
10
0.359614415361103
20
10.3049134110336
30
0
41
1
10
0.35933161939197
20
10.295785068539
30
0
0
SPLINE
5
124
100
AcDbEntity
8
1
62
256
6
ByLayer
370
18
48
1
60
0
100
AcDbSpline
70
4
71
1
72
4
73
2
40
0
40
0
40
1
40
1
41
1
10
-0.271
20
9.17214064436432
30
0
41
1
10
0.268331828749801
20
10.078193301587
30
0
0
SPLINE
5
125
100
AcDbEntity
8
1
62
256
6
ByLayer
370
18
48
1
60
0
100
AcDbSpline
70
4
71
1
72
4
73
2
40
0
40
0
40
1
40
1
41
1
10
-0.271
20
8.91336995754131
30
0
41
1
10
0.2683318287498
20
9.3567344158534
30
0
0
SPLINE
5
126
100
AcDbEntity
8
1
62
256
6
ByLayer
370
18
48
1
60
0
100
AcDbSpline
70
4
71
3
72
13
73
9
40
0
40
0
40
0
40
0
40
0.149464143870252
40
0.363612188326396
40
0.548112532227609
40
0.7058837408618
40
0.950782481439216
40
1
40
1
40
1
40
1
41
1
10
0.268331828748665
20
9.35673441585296
30
0
41
1
10
0.275876398904938
20
9.36307721718997
30
0
41
1
10
0.293671025394588
20
9.37606033690258
30
0
41
1
10
0.320471309038503
20
9.38904365822947
30
0
41
1
10
0.341560184544515
20
9.38772214718417
30
0
41
1
10
0.355319137588399
20
9.37417993703805
30
0
41
1
10
0.359029878973066
20
9.35614597888586
30
0
41
1
10
0.359350816121391
20
9.34292465102796
30
0
41
1
10
0.359330919657453
20
9.34064347837262
30
0
0
SPLINE
5
127
100
AcDbEntity
8
1
62
256
6
ByLayer
370
18
48
1
60
0
100
AcDbSpline
70
4
71
1
72
4
73
2
40
0
40
0
40
1
40
1
41
1
10
-0.271
20
8.01284368997673
30
0
41
1
10
0.268331828749801
20
9.07887320461248
30
0
0
SPLINE
5
128
100
AcDbEntity
8
1
62
256
6
ByLayer
370
18
48
1
60
0
100
AcDbSpline
70
4
71
1
72
4
73
2
40
0
40
0
40
1
40
1
41
1
10
-0.271
20
7.6645720037064
30
0
41
1
10
0.2683318287498
20
8.12819294108705
30
0
0
SPLINE
5
129
100
AcDbEntity
8
1
62
256
6
ByLayer
370
18
48
1
60
0
100
AcDbSpline
70
4
71
3
72
13
73
9
40
0
40
0
40
0
40
0
40
0.111341735716495
40
0.284907862326837
40
0.415754075136071
40
0.546372899553588
40
0.738571050023162
40
1
40
1
40
1
40
1
41
1
10
0.268331828746529
20
8.1281929410856
30
0
41
1
10
0.274127245359678
20
8.13328237777806
30
0
41
1
10
0.288784005633857
20
8.14446128894175
30
0
41
1
10
0.31088625531366
20
8.15580930334157
30
0
41
1
10
0.330795928151666
20
8.1564579755995
30
0
41
1
10
0.346285820784917
20
8.14714485150737
30
0
41
1
10
0.35717047234585
20
8.12329378494179
30
0
41
1
10
0.359993139972262
20
8.10034265809883
30
0
41
1
10
0.359329328033873
20
8.08480299703372
30
0
0
SPLINE
5
12A
100
AcDbEntity
8
1
62
256
6
ByLayer
370
18
48
1
60
0
100
AcDbSpline
70
4
71
1
72
4
73
2
40
0
40
0
40
1
40
1
41
1
10
-0.271
20
6.41546288275444
30
0
41
1
10
0.268331828749801
20
7.75608774490778
30
0
0
SPLINE
5
12B
100
AcDbEntity
8
1
62
256
6
ByLayer
370
18
48
1
60
0
100
AcDbSpline
70
4
71
1
72
4
73
2
40
0
40
0
40
1
40
1
41
1
10
-0.271
20
5.90915933107239
30
0
41
1
10
0.2683318287498
20
6.43906530843253
30
0
0
SPLINE
5
12C
100
AcDbEntity
8
1
62
256
6
ByLayer
370
18
48
1
60
0
100
AcDbSpline
70
4
71
3
72
14
73
10
40
0
40
0
40
0
40
0
40
0.0684795826393751
40
0.19456875415544
40
0.286967672672188
40
0.37938980937939
40
0.505638411629199
40
0.720812003149523
40
1
40
1
40
1
40
1
41
1
10
0.268331828737742
20
6.43906530842519
30
0
41
1
10
0.272161546963097
20
6.44286822719109
30
0
41
1
10
0.283150632312056
20
6.45252477733933
30
0
41
1
10
0.300515953153847
20
6.46357084773645
30
0
41
1
10
0.31855496458936
20
6.46664744301674
30
0
41
1
10
0.333635023129585
20
6.46105706102571
30
0
41
1
10
0.348196036379338
20
6.44242055557298
30
0
41
1
10
0.357749015678482
20
6.40370455316541
30
0
41
1
10
0.36026725317564
20
6.36997056165788
30
0
41
1
10
0.359300056387306
20
6.34893140737093
30
0
0
SPLINE
5
12D
100
AcDbEntity
8
1
62
256
6
ByLayer
370
18
48
1
60
0
100
AcDbSpline
70
4
71
2
72
6
73
3
40
0
40
0
40
0
40
1
40
1
40
1
41
1
10
-0.271
20
3.8711321341437
30
0
41
1
10
-0.0500116079328933
20
4.90085228983694
30
0
41
1
10
0.268331828749801
20
5.8960033537971
30
0
0
SPLINE
5
12E
100
AcDbEntity
8
1
62
256
6
ByLayer
370
18
48
1
60
0
100
AcDbSpline
70
4
71
1
72
4
73
2
40
0
40
0
40
1
40
1
41
1
10
-0.271
20
2.82235079322184
30
0
41
1
10
0.2683318287498
20
3.70548291117113
30
0
0
SPLINE
5
12F
100
AcDbEntity
8
1
62
256
6
ByLayer
370
18
48
1
60
0
100
AcDbSpline
70
4
71
3
72
15
73
11
40
0
40
0
40
0
40
0
40
0.0735794556667093
40
0.117337412783366
40
0.161512553787525
40
0.201285889870518
40
0.24698378060107
40
0.324285439557587
40
0.552206145790106
40
1
40
1
40
1
40
1
41
1
10
0.268331828749801
20
3.70548291117113
30
0
41
1
10
0.27317271664111
20
3.71323795227824
30
0
41
1
10
0.281660549583934
20
3.72373770242346
30
0
41
1
10
0.294994108695799
20
3.73539203964325
30
0
41
1
10
0.306592550255214
20
3.74011211861696
30
0
41
1
10
0.317722482983456
20
3.73821805832594
30
0
41
1
10
0.328848612210134
20
3.72863089765883
30
0
41
1
10
0.344838890609917
20
3.6967093997358
30
0
41
1
10
0.35765206425488
20
3.61043940822519
30
0
41
1
10
0.362696847142543
20
3.53212662877294
30
0
41
1
10
0.359189874572763
20
3.47602307280862
30
0
0
SPLINE
5
130
100
AcDbEntity
8
1
62
256
6
ByLayer
370
18
48
1
60
0
100
AcDbSpline
70
4
71
3
72
10
73
6
40
0
40
0
40
0
40
0
40
0.290526091644605
40
0.883216910579043
40
1
40
1
40
1
40
1
41
1
10
0.268331828749801
20
-2.49876249156753
30
0
41
1
10
0.281351188167012
20
-2.59527153649546
30
0
41
1
10
0.31627830778488
20
-2.88771679041902
30
0
41
1
10
0.3529336881787
20
-3.21986715615614
30
0
41
1
10
0.358667205179749
20
-3.45000753939296
30
0
41
1
10
0.359291388638564
20
-3.48781576225676
30
0
0
SPLINE
5
131
100
AcDbEntity
8
1
62
256
6
ByLayer
370
18
48
1
60
0
100
AcDbSpline
70
4
71
1
72
4
73
2
40
0
40
0
40
1
40
1
41
1
10
0.2683318287498
20
-3.70548291117112
30
0
41
1
10
-0.271
20
-2.82235079322184
30
0
0
SPLINE
5
132
100
AcDbEntity
8
1
62
256
6
ByLayer
370
18
48
1
60
0
100
AcDbSpline
70
4
71
1
72
4
73
2
40
0
40
0
40
1
40
1
41
1
10
0.478999999999993
20
12.4373429638327
30
0
41
1
10
-0.270999999999991
20
11.6833214455479
30
0
0
SPLINE
5
133
100
AcDbEntity
8
1
62
256
6
ByLayer
370
18
48
1
60
0
100
AcDbSpline
70
4
71
3
72
11
73
7
40
0
40
0
40
0
40
0
40
0.24652643930841
40
0.494384046030033
40
0.746467221578925
40
1
40
1
40
1
40
1
41
1
10
0.268331828749801
20
-2.49876249156753
30
0
41
1
10
0.215049138641749
20
-2.09041515546027
30
0
41
1
10
0.134534050048706
20
-1.26952935194271
30
0
41
1
10
0.0917702246293674
20
-0.0211511880604017
30
0
41
1
10
0.13193121167536
20
1.23915001486172
30
0
41
1
10
0.213521442329606
20
2.07876453007929
30
0
41
1
10
0.268331828749801
20
2.49876249156753
30
0
0
SPLINE
5
134
100
AcDbEntity
8
1
62
256
6
ByLayer
370
18
48
1
60
0
100
AcDbSpline
70
4
71
2
72
6
73
3
40
0
40
0
40
0
40
1
40
1
40
1
41
1
10
4.94580234888438
20
12.3570912944872
30
0
41
1
10
4.90313928364796
20
12.3367699471229
30
0
41
1
10
4.90928753528918
20
12.3121664839115
30
0
0
SPLINE
5
135
100
AcDbEntity
8
1
62
256
6
ByLayer
370
18
48
1
60
0
100
AcDbSpline
70
4
71
3
72
16
73
12
40
0
40
0
40
0
40
0
40
0.352985857992059
40
0.62151947362791
40
0.721231930166504
40
0.769202152102731
40
0.809849657630468
40
0.85073270705469
40
0.895624161816605
40
0.968320103448929
40
1
40
1
40
1
40
1
41
1
10
0.359291388638564
20
-3.48781576225676
30
0
41
1
10
0.360840731741439
20
-3.52984020604322
30
0
41
1
10
0.357534519502322
20
-3.60052771636167
30
0
41
1
10
0.348474740895335
20
-3.68156293791822
30
0
41
1
10
0.333407105297634
20
-3.72145576095369
30
0
41
1
10
0.322620749571181
20
-3.73475689772068
30
0
41
1
10
0.312944513689886
20
-3.739784659048
30
0
41
1
10
0.301952396897733
20
-3.73889399965954
30
0
41
1
10
0.288416298230948
20
-3.73079597473627
30
0
41
1
10
0.277307023016072
20
-3.71821990158697
30
0
41
1
10
0.270357985016388
20
-3.70857329287199
30
0
41
1
10
0.268331828744222
20
-3.70548291116444
30
0
0
SPLINE
5
136
100
AcDbEntity
8
1
62
256
6
ByLayer
370
18
48
1
60
0
100
AcDbSpline
70
4
71
2
72
6
73
3
40
0
40
0
40
0
40
1
40
1
40
1
41
1
10
0.359189874572763
20
3.47602307280862
30
0
41
1
10
0.34638374569025
20
2.99491737130353
30
0
41
1
10
0.268331828749801
20
2.49876249156753
30
0
0
SPLINE
5
137
100
AcDbEntity
8
1
62
256
6
ByLayer
370
18
48
1
60
0
100
AcDbSpline
70
4
71
3
72
10
73
6
40
0
40
0
40
0
40
0
40
0.152967841041786
40
0.964961721399194
40
1
40
1
40
1
40
1
41
1
10
0.359300056387306
20
6.34893140737093
30
0
41
1
10
0.358576062276997
20
6.32706150447389
30
0
41
1
10
0.350721602089446
20
6.18832539256197
30
0
41
1
10
0.310738464062816
20
6.03089125155141
30
0
41
1
10
0.270041108984361
20
5.90136643216484
30
0
41
1
10
0.2683318287498
20
5.8960033537971
30
0
0
SPLINE
5
138
100
AcDbEntity
8
1
62
256
6
ByLayer
370
18
48
1
60
0
100
AcDbSpline
70
4
71
3
72
10
73
6
40
0
40
0
40
0
40
0
40
0.0373063099455158
40
0.417845763129588
40
1
40
1
40
1
40
1
41
1
10
0.359329328033873
20
8.08480299703372
30
0
41
1
10
0.359292207775335
20
8.08120175972708
30
0
41
1
10
0.358359825785802
20
8.04060943014346
30
0
41
1
10
0.335839447441501
20
7.93073619985956
30
0
41
1
10
0.299130741457838
20
7.82389768154569
30
0
41
1
10
0.268331828749801
20
7.75608774490778
30
0
0
SPLINE
5
139
100
AcDbEntity
8
1
62
256
6
ByLayer
370
18
48
1
60
0
100
AcDbSpline
70
4
71
3
72
10
73
6
40
0
40
0
40
0
40
0
40
0.230968598894378
40
0.706944253895611
40
1
40
1
40
1
40
1
41
1
10
0.359330919657453
20
9.34064347837262
30
0
41
1
10
0.358395120404957
20
9.3233134512448
30
0
41
1
10
0.35133947463526
20
9.26837015710503
30
0
41
1
10
0.316681218812443
20
9.17613603875912
30
0
41
1
10
0.282961446927171
20
9.10613792066978
30
0
41
1
10
0.268331828749801
20
9.07887320461248
30
0
0
SPLINE
5
13A
100
AcDbEntity
8
1
62
256
6
ByLayer
370
18
48
1
60
0
100
AcDbSpline
70
4
71
3
72
11
73
7
40
0
40
0
40
0
40
0
40
0.0143855280853671
40
0.279361894059176
40
0.719453354947086
40
1
40
1
40
1
40
1
41
1
10
0.35933161939197
20
10.295785068539
30
0
41
1
10
0.359327976142011
20
10.2950101172008
30
0
41
1
10
0.359098015644739
20
10.2798443190758
30
0
41
1
10
0.348337625057411
20
10.2323458596402
30
0
41
1
10
0.314106267754841
20
10.15665644218
30
0
41
1
10
0.282225042198507
20
10.1005592744009
30
0
41
1
10
0.268331828749801
20
10.078193301587
30
0
0
SPLINE
5
13B
100
AcDbEntity
8
1
62
256
6
ByLayer
370
18
48
1
60
0
100
AcDbSpline
70
4
71
3
72
11
73
7
40
0
40
0
40
0
40
0
40
0.081974713212739
40
0.361132569883601
40
0.796525474466885
40
1
40
1
40
1
40
1
41
1
10
0.359330518587423
20
11.0283357433787
30
0
41
1
10
0.359241260918894
20
11.0249323147136
30
0
41
1
10
0.357784037726483
20
11.0091320083732
30
0
41
1
10
0.341633801713023
20
10.9634344321392
30
0
41
1
10
0.307106097990215
20
10.901764417126
30
0
41
1
10
0.278228677233276
20
10.8580487462897
30
0
41
1
10
0.268331828749987
20
10.8438471855183
30
0
0
SPLINE
5
13C
100
AcDbEntity
8
1
62
256
6
ByLayer
370
18
48
1
60
0
100
AcDbSpline
70
4
71
3
72
11
73
7
40
0
40
0
40
0
40
0
40
0.111264760423343
40
0.380721557630775
40
0.781002584000573
40
1
40
1
40
1
40
1
41
1
10
0.359331568261182
20
11.5814200468529
30
0
41
1
10
0.359206910240326
20
11.5779970869357
30
0
41
1
10
0.357275791389288
20
11.5650578961897
30
0
41
1
10
0.340356229611402
20
11.527100045096
30
0
41
1
10
0.306741613514445
20
11.4746029519853
30
0
41
1
10
0.278947205061366
20
11.4367117769403
30
0
41
1
10
0.268331828749802
20
11.4229183373425
30
0
0
SPLINE
5
13D
100
AcDbEntity
8
1
62
256
6
ByLayer
370
18
48
1
60
0
100
AcDbSpline
70
4
71
3
72
11
73
7
40
0
40
0
40
0
40
0
40
0.137009995627838
40
0.396228881501606
40
0.766738296919895
40
1
40
1
40
1
40
1
41
1
10
0.359331760064782
20
11.9793990344134
30
0
41
1
10
0.359172312081909
20
11.9764691337797
30
0
41
1
10
0.356800675964922
20
11.966329805437
30
0
41
1
10
0.339323236356046
20
11.9348368029315
30
0
41
1
10
0.30653203469948
20
11.8896793276495
30
0
41
1
10
0.279603670601446
20
11.856258689331
30
0
41
1
10
0.26833182874994
20
11.8428081509529
30
0
0
SPLINE
5
13E
100
AcDbEntity
8
1
62
256
6
ByLayer
370
18
48
1
60
0
100
AcDbSpline
70
4
71
3
72
10
73
6
40
0
40
0
40
0
40
0
40
0.315550142877392
40
0.636182798581737
40
1
40
1
40
1
40
1
41
1
10
6.03010185938441
20
8.4067716882484
30
0
41
1
10
5.90633683574528
20
8.64465250326759
30
0
41
1
10
5.68166676282706
20
9.1314607142032
30
0
41
1
10
5.40796641331388
20
9.91975415808394
30
0
41
1
10
5.27762187754762
20
10.4758077692871
30
0
41
1
10
5.22457642529986
20
10.7760849431314
30
0
0
SPLINE
5
13F
100
AcDbEntity
8
1
62
256
6
ByLayer
370
18
48
1
60
0
100
AcDbSpline
70
4
71
3
72
12
73
8
40
0
40
0
40
0
40
0
40
0.0040628894778747
40
0.19272066273226
40
0.452799876357145
40
0.815203839378089
40
1
40
1
40
1
40
1
41
1
10
0.359331826023105
20
12.2375190696703
30
0
41
1
10
0.359331737651605
20
12.2374725072878
30
0
41
1
10
0.359294618303099
20
12.2352318088166
30
0
41
1
10
0.355107048018286
20
12.2258339625567
30
0
41
1
10
0.334133737249374
20
12.1965009017341
30
0
41
1
10
0.30185691422629
20
12.1577884270214
30
0
41
1
10
0.277170250367843
20
12.129872340899
30
0
41
1
10
0.268331828748937
20
12.1200720484235
30
0
0
SPLINE
5
140
100
AcDbEntity
8
1
62
256
6
ByLayer
370
18
48
1
60
0
100
AcDbSpline
70
4
71
3
72
12
73
8
40
0
40
0
40
0
40
0
40
0.0653589438502462
40
0.289730938852749
40
0.517150356856028
40
0.759049137700738
40
1
40
1
40
1
40
1
41
1
10
17.9725622478422
20
-12.0285880722465
30
0
41
1
10
17.9768147130336
20
-12.0250904755026
30
0
41
1
10
17.9961084094423
20
-12.0105217903614
30
0
41
1
10
18.035626041608
20
-11.9913277930953
30
0
41
1
10
18.0917077452329
20
-11.9826775724001
30
0
41
1
10
18.147001548497
20
-11.9913070818778
30
0
41
1
10
18.1788444971707
20
-12.0067116921757
30
0
41
1
10
18.1936576348984
20
-12.0169978173327
30
0
0
SPLINE
5
141
100
AcDbEntity
8
1
62
256
6
ByLayer
370
18
48
1
60
0
100
AcDbSpline
70
4
71
3
72
13
73
9
40
0
40
0
40
0
40
0
40
0.213200576248766
40
0.388802612258403
40
0.565403034445737
40
0.720673981466802
40
0.926679409772586
40
1
40
1
40
1
40
1
41
1
10
18.7757832910628
20
-11.9191454723923
30
0
41
1
10
18.7489914290223
20
-11.9547295155507
30
0
41
1
10
18.6906238278739
20
-12.0099392722774
30
0
41
1
10
18.5776888587498
20
-12.0692543911952
30
0
41
1
10
18.4609330288661
20
-12.0931399278951
30
0
41
1
10
18.3398622039337
20
-12.0855782956401
30
0
41
1
10
18.2531940036377
20
-12.0542634985036
30
0
41
1
10
18.2056513896332
20
-12.025313220979
30
0
41
1
10
18.1936576348984
20
-12.0169978173327
30
0
0
SPLINE
5
142
100
AcDbEntity
8
1
62
256
6
ByLayer
370
18
48
1
60
0
100
AcDbSpline
70
4
71
3
72
11
73
7
40
0
40
0
40
0
40
0
40
0.284737382921479
40
0.57142550564586
40
0.831498054963917
40
1
40
1
40
1
40
1
41
1
10
18.7757832910628
20
-11.9191454723923
30
0
41
1
10
18.7891361092594
20
-11.9016106426616
30
0
41
1
10
18.8206958440705
20
-11.8727548178037
30
0
41
1
10
18.8832447618988
20
-11.8460701737863
30
0
41
1
10
18.9440390764872
20
-11.8435771555688
30
0
41
1
10
18.9785500937887
20
-11.8522537926009
30
0
41
1
10
18.9921260417001
20
-11.8572046140729
30
0
0
SPLINE
5
143
100
AcDbEntity
8
1
62
256
6
ByLayer
370
18
48
1
60
0
100
AcDbSpline
70
4
71
3
72
12
73
8
40
0
40
0
40
0
40
0
40
0.0671993428668728
40
0.290898191897142
40
0.517747882846083
40
0.759126557989379
40
1
40
1
40
1
40
1
41
1
10
17.6097601404825
20
-12.9992715321625
30
0
41
1
10
17.6088239495738
20
-12.9936752336745
30
0
41
1
10
17.6058508256159
20
-12.9695126725147
30
0
41
1
10
17.60915873361
20
-12.9253115308573
30
0
41
1
10
17.6300362968809
20
-12.8717770069439
30
0
41
1
10
17.6656170719025
20
-12.8271978349785
30
0
41
1
10
17.6952435205316
20
-12.8065148948089
30
0
41
1
10
17.7117705860061
20
-12.79838560744
30
0
0
SPLINE
5
144
100
AcDbEntity
8
1
62
256
6
ByLayer
370
18
48
1
60
0
100
AcDbSpline
70
4
71
3
72
10
73
6
40
0
40
0
40
0
40
0
40
0.375426520874878
40
0.759456478399313
40
1
40
1
40
1
40
1
41
1
10
17.9147655516308
20
-12.5860552057721
30
0
41
1
10
17.8973830611455
20
-12.6231503222452
30
0
41
1
10
17.8562833149044
20
-12.6901544512533
30
0
41
1
10
17.7822128541683
20
-12.7581496907991
30
0
41
1
10
17.7320344286833
20
-12.7884300075976
30
0
41
1
10
17.7117705860061
20
-12.79838560744
30
0
0
SPLINE
5
145
100
AcDbEntity
8
1
62
256
6
ByLayer
370
18
48
1
60
0
100
AcDbSpline
70
4
71
3
72
10
73
6
40
0
40
0
40
0
40
0
40
0.4633564666611
40
0.844849939507183
40
1
40
1
40
1
40
1
41
1
10
17.9189144803613
20
-12.2441684515953
30
0
41
1
10
17.9368048119335
20
-12.2839851780651
30
0
41
1
10
17.9561599528752
20
-12.3602187780927
30
0
41
1
10
17.952498949459
20
-12.4631859631861
30
0
41
1
10
17.9392231266938
20
-12.5174254777038
30
0
41
1
10
17.9345177576982
20
-12.5332078288205
30
0
0
SPLINE
5
146
100
AcDbEntity
8
1
62
256
6
ByLayer
370
18
48
1
60
0
100
AcDbSpline
70
4
71
3
72
11
73
7
40
0
40
0
40
0
40
0
40
0.283958795909503
40
0.570187249862868
40
0.82980283022419
40
1
40
1
40
1
40
1
41
1
10
17.9189144803613
20
-12.2441684515953
30
0
41
1
10
17.9101950052484
20
-12.2244172219024
30
0
41
1
10
17.9005961017169
20
-12.1836522325394
30
0
41
1
10
17.9082999413604
20
-12.1172272366374
30
0
41
1
10
17.9364129911823
20
-12.0636120562749
30
0
41
1
10
17.961316894595
20
-12.0379894347156
30
0
41
1
10
17.9725622478422
20
-12.0285880722465
30
0
0
SPLINE
5
147
100
AcDbEntity
8
1
62
256
6
ByLayer
370
18
48
1
60
0
100
AcDbSpline
70
4
71
2
72
6
73
3
40
0
40
0
40
0
40
1
40
1
40
1
41
1
10
17.6542190279531
20
-13.0917292713853
30
0
41
1
10
17.6190994758216
20
-13.0525423094873
30
0
41
1
10
17.6097601404825
20
-12.9992715321625
30
0
0
SPLINE
5
148
100
AcDbEntity
8
1
62
256
6
ByLayer
370
18
48
1
60
0
100
AcDbSpline
70
4
71
3
72
10
73
6
40
0
40
0
40
0
40
0
40
0.491344818191523
40
0.986047351129667
40
1
40
1
40
1
40
1
41
1
10
17.7702808576481
20
-13.1497498787262
30
0
41
1
10
17.7486288310183
20
-13.1479365724811
30
0
41
1
10
17.7083194917331
20
-13.1368626846383
30
0
41
1
10
17.6704648473655
20
-13.109574997211
30
0
41
1
10
17.654651196622
20
-13.0922085344922
30
0
41
1
10
17.6542190279531
20
-13.0917292713853
30
0
0
SPLINE
5
149
100
AcDbEntity
8
1
62
256
6
ByLayer
370
18
48
1
60
0
100
AcDbSpline
70
4
71
3
72
10
73
6
40
0
40
0
40
0
40
0
40
0.253986131129721
40
0.629596367933219
40
1
40
1
40
1
40
1
41
1
10
19.0645586670485
20
-11.9063323769317
30
0
41
1
10
19.0734732520594
20
-11.9164232149866
30
0
41
1
10
19.0923469011139
20
-11.942430489685
30
0
41
1
10
19.1096364276163
20
-11.9902949851888
30
0
41
1
10
19.1113020694882
20
-12.0255410876705
30
0
41
1
10
19.1093614005734
20
-12.0434439524982
30
0
0
SPLINE
5
14A
100
AcDbEntity
8
1
62
256
6
ByLayer
370
18
48
1
60
0
100
AcDbSpline
70
4
71
3
72
10
73
6
40
0
40
0
40
0
40
0
40
0.189227595012668
40
0.819173828416556
40
1
40
1
40
1
40
1
41
1
10
18.9921260417001
20
-11.8572046140729
30
0
41
1
10
18.9974401742757
20
-11.8591906513733
30
0
41
1
10
19.0197955873879
20
-11.8686666903278
30
0
41
1
10
19.0447274582382
20
-11.88578761858
30
0
41
1
10
19.0610646702736
20
-11.9024431271311
30
0
41
1
10
19.0645586670485
20
-11.9063323769317
30
0
0
SPLINE
5
14B
100
AcDbEntity
8
1
62
256
6
ByLayer
370
18
48
1
60
0
100
AcDbSpline
70
4
71
3
72
10
73
6
40
0
40
0
40
0
40
0
40
0.189227595012682
40
0.819173828416553
40
1
40
1
40
1
40
1
41
1
10
18.2675982550993
20
-13.7956915314209
30
0
41
1
10
18.2622840047161
20
-13.7937053632818
30
0
41
1
10
18.2398944033445
20
-13.7841913544185
30
0
41
1
10
18.2147307240082
20
-13.7668129767608
30
0
41
1
10
18.198075370792
20
-13.7498041366328
30
0
41
1
10
18.1945034572185
20
-13.7458283514606
30
0
0
SPLINE
5
14C
100
AcDbEntity
8
1
62
256
6
ByLayer
370
18
48
1
60
0
100
AcDbSpline
70
4
71
3
72
10
73
6
40
0
40
0
40
0
40
0
40
0.449858320755271
40
0.820379902887136
40
1
40
1
40
1
40
1
41
1
10
17.7702808576481
20
-13.1497498787262
30
0
41
1
10
17.8140461936748
20
-13.1530672807312
30
0
41
1
10
17.8902126117563
20
-13.1727608321219
30
0
41
1
10
17.9805251478061
20
-13.2275761064494
30
0
41
1
10
18.0226668530143
20
-13.2685286344064
30
0
41
1
10
18.0359054998454
20
-13.2830749065555
30
0
0
SPLINE
5
14D
100
AcDbEntity
8
1
62
256
6
ByLayer
370
18
48
1
60
0
100
AcDbSpline
70
4
71
3
72
10
73
6
40
0
40
0
40
0
40
0
40
0.491344818191513
40
0.986047351129643
40
1
40
1
40
1
40
1
41
1
10
19.4849577550418
20
-12.4981644098579
30
0
41
1
10
19.5073554997725
20
-12.5008059199585
30
0
41
1
10
19.5489897818939
20
-12.5133513058965
30
0
41
1
10
19.587920789515
20
-12.5418344158238
30
0
41
1
10
19.604147472816
20
-12.5596595976698
30
0
41
1
10
19.6045908938468
20
-12.5601513577907
30
0
0
SPLINE
5
14E
100
AcDbEntity
8
1
62
256
6
ByLayer
370
18
48
1
60
0
100
AcDbSpline
70
4
71
3
72
10
73
6
40
0
40
0
40
0
40
0
40
0.449858320755276
40
0.820379902887134
40
1
40
1
40
1
40
1
41
1
10
19.4849577550418
20
-12.4981644098579
30
0
41
1
10
19.4396017754529
20
-12.4930804192061
30
0
41
1
10
19.3610769884203
20
-12.4707676337437
30
0
41
1
10
19.2687178625311
20
-12.4136793911278
30
0
41
1
10
19.2262034560109
20
-12.3723129364294
30
0
41
1
10
19.2129042093239
20
-12.3576993613221
30
0
0
SPLINE
5
14F
100
AcDbEntity
8
1
62
256
6
ByLayer
370
18
48
1
60
0
100
AcDbSpline
70
4
71
3
72
12
73
8
40
0
40
0
40
0
40
0
40
0.0653589438502426
40
0.28973093885274
40
0.517150356856018
40
0.759049137700728
40
1
40
1
40
1
40
1
41
1
10
19.2871620489573
20
-13.6243080732472
30
0
41
1
10
19.2829094764454
20
-13.6278055507997
30
0
41
1
10
19.2635826797989
20
-13.6423374744026
30
0
41
1
10
19.2237343933055
20
-13.6611642428344
30
0
41
1
10
19.1667054978457
20
-13.6687625004237
30
0
41
1
10
19.1100033768745
20
-13.6585688956756
30
0
41
1
10
19.0770194395072
20
-13.6418970890554
30
0
41
1
10
19.0615809777915
20
-13.6309164712514
30
0
0
SPLINE
5
150
100
AcDbEntity
8
1
62
256
6
ByLayer
370
18
48
1
60
0
100
AcDbSpline
70
4
71
3
72
13
73
9
40
0
40
0
40
0
40
0
40
0.213200576248765
40
0.388802612258403
40
0.565403034445738
40
0.720673981466803
40
0.926679409772584
40
1
40
1
40
1
40
1
41
1
10
18.4794553216271
20
-13.7287688161918
30
0
41
1
10
18.504656551773
20
-13.6914181973448
30
0
41
1
10
18.5606617737406
20
-13.633584752735
30
0
41
1
10
18.6711705918875
20
-13.5715751201792
30
0
41
1
10
18.7876630462591
20
-13.5473970753395
30
0
41
1
10
18.9104316455546
20
-13.5568442770495
30
0
41
1
10
18.9996668521332
20
-13.591010023489
30
0
41
1
10
19.0490724000042
20
-13.6220292986801
30
0
41
1
10
19.0615809777915
20
-13.6309164712514
30
0
0
SPLINE
5
151
100
AcDbEntity
8
1
62
256
6
ByLayer
370
18
48
1
60
0
100
AcDbSpline
70
4
71
3
72
11
73
7
40
0
40
0
40
0
40
0
40
0.284737382921494
40
0.571425505645869
40
0.831498054963931
40
1
40
1
40
1
40
1
41
1
10
18.4794553216271
20
-13.7287688161918
30
0
41
1
10
18.4668482095056
20
-13.7471318364219
30
0
41
1
10
18.4366154665174
20
-13.7774614350054
30
0
41
1
10
18.3756019260767
20
-13.8058512883645
30
0
41
1
10
18.3155576511626
20
-13.8091773100308
30
0
41
1
10
18.2811718221154
20
-13.8006397086406
30
0
41
1
10
18.2675982550993
20
-13.7956915314209
30
0
0
SPLINE
5
152
100
AcDbEntity
8
1
62
256
6
ByLayer
370
18
48
1
60
0
100
AcDbSpline
70
4
71
3
72
10
73
6
40
0
40
0
40
0
40
0
40
0.253986131129717
40
0.629596367933219
40
1
40
1
40
1
40
1
41
1
10
18.1945034572185
20
-13.7458283514606
30
0
41
1
10
18.1853863332457
20
-13.7355125710998
30
0
41
1
10
18.1659334220322
20
-13.7088619605984
30
0
41
1
10
18.14735690979
20
-13.6595681226254
30
0
41
1
10
18.1445558271024
20
-13.623060985364
30
0
41
1
10
18.1458772121165
20
-13.6044703360859
30
0
0
SPLINE
5
153
100
AcDbEntity
8
1
62
256
6
ByLayer
370
18
48
1
60
0
100
AcDbSpline
70
4
71
2
72
6
73
3
40
0
40
0
40
0
40
1
40
1
40
1
41
1
10
19.6045908938468
20
-12.5601513577907
30
0
41
1
10
19.6406160819377
20
-12.6003441303192
30
0
41
1
10
19.6499641563169
20
-12.6536246133312
30
0
0
SPLINE
5
154
100
AcDbEntity
8
1
62
256
6
ByLayer
370
18
48
1
60
0
100
AcDbSpline
70
4
71
3
72
12
73
8
40
0
40
0
40
0
40
0
40
0.0671993428668232
40
0.29089819189691
40
0.517747882845668
40
0.75912655798878
40
1
40
1
40
1
40
1
41
1
10
19.6499641563169
20
-12.6536246133312
30
0
41
1
10
19.6509002294013
20
-12.6592207809621
30
0
41
1
10
19.6538389913738
20
-12.6833451792707
30
0
41
1
10
19.6501954418837
20
-12.7271735532823
30
0
41
1
10
19.628366246745
20
-12.7796511829339
30
0
41
1
10
19.5913720405855
20
-12.8226605805884
30
0
41
1
10
19.5606009635743
20
-12.842072282153
30
0
41
1
10
19.5434461551198
20
-12.849504390313
30
0
0
SPLINE
5
155
100
AcDbEntity
8
1
62
256
6
ByLayer
370
18
48
1
60
0
100
AcDbSpline
70
4
71
3
72
11
73
7
40
0
40
0
40
0
40
0
40
0.283958795909498
40
0.57018724986286
40
0.829802830224179
40
1
40
1
40
1
40
1
41
1
10
19.3363022607634
20
-13.4037215461549
30
0
41
1
10
19.3457684264513
20
-13.4243020597449
30
0
41
1
10
19.356697687286
20
-13.4665445605781
30
0
41
1
10
19.3505358283029
20
-13.5346820994991
30
0
41
1
10
19.3231813051832
20
-13.5891397091101
30
0
41
1
10
19.2984049176628
20
-13.6149039514151
30
0
41
1
10
19.2871620489573
20
-13.6243080732472
30
0
0
SPLINE
5
156
100
AcDbEntity
8
1
62
256
6
ByLayer
370
18
48
1
60
0
100
AcDbSpline
70
4
71
3
72
10
73
6
40
0
40
0
40
0
40
0
40
0.375426520668878
40
0.759456478159207
40
1
40
1
40
1
40
1
41
1
10
19.3340208941672
20
-13.0546932255142
30
0
41
1
10
19.3516372683723
20
-13.0178578632599
30
0
41
1
10
19.3936309794472
20
-12.9518465828207
30
0
41
1
10
19.4703381041685
20
-12.886779655288
30
0
41
1
10
19.5223951575549
20
-12.8585857661183
30
0
41
1
10
19.5434461551197
20
-12.849504390313
30
0
0
SPLINE
5
157
100
AcDbEntity
8
1
62
256
6
ByLayer
370
18
48
1
60
0
100
AcDbSpline
70
4
71
3
72
10
73
6
40
0
40
0
40
0
40
0
40
0.463356466661094
40
0.844849939507178
40
1
40
1
40
1
40
1
41
1
10
19.3363022607634
20
-13.4037215461549
30
0
41
1
10
19.3168170416106
20
-13.3621335175782
30
0
41
1
10
19.2950954015658
20
-13.2832716540304
30
0
41
1
10
19.2967577853782
20
-13.1780847769926
30
0
41
1
10
19.3096358490049
20
-13.1234035061978
30
0
41
1
10
19.3142686880999
20
-13.1075406024658
30
0
0
SPLINE
5
158
100
AcDbEntity
8
1
62
256
6
ByLayer
370
18
48
1
60
0
100
AcDbSpline
70
4
71
3
72
11
73
7
40
0
40
0
40
0
40
0
40
0.175171575442273
40
0.469863284545399
40
0.860845509318705
40
1
40
1
40
1
40
1
41
1
10
18.0359054998454
20
-13.2830749065555
30
0
41
1
10
18.0501718500214
20
-13.2990303629492
30
0
41
1
10
18.0847518728087
20
-13.3435748391391
30
0
41
1
10
18.1309624859559
20
-13.4373952607472
30
0
41
1
10
18.1477374686803
20
-13.5312163836572
30
0
41
1
10
18.1469441397543
20
-13.5892654117402
30
0
41
1
10
18.1458772121166
20
-13.6044703360863
30
0
0
SPLINE
5
159
100
AcDbEntity
8
1
62
256
6
ByLayer
370
18
48
1
60
0
100
AcDbSpline
70
4
71
3
72
11
73
7
40
0
40
0
40
0
40
0
40
0.17517157544227
40
0.469863284545398
40
0.860845509318715
40
1
40
1
40
1
40
1
41
1
10
19.2129042093239
20
-12.3576993613221
30
0
41
1
10
19.1985906463432
20
-12.3416914697966
30
0
41
1
10
19.1641079476037
20
-12.2972550829121
30
0
41
1
10
19.1193324475266
20
-12.2050285158399
30
0
41
1
10
19.1051232845635
20
-12.1140570244676
30
0
41
1
10
19.107779657822
20
-12.0580771167359
30
0
41
1
10
19.1093614005733
20
-12.0434439524979
30
0
0
SPLINE
5
15A
100
AcDbEntity
8
1
62
256
6
ByLayer
370
18
48
1
60
0
100
AcDbSpline
70
4
71
3
72
10
73
6
40
0
40
0
40
0
40
0
40
0.682295883440775
40
0.94884562400782
40
1
40
1
40
1
40
1
41
1
10
0.2683318287498
20
-5.8960033537971
30
0
41
1
10
0.304762525528105
20
-6.00374823065262
30
0
41
1
10
0.339186889874318
20
-6.14884338865688
30
0
41
1
10
0.358216652156643
20
-6.29935887168928
30
0
41
1
10
0.359250617271194
20
-6.34471673938017
30
0
41
1
10
0.359324739626247
20
-6.35198220554972
30
0
0
SPLINE
5
15B
100
AcDbEntity
8
1
62
256
6
ByLayer
370
18
48
1
60
0
100
AcDbSpline
70
4
71
1
72
4
73
2
40
0
40
0
40
1
40
1
41
1
10
0.2683318287498
20
-6.43906530843253
30
0
41
1
10
-0.271
20
-5.90915933107239
30
0
0
SPLINE
5
15C
100
AcDbEntity
8
1
62
256
6
ByLayer
370
18
48
1
60
0
100
AcDbSpline
70
4
71
1
72
4
73
2
40
0
40
0
40
1
40
1
41
1
10
0.268331828749801
20
-7.75608774490778
30
0
41
1
10
-0.271
20
-6.41546288275444
30
0
0
SPLINE
5
15D
100
AcDbEntity
8
1
62
256
6
ByLayer
370
18
48
1
60
0
100
AcDbSpline
70
4
71
2
72
6
73
3
40
0
40
0
40
0
40
1
40
1
40
1
41
1
10
0.268331828749801
20
-7.75608774490778
30
0
41
1
10
0.350900078778038
20
-7.93394269592646
30
0
41
1
10
0.359330333578335
20
-8.08505542682337
30
0
0
SPLINE
5
15E
100
AcDbEntity
8
1
62
256
6
ByLayer
370
18
48
1
60
0
100
AcDbSpline
70
4
71
1
72
4
73
2
40
0
40
0
40
1
40
1
41
1
10
0.2683318287498
20
-8.12819294108705
30
0
41
1
10
-0.271
20
-7.6645720037064
30
0
0
SPLINE
5
15F
100
AcDbEntity
8
1
62
256
6
ByLayer
370
18
48
1
60
0
100
AcDbSpline
70
4
71
1
72
4
73
2
40
0
40
0
40
1
40
1
41
1
10
0.268331828749801
20
-9.07887320461248
30
0
41
1
10
-0.271
20
-8.01284368997673
30
0
0
SPLINE
5
160
100
AcDbEntity
8
1
62
256
6
ByLayer
370
18
48
1
60
0
100
AcDbSpline
70
4
71
3
72
10
73
6
40
0
40
0
40
0
40
0
40
0.508650756871725
40
0.801191435939477
40
1
40
1
40
1
40
1
41
1
10
0.268331828749801
20
-9.07887320461248
30
0
41
1
10
0.294295374956084
20
-9.12672930699614
30
0
41
1
10
0.326454572350505
20
-9.19890646035473
30
0
41
1
10
0.354097729856308
20
-9.2870419795501
30
0
41
1
10
0.358641873555231
20
-9.32486496100233
30
0
41
1
10
0.359322960709041
20
-9.33957028487369
30
0
0
SPLINE
5
161
100
AcDbEntity
8
1
62
256
6
ByLayer
370
18
48
1
60
0
100
AcDbSpline
70
4
71
1
72
4
73
2
40
0
40
0
40
1
40
1
41
1
10
0.2683318287498
20
-9.3567344158534
30
0
41
1
10
-0.271
20
-8.91336995754131
30
0
0
SPLINE
5
162
100
AcDbEntity
8
1
62
256
6
ByLayer
370
18
48
1
60
0
100
AcDbSpline
70
4
71
1
72
4
73
2
40
0
40
0
40
1
40
1
41
1
10
0.268331828749801
20
-10.078193301587
30
0
41
1
10
-0.271
20
-9.17214064436432
30
0
0
SPLINE
5
163
100
AcDbEntity
8
1
62
256
6
ByLayer
370
18
48
1
60
0
100
AcDbSpline
70
4
71
3
72
10
73
6
40
0
40
0
40
0
40
0
40
0.554873866463307
40
0.826171516936027
40
1
40
1
40
1
40
1
41
1
10
0.268331828749801
20
-10.078193301587
30
0
41
1
10
0.297042485611953
20
-10.1237146656172
30
0
41
1
10
0.329564832630889
20
-10.1866767140122
30
0
41
1
10
0.355411467980933
20
-10.2591469816994
30
0
41
1
10
0.358910072642581
20
-10.2857151880665
30
0
41
1
10
0.359330476521857
20
-10.295499528587
30
0
0
SPLINE
5
164
100
AcDbEntity
8
1
62
256
6
ByLayer
370
18
48
1
60
0
100
AcDbSpline
70
4
71
1
72
4
73
2
40
0
40
0
40
1
40
1
41
1
10
0.2683318287498
20
-10.2909881629557
30
0
41
1
10
-0.271
20
-9.85016060782767
30
0
0
SPLINE
5
165
100
AcDbEntity
8
1
62
256
6
ByLayer
370
18
48
1
60
0
100
AcDbSpline
70
4
71
1
72
4
73
2
40
0
40
0
40
1
40
1
41
1
10
0.268331828749801
20
-10.8438471855184
30
0
41
1
10
-0.271
20
-10.0461765861446
30
0
0
SPLINE
5
166
100
AcDbEntity
8
1
62
256
6
ByLayer
370
18
48
1
60
0
100
AcDbSpline
70
4
71
3
72
10
73
6
40
0
40
0
40
0
40
0
40
0.502359070501735
40
0.789833822561343
40
1
40
1
40
1
40
1
41
1
10
0.268331828749802
20
-10.8438471855184
30
0
41
1
10
0.29401660320913
20
-10.8802342940266
30
0
41
1
10
0.325877720238668
20
-10.9328599599138
30
0
41
1
10
0.354299302489963
20
-10.9956003895488
30
0
41
1
10
0.358777329684228
20
-11.0194505660648
30
0
41
1
10
0.359331762285982
20
-11.0286100524652
30
0
0
SPLINE
5
167
100
AcDbEntity
8
1
62
256
6
ByLayer
370
18
48
1
60
0
100
AcDbSpline
70
4
71
1
72
4
73
2
40
0
40
0
40
1
40
1
41
1
10
0.2683318287498
20
-11.0061526343846
30
0
41
1
10
-0.271
20
-10.5583220257766
30
0
0
SPLINE
5
168
100
AcDbEntity
8
1
62
256
6
ByLayer
370
18
48
1
60
0
100
AcDbSpline
70
4
71
1
72
4
73
2
40
0
40
0
40
1
40
1
41
1
10
0.268331828749801
20
-11.4229183373425
30
0
41
1
10
-0.271
20
-10.7050531993073
30
0
0
SPLINE
5
169
100
AcDbEntity
8
1
62
256
6
ByLayer
370
18
48
1
60
0
100
AcDbSpline
70
4
71
3
72
11
73
7
40
0
40
0
40
0
40
0
40
0.461149537622153
40
0.752671226609295
40
0.979282741504926
40
1
40
1
40
1
40
1
41
1
10
0.268331828749802
20
-11.4229183373425
30
0
41
1
10
0.2916156622496
20
-11.4529243050156
30
0
41
1
10
0.322693217161746
20
-11.4977694880928
30
0
41
1
10
0.352015463308786
20
-11.5508939474715
30
0
41
1
10
0.359063806539511
20
-11.5733355050969
30
0
41
1
10
0.359327178887016
20
-11.5808355757214
30
0
41
1
10
0.359331679926707
20
-11.5814485668552
30
0
0
SPLINE
5
16A
100
AcDbEntity
8
1
62
256
6
ByLayer
370
18
48
1
60
0
100
AcDbSpline
70
4
71
1
72
4
73
2
40
0
40
0
40
1
40
1
41
1
10
0.2683318287498
20
-11.5430218856524
30
0
41
1
10
-0.271
20
-11.0817716995073
30
0
0
SPLINE
5
16B
100
AcDbEntity
8
1
62
256
6
ByLayer
370
18
48
1
60
0
100
AcDbSpline
70
4
71
1
72
4
73
2
40
0
40
0
40
1
40
1
41
1
10
0.268331828749801
20
-11.8428081509547
30
0
41
1
10
-0.271
20
-11.1868522829257
30
0
0
SPLINE
5
16C
100
AcDbEntity
8
1
62
256
6
ByLayer
370
18
48
1
60
0
100
AcDbSpline
70
4
71
3
72
11
73
7
40
0
40
0
40
0
40
0
40
0.425652297409818
40
0.715271558366469
40
0.942938862323252
40
1
40
1
40
1
40
1
41
1
10
0.268331828749801
20
-11.8428081509547
30
0
41
1
10
0.289592674416183
20
-11.8680580883411
30
0
41
1
10
0.319541575238035
20
-11.9065203882598
30
0
41
1
10
0.349495602476345
20
-11.9517069356899
30
0
41
1
10
0.358541842308457
20
-11.9717982382006
30
0
41
1
10
0.359306169822708
20
-11.9781885962433
30
0
41
1
10
0.359331525754294
20
-11.979353402347
30
0
0
SPLINE
5
16D
100
AcDbEntity
8
1
62
256
6
ByLayer
370
18
48
1
60
0
100
AcDbSpline
70
4
71
1
72
4
73
2
40
0
40
0
40
1
40
1
41
1
10
0.2683318287498
20
-11.9256996731398
30
0
41
1
10
-0.271
20
-11.4458797826991
30
0
0
SPLINE
5
16E
100
AcDbEntity
8
1
62
256
6
ByLayer
370
18
48
1
60
0
100
AcDbSpline
70
4
71
1
72
4
73
2
40
0
40
0
40
1
40
1
41
1
10
0.268331828749801
20
-12.1200720484261
30
0
41
1
10
-0.271
20
-11.5138249074754
30
0
0
SPLINE
5
16F
100
AcDbEntity
8
1
62
256
6
ByLayer
370
18
48
1
60
0
100
AcDbSpline
70
4
71
3
72
11
73
7
40
0
40
0
40
0
40
0
40
0.34146053975949
40
0.641527162254534
40
0.875753048474603
40
1
40
1
40
1
40
1
41
1
10
0.268331828749799
20
-12.1200720484261
30
0
41
1
10
0.285063281614812
20
-12.1385849885249
30
0
41
1
10
0.312759840387383
20
-12.1704484752409
30
0
41
1
10
0.343687769859024
20
-12.2091694393068
30
0
41
1
10
0.357316938825073
20
-12.2299731914561
30
0
41
1
10
0.359233996956259
20
-12.2359581750239
30
0
41
1
10
0.359331764949148
20
-12.2375004848054
30
0
0
SPLINE
5
170
100
AcDbEntity
8
1
62
256
6
ByLayer
370
18
48
1
60
0
100
AcDbSpline
70
4
71
1
72
4
73
2
40
0
40
0
40
1
40
1
41
1
10
0.2683318287498
20
-12.1687415592248
30
0
41
1
10
-0.271
20
-11.6655760252119
30
0
0
SPLINE
5
171
100
AcDbEntity
8
1
62
256
6
ByLayer
370
18
48
1
60
0
100
AcDbSpline
70
4
71
1
72
4
73
2
40
0
40
0
40
1
40
1
41
1
10
-0.270999999999993
20
-11.6833214455479
30
0
41
1
10
0.478999999999993
20
-12.4373429638327
30
0
0
SPLINE
5
172
100
AcDbEntity
8
1
62
256
6
ByLayer
370
18
48
1
60
0
100
AcDbSpline
70
4
71
3
72
14
73
10
40
0
40
0
40
0
40
0
40
0.311119280725953
40
0.454448335464531
40
0.598836965547958
40
0.696103494601779
40
0.793734707190262
40
0.907036761786914
40
1
40
1
40
1
40
1
41
1
10
0.359324739626247
20
-6.35198220554972
30
0
41
1
10
0.360269027972229
20
-6.3750969846424
30
0
41
1
10
0.357566193310411
20
-6.40555562757496
30
0
41
1
10
0.347776921733133
20
-6.44131457264664
30
0
41
1
10
0.336182484585269
20
-6.45915399987679
30
0
41
1
10
0.320617327429639
20
-6.46651775160012
30
0
41
1
10
0.303166472405807
20
-6.46449152527242
30
0
41
1
10
0.285038984476182
20
-6.45400651391756
30
0
41
1
10
0.273484915520462
20
-6.44422746261474
30
0
41
1
10
0.268331828749799
20
-6.43906530843253
30
0
0
SPLINE
5
173
100
AcDbEntity
8
1
62
256
6
ByLayer
370
18
48
1
60
0
100
AcDbSpline
70
4
71
3
72
12
73
8
40
0
40
0
40
0
40
0
40
0.0798518267712713
40
0.399570910818982
40
0.722000206808138
40
0.931189010703087
40
1
40
1
40
1
40
1
41
1
10
0.359330333578335
20
-8.08505542682337
30
0
41
1
10
0.35935102816165
20
-8.08797534119766
30
0
41
1
10
0.359111552097396
20
-8.10231655778714
30
0
41
1
10
0.356274243702659
20
-8.12662341626273
30
0
41
1
10
0.345400519919753
20
-8.14869161376323
30
0
41
1
10
0.331230225668064
20
-8.15557079450899
30
0
41
1
10
0.32337685376007
20
-8.15587850657047
30
0
41
1
10
0.321346378447253
20
-8.15579876082249
30
0
0
SPLINE
5
174
100
AcDbEntity
8
1
62
256
6
ByLayer
370
18
48
1
60
0
100
AcDbSpline
70
4
71
3
72
10
73
6
40
0
40
0
40
0
40
0
40
0.264716456313159
40
0.64100698769955
40
1
40
1
40
1
40
1
41
1
10
0.321346378447253
20
-8.15579876082249
30
0
41
1
10
0.317074955897476
20
-8.15553097071435
30
0
41
1
10
0.306461664086428
20
-8.15347959463449
30
0
41
1
10
0.28805243518869
20
-8.14383136525851
30
0
41
1
10
0.274850731660027
20
-8.13391702845703
30
0
41
1
10
0.2683318287498
20
-8.12819294108705
30
0
0
SPLINE
5
175
100
AcDbEntity
8
1
62
256
6
ByLayer
370
18
48
1
60
0
100
AcDbSpline
70
4
71
3
72
13
73
9
40
0
40
0
40
0
40
0
40
0.148757804847925
40
0.339113122078919
40
0.531100495817329
40
0.700205697522838
40
0.858219270091528
40
1
40
1
40
1
40
1
41
1
10
0.359322960709041
20
-9.33957028487369
30
0
41
1
10
0.359528396515944
20
-9.3467114201304
30
0
41
1
10
0.358350304356802
20
-9.3613832053878
30
0
41
1
10
0.35157244254349
20
-9.38028818629839
30
0
41
1
10
0.335682204535847
20
-9.38972572892813
30
0
41
1
10
0.313446476528066
20
-9.38604257558649
30
0
41
1
10
0.29037543191233
20
-9.37365901694353
30
0
41
1
10
0.275512447796804
20
-9.36274468205927
30
0
41
1
10
0.2683318287498
20
-9.3567344158534
30
0
0
SPLINE
5
176
100
AcDbEntity
8
1
62
256
6
ByLayer
370
18
48
1
60
0
100
AcDbSpline
70
4
71
3
72
13
73
9
40
0
40
0
40
0
40
0
40
0.0780620867941806
40
0.288567872223515
40
0.500735129593773
40
0.682348981824631
40
0.910668274429157
40
1
40
1
40
1
40
1
41
1
10
0.359330476521857
20
-10.295499528587
30
0
41
1
10
0.359374606357412
20
-10.2985211896028
30
0
41
1
10
0.358779852491415
20
-10.3089323149146
30
0
41
1
10
0.353561212148373
20
-10.3234416019678
30
0
41
1
10
0.337034573258193
20
-10.3291690565376
30
0
41
1
10
0.311806866284291
20
-10.3215651514505
30
0
41
1
10
0.287942285079981
20
-10.3064367634575
30
0
41
1
10
0.272684972961008
20
-10.2945743105253
30
0
41
1
10
0.268331828743182
20
-10.2909881629537
30
0
0
SPLINE
5
177
100
AcDbEntity
8
1
62
256
6
ByLayer
370
18
48
1
60
0
100
AcDbSpline
70
4
71
3
72
13
73
9
40
0
40
0
40
0
40
0
40
0.0202710400744253
40
0.237105346645622
40
0.455253032434604
40
0.647593998869171
40
0.901690810888847
40
1
40
1
40
1
40
1
41
1
10
0.359331762285982
20
-11.0286100524652
30
0
41
1
10
0.359334155922906
20
-11.0292357472774
30
0
41
1
10
0.359195195694612
20
-11.0363858722057
30
0
41
1
10
0.355601364506348
20
-11.0472083530105
30
0
41
1
10
0.340002307482153
20
-11.0501308630473
30
0
41
1
10
0.314751395688115
20
-11.040282598471
30
0
41
1
10
0.289622286149191
20
-11.0232994843838
30
0
41
1
10
0.273044707065435
20
-11.0100873546478
30
0
41
1
10
0.268331828744739
20
-11.0061526343829
30
0
0
SPLINE
5
178
100
AcDbEntity
8
1
62
256
6
ByLayer
370
18
48
1
60
0
100
AcDbSpline
70
4
71
3
72
12
73
8
40
0
40
0
40
0
40
0
40
0.191976352451677
40
0.409977497463024
40
0.609555752104923
40
0.883210016355249
40
1
40
1
40
1
40
1
41
1
10
0.359331679926707
20
-11.5814485668552
30
0
41
1
10
0.359406194153563
20
-11.5862842890075
30
0
41
1
10
0.356716055471153
20
-11.5933620614225
30
0
41
1
10
0.343109093604426
20
-11.5938489262939
30
0
41
1
10
0.318446713757945
20
-11.5818758663026
30
0
41
1
10
0.292026661806353
20
-11.5627568304243
30
0
41
1
10
0.273896895405361
20
-11.5477971651708
30
0
41
1
10
0.26833182874191
20
-11.5430218856493
30
0
0
SPLINE
5
179
100
AcDbEntity
8
1
62
256
6
ByLayer
370
18
48
1
60
0
100
AcDbSpline
70
4
71
3
72
12
73
8
40
0
40
0
40
0
40
0
40
0.149560785128477
40
0.364720931774554
40
0.569120585866106
40
0.858729366243174
40
1
40
1
40
1
40
1
41
1
10
0.359331525754294
20
-11.979353402347
30
0
41
1
10
0.359359245302603
20
-11.9820272558659
30
0
41
1
10
0.357411336226794
20
-11.9863324591018
30
0
41
1
10
0.346129828879964
20
-11.9845194025845
30
0
41
1
10
0.322469129568563
20
-11.9704225303163
30
0
41
1
10
0.294847551375134
20
-11.948768616163
30
0
41
1
10
0.275053863626291
20
-11.9316854344225
30
0
41
1
10
0.268331828735679
20
-11.9256996731331
30
0
0
SPLINE
5
17A
100
AcDbEntity
8
1
62
256
6
ByLayer
370
18
48
1
60
0
100
AcDbSpline
70
4
71
3
72
12
73
8
40
0
40
0
40
0
40
0
40
0.0790223359714054
40
0.292848471955187
40
0.498904688149085
40
0.79256210783132
40
1
40
1
40
1
40
1
41
1
10
0.359331764949148
20
-12.2375004848054
30
0
41
1
10
0.359336278476172
20
-12.2383440066074
30
0
41
1
10
0.358465935135043
20
-12.2405339111161
30
0
41
1
10
0.350964922990142
20
-12.2381469608872
30
0
41
1
10
0.329925748210463
20
-12.2231972307218
30
0
41
1
10
0.300843725704111
20
-12.1984942948419
30
0
41
1
10
0.278263045943716
20
-12.177995685096
30
0
41
1
10
0.2683318287498
20
-12.1687415592248
30
0
0
SPLINE
5
17B
100
AcDbEntity
8
1
62
256
6
ByLayer
370
18
48
1
60
0
100
AcDbSpline
70
4
71
3
72
11
73
7
40
0
40
0
40
0
40
0
40
0.151164367529432
40
0.383277809146236
40
0.652356663736145
40
1
40
1
40
1
40
1
41
1
10
15.0338321850259
20
-9.73225344513722
30
0
41
1
10
15.049261597547
20
-9.75304902841323
30
0
41
1
10
15.0850065273303
20
-9.80183032978795
30
0
41
1
10
15.1332292323909
20
-9.87193343093064
30
0
41
1
10
15.1656929208334
20
-9.92264487303047
30
0
41
1
10
15.1736483757667
20
-9.93601379624229
30
0
41
1
10
15.1720615353708
20
-9.93486092281719
30
0
0
SPLINE
5
17C
100
AcDbEntity
8
1
62
256
6
ByLayer
370
18
48
1
60
0
100
AcDbSpline
70
4
71
3
72
10
73
6
40
0
40
0
40
0
40
0
40
0.386530516247837
40
0.691022680987241
40
1
40
1
40
1
40
1
41
1
10
15.6834957346288
20
-11.4573736248278
30
0
41
1
10
15.6545438454533
20
-11.2605179548059
30
0
41
1
10
15.5772526891899
20
-10.9141566505138
30
0
41
1
10
15.3989307818504
20
-10.4221328482729
30
0
41
1
10
15.2540759509975
20
-10.1345660018416
30
0
41
1
10
15.1720615353707
20
-9.99257318006212
30
0
0
SPLINE
5
17D
100
AcDbEntity
8
1
62
256
6
ByLayer
370
18
48
1
60
0
100
AcDbSpline
70
4
71
2
72
6
73
3
40
0
40
0
40
0
40
1
40
1
40
1
41
1
10
0.268331828749801
20
-5.8960033537971
30
0
41
1
10
-0.0500062923016465
20
-4.90085566286656
30
0
41
1
10
-0.271
20
-3.8711321341437
30
0
0
INSERT
5
1AA
100
AcDbEntity
8
SK2
62
256
6
ByLayer
370
25
48
1
60
0
100
AcDbBlockReference
2
DimnDraft3D44
10
0
20
0
30
0
41
1
42
1
43
1
50
0
210
0
220
0
230
1
0
LINE
5
70
100
AcDbEntity
8
SK1
62
256
6
ByLayer
370
18
48
1
60
0
100
AcDbLine
10
-3.521234
20
-3
30
0
11
-3.521234
21
0
31
0
39
0
210
0
220
0
230
1
0
LINE
5
72
100
AcDbEntity
8
SK1
62
256
6
ByLayer
370
18
48
1
60
0
100
AcDbLine
10
-4.021234
20
2.866025
30
0
11
-4.021234
21
0
31
0
39
0
210
0
220
0
230
1
0
LINE
5
73
100
AcDbEntity
8
SK1
62
256
6
ByLayer
370
18
48
1
60
0
100
AcDbLine
10
-3.521234
20
-3
30
0
11
-4.021234
21
-2.866025
31
0
39
0
210
0
220
0
230
1
0
LINE
5
74
100
AcDbEntity
8
SK1
62
256
6
ByLayer
370
18
48
1
60
0
100
AcDbLine
10
-4.021234
20
2.866025
30
0
11
-3.521234
21
3
31
0
39
0
210
0
220
0
230
1
0
LINE
5
75
100
AcDbEntity
8
SK1
62
256
6
ByLayer
370
18
48
1
60
0
100
AcDbLine
10
-3.521234
20
0
30
0
11
-3.521234
21
3
31
0
39
0
210
0
220
0
230
1
0
LINE
5
76
100
AcDbEntity
8
SK1
62
256
6
ByLayer
370
18
48
1
60
0
100
AcDbLine
10
-4.021234
20
0
30
0
11
-4.021234
21
-2.866025
31
0
39
0
210
0
220
0
230
1
0
LINE
5
77
100
AcDbEntity
8
1
62
256
6
ByLayer
370
18
48
1
60
0
100
AcDbLine
10
-0.271
20
11.683321
30
0
11
-0.271
21
11.665576
31
0
39
0
210
0
220
0
230
1
0
LINE
5
79
100
AcDbEntity
8
1
62
256
6
ByLayer
370
18
48
1
60
0
100
AcDbLine
10
-0.271
20
11.513825
30
0
11
-0.271
21
11.44588
31
0
39
0
210
0
220
0
230
1
0
LINE
5
7A
100
AcDbEntity
8
1
62
256
6
ByLayer
370
18
48
1
60
0
100
AcDbLine
10
-0.271
20
11.186852
30
0
11
-0.271
21
11.081772
31
0
39
0
210
0
220
0
230
1
0
LINE
5
7B
100
AcDbEntity
8
1
62
256
6
ByLayer
370
18
48
1
60
0
100
AcDbLine
10
-0.271
20
10.705053
30
0
11
-0.271
21
10.558322
31
0
39
0
210
0
220
0
230
1
0
LINE
5
7C
100
AcDbEntity
8
1
62
256
6
ByLayer
370
18
48
1
60
0
100
AcDbLine
10
-0.271
20
10.046177
30
0
11
-0.271
21
9.850161
31
0
39
0
210
0
220
0
230
1
0
LINE
5
7D
100
AcDbEntity
8
1
62
256
6
ByLayer
370
18
48
1
60
0
100
AcDbLine
10
-0.271
20
9.172141
30
0
11
-0.271
21
8.91337
31
0
39
0
210
0
220
0
230
1
0
LINE
5
7E
100
AcDbEntity
8
1
62
256
6
ByLayer
370
18
48
1
60
0
100
AcDbLine
10
-0.271
20
8.012844
30
0
11
-0.271
21
7.664572
31
0
39
0
210
0
220
0
230
1
0
LINE
5
7F
100
AcDbEntity
8
1
62
256
6
ByLayer
370
18
48
1
60
0
100
AcDbLine
10
-0.271
20
6.415463
30
0
11
-0.271
21
5.909159
31
0
39
0
210
0
220
0
230
1
0
LINE
5
80
100
AcDbEntity
8
1
62
256
6
ByLayer
370
18
48
1
60
0
100
AcDbLine
10
-0.271
20
3.871132
30
0
11
-0.271
21
2.822351
31
0
39
0
210
0
220
0
230
1
0
LINE
5
81
100
AcDbEntity
8
1
62
256
6
ByLayer
370
18
48
1
60
0
100
AcDbLine
10
-0.271
20
-2.822351
30
0
11
-0.271
21
-3.871132
31
0
39
0
210
0
220
0
230
1
0
LINE
5
82
100
AcDbEntity
8
1
62
256
6
ByLayer
370
18
48
1
60
0
100
AcDbLine
10
4.181824
20
12.5
30
0
11
4.920604
21
12.5
31
0
39
0
210
0
220
0
230
1
0
LINE
5
83
100
AcDbEntity
8
1
62
256
6
ByLayer
370
18
48
1
60
0
100
AcDbLine
10
4.945802
20
12.357091
30
0
11
4.920604
21
12.5
31
0
39
0
210
0
220
0
230
1
0
LINE
5
84
100
AcDbEntity
8
1
62
256
6
ByLayer
370
18
48
1
60
0
100
AcDbLine
10
4.009675
20
12.437343
30
0
11
0.479
21
12.437343
31
0
39
0
210
0
220
0
230
1
0
LINE
5
85
100
AcDbEntity
8
1
62
256
6
ByLayer
370
18
48
1
60
0
100
AcDbLine
10
0.268332
20
3.705483
30
0
11
0.268332
21
2.498762
31
0
39
0
210
0
220
0
230
1
0
LINE
5
86
100
AcDbEntity
8
1
62
256
6
ByLayer
370
18
48
1
60
0
100
AcDbLine
10
0.268332
20
-2.498762
30
0
11
0.268332
21
-3.705483
31
0
39
0
210
0
220
0
230
1
0
LINE
5
87
100
AcDbEntity
8
1
62
256
6
ByLayer
370
18
48
1
60
0
100
AcDbLine
10
-0.271
20
2.822351
30
0
11
-0.271
21
-2.822351
31
0
39
0
210
0
220
0
230
1
0
LINE
5
88
100
AcDbEntity
8
1
62
256
6
ByLayer
370
18
48
1
60
0
100
AcDbLine
10
0.268332
20
6.439065
30
0
11
0.268332
21
5.896003
31
0
39
0
210
0
220
0
230
1
0
LINE
5
89
100
AcDbEntity
8
1
62
256
6
ByLayer
370
18
48
1
60
0
100
AcDbLine
10
-0.271
20
5.909159
30
0
11
-0.271
21
3.871132
31
0
39
0
210
0
220
0
230
1
0
LINE
5
8A
100
AcDbEntity
8
1
62
256
6
ByLayer
370
18
48
1
60
0
100
AcDbLine
10
0.268332
20
8.128193
30
0
11
0.268332
21
7.756088
31
0
39
0
210
0
220
0
230
1
0
LINE
5
8B
100
AcDbEntity
8
1
62
256
6
ByLayer
370
18
48
1
60
0
100
AcDbLine
10
-0.271
20
7.664572
30
0
11
-0.271
21
6.415463
31
0
39
0
210
0
220
0
230
1
0
LINE
5
8C
100
AcDbEntity
8
1
62
256
6
ByLayer
370
18
48
1
60
0
100
AcDbLine
10
0.268332
20
9.356734
30
0
11
0.268332
21
9.078873
31
0
39
0
210
0
220
0
230
1
0
LINE
5
8D
100
AcDbEntity
8
1
62
256
6
ByLayer
370
18
48
1
60
0
100
AcDbLine
10
-0.271
20
8.91337
30
0
11
-0.271
21
8.026119
31
0
39
0
210
0
220
0
230
1
0
LINE
5
8E
100
AcDbEntity
8
1
62
256
6
ByLayer
370
18
48
1
60
0
100
AcDbLine
10
0.268332
20
10.290988
30
0
11
0.268332
21
10.078193
31
0
39
0
210
0
220
0
230
1
0
LINE
5
8F
100
AcDbEntity
8
1
62
256
6
ByLayer
370
18
48
1
60
0
100
AcDbLine
10
-0.271
20
9.850161
30
0
11
-0.271
21
9.172141
31
0
39
0
210
0
220
0
230
1
0
LINE
5
90
100
AcDbEntity
8
1
62
256
6
ByLayer
370
18
48
1
60
0
100
AcDbLine
10
0.268332
20
11.006153
30
0
11
0.268332
21
10.843847
31
0
39
0
210
0
220
0
230
1
0
LINE
5
91
100
AcDbEntity
8
1
62
256
6
ByLayer
370
18
48
1
60
0
100
AcDbLine
10
-0.271
20
10.558322
30
0
11
-0.271
21
10.046177
31
0
39
0
210
0
220
0
230
1
0
LINE
5
92
100
AcDbEntity
8
1
62
256
6
ByLayer
370
18
48
1
60
0
100
AcDbLine
10
0.268332
20
11.543022
30
0
11
0.268332
21
11.422918
31
0
39
0
210
0
220
0
230
1
0
LINE
5
93
100
AcDbEntity
8
1
62
256
6
ByLayer
370
18
48
1
60
0
100
AcDbLine
10
-0.271
20
11.081772
30
0
11
-0.271
21
10.705053
31
0
39
0
210
0
220
0
230
1
0
LINE
5
94
100
AcDbEntity
8
1
62
256
6
ByLayer
370
18
48
1
60
0
100
AcDbLine
10
0.268332
20
11.9257
30
0
11
0.268332
21
11.842808
31
0
39
0
210
0
220
0
230
1
0
LINE
5
95
100
AcDbEntity
8
1
62
256
6
ByLayer
370
18
48
1
60
0
100
AcDbLine
10
-0.271
20
11.44588
30
0
11
-0.271
21
11.186852
31
0
39
0
210
0
220
0
230
1
0
LINE
5
96
100
AcDbEntity
8
1
62
256
6
ByLayer
370
18
48
1
60
0
100
AcDbLine
10
5.224576
20
10.776085
30
0
11
4.945802
21
12.357091
31
0
39
0
210
0
220
0
230
1
0
LINE
5
97
100
AcDbEntity
8
1
62
256
6
ByLayer
370
18
48
1
60
0
100
AcDbLine
10
0.268332
20
12.168742
30
0
11
0.268332
21
12.120072
31
0
39
0
210
0
220
0
230
1
0
LINE
5
98
100
AcDbEntity
8
1
62
256
6
ByLayer
370
18
48
1
60
0
100
AcDbLine
10
-0.271
20
11.665576
30
0
11
-0.271
21
11.513825
31
0
39
0
210
0
220
0
230
1
0
LINE
5
99
100
AcDbEntity
8
1
62
256
6
ByLayer
370
18
48
1
60
0
100
AcDbLine
10
22
20
4
30
0
11
13.3
21
4
31
0
39
0
210
0
220
0
230
1
0
LINE
5
9A
100
AcDbEntity
8
1
62
256
6
ByLayer
370
18
48
1
60
0
100
AcDbLine
10
15.70921
20
-21.722453
30
0
11
21.669864
21
-14.086868
31
0
39
0
210
0
220
0
230
1
0
LINE
5
9B
100
AcDbEntity
8
1
62
256
6
ByLayer
370
18
48
1
60
0
100
AcDbLine
10
15.507194
20
-11.790523
30
0
11
15.000523
21
-21.45838
31
0
39
0
210
0
220
0
230
1
0
LINE
5
9C
100
AcDbEntity
8
1
62
256
6
ByLayer
370
18
48
1
60
0
100
AcDbLine
10
17.739519
20
-13.115585
30
0
11
17.770281
21
-13.14975
31
0
39
0
210
0
220
0
230
1
0
LINE
5
9D
100
AcDbEntity
8
1
62
256
6
ByLayer
370
18
48
1
60
0
100
AcDbLine
10
19.078599
20
-12.009279
30
0
11
19.109361
21
-12.043444
31
0
39
0
210
0
220
0
230
1
0
LINE
5
9E
100
AcDbEntity
8
1
62
256
6
ByLayer
370
18
48
1
60
0
100
AcDbLine
10
18.448693
20
-13.694604
30
0
11
18.479455
21
-13.728769
31
0
39
0
210
0
220
0
230
1
0
LINE
5
9F
100
AcDbEntity
8
1
62
256
6
ByLayer
370
18
48
1
60
0
100
AcDbLine
10
19.512695
20
-12.815352
30
0
11
19.543446
21
-12.849504
31
0
39
0
210
0
220
0
230
1
0
LINE
5
A0
100
AcDbEntity
8
1
62
256
6
ByLayer
370
18
48
1
60
0
100
AcDbLine
10
18.008477
20
-13.252612
30
0
11
18.036154
21
-13.28335
31
0
39
0
210
0
220
0
230
1
0
LINE
5
A1
100
AcDbEntity
8
1
62
256
6
ByLayer
370
18
48
1
60
0
100
AcDbLine
10
19.212914
20
-12.35771
30
0
11
19.185237
21
-12.326972
31
0
39
0
210
0
220
0
230
1
0
LINE
5
A2
100
AcDbEntity
8
1
62
256
6
ByLayer
370
18
48
1
60
0
100
AcDbLine
10
19.305551
20
-13.369569
30
0
11
19.336302
21
-13.403722
31
0
39
0
210
0
220
0
230
1
0
LINE
5
A3
100
AcDbEntity
8
1
62
256
6
ByLayer
370
18
48
1
60
0
100
AcDbLine
10
19.030819
20
-13.596752
30
0
11
19.061581
21
-13.630916
31
0
39
0
210
0
220
0
230
1
0
LINE
5
A4
100
AcDbEntity
8
1
62
256
6
ByLayer
370
18
48
1
60
0
100
AcDbLine
10
19.882082
20
-11.639208
30
0
11
19.906047
21
-11.665822
31
0
39
0
210
0
220
0
230
1
0
LINE
5
A5
100
AcDbEntity
8
1
62
256
6
ByLayer
370
18
48
1
60
0
100
AcDbLine
10
17.342197
20
-13.974323
30
0
11
17.318233
21
-13.947708
31
0
39
0
210
0
220
0
230
1
0
LINE
5
A6
100
AcDbEntity
8
1
62
256
6
ByLayer
370
18
48
1
60
0
100
AcDbLine
10
19.306485
20
-13.024111
30
0
11
19.334021
21
-13.054693
31
0
39
0
210
0
220
0
230
1
0
LINE
5
A7
100
AcDbEntity
8
1
62
256
6
ByLayer
370
18
48
1
60
0
100
AcDbLine
10
19.314269
20
-13.107541
30
0
11
19.286733
21
-13.076959
31
0
39
0
210
0
220
0
230
1
0
LINE
5
A8
100
AcDbEntity
8
1
62
256
6
ByLayer
370
18
48
1
60
0
100
AcDbLine
10
5.810556
20
-12.5
30
0
11
4.181824
21
-12.5
31
0
39
0
210
0
220
0
230
1
0
LINE
5
A9
100
AcDbEntity
8
1
62
256
6
ByLayer
370
18
48
1
60
0
100
AcDbLine
10
0.479
20
-12.437343
30
0
11
4.009675
21
-12.437343
31
0
39
0
210
0
220
0
230
1
0
LINE
5
AA
100
AcDbEntity
8
1
62
256
6
ByLayer
370
18
48
1
60
0
100
AcDbLine
10
0.268332
20
-5.896003
30
0
11
0.268332
21
-6.439065
31
0
39
0
210
0
220
0
230
1
0
LINE
5
AB
100
AcDbEntity
8
1
62
256
6
ByLayer
370
18
48
1
60
0
100
AcDbLine
10
0.268332
20
-7.756088
30
0
11
0.268332
21
-8.128193
31
0
39
0
210
0
220
0
230
1
0
LINE
5
AC
100
AcDbEntity
8
1
62
256
6
ByLayer
370
18
48
1
60
0
100
AcDbLine
10
-0.271
20
-6.415463
30
0
11
-0.271
21
-7.664572
31
0
39
0
210
0
220
0
230
1
0
LINE
5
AD
100
AcDbEntity
8
1
62
256
6
ByLayer
370
18
48
1
60
0
100
AcDbLine
10
0.268332
20
-9.078873
30
0
11
0.268332
21
-9.356734
31
0
39
0
210
0
220
0
230
1
0
LINE
5
AE
100
AcDbEntity
8
1
62
256
6
ByLayer
370
18
48
1
60
0
100
AcDbLine
10
-0.271
20
-8.026119
30
0
11
-0.271
21
-8.91337
31
0
39
0
210
0
220
0
230
1
0
LINE
5
AF
100
AcDbEntity
8
1
62
256
6
ByLayer
370
18
48
1
60
0
100
AcDbLine
10
0.268332
20
-10.078193
30
0
11
0.268332
21
-10.290988
31
0
39
0
210
0
220
0
230
1
0
LINE
5
B0
100
AcDbEntity
8
1
62
256
6
ByLayer
370
18
48
1
60
0
100
AcDbLine
10
-0.271
20
-9.172141
30
0
11
-0.271
21
-9.850161
31
0
39
0
210
0
220
0
230
1
0
LINE
5
B1
100
AcDbEntity
8
1
62
256
6
ByLayer
370
18
48
1
60
0
100
AcDbLine
10
0.268332
20
-10.843847
30
0
11
0.268332
21
-11.006153
31
0
39
0
210
0
220
0
230
1
0
LINE
5
B2
100
AcDbEntity
8
1
62
256
6
ByLayer
370
18
48
1
60
0
100
AcDbLine
10
-0.271
20
-10.046177
30
0
11
-0.271
21
-10.558322
31
0
39
0
210
0
220
0
230
1
0
LINE
5
B3
100
AcDbEntity
8
1
62
256
6
ByLayer
370
18
48
1
60
0
100
AcDbLine
10
0.268332
20
-11.422918
30
0
11
0.268332
21
-11.543022
31
0
39
0
210
0
220
0
230
1
0
LINE
5
B4
100
AcDbEntity
8
1
62
256
6
ByLayer
370
18
48
1
60
0
100
AcDbLine
10
-0.271
20
-10.705053
30
0
11
-0.271
21
-11.081772
31
0
39
0
210
0
220
0
230
1
0
LINE
5
B5
100
AcDbEntity
8
1
62
256
6
ByLayer
370
18
48
1
60
0
100
AcDbLine
10
0.268332
20
-11.842808
30
0
11
0.268332
21
-11.9257
31
0
39
0
210
0
220
0
230
1
0
LINE
5
B6
100
AcDbEntity
8
1
62
256
6
ByLayer
370
18
48
1
60
0
100
AcDbLine
10
-0.271
20
-11.186852
30
0
11
-0.271
21
-11.44588
31
0
39
0
210
0
220
0
230
1
0
LINE
5
B7
100
AcDbEntity
8
1
62
256
6
ByLayer
370
18
48
1
60
0
100
AcDbLine
10
0.268332
20
-12.120072
30
0
11
0.268332
21
-12.168742
31
0
39
0
210
0
220
0
230
1
0
LINE
5
B8
100
AcDbEntity
8
1
62
256
6
ByLayer
370
18
48
1
60
0
100
AcDbLine
10
-0.271
20
-11.513825
30
0
11
-0.271
21
-11.665576
31
0
39
0
210
0
220
0
230
1
0
LINE
5
B9
100
AcDbEntity
8
1
62
256
6
ByLayer
370
18
48
1
60
0
100
AcDbLine
10
16.194571
20
-10.793492
30
0
11
15.662376
21
-10.595185
31
0
39
0
210
0
220
0
230
1
0
LINE
5
BA
100
AcDbEntity
8
1
62
256
6
ByLayer
370
18
48
1
60
0
100
AcDbLine
10
22.090343
20
-7.434227
30
0
11
23.28208
21
-5.907614
31
0
39
0
210
0
220
0
230
1
0
LINE
5
BB
100
AcDbEntity
8
1
62
256
6
ByLayer
370
18
48
1
60
0
100
AcDbLine
10
22.206612
20
-13.03371
30
0
11
21.804735
21
-12.883962
31
0
39
0
210
0
220
0
230
1
0
LINE
5
BC
100
AcDbEntity
8
1
62
256
6
ByLayer
370
18
48
1
60
0
100
AcDbLine
10
27
20
-6.892737
30
0
11
22.206612
21
-13.03371
31
0
39
0
210
0
220
0
230
1
0
LINE
5
BD
100
AcDbEntity
8
1
62
256
6
ByLayer
370
18
48
1
60
0
100
AcDbLine
10
9.547115
20
-9.387376
30
0
11
7.722342
21
-10.920557
31
0
39
0
210
0
220
0
230
1
0
LINE
5
BE
100
AcDbEntity
8
1
62
256
6
ByLayer
370
18
48
1
60
0
100
AcDbLine
10
15.565011
20
-10.48705
30
0
11
15.662376
21
-10.595185
31
0
39
0
210
0
220
0
230
1
0
LINE
5
BF
100
AcDbEntity
8
1
62
256
6
ByLayer
370
18
48
1
60
0
100
AcDbLine
10
15.172062
20
-9.934861
30
0
11
15.172062
21
-9.992573
31
0
39
0
210
0
220
0
230
1
0
LINE
5
C0
100
AcDbEntity
8
1
62
256
6
ByLayer
370
18
48
1
60
0
100
AcDbLine
10
22.859058
20
-6.022002
30
0
11
22.11436
21
-6.975959
31
0
39
0
210
0
220
0
230
1
0
LINE
5
C1
100
AcDbEntity
8
1
62
256
6
ByLayer
370
18
48
1
60
0
100
AcDbLine
10
22.065798
20
-12.98124
30
0
11
22.043224
21
-13.01016
31
0
39
0
210
0
220
0
230
1
0
LINE
5
C2
100
AcDbEntity
8
1
62
256
6
ByLayer
370
18
48
1
60
0
100
AcDbLine
10
21.753407
20
-13.863347
30
0
11
22.260078
21
-4.19549
31
0
39
0
210
0
220
0
230
1
0
LINE
5
C3
100
AcDbEntity
8
1
62
256
6
ByLayer
370
18
48
1
60
0
100
AcDbLine
10
21.551391
20
-3.931417
30
0
11
15.590737
21
-11.567002
31
0
39
0
210
0
220
0
230
1
0
LINE
5
C4
100
AcDbEntity
8
SK1
62
256
6
ByLayer
370
18
48
1
60
0
100
AcDbLine
10
-3.521234
20
3
30
0
11
-0.271
21
3
31
0
39
0
210
0
220
0
230
1
0
LINE
5
C5
100
AcDbEntity
8
SK1
62
256
6
ByLayer
370
18
48
1
60
0
100
AcDbLine
10
-0.271
20
-3
30
0
11
-3.521234
21
-3
31
0
39
0
210
0
220
0
230
1
0
LINE
5
C6
100
AcDbEntity
8
1
62
256
6
ByLayer
370
18
48
1
60
0
100
AcDbLine
10
-0.271
20
-5.909159
30
0
11
-0.271
21
-6.415463
31
0
39
0
210
0
220
0
230
1
0
LINE
5
C7
100
AcDbEntity
8
1
62
256
6
ByLayer
370
18
48
1
60
0
100
AcDbLine
10
-0.271
20
-7.664572
30
0
11
-0.271
21
-8.012844
31
0
39
0
210
0
220
0
230
1
0
LINE
5
C8
100
AcDbEntity
8
1
62
256
6
ByLayer
370
18
48
1
60
0
100
AcDbLine
10
-0.271
20
-8.91337
30
0
11
-0.271
21
-9.172141
31
0
39
0
210
0
220
0
230
1
0
LINE
5
C9
100
AcDbEntity
8
1
62
256
6
ByLayer
370
18
48
1
60
0
100
AcDbLine
10
-0.271
20
-9.850161
30
0
11
-0.271
21
-10.046177
31
0
39
0
210
0
220
0
230
1
0
LINE
5
CA
100
AcDbEntity
8
1
62
256
6
ByLayer
370
18
48
1
60
0
100
AcDbLine
10
-0.271
20
-10.558322
30
0
11
-0.271
21
-10.705053
31
0
39
0
210
0
220
0
230
1
0
LINE
5
CB
100
AcDbEntity
8
1
62
256
6
ByLayer
370
18
48
1
60
0
100
AcDbLine
10
-0.271
20
-11.081772
30
0
11
-0.271
21
-11.186852
31
0
39
0
210
0
220
0
230
1
0
LINE
5
CC
100
AcDbEntity
8
1
62
256
6
ByLayer
370
18
48
1
60
0
100
AcDbLine
10
-0.271
20
-11.44588
30
0
11
-0.271
21
-11.513825
31
0
39
0
210
0
220
0
230
1
0
LINE
5
CD
100
AcDbEntity
8
1
62
256
6
ByLayer
370
18
48
1
60
0
100
AcDbLine
10
-0.271
20
-11.665576
30
0
11
-0.271
21
-11.683321
31
0
39
0
210
0
220
0
230
1
0
LINE
5
CE
100
AcDbEntity
8
1
62
256
6
ByLayer
370
18
48
1
60
0
100
AcDbLine
10
0.479
20
12.437343
30
0
11
0.479
21
-12.437343
31
0
39
0
210
0
220
0
230
1
0
LINE
5
CF
100
AcDbEntity
8
1
62
256
6
ByLayer
370
18
48
1
60
0
100
AcDbLine
10
4.181824
20
12.5
30
0
11
4.009675
21
12.437343
31
0
39
0
210
0
220
0
230
1
0
LINE
5
D0
100
AcDbEntity
8
1
62
256
6
ByLayer
370
18
48
1
60
0
100
AcDbLine
10
4.009675
20
-12.437343
30
0
11
4.181824
21
-12.5
31
0
39
0
210
0
220
0
230
1
0
LINE
5
D1
100
AcDbEntity
8
1
62
256
6
ByLayer
370
18
48
1
60
0
100
AcDbLine
10
-0.271
20
-3.871132
30
0
11
-0.271
21
-5.909159
31
0
39
0
210
0
220
0
230
1
0
LINE
5
D2
100
AcDbEntity
8
1
62
256
6
ByLayer
370
18
48
1
60
0
100
AcDbLine
10
7.722342
20
-10.920557
30
0
11
6.030102
21
8.406772
31
0
39
0
210
0
220
0
230
1
0
LINE
5
D3
100
AcDbEntity
8
1
62
256
6
ByLayer
370
18
48
1
60
0
100
AcDbLine
10
27
20
-1
30
0
11
27
21
-6.892737
31
0
39
0
210
0
220
0
230
1
0
LINE
5
D4
100
AcDbEntity
8
4
62
256
6
ByLayer
370
18
48
0.05
60
0
100
AcDbLine
10
0
20
0
30
0
11
15
21
0
31
0
39
0
210
0
220
0
230
1
0
LINE
5
D6
100
AcDbEntity
8
SK4
62
256
6
ByLayer
370
18
48
0.05
60
0
100
AcDbLine
10
-5
20
0
30
0
11
32
21
0
31
0
39
0
210
0
220
0
230
1
0
LINE
5
D8
100
AcDbEntity
8
80
62
256
6
ByLayer
370
18
48
1
60
0
100
AcDbLine
10
0
20
0
30
0
11
-1.5
21
0
31
0
39
0
210
0
220
0
230
1
0
LINE
5
D9
100
AcDbEntity
8
81
62
256
6
ByLayer
370
18
48
1
60
0
100
AcDbLine
10
15
20
-22
30
0
11
13.5
21
-22
31
0
39
0
210
0
220
0
230
1
0
MTEXT
5
17E
100
AcDbEntity
8
SK6
62
256
6
ByLayer
370
13
48
1
60
0
100
AcDbMText
10
-25.589375
20
-60.02512
30
0
210
0
220
0
230
1
1
\W1.0776;570-SVUCL-25-11X-D
40
3.175
41
0
44
0.903614
50
0
71
7
72
5
7
blockfont
0
DIMENSION
5
18C
100
AcDbEntity
8
2
62
256
6
ByLayer
370
13
48
1
60
0
100
AcDbDimension
2
DimnDraft3D1
10
-22
20
-36.974891
30
0
11
-11
21
-36.974891
31
0
70
32
71
5
72
1
41
1
210
0
220
0
230
1
3
Standard
100
AcDbAlignedDimension
13
0
23
-33.5875
33
0
14
-22
24
-16.5875
34
0
50
0
100
AcDbRotatedDimension
1001
ACAD
1000
DSTYLE
1002
{
1070
   279
1070
     0
1070
   173
1070
     1
1070
   340
1005
17F
1070
   271
1070
     3
1070
   272
1070
     3
1070
    77
1070
     1
1070
    73
1070
     0
1070
   171
1070
     4
1070
   274
1070
     4
1070
   177
1070
     7
1070
   176
1070
     7
1070
   178
1070
     7
1070
    78
1070
     8
1070
    48
1040
-0.005
1070
    41
1041
3.175
1070
   147
1041
1.5875
1070
    42
1041
1.5875
1070
    44
1041
3.175
1070
   140
1041
3.175
1070
   343
1005
0
1070
   344
1005
0
1002
}
0
DIMENSION
5
196
100
AcDbEntity
8
2
62
256
6
ByLayer
370
13
48
1
60
0
100
AcDbDimension
2
DimnDraft3D2
10
30.330825
20
15
30
0
11
30.330825
21
7.5
31
0
70
32
71
5
72
1
41
1
210
0
220
0
230
1
3
Standard
100
AcDbAlignedDimension
13
1.5875
23
0
33
0
14
23.5875
24
15
34
0
50
90
100
AcDbRotatedDimension
1001
ACAD
1000
DSTYLE
1002
{
1070
    74
1070
     0
1070
   279
1070
     0
1070
   173
1070
     1
1070
   340
1005
17F
1070
   271
1070
     3
1070
   272
1070
     3
1070
    77
1070
     1
1070
    73
1070
     0
1070
   171
1070
     4
1070
   274
1070
     4
1070
   177
1070
     7
1070
   176
1070
     7
1070
   178
1070
     7
1070
    78
1070
     8
1070
    48
1040
-0.005
1070
    41
1041
3.175
1070
   147
1041
1.5875
1070
    42
1041
1.5875
1070
    44
1041
3.175
1070
   140
1041
3.175
1070
   343
1005
0
1070
   344
1005
0
1002
}
0
DIMENSION
5
1A0
100
AcDbEntity
8
SK2
62
256
6
ByLayer
370
13
48
1
60
0
100
AcDbDimension
2
DimnDraft3D3
10
13.5
20
-22
30
0
11
-14.891145
21
-8.226086
31
0
70
34
71
5
72
1
41
1
210
0
220
0
230
1
3
Standard
100
AcDb2LineAngularDimension
13
15.507194
23
-11.790523
33
0
14
15.000523
24
-21.45838
34
0
15
15
25
-22
35
0
16
-17.194208
26
-10.411612
36
0
40
0
0
DIMENSION
5
1B5
100
AcDbEntity
8
SK2
62
256
6
ByLayer
370
13
48
1
60
0
100
AcDbDimension
2
DimnDraft3D5
10
-13.434465
20
12.5
30
0
11
-12.640715
21
-2.074642
31
0
70
33
71
5
72
1
41
1
210
0
220
0
230
1
3
Standard
100
AcDbAlignedDimension
13
2.594324
23
-12.5
33
0
14
2.594324
24
12.5
34
0
1001
ACAD
1000
DSTYLE
1002
{
1070
   279
1070
     0
1070
    74
1070
     0
1070
   173
1070
     1
1070
   340
1005
17F
1070
   271
1070
     3
1070
   272
1070
     3
1070
    77
1070
     1
1070
    73
1070
     0
1070
   171
1070
     4
1070
   274
1070
     4
1070
   177
1070
     7
1070
   176
1070
     7
1070
   178
1070
     7
1070
    78
1070
     8
1070
    48
1040
-0.005
1070
    41
1041
3.175
1070
   147
1041
1.5875
1070
    42
1041
1.5875
1070
    44
1041
3.175
1070
   140
1041
3.175
1070
   343
1005
0
1070
   344
1005
0
1002
}
0
ENDSEC
0
SECTION
2
OBJECTS
0
DICTIONARY
5
220
330
0
100
AcDbDictionary
280
0
281
1
3
ACAD_GROUP
350
221
3
ACAD_MLINESTYLE
350
222
0
DICTIONARY
5
221
330
0
100
AcDbDictionary
280
0
281
1
0
DICTIONARY
5
222
330
0
100
AcDbDictionary
280
0
281
1
3
Standard
350
18
0
MLINESTYLE
5
18
330
222
100
AcDbMlineStyle
2
Standard
70
0
3

62
256
51
90
52
90
71
2
49
-0.5
62
256
6
ByLayer
49
0.5
62
256
6
ByLayer
0
RASTERVARIABLES
5
20e
330

100
AcDbRasterVariables
90
0
70
1
71
1
72
1
0
ENDSEC
0
EOF
