0
SECTION
2
HEADER
9
$ACADVER
1
AC1015
9
$DWGCODEPAGE
3
ANSI_1252
9
$HANDSEED
5
182
9
$ANGBASE
50
0
9
$ANGDIR
70
0
9
$ATTMODE
70
1
9
$AUNITS
70
0
9
$AUPREC
70
0
9
$CECOLOR
62
256
9
$CELTSCALE
40
1
9
$CELTYPE
6
ByLayer
9
$CELWEIGHT
370
-1
9
$CLAYER
8
0
9
$CMLJUST
70
0
9
$CMLSCALE
40
1
9
$CMLSTYLE
2
Standard
9
$DIMSTYLE
2
Standard
9
$TEXTSIZE
40
0.2
9
$TEXTSTYLE
7
Standard
9
$LUNITS
70
2
9
$LUPREC
70
4
9
$EXTNAMES
290
1
9
$INSUNITS
70
4
9
$LTSCALE
40
1
9
$LWDISPLAY
290
0
9
$PDMODE
70
0
9
$PDSIZE
40
0
9
$PLINEGEN
70
0
0
ENDSEC
0
SECTION
2
CLASSES
0
CLASS
1
RASTERVARIABLES
2
AcDbRasterVariables
3
ISM
90
0
280
0
281
0
0
ENDSEC
0
SECTION
2
TABLES
0
TABLE
2
VPORT
5
178
100
AcDbSymbolTable
0
VPORT
5
1
100
AcDbSymbolTableRecord
100
AcDbViewportTableRecord
2
*Active
70
0
10
0
20
0
11
1
21
1
12
-1
22
1
13
0
23
0
14
0.5
24
0.5
15
10
25
10
16
0
26
0
36
1
17
0
27
0
37
0
0
ENDTAB
0
TABLE
2
LTYPE
5
179
100
AcDbSymbolTable
0
LTYPE
5
14
100
AcDbSymbolTableRecord
100
AcDbLinetypeTableRecord
70
0
2
ByBlock
3

72
65
73
0
40
0
0
LTYPE
5
15
100
AcDbSymbolTableRecord
100
AcDbLinetypeTableRecord
70
0
2
ByLayer
3

72
65
73
0
40
0
0
LTYPE
5
16
100
AcDbSymbolTableRecord
100
AcDbLinetypeTableRecord
70
0
2
CONTINUOUS
3
Solid line
72
65
73
0
40
0
0
LTYPE
5
3B
100
AcDbSymbolTableRecord
100
AcDbLinetypeTableRecord
70
0
2
DASHED
3
__ __ __ __ __ __ __ __ __
72
65
73
2
40
25.72
49
12.86
74
0
49
-12.86
74
0
0
LTYPE
5
3C
100
AcDbSymbolTableRecord
100
AcDbLinetypeTableRecord
70
0
2
HIDDEN
3
_ _ _ _ _ _ _ _ _ _ _ _ _ _ _
72
65
73
2
40
0.5
49
0.25
74
0
49
-0.25
74
0
0
LTYPE
5
3D
100
AcDbSymbolTableRecord
100
AcDbLinetypeTableRecord
70
0
2
PHANTOM
3
____ _ _ ____ _ _ _____ _ _ ____
72
65
73
6
40
50.5
49
18
74
0
49
-6.5
74
0
49
6.5
74
0
49
-6.5
74
0
49
6.5
74
0
49
-6.5
74
0
0
LTYPE
5
3E
100
AcDbSymbolTableRecord
100
AcDbLinetypeTableRecord
70
0
2
CENTER
3
____ _ ____ _ ____ _ ____
72
65
73
4
40
47.5
49
22
74
0
49
-8.5
74
0
49
8.5
74
0
49
-8.5
74
0
0
LTYPE
5
3F
100
AcDbSymbolTableRecord
100
AcDbLinetypeTableRecord
70
0
2
DOT
3
.........................
72
65
73
2
40
10
49
0
74
0
49
-10
74
0
0
LTYPE
5
40
100
AcDbSymbolTableRecord
100
AcDbLinetypeTableRecord
70
0
2
DASHDOT
3
_._._._._._._._._._._._._._._._.
72
65
73
4
40
70
49
31
74
0
49
-13
74
0
49
13
74
0
49
-13
74
0
0
ENDTAB
0
TABLE
2
LAYER
5
17a
100
AcDbSymbolTable
0
LAYER
5
10
100
AcDbSymbolTableRecord
100
AcDbLayerTableRecord
2
0
70
0
62
7
6
CONTINUOUS
290
1
370
-3
390
0
0
LAYER
5
42
100
AcDbSymbolTableRecord
100
AcDbLayerTableRecord
2
80
70
0
62
-6
6
CONTINUOUS
290
1
370
-3
390
0
0
LAYER
5
44
100
AcDbSymbolTableRecord
100
AcDbLayerTableRecord
2
81
70
0
62
-3
6
CONTINUOUS
290
1
370
-3
390
0
0
LAYER
5
46
100
AcDbSymbolTableRecord
100
AcDbLayerTableRecord
2
1
70
0
62
4
6
CONTINUOUS
290
1
370
-3
390
0
0
LAYER
5
48
100
AcDbSymbolTableRecord
100
AcDbLayerTableRecord
2
2
70
0
62
7
6
CONTINUOUS
290
1
370
-3
390
0
0
LAYER
5
4E
100
AcDbSymbolTableRecord
100
AcDbLayerTableRecord
2
4
70
0
62
-2
6
CENTER
290
1
370
-3
390
0
0
LAYER
5
164
100
AcDbSymbolTableRecord
100
AcDbLayerTableRecord
2
SK4
70
0
62
2
6
CENTER
290
1
370
-3
390
0
0
LAYER
5
165
100
AcDbSymbolTableRecord
100
AcDbLayerTableRecord
2
SK1
70
0
62
4
6
CONTINUOUS
290
1
370
-3
390
0
0
LAYER
5
166
100
AcDbSymbolTableRecord
100
AcDbLayerTableRecord
2
SK6
70
0
62
5
6
CONTINUOUS
290
1
370
-3
390
0
0
LAYER
5
167
100
AcDbSymbolTableRecord
100
AcDbLayerTableRecord
2
SK2
70
0
62
7
6
CONTINUOUS
290
1
370
-3
390
0
0
ENDTAB
0
TABLE
2
STYLE
5
17b
100
AcDbSymbolTable
0
STYLE
5
11
100
AcDbSymbolTableRecord
100
AcDbTextStyleTableRecord
2
Standard
3
txt
70
0
71
0
40
0
41
1
42
0
50
0
0
STYLE
5
E0
100
AcDbSymbolTableRecord
100
AcDbTextStyleTableRecord
2
DEFAULT
3
simplex.shx
70
0
71
0
40
0
41
1
42
0
50
0
0
STYLE
5
103
100
AcDbSymbolTableRecord
100
AcDbTextStyleTableRecord
2
DWGDirectTextStyle
3
SIMPLEX
70
0
71
0
40
0
41
1
42
0
50
0
0
ENDTAB
0
TABLE
2
DIMSTYLE
5
17c
100
AcDbSymbolTable
100
AcDbDimStyleTable
0
DIMSTYLE
105
27
100
AcDbSymbolTableRecord
100
AcDbDimStyleTableRecord
2
Standard
70
0
3
<>
41
0.18
42
0.0625
44
0.18
140
0.18
147
0.09
73
0
74
0
77
1
271
2
275
0
278
52
280
0
340
11
0
ENDTAB
0
TABLE
2
VIEW
5
17d
100
AcDbSymbolTable
0
ENDTAB
0
TABLE
2
UCS
5
17e
100
AcDbSymbolTable
0
ENDTAB
0
TABLE
2
APPID
5
17f
100
AcDbSymbolTable
0
APPID
5
12
100
AcDbSymbolTableRecord
100
AcDbRegAppTableRecord
2
ACAD
70
0
0
ENDTAB
0
TABLE
2
BLOCK_RECORD
5
180
100
AcDbSymbolTable
0
BLOCK_RECORD
5
1F
100
AcDbSymbolTableRecord
100
AcDbBlockTableRecord
2
*Model_Space
340
0
70
0
0
BLOCK_RECORD
5
1B
100
AcDbSymbolTableRecord
100
AcDbBlockTableRecord
2
*Paper_Space
340
0
70
0
0
BLOCK_RECORD
5
23
100
AcDbSymbolTableRecord
100
AcDbBlockTableRecord
2
*Paper_Space0
340
0
70
0
0
BLOCK_RECORD
5
105
100
AcDbSymbolTableRecord
100
AcDbBlockTableRecord
2
DimnDraft3D1
340
0
70
0
0
BLOCK_RECORD
5
114
100
AcDbSymbolTableRecord
100
AcDbBlockTableRecord
2
_CLOSED
340
0
70
0
0
BLOCK_RECORD
5
11B
100
AcDbSymbolTableRecord
100
AcDbBlockTableRecord
2
DimnDraft3D2
340
0
70
0
0
BLOCK_RECORD
5
129
100
AcDbSymbolTableRecord
100
AcDbBlockTableRecord
2
DimnDraft3D3
340
0
70
0
0
BLOCK_RECORD
5
137
100
AcDbSymbolTableRecord
100
AcDbBlockTableRecord
2
DimnDraft3D4
340
0
70
0
0
ENDTAB
0
ENDSEC
0
SECTION
2
BLOCKS
0
BLOCK
5
20
100
AcDbEntity
8
0
100
AcDbBlockBegin
2
*Model_Space
70
0
10
0
20
0
30
0
3
*Model_Space
0
ENDBLK
5
21
100
AcDbEntity
8
0
100
AcDbBlockEnd
0
BLOCK
5
1C
100
AcDbEntity
8
0
100
AcDbBlockBegin
2
*Paper_Space
70
0
10
0
20
0
30
0
3
*Paper_Space
0
ENDBLK
5
1D
100
AcDbEntity
8
0
100
AcDbBlockEnd
0
BLOCK
5
24
100
AcDbEntity
8
0
100
AcDbBlockBegin
2
*Paper_Space0
70
0
10
0
20
0
30
0
3
*Paper_Space0
0
ENDBLK
5
25
100
AcDbEntity
8
0
100
AcDbBlockEnd
0
BLOCK
5
111
100
AcDbEntity
8
0
100
AcDbBlockBegin
2
DimnDraft3D1
70
0
10
0
20
0
30
0
3
DimnDraft3D1
0
MTEXT
5
106
100
AcDbEntity
8
SK2
62
256
6
ByLayer
370
-1
48
1
60
0
100
AcDbMText
10
-10.875
20
-3.096711
30
0
210
0
220
0
230
1
1
\W01.000;\fsimplex.shx,bigfont.shx;%%c16 
40
4.5
41
0
44
1.084337
50
90
71
7
72
5
7
DEFAULT
0
LINE
5
108
100
AcDbEntity
8
SK2
62
256
6
ByLayer
370
-1
48
1
60
0
100
AcDbLine
10
-2
20
-8
30
0
11
-11.75
21
-8
31
0
39
0
210
0
220
0
230
1
0
LINE
5
109
100
AcDbEntity
8
SK2
62
256
6
ByLayer
370
-1
48
1
60
0
100
AcDbLine
10
-2
20
8
30
0
11
-11.75
21
8
31
0
39
0
210
0
220
0
230
1
0
LINE
5
10A
100
AcDbEntity
8
SK2
62
256
6
ByLayer
370
-1
48
1
60
0
100
AcDbLine
10
-9.75
20
-19.25
30
0
11
-9.75
21
19.25
31
0
39
0
210
0
220
0
230
1
0
LINE
5
10B
100
AcDbEntity
8
SK2
62
256
6
ByLayer
370
-1
48
1
60
0
100
AcDbLine
10
-9.75
20
-8
30
0
11
-9.332003
21
-11.174998
31
0
39
0
210
0
220
0
230
1
0
LINE
5
10C
100
AcDbEntity
8
SK2
62
256
6
ByLayer
370
-1
48
1
60
0
100
AcDbLine
10
-9.75
20
-8
30
0
11
-10.167997
21
-11.175002
31
0
39
0
210
0
220
0
230
1
0
LINE
5
10D
100
AcDbEntity
8
SK2
62
256
6
ByLayer
370
-1
48
1
60
0
100
AcDbLine
10
-9.332003
20
-11.174998
30
0
11
-10.167997
21
-11.175002
31
0
39
0
210
0
220
0
230
1
0
LINE
5
10E
100
AcDbEntity
8
SK2
62
256
6
ByLayer
370
-1
48
1
60
0
100
AcDbLine
10
-9.75
20
8
30
0
11
-10.167997
21
11.174998
31
0
39
0
210
0
220
0
230
1
0
LINE
5
10F
100
AcDbEntity
8
SK2
62
256
6
ByLayer
370
-1
48
1
60
0
100
AcDbLine
10
-9.75
20
8
30
0
11
-9.332003
21
11.175002
31
0
39
0
210
0
220
0
230
1
0
LINE
5
110
100
AcDbEntity
8
SK2
62
256
6
ByLayer
370
-1
48
1
60
0
100
AcDbLine
10
-10.167997
20
11.174998
30
0
11
-9.332003
21
11.175002
31
0
39
0
210
0
220
0
230
1
0
ENDBLK
5
112
100
AcDbEntity
8
0
100
AcDbBlockEnd
0
BLOCK
5
115
100
AcDbEntity
8
0
100
AcDbBlockBegin
2
_CLOSED
70
0
10
0
20
0
30
0
3
_CLOSED
0
LINE
5
117
100
AcDbEntity
8
0
62
256
6
ByLayer
370
-2
48
1
60
0
100
AcDbLine
10
-1
20
0.166667
30
0
11
0
21
0
31
0
39
0
210
0
220
0
230
1
0
LINE
5
118
100
AcDbEntity
8
0
62
256
6
ByLayer
370
-2
48
1
60
0
100
AcDbLine
10
0
20
0
30
0
11
-1
21
-0.166667
31
0
39
0
210
0
220
0
230
1
0
LINE
5
119
100
AcDbEntity
8
0
62
256
6
ByLayer
370
-2
48
1
60
0
100
AcDbLine
10
-1
20
0.166667
30
0
11
-1
21
-0.166667
31
0
39
0
210
0
220
0
230
1
0
LINE
5
11A
100
AcDbEntity
8
0
62
256
6
ByLayer
370
-2
48
1
60
0
100
AcDbLine
10
0
20
0
30
0
11
-1
21
0
31
0
39
0
210
0
220
0
230
1
0
ENDBLK
5
116
100
AcDbEntity
8
0
100
AcDbBlockEnd
0
BLOCK
5
126
100
AcDbEntity
8
0
100
AcDbBlockBegin
2
DimnDraft3D2
70
0
10
0
20
0
30
0
3
DimnDraft3D2
0
MTEXT
5
11C
100
AcDbEntity
8
2
62
256
6
ByLayer
370
-1
48
1
60
0
100
AcDbMText
10
31.125
20
22.28
30
0
210
0
220
0
230
1
1
\W01.000;\fsimplex.shx,bigfont.shx;11.0 
40
4.5
41
0
44
1.084337
50
90
71
7
72
5
7
DEFAULT
0
LINE
5
11D
100
AcDbEntity
8
2
62
256
6
ByLayer
370
-1
48
1
60
0
100
AcDbLine
10
22
20
10.9
30
0
11
34.25
21
10.9
31
0
39
0
210
0
220
0
230
1
0
LINE
5
11E
100
AcDbEntity
8
2
62
256
6
ByLayer
370
-1
48
1
60
0
100
AcDbLine
10
22
20
0
30
0
11
34.25
21
0
31
0
39
0
210
0
220
0
230
1
0
LINE
5
11F
100
AcDbEntity
8
2
62
256
6
ByLayer
370
-1
48
1
60
0
100
AcDbLine
10
32.25
20
0
30
0
11
32.25
21
29.231316
31
0
39
0
210
0
220
0
230
1
0
LINE
5
120
100
AcDbEntity
8
2
62
256
6
ByLayer
370
-1
48
1
60
0
100
AcDbLine
10
32.25
20
10.9
30
0
11
32.667997
21
7.725002
31
0
39
0
210
0
220
0
230
1
0
LINE
5
121
100
AcDbEntity
8
2
62
256
6
ByLayer
370
-1
48
1
60
0
100
AcDbLine
10
32.25
20
10.9
30
0
11
31.832003
21
7.724998
31
0
39
0
210
0
220
0
230
1
0
LINE
5
122
100
AcDbEntity
8
2
62
256
6
ByLayer
370
-1
48
1
60
0
100
AcDbLine
10
32.667997
20
7.725002
30
0
11
31.832003
21
7.724998
31
0
39
0
210
0
220
0
230
1
0
LINE
5
123
100
AcDbEntity
8
2
62
256
6
ByLayer
370
-1
48
1
60
0
100
AcDbLine
10
32.25
20
0
30
0
11
31.832003
21
3.174998
31
0
39
0
210
0
220
0
230
1
0
LINE
5
124
100
AcDbEntity
8
2
62
256
6
ByLayer
370
-1
48
1
60
0
100
AcDbLine
10
32.25
20
0
30
0
11
32.667997
21
3.175002
31
0
39
0
210
0
220
0
230
1
0
LINE
5
125
100
AcDbEntity
8
2
62
256
6
ByLayer
370
-1
48
1
60
0
100
AcDbLine
10
31.832003
20
3.174998
30
0
11
32.667997
21
3.175002
31
0
39
0
210
0
220
0
230
1
0
ENDBLK
5
127
100
AcDbEntity
8
0
100
AcDbBlockEnd
0
BLOCK
5
134
100
AcDbEntity
8
0
100
AcDbBlockBegin
2
DimnDraft3D3
70
0
10
0
20
0
30
0
3
DimnDraft3D3
0
MTEXT
5
12A
100
AcDbEntity
8
2
62
256
6
ByLayer
370
-1
48
1
60
0
100
AcDbMText
10
5.961842
20
24.775
30
0
210
0
220
0
230
1
1
\W01.000;\fsimplex.shx,bigfont.shx;20.0 
40
4.5
41
0
44
1.084337
50
0
71
7
72
5
7
DEFAULT
0
LINE
5
12B
100
AcDbEntity
8
2
62
256
6
ByLayer
370
-1
48
1
60
0
100
AcDbLine
10
0
20
10
30
0
11
0
21
25.65
31
0
39
0
210
0
220
0
230
1
0
LINE
5
12C
100
AcDbEntity
8
2
62
256
6
ByLayer
370
-1
48
1
60
0
100
AcDbLine
10
20
20
12.9
30
0
11
20
21
25.65
31
0
39
0
210
0
220
0
230
1
0
LINE
5
12D
100
AcDbEntity
8
2
62
256
6
ByLayer
370
-1
48
1
60
0
100
AcDbLine
10
-11.25
20
23.65
30
0
11
31.25
21
23.65
31
0
39
0
210
0
220
0
230
1
0
LINE
5
12E
100
AcDbEntity
8
2
62
256
6
ByLayer
370
-1
48
1
60
0
100
AcDbLine
10
0
20
23.65
30
0
11
-3.174998
21
23.232003
31
0
39
0
210
0
220
0
230
1
0
LINE
5
12F
100
AcDbEntity
8
2
62
256
6
ByLayer
370
-1
48
1
60
0
100
AcDbLine
10
0
20
23.65
30
0
11
-3.175002
21
24.067997
31
0
39
0
210
0
220
0
230
1
0
LINE
5
130
100
AcDbEntity
8
2
62
256
6
ByLayer
370
-1
48
1
60
0
100
AcDbLine
10
-3.174998
20
23.232003
30
0
11
-3.175002
21
24.067997
31
0
39
0
210
0
220
0
230
1
0
LINE
5
131
100
AcDbEntity
8
2
62
256
6
ByLayer
370
-1
48
1
60
0
100
AcDbLine
10
20
20
23.65
30
0
11
23.174998
21
24.067997
31
0
39
0
210
0
220
0
230
1
0
LINE
5
132
100
AcDbEntity
8
2
62
256
6
ByLayer
370
-1
48
1
60
0
100
AcDbLine
10
20
20
23.65
30
0
11
23.175002
21
23.232003
31
0
39
0
210
0
220
0
230
1
0
LINE
5
133
100
AcDbEntity
8
2
62
256
6
ByLayer
370
-1
48
1
60
0
100
AcDbLine
10
23.174998
20
24.067997
30
0
11
23.175002
21
23.232003
31
0
39
0
210
0
220
0
230
1
0
ENDBLK
5
135
100
AcDbEntity
8
0
100
AcDbBlockEnd
0
BLOCK
5
142
100
AcDbEntity
8
0
100
AcDbBlockBegin
2
DimnDraft3D4
70
0
10
0
20
0
30
0
3
DimnDraft3D4
0
MTEXT
5
138
100
AcDbEntity
8
2
62
256
6
ByLayer
370
-1
48
1
60
0
100
AcDbMText
10
48.571824
20
-35.950619
30
0
210
0
220
0
230
1
1
\W01.000;\fsimplex.shx,bigfont.shx;91%%d0' 
40
4.5
41
0
44
1.084337
50
44.5
71
7
72
5
7
DEFAULT
0
LINE
5
139
100
AcDbEntity
8
2
62
256
6
ByLayer
370
-1
48
1
60
0
100
AcDbLine
10
19.808024
20
-0.098325
30
0
11
18.955856
21
-48.918955
31
0
39
0
210
0
220
0
230
1
0
LINE
5
13A
100
AcDbEntity
8
2
62
256
6
ByLayer
370
-1
48
1
60
0
100
AcDbLine
10
22
20
0
30
0
11
68.736147
21
0
31
0
39
0
210
0
220
0
230
1
0
ARC
5
13B
100
AcDbEntity
8
2
62
256
6
ByLayer
370
-1
48
1
60
0
100
AcDbCircle
39
0
10
19.80974
20
0
30
0
40
46.9264068782928
210
0
220
0
230
1
100
AcDbArc
50
269
51
0
0
LINE
5
13C
100
AcDbEntity
8
2
62
256
6
ByLayer
370
-1
48
1
60
0
100
AcDbLine
10
18.990761
20
-46.91926
30
0
11
22.165987
21
-46.502993
31
0
39
0
210
0
220
0
230
1
0
LINE
5
13D
100
AcDbEntity
8
2
62
256
6
ByLayer
370
-1
48
1
60
0
100
AcDbLine
10
18.990761
20
-46.91926
30
0
11
22.165534
21
-47.338987
31
0
39
0
210
0
220
0
230
1
0
LINE
5
13E
100
AcDbEntity
8
2
62
256
6
ByLayer
370
-1
48
1
60
0
100
AcDbLine
10
22.165987
20
-46.502993
30
0
11
22.165534
21
-47.338987
31
0
39
0
210
0
220
0
230
1
0
LINE
5
13F
100
AcDbEntity
8
2
62
256
6
ByLayer
370
-1
48
1
60
0
100
AcDbLine
10
66.736147
20
0
30
0
11
67.100402
21
-3.181612
31
0
39
0
210
0
220
0
230
1
0
LINE
5
140
100
AcDbEntity
8
2
62
256
6
ByLayer
370
-1
48
1
60
0
100
AcDbLine
10
66.736147
20
0
30
0
11
66.264528
21
-3.16748
31
0
39
0
210
0
220
0
230
1
0
LINE
5
141
100
AcDbEntity
8
2
62
256
6
ByLayer
370
-1
48
1
60
0
100
AcDbLine
10
67.100402
20
-3.181612
30
0
11
66.264528
21
-3.16748
31
0
39
0
210
0
220
0
230
1
0
ENDBLK
5
143
100
AcDbEntity
8
0
100
AcDbBlockEnd
0
ENDSEC
0
SECTION
2
ENTITIES
0
ARC
5
83
100
AcDbEntity
8
1
62
256
6
ByLayer
370
-1
48
1
60
0
100
AcDbCircle
39
0
10
-12.417136
20
-11.118542
30
0
40
8.00000000168387
210
0
220
0
230
-1
100
AcDbArc
50
40.972783
51
46.248539
0
ARC
5
84
100
AcDbEntity
8
1
62
256
6
ByLayer
370
-1
48
1
60
0
100
AcDbCircle
39
0
10
-15.722433
20
0.581458
30
0
40
3.70000000000804
210
0
220
0
230
-1
100
AcDbArc
50
181
51
220.694255
0
ELLIPSE
5
85
100
AcDbEntity
8
1
62
256
6
ByLayer
370
-1
48
1
60
0
100
AcDbEllipse
10
13.036901
20
6.867079
30
0
11
-0.999847695156391
21
0.0174524064372834
31
0
210
0
220
0
230
1
40
0.99482
41
-2.0943951023932
42
-0.420333385341355
0
ELLIPSE
5
86
100
AcDbEntity
8
1
62
256
6
ByLayer
370
-1
48
1
60
0
100
AcDbEllipse
10
5.964334
20
3.358757
30
0
11
0.239856258732665
21
2.74999947668478
31
0
210
0
220
0
230
-1
40
0.007073
41
2.63092745158632
42
0.713359787350842
0
ELLIPSE
5
87
100
AcDbEntity
8
1
62
256
6
ByLayer
370
-1
48
1
60
0
100
AcDbEllipse
10
-1176.21302
20
-3.358755
30
0
11
1550.15467583468
21
-0.279493832493475
31
0
210
0
220
0
230
-1
40
0.001765
41
-0.702675589052135
42
-0.690820624775851
0
ELLIPSE
5
88
100
AcDbEntity
8
1
62
256
6
ByLayer
370
-1
48
1
60
0
100
AcDbEllipse
10
13.034595
20
6.734956
30
0
11
-0.999847695156391
21
0.0174524064372834
31
0
210
0
220
0
230
1
40
0.99482
41
-2.06243073427993
42
-0.420333385341361
0
ELLIPSE
5
89
100
AcDbEntity
8
1
62
256
6
ByLayer
370
-1
48
1
60
0
100
AcDbEllipse
10
5.378459
20
-3.358757
30
0
11
0.239856258732675
21
2.74999947668489
31
0
210
0
220
0
230
-1
40
0.007073
41
2.91100189679684
42
0.433285342140247
0
ELLIPSE
5
8A
100
AcDbEntity
8
1
62
256
6
ByLayer
370
-1
48
1
60
0
100
AcDbEllipse
10
16.770151
20
0.005148
30
0
11
0.0629976259735663
21
10.0819183008273
31
0
210
0
220
0
230
-1
40
0.11041
41
0.0042938469733088
42
0.088777146722427
0
ELLIPSE
5
8B
100
AcDbEntity
8
1
62
256
6
ByLayer
370
-1
48
1
60
0
100
AcDbEllipse
10
13.038409
20
6.953477
30
0
11
1.09418586688479
21
-0.0190990853500228
31
0
210
0
220
0
230
1
40
0.99482
41
1.04719755119661
42
2.76970596283258
0
ELLIPSE
5
8C
100
AcDbEntity
8
1
62
256
6
ByLayer
370
-1
48
1
60
0
100
AcDbEllipse
10
12.145238
20
6.286458
30
0
11
-0.874866733261843
21
0.015270855632623
31
0
210
0
220
0
230
1
40
0.99482
41
-2.02279438095733
42
-1.53472160386996
0
ELLIPSE
5
8D
100
AcDbEntity
8
1
62
256
6
ByLayer
370
-1
48
1
60
0
100
AcDbEllipse
10
12.14444
20
6.240724
30
0
11
0.874866733261842
21
-0.0152708556326317
31
0
210
0
220
0
230
1
40
0.99482
41
1.1747996485266
42
2.98926582783496
0
ELLIPSE
5
8E
100
AcDbEntity
8
1
62
256
6
ByLayer
370
-1
48
1
60
0
100
AcDbEllipse
10
12.149052
20
6.50498
30
0
11
-0.874866733261843
21
0.015270855632623
31
0
210
0
220
0
230
1
40
0.99482
41
-1.41224493287844
42
2.32851568125976
0
ELLIPSE
5
8F
100
AcDbEntity
8
1
62
256
6
ByLayer
370
-1
48
1
60
0
100
AcDbEllipse
10
5.695334
20
0
30
0
11
0.697763661767743
21
7.99999847762833
31
0
210
0
220
0
230
-1
40
0.007073
41
-2.77420910204471
42
-0.164688966197834
0
ELLIPSE
5
90
100
AcDbEntity
8
1
62
256
6
ByLayer
370
-1
48
1
60
0
100
AcDbEllipse
10
16.124893
20
5.794132
30
0
11
-0.421935727355997
21
0.00736491551653361
31
0
210
0
220
0
230
1
40
0.99482
41
2.89072069116557
42
-3.14159027145564
0
ELLIPSE
5
91
100
AcDbEntity
8
1
62
256
6
ByLayer
370
-1
48
1
60
0
100
AcDbEllipse
10
16.298019
20
6.372876
30
0
11
-0.184971823603932
21
0.00322869519089743
31
0
210
0
220
0
230
1
40
0.99482
41
-1.30068497549022
42
-0.26624307292735
0
ELLIPSE
5
92
100
AcDbEntity
8
1
62
256
6
ByLayer
370
-1
48
1
60
0
100
AcDbEllipse
10
16.146229
20
6.957575
30
0
11
-0.421935727355997
21
0.00736491551653361
31
0
210
0
220
0
230
1
40
0.99482
41
1.84090767809952
42
2.55108055567535
0
ELLIPSE
5
93
100
AcDbEntity
8
1
62
256
6
ByLayer
370
-1
48
1
60
0
100
AcDbEllipse
10
16.736385
20
7.098732
30
0
11
-0.184971823603932
21
0.00322869519089743
31
0
210
0
220
0
230
1
40
0.99482
41
-2.34612504447732
42
-0.305915918917617
0
ELLIPSE
5
94
100
AcDbEntity
8
1
62
256
6
ByLayer
370
-1
48
1
60
0
100
AcDbEllipse
10
17.168717
20
7.52252
30
0
11
-0.421935727355997
21
0.00736491551653361
31
0
210
0
220
0
230
1
40
0.99482
41
0.795467609112467
42
1.57036733696493
0
ELLIPSE
5
95
100
AcDbEntity
8
1
62
256
6
ByLayer
370
-1
48
1
60
0
100
AcDbEllipse
10
17.585617
20
7.083546
30
0
11
-0.184971823603932
21
0.00322869519089743
31
0
210
0
220
0
230
1
40
0.99482
41
-2.82565306198583
42
-0.796325588772368
0
ELLIPSE
5
96
100
AcDbEntity
8
1
62
256
6
ByLayer
370
-1
48
1
60
0
100
AcDbEllipse
10
18.17091
20
6.923401
30
0
11
-0.421935727355997
21
0.00736491551653361
31
0
210
0
220
0
230
1
40
0.99482
41
1.78789550757671E-06
42
0.52402776542825
0
ELLIPSE
5
97
100
AcDbEntity
8
1
62
256
6
ByLayer
370
-1
48
1
60
0
100
AcDbEllipse
10
17.997784
20
6.344657
30
0
11
-0.184971823603932
21
0.00322869519089743
31
0
210
0
220
0
230
1
40
0.99482
41
-2.85749102945694
42
-1.8426651603091
0
ELLIPSE
5
98
100
AcDbEntity
8
1
62
256
6
ByLayer
370
-1
48
1
60
0
100
AcDbEllipse
10
17.147902
20
6.358766
30
0
11
-0.74788607597698
21
0.013054400015088
31
0
210
0
220
0
230
1
40
0.99482
41
1.83896765145424
42
2.49896609464932
0
ELLIPSE
5
99
100
AcDbEntity
8
1
62
256
6
ByLayer
370
-1
48
1
60
0
100
AcDbEllipse
10
17.149382
20
6.443559
30
0
11
0.747886075976981
21
-0.0130544000150954
31
0
210
0
220
0
230
1
40
0.99482
41
2.58026252607445
42
2.65572522990853
0
ELLIPSE
5
9A
100
AcDbEntity
8
1
62
256
6
ByLayer
370
-1
48
1
60
0
100
AcDbEllipse
10
17.149676
20
6.460399
30
0
11
1.03484236448686
21
-0.0180632406625985
31
0
210
0
220
0
230
1
40
0.99482
41
-2.0943951023932
42
-1.04805553085649
0
ELLIPSE
5
9B
100
AcDbEntity
8
1
62
256
6
ByLayer
370
-1
48
1
60
0
100
AcDbEllipse
10
18.149574
20
5.759958
30
0
11
-0.421935727355997
21
0.00736491551653361
31
0
210
0
220
0
230
1
40
0.99482
41
-1.10411614284909E-05
42
0.253487424293659
0
ELLIPSE
5
9C
100
AcDbEntity
8
1
62
256
6
ByLayer
370
-1
48
1
60
0
100
AcDbEllipse
10
17.149676
20
6.460399
30
0
11
1.03484236448686
21
-0.0180632406625985
31
0
210
0
220
0
230
1
40
0.99482
41
-3.14073467392989
42
-2.0943951023932
0
ELLIPSE
5
9D
100
AcDbEntity
8
1
62
256
6
ByLayer
370
-1
48
1
60
0
100
AcDbEllipse
10
17.147902
20
6.358766
30
0
11
-0.74788607597698
21
0.013054400015088
31
0
210
0
220
0
230
1
40
0.99482
41
0.627059329224533
42
1.29364272750216
0
ELLIPSE
5
9E
100
AcDbEntity
8
1
62
256
6
ByLayer
370
-1
48
1
60
0
100
AcDbEllipse
10
17.149382
20
6.443559
30
0
11
0.747886075976981
21
-0.0130544000150954
31
0
210
0
220
0
230
1
40
0.99482
41
-0.561330127515417
42
-0.485867423681178
0
ELLIPSE
5
9F
100
AcDbEntity
8
1
62
256
6
ByLayer
370
-1
48
1
60
0
100
AcDbEllipse
10
17.147902
20
6.358766
30
0
11
0.74788607597698
21
-0.0130544000150954
31
0
210
0
220
0
230
1
40
0.99482
41
0.524027765428257
42
1.57036733696494
0
ELLIPSE
5
A0
100
AcDbEntity
8
1
62
256
6
ByLayer
370
-1
48
1
60
0
100
AcDbEllipse
10
17.147902
20
6.358766
30
0
11
-0.74788607597698
21
0.013054400015088
31
0
210
0
220
0
230
1
40
0.99482
41
-1.57122531662486
42
-0.561330127515337
0
ELLIPSE
5
A1
100
AcDbEntity
8
1
62
256
6
ByLayer
370
-1
48
1
60
0
100
AcDbEllipse
10
17.149676
20
6.460399
30
0
11
1.03484236448686
21
-0.0180632406625985
31
0
210
0
220
0
230
1
40
0.99482
41
-1.04805553085649
42
0.000857979659905475
0
ELLIPSE
5
A2
100
AcDbEntity
8
1
62
256
6
ByLayer
370
-1
48
1
60
0
100
AcDbEllipse
10
17.168717
20
7.52252
30
0
11
-0.421935727355997
21
0.00736491551653361
31
0
210
0
220
0
230
1
40
0.99482
41
1.57036733696493
42
2.34526706481739
0
ELLIPSE
5
A3
100
AcDbEntity
8
1
62
256
6
ByLayer
370
-1
48
1
60
0
100
AcDbEllipse
10
17.149676
20
6.460399
30
0
11
1.03484236448686
21
-0.0180632406625985
31
0
210
0
220
0
230
1
40
0.99482
41
2.0935371227333
42
-3.14073467392989
0
ELLIPSE
5
A4
100
AcDbEntity
8
1
62
256
6
ByLayer
370
-1
48
1
60
0
100
AcDbEllipse
10
17.147902
20
6.358766
30
0
11
0.74788607597698
21
-0.0130544000150954
31
0
210
0
220
0
230
1
40
0.99482
41
2.58026252607446
42
2.65572522990853
0
ELLIPSE
5
A5
100
AcDbEntity
8
1
62
256
6
ByLayer
370
-1
48
1
60
0
100
AcDbEllipse
10
17.149676
20
6.460399
30
0
11
1.03484236448686
21
-0.0180632406625985
31
0
210
0
220
0
230
1
40
0.99482
41
0.000857979659906337
42
1.0471975511966
0
ELLIPSE
5
A6
100
AcDbEntity
8
1
62
256
6
ByLayer
370
-1
48
1
60
0
100
AcDbEllipse
10
16.146229
20
6.957575
30
0
11
-0.421935727355997
21
0.00736491551653361
31
0
210
0
220
0
230
1
40
0.99482
41
2.68490720030763
42
3.14158134182513
0
ELLIPSE
5
A7
100
AcDbEntity
8
1
62
256
6
ByLayer
370
-1
48
1
60
0
100
AcDbEllipse
10
17.147902
20
6.358766
30
0
11
-0.74788607597698
21
0.013054400015088
31
0
210
0
220
0
230
1
40
0.99482
41
-0.485867423681269
42
0.278117769668908
0
ELLIPSE
5
A8
100
AcDbEntity
8
1
62
256
6
ByLayer
370
-1
48
1
60
0
100
AcDbEllipse
10
17.149676
20
6.460399
30
0
11
1.03484236448686
21
-0.0180632406625985
31
0
210
0
220
0
230
1
40
0.99482
41
1.0471975511966
42
2.0935371227333
0
ELLIPSE
5
A9
100
AcDbEntity
8
1
62
256
6
ByLayer
370
-1
48
1
60
0
100
AcDbEllipse
10
17.147902
20
6.358766
30
0
11
-0.74788607597698
21
0.013054400015088
31
0
210
0
220
0
230
1
40
0.99482
41
2.84336010723909
42
-2.61756488816154
0
ELLIPSE
5
AA
100
AcDbEntity
8
1
62
256
6
ByLayer
370
-1
48
1
60
0
100
AcDbEllipse
10
18.17091
20
6.923401
30
0
11
-0.421935727355997
21
0.00736491551653361
31
0
210
0
220
0
230
1
40
0.99482
41
0.524027765428249
42
1.29892749328072
0
ELLIPSE
5
AB
100
AcDbEntity
8
1
62
256
6
ByLayer
370
-1
48
1
60
0
100
AcDbEllipse
10
17.149676
20
6.460399
30
0
11
1.09983246467203
21
-0.0191976470810227
31
0
210
0
220
0
230
1
40
0.99482
41
0
42
6.28318530717959
0
ELLIPSE
5
AC
100
AcDbEntity
8
1
62
256
6
ByLayer
370
-1
48
1
60
0
100
AcDbEllipse
10
17.148079
20
6.36893
30
0
11
1.54976392749241
21
-0.0270512299778047
31
0
210
0
220
0
230
1
40
0.99482
41
3.14154841294047
42
0
0
ELLIPSE
5
AD
100
AcDbEntity
8
1
62
256
6
ByLayer
370
-1
48
1
60
0
100
AcDbEllipse
10
17.149348
20
6.44164
30
0
11
1.5497639274924
21
-0.0270512299778046
31
0
210
0
220
0
230
1
40
0.99482
41
0
42
6.28318530717959
0
ELLIPSE
5
AE
100
AcDbEntity
8
1
62
256
6
ByLayer
370
-1
48
1
60
0
100
AcDbEllipse
10
19.459674
20
2.294021
30
0
11
0.39693953497711
21
-0.00692860535560585
31
0
210
0
220
0
230
1
40
0.99482
41
-2.09439510239319
42
-8.9954976318901E-15
0
ELLIPSE
5
AF
100
AcDbEntity
8
1
62
256
6
ByLayer
370
-1
48
1
60
0
100
AcDbEllipse
10
17.148699
20
6.441083
30
0
11
1.6937958789114
21
-0.0295653170415625
31
0
210
0
220
0
230
1
40
0.99482
41
0
42
6.28318530717959
0
ELLIPSE
5
B0
100
AcDbEntity
8
1
62
256
6
ByLayer
370
-1
48
1
60
0
100
AcDbEllipse
10
12.383424
20
6.524261
30
0
11
0.396939534977136
21
-0.0069286053556063
31
0
210
0
220
0
230
1
40
0.99482
41
2.09439510239318
42
-2.09439510239321
0
ELLIPSE
5
B1
100
AcDbEntity
8
1
62
256
6
ByLayer
370
-1
48
1
60
0
100
AcDbEllipse
10
17.14747
20
6.370691
30
0
11
-1.60734660482144
21
0.0280563393493082
31
0
210
0
220
0
230
1
40
0.99482
41
0.0175441613151187
42
3.13320341602549
0
ELLIPSE
5
B2
100
AcDbEntity
8
1
62
256
6
ByLayer
370
-1
48
1
60
0
100
AcDbEllipse
10
17.14747
20
6.370691
30
0
11
-1.60734660482144
21
0.0280563393493082
31
0
210
0
220
0
230
1
40
0.99482
41
-0.961567764984409
42
0
0
ELLIPSE
5
B3
100
AcDbEntity
8
1
62
256
6
ByLayer
370
-1
48
1
60
0
100
AcDbEllipse
10
17.14747
20
6.370691
30
0
11
-1.60734660482144
21
0.0280563393493082
31
0
210
0
220
0
230
1
40
0.99482
41
0
42
0.0175443030525977
0
ELLIPSE
5
B4
100
AcDbEntity
8
1
62
256
6
ByLayer
370
-1
48
1
60
0
100
AcDbEllipse
10
17.147724
20
6.385227
30
0
11
1.65537097473
21
-0.0288946078442152
31
0
210
0
220
0
230
1
40
0.99482
41
-0.75363403310617
42
0
0
ELLIPSE
5
B5
100
AcDbEntity
8
1
62
256
6
ByLayer
370
-1
48
1
60
0
100
AcDbEllipse
10
17.147724
20
6.385227
30
0
11
1.65537097473
21
-0.0288946078442152
31
0
210
0
220
0
230
1
40
0.99482
41
0
42
0.0175441099122383
0
ELLIPSE
5
B6
100
AcDbEntity
8
1
62
256
6
ByLayer
370
-1
48
1
60
0
100
AcDbEllipse
10
17.147724
20
6.385227
30
0
11
1.65537097473
21
-0.0288946078442152
31
0
210
0
220
0
230
1
40
0.99482
41
0.0175439128402589
42
-2.38794963375532
0
ELLIPSE
5
B7
100
AcDbEntity
8
1
62
256
6
ByLayer
370
-1
48
1
60
0
100
AcDbEllipse
10
19.602997
20
10.504967
30
0
11
0.39693953497714
21
-0.00692860535560637
31
0
210
0
220
0
230
1
40
0.99482
41
0
42
2.09439510239319
0
POINT
5
41
100
AcDbEntity
8
80
62
256
6
ByLayer
370
-1
48
1
60
0
100
AcDbPoint
10
0
20
0
30
0
39
0
210
0
220
0
230
1
50
360
0
POINT
5
43
100
AcDbEntity
8
81
62
256
6
ByLayer
370
-1
48
1
60
0
100
AcDbPoint
10
20
20
10.9
30
0
39
0
210
0
220
0
230
1
50
360
0
POINT
5
45
100
AcDbEntity
8
1
62
256
6
ByLayer
370
-1
48
1
60
0
100
AcDbPoint
10
0
20
0
30
0
39
0
210
0
220
0
230
1
50
360
0
POINT
5
47
100
AcDbEntity
8
2
62
256
6
ByLayer
370
-1
48
1
60
0
100
AcDbPoint
10
20
20
10.9
30
0
39
0
210
0
220
0
230
1
50
360
0
SPLINE
5
B8
100
AcDbEntity
8
1
62
256
6
ByLayer
370
-1
48
1
60
0
100
AcDbSpline
70
4
71
2
72
6
73
3
40
0
40
0
40
0
40
1
40
1
40
1
41
0.500005351336478
10
6.42377926009909
20
-5.34064943380847
30
0
41
0.499994648663522
10
6.65439436020927
20
-5.34021072792995
30
0
41
0.500005351336478
10
6.88488418738668
20
-5.33977181220423
30
0
0
SPLINE
5
B9
100
AcDbEntity
8
1
62
256
6
ByLayer
370
-1
48
1
60
0
100
AcDbSpline
70
4
71
3
72
8
73
4
40
0
40
0
40
0
40
0
40
1
40
1
40
1
40
1
41
1
10
5.19592800715714
20
-7.67555610860745
30
0
41
1
10
5.14954579350956
20
-7.77283666266763
30
0
41
1
10
5.11591444159671
20
-7.84813088215171
30
0
41
1
10
5.09237089710052
20
-7.90174031463954
30
0
0
SPLINE
5
BA
100
AcDbEntity
8
1
62
256
6
ByLayer
370
-1
48
1
60
0
100
AcDbSpline
70
4
71
3
72
8
73
4
40
0
40
0
40
0
40
0
40
1
40
1
40
1
40
1
41
1
10
17.6817702244235
20
9.89723349976555
30
0
41
1
10
17.4304790463012
20
9.87648863344847
30
0
41
1
10
17.1791879258918
20
9.85574307675762
30
0
41
1
10
16.9278968642657
20
9.83499681695841
30
0
0
SPLINE
5
BB
100
AcDbEntity
8
1
62
256
6
ByLayer
370
-1
48
1
60
0
100
AcDbSpline
70
4
71
3
72
10
73
6
40
0
40
0
40
0
40
0
40
0.588857352735757
40
0.588857352735757
40
1
40
1
40
1
40
1
41
1
10
5.02380843121699
20
-7.46438832753364
30
0
41
1
10
5.02047751785216
20
-7.51285091017499
30
0
41
1
10
5.03920905670537
20
-7.55885094817864
30
0
41
1
10
5.10797818767833
20
-7.6271022584684
30
0
41
1
10
5.14720671653487
20
-7.6528476325789
30
0
41
1
10
5.19592800715708
20
-7.67555610860751
30
0
0
SPLINE
5
BC
100
AcDbEntity
8
1
62
256
6
ByLayer
370
-1
48
1
60
0
100
AcDbSpline
70
4
71
3
72
14
73
10
40
0
40
0
40
0
40
0
40
0.160835171654297
40
0.160835171654297
40
0.436661678811367
40
0.436661678811367
40
0.747579560348298
40
0.747579560348298
40
1
40
1
40
1
40
1
41
1
10
18.5277722411745
20
-1.83102520467071
30
0
41
1
10
18.4269886922949
20
-1.94822065805687
30
0
41
1
10
18.3136523010424
20
-2.06483181386787
30
0
41
1
10
17.9795675006793
20
-2.36398301791758
30
0
41
1
10
17.7358208051465
20
-2.53677720201304
30
0
41
1
10
17.1830270077297
20
-2.83428470803204
30
0
41
1
10
16.863165721278
20
-2.95420473356654
30
0
41
1
10
16.2701934409289
20
-3.08793635737848
30
0
41
1
10
15.9954647746848
20
-3.11854239618205
30
0
41
1
10
15.7224332779214
20
-3.11854239618205
30
0
0
SPLINE
5
BD
100
AcDbEntity
8
1
62
256
6
ByLayer
370
-1
48
1
60
0
100
AcDbSpline
70
4
71
3
72
8
73
4
40
0
40
0
40
0
40
0
40
1
40
1
40
1
40
1
41
1
10
16.8379277013532
20
10.0869438432988
30
0
41
1
10
14.7844663622406
20
9.91733030456678
30
0
41
1
10
12.7310092744093
20
9.7476659280652
30
0
41
1
10
10.6775571674
20
9.57794204845598
30
0
0
SPLINE
5
BE
100
AcDbEntity
8
1
62
256
6
ByLayer
370
-1
48
1
60
0
100
AcDbSpline
70
4
71
3
72
10
73
6
40
0
40
0
40
0
40
0
40
0.463195720728551
40
0.463195720728551
40
1
40
1
40
1
40
1
41
1
10
5.19592800715714
20
-7.67555610860745
30
0
41
1
10
5.32463209032727
20
-7.40561632919727
30
0
41
1
10
5.48074559414397
20
-7.11883148576894
30
0
41
1
10
5.86564299782964
20
-6.5112950249902
30
0
41
1
10
6.10808639857271
20
-6.18254737607214
30
0
41
1
10
6.37696691101092
20
-5.87293881620022
30
0
0
SPLINE
5
BF
100
AcDbEntity
8
1
62
256
6
ByLayer
370
-1
48
1
60
0
100
AcDbSpline
70
4
71
3
72
8
73
4
40
0
40
0
40
0
40
0
40
1
40
1
40
1
40
1
41
1
10
0.528766000000019
20
7.90174031463957
30
0
41
1
10
0.352431500249054
20
7.72321306091621
30
0
41
1
10
0.176170448695245
20
7.54461321633264
30
0
41
1
10
0
20
7.36592407527772
30
0
0
SPLINE
5
C0
100
AcDbEntity
8
1
62
256
6
ByLayer
370
-1
48
1
60
0
100
AcDbSpline
70
4
71
3
72
10
73
6
40
0
40
0
40
0
40
0
40
0.5
40
0.5
40
1
40
1
40
1
40
1
41
1
10
6.88488418738592
20
-5.33977181220425
30
0
41
1
10
7.49956990782988
20
-4.75130819957141
30
0
41
1
10
8.41078358692607
20
-4.11690558383975
30
0
41
1
10
10.3269018747159
20
-3.32722035454424
30
0
41
1
10
11.3681595285738
20
-3.11854239618205
30
0
41
1
10
12.4171360379214
20
-3.11854239618205
30
0
0
SPLINE
5
C1
100
AcDbEntity
8
1
62
256
6
ByLayer
370
-1
48
1
60
0
100
AcDbSpline
70
4
71
3
72
8
73
4
40
0
40
0
40
0
40
0
40
1
40
1
40
1
40
1
41
1
10
7.94391122524377
20
7.99952995859655
30
0
41
1
10
8.85487119876296
20
8.52610464516471
30
0
41
1
10
9.76612906135455
20
9.05216950677089
30
0
41
1
10
10.6775571674
20
9.57794204845598
30
0
0
SPLINE
5
C2
100
AcDbEntity
8
1
62
256
6
ByLayer
370
-1
48
1
60
0
100
AcDbSpline
70
4
71
3
72
16
73
12
40
0
40
0
40
0
40
0
40
0.212998338318327
40
0.212998338318327
40
0.425909218881174
40
0.425909218881174
40
0.640095737681568
40
0.640095737681568
40
0.856533093688594
40
0.856533093688594
40
1
40
1
40
1
40
1
41
1
10
7.59698473750694
20
7.9995232204927
30
0
41
1
10
7.46159936805799
20
7.99952058163211
30
0
41
1
10
7.3243974838465
20
7.99935233987404
30
0
41
1
10
7.06914953714306
20
7.99758677356974
30
0
41
1
10
6.94759289767387
20
7.99591343129805
30
0
41
1
10
6.73560290591098
20
7.98841067118397
30
0
41
1
10
6.64247360263278
20
7.98237562007043
30
0
41
1
10
6.496258120238
20
7.96334402972755
30
0
41
1
10
6.4416003336645
20
7.94995057880485
30
0
41
1
10
6.38813802885977
20
7.92104089023192
30
0
41
1
10
6.37633549155601
20
7.90757388646185
30
0
41
1
10
6.37438009486067
20
7.89256279632085
30
0
0
SPLINE
5
C3
100
AcDbEntity
8
1
62
256
6
ByLayer
370
-1
48
1
60
0
100
AcDbSpline
70
4
71
3
72
16
73
12
40
0
40
0
40
0
40
0
40
0.212675092646827
40
0.212675092646827
40
0.423373710634925
40
0.423373710634925
40
0.671999205899461
40
0.671999205899461
40
0.848261834864483
40
0.848261834864483
40
1
40
1
40
1
40
1
41
1
10
5.14939714414902
20
-6.03635620001117
30
0
41
1
10
5.15339476611769
20
-6.0023795810537
30
0
41
1
10
5.18399453455442
20
-5.95579564224929
30
0
41
1
10
5.28335106226712
20
-5.84927155502828
30
0
41
1
10
5.35270111875047
20
-5.78825066351851
30
0
41
1
10
5.53381970689622
20
-5.65227049058734
30
0
41
1
10
5.65326405170322
20
-5.57452332865307
30
0
41
1
10
5.88670914751884
20
-5.45825755924824
30
0
41
1
10
5.99472458415954
20
-5.41397285044232
30
0
41
1
10
6.20949078179825
20
-5.35704899307876
30
0
41
1
10
6.31723665058411
20
-5.34085211294394
30
0
41
1
10
6.42377926008459
20
-5.34064943380852
30
0
0
SPLINE
5
C4
100
AcDbEntity
8
1
62
256
6
ByLayer
370
-1
48
1
60
0
100
AcDbSpline
70
4
71
3
72
8
73
4
40
0
40
0
40
0
40
0
40
1
40
1
40
1
40
1
41
1
10
12.1311722666536
20
7.28890113516098
30
0
41
1
10
12.0966340139356
20
7.31706279157351
30
0
41
1
10
12.0615061125037
20
7.34311567339009
30
0
41
1
10
12.0259225152592
20
7.36680939058516
30
0
0
SPLINE
5
C5
100
AcDbEntity
8
1
62
256
6
ByLayer
370
-1
48
1
60
0
100
AcDbSpline
70
4
71
3
72
10
73
6
40
0
40
0
40
0
40
0
40
0.392441685902612
40
0.392441685902612
40
1
40
1
40
1
40
1
41
1
10
0
20
-7.36592407527772
30
0
41
1
10
0.0691366130924393
20
-7.43604912803448
30
0
41
1
10
0.138287231160689
20
-7.50616037554917
30
0
41
1
10
0.314526185618206
20
-7.68478195952639
30
0
41
1
10
0.421632489310866
20
-7.79327457780369
30
0
41
1
10
0.528766000000019
20
-7.90174031463954
30
0
0
SPLINE
5
C6
100
AcDbEntity
8
1
62
256
6
ByLayer
370
-1
48
1
60
0
100
AcDbSpline
70
4
71
3
72
24
73
20
40
0
40
0
40
0
40
0
40
0.108364250827809
40
0.108364250827809
40
0.258834204692927
40
0.258834204692927
40
0.437575677677717
40
0.437575677677717
40
0.495911272011185
40
0.495911272011185
40
0.538953839866798
40
0.538953839866798
40
0.605757327075958
40
0.605757327075958
40
0.767299708913462
40
0.767299708913462
40
0.901263835064104
40
0.901263835064104
40
1
40
1
40
1
40
1
41
1
10
5.76458601919205
20
0.958774632578269
30
0
41
1
10
5.77450554489383
20
1.05801365032966
30
0
41
1
10
5.821016200278
20
1.17763117152663
30
0
41
1
10
5.97602144915351
20
1.4839806259302
30
0
41
1
10
6.10372730350207
20
1.68414476856572
30
0
41
1
10
6.40620886755715
20
2.14001061614371
30
0
41
1
10
6.59863284872478
20
2.40104186914559
30
0
41
1
10
6.80506239873341
20
2.78420064697053
30
0
41
1
10
6.85201093501701
20
2.88446532737069
30
0
41
1
10
6.89328523944994
20
3.0692544435347
30
0
41
1
10
6.89612766741141
20
3.15248640628187
30
0
41
1
10
6.8682671223703
20
3.35725135410587
30
0
41
1
10
6.82421579204521
20
3.4781054517633
30
0
41
1
10
6.6648694835626
20
3.87508371680727
30
0
41
1
10
6.52991353642835
20
4.14612350735379
30
0
41
1
10
6.32884161230731
20
4.62394373289092
30
0
41
1
10
6.24952948537003
20
4.83703986771448
30
0
41
1
10
6.16697453057628
20
5.17755985128514
30
0
41
1
10
6.148841556371
20
5.3156656568213
30
0
41
1
10
6.15843434168369
20
5.43710747601895
30
0
0
SPLINE
5
C7
100
AcDbEntity
8
1
62
256
6
ByLayer
370
-1
48
1
60
0
100
AcDbSpline
70
4
71
3
72
8
73
4
40
0
40
0
40
0
40
0
40
1
40
1
40
1
40
1
41
1
10
18.6176637502281
20
-1.72209451864973
30
0
41
1
10
18.5178026606268
20
-1.84680886460947
30
0
41
1
10
18.404098671794
20
-1.97088186107823
30
0
41
1
10
18.278737426268
20
-2.09013023031298
30
0
0
SPLINE
5
C8
100
AcDbEntity
8
1
62
256
6
ByLayer
370
-1
48
1
60
0
100
AcDbSpline
70
4
71
3
72
16
73
12
40
0
40
0
40
0
40
0
40
0.151497997840397
40
0.151497997840397
40
0.30112198836114
40
0.30112198836114
40
0.527190018750598
40
0.527190018750598
40
0.758577815541368
40
0.758577815541368
40
1
40
1
40
1
40
1
41
1
10
6.73480869637086
20
-1.80402566203313
30
0
41
1
10
6.63237127808475
20
-1.80379371931858
30
0
41
1
10
6.52842266313723
20
-1.78572253622312
30
0
41
1
10
6.33933420712447
20
-1.72319778834193
30
0
41
1
10
6.25115805150449
20
-1.67891658415542
30
0
41
1
10
6.05357111335769
20
-1.55397436266469
30
0
41
1
10
5.95167725891912
20
-1.46453607700459
30
0
41
1
10
5.78372834872255
20
-1.28434238483717
30
0
41
1
10
5.71626252506917
20
-1.19082671780802
30
0
41
1
10
5.62365367784184
20
-1.01562353665506
30
0
41
1
10
5.59940144242125
20
-0.932026299282796
30
0
41
1
10
5.60431726826545
20
-0.863593954677327
30
0
0
SPLINE
5
C9
100
AcDbEntity
8
SK1
62
256
6
ByLayer
370
-1
48
1
60
0
100
AcDbSpline
70
4
71
3
72
8
73
4
40
0
40
0
40
0
40
0
40
1
40
1
40
1
40
1
41
1
10
-0.221233999999981
20
-7.14142842854284
30
0
41
1
10
-0.14750629404989
20
-7.21627702129805
30
0
41
1
10
-0.0737611142940295
20
-7.29110840525999
30
0
41
1
10
0
20
-7.36592407527772
30
0
0
SPLINE
5
CA
100
AcDbEntity
8
SK1
62
256
6
ByLayer
370
-1
48
1
60
0
100
AcDbSpline
70
4
71
3
72
10
73
6
40
0
40
0
40
0
40
0
40
0.294475061525142
40
0.294475061525142
40
1
40
1
40
1
40
1
41
1
10
0
20
7.36592407527772
30
0
41
1
10
-0.021720819930465
20
7.34389271482465
30
0
41
1
10
-0.0434402567421444
20
7.32185999065806
30
0
41
1
10
-0.117191849832636
20
7.24703493408265
30
0
41
1
10
-0.169217275674441
20
7.19423596629724
30
0
41
1
10
-0.221233999999981
20
7.14142842854284
30
0
0
SPLINE
5
CB
100
AcDbEntity
8
1
62
256
6
ByLayer
370
-1
48
1
60
0
100
AcDbSpline
70
4
71
3
72
18
73
14
40
0
40
0
40
0
40
0
40
0.210416801852949
40
0.210416801852949
40
0.386542428035042
40
0.386542428035042
40
0.564341203551303
40
0.564341203551303
40
0.719360530175641
40
0.719360530175641
40
0.925068260331038
40
0.925068260331038
40
1
40
1
40
1
40
1
41
1
10
16.8698033622079
20
7.322619989179
30
0
41
1
10
16.8997741986155
20
7.29008260858109
30
0
41
1
10
16.9354460731748
20
7.26126755791844
30
0
41
1
10
17.0089258379399
20
7.22006231135057
30
0
41
1
10
17.046319620464
20
7.20539388852043
30
0
41
1
10
17.1244213043898
20
7.18808133196583
30
0
41
1
10
17.1663338030364
20
7.18542739594926
30
0
41
1
10
17.2418055533007
20
7.19262066138771
30
0
41
1
10
17.2766514764443
20
7.20093202836608
30
0
41
1
10
17.3514576101361
20
7.22916853131701
30
0
41
1
10
17.3907115980867
20
7.25232927422539
30
0
41
1
10
17.4371318397238
20
7.28996098299822
30
0
41
1
10
17.4490068990343
20
7.3007409558781
30
0
41
1
10
17.4602088771593
20
7.31206237784366
30
0
0
SPLINE
5
CC
100
AcDbEntity
8
1
62
256
6
ByLayer
370
-1
48
1
60
0
100
AcDbSpline
70
4
71
3
72
16
73
12
40
0
40
0
40
0
40
0
40
0.0603488936035853
40
0.0603488936035853
40
0.284914535975452
40
0.284914535975452
40
0.512092461624768
40
0.512092461624768
40
0.75352961289989
40
0.75352961289989
40
1
40
1
40
1
40
1
41
1
10
18.18453292006
20
6.44321952572903
30
0
41
1
10
18.1846168303584
20
6.4482766880254
30
0
41
1
10
18.1844905779565
20
6.45333245271576
30
0
41
1
10
18.1829169610568
20
6.47691627420747
30
0
41
1
10
18.1787223288817
20
6.49532805672445
30
0
41
1
10
18.1652587230914
20
6.52915690178304
30
0
41
1
10
18.1557735137347
20
6.54497336364327
30
0
41
1
10
18.1324754198498
20
6.57299545160123
30
0
41
1
10
18.1181520375693
20
6.58527609991359
30
0
41
1
10
18.0869832647601
20
6.60448174721759
30
0
41
1
10
18.0697656634475
20
6.61153308550735
30
0
41
1
10
18.0522027268395
20
6.61577196109366
30
0
0
SPLINE
5
CD
100
AcDbEntity
8
1
62
256
6
ByLayer
370
-1
48
1
60
0
100
AcDbSpline
70
4
71
3
72
14
73
10
40
0
40
0
40
0
40
0
40
0.0488479205875311
40
0.0488479205875311
40
0.385880105516002
40
0.385880105516002
40
0.833137714953548
40
0.833137714953548
40
1
40
1
40
1
40
1
41
1
10
16.523173270819
20
6.85065729576172
30
0
41
1
10
16.5255405192809
20
6.85527758184998
30
0
41
1
10
16.5278211936944
20
6.8599468082638
30
0
41
1
10
16.5449998997856
20
6.89687666931101
30
0
41
1
10
16.5558351350165
20
6.93141202611756
30
0
41
1
10
16.5707302397107
20
7.01112386613724
30
0
41
1
10
16.5718220554154
20
7.05742040918653
30
0
41
1
10
16.5646849675745
20
7.11796743911776
30
0
41
1
10
16.5618413564183
20
7.13434330417155
30
0
41
1
10
16.5581713055532
20
7.15040357388932
30
0
0
SPLINE
5
CE
100
AcDbEntity
8
1
62
256
6
ByLayer
370
-1
48
1
60
0
100
AcDbSpline
70
4
71
3
72
18
73
14
40
0
40
0
40
0
40
0
40
0.205060042714213
40
0.205060042714213
40
0.382125549024261
40
0.382125549024261
40
0.560926725068632
40
0.560926725068632
40
0.71613699227646
40
0.71613699227646
40
0.920900120323604
40
0.920900120323604
40
1
40
1
40
1
40
1
41
1
10
17.7656549454943
20
7.12946421553417
30
0
41
1
10
17.7545746331662
20
7.08731829202659
30
0
41
1
10
17.749176149543
20
7.04236533406763
30
0
41
1
10
17.7520895280294
20
6.95790849277097
30
0
41
1
10
17.7587673554073
20
6.91754439615863
30
0
41
1
10
17.7835319043886
20
6.84037161585101
30
0
41
1
10
17.8022129265706
20
6.80250732890909
30
0
41
1
10
17.8454763332103
20
6.74096371718068
30
0
41
1
10
17.8694281234607
20
6.71529792021732
30
0
41
1
10
17.929087455068
20
6.66595728655983
30
0
41
1
10
17.9670381877368
20
6.64454789431113
30
0
41
1
10
18.0211551380154
20
6.62425623754828
30
0
41
1
10
18.036614625591
20
6.61953420332526
30
0
41
1
10
18.0522027268395
20
6.61577196109357
30
0
0
SPLINE
5
CF
100
AcDbEntity
8
1
62
256
6
ByLayer
370
-1
48
1
60
0
100
AcDbSpline
70
4
71
3
72
14
73
10
40
0
40
0
40
0
40
0
40
0.254143959466702
40
0.254143959466702
40
0.545160210320522
40
0.545160210320522
40
0.80850135481652
40
0.80850135481652
40
1
40
1
40
1
40
1
41
1
10
16.5334549881813
20
5.7775219149535
30
0
41
1
10
16.5284606022411
20
5.76037376668987
30
0
41
1
10
16.5261825983629
20
5.74191764588247
30
0
41
1
10
16.5280895725643
20
5.70203536703187
30
0
41
1
10
16.5333470369765
20
5.67992226953703
30
0
41
1
10
16.5514611696974
20
5.64065516818798
30
0
41
1
10
16.5638584239203
20
5.62264919557256
30
0
41
1
10
16.5901409066373
20
5.59612395769236
30
0
41
1
10
16.6029346501322
20
5.58609764853063
30
0
41
1
10
16.6166921373943
20
5.57787330992431
30
0
0
SPLINE
5
D0
100
AcDbEntity
8
1
62
256
6
ByLayer
370
-1
48
1
60
0
100
AcDbSpline
70
4
71
3
72
16
73
12
40
0
40
0
40
0
40
0
40
0.0648373357154416
40
0.0648373357154416
40
0.289376527169132
40
0.289376527169132
40
0.51678045436308
40
0.51678045436308
40
0.758651349974448
40
0.758651349974448
40
1
40
1
40
1
40
1
41
1
10
16.114818117628
20
6.47757944428454
30
0
41
1
10
16.1147280252333
20
6.47214969525609
30
0
41
1
10
16.1148798796039
20
6.46669777469376
30
0
41
1
10
16.1166209359139
20
6.44256318061915
30
0
41
1
10
16.1209178081247
20
6.42375097493849
30
0
41
1
10
16.1345580736728
20
6.38863326337318
30
0
41
1
10
16.1441250048636
20
6.37191052590492
30
0
41
1
10
16.1675669883356
20
6.34163212277895
30
0
41
1
10
16.1819554239953
20
6.32795415119006
30
0
41
1
10
16.2128823134865
20
6.30589644482171
30
0
41
1
10
16.2297277319723
20
6.29724732058128
30
0
41
1
10
16.2469072068436
20
6.29121416939836
30
0
0
SPLINE
5
D1
100
AcDbEntity
8
1
62
256
6
ByLayer
370
-1
48
1
60
0
100
AcDbSpline
70
4
71
3
72
18
73
14
40
0
40
0
40
0
40
0
40
0.213088600505559
40
0.213088600505559
40
0.388749177937898
40
0.388749177937898
40
0.566051566998576
40
0.566051566998576
40
0.720982623793617
40
0.720982623793617
40
0.927166916618598
40
0.927166916618598
40
1
40
1
40
1
40
1
41
1
10
17.4293065714693
20
5.58436614131509
30
0
41
1
10
17.3988752586612
20
5.6127831194959
30
0
41
1
10
17.3625911116242
20
5.63765200572905
30
0
41
1
10
17.2883618545453
20
5.67257133672175
30
0
41
1
10
17.2509442203959
20
5.68477633212709
30
0
41
1
10
17.1729120484968
20
5.69914995982219
30
0
41
1
10
17.1311025270821
20
5.70134397633097
30
0
41
1
10
17.0558220640989
20
5.69540553050953
30
0
41
1
10
17.0210624736448
20
5.68851504921929
30
0
41
1
10
16.9463669249926
20
5.66485295522631
30
0
41
1
10
16.9071734070873
20
5.64527651103418
30
0
41
1
10
16.8612569233489
20
5.61332312344615
30
0
41
1
10
16.8497610145977
20
5.6043603899623
30
0
41
1
10
16.838901056518
20
5.59492375265032
30
0
0
SPLINE
5
D2
100
AcDbEntity
8
1
62
256
6
ByLayer
370
-1
48
1
60
0
100
AcDbSpline
70
4
71
3
72
18
73
14
40
0
40
0
40
0
40
0
40
0.0754017182022903
40
0.0754017182022903
40
0.2789166661687
40
0.2789166661687
40
0.443479600212337
40
0.443479600212337
40
0.608903018582461
40
0.608903018582461
40
0.763252061891598
40
0.763252061891598
40
1
40
1
40
1
40
1
41
1
10
16.5334549881814
20
5.77752191495347
30
0
41
1
10
16.5375226213842
20
5.7914880717702
30
0
41
1
10
16.5408109237127
20
5.80582149910708
30
0
41
1
10
16.5498313342504
20
5.85971502562484
30
0
41
1
10
16.5503440685947
20
5.90184364083203
30
0
41
1
10
16.5381617767529
20
5.97877798418045
30
0
41
1
10
16.5277407508972
20
6.01429273360964
30
0
41
1
10
16.4974083954418
20
6.08218085502099
30
0
41
1
10
16.4770050142375
20
6.11541142031052
30
0
41
1
10
16.431285233801
20
6.17236643368938
30
0
41
1
10
16.4059043550196
20
6.19727980997871
30
0
41
1
10
16.3382501858748
20
6.25059752878579
30
0
41
1
10
16.2928401416576
20
6.27508327237595
30
0
41
1
10
16.2469072068434
20
6.29121416939844
30
0
0
SPLINE
5
D3
100
AcDbEntity
8
1
62
256
6
ByLayer
370
-1
48
1
60
0
100
AcDbSpline
70
4
71
3
72
14
73
10
40
0
40
0
40
0
40
0
40
0.051533690177652
40
0.051533690177652
40
0.38817979833855
40
0.38817979833855
40
0.835856917807027
40
0.835856917807027
40
1
40
1
40
1
40
1
41
1
10
17.7755898610601
20
6.03646057302382
30
0
41
1
10
17.7730924340864
20
6.03165100491103
30
0
41
1
10
17.7706917600969
20
6.02680619628288
30
0
41
1
10
17.753489650102
20
5.99037969667219
30
0
41
1
10
17.7427564406847
20
5.95735473807775
30
0
41
1
10
17.7280837394632
20
5.88235989144499
30
0
41
1
10
17.7271481505063
20
5.83973592288231
30
0
41
1
10
17.7344806023907
20
5.78510558306675
30
0
41
1
10
17.7373115783367
20
5.77063901148998
30
0
41
1
10
17.7409374525349
20
5.75651520714089
30
0
0
SPLINE
5
D4
100
AcDbEntity
8
1
62
256
6
ByLayer
370
-1
48
1
60
0
100
AcDbSpline
70
4
71
3
72
14
73
10
40
0
40
0
40
0
40
0
40
0.283534488710919
40
0.283534488710919
40
0.570871545724759
40
0.570871545724759
40
0.831232638692197
40
0.831232638692197
40
1
40
1
40
1
40
1
41
1
10
16.8698033622079
20
7.322619989179
30
0
41
1
10
16.8550197092861
20
7.33866963608236
30
0
41
1
10
16.8371351977658
20
7.35255529932991
30
0
41
1
10
16.7972985826557
20
7.37320373555607
30
0
41
1
10
16.7746615914212
20
7.38015146476158
30
0
41
1
10
16.7305989807888
20
7.3845425791898
30
0
41
1
10
16.708592705199
20
7.38284520962011
30
0
41
1
10
16.6742536399273
20
7.37357703560542
30
0
41
1
10
16.6609757040935
20
7.36823031814794
30
0
41
1
10
16.6485933504173
20
7.36141678507758
30
0
0
SPLINE
5
D5
100
AcDbEntity
8
1
62
256
6
ByLayer
370
-1
48
1
60
0
100
AcDbSpline
70
4
71
3
72
14
73
10
40
0
40
0
40
0
40
0
40
0.283537537280478
40
0.283537537280478
40
0.570313712427345
40
0.570313712427345
40
0.830138609676313
40
0.830138609676313
40
1
40
1
40
1
40
1
41
1
10
16.2534093480342
20
6.64577169597152
30
0
41
1
10
16.2329580096791
20
6.64162460534203
30
0
41
1
10
16.2127886527738
20
6.63367802299695
30
0
41
1
10
16.1764438613152
20
6.61057740300618
30
0
41
1
10
16.1597769738892
20
6.59495162342847
30
0
41
1
10
16.1349403261486
20
6.55976337922525
30
0
41
1
10
16.125775914608
20
6.54015672003936
30
0
41
1
10
16.1169755651149
20
6.50599700291636
30
0
41
1
10
16.1150538487498
20
6.49178664605873
30
0
41
1
10
16.114818117628
20
6.47757944428454
30
0
0
SPLINE
5
D6
100
AcDbEntity
8
1
62
256
6
ByLayer
370
-1
48
1
60
0
100
AcDbSpline
70
4
71
3
72
16
73
12
40
0
40
0
40
0
40
0
40
0.0598814291824442
40
0.0598814291824442
40
0.283812722294105
40
0.283812722294105
40
0.510332191599802
40
0.510332191599802
40
0.751056733178416
40
0.751056733178416
40
1
40
1
40
1
40
1
41
1
10
17.6507576872706
20
5.559382184936
30
0
41
1
10
17.6551845827442
20
5.5618181352809
30
0
41
1
10
17.6595151184683
20
5.56442767795269
30
0
41
1
10
17.6793480581264
20
5.57746820858742
30
0
41
1
10
17.693492971102
20
5.5901446261993
30
0
41
1
10
17.7168582890876
20
5.61825344623395
30
0
41
1
10
17.7263290955169
20
5.63406533279849
30
0
41
1
10
17.7401648103576
20
5.66750426617014
30
0
41
1
10
17.7443642937054
20
5.68559504691947
30
0
41
1
10
17.7469955601675
20
5.72143520761998
30
0
41
1
10
17.745290835753
20
5.73955754963004
30
0
41
1
10
17.7409374525349
20
5.75651520714089
30
0
0
SPLINE
5
D7
100
AcDbEntity
8
1
62
256
6
ByLayer
370
-1
48
1
60
0
100
AcDbSpline
70
4
71
3
72
14
73
10
40
0
40
0
40
0
40
0
40
0.219073861782587
40
0.219073861782587
40
0.52118299445902
40
0.52118299445902
40
0.787700152886014
40
0.787700152886014
40
1
40
1
40
1
40
1
41
1
10
17.7656549454976
20
7.12946421553434
30
0
41
1
10
17.7699851774699
20
7.14593501708214
30
0
41
1
10
17.772304596171
20
7.16327863578891
30
0
41
1
10
17.7723238701481
20
7.20470822145384
30
0
41
1
10
17.7678456278528
20
7.22959561635673
30
0
41
1
10
17.750715306616
20
7.27295843369416
30
0
41
1
10
17.7387865440432
20
7.2924882659691
30
0
41
1
10
17.7119910410748
20
7.32219390460179
30
0
41
1
10
17.6979152989337
20
7.33380525997995
30
0
41
1
10
17.6826589002936
20
7.34292566008926
30
0
0
SPLINE
5
D8
100
AcDbEntity
8
1
62
256
6
ByLayer
370
-1
48
1
60
0
100
AcDbSpline
70
4
71
3
72
12
73
8
40
0
40
0
40
0
40
0
40
0.463656094894755
40
0.463656094894755
40
0.845194995881217
40
0.845194995881217
40
1
40
1
40
1
40
1
41
1
10
18.0456994100539
20
6.26114708505867
30
0
41
1
10
18.003642539196
20
6.24808302880587
30
0
41
1
10
17.9618593337383
20
6.22823464537026
30
0
41
1
10
17.8914697291851
20
6.18023198592124
30
0
41
1
10
17.8610993226668
20
6.15355869267628
30
0
41
1
10
17.8240988347776
20
6.11099885581561
30
0
41
1
10
17.813983318031
20
6.09802019237472
30
0
41
1
10
17.8046504375503
20
6.084579745794
30
0
0
SPLINE
5
D9
100
AcDbEntity
8
1
62
256
6
ByLayer
370
-1
48
1
60
0
100
AcDbSpline
70
4
71
3
72
14
73
10
40
0
40
0
40
0
40
0
40
0.274868655929521
40
0.274868655929521
40
0.563290619225601
40
0.563290619225601
40
0.824518884336684
40
0.824518884336684
40
1
40
1
40
1
40
1
41
1
10
17.4293065714693
20
5.58436614131509
30
0
41
1
10
17.443677152566
20
5.57094678960837
30
0
41
1
10
17.4609488796916
20
5.55946227761095
30
0
41
1
10
17.5000625019304
20
5.54233626096021
30
0
41
1
10
17.5227207367518
20
5.53678188367996
30
0
41
1
10
17.5669034479874
20
5.5343494958156
30
0
41
1
10
17.5890033625923
20
5.53670286759353
30
0
41
1
10
17.6240358039383
20
5.54662864773695
30
0
41
1
10
17.6378847481124
20
5.55229870154008
30
0
41
1
10
17.6507576872706
20
5.559382184936
30
0
0
SPLINE
5
DA
100
AcDbEntity
8
1
62
256
6
ByLayer
370
-1
48
1
60
0
100
AcDbSpline
70
4
71
3
72
16
73
12
40
0
40
0
40
0
40
0
40
0.0661233031183307
40
0.0661233031183307
40
0.290027647785606
40
0.290027647785606
40
0.516871055980005
40
0.516871055980005
40
0.75820873563275
40
0.75820873563275
40
1
40
1
40
1
40
1
41
1
10
16.6485933504173
20
7.36141678507758
30
0
41
1
10
16.643709626574
20
7.35872945964792
30
0
41
1
10
16.6389422508482
20
7.35580603648296
30
0
41
1
10
16.6187966560006
20
7.34211417757246
30
0
41
1
10
16.604766931372
20
7.32889223463121
30
0
41
1
10
16.5816232875089
20
7.29922412298868
30
0
41
1
10
16.5722699288066
20
7.28236978984637
30
0
41
1
10
16.5586718595831
20
7.24641140575369
30
0
41
1
10
16.5546026107585
20
7.2267895921068
30
0
41
1
10
16.55227209623
20
7.188181395595
30
0
41
1
10
16.5539705616399
20
7.16878617476917
30
0
41
1
10
16.5581713055532
20
7.15040357388932
30
0
0
SPLINE
5
DB
100
AcDbEntity
8
1
62
256
6
ByLayer
370
-1
48
1
60
0
100
AcDbSpline
70
4
71
3
72
14
73
10
40
0
40
0
40
0
40
0
40
0.277338686358914
40
0.277338686358914
40
0.564890316325475
40
0.564890316325475
40
0.8253355733994
40
0.8253355733994
40
1
40
1
40
1
40
1
41
1
10
18.0456994100539
20
6.26114708505867
30
0
41
1
10
18.0657428403424
20
6.26737314266705
30
0
41
1
10
18.0855078661981
20
6.27712436177194
30
0
41
1
10
18.1217322642746
20
6.30337529598719
30
0
41
1
10
18.1385842821842
20
6.32055525040187
30
0
41
1
10
18.1637714094435
20
6.35804249986356
30
0
41
1
10
18.1731084640308
20
6.37848861329624
30
0
41
1
10
18.1822609606809
20
6.41382693918993
30
0
41
1
10
18.1842905495543
20
6.4286121771049
30
0
41
1
10
18.18453292006
20
6.44321952572903
30
0
0
SPLINE
5
DC
100
AcDbEntity
8
1
62
256
6
ByLayer
370
-1
48
1
60
0
100
AcDbSpline
70
4
71
3
72
16
73
12
40
0
40
0
40
0
40
0
40
0.0452463805454333
40
0.0452463805454333
40
0.270221293964893
40
0.270221293964893
40
0.49695162941263
40
0.49695162941263
40
0.737250293442998
40
0.737250293442998
40
1
40
1
40
1
40
1
41
1
10
16.6166921373943
20
5.57787330992431
30
0
41
1
10
16.6199631660382
20
5.57591786220004
30
0
41
1
10
16.6232968891426
20
5.57405638400687
30
0
41
1
10
16.6433663475022
20
5.56361380062145
30
0
41
1
10
16.6615928502321
20
5.55730769950898
30
0
41
1
10
16.6982564240062
20
5.55022262198653
30
0
41
1
10
16.7171595571609
20
5.54938309876005
30
0
41
1
10
16.7542483615145
20
5.55289892598202
30
0
41
1
10
16.7727908873241
20
5.55759314157413
30
0
41
1
10
16.8079712712515
20
5.5721431153942
30
0
41
1
10
16.8247203395752
20
5.58260157961519
30
0
41
1
10
16.838901056518
20
5.59492375265032
30
0
0
SPLINE
5
DD
100
AcDbEntity
8
1
62
256
6
ByLayer
370
-1
48
1
60
0
100
AcDbSpline
70
4
71
3
72
12
73
8
40
0
40
0
40
0
40
0
40
0.459445540030302
40
0.459445540030302
40
0.841687864047128
40
0.841687864047128
40
1
40
1
40
1
40
1
41
1
10
16.2534093480342
20
6.64577169597152
30
0
41
1
10
16.2950076085089
20
6.65420692662605
30
0
41
1
10
16.3363344671741
20
6.66955747753315
30
0
41
1
10
16.4064188389868
20
6.71088387834243
30
0
41
1
10
16.4368623481124
20
6.73520584456242
30
0
41
1
10
16.4742179537101
20
6.77612642889798
30
0
41
1
10
16.4845732576408
20
6.78899985047391
30
0
41
1
10
16.4941126943289
20
6.80253812299162
30
0
0
SPLINE
5
DE
100
AcDbEntity
8
1
62
256
6
ByLayer
370
-1
48
1
60
0
100
AcDbSpline
70
4
71
3
72
18
73
14
40
0
40
0
40
0
40
0
40
0.0259693266396759
40
0.0259693266396759
40
0.251454888954557
40
0.251454888954557
40
0.477587367302243
40
0.477587367302243
40
0.716387146980066
40
0.716387146980066
40
0.977419446359779
40
0.977419446359779
40
1
40
1
40
1
40
1
41
1
10
17.6826589002936
20
7.34292566008926
30
0
41
1
10
17.6807776709632
20
7.34405027439669
30
0
41
1
10
17.6788759256904
20
7.34513991106863
30
0
41
1
10
17.6604658509424
20
7.35524036708767
30
0
41
1
10
17.6423372995625
20
7.36166483873265
30
0
41
1
10
17.6057752533781
20
7.36842646863437
30
0
41
1
10
17.5868759005914
20
7.36884628871539
30
0
41
1
10
17.5497065102541
20
7.36401667385937
30
0
41
1
10
17.5310627329916
20
7.35840744462723
30
0
41
1
10
17.4955211930669
20
7.34156534345584
30
0
41
1
10
17.4784924865418
20
7.32966692161583
30
0
41
1
10
17.4626972761088
20
7.31454364055585
30
0
41
1
10
17.4614441886816
20
7.31331086117825
30
0
41
1
10
17.4602088771593
20
7.31206237784366
30
0
0
LINE
5
49
100
AcDbEntity
8
80
62
256
6
ByLayer
370
-1
48
1
60
0
100
AcDbLine
10
0
20
0
30
0
11
-10
21
0
31
0
39
0
210
0
220
0
230
1
0
LINE
5
4A
100
AcDbEntity
8
81
62
256
6
ByLayer
370
-1
48
1
60
0
100
AcDbLine
10
20
20
10.9
30
0
11
30
21
10.9
31
0
39
0
210
0
220
0
230
1
0
LINE
5
4B
100
AcDbEntity
8
SK4
62
256
6
ByLayer
370
-1
48
0.05
60
0
100
AcDbLine
10
-10
20
0
30
0
11
24.42187
21
0
31
0
39
0
210
0
220
0
230
1
0
LINE
5
4D
100
AcDbEntity
8
4
62
256
6
ByLayer
370
-1
48
0.05
60
0
100
AcDbLine
10
0
20
0
30
0
11
29.42187
21
0
31
0
39
0
210
0
220
0
230
1
0
LINE
5
4F
100
AcDbEntity
8
1
62
256
6
ByLayer
370
-1
48
1
60
0
100
AcDbLine
10
7.943911
20
8
30
0
11
6.217295
21
8
31
0
39
0
210
0
220
0
230
1
0
LINE
5
50
100
AcDbEntity
8
1
62
256
6
ByLayer
370
-1
48
1
60
0
100
AcDbLine
10
9.370727
20
8.823772
30
0
11
7.943911
21
8
31
0
39
0
210
0
220
0
230
1
0
LINE
5
51
100
AcDbEntity
8
1
62
256
6
ByLayer
370
-1
48
1
60
0
100
AcDbLine
10
16.546829
20
5.786767
30
0
11
16.5484
21
5.87677
31
0
39
0
210
0
220
0
230
1
0
LINE
5
52
100
AcDbEntity
8
1
62
256
6
ByLayer
370
-1
48
1
60
0
100
AcDbLine
10
17.729208
20
5.857241
30
0
11
17.727639
21
5.767323
31
0
39
0
210
0
220
0
230
1
0
LINE
5
53
100
AcDbEntity
8
1
62
256
6
ByLayer
370
-1
48
1
60
0
100
AcDbLine
10
18.697843
20
6.341878
30
0
11
18.699112
21
6.414589
31
0
39
0
210
0
220
0
230
1
0
LINE
5
54
100
AcDbEntity
8
1
62
256
6
ByLayer
370
-1
48
1
60
0
100
AcDbLine
10
15.599584
20
6.468692
30
0
11
15.598315
21
6.395981
31
0
39
0
210
0
220
0
230
1
0
LINE
5
55
100
AcDbEntity
8
1
62
256
6
ByLayer
370
-1
48
1
60
0
100
AcDbLine
10
17.750543
20
7.020618
30
0
11
17.748974
21
6.930766
31
0
39
0
210
0
220
0
230
1
0
LINE
5
56
100
AcDbEntity
8
1
62
256
6
ByLayer
370
-1
48
1
60
0
100
AcDbLine
10
16.568165
20
6.95021
30
0
11
16.569734
21
7.040127
31
0
39
0
210
0
220
0
230
1
0
LINE
5
57
100
AcDbEntity
8
SK1
62
256
6
ByLayer
370
-1
48
1
60
0
100
AcDbLine
10
-1.49
20
1.955
30
0
11
-1.99
21
1.821025
31
0
39
0
210
0
220
0
230
1
0
LINE
5
59
100
AcDbEntity
8
SK1
62
256
6
ByLayer
370
-1
48
1
60
0
100
AcDbLine
10
-1.99
20
-1.821025
30
0
11
-1.49
21
-1.955
31
0
39
0
210
0
220
0
230
1
0
LINE
5
5A
100
AcDbEntity
8
SK1
62
256
6
ByLayer
370
-1
48
1
60
0
100
AcDbLine
10
-1.49
20
-1.955
30
0
11
-0.221242
21
-1.955
31
0
39
0
210
0
220
0
230
1
0
LINE
5
5B
100
AcDbEntity
8
SK1
62
256
6
ByLayer
370
-1
48
1
60
0
100
AcDbLine
10
-0.221242
20
1.955
30
0
11
-1.49
21
1.955
31
0
39
0
210
0
220
0
230
1
0
LINE
5
5C
100
AcDbEntity
8
1
62
256
6
ByLayer
370
-1
48
1
60
0
100
AcDbLine
10
16.931593
20
10.046746
30
0
11
16.921668
21
9.478132
31
0
39
0
210
0
220
0
230
1
0
LINE
5
5D
100
AcDbEntity
8
SK1
62
256
6
ByLayer
370
-1
48
1
60
0
100
AcDbLine
10
-1.49
20
-1.955
30
0
11
-1.49
21
1.955
31
0
39
0
210
0
220
0
230
1
0
LINE
5
5E
100
AcDbEntity
8
SK1
62
256
6
ByLayer
370
-1
48
1
60
0
100
AcDbLine
10
-1.99
20
-1.821025
30
0
11
-1.99
21
1.821025
31
0
39
0
210
0
220
0
230
1
0
LINE
5
5F
100
AcDbEntity
8
1
62
256
6
ByLayer
370
-1
48
1
60
0
100
AcDbLine
10
0.528766
20
-7.90174
30
0
11
5.092371
21
-7.90174
31
0
39
0
210
0
220
0
230
1
0
LINE
5
60
100
AcDbEntity
8
1
62
256
6
ByLayer
370
-1
48
1
60
0
100
AcDbLine
10
13.550105
20
7.619126
30
0
11
13.551861
21
7.719761
31
0
39
0
210
0
220
0
230
1
0
LINE
5
61
100
AcDbEntity
8
1
62
256
6
ByLayer
370
-1
48
1
60
0
100
AcDbLine
10
7.943911
20
8
30
0
11
7.943911
21
7.99953
31
0
39
0
210
0
220
0
230
1
0
LINE
5
62
100
AcDbEntity
8
1
62
256
6
ByLayer
370
-1
48
1
60
0
100
AcDbLine
10
0.528766
20
-7.90174
30
0
11
0.528766
21
7.90174
31
0
39
0
210
0
220
0
230
1
0
LINE
5
63
100
AcDbEntity
8
1
62
256
6
ByLayer
370
-1
48
1
60
0
100
AcDbLine
10
12.131172
20
7.288901
30
0
11
12.128866
21
7.156778
31
0
39
0
210
0
220
0
230
1
0
LINE
5
64
100
AcDbEntity
8
1
62
256
6
ByLayer
370
-1
48
1
60
0
100
AcDbLine
10
5.149397
20
-6.036356
30
0
11
5.023808
21
-7.464388
31
0
39
0
210
0
220
0
230
1
0
LINE
5
65
100
AcDbEntity
8
1
62
256
6
ByLayer
370
-1
48
1
60
0
100
AcDbLine
10
5.764586
20
0.958775
30
0
11
5.604317
21
-0.863594
31
0
39
0
210
0
220
0
230
1
0
LINE
5
66
100
AcDbEntity
8
1
62
256
6
ByLayer
370
-1
48
1
60
0
100
AcDbLine
10
6.423779
20
-5.340649
30
0
11
6.376967
21
-5.872939
31
0
39
0
210
0
220
0
230
1
0
LINE
5
67
100
AcDbEntity
8
1
62
256
6
ByLayer
370
-1
48
1
60
0
100
AcDbLine
10
0
20
7.365924
30
0
11
0
21
-7.365924
31
0
39
0
210
0
220
0
230
1
0
LINE
5
68
100
AcDbEntity
8
1
62
256
6
ByLayer
370
-1
48
1
60
0
100
AcDbLine
10
12.417136
20
-3.118542
30
0
11
15.722433
21
-3.118542
31
0
39
0
210
0
220
0
230
1
0
LINE
5
69
100
AcDbEntity
8
1
62
256
6
ByLayer
370
-1
48
1
60
0
100
AcDbLine
10
16.826384
20
9.425599
30
0
11
16.837928
21
10.086944
31
0
39
0
210
0
220
0
230
1
0
LINE
5
6A
100
AcDbEntity
8
1
62
256
6
ByLayer
370
-1
48
1
60
0
100
AcDbLine
10
19.42187
20
1.867364
30
0
11
19.335727
21
1.91886
31
0
39
0
210
0
220
0
230
1
0
LINE
5
6B
100
AcDbEntity
8
1
62
256
6
ByLayer
370
-1
48
1
60
0
100
AcDbLine
10
13.601957
20
7.886612
30
0
11
13.809839
21
7.762338
31
0
39
0
210
0
220
0
230
1
0
LINE
5
6C
100
AcDbEntity
8
1
62
256
6
ByLayer
370
-1
48
1
60
0
100
AcDbLine
10
13.63859
20
7.667914
30
0
11
13.551861
21
7.719761
31
0
39
0
210
0
220
0
230
1
0
LINE
5
6D
100
AcDbEntity
8
1
62
256
6
ByLayer
370
-1
48
1
60
0
100
AcDbLine
10
13.601957
20
7.886612
30
0
11
13.551861
21
7.719761
31
0
39
0
210
0
220
0
230
1
0
LINE
5
6E
100
AcDbEntity
8
1
62
256
6
ByLayer
370
-1
48
1
60
0
100
AcDbLine
10
19.42187
20
1.867364
30
0
11
19.42187
21
1.889563
31
0
39
0
210
0
220
0
230
1
0
LINE
5
6F
100
AcDbEntity
8
1
62
256
6
ByLayer
370
-1
48
1
60
0
100
AcDbLine
10
6.37438
20
7.892563
30
0
11
6.158434
21
5.437107
31
0
39
0
210
0
220
0
230
1
0
LINE
5
70
100
AcDbEntity
8
1
62
256
6
ByLayer
370
-1
48
1
60
0
100
AcDbLine
10
6.217295
20
8
30
0
11
5.939609
21
7.90174
31
0
39
0
210
0
220
0
230
1
0
LINE
5
71
100
AcDbEntity
8
1
62
256
6
ByLayer
370
-1
48
1
60
0
100
AcDbLine
10
5.939609
20
7.90174
30
0
11
0.528766
21
7.90174
31
0
39
0
210
0
220
0
230
1
0
LINE
5
72
100
AcDbEntity
8
1
62
256
6
ByLayer
370
-1
48
1
60
0
100
AcDbLine
10
19.42187
20
0.516884
30
0
11
19.42187
21
1.867364
31
0
39
0
210
0
220
0
230
1
0
LINE
5
73
100
AcDbEntity
8
1
62
256
6
ByLayer
370
-1
48
1
60
0
100
AcDbLine
10
7.596985
20
7.999523
30
0
11
6.734809
21
-1.804026
31
0
39
0
210
0
220
0
230
1
0
LINE
5
74
100
AcDbEntity
8
1
62
256
6
ByLayer
370
-1
48
1
60
0
100
AcDbLine
10
19.397783
20
1.903962
30
0
11
19.42187
21
1.889563
31
0
39
0
210
0
220
0
230
1
0
LINE
5
75
100
AcDbEntity
8
SK1
62
256
6
ByLayer
370
-1
48
1
60
0
100
AcDbLine
10
0
20
7.365924
30
0
11
0
21
-7.365924
31
0
39
0
210
0
220
0
230
1
0
LINE
5
76
100
AcDbEntity
8
SK1
62
256
6
ByLayer
370
-1
48
1
60
0
100
AcDbLine
10
-0.221234
20
-7.141428
30
0
11
-0.221234
21
7.141428
31
0
39
0
210
0
220
0
230
1
0
LINE
5
77
100
AcDbEntity
8
1
62
256
6
ByLayer
370
-1
48
1
60
0
100
AcDbLine
10
17.739561
20
5.677649
30
0
11
17.740937
21
5.756515
31
0
39
0
210
0
220
0
230
1
0
LINE
5
78
100
AcDbEntity
8
1
62
256
6
ByLayer
370
-1
48
1
60
0
100
AcDbLine
10
18.050549
20
6.521045
30
0
11
18.052203
21
6.615772
31
0
39
0
210
0
220
0
230
1
0
LINE
5
79
100
AcDbEntity
8
1
62
256
6
ByLayer
370
-1
48
1
60
0
100
AcDbLine
10
17.458555
20
7.217336
30
0
11
17.460209
21
7.312062
31
0
39
0
210
0
220
0
230
1
0
LINE
5
7A
100
AcDbEntity
8
1
62
256
6
ByLayer
370
-1
48
1
60
0
100
AcDbLine
10
16.86815
20
7.227893
30
0
11
16.869803
21
7.32262
31
0
39
0
210
0
220
0
230
1
0
LINE
5
7B
100
AcDbEntity
8
1
62
256
6
ByLayer
370
-1
48
1
60
0
100
AcDbLine
10
16.251756
20
6.551079
30
0
11
16.253409
21
6.645772
31
0
39
0
210
0
220
0
230
1
0
LINE
5
7C
100
AcDbEntity
8
1
62
256
6
ByLayer
370
-1
48
1
60
0
100
AcDbLine
10
16.532149
20
5.702715
30
0
11
16.533455
21
5.777522
31
0
39
0
210
0
220
0
230
1
0
LINE
5
7D
100
AcDbEntity
8
1
62
256
6
ByLayer
370
-1
48
1
60
0
100
AcDbLine
10
16.494113
20
6.802538
30
0
11
16.492633
21
6.717746
31
0
39
0
210
0
220
0
230
1
0
LINE
5
7E
100
AcDbEntity
8
1
62
256
6
ByLayer
370
-1
48
1
60
0
100
AcDbLine
10
16.521693
20
6.765865
30
0
11
16.523173
21
6.850657
31
0
39
0
210
0
220
0
230
1
0
LINE
5
7F
100
AcDbEntity
8
1
62
256
6
ByLayer
370
-1
48
1
60
0
100
AcDbLine
10
19.410496
20
10.85041
30
0
11
12.190924
21
6.869705
31
0
39
0
210
0
220
0
230
1
0
LINE
5
80
100
AcDbEntity
8
1
62
256
6
ByLayer
370
-1
48
1
60
0
100
AcDbLine
10
19.856614
20
2.287092
30
0
11
19.999936
21
10.498038
31
0
39
0
210
0
220
0
230
1
0
LINE
5
81
100
AcDbEntity
8
1
62
256
6
ByLayer
370
-1
48
1
60
0
100
AcDbLine
10
12.178985
20
6.185746
30
0
11
19.255235
21
1.955506
31
0
39
0
210
0
220
0
230
1
0
LINE
5
82
100
AcDbEntity
8
2
62
256
6
ByLayer
370
-1
48
1
60
1
100
AcDbLine
10
20
20
0
30
0
11
20.001
21
0.001
31
0
39
0
210
0
220
0
230
1
0
MTEXT
5
DF
100
AcDbEntity
8
SK6
62
256
6
ByLayer
370
-1
48
1
60
0
100
AcDbMText
10
10.875
20
-20.325
30
0
210
0
220
0
230
1
1
\W00.729;\fsimplex.shx,bigfont.shx;570-STFCR-16-09 
40
3.5
41
0
44
1.084337
50
0
71
7
72
5
7
DEFAULT
0
DIMENSION
5
113
100
AcDbEntity
8
SK2
62
256
6
ByLayer
370
-3
48
1
60
0
100
AcDbDimension
2
DimnDraft3D1
10
-9.75
20
8
30
0
11
-9.75
21
-4.221711
31
0
70
32
71
5
72
1
41
1
210
0
220
0
230
1
3
Standard
100
AcDbAlignedDimension
13
-2
23
-8
33
0
14
-2
24
8
34
0
50
90
100
AcDbRotatedDimension
1001
ACAD
1000
DSTYLE
1002
{
1070
    74
1070
     0
1070
   279
1070
     0
1070
   172
1070
     1
1070
   173
1070
     1
1070
   340
1005
E0
1070
    77
1070
     1
1070
    73
1070
     0
1070
   171
1070
     4
1070
   274
1070
     4
1070
   177
1070
     2
1070
   176
1070
     2
1070
   178
1070
     7
1070
    78
1070
     8
1070
    41
1041
3.175
1070
   147
1041
2.25
1070
    42
1041
2.0
1070
    44
1041
2.0
1070
   140
1041
4.5
1070
   343
1005
114
1070
   344
1005
114
1002
}
0
DIMENSION
5
128
100
AcDbEntity
8
2
62
256
6
ByLayer
370
-3
48
1
60
0
100
AcDbDimension
2
DimnDraft3D2
10
32.25
20
0
30
0
11
32.25
21
21.155
31
0
70
32
71
5
72
1
41
1
210
0
220
0
230
1
3
Standard
100
AcDbAlignedDimension
13
22
23
10.9
33
0
14
22
24
0
34
0
50
90
100
AcDbRotatedDimension
1001
ACAD
1000
DSTYLE
1002
{
1070
    74
1070
     0
1070
   279
1070
     0
1070
   172
1070
     1
1070
   173
1070
     1
1070
   340
1005
E0
1070
    77
1070
     1
1070
    73
1070
     0
1070
   171
1070
     4
1070
   274
1070
     4
1070
   177
1070
     2
1070
   176
1070
     2
1070
   178
1070
     7
1070
    78
1070
     8
1070
    41
1041
3.175
1070
   147
1041
2.25
1070
    42
1041
2.0
1070
    44
1041
2.0
1070
   140
1041
4.5
1070
   343
1005
114
1070
   344
1005
114
1002
}
0
DIMENSION
5
136
100
AcDbEntity
8
2
62
256
6
ByLayer
370
-3
48
1
60
0
100
AcDbDimension
2
DimnDraft3D3
10
20
20
23.65
30
0
11
4.836842
21
23.65
31
0
70
32
71
5
72
1
41
1
210
0
220
0
230
1
3
Standard
100
AcDbAlignedDimension
13
0
23
10
33
0
14
20
24
12.9
34
0
50
0
100
AcDbRotatedDimension
1001
ACAD
1000
DSTYLE
1002
{
1070
   279
1070
     0
1070
   172
1070
     1
1070
   173
1070
     1
1070
   340
1005
E0
1070
    77
1070
     1
1070
    73
1070
     0
1070
   171
1070
     4
1070
   274
1070
     4
1070
   177
1070
     2
1070
   176
1070
     2
1070
   178
1070
     7
1070
    78
1070
     8
1070
    41
1041
3.175
1070
   147
1041
2.25
1070
    42
1041
2.0
1070
    44
1041
2.0
1070
   140
1041
4.5
1070
   343
1005
114
1070
   344
1005
114
1002
}
0
DIMENSION
5
144
100
AcDbEntity
8
2
62
256
6
ByLayer
370
-3
48
1
60
0
100
AcDbDimension
2
DimnDraft3D4
10
68.736147
20
0
30
0
11
46.980894
21
-35.936736
31
0
70
34
71
5
72
1
41
1
210
0
220
0
230
1
3
Standard
100
AcDb2LineAngularDimension
13
19.808024
23
-0.098325
33
0
14
18.955856
24
-48.918955
34
0
15
22
25
0
35
0
16
49.546801
26
-30.260654
36
0
40
0
0
ENDSEC
0
SECTION
2
OBJECTS
0
DICTIONARY
5
175
330
0
100
AcDbDictionary
280
0
281
1
3
ACAD_GROUP
350
176
3
ACAD_MLINESTYLE
350
177
0
DICTIONARY
5
176
330
0
100
AcDbDictionary
280
0
281
1
0
DICTIONARY
5
177
330
0
100
AcDbDictionary
280
0
281
1
3
Standard
350
18
0
MLINESTYLE
5
18
330
177
100
AcDbMlineStyle
2
Standard
70
0
3

62
256
51
90
52
90
71
2
49
-0.5
62
256
6
ByLayer
49
0.5
62
256
6
ByLayer
0
RASTERVARIABLES
5
163
330

100
AcDbRasterVariables
90
0
70
1
71
1
72
1
0
ENDSEC
0
EOF
