0
SECTION
2
HEADER
9
$ACADVER
1
AC1015
9
$DWGCODEPAGE
3
ANSI_1252
9
$HANDSEED
5
181
9
$ANGBASE
50
0
9
$ANGDIR
70
0
9
$ATTMODE
70
1
9
$AUNITS
70
0
9
$AUPREC
70
0
9
$CECOLOR
62
256
9
$CELTSCALE
40
1
9
$CELTYPE
6
ByLayer
9
$CELWEIGHT
370
-1
9
$CLAYER
8
0
9
$CMLJUST
70
0
9
$CMLSCALE
40
1
9
$CMLSTYLE
2
Standard
9
$DIMSTYLE
2
Standard
9
$TEXTSIZE
40
0.2
9
$TEXTSTYLE
7
Standard
9
$LUNITS
70
2
9
$LUPREC
70
4
9
$EXTNAMES
290
1
9
$INSUNITS
70
4
9
$LTSCALE
40
1
9
$LWDISPLAY
290
0
9
$PDMODE
70
0
9
$PDSIZE
40
0
9
$PLINEGEN
70
0
0
ENDSEC
0
SECTION
2
CLASSES
0
CLASS
1
RASTERVARIABLES
2
AcDbRasterVariables
3
ISM
90
0
280
0
281
0
0
ENDSEC
0
SECTION
2
TABLES
0
TABLE
2
VPORT
5
177
100
AcDbSymbolTable
0
VPORT
5
1
100
AcDbSymbolTableRecord
100
AcDbViewportTableRecord
2
*Active
70
0
10
0
20
0
11
1
21
1
12
-1
22
1
13
0
23
0
14
0.5
24
0.5
15
10
25
10
16
0
26
0
36
1
17
0
27
0
37
0
0
ENDTAB
0
TABLE
2
LTYPE
5
178
100
AcDbSymbolTable
0
LTYPE
5
14
100
AcDbSymbolTableRecord
100
AcDbLinetypeTableRecord
70
0
2
ByBlock
3

72
65
73
0
40
0
0
LTYPE
5
15
100
AcDbSymbolTableRecord
100
AcDbLinetypeTableRecord
70
0
2
ByLayer
3

72
65
73
0
40
0
0
LTYPE
5
16
100
AcDbSymbolTableRecord
100
AcDbLinetypeTableRecord
70
0
2
CONTINUOUS
3
Solid line
72
65
73
0
40
0
0
LTYPE
5
3B
100
AcDbSymbolTableRecord
100
AcDbLinetypeTableRecord
70
0
2
DASHED
3
__ __ __ __ __ __ __ __ __
72
65
73
2
40
25.72
49
12.86
74
0
49
-12.86
74
0
0
LTYPE
5
3C
100
AcDbSymbolTableRecord
100
AcDbLinetypeTableRecord
70
0
2
HIDDEN
3
_ _ _ _ _ _ _ _ _ _ _ _ _ _ _
72
65
73
2
40
0.5
49
0.25
74
0
49
-0.25
74
0
0
LTYPE
5
3D
100
AcDbSymbolTableRecord
100
AcDbLinetypeTableRecord
70
0
2
PHANTOM
3
____ _ _ ____ _ _ _____ _ _ ____
72
65
73
6
40
50.5
49
18
74
0
49
-6.5
74
0
49
6.5
74
0
49
-6.5
74
0
49
6.5
74
0
49
-6.5
74
0
0
LTYPE
5
3E
100
AcDbSymbolTableRecord
100
AcDbLinetypeTableRecord
70
0
2
CENTER
3
____ _ ____ _ ____ _ ____
72
65
73
4
40
47.5
49
22
74
0
49
-8.5
74
0
49
8.5
74
0
49
-8.5
74
0
0
LTYPE
5
3F
100
AcDbSymbolTableRecord
100
AcDbLinetypeTableRecord
70
0
2
DOT
3
.........................
72
65
73
2
40
10
49
0
74
0
49
-10
74
0
0
LTYPE
5
40
100
AcDbSymbolTableRecord
100
AcDbLinetypeTableRecord
70
0
2
DASHDOT
3
_._._._._._._._._._._._._._._._.
72
65
73
4
40
70
49
31
74
0
49
-13
74
0
49
13
74
0
49
-13
74
0
0
ENDTAB
0
TABLE
2
LAYER
5
179
100
AcDbSymbolTable
0
LAYER
5
10
100
AcDbSymbolTableRecord
100
AcDbLayerTableRecord
2
0
70
0
62
7
6
CONTINUOUS
290
1
370
-3
390
0
0
LAYER
5
42
100
AcDbSymbolTableRecord
100
AcDbLayerTableRecord
2
80
70
0
62
-6
6
CONTINUOUS
290
1
370
-3
390
0
0
LAYER
5
44
100
AcDbSymbolTableRecord
100
AcDbLayerTableRecord
2
81
70
0
62
-3
6
CONTINUOUS
290
1
370
-3
390
0
0
LAYER
5
46
100
AcDbSymbolTableRecord
100
AcDbLayerTableRecord
2
1
70
0
62
4
6
CONTINUOUS
290
1
370
-3
390
0
0
LAYER
5
48
100
AcDbSymbolTableRecord
100
AcDbLayerTableRecord
2
2
70
0
62
7
6
CONTINUOUS
290
1
370
-3
390
0
0
LAYER
5
4E
100
AcDbSymbolTableRecord
100
AcDbLayerTableRecord
2
4
70
0
62
-2
6
CENTER
290
1
370
-3
390
0
0
LAYER
5
163
100
AcDbSymbolTableRecord
100
AcDbLayerTableRecord
2
SK4
70
0
62
2
6
CENTER
290
1
370
-3
390
0
0
LAYER
5
164
100
AcDbSymbolTableRecord
100
AcDbLayerTableRecord
2
SK1
70
0
62
4
6
CONTINUOUS
290
1
370
-3
390
0
0
LAYER
5
165
100
AcDbSymbolTableRecord
100
AcDbLayerTableRecord
2
SK6
70
0
62
5
6
CONTINUOUS
290
1
370
-3
390
0
0
LAYER
5
166
100
AcDbSymbolTableRecord
100
AcDbLayerTableRecord
2
SK2
70
0
62
7
6
CONTINUOUS
290
1
370
-3
390
0
0
ENDTAB
0
TABLE
2
STYLE
5
17a
100
AcDbSymbolTable
0
STYLE
5
11
100
AcDbSymbolTableRecord
100
AcDbTextStyleTableRecord
2
Standard
3
txt
70
0
71
0
40
0
41
1
42
0
50
0
0
STYLE
5
DF
100
AcDbSymbolTableRecord
100
AcDbTextStyleTableRecord
2
DEFAULT
3
simplex.shx
70
0
71
0
40
0
41
1
42
0
50
0
0
STYLE
5
102
100
AcDbSymbolTableRecord
100
AcDbTextStyleTableRecord
2
DWGDirectTextStyle
3
SIMPLEX
70
0
71
0
40
0
41
1
42
0
50
0
0
ENDTAB
0
TABLE
2
DIMSTYLE
5
17b
100
AcDbSymbolTable
100
AcDbDimStyleTable
0
DIMSTYLE
105
27
100
AcDbSymbolTableRecord
100
AcDbDimStyleTableRecord
2
Standard
70
0
3
<>
41
0.18
42
0.0625
44
0.18
140
0.18
147
0.09
73
0
74
0
77
1
271
2
275
0
278
52
280
0
340
11
0
ENDTAB
0
TABLE
2
VIEW
5
17c
100
AcDbSymbolTable
0
ENDTAB
0
TABLE
2
UCS
5
17d
100
AcDbSymbolTable
0
ENDTAB
0
TABLE
2
APPID
5
17e
100
AcDbSymbolTable
0
APPID
5
12
100
AcDbSymbolTableRecord
100
AcDbRegAppTableRecord
2
ACAD
70
0
0
ENDTAB
0
TABLE
2
BLOCK_RECORD
5
17f
100
AcDbSymbolTable
0
BLOCK_RECORD
5
1F
100
AcDbSymbolTableRecord
100
AcDbBlockTableRecord
2
*Model_Space
340
0
70
0
0
BLOCK_RECORD
5
1B
100
AcDbSymbolTableRecord
100
AcDbBlockTableRecord
2
*Paper_Space
340
0
70
0
0
BLOCK_RECORD
5
23
100
AcDbSymbolTableRecord
100
AcDbBlockTableRecord
2
*Paper_Space0
340
0
70
0
0
BLOCK_RECORD
5
104
100
AcDbSymbolTableRecord
100
AcDbBlockTableRecord
2
DimnDraft3D1
340
0
70
0
0
BLOCK_RECORD
5
113
100
AcDbSymbolTableRecord
100
AcDbBlockTableRecord
2
_CLOSED
340
0
70
0
0
BLOCK_RECORD
5
11A
100
AcDbSymbolTableRecord
100
AcDbBlockTableRecord
2
DimnDraft3D2
340
0
70
0
0
BLOCK_RECORD
5
128
100
AcDbSymbolTableRecord
100
AcDbBlockTableRecord
2
DimnDraft3D3
340
0
70
0
0
BLOCK_RECORD
5
136
100
AcDbSymbolTableRecord
100
AcDbBlockTableRecord
2
DimnDraft3D4
340
0
70
0
0
ENDTAB
0
ENDSEC
0
SECTION
2
BLOCKS
0
BLOCK
5
20
100
AcDbEntity
8
0
100
AcDbBlockBegin
2
*Model_Space
70
0
10
0
20
0
30
0
3
*Model_Space
0
ENDBLK
5
21
100
AcDbEntity
8
0
100
AcDbBlockEnd
0
BLOCK
5
1C
100
AcDbEntity
8
0
100
AcDbBlockBegin
2
*Paper_Space
70
0
10
0
20
0
30
0
3
*Paper_Space
0
ENDBLK
5
1D
100
AcDbEntity
8
0
100
AcDbBlockEnd
0
BLOCK
5
24
100
AcDbEntity
8
0
100
AcDbBlockBegin
2
*Paper_Space0
70
0
10
0
20
0
30
0
3
*Paper_Space0
0
ENDBLK
5
25
100
AcDbEntity
8
0
100
AcDbBlockEnd
0
BLOCK
5
110
100
AcDbEntity
8
0
100
AcDbBlockBegin
2
DimnDraft3D1
70
0
10
0
20
0
30
0
3
DimnDraft3D1
0
MTEXT
5
105
100
AcDbEntity
8
SK2
62
256
6
ByLayer
370
-1
48
1
60
0
100
AcDbMText
10
-10.875
20
-3.659211
30
0
210
0
220
0
230
1
1
\W01.000;\fsimplex.shx,bigfont.shx;%%c25 
40
4.5
41
0
44
1.084337
50
90
71
7
72
5
7
DEFAULT
0
LINE
5
107
100
AcDbEntity
8
SK2
62
256
6
ByLayer
370
-1
48
1
60
0
100
AcDbLine
10
-2
20
12.5
30
0
11
-11.75
21
12.5
31
0
39
0
210
0
220
0
230
1
0
LINE
5
108
100
AcDbEntity
8
SK2
62
256
6
ByLayer
370
-1
48
1
60
0
100
AcDbLine
10
-2
20
-12.5
30
0
11
-11.75
21
-12.5
31
0
39
0
210
0
220
0
230
1
0
LINE
5
109
100
AcDbEntity
8
SK2
62
256
6
ByLayer
370
-1
48
1
60
0
100
AcDbLine
10
-9.75
20
12.5
30
0
11
-9.75
21
-12.5
31
0
39
0
210
0
220
0
230
1
0
LINE
5
10A
100
AcDbEntity
8
SK2
62
256
6
ByLayer
370
-1
48
1
60
0
100
AcDbLine
10
-9.75
20
12.5
30
0
11
-9.332003
21
9.325002
31
0
39
0
210
0
220
0
230
1
0
LINE
5
10B
100
AcDbEntity
8
SK2
62
256
6
ByLayer
370
-1
48
1
60
0
100
AcDbLine
10
-9.75
20
12.5
30
0
11
-10.167997
21
9.324998
31
0
39
0
210
0
220
0
230
1
0
LINE
5
10C
100
AcDbEntity
8
SK2
62
256
6
ByLayer
370
-1
48
1
60
0
100
AcDbLine
10
-9.332003
20
9.325002
30
0
11
-10.167997
21
9.324998
31
0
39
0
210
0
220
0
230
1
0
LINE
5
10D
100
AcDbEntity
8
SK2
62
256
6
ByLayer
370
-1
48
1
60
0
100
AcDbLine
10
-9.75
20
-12.5
30
0
11
-10.167997
21
-9.325002
31
0
39
0
210
0
220
0
230
1
0
LINE
5
10E
100
AcDbEntity
8
SK2
62
256
6
ByLayer
370
-1
48
1
60
0
100
AcDbLine
10
-9.75
20
-12.5
30
0
11
-9.332003
21
-9.324998
31
0
39
0
210
0
220
0
230
1
0
LINE
5
10F
100
AcDbEntity
8
SK2
62
256
6
ByLayer
370
-1
48
1
60
0
100
AcDbLine
10
-10.167997
20
-9.325002
30
0
11
-9.332003
21
-9.324998
31
0
39
0
210
0
220
0
230
1
0
ENDBLK
5
111
100
AcDbEntity
8
0
100
AcDbBlockEnd
0
BLOCK
5
114
100
AcDbEntity
8
0
100
AcDbBlockBegin
2
_CLOSED
70
0
10
0
20
0
30
0
3
_CLOSED
0
LINE
5
116
100
AcDbEntity
8
0
62
256
6
ByLayer
370
-2
48
1
60
0
100
AcDbLine
10
-1
20
0.166667
30
0
11
0
21
0
31
0
39
0
210
0
220
0
230
1
0
LINE
5
117
100
AcDbEntity
8
0
62
256
6
ByLayer
370
-2
48
1
60
0
100
AcDbLine
10
0
20
0
30
0
11
-1
21
-0.166667
31
0
39
0
210
0
220
0
230
1
0
LINE
5
118
100
AcDbEntity
8
0
62
256
6
ByLayer
370
-2
48
1
60
0
100
AcDbLine
10
-1
20
0.166667
30
0
11
-1
21
-0.166667
31
0
39
0
210
0
220
0
230
1
0
LINE
5
119
100
AcDbEntity
8
0
62
256
6
ByLayer
370
-2
48
1
60
0
100
AcDbLine
10
0
20
0
30
0
11
-1
21
0
31
0
39
0
210
0
220
0
230
1
0
ENDBLK
5
115
100
AcDbEntity
8
0
100
AcDbBlockEnd
0
BLOCK
5
125
100
AcDbEntity
8
0
100
AcDbBlockBegin
2
DimnDraft3D2
70
0
10
0
20
0
30
0
3
DimnDraft3D2
0
MTEXT
5
11B
100
AcDbEntity
8
2
62
256
6
ByLayer
370
-1
48
1
60
0
100
AcDbMText
10
31.125
20
-11.925658
30
0
210
0
220
0
230
1
1
\W01.000;\fsimplex.shx,bigfont.shx;17.0 
40
4.5
41
0
44
1.084337
50
90
71
7
72
5
7
DEFAULT
0
LINE
5
11C
100
AcDbEntity
8
2
62
256
6
ByLayer
370
-1
48
1
60
0
100
AcDbLine
10
22
20
0
30
0
11
34.25
21
0
31
0
39
0
210
0
220
0
230
1
0
LINE
5
11D
100
AcDbEntity
8
2
62
256
6
ByLayer
370
-1
48
1
60
0
100
AcDbLine
10
22
20
-16.9
30
0
11
34.25
21
-16.9
31
0
39
0
210
0
220
0
230
1
0
LINE
5
11E
100
AcDbEntity
8
2
62
256
6
ByLayer
370
-1
48
1
60
0
100
AcDbLine
10
32.25
20
11.25
30
0
11
32.25
21
-28.15
31
0
39
0
210
0
220
0
230
1
0
LINE
5
11F
100
AcDbEntity
8
2
62
256
6
ByLayer
370
-1
48
1
60
0
100
AcDbLine
10
32.25
20
0
30
0
11
31.832003
21
3.174998
31
0
39
0
210
0
220
0
230
1
0
LINE
5
120
100
AcDbEntity
8
2
62
256
6
ByLayer
370
-1
48
1
60
0
100
AcDbLine
10
32.25
20
0
30
0
11
32.667997
21
3.175002
31
0
39
0
210
0
220
0
230
1
0
LINE
5
121
100
AcDbEntity
8
2
62
256
6
ByLayer
370
-1
48
1
60
0
100
AcDbLine
10
31.832003
20
3.174998
30
0
11
32.667997
21
3.175002
31
0
39
0
210
0
220
0
230
1
0
LINE
5
122
100
AcDbEntity
8
2
62
256
6
ByLayer
370
-1
48
1
60
0
100
AcDbLine
10
32.25
20
-16.9
30
0
11
32.667997
21
-20.074998
31
0
39
0
210
0
220
0
230
1
0
LINE
5
123
100
AcDbEntity
8
2
62
256
6
ByLayer
370
-1
48
1
60
0
100
AcDbLine
10
32.25
20
-16.9
30
0
11
31.832003
21
-20.075002
31
0
39
0
210
0
220
0
230
1
0
LINE
5
124
100
AcDbEntity
8
2
62
256
6
ByLayer
370
-1
48
1
60
0
100
AcDbLine
10
32.667997
20
-20.074998
30
0
11
31.832003
21
-20.075002
31
0
39
0
210
0
220
0
230
1
0
ENDBLK
5
126
100
AcDbEntity
8
0
100
AcDbBlockEnd
0
BLOCK
5
133
100
AcDbEntity
8
0
100
AcDbBlockBegin
2
DimnDraft3D3
70
0
10
0
20
0
30
0
3
DimnDraft3D3
0
MTEXT
5
129
100
AcDbEntity
8
2
62
256
6
ByLayer
370
-1
48
1
60
0
100
AcDbMText
10
5.961842
20
-33.025
30
0
210
0
220
0
230
1
1
\W01.000;\fsimplex.shx,bigfont.shx;20.0 
40
4.5
41
0
44
1.084337
50
0
71
7
72
5
7
DEFAULT
0
LINE
5
12A
100
AcDbEntity
8
2
62
256
6
ByLayer
370
-1
48
1
60
0
100
AcDbLine
10
0
20
-14.5
30
0
11
0
21
-36.15
31
0
39
0
210
0
220
0
230
1
0
LINE
5
12B
100
AcDbEntity
8
2
62
256
6
ByLayer
370
-1
48
1
60
0
100
AcDbLine
10
20
20
-18.9
30
0
11
20
21
-36.15
31
0
39
0
210
0
220
0
230
1
0
LINE
5
12C
100
AcDbEntity
8
2
62
256
6
ByLayer
370
-1
48
1
60
0
100
AcDbLine
10
-11.25
20
-34.15
30
0
11
31.25
21
-34.15
31
0
39
0
210
0
220
0
230
1
0
LINE
5
12D
100
AcDbEntity
8
2
62
256
6
ByLayer
370
-1
48
1
60
0
100
AcDbLine
10
0
20
-34.15
30
0
11
-3.174998
21
-34.567997
31
0
39
0
210
0
220
0
230
1
0
LINE
5
12E
100
AcDbEntity
8
2
62
256
6
ByLayer
370
-1
48
1
60
0
100
AcDbLine
10
0
20
-34.15
30
0
11
-3.175002
21
-33.732003
31
0
39
0
210
0
220
0
230
1
0
LINE
5
12F
100
AcDbEntity
8
2
62
256
6
ByLayer
370
-1
48
1
60
0
100
AcDbLine
10
-3.174998
20
-34.567997
30
0
11
-3.175002
21
-33.732003
31
0
39
0
210
0
220
0
230
1
0
LINE
5
130
100
AcDbEntity
8
2
62
256
6
ByLayer
370
-1
48
1
60
0
100
AcDbLine
10
20
20
-34.15
30
0
11
23.174998
21
-33.732003
31
0
39
0
210
0
220
0
230
1
0
LINE
5
131
100
AcDbEntity
8
2
62
256
6
ByLayer
370
-1
48
1
60
0
100
AcDbLine
10
20
20
-34.15
30
0
11
23.175002
21
-34.567997
31
0
39
0
210
0
220
0
230
1
0
LINE
5
132
100
AcDbEntity
8
2
62
256
6
ByLayer
370
-1
48
1
60
0
100
AcDbLine
10
23.174998
20
-33.732003
30
0
11
23.175002
21
-34.567997
31
0
39
0
210
0
220
0
230
1
0
ENDBLK
5
134
100
AcDbEntity
8
0
100
AcDbBlockEnd
0
BLOCK
5
141
100
AcDbEntity
8
0
100
AcDbBlockBegin
2
DimnDraft3D4
70
0
10
0
20
0
30
0
3
DimnDraft3D4
0
MTEXT
5
137
100
AcDbEntity
8
2
62
256
6
ByLayer
370
-1
48
1
60
0
100
AcDbMText
10
43.735956
20
31.136179
30
0
210
0
220
0
230
1
1
\W01.000;\fsimplex.shx,bigfont.shx;91%%d0' 
40
4.5
41
0
44
1.084337
50
315.5
71
7
72
5
7
DEFAULT
0
LINE
5
138
100
AcDbEntity
8
2
62
256
6
ByLayer
370
-1
48
1
60
0
100
AcDbLine
10
19.773119
20
-3.90198
30
0
11
19.008198
21
39.920326
31
0
39
0
210
0
220
0
230
1
0
LINE
5
139
100
AcDbEntity
8
2
62
256
6
ByLayer
370
-1
48
1
60
0
100
AcDbLine
10
22
20
0
30
0
11
59.631416
21
0
31
0
39
0
210
0
220
0
230
1
0
ARC
5
13A
100
AcDbEntity
8
2
62
256
6
ByLayer
370
-1
48
1
60
0
100
AcDbCircle
39
0
10
19.705009
20
0
30
0
40
37.9264068640929
210
0
220
0
230
1
100
AcDbArc
50
0
51
91
0
LINE
5
13B
100
AcDbEntity
8
2
62
256
6
ByLayer
370
-1
48
1
60
0
100
AcDbLine
10
19.043102
20
37.92063
30
0
11
22.219529
21
38.327629
31
0
39
0
210
0
220
0
230
1
0
LINE
5
13C
100
AcDbEntity
8
2
62
256
6
ByLayer
370
-1
48
1
60
0
100
AcDbLine
10
19.043102
20
37.92063
30
0
11
22.216637
21
37.491641
31
0
39
0
210
0
220
0
230
1
0
LINE
5
13D
100
AcDbEntity
8
2
62
256
6
ByLayer
370
-1
48
1
60
0
100
AcDbLine
10
22.219529
20
38.327629
30
0
11
22.216637
21
37.491641
31
0
39
0
210
0
220
0
230
1
0
LINE
5
13E
100
AcDbEntity
8
2
62
256
6
ByLayer
370
-1
48
1
60
0
100
AcDbLine
10
57.631416
20
0
30
0
11
57.147106
21
3.165562
31
0
39
0
210
0
220
0
230
1
0
LINE
5
13F
100
AcDbEntity
8
2
62
256
6
ByLayer
370
-1
48
1
60
0
100
AcDbLine
10
57.631416
20
0
30
0
11
57.982916
21
3.183049
31
0
39
0
210
0
220
0
230
1
0
LINE
5
140
100
AcDbEntity
8
2
62
256
6
ByLayer
370
-1
48
1
60
0
100
AcDbLine
10
57.147106
20
3.165562
30
0
11
57.982916
21
3.183049
31
0
39
0
210
0
220
0
230
1
0
ENDBLK
5
142
100
AcDbEntity
8
0
100
AcDbBlockEnd
0
ENDSEC
0
SECTION
2
ENTITIES
0
ARC
5
8A
100
AcDbEntity
8
1
62
256
6
ByLayer
370
-1
48
1
60
0
100
AcDbCircle
39
0
10
-14.277699
20
-5.050749
30
0
40
5.05074877000013
210
0
220
0
230
-1
100
AcDbArc
50
90
51
179
0
ARC
5
8B
100
AcDbEntity
8
1
62
256
6
ByLayer
370
-1
48
1
60
0
100
AcDbCircle
39
0
10
-13.463266
20
8
30
0
40
8.00000000000002
210
0
220
0
230
-1
100
AcDbArc
50
270
51
324.086327
0
ELLIPSE
5
8C
100
AcDbEntity
8
1
62
256
6
ByLayer
370
-1
48
1
60
0
100
AcDbEllipse
10
12.317265
20
-12.537985
30
0
11
-1.24980961894549
21
-0.0218155080466018
31
0
210
0
220
0
230
1
40
0.999544
41
0.5235987755983
42
2.0943951023932
0
ELLIPSE
5
8D
100
AcDbEntity
8
1
62
256
6
ByLayer
370
-1
48
1
60
0
100
AcDbEllipse
10
6.533965
20
-5.656854
30
0
11
0.320054012628736
21
-3.74999994341676
31
0
210
0
220
0
230
-1
40
0.002035
41
0
42
6.28318530717959
0
ELLIPSE
5
8E
100
AcDbEntity
8
1
62
256
6
ByLayer
370
-1
48
1
60
0
100
AcDbEllipse
10
11.141994
20
-11.833787
30
0
11
1.0498400799143
21
0.0183250267591476
31
0
210
0
220
0
230
1
40
0.999544
41
0.882684320061437
42
1.46170151763518
0
ELLIPSE
5
8F
100
AcDbEntity
8
1
62
256
6
ByLayer
370
-1
48
1
60
0
100
AcDbEllipse
10
6.062766
20
0
30
0
11
1.06684670876284
21
-12.499999811394
31
0
210
0
220
0
230
-1
40
0.002035
41
0.0892273169005951
42
2.99224416729619
0
ELLIPSE
5
90
100
AcDbEntity
8
1
62
256
6
ByLayer
370
-1
48
1
60
0
100
AcDbEllipse
10
12.31902
20
-12.627229
30
0
11
-1.24980961894549
21
-0.0218155080466018
31
0
210
0
220
0
230
1
40
0.999544
41
0.523587085112468
42
2.09439088194772
0
ELLIPSE
5
91
100
AcDbEntity
8
1
62
256
6
ByLayer
370
-1
48
1
60
0
100
AcDbEllipse
10
12.214259
20
-12.366631
30
0
11
-1.24980961894549
21
-0.0218155080466018
31
0
210
0
220
0
230
1
40
0.999544
41
0.327596007838547
42
0.523598775598298
0
ELLIPSE
5
92
100
AcDbEntity
8
1
62
256
6
ByLayer
370
-1
48
1
60
0
100
AcDbEllipse
10
11.14044
20
-11.744742
30
0
11
-1.0498400799143
21
-0.018325026759147
31
0
210
0
220
0
230
1
40
0.999544
41
1.45556903857821
42
2.16669158714181
0
ELLIPSE
5
93
100
AcDbEntity
8
1
62
256
6
ByLayer
370
-1
48
1
60
0
100
AcDbEllipse
10
12.216011
20
-12.455873
30
0
11
-1.24980961894549
21
-0.0218155080466018
31
0
210
0
220
0
230
1
40
0.999544
41
0.327581917145625
42
0.523587085112473
0
ELLIPSE
5
94
100
AcDbEntity
8
1
62
256
6
ByLayer
370
-1
48
1
60
0
100
AcDbEllipse
10
11.140281
20
-11.735686
30
0
11
1.04984007991436
21
0.0183250267591486
31
0
210
0
220
0
230
1
40
0.999544
41
-3.09474983358796
42
-0.983207302697323
0
ELLIPSE
5
95
100
AcDbEntity
8
1
62
256
6
ByLayer
370
-1
48
1
60
0
100
AcDbEllipse
10
5.56837
20
5.656854
30
0
11
0.320054012628578
21
-3.74999994341499
31
0
210
0
220
0
230
-1
40
0.002035
41
0
42
6.28318530717959
0
ELLIPSE
5
96
100
AcDbEntity
8
1
62
256
6
ByLayer
370
-1
48
1
60
0
100
AcDbEllipse
10
11.142182
20
-11.833967
30
0
11
-1.0498400799143
21
-0.018325026759147
31
0
210
0
220
0
230
1
40
0.999544
41
-1.6798912692265
42
1.45556888693333
0
ELLIPSE
5
97
100
AcDbEntity
8
1
62
256
6
ByLayer
370
-1
48
1
60
0
100
AcDbEllipse
10
11.186079
20
-11.839833
30
0
11
0.396814554015188
21
0.0069264238047962
31
0
210
0
220
0
230
1
40
0.999544
41
2.09439510239317
42
-2.09439510239322
0
ELLIPSE
5
98
100
AcDbEntity
8
1
62
256
6
ByLayer
370
-1
48
1
60
0
100
AcDbEllipse
10
19.603388
20
-16.503618
30
0
11
0.396814554015188
21
0.0069264238047962
31
0
210
0
220
0
230
1
40
0.999544
41
-2.09439884222458
42
-1.59060413614905E-05
0
ELLIPSE
5
99
100
AcDbEntity
8
1
62
256
6
ByLayer
370
-1
48
1
60
0
100
AcDbEllipse
10
19.435245
20
-6.88545
30
0
11
0.396814554015188
21
0.0069264238047962
31
0
210
0
220
0
230
1
40
0.999544
41
0
42
2.09439510239314
0
ELLIPSE
5
9A
100
AcDbEntity
8
1
62
256
6
ByLayer
370
-1
48
1
60
0
100
AcDbEllipse
10
16.741255
20
-11.719361
30
0
11
-1.80114027624332
21
-0.0314390204666511
31
0
210
0
220
0
230
1
40
0.999544
41
0
42
6.28318530717959
0
ELLIPSE
5
9B
100
AcDbEntity
8
1
62
256
6
ByLayer
370
-1
48
1
60
0
100
AcDbEllipse
10
16.741386
20
-11.726905
30
0
11
1.88093516011929
21
0.0328318453456467
31
0
210
0
220
0
230
1
40
0.999544
41
0
42
6.28318530717959
0
ELLIPSE
5
9C
100
AcDbEntity
8
1
62
256
6
ByLayer
370
-1
48
1
60
0
100
AcDbEllipse
10
16.74167
20
-11.743129
30
0
11
1.90439934775033
21
0.0332414142642342
31
0
210
0
220
0
230
1
40
0.999544
41
0
42
6.28318530717959
0
ELLIPSE
5
9D
100
AcDbEntity
8
1
62
256
6
ByLayer
370
-1
48
1
60
0
100
AcDbEllipse
10
17.742596
20
-11.111974
30
0
11
-0.421935727355997
21
-0.00736491551653276
31
0
210
0
220
0
230
1
40
0.999544
41
-0.253487424293662
42
1.19334473570742E-05
0
ELLIPSE
5
9E
100
AcDbEntity
8
1
62
256
6
ByLayer
370
-1
48
1
60
0
100
AcDbEllipse
10
16.741685
20
-11.743993
30
0
11
1.03484236448686
21
0.0180632406625868
31
0
210
0
220
0
230
1
40
0.999544
41
-1.04720177164202
42
-0.000873886165519193
0
ELLIPSE
5
9F
100
AcDbEntity
8
1
62
256
6
ByLayer
370
-1
48
1
60
0
100
AcDbEllipse
10
15.891088
20
-11.727648
30
0
11
-0.184971823603932
21
-0.00322869519089706
31
0
210
0
220
0
230
1
40
0.999544
41
2.72699412634761E-05
42
1.3006849754902
0
ELLIPSE
5
A0
100
AcDbEntity
8
1
62
256
6
ByLayer
370
-1
48
1
60
0
100
AcDbEllipse
10
16.74121
20
-11.716827
30
0
11
1.72473727414478
21
0.0301054011043115
31
0
210
0
220
0
230
1
40
0.999544
41
3.12397729000609
42
3.14145076086052
0
ELLIPSE
5
A1
100
AcDbEntity
8
1
62
256
6
ByLayer
370
-1
48
1
60
0
100
AcDbEllipse
10
16.74121
20
-11.716827
30
0
11
1.72473727414478
21
0.0301054011043115
31
0
210
0
220
0
230
1
40
0.999544
41
0
42
3.12390497113295
0
ELLIPSE
5
A2
100
AcDbEntity
8
1
62
256
6
ByLayer
370
-1
48
1
60
0
100
AcDbEllipse
10
16.741158
20
-11.713808
30
0
11
-0.747886075976978
21
-0.0130544000150865
31
0
210
0
220
0
230
1
40
0.999544
41
-1.44296016908406
42
-0.524217798879148
0
ELLIPSE
5
A3
100
AcDbEntity
8
1
62
256
6
ByLayer
370
-1
48
1
60
0
100
AcDbEllipse
10
16.761883
20
-12.882822
30
0
11
-0.421935727355997
21
-0.00736491551653276
31
0
210
0
220
0
230
1
40
0.999544
41
-1.57036733696494
42
-0.795467609112457
0
ELLIPSE
5
A4
100
AcDbEntity
8
1
62
256
6
ByLayer
370
-1
48
1
60
0
100
AcDbEllipse
10
17.764028
20
-12.280942
30
0
11
-0.421935727355997
21
-0.00736491551653276
31
0
210
0
220
0
230
1
40
0.999544
41
-0.524027765428254
42
-1.55405274279283E-06
0
ELLIPSE
5
A5
100
AcDbEntity
8
1
62
256
6
ByLayer
370
-1
48
1
60
0
100
AcDbEllipse
10
16.741158
20
-11.713808
30
0
11
0.747886075976979
21
0.0130544000150869
31
0
210
0
220
0
230
1
40
0.999544
41
-2.65573743932514
42
-2.58027367636938
0
ELLIPSE
5
A6
100
AcDbEntity
8
1
62
256
6
ByLayer
370
-1
48
1
60
0
100
AcDbEllipse
10
16.741158
20
-11.713808
30
0
11
-0.747886075976978
21
-0.0130544000150865
31
0
210
0
220
0
230
1
40
0.999544
41
-0.427320389741039
42
0.485435278472738
0
ELLIPSE
5
A7
100
AcDbEntity
8
1
62
256
6
ByLayer
370
-1
48
1
60
0
100
AcDbEllipse
10
16.741685
20
-11.743993
30
0
11
1.03484236448686
21
0.0180632406625868
31
0
210
0
220
0
230
1
40
0.999544
41
2.09439088194776
42
3.14071876742427
0
ELLIPSE
5
A8
100
AcDbEntity
8
1
62
256
6
ByLayer
370
-1
48
1
60
0
100
AcDbEllipse
10
16.741685
20
-11.743993
30
0
11
1.03484236448686
21
0.0180632406625868
31
0
210
0
220
0
230
1
40
0.999544
41
3.14071876742427
42
-2.09354085099373
0
ELLIPSE
5
A9
100
AcDbEntity
8
1
62
256
6
ByLayer
370
-1
48
1
60
0
100
AcDbEllipse
10
17.590854
20
-11.699436
30
0
11
-0.184971823603932
21
-0.00322869519089706
31
0
210
0
220
0
230
1
40
0.999544
41
1.84266516030902
42
-3.1415651764592
0
ELLIPSE
5
AA
100
AcDbEntity
8
1
62
256
6
ByLayer
370
-1
48
1
60
0
100
AcDbEllipse
10
16.741597
20
-11.738992
30
0
11
0.747886075976979
21
0.0130544000150869
31
0
210
0
220
0
230
1
40
0.999544
41
-2.65573743932509
42
-2.58027367636942
0
ELLIPSE
5
AB
100
AcDbEntity
8
1
62
256
6
ByLayer
370
-1
48
1
60
0
100
AcDbEllipse
10
16.741158
20
-11.713808
30
0
11
-0.747886075976978
21
-0.0130544000150865
31
0
210
0
220
0
230
1
40
0.999544
41
2.61775489441847
42
-2.71316091491594
0
ELLIPSE
5
AC
100
AcDbEntity
8
1
62
256
6
ByLayer
370
-1
48
1
60
0
100
AcDbEllipse
10
16.761883
20
-12.882822
30
0
11
-0.421935727355997
21
-0.00736491551653276
31
0
210
0
220
0
230
1
40
0.999544
41
-2.3452670648174
42
-1.57036733696494
0
ELLIPSE
5
AD
100
AcDbEntity
8
1
62
256
6
ByLayer
370
-1
48
1
60
0
100
AcDbEllipse
10
16.741158
20
-11.713808
30
0
11
-0.747886075976978
21
-0.0130544000150865
31
0
210
0
220
0
230
1
40
0.999544
41
-2.57982876904693
42
-1.68245311447056
0
ELLIPSE
5
AE
100
AcDbEntity
8
1
62
256
6
ByLayer
370
-1
48
1
60
0
100
AcDbEllipse
10
16.741685
20
-11.743993
30
0
11
1.03484236448686
21
0.0180632406625868
31
0
210
0
220
0
230
1
40
0.999544
41
-2.09354085099373
42
-1.04720177164202
0
ELLIPSE
5
AF
100
AcDbEntity
8
1
62
256
6
ByLayer
370
-1
48
1
60
0
100
AcDbEllipse
10
15.739347
20
-12.31511
30
0
11
-0.421935727355997
21
-0.00736491551653276
31
0
210
0
220
0
230
1
40
0.999544
41
-2.55108055567534
42
-1.84090767809954
0
ELLIPSE
5
B0
100
AcDbEntity
8
1
62
256
6
ByLayer
370
-1
48
1
60
0
100
AcDbEllipse
10
16.741685
20
-11.743993
30
0
11
1.03484236448686
21
0.0180632406625868
31
0
210
0
220
0
230
1
40
0.999544
41
-0.000873886165519193
42
1.04805180259605
0
ELLIPSE
5
B1
100
AcDbEntity
8
1
62
256
6
ByLayer
370
-1
48
1
60
0
100
AcDbEllipse
10
17.178748
20
-12.441799
30
0
11
-0.184971823603932
21
-0.00322869519089706
31
0
210
0
220
0
230
1
40
0.999544
41
0.796325588772362
42
3.1415731417841
0
ELLIPSE
5
B2
100
AcDbEntity
8
1
62
256
6
ByLayer
370
-1
48
1
60
0
100
AcDbEllipse
10
16.741158
20
-11.713808
30
0
11
-0.747886075976978
21
-0.0130544000150865
31
0
210
0
220
0
230
1
40
0.999544
41
0.561318977220413
42
1.57122531154201
0
ELLIPSE
5
B3
100
AcDbEntity
8
1
62
256
6
ByLayer
370
-1
48
1
60
0
100
AcDbEllipse
10
15.739347
20
-12.31511
30
0
11
-0.421935727355997
21
-0.00736491551653276
31
0
210
0
220
0
230
1
40
0.999544
41
-3.14158251410041
42
-2.68490720030765
0
ELLIPSE
5
B4
100
AcDbEntity
8
1
62
256
6
ByLayer
370
-1
48
1
60
0
100
AcDbEllipse
10
16.741593
20
-11.738743
30
0
11
1.72473727414478
21
0.0301054011043114
31
0
210
0
220
0
230
1
40
0.999544
41
0
42
6.28318530717959
0
ELLIPSE
5
B5
100
AcDbEntity
8
1
62
256
6
ByLayer
370
-1
48
1
60
0
100
AcDbEllipse
10
16.329515
20
-12.456987
30
0
11
-0.184971823603932
21
-0.00322869519089706
31
0
210
0
220
0
230
1
40
0.999544
41
1.78398371980215E-05
42
2.34612504447724
0
ELLIPSE
5
B6
100
AcDbEntity
8
1
62
256
6
ByLayer
370
-1
48
1
60
0
100
AcDbEllipse
10
15.717914
20
-11.146143
30
0
11
-0.421935727355997
21
-0.00736491551653276
31
0
210
0
220
0
230
1
40
0.999544
41
3.14159197371546
42
-2.89072069116559
0
ELLIPSE
5
B7
100
AcDbEntity
8
1
62
256
6
ByLayer
370
-1
48
1
60
0
100
AcDbEllipse
10
17.764028
20
-12.280942
30
0
11
-0.421935727355997
21
-0.00736491551653276
31
0
210
0
220
0
230
1
40
0.999544
41
-1.29892749328071
42
-0.524027765428254
0
ELLIPSE
5
B8
100
AcDbEntity
8
1
62
256
6
ByLayer
370
-1
48
1
60
0
100
AcDbEllipse
10
16.741597
20
-11.738992
30
0
11
0.747886075976979
21
0.0130544000150869
31
0
210
0
220
0
230
1
40
0.999544
41
0.485855214264621
42
0.561318977220428
0
ELLIPSE
5
B9
100
AcDbEntity
8
1
62
256
6
ByLayer
370
-1
48
1
60
0
100
AcDbEllipse
10
16.741685
20
-11.743993
30
0
11
1.03484236448686
21
0.0180632406625868
31
0
210
0
220
0
230
1
40
0.999544
41
1.04805180259605
42
2.09439088194776
0
ELLIPSE
5
BA
100
AcDbEntity
8
1
62
256
6
ByLayer
370
-1
48
1
60
0
100
AcDbEllipse
10
16.741158
20
-11.713808
30
0
11
0.747886075976979
21
0.0130544000150869
31
0
210
0
220
0
230
1
40
0.999544
41
-1.57036734204778
42
-0.524039930628711
0
ELLIPSE
5
BB
100
AcDbEntity
8
1
62
256
6
ByLayer
370
-1
48
1
60
0
100
AcDbEllipse
10
16.741685
20
-11.743993
30
0
11
1.29980200370331
21
0.0226881283684666
31
0
210
0
220
0
230
1
40
0.999544
41
0
42
6.28318530717959
0
POINT
5
41
100
AcDbEntity
8
80
62
256
6
ByLayer
370
-1
48
1
60
0
100
AcDbPoint
10
0
20
0
30
0
39
0
210
0
220
0
230
1
50
360
0
POINT
5
43
100
AcDbEntity
8
81
62
256
6
ByLayer
370
-1
48
1
60
0
100
AcDbPoint
10
20
20
-16.9
30
0
39
0
210
0
220
0
230
1
50
360
0
POINT
5
45
100
AcDbEntity
8
1
62
256
6
ByLayer
370
-1
48
1
60
0
100
AcDbPoint
10
0
20
0
30
0
39
0
210
0
220
0
230
1
50
360
0
POINT
5
47
100
AcDbEntity
8
2
62
256
6
ByLayer
370
-1
48
1
60
0
100
AcDbPoint
10
20
20
16.9
30
0
39
0
210
0
220
0
230
1
50
360
0
SPLINE
5
BC
100
AcDbEntity
8
1
62
256
6
ByLayer
370
-1
48
1
60
0
100
AcDbSpline
70
4
71
3
72
8
73
4
40
0
40
0
40
0
40
0
40
1
40
1
40
1
40
1
41
1
10
7.4130250383152
20
-12.4955029779412
30
0
41
1
10
7.73160631476912
20
-12.9930771895592
30
0
41
1
10
8.10738932634899
20
-13.5636661368139
30
0
41
1
10
8.47283180437546
20
-14.1236201743166
30
0
0
SPLINE
5
BD
100
AcDbEntity
8
1
62
256
6
ByLayer
370
-1
48
1
60
0
100
AcDbSpline
70
4
71
3
72
10
73
6
40
0
40
0
40
0
40
0
40
0.73710533111534
40
0.73710533111534
40
1
40
1
40
1
40
1
41
1
10
0.528766000000019
20
-12.4096736459909
30
0
41
1
10
0.398826126606252
20
-12.2787879785868
30
0
41
1
10
0.268901145093139
20
-12.1478875248804
30
0
41
1
10
0.092659593837368
20
-11.9702782796235
30
0
41
1
10
0.0463287161218773
20
-11.9235836840906
30
0
41
1
10
0
20
-11.8768869440926
30
0
0
SPLINE
5
BE
100
AcDbEntity
8
1
62
256
6
ByLayer
370
-1
48
1
60
0
100
AcDbSpline
70
4
71
3
72
8
73
4
40
0
40
0
40
0
40
0
40
1
40
1
40
1
40
1
41
1
10
5.00400896036729
20
12.3605295737581
30
0
41
1
10
5.00268673539455
20
12.3789609466291
30
0
41
1
10
5.02092695293658
20
12.395743517109
30
0
41
1
10
5.05769158678612
20
12.4099033170681
30
0
0
SPLINE
5
BF
100
AcDbEntity
8
1
62
256
6
ByLayer
370
-1
48
1
60
0
100
AcDbSpline
70
4
71
3
72
8
73
4
40
0
40
0
40
0
40
0
40
1
40
1
40
1
40
1
41
1
10
6.92180192009579
20
3.39496726232852
30
0
41
1
10
6.9560811565596
20
3.34637912215797
30
0
41
1
10
6.99051469347688
20
3.29873296279493
30
0
41
1
10
7.02500814193462
20
3.25205849520208
30
0
0
SPLINE
5
C0
100
AcDbEntity
8
1
62
256
6
ByLayer
370
-1
48
1
60
0
100
AcDbSpline
70
4
71
3
72
8
73
4
40
0
40
0
40
0
40
0
40
1
40
1
40
1
40
1
41
1
10
16.2187890827143
20
-16.1769599225986
30
0
41
1
10
13.9827759892218
20
-16.0226246715044
30
0
41
1
10
11.7467629912149
20
-15.8682880385834
30
0
41
1
10
9.51075009739998
20
-15.7139498978805
30
0
0
SPLINE
5
C1
100
AcDbEntity
8
1
62
256
6
ByLayer
370
-1
48
1
60
0
100
AcDbSpline
70
4
71
3
72
10
73
6
40
0
40
0
40
0
40
0
40
0.5
40
0.5
40
1
40
1
40
1
40
1
41
1
10
5.4922601338987
20
7.31951229681397
30
0
41
1
10
5.55630400367386
20
6.56932376666845
30
0
41
1
10
5.71517493566358
20
5.88681011791837
30
0
41
1
10
6.20505494172767
20
4.56243414979795
30
0
41
1
10
6.54345908587499
20
3.91582523778874
30
0
41
1
10
6.98405264122772
20
3.30747481046984
30
0
0
SPLINE
5
C2
100
AcDbEntity
8
1
62
256
6
ByLayer
370
-1
48
1
60
0
100
AcDbSpline
70
4
71
3
72
10
73
6
40
0
40
0
40
0
40
0
40
0.451817707938813
40
0.451817707938813
40
1
40
1
40
1
40
1
41
1
10
5.05769158678612
20
12.4099033170681
30
0
41
1
10
5.12314017486716
20
11.6432603852005
30
0
41
1
10
5.18858876304671
20
10.876617452178
30
0
41
1
10
5.33344494537073
20
9.17982044597539
30
0
41
1
10
5.41285253956175
20
8.24966637224892
30
0
41
1
10
5.4922601338987
20
7.31951229681397
30
0
0
SPLINE
5
C3
100
AcDbEntity
8
1
62
256
6
ByLayer
370
-1
48
1
60
0
100
AcDbSpline
70
4
71
3
72
8
73
4
40
0
40
0
40
0
40
0
40
1
40
1
40
1
40
1
41
1
10
8.47283180437546
20
-14.1236201743166
30
0
41
1
10
8.81879934735508
20
-14.6537334867661
30
0
41
1
10
9.1647726403142
20
-15.1838430499976
30
0
41
1
10
9.51075009739998
20
-15.7139498978805
30
0
0
SPLINE
5
C4
100
AcDbEntity
8
1
62
256
6
ByLayer
370
-1
48
1
60
0
100
AcDbSpline
70
4
71
3
72
8
73
4
40
0
40
0
40
0
40
0
40
1
40
1
40
1
40
1
41
1
10
17.2201478162062
20
-16.246074844425
30
0
41
1
10
16.8863615621715
20
-16.2230361422091
30
0
41
1
10
16.5525753102384
20
-16.1999974095818
30
0
41
1
10
16.2187890604338
20
-16.176958646151
30
0
0
SPLINE
5
C5
100
AcDbEntity
8
1
62
256
6
ByLayer
370
-1
48
1
60
0
100
AcDbSpline
70
4
71
3
72
10
73
6
40
0
40
0
40
0
40
0
40
0.482890617424145
40
0.482890617424145
40
1
40
1
40
1
40
1
41
1
10
7.41302503831491
20
-12.4955029779408
30
0
41
1
10
7.32502984769508
20
-12.4927287534752
30
0
41
1
10
7.25368533977655
20
-12.4881533620566
30
0
41
1
10
7.15257611635809
20
-12.4737869165965
30
0
41
1
10
7.12449891221297
20
-12.4633736128435
30
0
41
1
10
7.12310099262783
20
-12.4504668521595
30
0
0
SPLINE
5
C6
100
AcDbEntity
8
1
62
256
6
ByLayer
370
-1
48
1
60
0
100
AcDbSpline
70
4
71
3
72
10
73
6
40
0
40
0
40
0
40
0
40
0.262894668884669
40
0.262894668884669
40
1
40
1
40
1
40
1
41
1
10
0
20
11.8768869440926
30
0
41
1
10
0.0463287161218773
20
11.9235836840906
30
0
41
1
10
0.092659593837368
20
11.9702782796235
30
0
41
1
10
0.268901145093139
20
12.1478875248804
30
0
41
1
10
0.398826126606252
20
12.2787879785868
30
0
41
1
10
0.528766000000019
20
12.4096736459909
30
0
0
SPLINE
5
C7
100
AcDbEntity
8
1
62
256
6
ByLayer
370
-1
48
1
60
0
100
AcDbSpline
70
4
71
3
72
8
73
4
40
0
40
0
40
0
40
0
40
1
40
1
40
1
40
1
41
1
10
17.8446470625786
20
-15.9825759588224
30
0
41
1
10
17.6346914499096
20
-15.9679083371352
30
0
41
1
10
17.4247358714546
20
-15.9532402262653
30
0
41
1
10
17.2147803274968
20
-15.9385716222112
30
0
0
SPLINE
5
C8
100
AcDbEntity
8
SK1
62
256
6
ByLayer
370
-1
48
1
60
0
100
AcDbSpline
70
4
71
3
72
8
73
4
40
0
40
0
40
0
40
0
40
1
40
1
40
1
40
1
41
1
10
0
20
-11.8768869440926
30
0
41
1
10
-0.0737502492068529
20
-11.8025508411247
30
0
41
1
10
-0.147495022267208
20
-11.728209304721
30
0
41
1
10
-0.221233999999981
20
-11.6538620208067
30
0
0
SPLINE
5
C9
100
AcDbEntity
8
SK1
62
256
6
ByLayer
370
-1
48
1
60
0
100
AcDbSpline
70
4
71
3
72
8
73
4
40
0
40
0
40
0
40
0
40
1
40
1
40
1
40
1
41
1
10
-0.221234122599981
20
11.6538618971953
30
0
41
1
10
-0.147495104007021
20
11.7282092223198
30
0
41
1
10
-0.0737502900797722
20
11.8025507999271
30
0
41
1
10
0
20
11.8768869440926
30
0
0
SPLINE
5
CA
100
AcDbEntity
8
1
62
256
6
ByLayer
370
-1
48
1
60
0
100
AcDbSpline
70
4
71
3
72
14
73
10
40
0
40
0
40
0
40
0
40
0.275910147449267
40
0.275910147449267
40
0.564201699004287
40
0.564201699004287
40
0.825325221704844
40
0.825325221704844
40
1
40
1
40
1
40
1
41
1
10
16.1253054260064
20
-11.0624447052612
30
0
41
1
10
16.1198700101438
20
-11.0429837898747
30
0
41
1
10
16.1176407527
20
-11.0219830854288
30
0
41
1
10
16.1207887553646
20
-10.9791060265698
30
0
41
1
10
16.1266055981251
20
-10.9565645044023
30
0
41
1
10
16.1455980085367
20
-10.916918012611
30
0
41
1
10
16.1583492910657
20
-10.8989186377852
30
0
41
1
10
16.1841438227468
20
-10.8736027563353
30
0
41
1
10
16.195887759799
20
-10.8645065179414
30
0
41
1
10
16.2084408321408
20
-10.8569672431691
30
0
0
SPLINE
5
CB
100
AcDbEntity
8
1
62
256
6
ByLayer
370
-1
48
1
60
0
100
AcDbSpline
70
4
71
3
72
14
73
10
40
0
40
0
40
0
40
0
40
0.0516812985607157
40
0.0516812985607157
40
0.388482929064838
40
0.388482929064838
40
0.836408785780598
40
0.836408785780598
40
1
40
1
40
1
40
1
41
1
10
17.3675862754252
20
-11.329746353713
30
0
41
1
10
17.3650821073685
20
-11.3248784930481
30
0
41
1
10
17.3626750272574
20
-11.3199681736899
30
0
41
1
10
17.3454633614172
20
-11.2830762462956
30
0
41
1
10
17.3347214916606
20
-11.2493598549283
30
0
41
1
10
17.3200192760497
20
-11.172311652815
30
0
41
1
10
17.3190611965053
20
-11.1281605528952
30
0
41
1
10
17.3263587150153
20
-11.0712922414158
30
0
41
1
10
17.3291768943939
20
-11.0562123649832
30
0
41
1
10
17.3327883121703
20
-11.0414621629607
30
0
0
SPLINE
5
CC
100
AcDbEntity
8
1
62
256
6
ByLayer
370
-1
48
1
60
0
100
AcDbSpline
70
4
71
3
72
12
73
8
40
0
40
0
40
0
40
0
40
0.46384571655891
40
0.46384571655891
40
0.845353050073104
40
0.845353050073104
40
1
40
1
40
1
40
1
41
1
10
17.6375925236358
20
-11.5485147678034
30
0
41
1
10
17.5955455296829
20
-11.5369913473893
30
0
41
1
10
17.553769914862
20
-11.5185530108647
30
0
41
1
10
17.4834060821819
20
-11.4725119665858
30
0
41
1
10
17.4530526645815
20
-11.4465175681125
30
0
41
1
10
17.4160773818386
20
-11.4044127392972
30
0
41
1
10
17.4059741804918
20
-11.3915168695564
30
0
41
1
10
17.3966508810403
20
-11.3780963548992
30
0
0
SPLINE
5
CD
100
AcDbEntity
8
1
62
256
6
ByLayer
370
-1
48
1
60
0
100
AcDbSpline
70
4
71
3
72
18
73
14
40
0
40
0
40
0
40
0
40
0.212394607862583
40
0.212394607862583
40
0.388177070081859
40
0.388177070081859
40
0.565609519378673
40
0.565609519378673
40
0.720564064292145
40
0.720564064292145
40
0.926625273456948
40
0.926625273456948
40
1
40
1
40
1
40
1
41
1
10
16.4617823113912
20
-12.6149051902752
30
0
41
1
10
16.4920604457905
20
-12.5835075565383
30
0
41
1
10
16.5281537591955
20
-12.5558238297118
30
0
41
1
10
16.6021424079753
20
-12.5166753941813
30
0
41
1
10
16.6395373983523
20
-12.5028869115544
30
0
41
1
10
16.717568994551
20
-12.4866770372887
30
0
41
1
10
16.7594031938279
20
-12.4842409249336
30
0
41
1
10
16.8347440586365
20
-12.4911185192552
30
0
41
1
10
16.8695370246168
20
-12.4990072095597
30
0
41
1
10
16.9442961434175
20
-12.5258547764059
30
0
41
1
10
16.9835326715597
20
-12.5479240002283
30
0
41
1
10
17.029621252281
20
-12.5836919841088
30
0
41
1
10
17.0412271505683
20
-12.5937650321171
30
0
41
1
10
17.0521878054585
20
-12.6043463824899
30
0
0
SPLINE
5
CE
100
AcDbEntity
8
1
62
256
6
ByLayer
370
-1
48
1
60
0
100
AcDbSpline
70
4
71
3
72
14
73
10
40
0
40
0
40
0
40
0
40
0.282012810528387
40
0.282012810528387
40
0.568979696810401
40
0.568979696810401
40
0.828956708857392
40
0.828956708857392
40
1
40
1
40
1
40
1
41
1
10
17.6375925236358
20
-11.5485147678034
30
0
41
1
10
17.6579596431136
20
-11.5540965908615
30
0
41
1
10
17.6780451626603
20
-11.56338345437
30
0
41
1
10
17.7143890302883
20
-11.5888700823094
30
0
41
1
10
17.7311144356856
20
-11.6056168834311
30
0
41
1
10
17.7560572008932
20
-11.6425070098193
30
0
41
1
10
17.7652717578768
20
-11.6627597990532
30
0
41
1
10
17.7741667220563
20
-11.6976928325449
30
0
41
1
10
17.776117033164
20
-11.7121775412036
30
0
41
1
10
17.7763555838885
20
-11.7265511448479
30
0
0
SPLINE
5
CF
100
AcDbEntity
8
1
62
256
6
ByLayer
370
-1
48
1
60
0
100
AcDbSpline
70
4
71
3
72
18
73
14
40
0
40
0
40
0
40
0
40
0.176294353690184
40
0.176294353690184
40
0.358649460759898
40
0.358649460759898
40
0.543069654725375
40
0.543069654725375
40
0.699661295797505
40
0.699661295797505
40
0.89965271388077
40
0.89965271388077
40
1
40
1
40
1
40
1
41
1
10
16.1253054260093
20
-11.0624447052602
30
0
41
1
10
16.1347936274067
20
-11.0964161785078
30
0
41
1
10
16.1400827236728
20
-11.1325142720733
30
0
41
1
10
16.140658559426
20
-11.2076878335462
30
0
41
1
10
16.1354910741563
20
-11.2477350829505
30
0
41
1
10
16.1130681916394
20
-11.3261550407017
30
0
41
1
10
16.0951847778878
20
-11.3657024627584
30
0
41
1
10
16.0528705608916
20
-11.4310413120013
30
0
41
1
10
16.0293602704497
20
-11.4588149715872
30
0
41
1
10
15.9713838028799
20
-11.5127143606625
30
0
41
1
10
15.9348071787061
20
-11.5372617677225
30
0
41
1
10
15.8780830530739
20
-11.5646522413234
30
0
41
1
10
15.8585385216244
20
-11.5723564773632
30
0
41
1
10
15.8387997941259
20
-11.5785517008241
30
0
0
SPLINE
5
D0
100
AcDbEntity
8
1
62
256
6
ByLayer
370
-1
48
1
60
0
100
AcDbSpline
70
4
71
3
72
16
73
12
40
0
40
0
40
0
40
0
40
0.0650677785793062
40
0.0650677785793062
40
0.289605139410283
40
0.289605139410283
40
0.517020176158713
40
0.517020176158713
40
0.758912793192663
40
0.758912793192663
40
1
40
1
40
1
40
1
41
1
10
15.7066406350379
20
-11.7609026750829
30
0
41
1
10
15.7065497735663
20
-11.7554279200532
30
0
41
1
10
15.706702715156
20
-11.7499390477977
30
0
41
1
10
15.7084519400261
20
-11.7257447994602
30
0
41
1
10
15.7127556390196
20
-11.7070026628114
30
0
41
1
10
15.7264118754291
20
-11.672214302832
30
0
41
1
10
15.7359884529075
20
-11.6557573333159
30
0
41
1
10
15.7594522417391
20
-11.6261891024985
30
0
41
1
10
15.7738533577998
20
-11.6129745885617
30
0
41
1
10
15.804788890229
20
-11.5919830873562
30
0
41
1
10
15.8216272047801
20
-11.5839415127259
30
0
41
1
10
15.8387997941259
20
-11.5785517008241
30
0
0
SPLINE
5
D1
100
AcDbEntity
8
1
62
256
6
ByLayer
370
-1
48
1
60
0
100
AcDbSpline
70
4
71
3
72
16
73
12
40
0
40
0
40
0
40
0
40
0.0637320467196496
40
0.0637320467196496
40
0.288277155909303
40
0.288277155909303
40
0.515624914075195
40
0.515624914075195
40
0.75738855572333
40
0.75738855572333
40
1
40
1
40
1
40
1
41
1
10
17.7763555838885
20
-11.7265511448479
30
0
41
1
10
17.7764445970353
20
-11.7319145311622
30
0
41
1
10
17.7762995329209
20
-11.7372846377883
30
0
41
1
10
17.7746006033172
20
-11.7613127279182
30
0
41
1
10
17.7703272797347
20
-11.7799347867722
30
0
41
1
10
17.7567235507067
20
-11.8143382355091
30
0
41
1
10
17.7471712677346
20
-11.830525000797
30
0
41
1
10
17.723750260756
20
-11.859421116875
30
0
41
1
10
17.7093684821776
20
-11.8722196370841
30
0
41
1
10
17.6783606014033
20
-11.8923665800216
30
0
41
1
10
17.6614115274477
20
-11.8999380200825
30
0
41
1
10
17.6441248175882
20
-11.9047997446567
30
0
0
SPLINE
5
D2
100
AcDbEntity
8
1
62
256
6
ByLayer
370
-1
48
1
60
0
100
AcDbSpline
70
4
71
3
72
12
73
8
40
0
40
0
40
0
40
0
40
0.462596286631017
40
0.462596286631017
40
0.84431179687682
40
0.84431179687682
40
1
40
1
40
1
40
1
41
1
10
15.8453317389323
20
-11.9348166750766
30
0
41
1
10
15.887242537288
20
-11.9449603820852
30
0
41
1
10
15.9288826022184
20
-11.962058045145
30
0
41
1
10
15.9991559701512
20
-12.0061157369071
30
0
41
1
10
16.0295311018475
20
-12.0314141579657
30
0
41
1
10
16.0666117514932
20
-12.0730372347055
30
0
41
1
10
16.076786083295
20
-12.0859037652864
30
0
41
1
10
16.086170731516
20
-12.0993542727896
30
0
0
SPLINE
5
D3
100
AcDbEntity
8
1
62
256
6
ByLayer
370
-1
48
1
60
0
100
AcDbSpline
70
4
71
3
72
16
73
12
40
0
40
0
40
0
40
0
40
0.0664028065086478
40
0.0664028065086478
40
0.290302171439831
40
0.290302171439831
40
0.517156287049303
40
0.517156287049303
40
0.758517381450037
40
0.758517381450037
40
1
40
1
40
1
40
1
41
1
10
16.2404898734868
20
-12.648979797272
30
0
41
1
10
16.2355853929493
20
-12.6462679605343
30
0
41
1
10
16.2307983506454
20
-12.643325607662
30
0
41
1
10
16.2106391485473
20
-12.6296214915996
30
0
41
1
10
16.1966165997293
20
-12.616489119685
30
0
41
1
10
16.1734901281715
20
-12.5871628005325
30
0
41
1
10
16.164147387693
20
-12.570566751844
30
0
41
1
10
16.1505737022682
20
-12.5352782001147
30
0
41
1
10
16.1465190060711
20
-12.5160847925388
30
0
41
1
10
16.1442213023972
20
-12.4784684375835
30
0
41
1
10
16.1459304027701
20
-12.4596469791828
30
0
41
1
10
16.1501359503969
20
-12.441869279919
30
0
0
SPLINE
5
D4
100
AcDbEntity
8
1
62
256
6
ByLayer
370
-1
48
1
60
0
100
AcDbSpline
70
4
71
3
72
14
73
10
40
0
40
0
40
0
40
0
40
0.283855541613902
40
0.283855541613902
40
0.570591943968431
40
0.570591943968431
40
0.830385154771899
40
0.830385154771899
40
1
40
1
40
1
40
1
41
1
10
15.8453317389323
20
-11.9348166750766
30
0
41
1
10
15.8248434435806
20
-11.9298578751179
30
0
41
1
10
15.8046377548945
20
-11.9211112771697
30
0
41
1
10
15.7682588172011
20
-11.8965604132537
30
0
41
1
10
15.75158851449
20
-11.8802731598007
30
0
41
1
10
15.7267499566179
20
-11.8440621266147
30
0
41
1
10
15.7175866945404
20
-11.8240568786621
30
0
41
1
10
15.7087957897654
20
-11.7894710961615
30
0
41
1
10
15.7068772011439
20
-11.7751566977894
30
0
41
1
10
15.7066406350379
20
-11.7609026750829
30
0
0
SPLINE
5
D5
100
AcDbEntity
8
1
62
256
6
ByLayer
370
-1
48
1
60
0
100
AcDbSpline
70
4
71
3
72
14
73
10
40
0
40
0
40
0
40
0
40
0.281361732721521
40
0.281361732721521
40
0.568970750109634
40
0.568970750109634
40
0.829548331686132
40
0.829548331686132
40
1
40
1
40
1
40
1
41
1
10
17.0211423003228
20
-10.8684462552057
30
0
41
1
10
17.0358366103988
20
-10.8538713488129
30
0
41
1
10
17.053580405057
20
-10.8413688244031
30
0
41
1
10
17.093259563059
20
-10.8229841500445
30
0
41
1
10
17.1159130422572
20
-10.817006812518
30
0
41
1
10
17.1600225434815
20
-10.8140395939467
30
0
41
1
10
17.182058575213
20
-10.8162502072547
30
0
41
1
10
17.2165778914169
20
-10.8260416184656
30
0
41
1
10
17.2300003144524
20
-10.8315590570445
30
0
41
1
10
17.2425063454396
20
-10.8384740226588
30
0
0
SPLINE
5
D6
100
AcDbEntity
8
1
62
256
6
ByLayer
370
-1
48
1
60
0
100
AcDbSpline
70
4
71
3
72
14
73
10
40
0
40
0
40
0
40
0
40
0.283923322921843
40
0.283923322921843
40
0.571211715507332
40
0.571211715507332
40
0.831534132627851
40
0.831534132627851
40
1
40
1
40
1
40
1
41
1
10
16.4617823113912
20
-12.6149051902752
30
0
41
1
10
16.4469660951709
20
-12.6302692191192
30
0
41
1
10
16.4290404544817
20
-12.6434917156707
30
0
41
1
10
16.3891473256025
20
-12.6629230561392
30
0
41
1
10
16.366500511709
20
-12.6693113659934
30
0
41
1
10
16.3224270898768
20
-12.672855178298
30
0
41
1
10
16.3004189487377
20
-12.6708369364669
30
0
41
1
10
16.2661047239834
20
-12.6612368955457
30
0
41
1
10
16.252850774442
20
-12.6558145160691
30
0
41
1
10
16.2404898734868
20
-12.648979797272
30
0
0
SPLINE
5
D7
100
AcDbEntity
8
1
62
256
6
ByLayer
370
-1
48
1
60
0
100
AcDbSpline
70
4
71
3
72
18
73
14
40
0
40
0
40
0
40
0
40
0.210811961975283
40
0.210811961975283
40
0.386869014636729
40
0.386869014636729
40
0.564594595226457
40
0.564594595226457
40
0.719600849196253
40
0.719600849196253
40
0.925379123165728
40
0.925379123165728
40
1
40
1
40
1
40
1
41
1
10
17.3576191857077
20
-12.4209067402197
30
0
41
1
10
17.346251920409
20
-12.3789584653637
30
0
41
1
10
17.3408886921878
20
-12.3339123659929
30
0
41
1
10
17.3446117370735
20
-12.2501300902294
30
0
41
1
10
17.3516044313923
20
-12.2106353019304
30
0
41
1
10
17.3768461294528
20
-12.1346484270862
30
0
41
1
10
17.3956819526797
20
-12.0971089138024
30
0
41
1
10
17.4391253333159
20
-12.0353318291916
30
0
41
1
10
17.4631606457976
20
-12.0092366198879
30
0
41
1
10
17.5231385265984
20
-11.9582857794203
30
0
41
1
10
17.5613446005915
20
-11.9356308706306
30
0
41
1
10
17.6148478759524
20
-11.9139099342148
30
0
41
1
10
17.6294285266899
20
-11.9089329382598
30
0
41
1
10
17.6441248175882
20
-11.9047997446567
30
0
0
SPLINE
5
D8
100
AcDbEntity
8
1
62
256
6
ByLayer
370
-1
48
1
60
0
100
AcDbSpline
70
4
71
3
72
16
73
12
40
0
40
0
40
0
40
0
40
0.210497840614399
40
0.210497840614399
40
0.435541046788744
40
0.435541046788744
40
0.671214466900341
40
0.671214466900341
40
0.927559894521387
40
0.927559894521387
40
1
40
1
40
1
40
1
41
1
10
17.2745553867856
20
-12.6304865767617
30
0
41
1
10
17.2594768312076
20
-12.6395426365513
30
0
41
1
10
17.2428911806423
20
-12.6464566304086
30
0
41
1
10
17.2079674894047
20
-12.6554270454251
30
0
41
1
10
17.1891409010762
20
-12.6572281905528
30
0
41
1
10
17.1519485678644
20
-12.6552593083899
30
0
41
1
10
17.1331781279176
20
-12.651216082711
30
0
41
1
10
17.0971447041424
20
-12.6376424799821
30
0
41
1
10
17.0796992236795
20
-12.6275126268027
30
0
41
1
10
17.06028738703
20
-12.6118298538415
30
0
41
1
10
17.0561449425658
20
-12.6081665788764
30
0
41
1
10
17.0521878054585
20
-12.6043463824899
30
0
0
SPLINE
5
D9
100
AcDbEntity
8
1
62
256
6
ByLayer
370
-1
48
1
60
0
100
AcDbSpline
70
4
71
3
72
18
73
14
40
0
40
0
40
0
40
0
40
0.213185141363861
40
0.213185141363861
40
0.388830431534431
40
0.388830431534431
40
0.566116427773766
40
0.566116427773766
40
0.721045501260601
40
0.721045501260601
40
0.927248243078641
40
0.927248243078641
40
1
40
1
40
1
40
1
41
1
10
17.0211423003228
20
-10.8684462552057
30
0
41
1
10
16.9907277104575
20
-10.898613700834
30
0
41
1
10
16.9544527455859
20
-10.9251194654746
30
0
41
1
10
16.8802418971613
20
-10.9624007941742
30
0
41
1
10
16.842839872358
20
-10.9754608734271
30
0
41
1
10
16.7648289325144
20
-10.9908042222124
30
0
41
1
10
16.723025259437
20
-10.9931068412601
30
0
41
1
10
16.6477409922081
20
-10.9866059582437
30
0
41
1
10
16.6129735496923
20
-10.9791408764241
30
0
41
1
10
16.5382472607005
20
-10.953655359266
30
0
41
1
10
16.4990287853407
20
-10.9326528924511
30
0
41
1
10
16.4530895566237
20
-10.8985693185451
30
0
41
1
10
16.4415960080746
20
-10.8890314625421
30
0
41
1
10
16.4307368062558
20
-10.8790050629912
30
0
0
SPLINE
5
DA
100
AcDbEntity
8
1
62
256
6
ByLayer
370
-1
48
1
60
0
100
AcDbSpline
70
4
71
3
72
16
73
12
40
0
40
0
40
0
40
0
40
0.0645758993795482
40
0.0645758993795482
40
0.288555697373562
40
0.288555697373562
40
0.515387486104185
40
0.515387486104185
40
0.756645559644115
40
0.756645559644115
40
1
40
1
40
1
40
1
41
1
10
17.2425063454396
20
-10.8384740226588
30
0
41
1
10
17.2472756423107
20
-10.841111112228
30
0
41
1
10
17.2519336250505
20
-10.8439591507951
30
0
41
1
10
17.2720009535617
20
-10.8574661244743
30
0
41
1
10
17.2860575915711
20
-10.8704347787639
30
0
41
1
10
17.3092496877467
20
-10.8992947893074
30
0
41
1
10
17.3186272092987
20
-10.915579622516
30
0
41
1
10
17.3322713024143
20
-10.9501167558605
30
0
41
1
10
17.3363645903111
20
-10.968853853161
30
0
41
1
10
17.3387503650052
20
-11.0056515413084
30
0
41
1
10
17.337039006914
20
-11.0241009463734
30
0
41
1
10
17.3327883121704
20
-11.0414621629608
30
0
0
SPLINE
5
DB
100
AcDbEntity
8
1
62
256
6
ByLayer
370
-1
48
1
60
0
100
AcDbSpline
70
4
71
3
72
14
73
10
40
0
40
0
40
0
40
0
40
0.0508860457501502
40
0.0508860457501502
40
0.387820446592166
40
0.387820446592166
40
0.835646446301028
40
0.835646446301028
40
1
40
1
40
1
40
1
41
1
10
16.1152353371311
20
-12.1477042739758
30
0
41
1
10
16.117700826806
20
-12.1525159391031
30
0
41
1
10
16.1200723190302
20
-12.15737432611
30
0
41
1
10
16.1372771640637
20
-12.1944176004135
30
0
41
1
10
16.1480493428231
20
-12.2285837807957
30
0
41
1
10
16.1628177166366
20
-12.3070355409608
30
0
41
1
10
16.1638222855363
20
-12.3522790968254
30
0
41
1
10
16.1565826613428
20
-12.4109034171085
30
0
41
1
10
16.1537605800747
20
-12.4265472381605
30
0
41
1
10
16.1501359503969
20
-12.441869279919
30
0
0
SPLINE
5
DC
100
AcDbEntity
8
1
62
256
6
ByLayer
370
-1
48
1
60
0
100
AcDbSpline
70
4
71
3
72
16
73
12
40
0
40
0
40
0
40
0
40
0.166527463177958
40
0.166527463177958
40
0.468311641031285
40
0.468311641031285
40
0.7410874043052
40
0.7410874043052
40
0.983670760621085
40
0.983670760621085
40
1
40
1
40
1
40
1
41
1
10
17.3576191857102
20
-12.4209067402188
30
0
41
1
10
17.3609136199538
20
-12.4330640911308
30
0
41
1
10
17.3630413326114
20
-12.4457220721912
30
0
41
1
10
17.3653443945061
20
-12.4816893605287
30
0
41
1
10
17.3625012711708
20
-12.5060273247224
30
0
41
1
10
17.3482684574694
20
-12.5498160125556
30
0
41
1
10
17.337463701505
20
-12.5701731181986
30
0
41
1
10
17.3108144933309
20
-12.6034761197289
30
0
41
1
10
17.295259364779
20
-12.6174577889404
30
0
41
1
10
17.2769247773734
20
-12.6290451289749
30
0
41
1
10
17.2757440539765
20
-12.6297726727611
30
0
41
1
10
17.2745553867856
20
-12.6304865767617
30
0
0
SPLINE
5
DD
100
AcDbEntity
8
1
62
256
6
ByLayer
370
-1
48
1
60
0
100
AcDbSpline
70
4
71
3
72
16
73
12
40
0
40
0
40
0
40
0
40
0.0608466413634179
40
0.0608466413634179
40
0.285573502444236
40
0.285573502444236
40
0.512940110210263
40
0.512940110210263
40
0.754597399720701
40
0.754597399720701
40
1
40
1
40
1
40
1
41
1
10
16.2084408321408
20
-10.8569672431691
30
0
41
1
10
16.2128312993535
20
-10.8543303637029
30
0
41
1
10
16.2173361577678
20
-10.8518703679689
30
0
41
1
10
16.2387640309065
20
-10.8412837535002
30
0
41
1
10
16.2570711797252
20
-10.835482962267
30
0
41
1
10
16.2938323438033
20
-10.8295741083746
30
0
41
1
10
16.3127516647787
20
-10.8294439486595
30
0
41
1
10
16.3498100566025
20
-10.8345576295412
30
0
41
1
10
16.3682926527879
20
-10.8401841296782
30
0
41
1
10
16.4019586771565
20
-10.8561639430239
30
0
41
1
10
16.4174618125356
20
-10.8667481408623
30
0
41
1
10
16.4307368062558
20
-10.8790050629912
30
0
0
LINE
5
49
100
AcDbEntity
8
80
62
256
6
ByLayer
370
-1
48
1
60
0
100
AcDbLine
10
0
20
0
30
0
11
-10
21
0
31
0
39
0
210
0
220
0
230
1
0
LINE
5
4A
100
AcDbEntity
8
81
62
256
6
ByLayer
370
-1
48
1
60
0
100
AcDbLine
10
20
20
-16.9
30
0
11
30
21
-16.9
31
0
39
0
210
0
220
0
230
1
0
LINE
5
4B
100
AcDbEntity
8
SK4
62
256
6
ByLayer
370
-1
48
0.05
60
0
100
AcDbLine
10
-10
20
0
30
0
11
24.327678
21
0
31
0
39
0
210
0
220
0
230
1
0
LINE
5
4D
100
AcDbEntity
8
4
62
256
6
ByLayer
370
-1
48
0.05
60
0
100
AcDbLine
10
0
20
0
30
0
11
29.327678
21
0
31
0
39
0
210
0
220
0
230
1
0
LINE
5
4F
100
AcDbEntity
8
1
62
256
6
ByLayer
370
-1
48
1
60
0
100
AcDbLine
10
16.140315
20
-11.16543
30
0
11
16.13985
21
-11.138778
31
0
39
0
210
0
220
0
230
1
0
LINE
5
50
100
AcDbEntity
8
1
62
256
6
ByLayer
370
-1
48
1
60
0
100
AcDbLine
10
17.32066
20
-11.119339
30
0
11
17.321126
21
-11.146045
31
0
39
0
210
0
220
0
230
1
0
LINE
5
51
100
AcDbEntity
8
SK1
62
256
6
ByLayer
370
-1
48
1
60
0
100
AcDbLine
10
-0.22125
20
2.955
30
0
11
-3.39
21
2.955
31
0
39
0
210
0
220
0
230
1
0
LINE
5
53
100
AcDbEntity
8
SK1
62
256
6
ByLayer
370
-1
48
1
60
0
100
AcDbLine
10
-3.39
20
-2.955
30
0
11
-0.22125
21
-2.955
31
0
39
0
210
0
220
0
230
1
0
LINE
5
54
100
AcDbEntity
8
1
62
256
6
ByLayer
370
-1
48
1
60
0
100
AcDbLine
10
17.342092
20
-12.288306
30
0
11
17.342558
21
-12.314999
31
0
39
0
210
0
220
0
230
1
0
LINE
5
55
100
AcDbEntity
8
1
62
256
6
ByLayer
370
-1
48
1
60
0
100
AcDbLine
10
16.161749
20
-12.33445
30
0
11
16.161282
21
-12.307745
31
0
39
0
210
0
220
0
230
1
0
LINE
5
56
100
AcDbEntity
8
1
62
256
6
ByLayer
370
-1
48
1
60
0
100
AcDbLine
10
15.016287
20
-11.746666
30
0
11
15.016669
21
-11.768582
31
0
39
0
210
0
220
0
230
1
0
LINE
5
57
100
AcDbEntity
8
1
62
256
6
ByLayer
370
-1
48
1
60
0
100
AcDbLine
10
18.466144
20
-11.708372
30
0
11
18.465761
21
-11.686455
31
0
39
0
210
0
220
0
230
1
0
LINE
5
58
100
AcDbEntity
8
1
62
256
6
ByLayer
370
-1
48
1
60
0
100
AcDbLine
10
5.05
20
12.5
30
0
11
4.744195
21
12.5
31
0
39
0
210
0
220
0
230
1
0
LINE
5
59
100
AcDbEntity
8
1
62
256
6
ByLayer
370
-1
48
1
60
0
100
AcDbLine
10
4.744195
20
-12.5
30
0
11
7.413025
21
-12.5
31
0
39
0
210
0
220
0
230
1
0
LINE
5
5A
100
AcDbEntity
8
1
62
256
6
ByLayer
370
-1
48
1
60
0
100
AcDbLine
10
7.413025
20
-12.5
30
0
11
7.895017
21
-13.238727
31
0
39
0
210
0
220
0
230
1
0
LINE
5
5B
100
AcDbEntity
8
SK1
62
256
6
ByLayer
370
-1
48
1
60
0
100
AcDbLine
10
-3.39
20
2.955
30
0
11
-3.89
21
2.821025
31
0
39
0
210
0
220
0
230
1
0
LINE
5
5C
100
AcDbEntity
8
SK1
62
256
6
ByLayer
370
-1
48
1
60
0
100
AcDbLine
10
-3.89
20
-2.821025
30
0
11
-3.39
21
-2.955
31
0
39
0
210
0
220
0
230
1
0
LINE
5
5D
100
AcDbEntity
8
SK1
62
256
6
ByLayer
370
-1
48
1
60
0
100
AcDbLine
10
-3.39
20
2.955
30
0
11
-3.39
21
-2.955
31
0
39
0
210
0
220
0
230
1
0
LINE
5
5E
100
AcDbEntity
8
SK1
62
256
6
ByLayer
370
-1
48
1
60
0
100
AcDbLine
10
-3.89
20
2.821025
30
0
11
-3.89
21
-2.821025
31
0
39
0
210
0
220
0
230
1
0
LINE
5
5F
100
AcDbEntity
8
1
62
256
6
ByLayer
370
-1
48
1
60
0
100
AcDbLine
10
19.327678
20
-5.93013
30
0
11
11.238091
21
-10.788671
31
0
39
0
210
0
220
0
230
1
0
LINE
5
60
100
AcDbEntity
8
1
62
256
6
ByLayer
370
-1
48
1
60
0
100
AcDbLine
10
12.855177
20
-13.762519
30
0
11
16.208744
21
-15.601492
31
0
39
0
210
0
220
0
230
1
0
LINE
5
61
100
AcDbEntity
8
1
62
256
6
ByLayer
370
-1
48
1
60
0
100
AcDbLine
10
19.327678
20
-4.962601
30
0
11
19.327678
21
-5.93013
31
0
39
0
210
0
220
0
230
1
0
LINE
5
62
100
AcDbEntity
8
1
62
256
6
ByLayer
370
-1
48
1
60
0
100
AcDbLine
10
0
20
11.876887
30
0
11
0
21
-11.876887
31
0
39
0
210
0
220
0
230
1
0
LINE
5
63
100
AcDbEntity
8
1
62
256
6
ByLayer
370
-1
48
1
60
0
100
AcDbLine
10
16.208744
20
-15.601495
30
0
11
12.855177
21
-13.762522
31
0
39
0
210
0
220
0
230
1
0
LINE
5
64
100
AcDbEntity
8
1
62
256
6
ByLayer
370
-1
48
1
60
0
100
AcDbLine
10
11.142795
20
-13.010144
30
0
11
11.245801
21
-13.181498
31
0
39
0
210
0
220
0
230
1
0
LINE
5
65
100
AcDbEntity
8
1
62
256
6
ByLayer
370
-1
48
1
60
0
100
AcDbLine
10
4.744195
20
-12.5
30
0
11
4.61028
21
-12.409674
31
0
39
0
210
0
220
0
230
1
0
LINE
5
66
100
AcDbEntity
8
1
62
256
6
ByLayer
370
-1
48
1
60
0
100
AcDbLine
10
8.472832
20
-14.12362
30
0
11
6.984053
21
3.307475
31
0
39
0
210
0
220
0
230
1
0
LINE
5
67
100
AcDbEntity
8
1
62
256
6
ByLayer
370
-1
48
1
60
0
100
AcDbLine
10
12.962608
20
-13.697999
30
0
11
12.962608
21
-13.697996
31
0
39
0
210
0
220
0
230
1
0
LINE
5
68
100
AcDbEntity
8
1
62
256
6
ByLayer
370
-1
48
1
60
0
100
AcDbLine
10
7.413025
20
-12.5
30
0
11
7.413025
21
-12.495503
31
0
39
0
210
0
220
0
230
1
0
LINE
5
69
100
AcDbEntity
8
1
62
256
6
ByLayer
370
-1
48
1
60
0
100
AcDbLine
10
13.248694
20
-13.436197
30
0
11
12.961054
21
-13.608951
31
0
39
0
210
0
220
0
230
1
0
LINE
5
6A
100
AcDbEntity
8
1
62
256
6
ByLayer
370
-1
48
1
60
0
100
AcDbLine
10
13.326624
20
-13.479371
30
0
11
12.962608
21
-13.697996
31
0
39
0
210
0
220
0
230
1
0
LINE
5
6B
100
AcDbEntity
8
1
62
256
6
ByLayer
370
-1
48
1
60
0
100
AcDbLine
10
13.463266
20
0
30
0
11
14.277699
21
0
31
0
39
0
210
0
220
0
230
1
0
LINE
5
6C
100
AcDbEntity
8
1
62
256
6
ByLayer
370
-1
48
1
60
0
100
AcDbLine
10
11.245801
20
-13.181498
30
0
11
11.247355
21
-13.270546
31
0
39
0
210
0
220
0
230
1
0
LINE
5
6D
100
AcDbEntity
8
1
62
256
6
ByLayer
370
-1
48
1
60
0
100
AcDbLine
10
0.528766
20
12.409674
30
0
11
4.61028
21
12.409674
31
0
39
0
210
0
220
0
230
1
0
LINE
5
6E
100
AcDbEntity
8
1
62
256
6
ByLayer
370
-1
48
1
60
0
100
AcDbLine
10
16.208744
20
-15.601495
30
0
11
16.218789
21
-16.17696
31
0
39
0
210
0
220
0
230
1
0
LINE
5
6F
100
AcDbEntity
8
1
62
256
6
ByLayer
370
-1
48
1
60
0
100
AcDbLine
10
5.05
20
12.5
30
0
11
5.057692
21
12.409903
31
0
39
0
210
0
220
0
230
1
0
LINE
5
70
100
AcDbEntity
8
1
62
256
6
ByLayer
370
-1
48
1
60
0
100
AcDbLine
10
19.327678
20
-5.930127
30
0
11
19.327678
21
-6.5036
31
0
39
0
210
0
220
0
230
1
0
LINE
5
71
100
AcDbEntity
8
1
62
256
6
ByLayer
370
-1
48
1
60
0
100
AcDbLine
10
11.037932
20
-12.789251
30
0
11
11.039486
21
-12.878299
31
0
39
0
210
0
220
0
230
1
0
LINE
5
72
100
AcDbEntity
8
1
62
256
6
ByLayer
370
-1
48
1
60
0
100
AcDbLine
10
12.961054
20
-13.608951
30
0
11
12.962608
21
-13.697996
31
0
39
0
210
0
220
0
230
1
0
LINE
5
73
100
AcDbEntity
8
1
62
256
6
ByLayer
370
-1
48
1
60
0
100
AcDbLine
10
17.220148
20
-16.246075
30
0
11
17.209405
21
-15.630632
31
0
39
0
210
0
220
0
230
1
0
LINE
5
74
100
AcDbEntity
8
1
62
256
6
ByLayer
370
-1
48
1
60
0
100
AcDbLine
10
11.142795
20
-13.010144
30
0
11
11.144349
21
-13.099192
31
0
39
0
210
0
220
0
230
1
0
LINE
5
75
100
AcDbEntity
8
1
62
256
6
ByLayer
370
-1
48
1
60
0
100
AcDbLine
10
11.144349
20
-13.099192
30
0
11
11.247355
21
-13.270546
31
0
39
0
210
0
220
0
230
1
0
LINE
5
76
100
AcDbEntity
8
1
62
256
6
ByLayer
370
-1
48
1
60
0
100
AcDbLine
10
16.208744
20
-15.601495
30
0
11
16.208744
21
-15.601492
31
0
39
0
210
0
220
0
230
1
0
LINE
5
77
100
AcDbEntity
8
1
62
256
6
ByLayer
370
-1
48
1
60
0
100
AcDbLine
10
4.61028
20
12.409674
30
0
11
4.744195
21
12.5
31
0
39
0
210
0
220
0
230
1
0
LINE
5
78
100
AcDbEntity
8
1
62
256
6
ByLayer
370
-1
48
1
60
0
100
AcDbLine
10
12.962608
20
-13.697999
30
0
11
12.855177
21
-13.762522
31
0
39
0
210
0
220
0
230
1
0
LINE
5
79
100
AcDbEntity
8
1
62
256
6
ByLayer
370
-1
48
1
60
0
100
AcDbLine
10
0.528766
20
12.409674
30
0
11
0.528766
21
-12.409674
31
0
39
0
210
0
220
0
230
1
0
LINE
5
7A
100
AcDbEntity
8
1
62
256
6
ByLayer
370
-1
48
1
60
0
100
AcDbLine
10
4.61028
20
-12.409674
30
0
11
0.528766
21
-12.409674
31
0
39
0
210
0
220
0
230
1
0
LINE
5
7B
100
AcDbEntity
8
1
62
256
6
ByLayer
370
-1
48
1
60
0
100
AcDbLine
10
7.123101
20
-12.450467
30
0
11
5.004009
21
12.36053
31
0
39
0
210
0
220
0
230
1
0
LINE
5
7C
100
AcDbEntity
8
SK1
62
256
6
ByLayer
370
-1
48
1
60
0
100
AcDbLine
10
-0.221234
20
11.653862
30
0
11
-0.221234
21
-11.653862
31
0
39
0
210
0
220
0
230
1
0
LINE
5
7D
100
AcDbEntity
8
SK1
62
256
6
ByLayer
370
-1
48
1
60
0
100
AcDbLine
10
0
20
11.876887
30
0
11
0
21
-11.876887
31
0
39
0
210
0
220
0
230
1
0
LINE
5
7E
100
AcDbEntity
8
1
62
256
6
ByLayer
370
-1
48
1
60
0
100
AcDbLine
10
19.410714
20
-16.850264
30
0
11
10.993668
21
-12.186791
31
0
39
0
210
0
220
0
230
1
0
LINE
5
7F
100
AcDbEntity
8
1
62
256
6
ByLayer
370
-1
48
1
60
0
100
AcDbLine
10
19.832059
20
-6.878524
30
0
11
19.99994
21
-16.496379
31
0
39
0
210
0
220
0
230
1
0
LINE
5
80
100
AcDbEntity
8
1
62
256
6
ByLayer
370
-1
48
1
60
0
100
AcDbLine
10
10.981676
20
-11.499801
30
0
11
19.230842
21
-6.545418
31
0
39
0
210
0
220
0
230
1
0
LINE
5
81
100
AcDbEntity
8
1
62
256
6
ByLayer
370
-1
48
1
60
0
100
AcDbLine
10
17.643634
20
-11.876666
30
0
11
17.644125
21
-11.9048
31
0
39
0
210
0
220
0
230
1
0
LINE
5
82
100
AcDbEntity
8
1
62
256
6
ByLayer
370
-1
48
1
60
0
100
AcDbLine
10
16.086171
20
-12.099354
30
0
11
16.085731
21
-12.074171
31
0
39
0
210
0
220
0
230
1
0
LINE
5
83
100
AcDbEntity
8
1
62
256
6
ByLayer
370
-1
48
1
60
0
100
AcDbLine
10
17.332297
20
-11.013339
30
0
11
17.332788
21
-11.041462
31
0
39
0
210
0
220
0
230
1
0
LINE
5
84
100
AcDbEntity
8
1
62
256
6
ByLayer
370
-1
48
1
60
0
100
AcDbLine
10
17.051697
20
-12.576213
30
0
11
17.052188
21
-12.604346
31
0
39
0
210
0
220
0
230
1
0
LINE
5
85
100
AcDbEntity
8
1
62
256
6
ByLayer
370
-1
48
1
60
0
100
AcDbLine
10
16.114796
20
-12.122521
30
0
11
16.115235
21
-12.147704
31
0
39
0
210
0
220
0
230
1
0
LINE
5
86
100
AcDbEntity
8
1
62
256
6
ByLayer
370
-1
48
1
60
0
100
AcDbLine
10
16.124814
20
-11.034311
30
0
11
16.125305
21
-11.062445
31
0
39
0
210
0
220
0
230
1
0
LINE
5
87
100
AcDbEntity
8
1
62
256
6
ByLayer
370
-1
48
1
60
0
100
AcDbLine
10
16.461291
20
-12.586772
30
0
11
16.461782
21
-12.614905
31
0
39
0
210
0
220
0
230
1
0
LINE
5
88
100
AcDbEntity
8
1
62
256
6
ByLayer
370
-1
48
1
60
0
100
AcDbLine
10
15.844841
20
-11.906693
30
0
11
15.845332
21
-11.934817
31
0
39
0
210
0
220
0
230
1
0
LINE
5
89
100
AcDbEntity
8
2
62
256
6
ByLayer
370
-1
48
1
60
1
100
AcDbLine
10
20
20
0
30
0
11
20.001
21
0.001
31
0
39
0
210
0
220
0
230
1
0
MTEXT
5
DE
100
AcDbEntity
8
SK6
62
256
6
ByLayer
370
-1
48
1
60
0
100
AcDbMText
10
10.875
20
19.027987
30
0
210
0
220
0
230
1
1
\W00.712;\fsimplex.shx,bigfont.shx;570-STFCL-25-11-B1 
40
3.5
41
0
44
1.084337
50
0
71
7
72
5
7
DEFAULT
0
DIMENSION
5
112
100
AcDbEntity
8
SK2
62
256
6
ByLayer
370
-3
48
1
60
0
100
AcDbDimension
2
DimnDraft3D1
10
-9.75
20
-12.5
30
0
11
-9.75
21
-4.784211
31
0
70
32
71
5
72
1
41
1
210
0
220
0
230
1
3
Standard
100
AcDbAlignedDimension
13
-2
23
12.5
33
0
14
-2
24
-12.5
34
0
50
90
100
AcDbRotatedDimension
1001
ACAD
1000
DSTYLE
1002
{
1070
    74
1070
     0
1070
   279
1070
     0
1070
   172
1070
     1
1070
   173
1070
     1
1070
   340
1005
DF
1070
    77
1070
     1
1070
    73
1070
     0
1070
   171
1070
     4
1070
   274
1070
     4
1070
   177
1070
     2
1070
   176
1070
     2
1070
   178
1070
     7
1070
    78
1070
     8
1070
    41
1041
3.175
1070
   147
1041
2.25
1070
    42
1041
2.0
1070
    44
1041
2.0
1070
   140
1041
4.5
1070
   343
1005
113
1070
   344
1005
113
1002
}
0
DIMENSION
5
127
100
AcDbEntity
8
2
62
256
6
ByLayer
370
-3
48
1
60
0
100
AcDbDimension
2
DimnDraft3D2
10
32.25
20
-16.9
30
0
11
32.25
21
-13.050658
31
0
70
32
71
5
72
1
41
1
210
0
220
0
230
1
3
Standard
100
AcDbAlignedDimension
13
22
23
0
33
0
14
22
24
-16.9
34
0
50
90
100
AcDbRotatedDimension
1001
ACAD
1000
DSTYLE
1002
{
1070
    74
1070
     0
1070
   279
1070
     0
1070
   172
1070
     1
1070
   173
1070
     1
1070
   340
1005
DF
1070
    77
1070
     1
1070
    73
1070
     0
1070
   171
1070
     4
1070
   274
1070
     4
1070
   177
1070
     2
1070
   176
1070
     2
1070
   178
1070
     7
1070
    78
1070
     8
1070
    41
1041
3.175
1070
   147
1041
2.25
1070
    42
1041
2.0
1070
    44
1041
2.0
1070
   140
1041
4.5
1070
   343
1005
113
1070
   344
1005
113
1002
}
0
DIMENSION
5
135
100
AcDbEntity
8
2
62
256
6
ByLayer
370
-3
48
1
60
0
100
AcDbDimension
2
DimnDraft3D3
10
20
20
-34.15
30
0
11
4.836842
21
-34.15
31
0
70
32
71
5
72
1
41
1
210
0
220
0
230
1
3
Standard
100
AcDbAlignedDimension
13
0
23
-14.5
33
0
14
20
24
-18.9
34
0
50
0
100
AcDbRotatedDimension
1001
ACAD
1000
DSTYLE
1002
{
1070
   279
1070
     0
1070
   172
1070
     1
1070
   173
1070
     1
1070
   340
1005
DF
1070
    77
1070
     1
1070
    73
1070
     0
1070
   171
1070
     4
1070
   274
1070
     4
1070
   177
1070
     2
1070
   176
1070
     2
1070
   178
1070
     7
1070
    78
1070
     8
1070
    41
1041
3.175
1070
   147
1041
2.25
1070
    42
1041
2.0
1070
    44
1041
2.0
1070
   140
1041
4.5
1070
   343
1005
113
1070
   344
1005
113
1002
}
0
DIMENSION
5
143
100
AcDbEntity
8
2
62
256
6
ByLayer
370
-3
48
1
60
0
100
AcDbDimension
2
DimnDraft3D4
10
59.631416
20
0
30
0
11
43.722072
21
32.727109
31
0
70
34
71
5
72
1
41
1
210
0
220
0
230
1
3
Standard
100
AcDb2LineAngularDimension
13
19.773119
23
-3.90198
33
0
14
19.008198
24
39.920326
34
0
15
22
25
0
35
0
16
49.442071
26
30.260654
36
0
40
0
0
ENDSEC
0
SECTION
2
OBJECTS
0
DICTIONARY
5
174
330
0
100
AcDbDictionary
280
0
281
1
3
ACAD_GROUP
350
175
3
ACAD_MLINESTYLE
350
176
0
DICTIONARY
5
175
330
0
100
AcDbDictionary
280
0
281
1
0
DICTIONARY
5
176
330
0
100
AcDbDictionary
280
0
281
1
3
Standard
350
18
0
MLINESTYLE
5
18
330
176
100
AcDbMlineStyle
2
Standard
70
0
3

62
256
51
90
52
90
71
2
49
-0.5
62
256
6
ByLayer
49
0.5
62
256
6
ByLayer
0
RASTERVARIABLES
5
162
330

100
AcDbRasterVariables
90
0
70
1
71
1
72
1
0
ENDSEC
0
EOF
