0
SECTION
2
HEADER
9
$ACADVER
1
AC1015
9
$DWGCODEPAGE
3
ANSI_1252
9
$HANDSEED
5
176
9
$ANGBASE
50
0
9
$ANGDIR
70
0
9
$ATTMODE
70
1
9
$AUNITS
70
0
9
$AUPREC
70
0
9
$CECOLOR
62
256
9
$CELTSCALE
40
1
9
$CELTYPE
6
ByLayer
9
$CELWEIGHT
370
-1
9
$CLAYER
8
0
9
$CMLJUST
70
0
9
$CMLSCALE
40
1
9
$CMLSTYLE
2
Standard
9
$DIMSTYLE
2
Standard
9
$TEXTSIZE
40
0.2
9
$TEXTSTYLE
7
Standard
9
$LUNITS
70
2
9
$LUPREC
70
4
9
$EXTNAMES
290
1
9
$INSUNITS
70
4
9
$LTSCALE
40
1
9
$LWDISPLAY
290
0
9
$PDMODE
70
0
9
$PDSIZE
40
0
9
$PLINEGEN
70
0
0
ENDSEC
0
SECTION
2
CLASSES
0
CLASS
1
RASTERVARIABLES
2
AcDbRasterVariables
3
ISM
90
0
280
0
281
0
0
ENDSEC
0
SECTION
2
TABLES
0
TABLE
2
VPORT
5
16c
100
AcDbSymbolTable
0
VPORT
5
1
100
AcDbSymbolTableRecord
100
AcDbViewportTableRecord
2
*Active
70
0
10
0
20
0
11
1
21
1
12
-1
22
1
13
0
23
0
14
0.5
24
0.5
15
10
25
10
16
0
26
0
36
1
17
0
27
0
37
0
0
ENDTAB
0
TABLE
2
LTYPE
5
16d
100
AcDbSymbolTable
0
LTYPE
5
14
100
AcDbSymbolTableRecord
100
AcDbLinetypeTableRecord
70
0
2
ByBlock
3

72
65
73
0
40
0
0
LTYPE
5
15
100
AcDbSymbolTableRecord
100
AcDbLinetypeTableRecord
70
0
2
ByLayer
3

72
65
73
0
40
0
0
LTYPE
5
16
100
AcDbSymbolTableRecord
100
AcDbLinetypeTableRecord
70
0
2
CONTINUOUS
3
Solid line
72
65
73
0
40
0
0
LTYPE
5
3B
100
AcDbSymbolTableRecord
100
AcDbLinetypeTableRecord
70
0
2
DASHED
3
__ __ __ __ __ __ __ __ __
72
65
73
2
40
25.72
49
12.86
74
0
49
-12.86
74
0
0
LTYPE
5
3C
100
AcDbSymbolTableRecord
100
AcDbLinetypeTableRecord
70
0
2
HIDDEN
3
_ _ _ _ _ _ _ _ _ _ _ _ _ _ _
72
65
73
2
40
0.5
49
0.25
74
0
49
-0.25
74
0
0
LTYPE
5
3D
100
AcDbSymbolTableRecord
100
AcDbLinetypeTableRecord
70
0
2
PHANTOM
3
____ _ _ ____ _ _ _____ _ _ ____
72
65
73
6
40
50.5
49
18
74
0
49
-6.5
74
0
49
6.5
74
0
49
-6.5
74
0
49
6.5
74
0
49
-6.5
74
0
0
LTYPE
5
3E
100
AcDbSymbolTableRecord
100
AcDbLinetypeTableRecord
70
0
2
CENTER
3
____ _ ____ _ ____ _ ____
72
65
73
4
40
47.5
49
22
74
0
49
-8.5
74
0
49
8.5
74
0
49
-8.5
74
0
0
LTYPE
5
3F
100
AcDbSymbolTableRecord
100
AcDbLinetypeTableRecord
70
0
2
DOT
3
.........................
72
65
73
2
40
10
49
0
74
0
49
-10
74
0
0
LTYPE
5
40
100
AcDbSymbolTableRecord
100
AcDbLinetypeTableRecord
70
0
2
DASHDOT
3
_._._._._._._._._._._._._._._._.
72
65
73
4
40
70
49
31
74
0
49
-13
74
0
49
13
74
0
49
-13
74
0
0
ENDTAB
0
TABLE
2
LAYER
5
16e
100
AcDbSymbolTable
0
LAYER
5
10
100
AcDbSymbolTableRecord
100
AcDbLayerTableRecord
2
0
70
0
62
7
6
CONTINUOUS
290
1
370
-3
390
0
0
LAYER
5
42
100
AcDbSymbolTableRecord
100
AcDbLayerTableRecord
2
80
70
0
62
-6
6
CONTINUOUS
290
1
370
-3
390
0
0
LAYER
5
44
100
AcDbSymbolTableRecord
100
AcDbLayerTableRecord
2
81
70
0
62
-3
6
CONTINUOUS
290
1
370
-3
390
0
0
LAYER
5
46
100
AcDbSymbolTableRecord
100
AcDbLayerTableRecord
2
1
70
0
62
4
6
CONTINUOUS
290
1
370
-3
390
0
0
LAYER
5
48
100
AcDbSymbolTableRecord
100
AcDbLayerTableRecord
2
2
70
0
62
7
6
CONTINUOUS
290
1
370
-3
390
0
0
LAYER
5
58
100
AcDbSymbolTableRecord
100
AcDbLayerTableRecord
2
4
70
0
62
-2
6
CENTER
290
1
370
-3
390
0
0
LAYER
5
158
100
AcDbSymbolTableRecord
100
AcDbLayerTableRecord
2
SK1
70
0
62
4
6
CONTINUOUS
290
1
370
-3
390
0
0
LAYER
5
159
100
AcDbSymbolTableRecord
100
AcDbLayerTableRecord
2
SK4
70
0
62
2
6
CENTER
290
1
370
-3
390
0
0
LAYER
5
15a
100
AcDbSymbolTableRecord
100
AcDbLayerTableRecord
2
SK6
70
0
62
5
6
CONTINUOUS
290
1
370
-3
390
0
0
LAYER
5
15b
100
AcDbSymbolTableRecord
100
AcDbLayerTableRecord
2
SK2
70
0
62
7
6
CONTINUOUS
290
1
370
-3
390
0
0
ENDTAB
0
TABLE
2
STYLE
5
16f
100
AcDbSymbolTable
0
STYLE
5
11
100
AcDbSymbolTableRecord
100
AcDbTextStyleTableRecord
2
Standard
3
txt
70
0
71
0
40
0
41
1
42
0
50
0
0
STYLE
5
D4
100
AcDbSymbolTableRecord
100
AcDbTextStyleTableRecord
2
DEFAULT
3
simplex.shx
70
0
71
0
40
0
41
1
42
0
50
0
0
STYLE
5
F7
100
AcDbSymbolTableRecord
100
AcDbTextStyleTableRecord
2
DWGDirectTextStyle
3
SIMPLEX
70
0
71
0
40
0
41
1
42
0
50
0
0
ENDTAB
0
TABLE
2
DIMSTYLE
5
170
100
AcDbSymbolTable
100
AcDbDimStyleTable
0
DIMSTYLE
105
27
100
AcDbSymbolTableRecord
100
AcDbDimStyleTableRecord
2
Standard
70
0
3
<>
41
0.18
42
0.0625
44
0.18
140
0.18
147
0.09
73
0
74
0
77
1
271
2
275
0
278
52
280
0
340
11
0
ENDTAB
0
TABLE
2
VIEW
5
171
100
AcDbSymbolTable
0
ENDTAB
0
TABLE
2
UCS
5
172
100
AcDbSymbolTable
0
ENDTAB
0
TABLE
2
APPID
5
173
100
AcDbSymbolTable
0
APPID
5
12
100
AcDbSymbolTableRecord
100
AcDbRegAppTableRecord
2
ACAD
70
0
0
ENDTAB
0
TABLE
2
BLOCK_RECORD
5
174
100
AcDbSymbolTable
0
BLOCK_RECORD
5
1F
100
AcDbSymbolTableRecord
100
AcDbBlockTableRecord
2
*Model_Space
340
0
70
0
0
BLOCK_RECORD
5
1B
100
AcDbSymbolTableRecord
100
AcDbBlockTableRecord
2
*Paper_Space
340
0
70
0
0
BLOCK_RECORD
5
23
100
AcDbSymbolTableRecord
100
AcDbBlockTableRecord
2
*Paper_Space0
340
0
70
0
0
BLOCK_RECORD
5
F9
100
AcDbSymbolTableRecord
100
AcDbBlockTableRecord
2
DimnDraft3D1
340
0
70
0
0
BLOCK_RECORD
5
108
100
AcDbSymbolTableRecord
100
AcDbBlockTableRecord
2
_CLOSED
340
0
70
0
0
BLOCK_RECORD
5
10F
100
AcDbSymbolTableRecord
100
AcDbBlockTableRecord
2
DimnDraft3D2
340
0
70
0
0
BLOCK_RECORD
5
11D
100
AcDbSymbolTableRecord
100
AcDbBlockTableRecord
2
DimnDraft3D3
340
0
70
0
0
BLOCK_RECORD
5
12B
100
AcDbSymbolTableRecord
100
AcDbBlockTableRecord
2
DimnDraft3D4
340
0
70
0
0
ENDTAB
0
ENDSEC
0
SECTION
2
BLOCKS
0
BLOCK
5
20
100
AcDbEntity
8
0
100
AcDbBlockBegin
2
*Model_Space
70
0
10
0
20
0
30
0
3
*Model_Space
0
ENDBLK
5
21
100
AcDbEntity
8
0
100
AcDbBlockEnd
0
BLOCK
5
1C
100
AcDbEntity
8
0
100
AcDbBlockBegin
2
*Paper_Space
70
0
10
0
20
0
30
0
3
*Paper_Space
0
ENDBLK
5
1D
100
AcDbEntity
8
0
100
AcDbBlockEnd
0
BLOCK
5
24
100
AcDbEntity
8
0
100
AcDbBlockBegin
2
*Paper_Space0
70
0
10
0
20
0
30
0
3
*Paper_Space0
0
ENDBLK
5
25
100
AcDbEntity
8
0
100
AcDbBlockEnd
0
BLOCK
5
105
100
AcDbEntity
8
0
100
AcDbBlockBegin
2
DimnDraft3D1
70
0
10
0
20
0
30
0
3
DimnDraft3D1
0
MTEXT
5
FA
100
AcDbEntity
8
SK2
62
256
6
ByLayer
370
-1
48
1
60
0
100
AcDbMText
10
-10.875
20
-3.659211
30
0
210
0
220
0
230
1
1
\W01.000;\fsimplex.shx,bigfont.shx;%%c20 
40
4.5
41
0
44
1.084337
50
90
71
7
72
5
7
DEFAULT
0
LINE
5
FC
100
AcDbEntity
8
SK2
62
256
6
ByLayer
370
-1
48
1
60
0
100
AcDbLine
10
-2
20
10
30
0
11
-11.75
21
10
31
0
39
0
210
0
220
0
230
1
0
LINE
5
FD
100
AcDbEntity
8
SK2
62
256
6
ByLayer
370
-1
48
1
60
0
100
AcDbLine
10
-2
20
-10
30
0
11
-11.75
21
-10
31
0
39
0
210
0
220
0
230
1
0
LINE
5
FE
100
AcDbEntity
8
SK2
62
256
6
ByLayer
370
-1
48
1
60
0
100
AcDbLine
10
-9.75
20
10
30
0
11
-9.75
21
-10
31
0
39
0
210
0
220
0
230
1
0
LINE
5
FF
100
AcDbEntity
8
SK2
62
256
6
ByLayer
370
-1
48
1
60
0
100
AcDbLine
10
-9.75
20
10
30
0
11
-9.332003
21
6.825002
31
0
39
0
210
0
220
0
230
1
0
LINE
5
100
100
AcDbEntity
8
SK2
62
256
6
ByLayer
370
-1
48
1
60
0
100
AcDbLine
10
-9.75
20
10
30
0
11
-10.167997
21
6.824998
31
0
39
0
210
0
220
0
230
1
0
LINE
5
101
100
AcDbEntity
8
SK2
62
256
6
ByLayer
370
-1
48
1
60
0
100
AcDbLine
10
-9.332003
20
6.825002
30
0
11
-10.167997
21
6.824998
31
0
39
0
210
0
220
0
230
1
0
LINE
5
102
100
AcDbEntity
8
SK2
62
256
6
ByLayer
370
-1
48
1
60
0
100
AcDbLine
10
-9.75
20
-10
30
0
11
-10.167997
21
-6.825002
31
0
39
0
210
0
220
0
230
1
0
LINE
5
103
100
AcDbEntity
8
SK2
62
256
6
ByLayer
370
-1
48
1
60
0
100
AcDbLine
10
-9.75
20
-10
30
0
11
-9.332003
21
-6.824998
31
0
39
0
210
0
220
0
230
1
0
LINE
5
104
100
AcDbEntity
8
SK2
62
256
6
ByLayer
370
-1
48
1
60
0
100
AcDbLine
10
-10.167997
20
-6.825002
30
0
11
-9.332003
21
-6.824998
31
0
39
0
210
0
220
0
230
1
0
ENDBLK
5
106
100
AcDbEntity
8
0
100
AcDbBlockEnd
0
BLOCK
5
109
100
AcDbEntity
8
0
100
AcDbBlockBegin
2
_CLOSED
70
0
10
0
20
0
30
0
3
_CLOSED
0
LINE
5
10B
100
AcDbEntity
8
0
62
256
6
ByLayer
370
-2
48
1
60
0
100
AcDbLine
10
-1
20
0.166667
30
0
11
0
21
0
31
0
39
0
210
0
220
0
230
1
0
LINE
5
10C
100
AcDbEntity
8
0
62
256
6
ByLayer
370
-2
48
1
60
0
100
AcDbLine
10
0
20
0
30
0
11
-1
21
-0.166667
31
0
39
0
210
0
220
0
230
1
0
LINE
5
10D
100
AcDbEntity
8
0
62
256
6
ByLayer
370
-2
48
1
60
0
100
AcDbLine
10
-1
20
0.166667
30
0
11
-1
21
-0.166667
31
0
39
0
210
0
220
0
230
1
0
LINE
5
10E
100
AcDbEntity
8
0
62
256
6
ByLayer
370
-2
48
1
60
0
100
AcDbLine
10
0
20
0
30
0
11
-1
21
0
31
0
39
0
210
0
220
0
230
1
0
ENDBLK
5
10A
100
AcDbEntity
8
0
100
AcDbBlockEnd
0
BLOCK
5
11A
100
AcDbEntity
8
0
100
AcDbBlockBegin
2
DimnDraft3D2
70
0
10
0
20
0
30
0
3
DimnDraft3D2
0
MTEXT
5
110
100
AcDbEntity
8
2
62
256
6
ByLayer
370
-1
48
1
60
0
100
AcDbMText
10
31.125
20
-31.231316
30
0
210
0
220
0
230
1
1
\W01.000;\fsimplex.shx,bigfont.shx;13.0 
40
4.5
41
0
44
1.084337
50
90
71
7
72
5
7
DEFAULT
0
LINE
5
111
100
AcDbEntity
8
2
62
256
6
ByLayer
370
-1
48
1
60
0
100
AcDbLine
10
22
20
0
30
0
11
34.25
21
0
31
0
39
0
210
0
220
0
230
1
0
LINE
5
112
100
AcDbEntity
8
2
62
256
6
ByLayer
370
-1
48
1
60
0
100
AcDbLine
10
22
20
-12.9
30
0
11
34.25
21
-12.9
31
0
39
0
210
0
220
0
230
1
0
LINE
5
113
100
AcDbEntity
8
2
62
256
6
ByLayer
370
-1
48
1
60
0
100
AcDbLine
10
32.25
20
0
30
0
11
32.25
21
-32.356316
31
0
39
0
210
0
220
0
230
1
0
LINE
5
114
100
AcDbEntity
8
2
62
256
6
ByLayer
370
-1
48
1
60
0
100
AcDbLine
10
32.25
20
0
30
0
11
32.667997
21
-3.174998
31
0
39
0
210
0
220
0
230
1
0
LINE
5
115
100
AcDbEntity
8
2
62
256
6
ByLayer
370
-1
48
1
60
0
100
AcDbLine
10
32.25
20
0
30
0
11
31.832003
21
-3.175002
31
0
39
0
210
0
220
0
230
1
0
LINE
5
116
100
AcDbEntity
8
2
62
256
6
ByLayer
370
-1
48
1
60
0
100
AcDbLine
10
32.667997
20
-3.174998
30
0
11
31.832003
21
-3.175002
31
0
39
0
210
0
220
0
230
1
0
LINE
5
117
100
AcDbEntity
8
2
62
256
6
ByLayer
370
-1
48
1
60
0
100
AcDbLine
10
32.25
20
-12.9
30
0
11
31.832003
21
-9.725002
31
0
39
0
210
0
220
0
230
1
0
LINE
5
118
100
AcDbEntity
8
2
62
256
6
ByLayer
370
-1
48
1
60
0
100
AcDbLine
10
32.25
20
-12.9
30
0
11
32.667997
21
-9.724998
31
0
39
0
210
0
220
0
230
1
0
LINE
5
119
100
AcDbEntity
8
2
62
256
6
ByLayer
370
-1
48
1
60
0
100
AcDbLine
10
31.832003
20
-9.725002
30
0
11
32.667997
21
-9.724998
31
0
39
0
210
0
220
0
230
1
0
ENDBLK
5
11B
100
AcDbEntity
8
0
100
AcDbBlockEnd
0
BLOCK
5
128
100
AcDbEntity
8
0
100
AcDbBlockBegin
2
DimnDraft3D3
70
0
10
0
20
0
30
0
3
DimnDraft3D3
0
MTEXT
5
11E
100
AcDbEntity
8
2
62
256
6
ByLayer
370
-1
48
1
60
0
100
AcDbMText
10
5.961842
20
-29.025
30
0
210
0
220
0
230
1
1
\W01.000;\fsimplex.shx,bigfont.shx;20.0 
40
4.5
41
0
44
1.084337
50
0
71
7
72
5
7
DEFAULT
0
LINE
5
11F
100
AcDbEntity
8
2
62
256
6
ByLayer
370
-1
48
1
60
0
100
AcDbLine
10
0
20
-12
30
0
11
0
21
-32.15
31
0
39
0
210
0
220
0
230
1
0
LINE
5
120
100
AcDbEntity
8
2
62
256
6
ByLayer
370
-1
48
1
60
0
100
AcDbLine
10
20
20
-14.9
30
0
11
20
21
-32.15
31
0
39
0
210
0
220
0
230
1
0
LINE
5
121
100
AcDbEntity
8
2
62
256
6
ByLayer
370
-1
48
1
60
0
100
AcDbLine
10
-11.25
20
-30.15
30
0
11
31.25
21
-30.15
31
0
39
0
210
0
220
0
230
1
0
LINE
5
122
100
AcDbEntity
8
2
62
256
6
ByLayer
370
-1
48
1
60
0
100
AcDbLine
10
0
20
-30.15
30
0
11
-3.174998
21
-30.567997
31
0
39
0
210
0
220
0
230
1
0
LINE
5
123
100
AcDbEntity
8
2
62
256
6
ByLayer
370
-1
48
1
60
0
100
AcDbLine
10
0
20
-30.15
30
0
11
-3.175002
21
-29.732003
31
0
39
0
210
0
220
0
230
1
0
LINE
5
124
100
AcDbEntity
8
2
62
256
6
ByLayer
370
-1
48
1
60
0
100
AcDbLine
10
-3.174998
20
-30.567997
30
0
11
-3.175002
21
-29.732003
31
0
39
0
210
0
220
0
230
1
0
LINE
5
125
100
AcDbEntity
8
2
62
256
6
ByLayer
370
-1
48
1
60
0
100
AcDbLine
10
20
20
-30.15
30
0
11
23.174998
21
-29.732003
31
0
39
0
210
0
220
0
230
1
0
LINE
5
126
100
AcDbEntity
8
2
62
256
6
ByLayer
370
-1
48
1
60
0
100
AcDbLine
10
20
20
-30.15
30
0
11
23.175002
21
-30.567997
31
0
39
0
210
0
220
0
230
1
0
LINE
5
127
100
AcDbEntity
8
2
62
256
6
ByLayer
370
-1
48
1
60
0
100
AcDbLine
10
23.174998
20
-29.732003
30
0
11
23.175002
21
-30.567997
31
0
39
0
210
0
220
0
230
1
0
ENDBLK
5
129
100
AcDbEntity
8
0
100
AcDbBlockEnd
0
BLOCK
5
136
100
AcDbEntity
8
0
100
AcDbBlockBegin
2
DimnDraft3D4
70
0
10
0
20
0
30
0
3
DimnDraft3D4
0
MTEXT
5
12C
100
AcDbEntity
8
2
62
256
6
ByLayer
370
-1
48
1
60
0
100
AcDbMText
10
42.399802
20
31.938034
30
0
210
0
220
0
230
1
1
\W01.000;\fsimplex.shx,bigfont.shx;93%%d0' 
40
4.5
41
0
44
1.084337
50
316.5
71
7
72
5
7
DEFAULT
0
LINE
5
12D
100
AcDbEntity
8
2
62
256
6
ByLayer
370
-1
48
1
60
0
100
AcDbLine
10
19.528976
20
-3.912334
30
0
11
17.234353
21
39.871689
31
0
39
0
210
0
220
0
230
1
0
LINE
5
12E
100
AcDbEntity
8
2
62
256
6
ByLayer
370
-1
48
1
60
0
100
AcDbLine
10
22
20
0
30
0
11
59.250346
21
0
31
0
39
0
210
0
220
0
230
1
0
ARC
5
12F
100
AcDbEntity
8
2
62
256
6
ByLayer
370
-1
48
1
60
0
100
AcDbCircle
39
0
10
19.32394
20
0
30
0
40
37.9264068640928
210
0
220
0
230
1
100
AcDbArc
50
0
51
93
0
LINE
5
130
100
AcDbEntity
8
2
62
256
6
ByLayer
370
-1
48
1
60
0
100
AcDbLine
10
17.339025
20
37.87443
30
0
11
20.499313
21
38.392036
31
0
39
0
210
0
220
0
230
1
0
LINE
5
131
100
AcDbEntity
8
2
62
256
6
ByLayer
370
-1
48
1
60
0
100
AcDbLine
10
17.339025
20
37.87443
30
0
11
20.525598
21
37.556456
31
0
39
0
210
0
220
0
230
1
0
LINE
5
132
100
AcDbEntity
8
2
62
256
6
ByLayer
370
-1
48
1
60
0
100
AcDbLine
10
20.499313
20
38.392036
30
0
11
20.525598
21
37.556456
31
0
39
0
210
0
220
0
230
1
0
LINE
5
133
100
AcDbEntity
8
2
62
256
6
ByLayer
370
-1
48
1
60
0
100
AcDbLine
10
57.250347
20
0
30
0
11
56.766036
21
3.165562
31
0
39
0
210
0
220
0
230
1
0
LINE
5
134
100
AcDbEntity
8
2
62
256
6
ByLayer
370
-1
48
1
60
0
100
AcDbLine
10
57.250347
20
0
30
0
11
57.601847
21
3.183049
31
0
39
0
210
0
220
0
230
1
0
LINE
5
135
100
AcDbEntity
8
2
62
256
6
ByLayer
370
-1
48
1
60
0
100
AcDbLine
10
56.766036
20
3.165562
30
0
11
57.601847
21
3.183049
31
0
39
0
210
0
220
0
230
1
0
ENDBLK
5
137
100
AcDbEntity
8
0
100
AcDbBlockEnd
0
ENDSEC
0
SECTION
2
ENTITIES
0
ARC
5
82
100
AcDbEntity
8
1
62
256
6
ByLayer
370
-1
48
1
60
0
100
AcDbCircle
39
0
10
-13.648129
20
-11.791065
30
0
40
2.99999999999764
210
0
220
0
230
-1
100
AcDbArc
50
45.107396
51
80.194195
0
ARC
5
83
100
AcDbEntity
8
1
62
256
6
ByLayer
370
-1
48
1
60
0
100
AcDbCircle
39
0
10
-15.163911
20
-1.785728
30
0
40
4.31897344999995
210
0
220
0
230
-1
100
AcDbArc
50
90
51
177
0
ARC
5
84
100
AcDbEntity
8
1
62
256
6
ByLayer
370
-1
48
1
60
0
100
AcDbCircle
39
0
10
-13.033906
20
10.533245
30
0
40
8.00000000000047
210
0
220
0
230
-1
100
AcDbArc
50
270
51
323.963395
0
ARC
5
85
100
AcDbEntity
8
1
62
256
6
ByLayer
370
-1
48
1
60
0
100
AcDbCircle
39
0
10
-13.033906
20
10.533245
30
0
40
8
210
0
220
0
230
-1
100
AcDbArc
50
348.010114
51
355
0
ELLIPSE
5
86
100
AcDbEntity
8
1
62
256
6
ByLayer
370
-1
48
1
60
0
100
AcDbEllipse
10
13.6839
20
-2.182516
30
0
11
-0.0422555352139459
21
-1.04914940296594
31
0
210
0
220
0
230
1
40
0.994475
41
-1.34378175389212
42
-0.458578230631685
0
ELLIPSE
5
87
100
AcDbEntity
8
1
62
256
6
ByLayer
370
-1
48
1
60
0
100
AcDbEllipse
10
13.550065
20
-3.247652
30
0
11
0.050304208588028
21
1.24898738448326
31
0
210
0
220
0
230
1
40
0.994475
41
0.841065355036654
42
2.62385310187687
0
ELLIPSE
5
88
100
AcDbEntity
8
1
62
256
6
ByLayer
370
-1
48
1
60
0
100
AcDbEllipse
10
13.45839
20
-2.173433
30
0
11
0.0422555352139436
21
1.04914940296594
31
0
210
0
220
0
230
1
40
0.994475
41
-1.63188889902267
42
-1.2886478756064
0
ELLIPSE
5
89
100
AcDbEntity
8
1
62
256
6
ByLayer
370
-1
48
1
60
0
100
AcDbEllipse
10
13.715367
20
-2.183783
30
0
11
-0.0422555352139459
21
-1.04914940296594
31
0
210
0
220
0
230
1
40
0.994475
41
-1.53076379857417
42
-0.494234592697758
0
ELLIPSE
5
8A
100
AcDbEntity
8
1
62
256
6
ByLayer
370
-1
48
1
60
0
100
AcDbEllipse
10
13.715367
20
-2.183783
30
0
11
-0.0422555352139459
21
-1.04914940296594
31
0
210
0
220
0
230
1
40
0.994475
41
-2.98738352408511
42
-1.53076475096354
0
ELLIPSE
5
8B
100
AcDbEntity
8
1
62
256
6
ByLayer
370
-1
48
1
60
0
100
AcDbEllipse
10
22.243483
20
-6.717385
30
0
11
1.46776942817734
21
2.61641975169852
31
0
210
0
220
0
230
-1
40
1
41
-1.58730619838725
42
-1.54437618535043
0
ELLIPSE
5
8C
100
AcDbEntity
8
1
62
256
6
ByLayer
370
-1
48
1
60
0
100
AcDbEllipse
10
5.870303
20
0
30
0
11
0.874845468907006
21
-9.99999997245218
31
0
210
0
220
0
230
-1
40
0.000849
41
-3.01619057381146
42
-0.125253582557897
0
ELLIPSE
5
8D
100
AcDbEntity
8
1
62
256
6
ByLayer
370
-1
48
1
60
0
100
AcDbEllipse
10
13.255911
20
-3.235805
30
0
11
1.25525907080451
21
0.0652203747733608
31
0
210
0
220
0
230
-1
40
0.994422
41
2.18121521233021
42
-2.31918234800913
0
ELLIPSE
5
8E
100
AcDbEntity
8
1
62
256
6
ByLayer
370
-1
48
1
60
0
100
AcDbEllipse
10
13.391856
20
-2.170754
30
0
11
1.05441761947579
21
0.0547851148104725
31
0
210
0
220
0
230
-1
40
0.994422
41
3.00725741451022
42
-0.227325580192507
0
ELLIPSE
5
8F
100
AcDbEntity
8
1
62
256
6
ByLayer
370
-1
48
1
60
0
100
AcDbEllipse
10
22.243483
20
-6.717385
30
0
11
2.67968686328963
21
-1.34880637401919
31
0
210
0
220
0
230
-1
40
1
41
3.10505806600132
42
-3.11318533117668
0
ELLIPSE
5
90
100
AcDbEntity
8
1
62
256
6
ByLayer
370
-1
48
1
60
0
100
AcDbEllipse
10
13.648129
20
-11.791066
30
0
11
0.481233086773777
21
-2.96115223753016
31
0
210
0
220
0
230
-1
40
1
41
3.13155605687646
42
-3.12720327514544
0
ELLIPSE
5
91
100
AcDbEntity
8
1
62
256
6
ByLayer
370
-1
48
1
60
0
100
AcDbEllipse
10
13.648129
20
-11.791065
30
0
11
-1.83690953273503E-16
21
3.00000000326875
31
0
210
0
220
0
230
-1
40
1
41
-0.146717607721442
42
-0.0552819411053319
0
ELLIPSE
5
92
100
AcDbEntity
8
1
62
256
6
ByLayer
370
-1
48
1
60
0
100
AcDbEllipse
10
19.605314
20
-12.503129
30
0
11
-0.0159715862266997
21
-0.396553494573435
31
0
210
0
220
0
230
1
40
0.994475
41
-0.517739551712918
42
1.66392201327999
0
ELLIPSE
5
93
100
AcDbEntity
8
1
62
256
6
ByLayer
370
-1
48
1
60
0
100
AcDbEllipse
10
13.52879
20
-2.139667
30
0
11
-0.0159715862266997
21
-0.396553494573435
31
0
210
0
220
0
230
1
40
0.994475
41
2.62385310187688
42
-1.4776706403098
0
ELLIPSE
5
94
100
AcDbEntity
8
1
62
256
6
ByLayer
370
-1
48
1
60
0
100
AcDbEllipse
10
16.649643
20
-7.324724
30
0
11
0.0724949902601076
21
1.79995532808482
31
0
210
0
220
0
230
1
40
0.994475
41
0
42
6.28318530717959
0
ELLIPSE
5
95
100
AcDbEntity
8
1
62
256
6
ByLayer
370
-1
48
1
60
0
100
AcDbEllipse
10
13.883764
20
-8.912978
30
0
11
-0.0159715862266997
21
-0.396553494573434
31
0
210
0
220
0
230
1
40
0.994475
41
-1.47767064030981
42
-0.517739551712921
0
ELLIPSE
5
96
100
AcDbEntity
8
1
62
256
6
ByLayer
370
-1
48
1
60
0
100
AcDbEllipse
10
16.567052
20
-7.321398
30
0
11
0.0766511159555375
21
1.90314646671162
31
0
210
0
220
0
230
1
40
0.994475
41
0
42
6.28318530717959
0
ELLIPSE
5
97
100
AcDbEntity
8
1
62
256
6
ByLayer
370
-1
48
1
60
0
100
AcDbEllipse
10
16.623429
20
-7.323669
30
0
11
-0.0757066942043821
21
-1.87969771588264
31
0
210
0
220
0
230
1
40
0.994475
41
-1.53076447429855
42
-9.49503057644056E-16
0
ELLIPSE
5
98
100
AcDbEntity
8
1
62
256
6
ByLayer
370
-1
48
1
60
0
100
AcDbEllipse
10
16.623429
20
-7.323669
30
0
11
-0.0757066942043821
21
-1.87969771588264
31
0
210
0
220
0
230
1
40
0.994475
41
0
42
0.426448225018692
0
ELLIPSE
5
99
100
AcDbEntity
8
1
62
256
6
ByLayer
370
-1
48
1
60
0
100
AcDbEllipse
10
16.623429
20
-7.323669
30
0
11
-0.0757066942043821
21
-1.87969771588264
31
0
210
0
220
0
230
1
40
0.994475
41
2.71509804113785
42
-1.53076447429855
0
ELLIPSE
5
9A
100
AcDbEntity
8
1
62
256
6
ByLayer
370
-1
48
1
60
0
100
AcDbEllipse
10
19.25034
20
-5.729818
30
0
11
-0.0159715862266997
21
-0.396553494573434
31
0
210
0
220
0
230
1
40
0.994475
41
1.66392201327998
42
2.62385310187687
0
ELLIPSE
5
9B
100
AcDbEntity
8
1
62
256
6
ByLayer
370
-1
48
1
60
0
100
AcDbEllipse
10
16.673334
20
-7.325678
30
0
11
0.0301020384190759
21
0.747394050874781
31
0
210
0
220
0
230
1
40
0.994475
41
1.09626101655188
42
2.10615620566131
0
ELLIPSE
5
9C
100
AcDbEntity
8
1
62
256
6
ByLayer
370
-1
48
1
60
0
100
AcDbEllipse
10
16.257926
20
-8.06614
30
0
11
0.00744502287102813
21
0.184850132903522
31
0
210
0
220
0
230
1
40
0.994475
41
1.36680135768649
42
2.8825373025764
0
ELLIPSE
5
9D
100
AcDbEntity
8
1
62
256
6
ByLayer
370
-1
48
1
60
0
100
AcDbEllipse
10
16.673334
20
-7.325678
30
0
11
0.0301020384190759
21
0.747394050874781
31
0
210
0
220
0
230
1
40
0.994475
41
2.18161890949557
42
3.05184881969683
0
ELLIPSE
5
9E
100
AcDbEntity
8
1
62
256
6
ByLayer
370
-1
48
1
60
0
100
AcDbEllipse
10
15.82805
20
-7.33299
30
0
11
0.00744502287102813
21
0.184850132903522
31
0
210
0
220
0
230
1
40
0.994475
41
0.321361288699393
42
2.92097375747036
0
ELLIPSE
5
9F
100
AcDbEntity
8
1
62
256
6
ByLayer
370
-1
48
1
60
0
100
AcDbEllipse
10
16.244096
20
-6.593617
30
0
11
0.00744502287102813
21
0.184850132903522
31
0
210
0
220
0
230
1
40
0.994475
41
0.295061858027853
42
1.87116074440435
0
ELLIPSE
5
A0
100
AcDbEntity
8
1
62
256
6
ByLayer
370
-1
48
1
60
0
100
AcDbEllipse
10
16.586688
20
-7.322189
30
0
11
-0.0694198078514824
21
-1.7236025905869
31
0
210
0
220
0
230
1
40
0.994475
41
0
42
6.28318530717959
0
ELLIPSE
5
A1
100
AcDbEntity
8
1
62
256
6
ByLayer
370
-1
48
1
60
0
100
AcDbEllipse
10
16.673334
20
-7.325678
30
0
11
0.0301020384190759
21
0.747394050874781
31
0
210
0
220
0
230
1
40
0.994475
41
-1.81879984075144
42
-1.20126485784255
0
ELLIPSE
5
A2
100
AcDbEntity
8
1
62
256
6
ByLayer
370
-1
48
1
60
0
100
AcDbEllipse
10
16.585825
20
-7.322154
30
0
11
-0.0301020384190775
21
-0.74739405087478
31
0
210
0
220
0
230
1
40
0.994475
41
2.10615620566147
42
2.18161890949539
0
ELLIPSE
5
A3
100
AcDbEntity
8
1
62
256
6
ByLayer
370
-1
48
1
60
0
100
AcDbEllipse
10
15.672224
20
-7.919482
30
0
11
0.0169827008193182
21
0.421658141001548
31
0
210
0
220
0
230
1
40
0.994475
41
-1.77479129590331
42
-1.06461841832767
0
ELLIPSE
5
A4
100
AcDbEntity
8
1
62
256
6
ByLayer
370
-1
48
1
60
0
100
AcDbEllipse
10
16.673334
20
-7.325678
30
0
11
0.0301020384190759
21
0.747394050874781
31
0
210
0
220
0
230
1
40
0.994475
41
-0.699041807651127
42
0.0499214450151838
0
ELLIPSE
5
A5
100
AcDbEntity
8
1
62
256
6
ByLayer
370
-1
48
1
60
0
100
AcDbEllipse
10
16.673334
20
-7.325678
30
0
11
0.0301020384190759
21
0.747394050874781
31
0
210
0
220
0
230
1
40
0.994475
41
0.211238154369724
42
1.09626101655188
0
ELLIPSE
5
A6
100
AcDbEntity
8
1
62
256
6
ByLayer
370
-1
48
1
60
0
100
AcDbEllipse
10
16.662845
20
-7.325256
30
0
11
-0.0694198078514824
21
-1.7236025905869
31
0
210
0
220
0
230
1
40
0.994475
41
0
42
3.14149466192764
0
ELLIPSE
5
A7
100
AcDbEntity
8
1
62
256
6
ByLayer
370
-1
48
1
60
0
100
AcDbEllipse
10
16.568445
20
-7.321454
30
0
11
-0.0416518847108895
21
-1.03416155435214
31
0
210
0
220
0
230
1
40
0.994475
41
-1.52216185126956
42
-0.47324834075315
0
ELLIPSE
5
A8
100
AcDbEntity
8
1
62
256
6
ByLayer
370
-1
48
1
60
0
100
AcDbEllipse
10
16.684322
20
-8.495611
30
0
11
0.0169827008193182
21
0.421658141001548
31
0
210
0
220
0
230
1
40
0.994475
41
-0.724978282837267
42
-1.09179941134616E-05
0
ELLIPSE
5
A9
100
AcDbEntity
8
1
62
256
6
ByLayer
370
-1
48
1
60
0
100
AcDbEllipse
10
17.088741
20
-6.585217
30
0
11
0.00744502287102813
21
0.184850132903522
31
0
210
0
220
0
230
1
40
0.994475
41
0.276342212085309
42
0.824821172867655
0
ELLIPSE
5
AA
100
AcDbEntity
8
1
62
256
6
ByLayer
370
-1
48
1
60
0
100
AcDbEllipse
10
16.568445
20
-7.321454
30
0
11
-0.0416518847108895
21
-1.03416155435214
31
0
210
0
220
0
230
1
40
0.994475
41
-2.56850142280626
42
-1.52216185126956
0
ELLIPSE
5
AB
100
AcDbEntity
8
1
62
256
6
ByLayer
370
-1
48
1
60
0
100
AcDbEllipse
10
15.672224
20
-7.919482
30
0
11
0.0169827008193182
21
0.421658141001548
31
0
210
0
220
0
230
1
40
0.994475
41
-0.93079177369505
42
-0.220618896119383
0
ELLIPSE
5
AC
100
AcDbEntity
8
1
62
256
6
ByLayer
370
-1
48
1
60
0
100
AcDbEllipse
10
16.568445
20
-7.321454
30
0
11
-0.0523163769315515
21
-1.29894687986258
31
0
210
0
220
0
230
1
40
0.994475
41
0
42
6.28318530717959
0
ELLIPSE
5
AD
100
AcDbEntity
8
1
62
256
6
ByLayer
370
-1
48
1
60
0
100
AcDbEllipse
10
16.662346
20
-6.155746
30
0
11
0.0169827008193182
21
0.421658141001548
31
0
210
0
220
0
230
1
40
0.994475
41
3.14158205704114
42
-3.0916712085746
0
ELLIPSE
5
AE
100
AcDbEntity
8
1
62
256
6
ByLayer
370
-1
48
1
60
0
100
AcDbEllipse
10
15.660715
20
-6.749858
30
0
11
0.0169827008193182
21
0.421658141001548
31
0
210
0
220
0
230
1
40
0.994475
41
-2.82023136489037
42
-2.04533163703791
0
ELLIPSE
5
AF
100
AcDbEntity
8
1
62
256
6
ByLayer
370
-1
48
1
60
0
100
AcDbEllipse
10
16.673334
20
-7.325678
30
0
11
0.0301020384190759
21
0.747394050874781
31
0
210
0
220
0
230
1
40
0.994475
41
-3.0916712085746
42
-2.33660645887236
0
ELLIPSE
5
B0
100
AcDbEntity
8
1
62
256
6
ByLayer
370
-1
48
1
60
0
100
AcDbEllipse
10
16.568445
20
-7.321454
30
0
11
-0.0416518847108895
21
-1.03416155435214
31
0
210
0
220
0
230
1
40
0.994475
41
1.61943080232023
42
2.66834431283663
0
ELLIPSE
5
B1
100
AcDbEntity
8
1
62
256
6
ByLayer
370
-1
48
1
60
0
100
AcDbEllipse
10
16.568445
20
-7.321454
30
0
11
-0.0416518847108895
21
-1.03416155435214
31
0
210
0
220
0
230
1
40
0.994475
41
2.66834431283663
42
-2.56850142280626
0
ELLIPSE
5
B2
100
AcDbEntity
8
1
62
256
6
ByLayer
370
-1
48
1
60
0
100
AcDbEllipse
10
17.102572
20
-8.05774
30
0
11
0.00744502287102813
21
0.184850132903522
31
0
210
0
220
0
230
1
40
0.994475
41
2.41661437075252
42
2.86100122890646
0
ELLIPSE
5
B3
100
AcDbEntity
8
1
62
256
6
ByLayer
370
-1
48
1
60
0
100
AcDbEllipse
10
16.568445
20
-7.321454
30
0
11
-0.0416518847108895
21
-1.03416155435214
31
0
210
0
220
0
230
1
40
0.994475
41
0.573091230783539
42
1.61943080232023
0
ELLIPSE
5
B4
100
AcDbEntity
8
1
62
256
6
ByLayer
370
-1
48
1
60
0
100
AcDbEllipse
10
16.568445
20
-7.321454
30
0
11
-0.0416518847108895
21
-1.03416155435214
31
0
210
0
220
0
230
1
40
0.994475
41
-0.47324834075315
42
0.573091230783539
0
ELLIPSE
5
B5
100
AcDbEntity
8
1
62
256
6
ByLayer
370
-1
48
1
60
0
100
AcDbEllipse
10
16.585825
20
-7.322154
30
0
11
-0.0301020384190775
21
-0.74739405087478
31
0
210
0
220
0
230
1
40
0.994475
41
-1.03543644792847
42
-0.95997374409424
0
ELLIPSE
5
B6
100
AcDbEntity
8
1
62
256
6
ByLayer
370
-1
48
1
60
0
100
AcDbEllipse
10
15.660715
20
-6.749858
30
0
11
0.0169827008193182
21
0.421658141001548
31
0
210
0
220
0
230
1
40
0.994475
41
-2.04533163703791
42
-1.27043190918545
0
ELLIPSE
5
B7
100
AcDbEntity
8
1
62
256
6
ByLayer
370
-1
48
1
60
0
100
AcDbEllipse
10
16.673334
20
-7.325678
30
0
11
-0.0301020384190775
21
-0.747394050874782
31
0
210
0
220
0
230
1
40
0.994475
41
-1.03543644792848
42
-0.95997374409423
0
POINT
5
41
100
AcDbEntity
8
80
62
256
6
ByLayer
370
-1
48
1
60
0
100
AcDbPoint
10
0
20
0
30
0
39
0
210
0
220
0
230
1
50
360
0
POINT
5
43
100
AcDbEntity
8
81
62
256
6
ByLayer
370
-1
48
1
60
0
100
AcDbPoint
10
20
20
-12.9
30
0
39
0
210
0
220
0
230
1
50
360
0
POINT
5
45
100
AcDbEntity
8
1
62
256
6
ByLayer
370
-1
48
1
60
0
100
AcDbPoint
10
0
20
0
30
0
39
0
210
0
220
0
230
1
50
360
0
POINT
5
47
100
AcDbEntity
8
2
62
256
6
ByLayer
370
-1
48
1
60
0
100
AcDbPoint
10
20
20
12.9
30
0
39
0
210
0
220
0
230
1
50
360
0
POINT
5
49
100
AcDbEntity
8
2
62
256
6
ByLayer
370
-1
48
1
60
0
100
AcDbPoint
10
20.020394
20
11.928918
30
0
39
0
210
0
220
0
230
1
50
360
0
SPLINE
5
B8
100
AcDbEntity
8
SK1
62
256
6
ByLayer
370
-1
48
1
60
0
100
AcDbSpline
70
4
71
3
72
10
73
6
40
0
40
0
40
0
40
0
40
0.287359130097091
40
0.287359130097091
40
1
40
1
40
1
40
1
41
1
10
0
20
-9.38838503059796
30
0
41
1
10
-0.0211934723860736
20
-9.36700453378339
30
0
41
1
10
-0.0423863087543737
20
-9.34562340649504
30
0
41
1
10
-0.116134392156425
20
-9.27121557904593
30
0
41
1
10
-0.168686297013096
20
-9.21818556599345
30
0
41
1
10
-0.221233999999981
20
-9.16515138991167
30
0
0
SPLINE
5
B9
100
AcDbEntity
8
SK1
62
256
6
ByLayer
370
-1
48
1
60
0
100
AcDbSpline
70
4
71
3
72
8
73
4
40
0
40
0
40
0
40
0
40
1
40
1
40
1
40
1
41
1
10
-0.221234122599981
20
9.16515126617668
30
0
41
1
10
-0.147497495411869
20
9.23957052807882
30
0
41
1
10
-0.0737525966162593
20
9.31398159503544
30
0
41
1
10
0
20
9.38838503059796
30
0
0
SPLINE
5
BA
100
AcDbEntity
8
1
62
256
6
ByLayer
370
-1
48
1
60
0
100
AcDbSpline
70
4
71
3
72
8
73
4
40
0
40
0
40
0
40
0
40
1
40
1
40
1
40
1
41
1
10
0.528766000000019
20
-9.92156741649222
30
0
41
1
10
0.352471271478066
20
-9.74387903206528
30
0
41
1
10
0.176213710550201
20
-9.56615376091634
30
0
41
1
10
0
20
-9.38838503059796
30
0
0
SPLINE
5
BB
100
AcDbEntity
8
1
62
256
6
ByLayer
370
-1
48
1
60
0
100
AcDbSpline
70
4
71
3
72
10
73
6
40
0
40
0
40
0
40
0
40
0.0002053836017318
40
0.0002053836017318
40
1
40
1
40
1
40
1
41
1
10
5.59255664076527
20
7.5961849760078
30
0
41
1
10
5.59255627604648
20
7.59618590723292
30
0
41
1
10
5.5925559093456
20
7.59618683767873
30
0
41
1
10
5.59193930000816
20
7.59774908287088
30
0
41
1
10
5.68764856364027
20
7.3232829956896
30
0
41
1
10
5.90219159167407
20
6.90571849232697
30
0
0
SPLINE
5
BC
100
AcDbEntity
8
1
62
256
6
ByLayer
370
-1
48
1
60
0
100
AcDbSpline
70
4
71
3
72
8
73
4
40
0
40
0
40
0
40
0
40
1
40
1
40
1
40
1
41
1
10
6.50355099591303
20
5.91710688634436
30
0
41
1
10
6.53114272267226
20
5.87857080349693
30
0
41
1
10
6.55931129172558
20
5.8399339396843
30
0
41
1
10
6.58803529909869
20
5.8012410956685
30
0
0
SPLINE
5
BD
100
AcDbEntity
8
1
62
256
6
ByLayer
370
-1
48
1
60
0
100
AcDbSpline
70
4
71
3
72
8
73
4
40
0
40
0
40
0
40
0
40
1
40
1
40
1
40
1
41
1
10
5.20843148918135
20
8.87133308682604
30
0
41
1
10
5.43936930445017
20
7.78391221235984
30
0
41
1
10
5.88502391624587
20
6.76117095882523
30
0
41
1
10
6.56477530463167
20
5.82682930382177
30
0
0
SPLINE
5
BE
100
AcDbEntity
8
1
62
256
6
ByLayer
370
-1
48
1
60
0
100
AcDbSpline
70
4
71
3
72
10
73
6
40
0
40
0
40
0
40
0
40
0.392211551443032
40
0.392211551443032
40
1
40
1
40
1
40
1
41
1
10
0
20
9.38838503059796
30
0
41
1
10
0.0691130509072195
20
9.45810797820428
30
0
41
1
10
0.138232863071948
20
9.52782422426597
30
0
41
1
10
0.314479954031867
20
9.70555986215828
30
0
41
1
10
0.421616097465858
20
9.81357046597407
30
0
41
1
10
0.528766000000019
20
9.92156741649222
30
0
0
SPLINE
5
BF
100
AcDbEntity
8
1
62
256
6
ByLayer
370
-1
48
1
60
0
100
AcDbSpline
70
4
71
3
72
18
73
14
40
0
40
0
40
0
40
0
40
0.212802823312553
40
0.212802823312553
40
0.388507058160915
40
0.388507058160915
40
0.565856345089301
40
0.565856345089301
40
0.720792079767043
40
0.720792079767043
40
0.926920511972763
40
0.926920511972763
40
1
40
1
40
1
40
1
41
1
10
16.8610248329884
20
-6.45038681964135
30
0
41
1
10
16.8329225711289
20
-6.48103763034888
30
0
41
1
10
16.7989091256042
20
-6.50794617004706
30
0
41
1
10
16.7281099926458
20
-6.54571304033149
30
0
41
1
10
16.6919837567816
20
-6.55888915905513
30
0
41
1
10
16.6156070808223
20
-6.57409856452725
30
0
41
1
10
16.5741582713569
20
-6.57613896101356
30
0
41
1
10
16.4985633072944
20
-6.56881156894073
30
0
41
1
10
16.4632602583247
20
-6.56082080763207
30
0
41
1
10
16.3866784470451
20
-6.53394349808829
30
0
41
1
10
16.3459189108333
20
-6.51200552907051
30
0
41
1
10
16.2975717701423
20
-6.47658199847626
30
0
41
1
10
16.2853798332345
20
-6.46665119153948
30
0
41
1
10
16.2738083129492
20
-6.45622634614438
30
0
0
SPLINE
5
C0
100
AcDbEntity
8
1
62
256
6
ByLayer
370
-1
48
1
60
0
100
AcDbSpline
70
4
71
3
72
14
73
10
40
0
40
0
40
0
40
0
40
0.283347342615983
40
0.283347342615983
40
0.570707822454113
40
0.570707822454113
40
0.831087537365595
40
0.831087537365595
40
1
40
1
40
1
40
1
41
1
10
17.1826121929471
20
-8.00618370716714
30
0
41
1
10
17.186859090338
20
-8.02650254906516
30
0
41
1
10
17.1877840033134
20
-8.04841567053901
30
0
41
1
10
17.1819404927592
20
-8.09226813342806
30
0
41
1
10
17.1749334210624
20
-8.11487865408569
30
0
41
1
10
17.1541883719531
20
-8.15444592361803
30
0
41
1
10
17.140799293639
20
-8.17231369621891
30
0
41
1
10
17.1147140012596
20
-8.19697186430963
30
0
41
1
10
17.1032399177184
20
-8.20564913518905
30
0
41
1
10
17.0911055757692
20
-8.2128465627855
30
0
0
SPLINE
5
C1
100
AcDbEntity
8
1
62
256
6
ByLayer
370
-1
48
1
60
0
100
AcDbSpline
70
4
71
3
72
18
73
14
40
0
40
0
40
0
40
0
40
0.208409438990313
40
0.208409438990313
40
0.384884219243144
40
0.384884219243144
40
0.563055589874857
40
0.563055589874857
40
0.718142867564761
40
0.718142867564761
40
0.923493438434687
40
0.923493438434687
40
1
40
1
40
1
40
1
41
1
10
17.1826121929471
20
-8.00618370716714
30
0
41
1
10
17.1740790276617
20
-7.96535765926402
30
0
41
1
10
17.1712748040532
20
-7.92151689963049
30
0
41
1
10
17.1785751127208
20
-7.83925536956622
30
0
41
1
10
17.1869393747064
20
-7.80009973755841
30
0
41
1
10
17.2138804597682
20
-7.72449878620156
30
0
41
1
10
17.2330439031441
20
-7.68699947681873
30
0
41
1
10
17.2759561356384
20
-7.62508048685942
30
0
41
1
10
17.2992676065238
20
-7.59882637735208
30
0
41
1
10
17.3567414559829
20
-7.54741195636166
30
0
41
1
10
17.3928918702618
20
-7.52435923041878
30
0
41
1
10
17.443614519534
20
-7.5018303073023
30
0
41
1
10
17.4576897987703
20
-7.49655188381072
30
0
41
1
10
17.4718563056862
20
-7.49215475032071
30
0
0
SPLINE
5
C2
100
AcDbEntity
8
1
62
256
6
ByLayer
370
-1
48
1
60
0
100
AcDbSpline
70
4
71
3
72
18
73
14
40
0
40
0
40
0
40
0
40
0.213027699314157
40
0.213027699314157
40
0.388694676822897
40
0.388694676822897
40
0.566004100063894
40
0.566004100063894
40
0.720933942020746
40
0.720933942020746
40
0.927104034597785
40
0.927104034597785
40
1
40
1
40
1
40
1
41
1
10
15.9685338411317
20
-6.63729845678287
30
0
41
1
10
15.981934889311
20
-6.67921961798379
30
0
41
1
10
15.9890761603456
20
-6.72430021655489
30
0
41
1
10
15.9875684254016
20
-6.80772637795434
30
0
41
1
10
15.9813405212627
20
-6.84680279202044
30
0
41
1
10
15.9567619537335
20
-6.92206447554733
30
0
41
1
10
15.9378131009217
20
-6.95928782067909
30
0
41
1
10
15.8932619511154
20
-7.02072320399196
30
0
41
1
10
15.8683251251628
20
-7.04674906966025
30
0
41
1
10
15.8056475212002
20
-7.09774310185202
30
0
41
1
10
15.7654290012802
20
-7.12051784655918
30
0
41
1
10
15.7093920880358
20
-7.14227964493364
30
0
41
1
10
15.6944023993338
20
-7.14720395537697
30
0
41
1
10
15.6792897283888
20
-7.15132741363024
30
0
0
SPLINE
5
C3
100
AcDbEntity
8
1
62
256
6
ByLayer
370
-1
48
1
60
0
100
AcDbSpline
70
4
71
3
72
18
73
14
40
0
40
0
40
0
40
0
40
0.206521837427077
40
0.206521837427077
40
0.383315371911807
40
0.383315371911807
40
0.561827276098351
40
0.561827276098351
40
0.716972542173016
40
0.716972542173016
40
0.921980527585967
40
0.921980527585967
40
1
40
1
40
1
40
1
41
1
10
16.2901212010902
20
-8.19309534430852
30
0
41
1
10
16.321929493326
20
-8.16353191807335
30
0
41
1
10
16.3590256109854
20
-8.13749490296152
30
0
41
1
10
16.4347672734504
20
-8.0998525130214
30
0
41
1
10
16.4733228345935
20
-8.08636905741767
30
0
41
1
10
16.5527271062917
20
-8.07052990166707
30
0
41
1
10
16.5947785151676
20
-8.06816306098813
30
0
41
1
10
16.6692936518003
20
-8.07496356259725
30
0
41
1
10
16.7031959126831
20
-8.08269046328795
30
0
41
1
10
16.7749376705364
20
-8.10888703525058
30
0
41
1
10
16.8118530748346
20
-8.13032303766815
30
0
41
1
10
16.8553487949988
20
-8.16570462008701
30
0
41
1
10
16.8667196228268
20
-8.17620032678931
30
0
41
1
10
16.8773377211295
20
-8.18725581780544
30
0
0
SPLINE
5
C4
100
AcDbEntity
8
1
62
256
6
ByLayer
370
-1
48
1
60
0
100
AcDbSpline
70
4
71
3
72
16
73
12
40
0
40
0
40
0
40
0
40
0.0887542575459008
40
0.0887542575459008
40
0.403627853376921
40
0.403627853376921
40
0.684677781239584
40
0.684677781239584
40
0.932898461439982
40
0.932898461439982
40
1
40
1
40
1
40
1
41
1
10
16.2901212010919
20
-8.19309534430977
30
0
41
1
10
16.2850890171783
20
-8.19777238251191
30
0
41
1
10
16.2797816046084
20
-8.20222667760424
30
0
41
1
10
16.2547240481771
20
-8.22113657588662
30
0
41
1
10
16.2316414110188
20
-8.23282604888396
30
0
41
1
10
16.1851644859547
20
-8.24581767363995
30
0
41
1
10
16.1613305011097
20
-8.24825523413242
30
0
41
1
10
16.1174608451419
20
-8.24451182121149
30
0
41
1
10
16.0966684832082
20
-8.23922138226936
30
0
41
1
10
16.0725895515892
20
-8.22841648065875
30
0
41
1
10
16.0675339915481
20
-8.2258570688947
30
0
41
1
10
16.0626253900093
20
-8.22307419960714
30
0
0
SPLINE
5
C5
100
AcDbEntity
8
1
62
256
6
ByLayer
370
-1
48
1
60
0
100
AcDbSpline
70
4
71
3
72
16
73
12
40
0
40
0
40
0
40
0
40
0.0602560514167984
40
0.0602560514167984
40
0.284913440069236
40
0.284913440069236
40
0.512177561678442
40
0.512177561678442
40
0.75370124613188
40
0.75370124613188
40
1
40
1
40
1
40
1
41
1
10
17.5977020843003
20
-7.31255071111397
30
0
41
1
10
17.5977432466321
20
-7.31762488046869
30
0
41
1
10
17.5975867274295
20
-7.32270650393045
30
0
41
1
10
17.595927874559
20
-7.34648931022184
30
0
41
1
10
17.5918311542383
20
-7.3651901269964
30
0
41
1
10
17.578876111298
20
-7.39980235996461
30
0
41
1
10
17.569811265385
20
-7.41612534145233
30
0
41
1
10
17.5476468671198
20
-7.44534769032924
30
0
41
1
10
17.5340671731877
20
-7.45834673413975
30
0
41
1
10
17.5046034807884
20
-7.47911658782999
30
0
41
1
10
17.4883677906892
20
-7.48702976050501
30
0
41
1
10
17.4718563056862
20
-7.49215475032071
30
0
0
SPLINE
5
C6
100
AcDbEntity
8
1
62
256
6
ByLayer
370
-1
48
1
60
0
100
AcDbSpline
70
4
71
3
72
16
73
12
40
0
40
0
40
0
40
0
40
0.161403499649435
40
0.161403499649435
40
0.385096258815163
40
0.385096258815163
40
0.61689139262628
40
0.61689139262628
40
0.867339290861035
40
0.867339290861035
40
1
40
1
40
1
40
1
41
1
10
16.0626253900093
20
-8.22307419960714
30
0
41
1
10
16.0509015496872
20
-8.2164275172666
30
0
41
1
10
16.0399077757564
20
-8.20842006809195
30
0
41
1
10
16.0165230263729
20
-8.18694161007926
30
0
41
1
10
16.0049537022796
20
-8.17225507183881
30
0
41
1
10
15.9870063045975
20
-8.1403728123087
30
0
41
1
10
15.9805895783067
20
-8.12271220023692
30
0
41
1
10
15.9732915342793
20
-8.08580900320493
30
0
41
1
10
15.9727846248208
20
-8.06609646536864
30
0
41
1
10
15.9765816626929
20
-8.03711304441538
30
0
41
1
10
15.9787513679599
20
-8.02715919179911
30
0
41
1
10
15.9816911160511
20
-8.01750562957068
30
0
0
SPLINE
5
C7
100
AcDbEntity
8
1
62
256
6
ByLayer
370
-1
48
1
60
0
100
AcDbSpline
70
4
71
3
72
14
73
10
40
0
40
0
40
0
40
0
40
0.239009557526588
40
0.239009557526588
40
0.531916200186639
40
0.531916200186639
40
0.79683312457473
40
0.79683312457473
40
1
40
1
40
1
40
1
41
1
10
16.8610248329882
20
-6.45038681964121
30
0
41
1
10
16.8725853483942
20
-6.43777789972003
30
0
41
1
10
16.8863244996945
20
-6.42671200147478
30
0
41
1
10
16.9203060599768
20
-6.40738862389398
30
0
41
1
10
16.9419115609601
20
-6.40006141111633
30
0
41
1
10
16.9847890924717
20
-6.39482194348295
30
0
41
1
10
17.0065536047373
20
-6.39603765008761
30
0
41
1
10
17.0435561618482
20
-6.40513107356219
30
0
41
1
10
17.0595218855762
20
-6.41147518325312
30
0
41
1
10
17.0742653786387
20
-6.4198338193556
30
0
0
SPLINE
5
C8
100
AcDbEntity
8
1
62
256
6
ByLayer
370
-1
48
1
60
0
100
AcDbSpline
70
4
71
3
72
18
73
14
40
0
40
0
40
0
40
0
40
0.0093921349336463
40
0.0093921349336463
40
0.235375400467785
40
0.235375400467785
40
0.461039617927931
40
0.461039617927931
40
0.698582363507937
40
0.698582363507937
40
0.957759089077822
40
0.957759089077822
40
1
40
1
40
1
40
1
41
1
10
15.5391886843477
20
-7.33035730784877
30
0
41
1
10
15.5391822328223
20
-7.32956201440939
30
0
41
1
10
15.5391811368457
20
-7.32876666687099
30
0
41
1
10
15.5392865450653
20
-7.30908593621925
30
0
41
1
10
15.5425078520639
20
-7.28997583239655
30
0
41
1
10
15.5544705274941
20
-7.25444189114432
30
0
41
1
10
15.5633447909598
20
-7.23755459328098
30
0
41
1
10
15.5857409885451
20
-7.2070582713703
30
0
41
1
10
15.599748146866
20
-7.19327468139164
30
0
41
1
10
15.6318070558024
20
-7.1698946431153
30
0
41
1
10
15.6504993088668
20
-7.1604828430446
30
0
41
1
10
15.6728953883495
20
-7.15315742285205
30
0
41
1
10
15.6760847039731
20
-7.15220189732852
30
0
41
1
10
15.6792897283888
20
-7.15132741363024
30
0
0
SPLINE
5
C9
100
AcDbEntity
8
1
62
256
6
ByLayer
370
-1
48
1
60
0
100
AcDbSpline
70
4
71
3
72
14
73
10
40
0
40
0
40
0
40
0
40
0.0488818986665588
40
0.0488818986665588
40
0.385921440155736
40
0.385921440155736
40
0.833200037306894
40
0.833200037306894
40
1
40
1
40
1
40
1
41
1
10
15.9596955712789
20
-7.72629286218546
30
0
41
1
10
15.961979561426
20
-7.73092596199109
30
0
41
1
10
15.9641678743777
20
-7.73559850942132
30
0
41
1
10
15.9805437175769
20
-7.77245941110891
30
0
41
1
10
15.990249503903
20
-7.80647612788405
30
0
41
1
10
16.0019158842513
20
-7.88422781579865
30
0
41
1
10
16.0006770809526
20
-7.92882508973608
30
0
41
1
10
15.9901357217618
20
-7.9866697304472
30
0
41
1
10
15.9863336547498
20
-8.00226043344014
30
0
41
1
10
15.9816911160511
20
-8.01750562957068
30
0
0
SPLINE
5
CA
100
AcDbEntity
8
1
62
256
6
ByLayer
370
-1
48
1
60
0
100
AcDbSpline
70
4
71
3
72
18
73
14
40
0
40
0
40
0
40
0
40
0.0343914485951472
40
0.0343914485951472
40
0.259003927910616
40
0.259003927910616
40
0.484752308910073
40
0.484752308910073
40
0.723531307205741
40
0.723531307205741
40
0.984779404697612
40
0.984779404697612
40
1
40
1
40
1
40
1
41
1
10
17.0742653786387
20
-6.4198338193556
30
0
41
1
10
17.076787357138
20
-6.42126362302861
30
0
41
1
10
17.0792799920297
20
-6.42275398734074
30
0
41
1
10
17.097635205608
20
-6.43431146050264
30
0
41
1
10
17.1122916833061
20
-6.44695386217489
30
0
41
1
10
17.136945642948
20
-6.47536086068982
30
0
41
1
10
17.1472444873645
20
-6.49149497695703
30
0
41
1
10
17.163029447664
20
-6.5258881968721
30
0
41
1
10
17.1684189022823
20
-6.54463983329353
30
0
41
1
10
17.1738518130601
20
-6.5832668679862
30
0
41
1
10
17.1734346982564
20
-6.60356493124004
30
0
41
1
10
17.1699426636591
20
-6.62374444808378
30
0
41
1
10
17.1697384609592
20
-6.62486369269419
30
0
41
1
10
17.1695244246979
20
-6.62597933382938
30
0
0
SPLINE
5
CB
100
AcDbEntity
8
1
62
256
6
ByLayer
370
-1
48
1
60
0
100
AcDbSpline
70
4
71
3
72
14
73
10
40
0
40
0
40
0
40
0
40
0.277176515642549
40
0.277176515642549
40
0.564748435685719
40
0.564748435685719
40
0.825209990538882
40
0.825209990538882
40
1
40
1
40
1
40
1
41
1
10
17.4683835422728
20
-7.1356810410833
30
0
41
1
10
17.4871236331401
20
-7.1409626758645
30
0
41
1
10
17.5056120738544
20
-7.1498358814595
30
0
41
1
10
17.5394928956643
20
-7.17457136548794
30
0
41
1
10
17.5552484621855
20
-7.19110553442542
30
0
41
1
10
17.5787269053563
20
-7.22771632517606
30
0
41
1
10
17.5873910382293
20
-7.24788594369437
30
0
41
1
10
17.5957747070758
20
-7.28305651560876
30
0
41
1
10
17.5975828743574
20
-7.29785544454791
30
0
41
1
10
17.5977020843003
20
-7.31255071111397
30
0
0
SPLINE
5
CC
100
AcDbEntity
8
1
62
256
6
ByLayer
370
-1
48
1
60
0
100
AcDbSpline
70
4
71
3
72
12
73
8
40
0
40
0
40
0
40
0
40
0.459496129967845
40
0.459496129967845
40
0.841729974379312
40
0.841729974379312
40
1
40
1
40
1
40
1
41
1
10
15.6828319984774
20
-7.50780392231704
30
0
41
1
10
15.7264817324833
20
-7.51898133462549
30
0
41
1
10
15.7696696404175
20
-7.53697417230219
30
0
41
1
10
15.8422804596185
20
-7.58236187683849
30
0
41
1
10
15.8735529208213
20
-7.60826527789985
30
0
41
1
10
15.9113312147316
20
-7.65067836037892
30
0
41
1
10
15.9217202618701
20
-7.66390140278696
30
0
41
1
10
15.9311978600921
20
-7.67769025583843
30
0
0
SPLINE
5
CD
100
AcDbEntity
8
1
62
256
6
ByLayer
370
-1
48
1
60
0
100
AcDbSpline
70
4
71
3
72
16
73
12
40
0
40
0
40
0
40
0
40
0.0661457927730608
40
0.0661457927730608
40
0.290585255843214
40
0.290585255843214
40
0.517963206482564
40
0.517963206482564
40
0.759863782011358
40
0.759863782011358
40
1
40
1
40
1
40
1
41
1
10
17.0911055757692
20
-8.2128465627855
30
0
41
1
10
17.0863334375638
20
-8.21567713401527
30
0
41
1
10
17.0814405044662
20
-8.21829442310323
30
0
41
1
10
17.0596841615198
20
-8.22872071077347
30
0
41
1
10
17.0416355012962
20
-8.23418513729101
30
0
41
1
10
17.0057186721833
20
-8.23936720713036
30
0
41
1
10
16.9874002804908
20
-8.23908944107987
30
0
41
1
10
16.9518435629111
20
-8.23310801445942
30
0
41
1
10
16.934299776731
20
-8.22700386029709
30
0
41
1
10
16.9031454428162
20
-8.21028757721672
30
0
41
1
10
16.8891613198635
20
-8.19956646759022
30
0
41
1
10
16.8773377211294
20
-8.18725581780558
30
0
0
SPLINE
5
CE
100
AcDbEntity
8
1
62
256
6
ByLayer
370
-1
48
1
60
0
100
AcDbSpline
70
4
71
3
72
14
73
10
40
0
40
0
40
0
40
0
40
0.205690335316484
40
0.205690335316484
40
0.502158211970956
40
0.502158211970956
40
0.770111315217373
40
0.770111315217373
40
1
40
1
40
1
40
1
41
1
10
15.6828319984768
20
-7.50780392231815
30
0
41
1
10
15.6672468707419
20
-7.50381302976092
30
0
41
1
10
15.6519033617698
20
-7.49787614605293
30
0
41
1
10
15.6168072835422
20
-7.47891045544347
30
0
41
1
10
15.5975110534679
20
-7.46350844221422
30
0
41
1
10
15.5678539086171
20
-7.42826361511894
30
0
41
1
10
15.5563919602887
20
-7.40842323029619
30
0
41
1
10
15.542767958944
20
-7.36921594432002
30
0
41
1
10
15.5393452875553
20
-7.34966212274585
30
0
41
1
10
15.5391886843477
20
-7.33035730784877
30
0
0
SPLINE
5
CF
100
AcDbEntity
8
1
62
256
6
ByLayer
370
-1
48
1
60
0
100
AcDbSpline
70
4
71
3
72
12
73
8
40
0
40
0
40
0
40
0
40
0.41747830057422
40
0.41747830057422
40
0.806984306609951
40
0.806984306609951
40
1
40
1
40
1
40
1
41
1
10
17.4683835422727
20
-7.13568104108373
30
0
41
1
10
17.4329357144226
20
-7.12569056228531
30
0
41
1
10
17.3977018429445
20
-7.11009291365423
30
0
41
1
10
17.3335247204236
20
-7.06905254496044
30
0
41
1
10
17.3036080775665
20
-7.04376395805434
30
0
41
1
10
17.2641066517915
20
-6.99934026149148
30
0
41
1
10
17.2517381919232
20
-6.98340074185259
30
0
41
1
10
17.2404528170687
20
-6.96661775299606
30
0
0
SPLINE
5
D0
100
AcDbEntity
8
1
62
256
6
ByLayer
370
-1
48
1
60
0
100
AcDbSpline
70
4
71
3
72
14
73
10
40
0
40
0
40
0
40
0
40
0.0222565882460788
40
0.0222565882460788
40
0.361110005524724
40
0.361110005524724
40
0.801309289967508
40
0.801309289967508
40
1
40
1
40
1
40
1
41
1
10
17.211955105882
20
-6.9180151466492
30
0
41
1
10
17.2108827570968
20
-6.91589943099083
30
0
41
1
10
17.2098266633091
20
-6.91377550805831
30
0
41
1
10
17.1931366919483
20
-6.87955524897063
30
0
41
1
10
17.1811883963313
20
-6.84538523293543
30
0
41
1
10
17.1633809437954
20
-6.76796672276345
30
0
41
1
10
17.159984068421
20
-6.7237668184834
30
0
41
1
10
17.1636579799152
20
-6.6629442485021
30
0
41
1
10
17.1660260048642
20
-6.64421447328945
30
0
41
1
10
17.1695244246979
20
-6.62597933382938
30
0
0
SPLINE
5
D1
100
AcDbEntity
8
1
62
256
6
ByLayer
370
-1
48
1
60
0
100
AcDbSpline
70
4
71
3
72
16
73
12
40
0
40
0
40
0
40
0
40
0.0554595924826292
40
0.0554595924826292
40
0.280213848015765
40
0.280213848015765
40
0.50730385698661
40
0.50730385698661
40
0.748433665663003
40
0.748433665663003
40
1
40
1
40
1
40
1
41
1
10
16.0457851928788
20
-6.43006145617724
30
0
41
1
10
16.0497882784473
20
-6.42768704488552
30
0
41
1
10
16.0538932660562
20
-6.42546368467794
30
0
41
1
10
16.0749123600746
20
-6.41511309646398
30
0
41
1
10
16.0933594290365
20
-6.40939220576195
30
0
41
1
10
16.1306339066569
20
-6.40374498473312
30
0
41
1
10
16.1499358844952
20
-6.40379304063845
30
0
41
1
10
16.1879794525038
20
-6.40933993468158
30
0
41
1
10
16.2070918936358
20
-6.41522533098083
30
0
41
1
10
16.2426591502031
20
-6.43198307895918
30
0
41
1
10
16.25938284989
20
-6.44323036822286
30
0
41
1
10
16.2738083129492
20
-6.45622634614438
30
0
0
SPLINE
5
D2
100
AcDbEntity
8
1
62
256
6
ByLayer
370
-1
48
1
60
0
100
AcDbSpline
70
4
71
3
72
14
73
10
40
0
40
0
40
0
40
0
40
0.268433430325796
40
0.268433430325796
40
0.557661215359484
40
0.557661215359484
40
0.819539774996406
40
0.819539774996406
40
1
40
1
40
1
40
1
41
1
10
15.9685338411317
20
-6.63729845678287
30
0
41
1
10
15.9623514886438
20
-6.6179588206758
30
0
41
1
10
15.9592490780995
20
-6.59721169504132
30
0
41
1
10
15.9604026183987
20
-6.55424150199377
30
0
41
1
10
15.9653149370397
20
-6.53135180756672
30
0
41
1
10
15.982958412745
20
-6.49117666951636
30
0
41
1
10
15.9952085229792
20
-6.47297524202551
30
0
41
1
10
16.0208011501858
20
-6.44714022486835
30
0
41
1
10
16.0328247375137
20
-6.43774888904321
30
0
41
1
10
16.0457851928788
20
-6.43006145617724
30
0
0
LINE
5
4A
100
AcDbEntity
8
80
62
256
6
ByLayer
370
-1
48
1
60
0
100
AcDbLine
10
0
20
0
30
0
11
-10
21
0
31
0
39
0
210
0
220
0
230
1
0
LINE
5
4B
100
AcDbEntity
8
81
62
256
6
ByLayer
370
-1
48
1
60
0
100
AcDbLine
10
20
20
-12.9
30
0
11
30
21
-12.9
31
0
39
0
210
0
220
0
230
1
0
LINE
5
4C
100
AcDbEntity
8
SK1
62
256
6
ByLayer
370
-1
48
1
60
0
100
AcDbLine
10
-0.22125
20
2.955
30
0
11
-3.39
21
2.955
31
0
39
0
210
0
220
0
230
1
0
LINE
5
4E
100
AcDbEntity
8
SK1
62
256
6
ByLayer
370
-1
48
1
60
0
100
AcDbLine
10
-3.39
20
-2.955
30
0
11
-0.22125
21
-2.955
31
0
39
0
210
0
220
0
230
1
0
LINE
5
4F
100
AcDbEntity
8
SK1
62
256
6
ByLayer
370
-1
48
1
60
0
100
AcDbLine
10
-3.39
20
2.955
30
0
11
-3.89
21
2.821025
31
0
39
0
210
0
220
0
230
1
0
LINE
5
50
100
AcDbEntity
8
SK1
62
256
6
ByLayer
370
-1
48
1
60
0
100
AcDbLine
10
-3.89
20
-2.821025
30
0
11
-3.39
21
-2.955
31
0
39
0
210
0
220
0
230
1
0
LINE
5
51
100
AcDbEntity
8
1
62
256
6
ByLayer
370
-1
48
1
60
0
100
AcDbLine
10
16.732265
20
-5.601653
30
0
11
16.656108
21
-5.598586
31
0
39
0
210
0
220
0
230
1
0
LINE
5
52
100
AcDbEntity
8
1
62
256
6
ByLayer
370
-1
48
1
60
0
100
AcDbLine
10
16.517268
20
-9.045791
30
0
11
16.593425
21
-9.048859
31
0
39
0
210
0
220
0
230
1
0
LINE
5
53
100
AcDbEntity
8
1
62
256
6
ByLayer
370
-1
48
1
60
0
100
AcDbLine
10
16.701305
20
-8.073953
30
0
11
16.613509
21
-8.070417
31
0
39
0
210
0
220
0
230
1
0
LINE
5
54
100
AcDbEntity
8
1
62
256
6
ByLayer
370
-1
48
1
60
0
100
AcDbLine
10
16.557545
20
-6.573867
30
0
11
16.645363
21
-6.577404
31
0
39
0
210
0
220
0
230
1
0
LINE
5
55
100
AcDbEntity
8
SK4
62
256
6
ByLayer
370
-1
48
0.05
60
0
100
AcDbLine
10
-10
20
0
30
0
11
25.020394
21
0
31
0
39
0
210
0
220
0
230
1
0
LINE
5
57
100
AcDbEntity
8
4
62
256
6
ByLayer
370
-1
48
0.05
60
0
100
AcDbLine
10
0
20
0
30
0
11
30.020394
21
0
31
0
39
0
210
0
220
0
230
1
0
LINE
5
59
100
AcDbEntity
8
SK1
62
256
6
ByLayer
370
-1
48
1
60
0
100
AcDbLine
10
-3.89
20
2.821025
30
0
11
-3.89
21
-2.821025
31
0
39
0
210
0
220
0
230
1
0
LINE
5
5A
100
AcDbEntity
8
SK1
62
256
6
ByLayer
370
-1
48
1
60
0
100
AcDbLine
10
-3.39
20
2.955
30
0
11
-3.39
21
-2.955
31
0
39
0
210
0
220
0
230
1
0
LINE
5
5B
100
AcDbEntity
8
SK1
62
256
6
ByLayer
370
-1
48
1
60
0
100
AcDbLine
10
0
20
9.388385
30
0
11
0
21
-9.388385
31
0
39
0
210
0
220
0
230
1
0
LINE
5
5C
100
AcDbEntity
8
SK1
62
256
6
ByLayer
370
-1
48
1
60
0
100
AcDbLine
10
-0.221234
20
9.165151
30
0
11
-0.221234
21
-9.165151
31
0
39
0
210
0
220
0
230
1
0
LINE
5
5D
100
AcDbEntity
8
1
62
256
6
ByLayer
370
-1
48
1
60
0
100
AcDbLine
10
11.530789
20
-9.665772
30
0
11
11.198685
21
-9.996633
31
0
39
0
210
0
220
0
230
1
0
LINE
5
5E
100
AcDbEntity
8
1
62
256
6
ByLayer
370
-1
48
1
60
0
100
AcDbLine
10
5.064348
20
9.835999
30
0
11
5.056862
21
9.921567
31
0
39
0
210
0
220
0
230
1
0
LINE
5
5F
100
AcDbEntity
8
1
62
256
6
ByLayer
370
-1
48
1
60
0
100
AcDbLine
10
0.528766
20
9.921567
30
0
11
5.003389
21
9.921567
31
0
39
0
210
0
220
0
230
1
0
LINE
5
60
100
AcDbEntity
8
1
62
256
6
ByLayer
370
-1
48
1
60
0
100
AcDbLine
10
19.603189
20
-5.29301
30
0
11
19.59323
21
-5.102984
31
0
39
0
210
0
220
0
230
1
0
LINE
5
61
100
AcDbEntity
8
1
62
256
6
ByLayer
370
-1
48
1
60
0
100
AcDbLine
10
12.889956
20
-4.482657
30
0
11
13.137201
21
-8.834893
31
0
39
0
210
0
220
0
230
1
0
LINE
5
62
100
AcDbEntity
8
1
62
256
6
ByLayer
370
-1
48
1
60
0
100
AcDbLine
10
12.889956
20
-4.482657
30
0
11
12.963345
21
-4.485613
31
0
39
0
210
0
220
0
230
1
0
LINE
5
63
100
AcDbEntity
8
1
62
256
6
ByLayer
370
-1
48
1
60
0
100
AcDbLine
10
12.589527
20
-4.296022
30
0
11
12.891623
21
-4.308189
31
0
39
0
210
0
220
0
230
1
0
LINE
5
64
100
AcDbEntity
8
1
62
256
6
ByLayer
370
-1
48
1
60
0
100
AcDbLine
10
13.209554
20
-8.823296
30
0
11
12.963345
21
-4.485613
31
0
39
0
210
0
220
0
230
1
0
LINE
5
65
100
AcDbEntity
8
1
62
256
6
ByLayer
370
-1
48
1
60
0
100
AcDbLine
10
13.259293
20
-4.538894
30
0
11
12.891623
21
-4.308189
31
0
39
0
210
0
220
0
230
1
0
LINE
5
66
100
AcDbEntity
8
1
62
256
6
ByLayer
370
-1
48
1
60
0
100
AcDbLine
10
12.354235
20
-2.365477
30
0
11
12.657807
21
-2.377704
31
0
39
0
210
0
220
0
230
1
0
LINE
5
67
100
AcDbEntity
8
1
62
256
6
ByLayer
370
-1
48
1
60
0
100
AcDbLine
10
13.266457
20
-4.675809
30
0
11
12.963345
21
-4.485613
31
0
39
0
210
0
220
0
230
1
0
LINE
5
68
100
AcDbEntity
8
1
62
256
6
ByLayer
370
-1
48
1
60
0
100
AcDbLine
10
7.899184
20
-9.424799
30
0
11
10.679232
21
-9.996633
31
0
39
0
210
0
220
0
230
1
0
LINE
5
69
100
AcDbEntity
8
1
62
256
6
ByLayer
370
-1
48
1
60
0
100
AcDbLine
10
0.528766
20
9.921567
30
0
11
0.528766
21
-9.921567
31
0
39
0
210
0
220
0
230
1
0
LINE
5
6A
100
AcDbEntity
8
1
62
256
6
ByLayer
370
-1
48
1
60
0
100
AcDbLine
10
13.033906
20
2.533245
30
0
11
15.163911
21
2.533245
31
0
39
0
210
0
220
0
230
1
0
LINE
5
6B
100
AcDbEntity
8
1
62
256
6
ByLayer
370
-1
48
1
60
0
100
AcDbLine
10
19.666751
20
-5.181009
30
0
11
19.476966
21
-1.559691
31
0
39
0
210
0
220
0
230
1
0
LINE
5
6C
100
AcDbEntity
8
1
62
256
6
ByLayer
370
-1
48
1
60
0
100
AcDbLine
10
6.739355
20
-9.921567
30
0
11
0.528766
21
-9.921567
31
0
39
0
210
0
220
0
230
1
0
LINE
5
6D
100
AcDbEntity
8
1
62
256
6
ByLayer
370
-1
48
1
60
0
100
AcDbLine
10
6.676226
20
-9.173247
30
0
11
7.899184
21
-9.424799
31
0
39
0
210
0
220
0
230
1
0
LINE
5
6E
100
AcDbEntity
8
1
62
256
6
ByLayer
370
-1
48
1
60
0
100
AcDbLine
10
11.198685
20
-9.996633
30
0
11
10.679232
21
-9.996633
31
0
39
0
210
0
220
0
230
1
0
LINE
5
6F
100
AcDbEntity
8
1
62
256
6
ByLayer
370
-1
48
1
60
0
100
AcDbLine
10
7.899184
20
-9.424799
30
0
11
6.564775
21
5.826829
31
0
39
0
210
0
220
0
230
1
0
LINE
5
70
100
AcDbEntity
8
1
62
256
6
ByLayer
370
-1
48
1
60
0
100
AcDbLine
10
6.739209
20
-9.921567
30
0
11
10.314289
21
-9.921567
31
0
39
0
210
0
220
0
230
1
0
LINE
5
71
100
AcDbEntity
8
1
62
256
6
ByLayer
370
-1
48
1
60
0
100
AcDbLine
10
5.208431
20
8.871333
30
0
11
5.100131
21
8.849057
31
0
39
0
210
0
220
0
230
1
0
LINE
5
72
100
AcDbEntity
8
1
62
256
6
ByLayer
370
-1
48
1
60
0
100
AcDbLine
10
12.589527
20
-4.296022
30
0
11
12.889956
21
-4.482657
31
0
39
0
210
0
220
0
230
1
0
LINE
5
73
100
AcDbEntity
8
1
62
256
6
ByLayer
370
-1
48
1
60
0
100
AcDbLine
10
19.59323
20
-5.102984
30
0
11
14.406868
21
-1.881067
31
0
39
0
210
0
220
0
230
1
0
LINE
5
74
100
AcDbEntity
8
1
62
256
6
ByLayer
370
-1
48
1
60
0
100
AcDbLine
10
0
20
9.388385
30
0
11
0
21
-9.388385
31
0
39
0
210
0
220
0
230
1
0
LINE
5
75
100
AcDbEntity
8
1
62
256
6
ByLayer
370
-1
48
1
60
0
100
AcDbLine
10
19.459395
20
-5.393098
30
0
11
13.737845
21
-1.802947
31
0
39
0
210
0
220
0
230
1
0
LINE
5
76
100
AcDbEntity
8
1
62
256
6
ByLayer
370
-1
48
1
60
0
100
AcDbLine
10
13.134651
20
-2.160729
30
0
11
13.489625
21
-8.934039
31
0
39
0
210
0
220
0
230
1
0
LINE
5
77
100
AcDbEntity
8
1
62
256
6
ByLayer
370
-1
48
1
60
0
100
AcDbLine
10
19.999453
20
-12.482067
30
0
11
19.644479
21
-5.708757
31
0
39
0
210
0
220
0
230
1
0
LINE
5
78
100
AcDbEntity
8
1
62
256
6
ByLayer
370
-1
48
1
60
0
100
AcDbLine
10
13.674709
20
-9.249698
30
0
11
19.396259
21
-12.839849
31
0
39
0
210
0
220
0
230
1
0
LINE
5
79
100
AcDbEntity
8
1
62
256
6
ByLayer
370
-1
48
1
60
0
100
AcDbLine
10
16.958786
20
-6.454324
30
0
11
16.861025
21
-6.450387
31
0
39
0
210
0
220
0
230
1
0
LINE
5
7A
100
AcDbEntity
8
1
62
256
6
ByLayer
370
-1
48
1
60
0
100
AcDbLine
10
16.079417
20
-8.021442
30
0
11
15.981691
21
-8.017506
31
0
39
0
210
0
220
0
230
1
0
LINE
5
7B
100
AcDbEntity
8
1
62
256
6
ByLayer
370
-1
48
1
60
0
100
AcDbLine
10
16.975098
20
-8.191193
30
0
11
16.877338
21
-8.187256
31
0
39
0
210
0
220
0
230
1
0
LINE
5
7C
100
AcDbEntity
8
1
62
256
6
ByLayer
370
-1
48
1
60
0
100
AcDbLine
10
15.931198
20
-7.67769
30
0
11
16.018706
21
-7.681215
31
0
39
0
210
0
220
0
230
1
0
LINE
5
7D
100
AcDbEntity
8
1
62
256
6
ByLayer
370
-1
48
1
60
0
100
AcDbLine
10
15.780558
20
-7.51174
30
0
11
15.682832
21
-7.507804
31
0
39
0
210
0
220
0
230
1
0
LINE
5
7E
100
AcDbEntity
8
1
62
256
6
ByLayer
370
-1
48
1
60
0
100
AcDbLine
10
16.047204
20
-7.729817
30
0
11
15.959696
21
-7.726293
31
0
39
0
210
0
220
0
230
1
0
LINE
5
7F
100
AcDbEntity
8
1
62
256
6
ByLayer
370
-1
48
1
60
0
100
AcDbLine
10
15.77705
20
-7.155265
30
0
11
15.67929
21
-7.151327
31
0
39
0
210
0
220
0
230
1
0
LINE
5
80
100
AcDbEntity
8
1
62
256
6
ByLayer
370
-1
48
1
60
0
100
AcDbLine
10
16.066295
20
-6.641236
30
0
11
15.968534
21
-6.637298
31
0
39
0
210
0
220
0
230
1
0
LINE
5
81
100
AcDbEntity
8
2
62
256
6
ByLayer
370
-1
48
1
60
1
100
AcDbLine
10
20
20
0
30
0
11
20.001
21
0.001
31
0
39
0
210
0
220
0
230
1
0
MTEXT
5
D3
100
AcDbEntity
8
SK6
62
256
6
ByLayer
370
-1
48
1
60
0
100
AcDbMText
10
10.885197
20
17.675
30
0
210
0
220
0
230
1
1
\W00.739;\fsimplex.shx,bigfont.shx;570-SDUPL-20-07 
40
3.5
41
0
44
1.084337
50
0
71
7
72
5
7
DEFAULT
0
DIMENSION
5
107
100
AcDbEntity
8
SK2
62
256
6
ByLayer
370
-3
48
1
60
0
100
AcDbDimension
2
DimnDraft3D1
10
-9.75
20
-10
30
0
11
-9.75
21
-4.784211
31
0
70
32
71
5
72
1
41
1
210
0
220
0
230
1
3
Standard
100
AcDbAlignedDimension
13
-2
23
10
33
0
14
-2
24
-10
34
0
50
90
100
AcDbRotatedDimension
1001
ACAD
1000
DSTYLE
1002
{
1070
    74
1070
     0
1070
   279
1070
     0
1070
   172
1070
     1
1070
   173
1070
     1
1070
   340
1005
D4
1070
    77
1070
     1
1070
    73
1070
     0
1070
   171
1070
     4
1070
   274
1070
     4
1070
   177
1070
     2
1070
   176
1070
     2
1070
   178
1070
     7
1070
    78
1070
     8
1070
    41
1041
3.175
1070
   147
1041
2.25
1070
    42
1041
2.0
1070
    44
1041
2.0
1070
   140
1041
4.5
1070
   343
1005
108
1070
   344
1005
108
1002
}
0
DIMENSION
5
11C
100
AcDbEntity
8
2
62
256
6
ByLayer
370
-3
48
1
60
0
100
AcDbDimension
2
DimnDraft3D2
10
32.25
20
-12.9
30
0
11
32.25
21
-32.356316
31
0
70
32
71
5
72
1
41
1
210
0
220
0
230
1
3
Standard
100
AcDbAlignedDimension
13
22
23
0
33
0
14
22
24
-12.9
34
0
50
90
100
AcDbRotatedDimension
1001
ACAD
1000
DSTYLE
1002
{
1070
    74
1070
     0
1070
   279
1070
     0
1070
   172
1070
     1
1070
   173
1070
     1
1070
   340
1005
D4
1070
    77
1070
     1
1070
    73
1070
     0
1070
   171
1070
     4
1070
   274
1070
     4
1070
   177
1070
     2
1070
   176
1070
     2
1070
   178
1070
     7
1070
    78
1070
     8
1070
    41
1041
3.175
1070
   147
1041
2.25
1070
    42
1041
2.0
1070
    44
1041
2.0
1070
   140
1041
4.5
1070
   343
1005
108
1070
   344
1005
108
1002
}
0
DIMENSION
5
12A
100
AcDbEntity
8
2
62
256
6
ByLayer
370
-3
48
1
60
0
100
AcDbDimension
2
DimnDraft3D3
10
20
20
-30.15
30
0
11
4.836842
21
-30.15
31
0
70
32
71
5
72
1
41
1
210
0
220
0
230
1
3
Standard
100
AcDbAlignedDimension
13
0
23
-12
33
0
14
20
24
-14.9
34
0
50
0
100
AcDbRotatedDimension
1001
ACAD
1000
DSTYLE
1002
{
1070
   279
1070
     0
1070
   172
1070
     1
1070
   173
1070
     1
1070
   340
1005
D4
1070
    77
1070
     1
1070
    73
1070
     0
1070
   171
1070
     4
1070
   274
1070
     4
1070
   177
1070
     2
1070
   176
1070
     2
1070
   178
1070
     7
1070
    78
1070
     8
1070
    41
1041
3.175
1070
   147
1041
2.25
1070
    42
1041
2.0
1070
    44
1041
2.0
1070
   140
1041
4.5
1070
   343
1005
108
1070
   344
1005
108
1002
}
0
DIMENSION
5
138
100
AcDbEntity
8
2
62
256
6
ByLayer
370
-3
48
1
60
0
100
AcDbDimension
2
DimnDraft3D4
10
59.250346
20
0
30
0
11
42.358155
21
33.528479
31
0
70
34
71
5
72
1
41
1
210
0
220
0
230
1
3
Standard
100
AcDb2LineAngularDimension
13
19.528976
23
-3.912334
33
0
14
17.234353
24
39.871689
34
0
15
22
25
0
35
0
16
48.528351
26
30.775028
36
0
40
0
0
ENDSEC
0
SECTION
2
OBJECTS
0
DICTIONARY
5
169
330
0
100
AcDbDictionary
280
0
281
1
3
ACAD_GROUP
350
16a
3
ACAD_MLINESTYLE
350
16b
0
DICTIONARY
5
16a
330
0
100
AcDbDictionary
280
0
281
1
0
DICTIONARY
5
16b
330
0
100
AcDbDictionary
280
0
281
1
3
Standard
350
18
0
MLINESTYLE
5
18
330
16b
100
AcDbMlineStyle
2
Standard
70
0
3

62
256
51
90
52
90
71
2
49
-0.5
62
256
6
ByLayer
49
0.5
62
256
6
ByLayer
0
RASTERVARIABLES
5
157
330

100
AcDbRasterVariables
90
0
70
1
71
1
72
1
0
ENDSEC
0
EOF
