0
SECTION
2
HEADER
9
$ACADVER
1
AC1015
9
$DWGCODEPAGE
3
ANSI_1252
9
$HANDSEED
5
17a
9
$ANGBASE
50
0
9
$ANGDIR
70
0
9
$ATTMODE
70
1
9
$AUNITS
70
0
9
$AUPREC
70
0
9
$CECOLOR
62
256
9
$CELTSCALE
40
1
9
$CELTYPE
6
ByLayer
9
$CELWEIGHT
370
-1
9
$CLAYER
8
0
9
$CMLJUST
70
0
9
$CMLSCALE
40
1
9
$CMLSTYLE
2
Standard
9
$DIMSTYLE
2
Standard
9
$TEXTSIZE
40
0.2
9
$TEXTSTYLE
7
Standard
9
$LUNITS
70
2
9
$LUPREC
70
4
9
$EXTNAMES
290
1
9
$INSUNITS
70
4
9
$LTSCALE
40
1
9
$LWDISPLAY
290
0
9
$PDMODE
70
0
9
$PDSIZE
40
0
9
$PLINEGEN
70
0
0
ENDSEC
0
SECTION
2
CLASSES
0
CLASS
1
RASTERVARIABLES
2
AcDbRasterVariables
3
ISM
90
0
280
0
281
0
0
ENDSEC
0
SECTION
2
TABLES
0
TABLE
2
VPORT
5
170
100
AcDbSymbolTable
0
VPORT
5
1
100
AcDbSymbolTableRecord
100
AcDbViewportTableRecord
2
*Active
70
0
10
0
20
0
11
1
21
1
12
-1
22
1
13
0
23
0
14
0.5
24
0.5
15
10
25
10
16
0
26
0
36
1
17
0
27
0
37
0
0
ENDTAB
0
TABLE
2
LTYPE
5
171
100
AcDbSymbolTable
0
LTYPE
5
14
100
AcDbSymbolTableRecord
100
AcDbLinetypeTableRecord
70
0
2
ByBlock
3

72
65
73
0
40
0
0
LTYPE
5
15
100
AcDbSymbolTableRecord
100
AcDbLinetypeTableRecord
70
0
2
ByLayer
3

72
65
73
0
40
0
0
LTYPE
5
16
100
AcDbSymbolTableRecord
100
AcDbLinetypeTableRecord
70
0
2
CONTINUOUS
3
Solid line
72
65
73
0
40
0
0
LTYPE
5
3B
100
AcDbSymbolTableRecord
100
AcDbLinetypeTableRecord
70
0
2
DASHED
3
__ __ __ __ __ __ __ __ __
72
65
73
2
40
25.72
49
12.86
74
0
49
-12.86
74
0
0
LTYPE
5
3C
100
AcDbSymbolTableRecord
100
AcDbLinetypeTableRecord
70
0
2
HIDDEN
3
_ _ _ _ _ _ _ _ _ _ _ _ _ _ _
72
65
73
2
40
0.5
49
0.25
74
0
49
-0.25
74
0
0
LTYPE
5
3D
100
AcDbSymbolTableRecord
100
AcDbLinetypeTableRecord
70
0
2
PHANTOM
3
____ _ _ ____ _ _ _____ _ _ ____
72
65
73
6
40
50.5
49
18
74
0
49
-6.5
74
0
49
6.5
74
0
49
-6.5
74
0
49
6.5
74
0
49
-6.5
74
0
0
LTYPE
5
3E
100
AcDbSymbolTableRecord
100
AcDbLinetypeTableRecord
70
0
2
CENTER
3
____ _ ____ _ ____ _ ____
72
65
73
4
40
47.5
49
22
74
0
49
-8.5
74
0
49
8.5
74
0
49
-8.5
74
0
0
LTYPE
5
3F
100
AcDbSymbolTableRecord
100
AcDbLinetypeTableRecord
70
0
2
DOT
3
.........................
72
65
73
2
40
10
49
0
74
0
49
-10
74
0
0
LTYPE
5
40
100
AcDbSymbolTableRecord
100
AcDbLinetypeTableRecord
70
0
2
DASHDOT
3
_._._._._._._._._._._._._._._._.
72
65
73
4
40
70
49
31
74
0
49
-13
74
0
49
13
74
0
49
-13
74
0
0
ENDTAB
0
TABLE
2
LAYER
5
172
100
AcDbSymbolTable
0
LAYER
5
10
100
AcDbSymbolTableRecord
100
AcDbLayerTableRecord
2
0
70
0
62
7
6
CONTINUOUS
290
1
370
-3
390
0
0
LAYER
5
42
100
AcDbSymbolTableRecord
100
AcDbLayerTableRecord
2
1
70
0
62
4
6
CONTINUOUS
290
1
370
-3
390
0
0
LAYER
5
44
100
AcDbSymbolTableRecord
100
AcDbLayerTableRecord
2
2
70
0
62
7
6
CONTINUOUS
290
1
370
-3
390
0
0
LAYER
5
47
100
AcDbSymbolTableRecord
100
AcDbLayerTableRecord
2
80
70
0
62
-6
6
CONTINUOUS
290
1
370
-3
390
0
0
LAYER
5
49
100
AcDbSymbolTableRecord
100
AcDbLayerTableRecord
2
81
70
0
62
-3
6
CONTINUOUS
290
1
370
-3
390
0
0
LAYER
5
4F
100
AcDbSymbolTableRecord
100
AcDbLayerTableRecord
2
4
70
0
62
-2
6
CENTER
290
1
370
-3
390
0
0
LAYER
5
15c
100
AcDbSymbolTableRecord
100
AcDbLayerTableRecord
2
SK4
70
0
62
2
6
CENTER
290
1
370
-3
390
0
0
LAYER
5
15d
100
AcDbSymbolTableRecord
100
AcDbLayerTableRecord
2
SK1
70
0
62
4
6
CONTINUOUS
290
1
370
-3
390
0
0
LAYER
5
15e
100
AcDbSymbolTableRecord
100
AcDbLayerTableRecord
2
SK6
70
0
62
5
6
CONTINUOUS
290
1
370
-3
390
0
0
LAYER
5
15f
100
AcDbSymbolTableRecord
100
AcDbLayerTableRecord
2
SK2
70
0
62
7
6
CONTINUOUS
290
1
370
-3
390
0
0
ENDTAB
0
TABLE
2
STYLE
5
173
100
AcDbSymbolTable
0
STYLE
5
11
100
AcDbSymbolTableRecord
100
AcDbTextStyleTableRecord
2
Standard
3
txt
70
0
71
0
40
0
41
1
42
0
50
0
0
STYLE
5
D8
100
AcDbSymbolTableRecord
100
AcDbTextStyleTableRecord
2
DEFAULT
3
simplex.shx
70
0
71
0
40
0
41
1
42
0
50
0
0
STYLE
5
FB
100
AcDbSymbolTableRecord
100
AcDbTextStyleTableRecord
2
DWGDirectTextStyle
3
SIMPLEX
70
0
71
0
40
0
41
1
42
0
50
0
0
ENDTAB
0
TABLE
2
DIMSTYLE
5
174
100
AcDbSymbolTable
100
AcDbDimStyleTable
0
DIMSTYLE
105
27
100
AcDbSymbolTableRecord
100
AcDbDimStyleTableRecord
2
Standard
70
0
3
<>
41
0.18
42
0.0625
44
0.18
140
0.18
147
0.09
73
0
74
0
77
1
271
2
275
0
278
52
280
0
340
11
0
ENDTAB
0
TABLE
2
VIEW
5
175
100
AcDbSymbolTable
0
ENDTAB
0
TABLE
2
UCS
5
176
100
AcDbSymbolTable
0
ENDTAB
0
TABLE
2
APPID
5
177
100
AcDbSymbolTable
0
APPID
5
12
100
AcDbSymbolTableRecord
100
AcDbRegAppTableRecord
2
ACAD
70
0
0
ENDTAB
0
TABLE
2
BLOCK_RECORD
5
178
100
AcDbSymbolTable
0
BLOCK_RECORD
5
1F
100
AcDbSymbolTableRecord
100
AcDbBlockTableRecord
2
*Model_Space
340
0
70
0
0
BLOCK_RECORD
5
1B
100
AcDbSymbolTableRecord
100
AcDbBlockTableRecord
2
*Paper_Space
340
0
70
0
0
BLOCK_RECORD
5
23
100
AcDbSymbolTableRecord
100
AcDbBlockTableRecord
2
*Paper_Space0
340
0
70
0
0
BLOCK_RECORD
5
FD
100
AcDbSymbolTableRecord
100
AcDbBlockTableRecord
2
DimnDraft3D1
340
0
70
0
0
BLOCK_RECORD
5
10C
100
AcDbSymbolTableRecord
100
AcDbBlockTableRecord
2
_CLOSED
340
0
70
0
0
BLOCK_RECORD
5
113
100
AcDbSymbolTableRecord
100
AcDbBlockTableRecord
2
DimnDraft3D2
340
0
70
0
0
BLOCK_RECORD
5
121
100
AcDbSymbolTableRecord
100
AcDbBlockTableRecord
2
DimnDraft3D3
340
0
70
0
0
BLOCK_RECORD
5
12F
100
AcDbSymbolTableRecord
100
AcDbBlockTableRecord
2
DimnDraft3D4
340
0
70
0
0
ENDTAB
0
ENDSEC
0
SECTION
2
BLOCKS
0
BLOCK
5
20
100
AcDbEntity
8
0
100
AcDbBlockBegin
2
*Model_Space
70
0
10
0
20
0
30
0
3
*Model_Space
0
ENDBLK
5
21
100
AcDbEntity
8
0
100
AcDbBlockEnd
0
BLOCK
5
1C
100
AcDbEntity
8
0
100
AcDbBlockBegin
2
*Paper_Space
70
0
10
0
20
0
30
0
3
*Paper_Space
0
ENDBLK
5
1D
100
AcDbEntity
8
0
100
AcDbBlockEnd
0
BLOCK
5
24
100
AcDbEntity
8
0
100
AcDbBlockBegin
2
*Paper_Space0
70
0
10
0
20
0
30
0
3
*Paper_Space0
0
ENDBLK
5
25
100
AcDbEntity
8
0
100
AcDbBlockEnd
0
BLOCK
5
109
100
AcDbEntity
8
0
100
AcDbBlockBegin
2
DimnDraft3D1
70
0
10
0
20
0
30
0
3
DimnDraft3D1
0
MTEXT
5
FE
100
AcDbEntity
8
SK2
62
256
6
ByLayer
370
-1
48
1
60
0
100
AcDbMText
10
-10.875
20
-3.659211
30
0
210
0
220
0
230
1
1
\W01.000;\fsimplex.shx,bigfont.shx;%%c25 
40
4.5
41
0
44
1.084337
50
90
71
7
72
5
7
DEFAULT
0
LINE
5
100
100
AcDbEntity
8
SK2
62
256
6
ByLayer
370
-1
48
1
60
0
100
AcDbLine
10
-2
20
12.5
30
0
11
-11.75
21
12.5
31
0
39
0
210
0
220
0
230
1
0
LINE
5
101
100
AcDbEntity
8
SK2
62
256
6
ByLayer
370
-1
48
1
60
0
100
AcDbLine
10
-2
20
-12.5
30
0
11
-11.75
21
-12.5
31
0
39
0
210
0
220
0
230
1
0
LINE
5
102
100
AcDbEntity
8
SK2
62
256
6
ByLayer
370
-1
48
1
60
0
100
AcDbLine
10
-9.75
20
12.5
30
0
11
-9.75
21
-12.5
31
0
39
0
210
0
220
0
230
1
0
LINE
5
103
100
AcDbEntity
8
SK2
62
256
6
ByLayer
370
-1
48
1
60
0
100
AcDbLine
10
-9.75
20
12.5
30
0
11
-9.332003
21
9.325002
31
0
39
0
210
0
220
0
230
1
0
LINE
5
104
100
AcDbEntity
8
SK2
62
256
6
ByLayer
370
-1
48
1
60
0
100
AcDbLine
10
-9.75
20
12.5
30
0
11
-10.167997
21
9.324998
31
0
39
0
210
0
220
0
230
1
0
LINE
5
105
100
AcDbEntity
8
SK2
62
256
6
ByLayer
370
-1
48
1
60
0
100
AcDbLine
10
-9.332003
20
9.325002
30
0
11
-10.167997
21
9.324998
31
0
39
0
210
0
220
0
230
1
0
LINE
5
106
100
AcDbEntity
8
SK2
62
256
6
ByLayer
370
-1
48
1
60
0
100
AcDbLine
10
-9.75
20
-12.5
30
0
11
-10.167997
21
-9.325002
31
0
39
0
210
0
220
0
230
1
0
LINE
5
107
100
AcDbEntity
8
SK2
62
256
6
ByLayer
370
-1
48
1
60
0
100
AcDbLine
10
-9.75
20
-12.5
30
0
11
-9.332003
21
-9.324998
31
0
39
0
210
0
220
0
230
1
0
LINE
5
108
100
AcDbEntity
8
SK2
62
256
6
ByLayer
370
-1
48
1
60
0
100
AcDbLine
10
-10.167997
20
-9.325002
30
0
11
-9.332003
21
-9.324998
31
0
39
0
210
0
220
0
230
1
0
ENDBLK
5
10A
100
AcDbEntity
8
0
100
AcDbBlockEnd
0
BLOCK
5
10D
100
AcDbEntity
8
0
100
AcDbBlockBegin
2
_CLOSED
70
0
10
0
20
0
30
0
3
_CLOSED
0
LINE
5
10F
100
AcDbEntity
8
0
62
256
6
ByLayer
370
-2
48
1
60
0
100
AcDbLine
10
-1
20
0.166667
30
0
11
0
21
0
31
0
39
0
210
0
220
0
230
1
0
LINE
5
110
100
AcDbEntity
8
0
62
256
6
ByLayer
370
-2
48
1
60
0
100
AcDbLine
10
0
20
0
30
0
11
-1
21
-0.166667
31
0
39
0
210
0
220
0
230
1
0
LINE
5
111
100
AcDbEntity
8
0
62
256
6
ByLayer
370
-2
48
1
60
0
100
AcDbLine
10
-1
20
0.166667
30
0
11
-1
21
-0.166667
31
0
39
0
210
0
220
0
230
1
0
LINE
5
112
100
AcDbEntity
8
0
62
256
6
ByLayer
370
-2
48
1
60
0
100
AcDbLine
10
0
20
0
30
0
11
-1
21
0
31
0
39
0
210
0
220
0
230
1
0
ENDBLK
5
10E
100
AcDbEntity
8
0
100
AcDbBlockEnd
0
BLOCK
5
11E
100
AcDbEntity
8
0
100
AcDbBlockBegin
2
DimnDraft3D2
70
0
10
0
20
0
30
0
3
DimnDraft3D2
0
MTEXT
5
114
100
AcDbEntity
8
2
62
256
6
ByLayer
370
-1
48
1
60
0
100
AcDbMText
10
31.125
20
-11.925658
30
0
210
0
220
0
230
1
1
\W01.000;\fsimplex.shx,bigfont.shx;17.0 
40
4.5
41
0
44
1.084337
50
90
71
7
72
5
7
DEFAULT
0
LINE
5
115
100
AcDbEntity
8
2
62
256
6
ByLayer
370
-1
48
1
60
0
100
AcDbLine
10
22
20
0
30
0
11
34.25
21
0
31
0
39
0
210
0
220
0
230
1
0
LINE
5
116
100
AcDbEntity
8
2
62
256
6
ByLayer
370
-1
48
1
60
0
100
AcDbLine
10
22
20
-16.9
30
0
11
34.25
21
-16.9
31
0
39
0
210
0
220
0
230
1
0
LINE
5
117
100
AcDbEntity
8
2
62
256
6
ByLayer
370
-1
48
1
60
0
100
AcDbLine
10
32.25
20
11.25
30
0
11
32.25
21
-28.15
31
0
39
0
210
0
220
0
230
1
0
LINE
5
118
100
AcDbEntity
8
2
62
256
6
ByLayer
370
-1
48
1
60
0
100
AcDbLine
10
32.25
20
0
30
0
11
31.832003
21
3.174998
31
0
39
0
210
0
220
0
230
1
0
LINE
5
119
100
AcDbEntity
8
2
62
256
6
ByLayer
370
-1
48
1
60
0
100
AcDbLine
10
32.25
20
0
30
0
11
32.667997
21
3.175002
31
0
39
0
210
0
220
0
230
1
0
LINE
5
11A
100
AcDbEntity
8
2
62
256
6
ByLayer
370
-1
48
1
60
0
100
AcDbLine
10
31.832003
20
3.174998
30
0
11
32.667997
21
3.175002
31
0
39
0
210
0
220
0
230
1
0
LINE
5
11B
100
AcDbEntity
8
2
62
256
6
ByLayer
370
-1
48
1
60
0
100
AcDbLine
10
32.25
20
-16.9
30
0
11
32.667997
21
-20.074998
31
0
39
0
210
0
220
0
230
1
0
LINE
5
11C
100
AcDbEntity
8
2
62
256
6
ByLayer
370
-1
48
1
60
0
100
AcDbLine
10
32.25
20
-16.9
30
0
11
31.832003
21
-20.075002
31
0
39
0
210
0
220
0
230
1
0
LINE
5
11D
100
AcDbEntity
8
2
62
256
6
ByLayer
370
-1
48
1
60
0
100
AcDbLine
10
32.667997
20
-20.074998
30
0
11
31.832003
21
-20.075002
31
0
39
0
210
0
220
0
230
1
0
ENDBLK
5
11F
100
AcDbEntity
8
0
100
AcDbBlockEnd
0
BLOCK
5
12C
100
AcDbEntity
8
0
100
AcDbBlockBegin
2
DimnDraft3D3
70
0
10
0
20
0
30
0
3
DimnDraft3D3
0
MTEXT
5
122
100
AcDbEntity
8
2
62
256
6
ByLayer
370
-1
48
1
60
0
100
AcDbMText
10
5.961842
20
-33.025
30
0
210
0
220
0
230
1
1
\W01.000;\fsimplex.shx,bigfont.shx;20.0 
40
4.5
41
0
44
1.084337
50
0
71
7
72
5
7
DEFAULT
0
LINE
5
123
100
AcDbEntity
8
2
62
256
6
ByLayer
370
-1
48
1
60
0
100
AcDbLine
10
0
20
-14.5
30
0
11
0
21
-36.15
31
0
39
0
210
0
220
0
230
1
0
LINE
5
124
100
AcDbEntity
8
2
62
256
6
ByLayer
370
-1
48
1
60
0
100
AcDbLine
10
20
20
-18.9
30
0
11
20
21
-36.15
31
0
39
0
210
0
220
0
230
1
0
LINE
5
125
100
AcDbEntity
8
2
62
256
6
ByLayer
370
-1
48
1
60
0
100
AcDbLine
10
-11.25
20
-34.15
30
0
11
31.25
21
-34.15
31
0
39
0
210
0
220
0
230
1
0
LINE
5
126
100
AcDbEntity
8
2
62
256
6
ByLayer
370
-1
48
1
60
0
100
AcDbLine
10
0
20
-34.15
30
0
11
-3.174998
21
-34.567997
31
0
39
0
210
0
220
0
230
1
0
LINE
5
127
100
AcDbEntity
8
2
62
256
6
ByLayer
370
-1
48
1
60
0
100
AcDbLine
10
0
20
-34.15
30
0
11
-3.175002
21
-33.732003
31
0
39
0
210
0
220
0
230
1
0
LINE
5
128
100
AcDbEntity
8
2
62
256
6
ByLayer
370
-1
48
1
60
0
100
AcDbLine
10
-3.174998
20
-34.567997
30
0
11
-3.175002
21
-33.732003
31
0
39
0
210
0
220
0
230
1
0
LINE
5
129
100
AcDbEntity
8
2
62
256
6
ByLayer
370
-1
48
1
60
0
100
AcDbLine
10
20
20
-34.15
30
0
11
23.174998
21
-33.732003
31
0
39
0
210
0
220
0
230
1
0
LINE
5
12A
100
AcDbEntity
8
2
62
256
6
ByLayer
370
-1
48
1
60
0
100
AcDbLine
10
20
20
-34.15
30
0
11
23.175002
21
-34.567997
31
0
39
0
210
0
220
0
230
1
0
LINE
5
12B
100
AcDbEntity
8
2
62
256
6
ByLayer
370
-1
48
1
60
0
100
AcDbLine
10
23.174998
20
-33.732003
30
0
11
23.175002
21
-34.567997
31
0
39
0
210
0
220
0
230
1
0
ENDBLK
5
12D
100
AcDbEntity
8
0
100
AcDbBlockEnd
0
BLOCK
5
13A
100
AcDbEntity
8
0
100
AcDbBlockBegin
2
DimnDraft3D4
70
0
10
0
20
0
30
0
3
DimnDraft3D4
0
MTEXT
5
130
100
AcDbEntity
8
2
62
256
6
ByLayer
370
-1
48
1
60
0
100
AcDbMText
10
42.190171
20
31.938034
30
0
210
0
220
0
230
1
1
\W01.000;\fsimplex.shx,bigfont.shx;93%%d0' 
40
4.5
41
0
44
1.084337
50
316.5
71
7
72
5
7
DEFAULT
0
LINE
5
131
100
AcDbEntity
8
2
62
256
6
ByLayer
370
-1
48
1
60
0
100
AcDbLine
10
19.319633
20
-3.917816
30
0
11
17.024722
21
39.871689
31
0
39
0
210
0
220
0
230
1
0
LINE
5
132
100
AcDbEntity
8
2
62
256
6
ByLayer
370
-1
48
1
60
0
100
AcDbLine
10
22
20
0
30
0
11
59.040715
21
0
31
0
39
0
210
0
220
0
230
1
0
ARC
5
133
100
AcDbEntity
8
2
62
256
6
ByLayer
370
-1
48
1
60
0
100
AcDbCircle
39
0
10
19.114309
20
0
30
0
40
37.9264068640928
210
0
220
0
230
1
100
AcDbArc
50
0
51
93
0
LINE
5
134
100
AcDbEntity
8
2
62
256
6
ByLayer
370
-1
48
1
60
0
100
AcDbLine
10
17.129394
20
37.87443
30
0
11
20.289682
21
38.392036
31
0
39
0
210
0
220
0
230
1
0
LINE
5
135
100
AcDbEntity
8
2
62
256
6
ByLayer
370
-1
48
1
60
0
100
AcDbLine
10
17.129394
20
37.87443
30
0
11
20.315967
21
37.556456
31
0
39
0
210
0
220
0
230
1
0
LINE
5
136
100
AcDbEntity
8
2
62
256
6
ByLayer
370
-1
48
1
60
0
100
AcDbLine
10
20.289682
20
38.392036
30
0
11
20.315967
21
37.556456
31
0
39
0
210
0
220
0
230
1
0
LINE
5
137
100
AcDbEntity
8
2
62
256
6
ByLayer
370
-1
48
1
60
0
100
AcDbLine
10
57.040715
20
0
30
0
11
56.556405
21
3.165562
31
0
39
0
210
0
220
0
230
1
0
LINE
5
138
100
AcDbEntity
8
2
62
256
6
ByLayer
370
-1
48
1
60
0
100
AcDbLine
10
57.040715
20
0
30
0
11
57.392216
21
3.183049
31
0
39
0
210
0
220
0
230
1
0
LINE
5
139
100
AcDbEntity
8
2
62
256
6
ByLayer
370
-1
48
1
60
0
100
AcDbLine
10
56.556405
20
3.165562
30
0
11
57.392216
21
3.183049
31
0
39
0
210
0
220
0
230
1
0
ENDBLK
5
13B
100
AcDbEntity
8
0
100
AcDbBlockEnd
0
ENDSEC
0
SECTION
2
ENTITIES
0
ARC
5
7C
100
AcDbEntity
8
1
62
256
6
ByLayer
370
-1
48
1
60
0
100
AcDbCircle
39
0
10
-13.954813
20
-0.146375
30
0
40
5.00000000000014
210
0
220
0
230
-1
100
AcDbArc
50
90
51
177
0
ARC
5
7D
100
AcDbEntity
8
1
62
256
6
ByLayer
370
-1
48
1
60
0
100
AcDbCircle
39
0
10
-13.042199
20
12.853625
30
0
40
8.00000000000491
210
0
220
0
230
-1
100
AcDbArc
50
312.930397
51
326.274961
0
ARC
5
7E
100
AcDbEntity
8
1
62
256
6
ByLayer
370
-1
48
1
60
0
100
AcDbCircle
39
0
10
-13.042199
20
12.853625
30
0
40
8.00000000004957
210
0
220
0
230
-1
100
AcDbArc
50
270
51
285.53929
0
ELLIPSE
5
7F
100
AcDbEntity
8
1
62
256
6
ByLayer
370
-1
48
1
60
0
100
AcDbEllipse
10
14.846133
20
-8.746552
30
0
11
3.0671162035353
21
0.16074074903032
31
0
210
0
220
0
230
1
40
0.994522
41
0
42
6.28318530717959
0
ELLIPSE
5
80
100
AcDbEntity
8
1
62
256
6
ByLayer
370
-1
48
1
60
0
100
AcDbEllipse
10
10.486278
20
-1.382982
30
0
11
0.79291185059513
21
0.041554749256898
31
0
210
0
220
0
230
1
40
0.994522
41
0.959931088596835
42
3.14159265358975
0
ELLIPSE
5
81
100
AcDbEntity
8
1
62
256
6
ByLayer
370
-1
48
1
60
0
100
AcDbEllipse
10
19.205987
20
-16.110122
30
0
11
0.79291185059513
21
0.041554749256898
31
0
210
0
220
0
230
1
40
0.994522
41
-2.18166156499291
42
4.49909652785834E-15
0
ELLIPSE
5
82
100
AcDbEntity
8
1
62
256
6
ByLayer
370
-1
48
1
60
0
100
AcDbEllipse
10
18.701667
20
-6.48712
30
0
11
0.792911850595131
21
0.0415547492568981
31
0
210
0
220
0
230
1
40
0.994522
41
0
42
0.959931088596855
0
ELLIPSE
5
83
100
AcDbEntity
8
1
62
256
6
ByLayer
370
-1
48
1
60
0
100
AcDbEllipse
10
14.840553
20
-8.640079
30
0
11
2.99588860426372
21
0.157007868728834
31
0
210
0
220
0
230
1
40
0.994522
41
3.08894475212084
42
0
0
ELLIPSE
5
84
100
AcDbEntity
8
1
62
256
6
ByLayer
370
-1
48
1
60
0
100
AcDbEllipse
10
14.840553
20
-8.640079
30
0
11
2.99588860426372
21
0.157007868728834
31
0
210
0
220
0
230
1
40
0.994522
41
0
42
0.714588229003208
0
ELLIPSE
5
85
100
AcDbEntity
8
1
62
256
6
ByLayer
370
-1
48
1
60
0
100
AcDbEllipse
10
14.840553
20
-8.640079
30
0
11
2.99588860426372
21
0.157007868728834
31
0
210
0
220
0
230
1
40
0.994522
41
0.727841613039265
42
2.41360064179841
0
ELLIPSE
5
86
100
AcDbEntity
8
1
62
256
6
ByLayer
370
-1
48
1
60
0
100
AcDbEllipse
10
14.840553
20
-8.640079
30
0
11
2.99588860426372
21
0.157007868728834
31
0
210
0
220
0
230
1
40
0.994522
41
2.42685419783083
42
3.08894475212085
0
ELLIPSE
5
87
100
AcDbEntity
8
1
62
256
6
ByLayer
370
-1
48
1
60
0
100
AcDbEllipse
10
10.990598
20
-11.005985
30
0
11
0.792911850595131
21
0.0415547492568981
31
0
210
0
220
0
230
1
40
0.994522
41
3.14159265358979
42
-2.18166156499292
0
ELLIPSE
5
88
100
AcDbEntity
8
1
62
256
6
ByLayer
370
-1
48
1
60
0
100
AcDbEllipse
10
14.839713
20
-8.624064
30
0
11
2.94083001014413
21
0.15412237008058
31
0
210
0
220
0
230
1
40
0.994522
41
0
42
6.28318530717959
0
ELLIPSE
5
89
100
AcDbEntity
8
1
62
256
6
ByLayer
370
-1
48
1
60
0
100
AcDbEllipse
10
14.845202
20
-8.728788
30
0
11
1.67420241501604
21
0.0877412306412968
31
0
210
0
220
0
230
1
40
0.994522
41
-0.0464237789811962
42
1.00635486757808
0
ELLIPSE
5
8A
100
AcDbEntity
8
1
62
256
6
ByLayer
370
-1
48
1
60
0
100
AcDbEllipse
10
14.856019
20
-10.462099
30
0
11
-0.685059860841638
21
-0.0359024659826587
31
0
210
0
220
0
230
1
40
0.994522
41
-1.61303428425408
42
-0.829043640633282
0
ELLIPSE
5
8B
100
AcDbEntity
8
1
62
256
6
ByLayer
370
-1
48
1
60
0
100
AcDbEllipse
10
14.837406
20
-8.580039
30
0
11
-1.20484653368139
21
-0.0631433312071107
31
0
210
0
220
0
230
1
40
0.994522
41
0.548998177710363
42
1.52855836933571
0
ELLIPSE
5
8C
100
AcDbEntity
8
1
62
256
6
ByLayer
370
-1
48
1
60
0
100
AcDbEllipse
10
14.837543
20
-8.582649
30
0
11
2.62140252873076
21
0.13738188513773
31
0
210
0
220
0
230
1
40
0.994522
41
3.0889449436433
42
-3.14152058804886
0
ELLIPSE
5
8D
100
AcDbEntity
8
1
62
256
6
ByLayer
370
-1
48
1
60
0
100
AcDbEllipse
10
14.837543
20
-8.582649
30
0
11
2.62140252873076
21
0.13738188513773
31
0
210
0
220
0
230
1
40
0.994522
41
0
42
3.08894483965373
0
ELLIPSE
5
8E
100
AcDbEntity
8
1
62
256
6
ByLayer
370
-1
48
1
60
0
100
AcDbEllipse
10
14.837406
20
-8.580039
30
0
11
-1.20484653368139
21
-0.0631433312071107
31
0
210
0
220
0
230
1
40
0.994522
41
2.57296537285097
42
-2.87402727166751
0
ELLIPSE
5
8F
100
AcDbEntity
8
1
62
256
6
ByLayer
370
-1
48
1
60
0
100
AcDbEllipse
10
14.856019
20
-10.462099
30
0
11
-0.685059860841638
21
-0.0359024659826587
31
0
210
0
220
0
230
1
40
0.994522
41
-2.39702492787489
42
-1.61303428425408
0
ELLIPSE
5
90
100
AcDbEntity
8
1
62
256
6
ByLayer
370
-1
48
1
60
0
100
AcDbEllipse
10
13.452949
20
-8.588609
30
0
11
-0.291599824148336
21
-0.0152820992229393
31
0
210
0
220
0
230
1
40
0.994522
41
0.247271846888856
42
1.27122687921969
0
ELLIPSE
5
91
100
AcDbEntity
8
1
62
256
6
ByLayer
370
-1
48
1
60
0
100
AcDbEllipse
10
14.845202
20
-8.728788
30
0
11
1.67420241501604
21
0.0877412306412968
31
0
210
0
220
0
230
1
40
0.994522
41
-1.09083078249645
42
-0.0464237789811962
0
ELLIPSE
5
92
100
AcDbEntity
8
1
62
256
6
ByLayer
370
-1
48
1
60
0
100
AcDbEllipse
10
14.845202
20
-8.728788
30
0
11
1.67420241501604
21
0.0877412306412968
31
0
210
0
220
0
230
1
40
0.994522
41
-2.13523778601171
42
-1.09083078249645
0
ELLIPSE
5
93
100
AcDbEntity
8
1
62
256
6
ByLayer
370
-1
48
1
60
0
100
AcDbEllipse
10
14.843717
20
-8.700463
30
0
11
1.20484653368139
21
0.0631433312071128
31
0
210
0
220
0
230
1
40
0.994522
41
-2.73065974270327
42
-2.59259447587943
0
ELLIPSE
5
94
100
AcDbEntity
8
1
62
256
6
ByLayer
370
-1
48
1
60
0
100
AcDbEllipse
10
13.213365
20
-9.531765
30
0
11
-0.685059860841638
21
-0.0359024659826587
31
0
210
0
220
0
230
1
40
0.994522
41
-2.54001306807441
42
-1.87036577437011
0
ELLIPSE
5
95
100
AcDbEntity
8
1
62
256
6
ByLayer
370
-1
48
1
60
0
100
AcDbEllipse
10
16.48296
20
-9.508673
30
0
11
-0.685059860841638
21
-0.0359024659826587
31
0
210
0
220
0
230
1
40
0.994522
41
-1.35261792435963
42
-0.568627280738829
0
ELLIPSE
5
96
100
AcDbEntity
8
1
62
256
6
ByLayer
370
-1
48
1
60
0
100
AcDbEllipse
10
14.845202
20
-8.728788
30
0
11
1.67420241501604
21
0.0877412306412968
31
0
210
0
220
0
230
1
40
0.994522
41
3.0951688746086
42
-2.13523778601171
0
ELLIPSE
5
97
100
AcDbEntity
8
1
62
256
6
ByLayer
370
-1
48
1
60
0
100
AcDbEllipse
10
14.837406
20
-8.580039
30
0
11
1.20484653368139
21
0.0631433312071128
31
0
210
0
220
0
230
1
40
0.994522
41
-1.61303428425408
42
-0.568627280738828
0
ELLIPSE
5
98
100
AcDbEntity
8
1
62
256
6
ByLayer
370
-1
48
1
60
0
100
AcDbEllipse
10
14.843717
20
-8.700463
30
0
11
1.20484653368139
21
0.0631433312071128
31
0
210
0
220
0
230
1
40
0.994522
41
0.410932910886566
42
0.548998177710309
0
ELLIPSE
5
99
100
AcDbEntity
8
1
62
256
6
ByLayer
370
-1
48
1
60
0
100
AcDbEllipse
10
14.158676
20
-9.780545
30
0
11
-0.291599824148336
21
-0.0152820992229393
31
0
210
0
220
0
230
1
40
0.994522
41
0.232619158441737
42
2.31254901295651
0
ELLIPSE
5
9A
100
AcDbEntity
8
1
62
256
6
ByLayer
370
-1
48
1
60
0
100
AcDbEllipse
10
14.845202
20
-8.728788
30
0
11
1.67420241501604
21
0.0877412306412968
31
0
210
0
220
0
230
1
40
0.994522
41
2.05076187109334
42
3.0951688746086
0
ELLIPSE
5
9B
100
AcDbEntity
8
1
62
256
6
ByLayer
370
-1
48
1
60
0
100
AcDbEllipse
10
14.837406
20
-8.580039
30
0
11
-1.20484653368139
21
-0.0631433312071107
31
0
210
0
220
0
230
1
40
0.994522
41
-0.339119304663664
42
0.410932910886524
0
ELLIPSE
5
9C
100
AcDbEntity
8
1
62
256
6
ByLayer
370
-1
48
1
60
0
100
AcDbEllipse
10
14.837406
20
-8.580039
30
0
11
-1.20484653368139
21
-0.0631433312071107
31
0
210
0
220
0
230
1
40
0.994522
41
-2.54121386627908
42
-1.86510298485202
0
ELLIPSE
5
9D
100
AcDbEntity
8
1
62
256
6
ByLayer
370
-1
48
1
60
0
100
AcDbEllipse
10
15.539741
20
-9.766247
30
0
11
-0.291599824148336
21
-0.0152820992229393
31
0
210
0
220
0
230
1
40
0.994522
41
0.744567725714934
42
2.8503979388194
0
ELLIPSE
5
9E
100
AcDbEntity
8
1
62
256
6
ByLayer
370
-1
48
1
60
0
100
AcDbEllipse
10
14.837406
20
-8.580039
30
0
11
1.20484653368139
21
0.0631433312071128
31
0
210
0
220
0
230
1
40
0.994522
41
-2.73065974270327
42
-2.59259447587943
0
ELLIPSE
5
9F
100
AcDbEntity
8
1
62
256
6
ByLayer
370
-1
48
1
60
0
100
AcDbEllipse
10
16.221863
20
-8.571469
30
0
11
-0.291599824148336
21
-0.0152820992229393
31
0
210
0
220
0
230
1
40
0.994522
41
1.78897472923017
42
2.89086600297513
0
ELLIPSE
5
A0
100
AcDbEntity
8
1
62
256
6
ByLayer
370
-1
48
1
60
0
100
AcDbEllipse
10
14.845202
20
-8.728788
30
0
11
1.67420241501604
21
0.0877412306412968
31
0
210
0
220
0
230
1
40
0.994522
41
1.00635486757808
42
2.05076187109334
0
ELLIPSE
5
A1
100
AcDbEntity
8
1
62
256
6
ByLayer
370
-1
48
1
60
0
100
AcDbEllipse
10
13.213365
20
-9.531765
30
0
11
-0.685059860841638
21
-0.0359024659826587
31
0
210
0
220
0
230
1
40
0.994522
41
-3.14158564881032
42
-2.78324115050828
0
ELLIPSE
5
A2
100
AcDbEntity
8
1
62
256
6
ByLayer
370
-1
48
1
60
0
100
AcDbEllipse
10
16.461447
20
-7.628314
30
0
11
-0.685059860841638
21
-0.0359024659826587
31
0
210
0
220
0
230
1
40
0.994522
41
-0.311295790622801
42
6.99514562492801E-06
0
ELLIPSE
5
A3
100
AcDbEntity
8
1
62
256
6
ByLayer
370
-1
48
1
60
0
100
AcDbEllipse
10
16.48296
20
-9.508673
30
0
11
-0.685059860841638
21
-0.0359024659826587
31
0
210
0
220
0
230
1
40
0.994522
41
-0.568627280738829
42
-1.14626049703485E-06
0
ELLIPSE
5
A4
100
AcDbEntity
8
1
62
256
6
ByLayer
370
-1
48
1
60
0
100
AcDbEllipse
10
14.837406
20
-8.580039
30
0
11
-1.20484653368139
21
-0.0631433312071107
31
0
210
0
220
0
230
1
40
0.994522
41
-1.35372748922625
42
-0.678224289150247
0
ELLIPSE
5
A5
100
AcDbEntity
8
1
62
256
6
ByLayer
370
-1
48
1
60
0
100
AcDbEllipse
10
14.843695
20
-8.700036
30
0
11
2.62140252873076
21
0.13738188513773
31
0
210
0
220
0
230
1
40
0.994522
41
0
42
6.28318530717959
0
ELLIPSE
5
A6
100
AcDbEntity
8
1
62
256
6
ByLayer
370
-1
48
1
60
0
100
AcDbEllipse
10
14.845202
20
-8.728788
30
0
11
1.79753316255824
21
0.0942047212373006
31
0
210
0
220
0
230
1
40
0.994522
41
0
42
6.28318530717959
0
ELLIPSE
5
A7
100
AcDbEntity
8
1
62
256
6
ByLayer
370
-1
48
1
60
0
100
AcDbEllipse
10
-654.72766
20
5.656854
30
0
11
685.472457623922
21
0.391462023240738
31
0
210
0
220
0
230
-1
40
0.005441
41
0.241219943351517
42
0.266510620529784
0
ELLIPSE
5
A8
100
AcDbEntity
8
1
62
256
6
ByLayer
370
-1
48
1
60
0
100
AcDbEllipse
10
-654.751377
20
5.656806
30
0
11
685.496189383946
21
0.391509093891679
31
0
210
0
220
0
230
-1
40
0.005441
41
-0.267007560170668
42
-0.260631373301284
0
ELLIPSE
5
A9
100
AcDbEntity
8
1
62
256
6
ByLayer
370
-1
48
1
60
0
100
AcDbEllipse
10
5.578851
20
0
30
0
11
0.584036665126166
21
-12.4999999951906
31
0
210
0
220
0
230
-1
40
0.000595
41
-2.82531721906825
42
-0.120262064282203
0
ELLIPSE
5
AA
100
AcDbEntity
8
1
62
256
6
ByLayer
370
-1
48
1
60
0
100
AcDbEllipse
10
21.949434
20
-7.286104
30
0
11
-3.19561451121462
21
-0.167475059977416
31
0
210
0
220
0
230
1
40
0.994522
41
-0.616987723653954
42
-0.529363769472437
0
ELLIPSE
5
AB
100
AcDbEntity
8
1
62
256
6
ByLayer
370
-1
48
1
60
0
100
AcDbEllipse
10
10.15359
20
-14.198743
30
0
11
-3.19561451121463
21
-0.167475059977418
31
0
210
0
220
0
230
1
40
0.994522
41
-1.63613229615194
42
-0.866470651970166
0
ELLIPSE
5
AC
100
AcDbEntity
8
1
62
256
6
ByLayer
370
-1
48
1
60
0
100
AcDbEllipse
10
10.157401
20
-0.449798
30
0
11
1.49794430213186
21
0.0785039343644171
31
0
210
0
220
0
230
1
40
0.994522
41
-2.267920269073
42
-1.92082574804369
0
ELLIPSE
5
AD
100
AcDbEntity
8
1
62
256
6
ByLayer
370
-1
48
1
60
0
100
AcDbEllipse
10
10.157401
20
-0.449798
30
0
11
1.49794430213186
21
0.0785039343644171
31
0
210
0
220
0
230
1
40
0.994522
41
-0.495539725706582
42
-0.40072093920171
0
ELLIPSE
5
AE
100
AcDbEntity
8
1
62
256
6
ByLayer
370
-1
48
1
60
0
100
AcDbEllipse
10
10.721373
20
-2.339085
30
0
11
-1.62277299397618
21
-0.0850459288947824
31
0
210
0
220
0
230
1
40
0.994522
41
0.0712144219717211
42
0.924407913451114
0
ELLIPSE
5
AF
100
AcDbEntity
8
1
62
256
6
ByLayer
370
-1
48
1
60
0
100
AcDbEllipse
10
10.733409
20
-2.568733
30
0
11
-1.62277299397618
21
-0.0850459288947824
31
0
210
0
220
0
230
1
40
0.994522
41
-0.498363537933492
42
0.924407781680987
0
ELLIPSE
5
B0
100
AcDbEntity
8
1
62
256
6
ByLayer
370
-1
48
1
60
0
100
AcDbEllipse
10
10.153845
20
-0.381947
30
0
11
1.49794430213186
21
0.0785039343644171
31
0
210
0
220
0
230
1
40
0.994522
41
-2.99386569152813
42
-1.92081575239652
0
ELLIPSE
5
B1
100
AcDbEntity
8
1
62
256
6
ByLayer
370
-1
48
1
60
0
100
AcDbEllipse
10
10.153845
20
-0.381947
30
0
11
1.49794430213186
21
0.0785039343644171
31
0
210
0
220
0
230
1
40
0.994522
41
-0.533016753315584
42
-0.147680470721154
0
ELLIPSE
5
B2
100
AcDbEntity
8
1
62
256
6
ByLayer
370
-1
48
1
60
0
100
AcDbEllipse
10
10.740795
20
-2.709663
30
0
11
1.77241514177125
21
0.0928883415478694
31
0
210
0
220
0
230
1
40
0.994522
41
2.62171087556607
42
-2.18166156499293
0
ELLIPSE
5
B3
100
AcDbEntity
8
1
62
256
6
ByLayer
370
-1
48
1
60
0
100
AcDbEllipse
10
10.176822
20
-0.820376
30
0
11
-1.49794430213186
21
-0.0785039343644146
31
0
210
0
220
0
230
1
40
0.994522
41
2.84374308134318
42
0.770801017561616
0
POINT
5
41
100
AcDbEntity
8
1
62
256
6
ByLayer
370
-1
48
1
60
0
100
AcDbPoint
10
0
20
0
30
0
39
0
210
0
220
0
230
1
50
360
0
POINT
5
43
100
AcDbEntity
8
2
62
256
6
ByLayer
370
-1
48
1
60
0
100
AcDbPoint
10
20
20
16.9
30
0
39
0
210
0
220
0
230
1
50
360
0
POINT
5
45
100
AcDbEntity
8
2
62
256
6
ByLayer
370
-1
48
1
60
0
100
AcDbPoint
10
19.776709
20
15.698159
30
0
39
0
210
0
220
0
230
1
50
360
0
POINT
5
46
100
AcDbEntity
8
80
62
256
6
ByLayer
370
-1
48
1
60
0
100
AcDbPoint
10
0
20
0
30
0
39
0
210
0
220
0
230
1
50
360
0
POINT
5
48
100
AcDbEntity
8
81
62
256
6
ByLayer
370
-1
48
1
60
0
100
AcDbPoint
10
20
20
-16.9
30
0
39
0
210
0
220
0
230
1
50
360
0
SPLINE
5
B4
100
AcDbEntity
8
1
62
256
6
ByLayer
370
-1
48
1
60
0
100
AcDbSpline
70
4
71
3
72
16
73
12
40
0
40
0
40
0
40
0
40
0.0607902392245306
40
0.0607902392245306
40
0.281561373733921
40
0.281561373733921
40
0.505013001882379
40
0.505013001882379
40
0.742711096103856
40
0.742711096103856
40
1
40
1
40
1
40
1
41
1
10
14.0233225839397
20
-10.1824888815919
30
0
41
1
10
14.016164989815
20
-10.1784889602628
30
0
41
1
10
14.0091689920399
20
-10.1741662300165
30
0
41
1
10
13.9778913303945
20
-10.1528975927349
30
0
41
1
10
13.9557583360757
20
-10.1320312310473
30
0
41
1
10
13.9192528149094
20
-10.0852240396495
30
0
41
1
10
13.9044945648183
20
-10.0586440597729
30
0
41
1
10
13.8830113708224
20
-10.0019360823306
30
0
41
1
10
13.8765598135012
20
-9.97099198185683
30
0
41
1
10
13.8726369358523
20
-9.9076504569363
30
0
41
1
10
13.8758641273018
20
-9.87456960099084
30
0
41
1
10
13.8836257829715
20
-9.8434627972199
30
0
0
SPLINE
5
B5
100
AcDbEntity
8
1
62
256
6
ByLayer
370
-1
48
1
60
0
100
AcDbSpline
70
4
71
3
72
14
73
10
40
0
40
0
40
0
40
0
40
0.264198563983267
40
0.264198563983267
40
0.551180091976568
40
0.551180091976568
40
0.810647877478247
40
0.810647877478247
40
1
40
1
40
1
40
1
41
1
10
16.3005856153786
20
-8.42706808153628
30
0
41
1
10
16.3311748838748
20
-8.43642670084841
30
0
41
1
10
16.3613478882124
20
-8.45093397973025
30
0
41
1
10
16.4184557253733
20
-8.4908487240674
30
0
41
1
10
16.4457538119182
20
-8.51778915370781
30
0
41
1
10
16.4867646692101
20
-8.57690259967626
30
0
41
1
10
16.5021000047983
20
-8.60925947588956
30
0
41
1
10
16.5179408728407
20
-8.66736823092694
30
0
41
1
10
16.521506055613
20
-8.69309008613448
30
0
41
1
10
16.5216498986237
20
-8.71841092749435
30
0
0
SPLINE
5
B6
100
AcDbEntity
8
1
62
256
6
ByLayer
370
-1
48
1
60
0
100
AcDbSpline
70
4
71
3
72
18
73
14
40
0
40
0
40
0
40
0
40
0.211800415122247
40
0.211800415122247
40
0.386041312795085
40
0.386041312795085
40
0.561971697841243
40
0.561971697841243
40
0.714952592205548
40
0.714952592205548
40
0.917684984212482
40
0.917684984212482
40
1
40
1
40
1
40
1
41
1
10
15.3151313593336
20
-7.31341989132454
30
0
41
1
10
15.26533092302
20
-7.35978689282638
30
0
41
1
10
15.2059535548766
20
-7.40030875293076
30
0
41
1
10
15.084613466252
20
-7.45705773740727
30
0
41
1
10
15.0235325081964
20
-7.47683779214401
30
0
41
1
10
14.8961129643087
20
-7.50003420878167
30
0
41
1
10
14.8278026357758
20
-7.5034803039874
30
0
41
1
10
14.7051439854576
20
-7.49351440222648
30
0
41
1
10
14.6486652432138
20
-7.48219418014193
30
0
41
1
10
14.5276877735317
20
-7.44358679956687
30
0
41
1
10
14.4643723191959
20
-7.41183031046685
30
0
41
1
10
14.3873449986365
20
-7.3580661994618
30
0
41
1
10
14.3661924209653
20
-7.34124944598472
30
0
41
1
10
14.3464086774208
20
-7.32344946582057
30
0
0
SPLINE
5
B7
100
AcDbEntity
8
1
62
256
6
ByLayer
370
-1
48
1
60
0
100
AcDbSpline
70
4
71
3
72
16
73
12
40
0
40
0
40
0
40
0
40
0.040486332319623
40
0.040486332319623
40
0.263709756947548
40
0.263709756947548
40
0.48843907749526
40
0.48843907749526
40
0.726572619619932
40
0.726572619619932
40
1
40
1
40
1
40
1
41
1
10
13.9947400232705
20
-7.29240225239428
30
0
41
1
10
13.9994206344967
20
-7.2896593052761
30
0
41
1
10
14.0041800439335
20
-7.28703748714926
30
0
41
1
10
14.0353633116421
20
-7.27092187014546
30
0
41
1
10
14.064139949718
20
-7.26104030127064
30
0
41
1
10
14.121957493249
20
-7.24998819209151
30
0
41
1
10
14.1517329621021
20
-7.24871432974689
30
0
41
1
10
14.21011291788
20
-7.25432911662782
30
0
41
1
10
14.2392772904045
20
-7.26174931026077
30
0
41
1
10
14.2959856014122
20
-7.285277496465
30
0
41
1
10
14.3234501344987
20
-7.30279303102157
30
0
41
1
10
14.3464086774208
20
-7.32344946582057
30
0
0
SPLINE
5
B8
100
AcDbEntity
8
1
62
256
6
ByLayer
370
-1
48
1
60
0
100
AcDbSpline
70
4
71
3
72
20
73
16
40
0
40
0
40
0
40
0
40
0.0870335065829022
40
0.0870335065829022
40
0.286756166242674
40
0.286756166242674
40
0.448602442975409
40
0.448602442975409
40
0.611250433359177
40
0.611250433359177
40
0.763680654593123
40
0.763680654593123
40
0.980399389142147
40
0.980399389142147
40
1
40
1
40
1
40
1
41
1
10
13.860655390202
20
-7.60811219786831
30
0
41
1
10
13.8682835313536
20
-7.63451692976247
30
0
41
1
10
13.8741912676306
20
-7.66173318325824
30
0
41
1
10
13.8874378604559
20
-7.75315134996191
30
0
41
1
10
13.8868406659699
20
-7.82120624614149
30
0
41
1
10
13.864715523556
20
-7.94528316456564
30
0
41
1
10
13.8467727023492
20
-8.00250887645805
30
0
41
1
10
13.7957912785066
20
-8.11160851538332
30
0
41
1
10
13.7619483573741
20
-8.16485028393924
30
0
41
1
10
13.6865742174033
20
-8.25609552466472
30
0
41
1
10
13.6448591795405
20
-8.29597109060472
30
0
41
1
10
13.5387550302726
20
-8.37744103287963
30
0
41
1
10
13.4704303986409
20
-8.41433168893889
30
0
41
1
10
13.3949109380915
20
-8.44183114283902
30
0
41
1
10
13.3885587836763
20
-8.44404534826438
30
0
41
1
10
13.3821932486558
20
-8.44616661263879
30
0
0
SPLINE
5
B9
100
AcDbEntity
8
1
62
256
6
ByLayer
370
-1
48
1
60
0
100
AcDbSpline
70
4
71
3
72
18
73
14
40
0
40
0
40
0
40
0
40
0.204150139833526
40
0.204150139833526
40
0.379758291704163
40
0.379758291704163
40
0.557145594850652
40
0.557145594850652
40
0.7104246723108
40
0.7104246723108
40
0.911823617753799
40
0.911823617753799
40
1
40
1
40
1
40
1
41
1
10
15.8285561182664
20
-9.82672027168829
30
0
41
1
10
15.8103444139748
20
-9.75763801395317
30
0
41
1
10
15.8015133377073
20
-9.6839717340371
30
0
41
1
10
15.8064533562627
20
-9.5458782499162
30
0
41
1
10
15.8174625665015
20
-9.48004050914608
30
0
41
1
10
15.858217466661
20
-9.35417952458468
30
0
41
1
10
15.8889592481033
20
-9.29242447195386
30
0
41
1
10
15.9600140553214
20
-9.19241634101712
30
0
41
1
10
15.9992385854773
20
-9.15085196085781
30
0
41
1
10
16.0966403443311
20
-9.0712926334044
30
0
41
1
10
16.1584188009017
20
-9.03692397858259
30
0
41
1
10
16.2497106986007
20
-9.00326786938243
30
0
41
1
10
16.2782495603001
20
-8.99497413202641
30
0
41
1
10
16.3070182598125
20
-8.98866585691786
30
0
0
SPLINE
5
BA
100
AcDbEntity
8
1
62
256
6
ByLayer
370
-1
48
1
60
0
100
AcDbSpline
70
4
71
3
72
14
73
10
40
0
40
0
40
0
40
0
40
0.26477460641236
40
0.26477460641236
40
0.560800324948272
40
0.560800324948272
40
0.8213235389934
40
0.8213235389934
40
1
40
1
40
1
40
1
41
1
10
15.8285561182673
20
-9.82672027168809
30
0
41
1
10
15.8368889221101
20
-9.85832900492397
30
0
41
1
10
15.8405244367936
20
-9.89204877989869
30
0
41
1
10
15.8365729285865
20
-9.96311147343982
30
0
41
1
10
15.8274131726151
20
-10.0015947368925
30
0
41
1
10
15.7969840791092
20
-10.0677060299222
30
0
41
1
10
15.7767788764863
20
-10.097054543241
30
0
41
1
10
15.7354075245575
20
-10.1382902653165
30
0
41
1
10
15.716205138168
20
-10.1531365646268
30
0
41
1
10
15.6956634607548
20
-10.1651744656913
30
0
0
SPLINE
5
BB
100
AcDbEntity
8
1
62
256
6
ByLayer
370
-1
48
1
60
0
100
AcDbSpline
70
4
71
3
72
14
73
10
40
0
40
0
40
0
40
0
40
0.281643917107715
40
0.281643917107715
40
0.568258447883877
40
0.568258447883877
40
0.827658239884457
40
0.827658239884457
40
1
40
1
40
1
40
1
41
1
10
14.3740801491338
20
-10.1214125782332
30
0
41
1
10
14.3508600783118
20
-10.1468074809513
30
0
41
1
10
14.322759118557
20
-10.1687946635569
30
0
41
1
10
14.259986436621
20
-10.2016388556306
30
0
41
1
10
14.2242040745565
20
-10.212743754207
30
0
41
1
10
14.1545329434351
20
-10.2198329293407
30
0
41
1
10
14.1197299888259
20
-10.2171981258677
30
0
41
1
10
14.0648704356348
20
-10.2024203815149
30
0
41
1
10
14.0433405835858
20
-10.1936756606069
30
0
41
1
10
14.0233225839397
20
-10.1824888815919
30
0
0
SPLINE
5
BC
100
AcDbEntity
8
1
62
256
6
ByLayer
370
-1
48
1
60
0
100
AcDbSpline
70
4
71
3
72
14
73
10
40
0
40
0
40
0
40
0
40
0.252407012041293
40
0.252407012041293
40
0.542689662017851
40
0.542689662017851
40
0.805098905082461
40
0.805098905082461
40
1
40
1
40
1
40
1
41
1
10
13.8606553902019
20
-7.60811219786834
30
0
41
1
10
13.8528618921888
20
-7.58113508490422
30
0
41
1
10
13.8493462850713
20
-7.55211078724776
30
0
41
1
10
13.8524883804478
20
-7.48923718690779
30
0
41
1
10
13.8608924450902
20
-7.45429693510226
30
0
41
1
10
13.889735345764
20
-7.39228123925915
30
0
41
1
10
13.9094383081774
20
-7.36385411846703
30
0
41
1
10
13.951554969158
20
-7.32162486954007
30
0
41
1
10
13.9723675580433
20
-7.3055130377287
30
0
41
1
10
13.9947400232705
20
-7.29240225239428
30
0
0
SPLINE
5
BD
100
AcDbEntity
8
1
62
256
6
ByLayer
370
-1
48
1
60
0
100
AcDbSpline
70
4
71
3
72
12
73
8
40
0
40
0
40
0
40
0
40
0.32101463177155
40
0.32101463177155
40
0.789489485253461
40
0.789489485253461
40
1
40
1
40
1
40
1
41
1
10
15.8387391134882
20
-8.0213143672452
30
0
41
1
10
15.8180327832866
20
-7.97452212368756
30
0
41
1
10
15.8029600525342
20
-7.92603140905129
30
0
41
1
10
15.7803887939722
20
-7.80942778628614
30
0
41
1
10
15.7789978935335
20
-7.74056049529949
30
0
41
1
10
15.7916834174507
20
-7.64703991940317
30
0
41
1
10
15.7976841661597
20
-7.61859341675324
30
0
41
1
10
15.805566696915
20
-7.59100658536346
30
0
0
SPLINE
5
BE
100
AcDbEntity
8
1
62
256
6
ByLayer
370
-1
48
1
60
0
100
AcDbSpline
70
4
71
3
72
18
73
14
40
0
40
0
40
0
40
0
40
0.04398317766931
40
0.04398317766931
40
0.267204213580162
40
0.267204213580162
40
0.492133244616874
40
0.492133244616874
40
0.730634873325861
40
0.730634873325861
40
0.992061502853171
40
0.992061502853171
40
1
40
1
40
1
40
1
41
1
10
16.5216498986237
20
-8.71841092749435
30
0
41
1
10
16.5216832105568
20
-8.72427486324207
30
0
41
1
10
16.5215372503477
20
-8.73013429922332
30
0
41
1
10
16.5195800470398
20
-8.76532703714051
30
0
41
1
10
16.5132632017394
20
-8.79451997115811
30
0
41
1
10
16.4925587381899
20
-8.84814982232123
30
0
41
1
10
16.4778669287992
20
-8.87324137750485
30
0
41
1
10
16.441635374212
20
-8.9177572387502
30
0
41
1
10
16.4193068293554
20
-8.93732590421234
30
0
41
1
10
16.3687426372165
20
-8.96927221024697
30
0
41
1
10
16.3395305063052
20
-8.98120916070289
30
0
41
1
10
16.3088487563079
20
-8.98825967264338
30
0
41
1
10
16.3079339107658
20
-8.98846507696553
30
0
41
1
10
16.3070182598125
20
-8.98866585691786
30
0
0
SPLINE
5
BF
100
AcDbEntity
8
1
62
256
6
ByLayer
370
-1
48
1
60
0
100
AcDbSpline
70
4
71
3
72
14
73
10
40
0
40
0
40
0
40
0
40
0.257830278495544
40
0.257830278495544
40
0.547433582004301
40
0.547433582004301
40
0.809276578180674
40
0.809276578180674
40
1
40
1
40
1
40
1
41
1
10
15.3151313593336
20
-7.31341989132451
30
0
41
1
10
15.3365669381643
20
-7.29346216425597
30
0
41
1
10
15.3620429944621
20
-7.27623160266484
30
0
41
1
10
15.4217085306138
20
-7.24877925036472
30
0
41
1
10
15.4575856634647
20
-7.23931413117492
30
0
41
1
10
15.5277883124239
20
-7.23430238443154
30
0
41
1
10
15.5630054745015
20
-7.23749380351131
30
0
41
1
10
15.6208984472673
20
-7.25299136918028
30
0
41
1
10
15.6449367233229
20
-7.26271287314611
30
0
41
1
10
15.6670809000856
20
-7.2750878364937
30
0
0
SPLINE
5
C0
100
AcDbEntity
8
1
62
256
6
ByLayer
370
-1
48
1
60
0
100
AcDbSpline
70
4
71
3
72
12
73
8
40
0
40
0
40
0
40
0
40
0.482727135414654
40
0.482727135414654
40
0.889876539323752
40
0.889876539323752
40
1
40
1
40
1
40
1
41
1
10
13.3886068645075
20
-9.007401301047
30
0
41
1
10
13.45579073511
20
-9.02051470248261
30
0
41
1
10
13.5225194869383
20
-9.044699727763
30
0
41
1
10
13.6366647236465
20
-9.11060788345878
30
0
41
1
10
13.6866846542545
20
-9.14990371546557
30
0
41
1
10
13.7419845622329
20
-9.20968628726087
30
0
41
1
10
13.753386590487
20
-9.22308369717658
30
0
41
1
10
13.7642613069
20
-9.23700664464971
30
0
0
SPLINE
5
C1
100
AcDbEntity
8
1
62
256
6
ByLayer
370
-1
48
1
60
0
100
AcDbSpline
70
4
71
3
72
18
73
14
40
0
40
0
40
0
40
0
40
0.204717132997442
40
0.204717132997442
40
0.380223185312699
40
0.380223185312699
40
0.557501774089628
40
0.557501774089628
40
0.710757417234514
40
0.710757417234514
40
0.912254104440917
40
0.912254104440917
40
1
40
1
40
1
40
1
41
1
10
14.3740801491338
20
-10.1214125782332
30
0
41
1
10
14.4218242275682
20
-10.0691967070362
30
0
41
1
10
14.4784937932336
20
-10.0228631379759
30
0
41
1
10
14.5965012493838
20
-9.95528316762912
30
0
41
1
10
14.657451391122
20
-9.93079267797287
30
0
41
1
10
14.7851423770088
20
-9.90157985973971
30
0
41
1
10
14.8538985063285
20
-9.89685036428568
30
0
41
1
10
14.9774200870642
20
-9.90822325603162
30
0
41
1
10
15.0343007056733
20
-9.92162711871202
30
0
41
1
10
15.155817983241
20
-9.96720138113525
30
0
41
1
10
15.2194336489668
20
-10.0044713274843
30
0
41
1
10
15.298723800864
20
-10.0682167589238
30
0
41
1
10
15.3215406953376
20
-10.089197424082
30
0
41
1
10
15.3428028310475
20
-10.1113830037359
30
0
0
SPLINE
5
C2
100
AcDbEntity
8
1
62
256
6
ByLayer
370
-1
48
1
60
0
100
AcDbSpline
70
4
71
3
72
12
73
8
40
0
40
0
40
0
40
0
40
0.314480415396874
40
0.314480415396874
40
0.781561626572703
40
0.781561626572703
40
1
40
1
40
1
40
1
41
1
10
13.8486954268823
20
-9.37961153114495
30
0
41
1
10
13.86901407321
20
-9.42655153930181
30
0
41
1
10
13.8839989859515
20
-9.47617921420311
30
0
41
1
10
13.907298004075
20
-9.59886375428445
30
0
41
1
10
13.9093892455508
20
-9.67361134162718
30
0
41
1
10
13.897662047171
20
-9.77819308330496
30
0
41
1
10
13.8916640478662
20
-9.81124741181986
30
0
41
1
10
13.8836257829715
20
-9.8434627972199
30
0
0
SPLINE
5
C3
100
AcDbEntity
8
1
62
256
6
ByLayer
370
-1
48
1
60
0
100
AcDbSpline
70
4
71
3
72
16
73
12
40
0
40
0
40
0
40
0
40
0.0559430747049103
40
0.0559430747049103
40
0.27881917643904
40
0.27881917643904
40
0.504091628803108
40
0.504091628803108
40
0.743489965613598
40
0.743489965613598
40
1
40
1
40
1
40
1
41
1
10
13.1687535854015
20
-8.73916579059124
30
0
41
1
10
13.1687112501365
20
-8.73171346793458
30
0
41
1
10
13.1689571818308
20
-8.72423822504692
30
0
41
1
10
13.1715944593634
20
-8.68728876516107
30
0
41
1
10
13.1783448082559
20
-8.65759388270536
30
0
41
1
10
13.199789062843
20
-8.60218695163553
30
0
41
1
10
13.2148190671238
20
-8.57580749731389
30
0
41
1
10
13.2516383889034
20
-8.5280307426919
30
0
41
1
10
13.2742288558072
20
-8.50643213184654
30
0
41
1
10
13.3245569903177
20
-8.4702756734128
30
0
41
1
10
13.3531283883425
20
-8.45585224825786
30
0
41
1
10
13.3821932486558
20
-8.44616661263876
30
0
0
SPLINE
5
C4
100
AcDbEntity
8
1
62
256
6
ByLayer
370
-1
48
1
60
0
100
AcDbSpline
70
4
71
3
72
16
73
12
40
0
40
0
40
0
40
0
40
0.0552854494134675
40
0.0552854494134675
40
0.278129377146092
40
0.278129377146092
40
0.503331821140749
40
0.503331821140749
40
0.742627309527315
40
0.742627309527315
40
1
40
1
40
1
40
1
41
1
10
15.6956634607548
20
-10.1651744656913
30
0
41
1
10
15.6892801463178
20
-10.1689152365208
30
0
41
1
10
15.6827471661557
20
-10.1724032674653
30
0
41
1
10
15.6495031986881
20
-10.1884922451607
30
0
41
1
10
15.6205769854964
20
-10.1971149810593
30
0
41
1
10
15.5625176638996
20
-10.2048936041592
30
0
41
1
10
15.5326495226001
20
-10.2040709982621
30
0
41
1
10
15.4741429423538
20
-10.1935289353548
30
0
41
1
10
15.444960943709
20
-10.18315588771
30
0
41
1
10
15.3903021580887
20
-10.1538868875074
30
0
41
1
10
15.3645766795271
20
-10.1341025205525
30
0
41
1
10
15.3428028310475
20
-10.111383003736
30
0
0
SPLINE
5
C5
100
AcDbEntity
8
1
62
256
6
ByLayer
370
-1
48
1
60
0
100
AcDbSpline
70
4
71
3
72
14
73
10
40
0
40
0
40
0
40
0
40
0.280821878185865
40
0.280821878185865
40
0.565723019582777
40
0.565723019582777
40
0.823481759912861
40
0.823481759912861
40
1
40
1
40
1
40
1
41
1
10
13.3886068645075
20
-9.007401301047
30
0
41
1
10
13.3562893928248
20
-9.00109335874234
30
0
41
1
10
13.3244030405976
20
-8.98877476988747
30
0
41
1
10
13.2667917085689
20
-8.95264207843331
30
0
41
1
10
13.2403035972679
20
-8.92804812851514
30
0
41
1
10
13.2008276308393
20
-8.87251257889724
30
0
41
1
10
13.1862474716332
20
-8.8415223347948
30
0
41
1
10
13.1719720989332
20
-8.78642826918107
30
0
41
1
10
13.1688877133505
20
-8.76277647907287
30
0
41
1
10
13.1687535854015
20
-8.73916579059124
30
0
0
SPLINE
5
C6
100
AcDbEntity
8
1
62
256
6
ByLayer
370
-1
48
1
60
0
100
AcDbSpline
70
4
71
3
72
18
73
14
40
0
40
0
40
0
40
0
40
0.0439428512105903
40
0.0439428512105903
40
0.265086964961245
40
0.265086964961245
40
0.487944470361347
40
0.487944470361347
40
0.724266024931409
40
0.724266024931409
40
0.983312871570409
40
0.983312871570409
40
1
40
1
40
1
40
1
41
1
10
15.6670809000856
20
-7.2750878364937
30
0
41
1
10
15.6722630292251
20
-7.27798379685615
30
0
41
1
10
15.6773584949996
20
-7.2810300413756
30
0
41
1
10
15.7072527884659
20
-7.30011066387428
30
0
41
1
10
15.729884302178
20
-7.31984178040906
30
0
41
1
10
15.7673400056493
20
-7.36369632589464
30
0
41
1
10
15.7825977010398
20
-7.38839819436024
30
0
41
1
10
15.8050843790359
20
-7.44070728385935
30
0
41
1
10
15.8120834930644
20
-7.46904404028194
30
0
41
1
10
15.8171794091529
20
-7.52706049486244
30
0
41
1
10
15.8144552319347
20
-7.55733380636261
30
0
41
1
10
15.8065878324565
20
-7.58735698054292
30
0
41
1
10
15.8060870231139
20
-7.58918557742007
30
0
41
1
10
15.805566696915
20
-7.59100658536346
30
0
0
SPLINE
5
C7
100
AcDbEntity
8
1
62
256
6
ByLayer
370
-1
48
1
60
0
100
AcDbSpline
70
4
71
3
72
12
73
8
40
0
40
0
40
0
40
0
40
0.494503156284905
40
0.494503156284905
40
0.899601200648842
40
0.899601200648842
40
1
40
1
40
1
40
1
41
1
10
16.3005856153786
20
-8.42706808153631
30
0
41
1
10
16.2313639422275
20
-8.40589008941629
30
0
41
1
10
16.1626105251526
20
-8.37349393723176
30
0
41
1
10
16.0470598580375
20
-8.29504347624876
30
0
41
1
10
15.9973233295215
20
-8.25151683366659
30
0
41
1
10
15.9434944414346
20
-8.18973385799654
30
0
41
1
10
15.9331122217786
20
-8.17699211511257
30
0
41
1
10
15.9231732334704
20
-8.16391925374032
30
0
0
SPLINE
5
C8
100
AcDbEntity
8
SK1
62
256
6
ByLayer
370
-1
48
1
60
0
100
AcDbSpline
70
4
71
3
72
8
73
4
40
0
40
0
40
0
40
0
40
1
40
1
40
1
40
1
41
1
10
0
20
-11.8768869440926
30
0
41
1
10
-0.0737502492068529
20
-11.8025508411247
30
0
41
1
10
-0.147495022267208
20
-11.728209304721
30
0
41
1
10
-0.221233999999981
20
-11.6538620208067
30
0
0
SPLINE
5
C9
100
AcDbEntity
8
SK1
62
256
6
ByLayer
370
-1
48
1
60
0
100
AcDbSpline
70
4
71
3
72
8
73
4
40
0
40
0
40
0
40
0
40
1
40
1
40
1
40
1
41
1
10
-0.221233999999981
20
11.6538620208067
30
0
41
1
10
-0.147495022267208
20
11.728209304721
30
0
41
1
10
-0.0737502492068529
20
11.8025508411247
30
0
41
1
10
0
20
11.8768869440926
30
0
0
SPLINE
5
CA
100
AcDbEntity
8
1
62
256
6
ByLayer
370
-1
48
1
60
0
100
AcDbSpline
70
4
71
3
72
16
73
12
40
0
40
0
40
0
40
0
40
0.0511618858930796
40
0.0511618858930796
40
0.118927762073602
40
0.118927762073602
40
0.307032383625488
40
0.307032383625488
40
0.676245788255044
40
0.676245788255044
40
1
40
1
40
1
40
1
41
1
10
6.54527038792662
20
5.05226622353885
30
0
41
1
10
6.49963512646713
20
5.05133067431171
30
0
41
1
10
6.45361947400215
20
5.03988730264663
30
0
41
1
10
6.3565000385338
20
4.99735209112887
30
0
41
1
10
6.3062290193451
20
4.96139542404956
30
0
41
1
10
6.13614185967072
20
4.81297896295439
30
0
41
1
10
6.0387094523233
20
4.67590137794059
30
0
41
1
10
5.78186931676595
20
4.27448563891764
30
0
41
1
10
5.64876971330131
20
3.99215171907912
30
0
41
1
10
5.47697222608463
20
3.48988738289447
30
0
41
1
10
5.42829830242755
20
3.25749539161598
30
0
41
1
10
5.43799348238991
20
3.05251834808871
30
0
0
SPLINE
5
CB
100
AcDbEntity
8
1
62
256
6
ByLayer
370
-1
48
1
60
0
100
AcDbSpline
70
4
71
3
72
18
73
14
40
0
40
0
40
0
40
0
40
0.222379354001486
40
0.222379354001486
40
0.567758630039831
40
0.567758630039831
40
0.790694633039483
40
0.790694633039483
40
0.877928446652507
40
0.877928446652507
40
0.951464067190685
40
0.951464067190685
40
1
40
1
40
1
40
1
41
1
10
5.17141470557283
20
8.76572030572839
30
0
41
1
10
5.17660151666502
20
8.65256582552615
30
0
41
1
10
5.21252192056807
20
8.52507716447144
30
0
41
1
10
5.35140330219809
20
8.18561932085814
30
0
41
1
10
5.48110399005174
20
7.95907417052192
30
0
41
1
10
5.73823939258659
20
7.58644211609285
30
0
41
1
10
5.8515230172199
20
7.43654656098462
30
0
41
1
10
6.03654196047142
20
7.24375707314013
30
0
41
1
10
6.09225001653175
20
7.19088501327201
30
0
41
1
10
6.2051565164665
20
7.10454600563247
30
0
41
1
10
6.26176310673623
20
7.06848977161238
30
0
41
1
10
6.36477379597858
20
7.02930589653897
30
0
41
1
10
6.40927544441251
20
7.01933305726899
30
0
41
1
10
6.45352667177792
20
7.01847818144589
30
0
0
SPLINE
5
CC
100
AcDbEntity
8
1
62
256
6
ByLayer
370
-1
48
1
60
0
100
AcDbSpline
70
4
71
3
72
10
73
6
40
0
40
0
40
0
40
0
40
0.996855435496655
40
0.996855435496655
40
1
40
1
40
1
40
1
41
1
10
5.0260966817882
20
11.8801138365237
30
0
41
1
10
5.02404169073395
20
11.9224443267357
30
0
41
1
10
5.04485134217981
20
11.9632468184065
30
0
41
1
10
5.0876184912712
20
11.999579465358
30
0
41
1
10
5.08775510854633
20
11.9996952983045
30
0
41
1
10
5.08789194864778
20
11.9998110908858
30
0
0
SPLINE
5
CD
100
AcDbEntity
8
1
62
256
6
ByLayer
370
-1
48
1
60
0
100
AcDbSpline
70
4
71
3
72
10
73
6
40
0
40
0
40
0
40
0
40
0.272037701117079
40
0.272037701117079
40
1
40
1
40
1
40
1
41
1
10
0
20
11.8768869440926
30
0
41
1
10
0.0479399504408775
20
11.925207717657
30
0
41
1
10
0.0958822154229892
20
11.9735261950238
30
0
41
1
10
0.272124318664453
20
12.151134892564
30
0
41
1
10
0.400437896762924
20
12.280411480343
30
0
41
1
10
0.528766000000019
20
12.4096736459908
30
0
0
SPLINE
5
CE
100
AcDbEntity
8
1
62
256
6
ByLayer
370
-1
48
1
60
0
100
AcDbSpline
70
4
71
3
72
8
73
4
40
0
40
0
40
0
40
0
40
1
40
1
40
1
40
1
41
1
10
5.08789194864778
20
11.999811090886
30
0
41
1
10
5.22741239536123
20
10.7000092329042
30
0
41
1
10
5.62971531037715
20
9.54864411685685
30
0
41
1
10
6.38850657177079
20
8.41196106512433
30
0
0
SPLINE
5
CF
100
AcDbEntity
8
1
62
256
6
ByLayer
370
-1
48
1
60
0
100
AcDbSpline
70
4
71
3
72
8
73
4
40
0
40
0
40
0
40
0
40
1
40
1
40
1
40
1
41
1
10
5.08789194864778
20
11.9998110908858
30
0
41
1
10
5.06741865269055
20
12.1905446267298
30
0
41
1
10
5.05909492096913
20
12.3274844974812
30
0
41
1
10
5.0545268870834
20
12.4096736459909
30
0
0
SPLINE
5
D0
100
AcDbEntity
8
1
62
256
6
ByLayer
370
-1
48
1
60
0
100
AcDbSpline
70
4
71
3
72
8
73
4
40
0
40
0
40
0
40
0
40
1
40
1
40
1
40
1
41
1
10
9.26759190188602
20
-1.87201606936838
30
0
41
1
10
9.22933562643368
20
-1.88855090475539
30
0
41
1
10
9.19229805499992
20
-1.90276532417693
30
0
41
1
10
9.15666258818993
20
-1.91460632723073
30
0
0
SPLINE
5
D1
100
AcDbEntity
8
1
62
256
6
ByLayer
370
-1
48
1
60
0
100
AcDbSpline
70
4
71
3
72
10
73
6
40
0
40
0
40
0
40
0
40
0.727962298882926
40
0.727962298882926
40
1
40
1
40
1
40
1
41
1
10
0.528766000000019
20
-12.4096736459909
30
0
41
1
10
0.400437896762924
20
-12.280411480343
30
0
41
1
10
0.272124318664453
20
-12.151134892564
30
0
41
1
10
0.0958822154229892
20
-11.9735261950238
30
0
41
1
10
0.0479399504408775
20
-11.925207717657
30
0
41
1
10
0
20
-11.8768869440926
30
0
0
SPLINE
5
D2
100
AcDbEntity
8
1
62
256
6
ByLayer
370
-1
48
1
60
0
100
AcDbSpline
70
4
71
3
72
8
73
4
40
0
40
0
40
0
40
0
40
1
40
1
40
1
40
1
41
1
10
7.59332383746272
20
6.99617145187449
30
0
41
1
10
8.50531060854047
20
6.14779896474386
30
0
41
1
10
9.65899662210848
20
5.49084990478892
30
0
41
1
10
10.8990061793305
20
5.14604891995552
30
0
0
SPLINE
5
D3
100
AcDbEntity
8
1
62
256
6
ByLayer
370
-1
48
1
60
0
100
AcDbSpline
70
4
71
3
72
10
73
6
40
0
40
0
40
0
40
0
40
0.0002245855608567
40
0.0002245855608567
40
1
40
1
40
1
40
1
41
1
10
5.82281450527207
20
9.40681658872962
30
0
41
1
10
5.8228140754666
20
9.40681749176188
30
0
41
1
10
5.82281364496116
20
9.40681839446058
30
0
41
1
10
5.82149965005266
20
9.40957057608244
30
0
41
1
10
5.89452660962075
20
9.2369933502934
30
0
41
1
10
6.0583060593637
20
8.94769888075075
30
0
0
SPLINE
5
D4
100
AcDbEntity
8
1
62
256
6
ByLayer
370
-1
48
1
60
0
100
AcDbSpline
70
4
71
3
72
8
73
4
40
0
40
0
40
0
40
0
40
1
40
1
40
1
40
1
41
1
10
6.34137526428981
20
8.48339143894447
30
0
41
1
10
6.35765733184166
20
8.45844121564949
30
0
41
1
10
6.37436576292879
20
8.43320942686418
30
0
41
1
10
6.39149293425453
20
8.40771978794993
30
0
0
SPLINE
5
D5
100
AcDbEntity
8
1
62
256
6
ByLayer
370
-1
48
1
60
0
100
AcDbSpline
70
4
71
3
72
10
73
6
40
0
40
0
40
0
40
0
40
0.823350546201268
40
0.823350546201268
40
1
40
1
40
1
40
1
41
1
10
7.56070227070279
20
7.02892163358541
30
0
41
1
10
7.69155647811158
20
6.90467556921351
30
0
41
1
10
7.82836638349465
20
6.78322991738889
30
0
41
1
10
8.00090833687028
20
6.64178592721203
30
0
41
1
10
8.03158838767251
20
6.61702908421563
30
0
41
1
10
8.06246488554615
20
6.59250325325439
30
0
0
SPLINE
5
D6
100
AcDbEntity
8
1
62
256
6
ByLayer
370
-1
48
1
60
0
100
AcDbSpline
70
4
71
3
72
8
73
4
40
0
40
0
40
0
40
0
40
1
40
1
40
1
40
1
41
1
10
10.488887320843
20
5.27752125342178
30
0
41
1
10
10.6546328877865
20
5.22156876330882
30
0
41
1
10
10.8222931375689
20
5.17089503709292
30
0
41
1
10
10.9915164490201
20
5.12565649329895
30
0
0
LINE
5
4A
100
AcDbEntity
8
80
62
256
6
ByLayer
370
-1
48
1
60
0
100
AcDbLine
10
0
20
0
30
0
11
-10
21
0
31
0
39
0
210
0
220
0
230
1
0
LINE
5
4B
100
AcDbEntity
8
81
62
256
6
ByLayer
370
-1
48
1
60
0
100
AcDbLine
10
20
20
-16.9
30
0
11
30
21
-16.9
31
0
39
0
210
0
220
0
230
1
0
LINE
5
4C
100
AcDbEntity
8
SK4
62
256
6
ByLayer
370
-1
48
0.05
60
0
100
AcDbLine
10
-10
20
0
30
0
11
24.776709
21
0
31
0
39
0
210
0
220
0
230
1
0
LINE
5
4E
100
AcDbEntity
8
4
62
256
6
ByLayer
370
-1
48
0.05
60
0
100
AcDbLine
10
0
20
0
30
0
11
29.776709
21
0
31
0
39
0
210
0
220
0
230
1
0
LINE
5
50
100
AcDbEntity
8
1
62
256
6
ByLayer
370
-1
48
1
60
0
100
AcDbLine
10
13.883745
20
-7.745888
30
0
11
13.876912
21
-7.615503
31
0
39
0
210
0
220
0
230
1
0
LINE
5
51
100
AcDbEntity
8
1
62
256
6
ByLayer
370
-1
48
1
60
0
100
AcDbLine
10
15.776387
20
-7.664216
30
0
11
15.783066
21
-7.791662
31
0
39
0
210
0
220
0
230
1
0
LINE
5
52
100
AcDbEntity
8
1
62
256
6
ByLayer
370
-1
48
1
60
0
100
AcDbLine
10
12.21614
20
-8.720031
30
0
11
12.222292
21
-8.837418
31
0
39
0
210
0
220
0
230
1
0
LINE
5
53
100
AcDbEntity
8
1
62
256
6
ByLayer
370
-1
48
1
60
0
100
AcDbLine
10
17.465097
20
-8.562655
30
0
11
17.458945
21
-8.445267
31
0
39
0
210
0
220
0
230
1
0
LINE
5
54
100
AcDbEntity
8
1
62
256
6
ByLayer
370
-1
48
1
60
0
100
AcDbLine
10
15.7979
20
-9.544576
30
0
11
15.80473
21
-9.674899
31
0
39
0
210
0
220
0
230
1
0
LINE
5
55
100
AcDbEntity
8
1
62
256
6
ByLayer
370
-1
48
1
60
0
100
AcDbLine
10
13.905104
20
-9.623313
30
0
11
13.898425
21
-9.495863
31
0
39
0
210
0
220
0
230
1
0
LINE
5
56
100
AcDbEntity
8
SK1
62
256
6
ByLayer
370
-1
48
1
60
0
100
AcDbLine
10
-3.39
20
-2.955
30
0
11
-0.22125
21
-2.955
31
0
39
0
210
0
220
0
230
1
0
LINE
5
58
100
AcDbEntity
8
SK1
62
256
6
ByLayer
370
-1
48
1
60
0
100
AcDbLine
10
-0.22125
20
2.955
30
0
11
-3.39
21
2.955
31
0
39
0
210
0
220
0
230
1
0
LINE
5
59
100
AcDbEntity
8
SK1
62
256
6
ByLayer
370
-1
48
1
60
0
100
AcDbLine
10
-3.39
20
2.955
30
0
11
-3.89
21
2.821025
31
0
39
0
210
0
220
0
230
1
0
LINE
5
5A
100
AcDbEntity
8
SK1
62
256
6
ByLayer
370
-1
48
1
60
0
100
AcDbLine
10
-3.89
20
-2.821025
30
0
11
-3.39
21
-2.955
31
0
39
0
210
0
220
0
230
1
0
LINE
5
5B
100
AcDbEntity
8
SK1
62
256
6
ByLayer
370
-1
48
1
60
0
100
AcDbLine
10
-3.39
20
2.955
30
0
11
-3.39
21
-2.955
31
0
39
0
210
0
220
0
230
1
0
LINE
5
5C
100
AcDbEntity
8
SK1
62
256
6
ByLayer
370
-1
48
1
60
0
100
AcDbLine
10
-3.89
20
2.821025
30
0
11
-3.89
21
-2.821025
31
0
39
0
210
0
220
0
230
1
0
LINE
5
5D
100
AcDbEntity
8
1
62
256
6
ByLayer
370
-1
48
1
60
0
100
AcDbLine
10
18.785045
20
-16.779915
30
0
11
10.569656
21
-11.675777
31
0
39
0
210
0
220
0
230
1
0
LINE
5
5E
100
AcDbEntity
8
1
62
256
6
ByLayer
370
-1
48
1
60
0
100
AcDbLine
10
10.907221
20
-0.71319
30
0
11
19.122609
21
-5.817327
31
0
39
0
210
0
220
0
230
1
0
LINE
5
5F
100
AcDbEntity
8
1
62
256
6
ByLayer
370
-1
48
1
60
0
100
AcDbLine
10
19.494579
20
-6.445565
30
0
11
19.998899
21
-16.068568
31
0
39
0
210
0
220
0
230
1
0
LINE
5
60
100
AcDbEntity
8
1
62
256
6
ByLayer
370
-1
48
1
60
0
100
AcDbLine
10
10.197687
20
-11.04754
30
0
11
9.693366
21
-1.424537
31
0
39
0
210
0
220
0
230
1
0
LINE
5
61
100
AcDbEntity
8
1
62
256
6
ByLayer
370
-1
48
1
60
0
100
AcDbLine
10
15.335603
20
-9.974006
30
0
11
15.342803
21
-10.111383
31
0
39
0
210
0
220
0
230
1
0
LINE
5
62
100
AcDbEntity
8
1
62
256
6
ByLayer
370
-1
48
1
60
0
100
AcDbLine
10
13.764261
20
-9.237007
30
0
11
13.75795
21
-9.116583
31
0
39
0
210
0
220
0
230
1
0
LINE
5
63
100
AcDbEntity
8
1
62
256
6
ByLayer
370
-1
48
1
60
0
100
AcDbLine
10
14.366881
20
-9.984036
30
0
11
14.37408
21
-10.121413
31
0
39
0
210
0
220
0
230
1
0
LINE
5
64
100
AcDbEntity
8
1
62
256
6
ByLayer
370
-1
48
1
60
0
100
AcDbLine
10
13.842384
20
-9.259188
30
0
11
13.848695
21
-9.379612
31
0
39
0
210
0
220
0
230
1
0
LINE
5
65
100
AcDbEntity
8
1
62
256
6
ByLayer
370
-1
48
1
60
0
100
AcDbLine
10
16.299819
20
-8.851289
30
0
11
16.307018
21
-8.988666
31
0
39
0
210
0
220
0
230
1
0
LINE
5
66
100
AcDbEntity
8
1
62
256
6
ByLayer
370
-1
48
1
60
0
100
AcDbLine
10
13.855253
20
-7.505022
30
0
11
13.860655
21
-7.608112
31
0
39
0
210
0
220
0
230
1
0
LINE
5
67
100
AcDbEntity
8
1
62
256
6
ByLayer
370
-1
48
1
60
0
100
AcDbLine
10
15.798377
20
-7.453811
30
0
11
15.805567
21
-7.591007
31
0
39
0
210
0
220
0
230
1
0
LINE
5
68
100
AcDbEntity
8
1
62
256
6
ByLayer
370
-1
48
1
60
0
100
AcDbLine
10
13.381417
20
-8.870206
30
0
11
13.388607
21
-9.007401
31
0
39
0
210
0
220
0
230
1
0
LINE
5
69
100
AcDbEntity
8
SK1
62
256
6
ByLayer
370
-1
48
1
60
0
100
AcDbLine
10
-0.221234
20
11.653862
30
0
11
-0.221234
21
-11.653862
31
0
39
0
210
0
220
0
230
1
0
LINE
5
6A
100
AcDbEntity
8
SK1
62
256
6
ByLayer
370
-1
48
1
60
0
100
AcDbLine
10
0
20
11.876887
30
0
11
0
21
-11.876887
31
0
39
0
210
0
220
0
230
1
0
LINE
5
6B
100
AcDbEntity
8
1
62
256
6
ByLayer
370
-1
48
1
60
0
100
AcDbLine
10
7.326008
20
-11.680167
30
0
11
7.95744
21
-11.885314
31
0
39
0
210
0
220
0
230
1
0
LINE
5
6C
100
AcDbEntity
8
1
62
256
6
ByLayer
370
-1
48
1
60
0
100
AcDbLine
10
7.326008
20
-11.680167
30
0
11
6.54527
21
5.052266
31
0
39
0
210
0
220
0
230
1
0
LINE
5
6D
100
AcDbEntity
8
1
62
256
6
ByLayer
370
-1
48
1
60
0
100
AcDbLine
10
6.453527
20
7.018478
30
0
11
6.388507
21
8.411961
31
0
39
0
210
0
220
0
230
1
0
LINE
5
6E
100
AcDbEntity
8
1
62
256
6
ByLayer
370
-1
48
1
60
0
100
AcDbLine
10
6.159493
20
-12.409674
30
0
11
7.250517
21
-12.409674
31
0
39
0
210
0
220
0
230
1
0
LINE
5
6F
100
AcDbEntity
8
1
62
256
6
ByLayer
370
-1
48
1
60
0
100
AcDbLine
10
6.159562
20
-12.409674
30
0
11
0.528766
21
-12.409674
31
0
39
0
210
0
220
0
230
1
0
LINE
5
70
100
AcDbEntity
8
1
62
256
6
ByLayer
370
-1
48
1
60
0
100
AcDbLine
10
0.528766
20
12.409674
30
0
11
0.528766
21
-12.409674
31
0
39
0
210
0
220
0
230
1
0
LINE
5
71
100
AcDbEntity
8
1
62
256
6
ByLayer
370
-1
48
1
60
0
100
AcDbLine
10
6.109322
20
-11.284874
30
0
11
7.326008
21
-11.680167
31
0
39
0
210
0
220
0
230
1
0
LINE
5
72
100
AcDbEntity
8
1
62
256
6
ByLayer
370
-1
48
1
60
0
100
AcDbLine
10
0.528766
20
12.409674
30
0
11
5.054527
21
12.409674
31
0
39
0
210
0
220
0
230
1
0
LINE
5
73
100
AcDbEntity
8
1
62
256
6
ByLayer
370
-1
48
1
60
0
100
AcDbLine
10
13.042199
20
4.853625
30
0
11
13.954813
21
4.853625
31
0
39
0
210
0
220
0
230
1
0
LINE
5
74
100
AcDbEntity
8
1
62
256
6
ByLayer
370
-1
48
1
60
0
100
AcDbLine
10
19.246643
20
-5.583908
30
0
11
18.94796
21
0.115304
31
0
39
0
210
0
220
0
230
1
0
LINE
5
75
100
AcDbEntity
8
1
62
256
6
ByLayer
370
-1
48
1
60
0
100
AcDbLine
10
7.250517
20
-12.409674
30
0
11
7.817301
21
-11.839784
31
0
39
0
210
0
220
0
230
1
0
LINE
5
76
100
AcDbEntity
8
1
62
256
6
ByLayer
370
-1
48
1
60
0
100
AcDbLine
10
9.799852
20
-4.206866
30
0
11
9.832781
21
-4.084697
31
0
39
0
210
0
220
0
230
1
0
LINE
5
77
100
AcDbEntity
8
1
62
256
6
ByLayer
370
-1
48
1
60
0
100
AcDbLine
10
11.567134
20
-0.958633
30
0
11
11.576048
21
-1.128723
31
0
39
0
210
0
220
0
230
1
0
LINE
5
78
100
AcDbEntity
8
1
62
256
6
ByLayer
370
-1
48
1
60
0
100
AcDbLine
10
9.267592
20
-1.872016
30
0
11
9.255557
21
-1.642369
31
0
39
0
210
0
220
0
230
1
0
LINE
5
79
100
AcDbEntity
8
1
62
256
6
ByLayer
370
-1
48
1
60
0
100
AcDbLine
10
0
20
11.876887
30
0
11
0
21
-11.876887
31
0
39
0
210
0
220
0
230
1
0
LINE
5
7A
100
AcDbEntity
8
1
62
256
6
ByLayer
370
-1
48
1
60
0
100
AcDbLine
10
9.799852
20
-4.206866
30
0
11
9.840505
21
-4.232123
31
0
39
0
210
0
220
0
230
1
0
LINE
5
7B
100
AcDbEntity
8
2
62
256
6
ByLayer
370
-1
48
1
60
1
100
AcDbLine
10
20
20
0
30
0
11
20.001
21
0.001
31
0
39
0
210
0
220
0
230
1
0
MTEXT
5
D7
100
AcDbEntity
8
SK6
62
256
6
ByLayer
370
-1
48
1
60
0
100
AcDbMText
10
10.875
20
19.425
30
0
210
0
220
0
230
1
1
\W00.712;\fsimplex.shx,bigfont.shx;570-SDUCL-25-11 
40
3.5
41
0
44
1.084337
50
0
71
7
72
5
7
DEFAULT
0
DIMENSION
5
10B
100
AcDbEntity
8
SK2
62
256
6
ByLayer
370
-3
48
1
60
0
100
AcDbDimension
2
DimnDraft3D1
10
-9.75
20
-12.5
30
0
11
-9.75
21
-4.784211
31
0
70
32
71
5
72
1
41
1
210
0
220
0
230
1
3
Standard
100
AcDbAlignedDimension
13
-2
23
12.5
33
0
14
-2
24
-12.5
34
0
50
90
100
AcDbRotatedDimension
1001
ACAD
1000
DSTYLE
1002
{
1070
    74
1070
     0
1070
   279
1070
     0
1070
   172
1070
     1
1070
   173
1070
     1
1070
   340
1005
D8
1070
    77
1070
     1
1070
    73
1070
     0
1070
   171
1070
     4
1070
   274
1070
     4
1070
   177
1070
     2
1070
   176
1070
     2
1070
   178
1070
     7
1070
    78
1070
     8
1070
    41
1041
3.175
1070
   147
1041
2.25
1070
    42
1041
2.0
1070
    44
1041
2.0
1070
   140
1041
4.5
1070
   343
1005
10C
1070
   344
1005
10C
1002
}
0
DIMENSION
5
120
100
AcDbEntity
8
2
62
256
6
ByLayer
370
-3
48
1
60
0
100
AcDbDimension
2
DimnDraft3D2
10
32.25
20
-16.9
30
0
11
32.25
21
-13.050658
31
0
70
32
71
5
72
1
41
1
210
0
220
0
230
1
3
Standard
100
AcDbAlignedDimension
13
22
23
0
33
0
14
22
24
-16.9
34
0
50
90
100
AcDbRotatedDimension
1001
ACAD
1000
DSTYLE
1002
{
1070
    74
1070
     0
1070
   279
1070
     0
1070
   172
1070
     1
1070
   173
1070
     1
1070
   340
1005
D8
1070
    77
1070
     1
1070
    73
1070
     0
1070
   171
1070
     4
1070
   274
1070
     4
1070
   177
1070
     2
1070
   176
1070
     2
1070
   178
1070
     7
1070
    78
1070
     8
1070
    41
1041
3.175
1070
   147
1041
2.25
1070
    42
1041
2.0
1070
    44
1041
2.0
1070
   140
1041
4.5
1070
   343
1005
10C
1070
   344
1005
10C
1002
}
0
DIMENSION
5
12E
100
AcDbEntity
8
2
62
256
6
ByLayer
370
-3
48
1
60
0
100
AcDbDimension
2
DimnDraft3D3
10
20
20
-34.15
30
0
11
4.836842
21
-34.15
31
0
70
32
71
5
72
1
41
1
210
0
220
0
230
1
3
Standard
100
AcDbAlignedDimension
13
0
23
-14.5
33
0
14
20
24
-18.9
34
0
50
0
100
AcDbRotatedDimension
1001
ACAD
1000
DSTYLE
1002
{
1070
   279
1070
     0
1070
   172
1070
     1
1070
   173
1070
     1
1070
   340
1005
D8
1070
    77
1070
     1
1070
    73
1070
     0
1070
   171
1070
     4
1070
   274
1070
     4
1070
   177
1070
     2
1070
   176
1070
     2
1070
   178
1070
     7
1070
    78
1070
     8
1070
    41
1041
3.175
1070
   147
1041
2.25
1070
    42
1041
2.0
1070
    44
1041
2.0
1070
   140
1041
4.5
1070
   343
1005
10C
1070
   344
1005
10C
1002
}
0
DIMENSION
5
13C
100
AcDbEntity
8
2
62
256
6
ByLayer
370
-3
48
1
60
0
100
AcDbDimension
2
DimnDraft3D4
10
59.040715
20
0
30
0
11
42.148524
21
33.528479
31
0
70
34
71
5
72
1
41
1
210
0
220
0
230
1
3
Standard
100
AcDb2LineAngularDimension
13
19.319633
23
-3.917816
33
0
14
17.024722
24
39.871689
34
0
15
22
25
0
35
0
16
48.31872
26
30.775028
36
0
40
0
0
ENDSEC
0
SECTION
2
OBJECTS
0
DICTIONARY
5
16d
330
0
100
AcDbDictionary
280
0
281
1
3
ACAD_GROUP
350
16e
3
ACAD_MLINESTYLE
350
16f
0
DICTIONARY
5
16e
330
0
100
AcDbDictionary
280
0
281
1
0
DICTIONARY
5
16f
330
0
100
AcDbDictionary
280
0
281
1
3
Standard
350
18
0
MLINESTYLE
5
18
330
16f
100
AcDbMlineStyle
2
Standard
70
0
3

62
256
51
90
52
90
71
2
49
-0.5
62
256
6
ByLayer
49
0.5
62
256
6
ByLayer
0
RASTERVARIABLES
5
15b
330

100
AcDbRasterVariables
90
0
70
1
71
1
72
1
0
ENDSEC
0
EOF
