0
SECTION
2
HEADER
9
$ACADVER
1
AC1015
9
$DWGCODEPAGE
3
ANSI_1252
9
$HANDSEED
5
17b
9
$ANGBASE
50
0
9
$ANGDIR
70
0
9
$ATTMODE
70
1
9
$AUNITS
70
0
9
$AUPREC
70
0
9
$CECOLOR
62
256
9
$CELTSCALE
40
1
9
$CELTYPE
6
ByLayer
9
$CELWEIGHT
370
-1
9
$CLAYER
8
0
9
$CMLJUST
70
0
9
$CMLSCALE
40
1
9
$CMLSTYLE
2
Standard
9
$DIMSTYLE
2
Standard
9
$TEXTSIZE
40
0.2
9
$TEXTSTYLE
7
Standard
9
$LUNITS
70
2
9
$LUPREC
70
4
9
$EXTNAMES
290
1
9
$INSUNITS
70
4
9
$LTSCALE
40
1
9
$LWDISPLAY
290
0
9
$PDMODE
70
0
9
$PDSIZE
40
0
9
$PLINEGEN
70
0
0
ENDSEC
0
SECTION
2
CLASSES
0
CLASS
1
RASTERVARIABLES
2
AcDbRasterVariables
3
ISM
90
0
280
0
281
0
0
ENDSEC
0
SECTION
2
TABLES
0
TABLE
2
VPORT
5
171
100
AcDbSymbolTable
0
VPORT
5
1
100
AcDbSymbolTableRecord
100
AcDbViewportTableRecord
2
*Active
70
0
10
0
20
0
11
1
21
1
12
-1
22
1
13
0
23
0
14
0.5
24
0.5
15
10
25
10
16
0
26
0
36
1
17
0
27
0
37
0
0
ENDTAB
0
TABLE
2
LTYPE
5
172
100
AcDbSymbolTable
0
LTYPE
5
14
100
AcDbSymbolTableRecord
100
AcDbLinetypeTableRecord
70
0
2
ByBlock
3

72
65
73
0
40
0
0
LTYPE
5
15
100
AcDbSymbolTableRecord
100
AcDbLinetypeTableRecord
70
0
2
ByLayer
3

72
65
73
0
40
0
0
LTYPE
5
16
100
AcDbSymbolTableRecord
100
AcDbLinetypeTableRecord
70
0
2
CONTINUOUS
3
Solid line
72
65
73
0
40
0
0
LTYPE
5
3B
100
AcDbSymbolTableRecord
100
AcDbLinetypeTableRecord
70
0
2
DASHED
3
__ __ __ __ __ __ __ __ __
72
65
73
2
40
25.72
49
12.86
74
0
49
-12.86
74
0
0
LTYPE
5
3C
100
AcDbSymbolTableRecord
100
AcDbLinetypeTableRecord
70
0
2
HIDDEN
3
_ _ _ _ _ _ _ _ _ _ _ _ _ _ _
72
65
73
2
40
0.5
49
0.25
74
0
49
-0.25
74
0
0
LTYPE
5
3D
100
AcDbSymbolTableRecord
100
AcDbLinetypeTableRecord
70
0
2
PHANTOM
3
____ _ _ ____ _ _ _____ _ _ ____
72
65
73
6
40
50.5
49
18
74
0
49
-6.5
74
0
49
6.5
74
0
49
-6.5
74
0
49
6.5
74
0
49
-6.5
74
0
0
LTYPE
5
3E
100
AcDbSymbolTableRecord
100
AcDbLinetypeTableRecord
70
0
2
CENTER
3
____ _ ____ _ ____ _ ____
72
65
73
4
40
47.5
49
22
74
0
49
-8.5
74
0
49
8.5
74
0
49
-8.5
74
0
0
LTYPE
5
3F
100
AcDbSymbolTableRecord
100
AcDbLinetypeTableRecord
70
0
2
DOT
3
.........................
72
65
73
2
40
10
49
0
74
0
49
-10
74
0
0
LTYPE
5
40
100
AcDbSymbolTableRecord
100
AcDbLinetypeTableRecord
70
0
2
DASHDOT
3
_._._._._._._._._._._._._._._._.
72
65
73
4
40
70
49
31
74
0
49
-13
74
0
49
13
74
0
49
-13
74
0
0
ENDTAB
0
TABLE
2
LAYER
5
173
100
AcDbSymbolTable
0
LAYER
5
10
100
AcDbSymbolTableRecord
100
AcDbLayerTableRecord
2
0
70
0
62
7
6
CONTINUOUS
290
1
370
-3
390
0
0
LAYER
5
42
100
AcDbSymbolTableRecord
100
AcDbLayerTableRecord
2
80
70
0
62
-6
6
CONTINUOUS
290
1
370
-3
390
0
0
LAYER
5
44
100
AcDbSymbolTableRecord
100
AcDbLayerTableRecord
2
81
70
0
62
-3
6
CONTINUOUS
290
1
370
-3
390
0
0
LAYER
5
46
100
AcDbSymbolTableRecord
100
AcDbLayerTableRecord
2
1
70
0
62
4
6
CONTINUOUS
290
1
370
-3
390
0
0
LAYER
5
48
100
AcDbSymbolTableRecord
100
AcDbLayerTableRecord
2
2
70
0
62
7
6
CONTINUOUS
290
1
370
-3
390
0
0
LAYER
5
51
100
AcDbSymbolTableRecord
100
AcDbLayerTableRecord
2
4
70
0
62
-2
6
CENTER
290
1
370
-3
390
0
0
LAYER
5
15d
100
AcDbSymbolTableRecord
100
AcDbLayerTableRecord
2
SK4
70
0
62
2
6
CENTER
290
1
370
-3
390
0
0
LAYER
5
15e
100
AcDbSymbolTableRecord
100
AcDbLayerTableRecord
2
SK1
70
0
62
4
6
CONTINUOUS
290
1
370
-3
390
0
0
LAYER
5
15f
100
AcDbSymbolTableRecord
100
AcDbLayerTableRecord
2
SK6
70
0
62
5
6
CONTINUOUS
290
1
370
-3
390
0
0
LAYER
5
160
100
AcDbSymbolTableRecord
100
AcDbLayerTableRecord
2
SK2
70
0
62
7
6
CONTINUOUS
290
1
370
-3
390
0
0
ENDTAB
0
TABLE
2
STYLE
5
174
100
AcDbSymbolTable
0
STYLE
5
11
100
AcDbSymbolTableRecord
100
AcDbTextStyleTableRecord
2
Standard
3
txt
70
0
71
0
40
0
41
1
42
0
50
0
0
STYLE
5
D9
100
AcDbSymbolTableRecord
100
AcDbTextStyleTableRecord
2
DEFAULT
3
simplex.shx
70
0
71
0
40
0
41
1
42
0
50
0
0
STYLE
5
FC
100
AcDbSymbolTableRecord
100
AcDbTextStyleTableRecord
2
DWGDirectTextStyle
3
SIMPLEX
70
0
71
0
40
0
41
1
42
0
50
0
0
ENDTAB
0
TABLE
2
DIMSTYLE
5
175
100
AcDbSymbolTable
100
AcDbDimStyleTable
0
DIMSTYLE
105
27
100
AcDbSymbolTableRecord
100
AcDbDimStyleTableRecord
2
Standard
70
0
3
<>
41
0.18
42
0.0625
44
0.18
140
0.18
147
0.09
73
0
74
0
77
1
271
2
275
0
278
52
280
0
340
11
0
ENDTAB
0
TABLE
2
VIEW
5
176
100
AcDbSymbolTable
0
ENDTAB
0
TABLE
2
UCS
5
177
100
AcDbSymbolTable
0
ENDTAB
0
TABLE
2
APPID
5
178
100
AcDbSymbolTable
0
APPID
5
12
100
AcDbSymbolTableRecord
100
AcDbRegAppTableRecord
2
ACAD
70
0
0
ENDTAB
0
TABLE
2
BLOCK_RECORD
5
179
100
AcDbSymbolTable
0
BLOCK_RECORD
5
1F
100
AcDbSymbolTableRecord
100
AcDbBlockTableRecord
2
*Model_Space
340
0
70
0
0
BLOCK_RECORD
5
1B
100
AcDbSymbolTableRecord
100
AcDbBlockTableRecord
2
*Paper_Space
340
0
70
0
0
BLOCK_RECORD
5
23
100
AcDbSymbolTableRecord
100
AcDbBlockTableRecord
2
*Paper_Space0
340
0
70
0
0
BLOCK_RECORD
5
FE
100
AcDbSymbolTableRecord
100
AcDbBlockTableRecord
2
DimnDraft3D1
340
0
70
0
0
BLOCK_RECORD
5
10D
100
AcDbSymbolTableRecord
100
AcDbBlockTableRecord
2
_CLOSED
340
0
70
0
0
BLOCK_RECORD
5
114
100
AcDbSymbolTableRecord
100
AcDbBlockTableRecord
2
DimnDraft3D2
340
0
70
0
0
BLOCK_RECORD
5
122
100
AcDbSymbolTableRecord
100
AcDbBlockTableRecord
2
DimnDraft3D3
340
0
70
0
0
BLOCK_RECORD
5
130
100
AcDbSymbolTableRecord
100
AcDbBlockTableRecord
2
DimnDraft3D4
340
0
70
0
0
ENDTAB
0
ENDSEC
0
SECTION
2
BLOCKS
0
BLOCK
5
20
100
AcDbEntity
8
0
100
AcDbBlockBegin
2
*Model_Space
70
0
10
0
20
0
30
0
3
*Model_Space
0
ENDBLK
5
21
100
AcDbEntity
8
0
100
AcDbBlockEnd
0
BLOCK
5
1C
100
AcDbEntity
8
0
100
AcDbBlockBegin
2
*Paper_Space
70
0
10
0
20
0
30
0
3
*Paper_Space
0
ENDBLK
5
1D
100
AcDbEntity
8
0
100
AcDbBlockEnd
0
BLOCK
5
24
100
AcDbEntity
8
0
100
AcDbBlockBegin
2
*Paper_Space0
70
0
10
0
20
0
30
0
3
*Paper_Space0
0
ENDBLK
5
25
100
AcDbEntity
8
0
100
AcDbBlockEnd
0
BLOCK
5
10A
100
AcDbEntity
8
0
100
AcDbBlockBegin
2
DimnDraft3D1
70
0
10
0
20
0
30
0
3
DimnDraft3D1
0
MTEXT
5
FF
100
AcDbEntity
8
SK2
62
256
6
ByLayer
370
-1
48
1
60
0
100
AcDbMText
10
-10.875
20
-3.096711
30
0
210
0
220
0
230
1
1
\W01.000;\fsimplex.shx,bigfont.shx;%%c16 
40
4.5
41
0
44
1.084337
50
90
71
7
72
5
7
DEFAULT
0
LINE
5
101
100
AcDbEntity
8
SK2
62
256
6
ByLayer
370
-1
48
1
60
0
100
AcDbLine
10
-2
20
-8
30
0
11
-11.75
21
-8
31
0
39
0
210
0
220
0
230
1
0
LINE
5
102
100
AcDbEntity
8
SK2
62
256
6
ByLayer
370
-1
48
1
60
0
100
AcDbLine
10
-2
20
8
30
0
11
-11.75
21
8
31
0
39
0
210
0
220
0
230
1
0
LINE
5
103
100
AcDbEntity
8
SK2
62
256
6
ByLayer
370
-1
48
1
60
0
100
AcDbLine
10
-9.75
20
-19.25
30
0
11
-9.75
21
19.25
31
0
39
0
210
0
220
0
230
1
0
LINE
5
104
100
AcDbEntity
8
SK2
62
256
6
ByLayer
370
-1
48
1
60
0
100
AcDbLine
10
-9.75
20
-8
30
0
11
-9.332003
21
-11.174998
31
0
39
0
210
0
220
0
230
1
0
LINE
5
105
100
AcDbEntity
8
SK2
62
256
6
ByLayer
370
-1
48
1
60
0
100
AcDbLine
10
-9.75
20
-8
30
0
11
-10.167997
21
-11.175002
31
0
39
0
210
0
220
0
230
1
0
LINE
5
106
100
AcDbEntity
8
SK2
62
256
6
ByLayer
370
-1
48
1
60
0
100
AcDbLine
10
-9.332003
20
-11.174998
30
0
11
-10.167997
21
-11.175002
31
0
39
0
210
0
220
0
230
1
0
LINE
5
107
100
AcDbEntity
8
SK2
62
256
6
ByLayer
370
-1
48
1
60
0
100
AcDbLine
10
-9.75
20
8
30
0
11
-10.167997
21
11.174998
31
0
39
0
210
0
220
0
230
1
0
LINE
5
108
100
AcDbEntity
8
SK2
62
256
6
ByLayer
370
-1
48
1
60
0
100
AcDbLine
10
-9.75
20
8
30
0
11
-9.332003
21
11.175002
31
0
39
0
210
0
220
0
230
1
0
LINE
5
109
100
AcDbEntity
8
SK2
62
256
6
ByLayer
370
-1
48
1
60
0
100
AcDbLine
10
-10.167997
20
11.174998
30
0
11
-9.332003
21
11.175002
31
0
39
0
210
0
220
0
230
1
0
ENDBLK
5
10B
100
AcDbEntity
8
0
100
AcDbBlockEnd
0
BLOCK
5
10E
100
AcDbEntity
8
0
100
AcDbBlockBegin
2
_CLOSED
70
0
10
0
20
0
30
0
3
_CLOSED
0
LINE
5
110
100
AcDbEntity
8
0
62
256
6
ByLayer
370
-2
48
1
60
0
100
AcDbLine
10
-1
20
0.166667
30
0
11
0
21
0
31
0
39
0
210
0
220
0
230
1
0
LINE
5
111
100
AcDbEntity
8
0
62
256
6
ByLayer
370
-2
48
1
60
0
100
AcDbLine
10
0
20
0
30
0
11
-1
21
-0.166667
31
0
39
0
210
0
220
0
230
1
0
LINE
5
112
100
AcDbEntity
8
0
62
256
6
ByLayer
370
-2
48
1
60
0
100
AcDbLine
10
-1
20
0.166667
30
0
11
-1
21
-0.166667
31
0
39
0
210
0
220
0
230
1
0
LINE
5
113
100
AcDbEntity
8
0
62
256
6
ByLayer
370
-2
48
1
60
0
100
AcDbLine
10
0
20
0
30
0
11
-1
21
0
31
0
39
0
210
0
220
0
230
1
0
ENDBLK
5
10F
100
AcDbEntity
8
0
100
AcDbBlockEnd
0
BLOCK
5
11F
100
AcDbEntity
8
0
100
AcDbBlockBegin
2
DimnDraft3D2
70
0
10
0
20
0
30
0
3
DimnDraft3D2
0
MTEXT
5
115
100
AcDbEntity
8
2
62
256
6
ByLayer
370
-1
48
1
60
0
100
AcDbMText
10
31.125
20
22.28
30
0
210
0
220
0
230
1
1
\W01.000;\fsimplex.shx,bigfont.shx;11.0 
40
4.5
41
0
44
1.084337
50
90
71
7
72
5
7
DEFAULT
0
LINE
5
116
100
AcDbEntity
8
2
62
256
6
ByLayer
370
-1
48
1
60
0
100
AcDbLine
10
22
20
10.9
30
0
11
34.25
21
10.9
31
0
39
0
210
0
220
0
230
1
0
LINE
5
117
100
AcDbEntity
8
2
62
256
6
ByLayer
370
-1
48
1
60
0
100
AcDbLine
10
22
20
0
30
0
11
34.25
21
0
31
0
39
0
210
0
220
0
230
1
0
LINE
5
118
100
AcDbEntity
8
2
62
256
6
ByLayer
370
-1
48
1
60
0
100
AcDbLine
10
32.25
20
0
30
0
11
32.25
21
29.231316
31
0
39
0
210
0
220
0
230
1
0
LINE
5
119
100
AcDbEntity
8
2
62
256
6
ByLayer
370
-1
48
1
60
0
100
AcDbLine
10
32.25
20
10.9
30
0
11
32.667997
21
7.725002
31
0
39
0
210
0
220
0
230
1
0
LINE
5
11A
100
AcDbEntity
8
2
62
256
6
ByLayer
370
-1
48
1
60
0
100
AcDbLine
10
32.25
20
10.9
30
0
11
31.832003
21
7.724998
31
0
39
0
210
0
220
0
230
1
0
LINE
5
11B
100
AcDbEntity
8
2
62
256
6
ByLayer
370
-1
48
1
60
0
100
AcDbLine
10
32.667997
20
7.725002
30
0
11
31.832003
21
7.724998
31
0
39
0
210
0
220
0
230
1
0
LINE
5
11C
100
AcDbEntity
8
2
62
256
6
ByLayer
370
-1
48
1
60
0
100
AcDbLine
10
32.25
20
0
30
0
11
31.832003
21
3.174998
31
0
39
0
210
0
220
0
230
1
0
LINE
5
11D
100
AcDbEntity
8
2
62
256
6
ByLayer
370
-1
48
1
60
0
100
AcDbLine
10
32.25
20
0
30
0
11
32.667997
21
3.175002
31
0
39
0
210
0
220
0
230
1
0
LINE
5
11E
100
AcDbEntity
8
2
62
256
6
ByLayer
370
-1
48
1
60
0
100
AcDbLine
10
31.832003
20
3.174998
30
0
11
32.667997
21
3.175002
31
0
39
0
210
0
220
0
230
1
0
ENDBLK
5
120
100
AcDbEntity
8
0
100
AcDbBlockEnd
0
BLOCK
5
12D
100
AcDbEntity
8
0
100
AcDbBlockBegin
2
DimnDraft3D3
70
0
10
0
20
0
30
0
3
DimnDraft3D3
0
MTEXT
5
123
100
AcDbEntity
8
2
62
256
6
ByLayer
370
-1
48
1
60
0
100
AcDbMText
10
5.961842
20
24.775
30
0
210
0
220
0
230
1
1
\W01.000;\fsimplex.shx,bigfont.shx;20.0 
40
4.5
41
0
44
1.084337
50
0
71
7
72
5
7
DEFAULT
0
LINE
5
124
100
AcDbEntity
8
2
62
256
6
ByLayer
370
-1
48
1
60
0
100
AcDbLine
10
0
20
10
30
0
11
0
21
25.65
31
0
39
0
210
0
220
0
230
1
0
LINE
5
125
100
AcDbEntity
8
2
62
256
6
ByLayer
370
-1
48
1
60
0
100
AcDbLine
10
20
20
12.9
30
0
11
20
21
25.65
31
0
39
0
210
0
220
0
230
1
0
LINE
5
126
100
AcDbEntity
8
2
62
256
6
ByLayer
370
-1
48
1
60
0
100
AcDbLine
10
-11.25
20
23.65
30
0
11
31.25
21
23.65
31
0
39
0
210
0
220
0
230
1
0
LINE
5
127
100
AcDbEntity
8
2
62
256
6
ByLayer
370
-1
48
1
60
0
100
AcDbLine
10
0
20
23.65
30
0
11
-3.174998
21
23.232003
31
0
39
0
210
0
220
0
230
1
0
LINE
5
128
100
AcDbEntity
8
2
62
256
6
ByLayer
370
-1
48
1
60
0
100
AcDbLine
10
0
20
23.65
30
0
11
-3.175002
21
24.067997
31
0
39
0
210
0
220
0
230
1
0
LINE
5
129
100
AcDbEntity
8
2
62
256
6
ByLayer
370
-1
48
1
60
0
100
AcDbLine
10
-3.174998
20
23.232003
30
0
11
-3.175002
21
24.067997
31
0
39
0
210
0
220
0
230
1
0
LINE
5
12A
100
AcDbEntity
8
2
62
256
6
ByLayer
370
-1
48
1
60
0
100
AcDbLine
10
20
20
23.65
30
0
11
23.174998
21
24.067997
31
0
39
0
210
0
220
0
230
1
0
LINE
5
12B
100
AcDbEntity
8
2
62
256
6
ByLayer
370
-1
48
1
60
0
100
AcDbLine
10
20
20
23.65
30
0
11
23.175002
21
23.232003
31
0
39
0
210
0
220
0
230
1
0
LINE
5
12C
100
AcDbEntity
8
2
62
256
6
ByLayer
370
-1
48
1
60
0
100
AcDbLine
10
23.174998
20
24.067997
30
0
11
23.175002
21
23.232003
31
0
39
0
210
0
220
0
230
1
0
ENDBLK
5
12E
100
AcDbEntity
8
0
100
AcDbBlockEnd
0
BLOCK
5
13B
100
AcDbEntity
8
0
100
AcDbBlockBegin
2
DimnDraft3D4
70
0
10
0
20
0
30
0
3
DimnDraft3D4
0
MTEXT
5
131
100
AcDbEntity
8
2
62
256
6
ByLayer
370
-1
48
1
60
0
100
AcDbMText
10
46.12156
20
-37.312521
30
0
210
0
220
0
230
1
1
\W01.000;\fsimplex.shx,bigfont.shx;95%%d0' 
40
4.5
41
0
44
1.084337
50
42.5000000000001
71
7
72
5
7
DEFAULT
0
LINE
5
132
100
AcDbEntity
8
2
62
256
6
ByLayer
370
-1
48
1
60
0
100
AcDbLine
10
19.302754
20
2.930442
30
0
11
14.782156
21
-48.740227
31
0
39
0
210
0
220
0
230
1
0
LINE
5
133
100
AcDbEntity
8
2
62
256
6
ByLayer
370
-1
48
1
60
0
100
AcDbLine
10
22
20
0
30
0
11
67.97278
21
0
31
0
39
0
210
0
220
0
230
1
0
ARC
5
134
100
AcDbEntity
8
2
62
256
6
ByLayer
370
-1
48
1
60
0
100
AcDbCircle
39
0
10
19.046374
20
0
30
0
40
46.9264068782928
210
0
220
0
230
1
100
AcDbArc
50
265
51
0
0
LINE
5
135
100
AcDbEntity
8
2
62
256
6
ByLayer
370
-1
48
1
60
0
100
AcDbLine
10
14.956468
20
-46.747838
30
0
11
18.152996
21
-46.554078
31
0
39
0
210
0
220
0
230
1
0
LINE
5
136
100
AcDbEntity
8
2
62
256
6
ByLayer
370
-1
48
1
60
0
100
AcDbLine
10
14.956468
20
-46.747838
30
0
11
18.094229
21
-47.388003
31
0
39
0
210
0
220
0
230
1
0
LINE
5
137
100
AcDbEntity
8
2
62
256
6
ByLayer
370
-1
48
1
60
0
100
AcDbLine
10
18.152996
20
-46.554078
30
0
11
18.094229
21
-47.388003
31
0
39
0
210
0
220
0
230
1
0
LINE
5
138
100
AcDbEntity
8
2
62
256
6
ByLayer
370
-1
48
1
60
0
100
AcDbLine
10
65.97278
20
0
30
0
11
66.337036
21
-3.181612
31
0
39
0
210
0
220
0
230
1
0
LINE
5
139
100
AcDbEntity
8
2
62
256
6
ByLayer
370
-1
48
1
60
0
100
AcDbLine
10
65.97278
20
0
30
0
11
65.501162
21
-3.16748
31
0
39
0
210
0
220
0
230
1
0
LINE
5
13A
100
AcDbEntity
8
2
62
256
6
ByLayer
370
-1
48
1
60
0
100
AcDbLine
10
66.337036
20
-3.181612
30
0
11
65.501162
21
-3.16748
31
0
39
0
210
0
220
0
230
1
0
ENDBLK
5
13C
100
AcDbEntity
8
0
100
AcDbBlockEnd
0
ENDSEC
0
SECTION
2
ENTITIES
0
ARC
5
84
100
AcDbEntity
8
1
62
256
6
ByLayer
370
-1
48
1
60
0
100
AcDbCircle
39
0
10
12.920377
20
-9.434284
30
0
40
8
210
0
220
0
230
1
100
AcDbArc
50
166.973427
51
168.955697
0
ARC
5
85
100
AcDbEntity
8
1
62
256
6
ByLayer
370
-1
48
1
60
0
100
AcDbCircle
39
0
10
-12.920377
20
-9.434284
30
0
40
8.00000000000005
210
0
220
0
230
-1
100
AcDbArc
50
36.508732
51
90
0
ARC
5
86
100
AcDbEntity
8
1
62
256
6
ByLayer
370
-1
48
1
60
0
100
AcDbCircle
39
0
10
-15.107295
20
2.265716
30
0
40
3.69999999999999
210
0
220
0
230
-1
100
AcDbArc
50
185
51
270
0
ELLIPSE
5
87
100
AcDbEntity
8
1
62
256
6
ByLayer
370
-1
48
1
60
0
100
AcDbEllipse
10
5.695326
20
0
30
0
11
0.699502496176038
21
7.99999972796842
31
0
210
0
220
0
230
-1
40
0.002982
41
-2.93858914771488
42
-0.134810153481069
0
ELLIPSE
5
88
100
AcDbEntity
8
1
62
256
6
ByLayer
370
-1
48
1
60
0
100
AcDbEllipse
10
13.58823
20
4.476129
30
0
11
1.05221009437923
21
-0.0825779908582789
31
0
210
0
220
0
230
-1
40
0.994257
41
0.67210664719668
42
-2.99738583238017
0
ELLIPSE
5
89
100
AcDbEntity
8
1
62
256
6
ByLayer
370
-1
48
1
60
0
100
AcDbEllipse
10
12.384076
20
0.05326
30
0
11
0.884351425038799
21
9.90589411567605
31
0
210
0
220
0
230
-1
40
0.104715
41
0.0041135357418572
42
0.0717681825285441
0
ELLIPSE
5
8A
100
AcDbEntity
8
1
62
256
6
ByLayer
370
-1
48
1
60
0
100
AcDbEllipse
10
111.728128
20
0.412785
30
0
11
157.014341174964
21
0.694026397488929
31
0
210
0
220
0
230
-1
40
0.081281
41
-2.2476395500161
42
-2.24541310464375
0
ELLIPSE
5
8B
100
AcDbEntity
8
1
62
256
6
ByLayer
370
-1
48
1
60
0
100
AcDbEllipse
10
13.751775
20
5.478462
30
0
11
1.25263106473774
21
-0.0983071319591021
31
0
210
0
220
0
230
-1
40
0.994257
41
2.97595483506965
42
-2.34144186302109
0
ELLIPSE
5
8C
100
AcDbEntity
8
1
62
256
6
ByLayer
370
-1
48
1
60
0
100
AcDbEllipse
10
5.391552
20
-3.358757
30
0
11
0.240453983060529
21
2.74999990648932
31
0
210
0
220
0
230
-1
40
0.002982
41
2.41467208939184
42
0.795113916592509
0
ELLIPSE
5
8D
100
AcDbEntity
8
1
62
256
6
ByLayer
370
-1
48
1
60
0
100
AcDbEllipse
10
5.978911
20
3.358757
30
0
11
0.240453983060479
21
2.74999990648876
31
0
210
0
220
0
230
-1
40
0.002982
41
2.29123707024077
42
0.918548935743397
0
ELLIPSE
5
8E
100
AcDbEntity
8
1
62
256
6
ByLayer
370
-1
48
1
60
0
100
AcDbEllipse
10
7.139435
20
2.782371
30
0
11
-3.05810129995702
21
-34.9336292205145
31
0
210
0
220
0
230
1
40
0.03422
41
-1.26560070606998
42
-1.25698126498074
0
ELLIPSE
5
8F
100
AcDbEntity
8
1
62
256
6
ByLayer
370
-1
48
1
60
0
100
AcDbEllipse
10
19.113717
20
4.886289
30
0
11
0.155353486151151
21
0.365205503745062
31
0
210
0
220
0
230
1
40
0.993946
41
-2.65033535000666
42
-1.2540719484112
0
ELLIPSE
5
90
100
AcDbEntity
8
1
62
256
6
ByLayer
370
-1
48
1
60
0
100
AcDbEllipse
10
13.521828
20
4.372694
30
0
11
0.155353486151151
21
0.365205503745062
31
0
210
0
220
0
230
1
40
0.993946
41
1.8875207051786
42
-2.65033535000666
0
ELLIPSE
5
91
100
AcDbEntity
8
1
62
256
6
ByLayer
370
-1
48
1
60
0
100
AcDbEllipse
10
19.605159
20
10.503492
30
0
11
0.155353486151151
21
0.365205503745062
31
0
210
0
220
0
230
1
40
0.993946
41
-1.2540719484112
42
0.49125730358312
0
ELLIPSE
5
92
100
AcDbEntity
8
1
62
256
6
ByLayer
370
-1
48
1
60
0
100
AcDbEllipse
10
14.013269
20
9.989897
30
0
11
0.155353486151151
21
0.365205503745062
31
0
210
0
220
0
230
1
40
0.993946
41
0.49125730358312
42
1.8875207051786
0
ELLIPSE
5
93
100
AcDbEntity
8
1
62
256
6
ByLayer
370
-1
48
1
60
0
100
AcDbEllipse
10
16.564836
20
7.437522
30
0
11
0.405161891882202
21
0.952455953767123
31
0
210
0
220
0
230
1
40
0.993946
41
2.2365861642291
42
-1.94386073517467
0
ELLIPSE
5
94
100
AcDbEntity
8
1
62
256
6
ByLayer
370
-1
48
1
60
0
100
AcDbEllipse
10
16.023811
20
8.037041
30
0
11
0.163940958488108
21
0.17938957551806
31
0
210
0
220
0
230
-1
40
0.497719
41
-3.1257468622819
42
-0.565064583497978
0
ELLIPSE
5
95
100
AcDbEntity
8
1
62
256
6
ByLayer
370
-1
48
1
60
0
100
AcDbEllipse
10
16.431161
20
8.274787
30
0
11
0.23304495703458
21
0.0640781651529075
31
0
210
0
220
0
230
-1
40
0.481981
41
0.149520003708897
42
2.59549575189857
0
ELLIPSE
5
96
100
AcDbEntity
8
1
62
256
6
ByLayer
370
-1
48
1
60
0
100
AcDbEllipse
10
16.665941
20
7.394513
30
0
11
-0.363168275071336
21
-0.853737216508998
31
0
210
0
220
0
230
1
40
0.993946
41
-2.73771258393874
42
-2.73749104127402
0
ELLIPSE
5
97
100
AcDbEntity
8
1
62
256
6
ByLayer
370
-1
48
1
60
0
100
AcDbEllipse
10
16.90142
20
8.276664
30
0
11
0.233140195151707
21
-0.0616785820921964
31
0
210
0
220
0
230
-1
40
0.484114
41
2.99685401732862
42
-1.28063075386263
0
ELLIPSE
5
98
100
AcDbEntity
8
1
62
256
6
ByLayer
370
-1
48
1
60
0
100
AcDbEllipse
10
17.308583
20
8.04217
30
0
11
0.170378848985106
21
-0.170921262678485
31
0
210
0
220
0
230
-1
40
0.483412
41
0.118710158648219
42
0.87346898826125
0
ELLIPSE
5
99
100
AcDbEntity
8
1
62
256
6
ByLayer
370
-1
48
1
60
0
100
AcDbEllipse
10
16.430461
20
6.512363
30
0
11
0.233140195151711
21
-0.061678582092196
31
0
210
0
220
0
230
-1
40
0.484114
41
1.86096057767536
42
-2.99469940314305
0
ELLIPSE
5
9A
100
AcDbEntity
8
1
62
256
6
ByLayer
370
-1
48
1
60
0
100
AcDbEllipse
10
16.665941
20
7.394513
30
0
11
-0.363168275071336
21
-0.853737216508998
31
0
210
0
220
0
230
1
40
0.993946
41
-0.119718705947246
42
-0.119497163282528
0
ELLIPSE
5
9B
100
AcDbEntity
8
1
62
256
6
ByLayer
370
-1
48
1
60
0
100
AcDbEllipse
10
16.023298
20
6.746857
30
0
11
0.170378848985102
21
-0.170921262678485
31
0
210
0
220
0
230
-1
40
0.483412
41
-2.26811875583882
42
-0.148462886370387
0
ELLIPSE
5
9C
100
AcDbEntity
8
1
62
256
6
ByLayer
370
-1
48
1
60
0
100
AcDbEllipse
10
15.788331
20
7.15489
30
0
11
0.0619106958082868
21
-0.233990260726981
31
0
210
0
220
0
230
-1
40
0.501736
41
0.662645387235807
42
-3.02902134742242
0
ELLIPSE
5
9D
100
AcDbEntity
8
1
62
256
6
ByLayer
370
-1
48
1
60
0
100
AcDbEllipse
10
15.788519
20
7.62713
30
0
11
0.0626793953442505
21
0.234332746023848
31
0
210
0
220
0
230
-1
40
0.478503
41
0.0661754112834099
42
3.01917818948842
0
ELLIPSE
5
9E
100
AcDbEntity
8
1
62
256
6
ByLayer
370
-1
48
1
60
0
100
AcDbEllipse
10
16.571099
20
7.434858
30
0
11
0.363168275071336
21
0.853737216508998
31
0
210
0
220
0
230
1
40
0.993946
41
3.02187394764256
42
3.02209549030727
0
ELLIPSE
5
9F
100
AcDbEntity
8
1
62
256
6
ByLayer
370
-1
48
1
60
0
100
AcDbEllipse
10
16.571099
20
7.434858
30
0
11
0.363168275071336
21
0.853737216508998
31
0
210
0
220
0
230
1
40
0.993946
41
-2.73771258393874
42
-2.73749104127402
0
ELLIPSE
5
A0
100
AcDbEntity
8
1
62
256
6
ByLayer
370
-1
48
1
60
0
100
AcDbEllipse
10
15.922707
20
8.080049
30
0
11
0.163940959022439
21
0.179389576351592
31
0
210
0
220
0
230
-1
40
0.497719
41
-1.5127118969083
42
-1.36073531557708
0
ELLIPSE
5
A1
100
AcDbEntity
8
1
62
256
6
ByLayer
370
-1
48
1
60
0
100
AcDbEllipse
10
16.564836
20
7.437522
30
0
11
0.405161891882202
21
0.952455953767123
31
0
210
0
220
0
230
1
40
0.993946
41
1.18104609034331
42
2.2365861642291
0
ELLIPSE
5
A2
100
AcDbEntity
8
1
62
256
6
ByLayer
370
-1
48
1
60
0
100
AcDbEllipse
10
16.564836
20
7.437522
30
0
11
0.405161891882202
21
0.952455953767123
31
0
210
0
220
0
230
1
40
0.993946
41
-0.905005706663981
42
1.14560311937092
0
ELLIPSE
5
A3
100
AcDbEntity
8
1
62
256
6
ByLayer
370
-1
48
1
60
0
100
AcDbEllipse
10
16.665941
20
7.394513
30
0
11
-0.309708795572386
21
-0.728064490237716
31
0
210
0
220
0
230
1
40
0.993946
41
-1.17078054923278
42
0
0
ELLIPSE
5
A4
100
AcDbEntity
8
1
62
256
6
ByLayer
370
-1
48
1
60
0
100
AcDbEllipse
10
16.665941
20
7.394513
30
0
11
-0.309708795572386
21
-0.728064490237716
31
0
210
0
220
0
230
1
40
0.993946
41
0
42
0.391473762290921
0
ELLIPSE
5
A5
100
AcDbEntity
8
1
62
256
6
ByLayer
370
-1
48
1
60
0
100
AcDbEllipse
10
16.665941
20
7.394513
30
0
11
-0.309708795572386
21
-0.728064490237716
31
0
210
0
220
0
230
1
40
0.993946
41
0.807833305677829
42
1.46491720956328
0
ELLIPSE
5
A6
100
AcDbEntity
8
1
62
256
6
ByLayer
370
-1
48
1
60
0
100
AcDbEllipse
10
16.665941
20
7.394513
30
0
11
-0.309708795572386
21
-0.728064490237716
31
0
210
0
220
0
230
1
40
0.993946
41
1.99938095851121
42
2.67462702583003
0
ELLIPSE
5
A7
100
AcDbEntity
8
1
62
256
6
ByLayer
370
-1
48
1
60
0
100
AcDbEllipse
10
16.665941
20
7.394513
30
0
11
-0.309708795572386
21
-0.728064490237716
31
0
210
0
220
0
230
1
40
0.993946
41
2.94058228273592
42
-1.17078054923279
0
ELLIPSE
5
A8
100
AcDbEntity
8
1
62
256
6
ByLayer
370
-1
48
1
60
0
100
AcDbEllipse
10
16.564836
20
7.437522
30
0
11
0.405161891882202
21
0.952455953767123
31
0
210
0
220
0
230
1
40
0.993946
41
-1.90841776419582
42
-0.905005706663981
0
ELLIPSE
5
A9
100
AcDbEntity
8
1
62
256
6
ByLayer
370
-1
48
1
60
0
100
AcDbEllipse
10
16.571099
20
7.434858
30
0
11
0.363168275071336
21
0.853737216508998
31
0
210
0
220
0
230
1
40
0.993946
41
-1.69234131711277
42
-1.69029349007744
0
ELLIPSE
5
AA
100
AcDbEntity
8
1
62
256
6
ByLayer
370
-1
48
1
60
0
100
AcDbEllipse
10
16.571099
20
7.434858
30
0
11
0.363168275071336
21
0.853737216508998
31
0
210
0
220
0
230
1
40
0.993946
41
-0.119718705947266
42
-0.119497163282538
0
ELLIPSE
5
AB
100
AcDbEntity
8
1
62
256
6
ByLayer
370
-1
48
1
60
0
100
AcDbEllipse
10
16.571099
20
7.434858
30
0
11
0.363168275071336
21
0.853737216508998
31
0
210
0
220
0
230
1
40
0.993946
41
0.40388006965104
42
0.404101612315764
0
ELLIPSE
5
AC
100
AcDbEntity
8
1
62
256
6
ByLayer
370
-1
48
1
60
0
100
AcDbEllipse
10
16.571099
20
7.434858
30
0
11
0.363168275071336
21
0.853737216508998
31
0
210
0
220
0
230
1
40
0.993946
41
0.927478845249351
42
0.92952667228468
0
ELLIPSE
5
AD
100
AcDbEntity
8
1
62
256
6
ByLayer
370
-1
48
1
60
0
100
AcDbEllipse
10
17.206966
20
6.794994
30
0
11
0.177596481298119
21
0.165763212671215
31
0
210
0
220
0
230
-1
40
0.49805
41
1.36627313354321
42
1.51824971557742
0
ELLIPSE
5
AE
100
AcDbEntity
8
1
62
256
6
ByLayer
370
-1
48
1
60
0
100
AcDbEllipse
10
16.676051
20
7.390213
30
0
11
0.309708795572386
21
0.728064490237716
31
0
210
0
220
0
230
1
40
0.993946
41
0
42
-3.14154121960812
0
ELLIPSE
5
AF
100
AcDbEntity
8
1
62
256
6
ByLayer
370
-1
48
1
60
0
100
AcDbEllipse
10
16.564836
20
7.437522
30
0
11
0.508874411329752
21
1.19626369730666
31
0
210
0
220
0
230
1
40
0.993946
41
0
42
6.28318530717959
0
ELLIPSE
5
B0
100
AcDbEntity
8
1
62
256
6
ByLayer
370
-1
48
1
60
0
100
AcDbEllipse
10
16.65583
20
7.398814
30
0
11
0.675237199649095
21
1.58734990604153
31
0
210
0
220
0
230
1
40
0.993946
41
-3.14154125400713
42
-1.17078080899209
0
ELLIPSE
5
B1
100
AcDbEntity
8
1
62
256
6
ByLayer
370
-1
48
1
60
0
100
AcDbEllipse
10
16.65583
20
7.398814
30
0
11
0.675237199649095
21
1.58734990604153
31
0
210
0
220
0
230
1
40
0.993946
41
-1.17078138923362
42
0
0
ELLIPSE
5
B2
100
AcDbEntity
8
1
62
256
6
ByLayer
370
-1
48
1
60
0
100
AcDbEllipse
10
16.582421
20
7.430042
30
0
11
0.6752371996491
21
1.58734990604154
31
0
210
0
220
0
230
1
40
0.993946
41
0
42
6.28318530717959
0
ELLIPSE
5
B3
100
AcDbEntity
8
1
62
256
6
ByLayer
370
-1
48
1
60
0
100
AcDbEllipse
10
16.563493
20
7.438093
30
0
11
-0.745575167804111
21
-1.75270064086484
31
0
210
0
220
0
230
1
40
0.993946
41
0
42
6.28318530717959
0
ELLIPSE
5
B4
100
AcDbEntity
8
1
62
256
6
ByLayer
370
-1
48
1
60
0
100
AcDbEllipse
10
16.643105
20
7.404227
30
0
11
-0.705149088233623
21
-1.65766687548404
31
0
210
0
220
0
230
1
40
0.993946
41
0
42
6.28318530717959
0
ELLIPSE
5
B5
100
AcDbEntity
8
1
62
256
6
ByLayer
370
-1
48
1
60
0
100
AcDbEllipse
10
16.617837
20
7.414976
30
0
11
0.736388903562281
21
1.73110553963417
31
0
210
0
220
0
230
1
40
0.993946
41
-0.406098076812262
42
-9.50008404129171E-16
0
ELLIPSE
5
B6
100
AcDbEntity
8
1
62
256
6
ByLayer
370
-1
48
1
60
0
100
AcDbEllipse
10
16.617837
20
7.414976
30
0
11
0.736388903562281
21
1.73110553963417
31
0
210
0
220
0
230
1
40
0.993946
41
0
42
-2.7354905566588
0
ELLIPSE
5
B7
100
AcDbEntity
8
1
62
256
6
ByLayer
370
-1
48
1
60
0
100
AcDbEllipse
10
13.648195
20
4.45062
30
0
11
-0.411013947612492
21
-0.966212986286146
31
0
210
0
220
0
230
1
40
0.993946
41
1.26076337510993
42
1.60538133130663
0
ELLIPSE
5
B8
100
AcDbEntity
8
1
62
256
6
ByLayer
370
-1
48
1
60
0
100
AcDbEllipse
10
14.028339
20
5.360815
30
0
11
-0.489302318586301
21
-1.15025355510256
31
0
210
0
220
0
230
1
40
0.993946
41
-2.11184305678134
42
-1.07953902321177
0
ELLIPSE
5
B9
100
AcDbEntity
8
1
62
256
6
ByLayer
370
-1
48
1
60
0
100
AcDbEllipse
10
13.865569
20
4.358152
30
0
11
0.411013947612493
21
0.966212986286146
31
0
210
0
220
0
230
1
40
0.993946
41
1.10211876396685
42
1.75220899063639
0
ELLIPSE
5
BA
100
AcDbEntity
8
1
62
256
6
ByLayer
370
-1
48
1
60
0
100
AcDbEllipse
10
13.810965
20
5.453283
30
0
11
-0.489302318586301
21
-1.15025355510256
31
0
210
0
220
0
230
1
40
0.993946
41
-2.33167187132161
42
-2.04532763230038
0
ELLIPSE
5
BB
100
AcDbEntity
8
1
62
256
6
ByLayer
370
-1
48
1
60
0
100
AcDbEllipse
10
13.895901
20
4.34525
30
0
11
-0.411013947612492
21
-0.966212986286146
31
0
210
0
220
0
230
1
40
0.993946
41
-1.17078089188373
42
-0.161691355200761
0
ELLIPSE
5
BC
100
AcDbEntity
8
1
62
256
6
ByLayer
370
-1
48
1
60
0
100
AcDbEllipse
10
13.895901
20
4.34525
30
0
11
-0.411013947612492
21
-0.966212986286146
31
0
210
0
220
0
230
1
40
0.993946
41
-1.99608733950866
42
-1.17078184513769
0
POINT
5
41
100
AcDbEntity
8
80
62
256
6
ByLayer
370
-1
48
1
60
0
100
AcDbPoint
10
0
20
0
30
0
39
0
210
0
220
0
230
1
50
360
0
POINT
5
43
100
AcDbEntity
8
81
62
256
6
ByLayer
370
-1
48
1
60
0
100
AcDbPoint
10
20
20
10.9
30
0
39
0
210
0
220
0
230
1
50
360
0
POINT
5
45
100
AcDbEntity
8
1
62
256
6
ByLayer
370
-1
48
1
60
0
100
AcDbPoint
10
0
20
0
30
0
39
0
210
0
220
0
230
1
50
360
0
POINT
5
47
100
AcDbEntity
8
2
62
256
6
ByLayer
370
-1
48
1
60
0
100
AcDbPoint
10
20
20
10.9
30
0
39
0
210
0
220
0
230
1
50
360
0
SPLINE
5
BD
100
AcDbEntity
8
1
62
256
6
ByLayer
370
-1
48
1
60
0
100
AcDbSpline
70
4
71
3
72
10
73
6
40
0
40
0
40
0
40
0
40
0.392354337453293
40
0.392354337453293
40
1
40
1
40
1
40
1
41
1
10
0
20
-7.36592407527772
30
0
41
1
10
0.0691212248752322
20
-7.43603351981341
30
0
41
1
10
0.138256448496918
20
-7.50612916524707
30
0
41
1
10
0.314495388333398
20
-7.68475076364976
30
0
41
1
10
0.4216170867644
20
-7.79325898372352
30
0
41
1
10
0.528766000000019
20
-7.90174031463954
30
0
0
SPLINE
5
BE
100
AcDbEntity
8
SK1
62
256
6
ByLayer
370
-1
48
1
60
0
100
AcDbSpline
70
4
71
3
72
10
73
6
40
0
40
0
40
0
40
0
40
0.295102258005532
40
0.295102258005532
40
1
40
1
40
1
40
1
41
1
10
0
20
7.36592407527772
30
0
41
1
10
-0.0217670826468179
20
7.34384579069456
30
0
41
1
10
-0.0435327762774023
20
7.32176613658299
30
0
41
1
10
-0.117284348814849
20
7.24694105974839
30
0
41
1
10
-0.169263517436718
20
7.19418902151861
30
0
41
1
10
-0.221233999999981
20
7.14142842854284
30
0
0
SPLINE
5
BF
100
AcDbEntity
8
SK1
62
256
6
ByLayer
370
-1
48
1
60
0
100
AcDbSpline
70
4
71
3
72
8
73
4
40
0
40
0
40
0
40
0
40
1
40
1
40
1
40
1
41
1
10
-0.221234122599981
20
-7.14142830407894
30
0
41
1
10
-0.147506375802607
20
-7.2162769383412
30
0
41
1
10
-0.073761155179227
20
-7.29110836379027
30
0
41
1
10
0
20
-7.36592407527772
30
0
0
SPLINE
5
C0
100
AcDbEntity
8
1
62
256
6
ByLayer
370
-1
48
1
60
0
100
AcDbSpline
70
4
71
3
72
18
73
14
40
0
40
0
40
0
40
0
40
0.210008167496886
40
0.210008167496886
40
0.428336282849765
40
0.428336282849765
40
0.428336282849765
40
0.675702794814991
40
0.675702794814991
40
0.675702794814991
40
0.89044218184886
40
0.89044218184886
40
1
40
1
40
1
40
1
41
1
10
5.82644369074006
20
1.54399942750544
30
0
41
1
10
5.84436775009146
20
1.74298625379456
30
0
41
1
10
5.89903657071193
20
1.96716449217459
30
0
41
1
10
6.01591611642601
20
2.44696619479845
30
0
41
1
10
6.07980129448333
20
2.71085937843952
30
0
41
1
10
6.12018949244344
20
2.98145474663912
30
0
41
1
10
6.16563037442631
20
3.28590240245217
30
0
41
1
10
6.17818661824361
20
3.60770603043255
30
0
41
1
10
6.16723057030413
20
3.91186278174004
30
0
41
1
10
6.15765214109859
20
4.1777747169447
30
0
41
1
10
6.13353943797165
20
4.43772469897792
30
0
41
1
10
6.12163910027652
20
4.79857122907515
30
0
41
1
10
6.12195083690608
20
4.91663576746618
30
0
41
1
10
6.13137870925556
20
5.02736568267835
30
0
0
SPLINE
5
C1
100
AcDbEntity
8
1
62
256
6
ByLayer
370
-1
48
1
60
0
100
AcDbSpline
70
4
71
3
72
8
73
4
40
0
40
0
40
0
40
0
40
1
40
1
40
1
40
1
41
1
10
8.31429430605226
20
7.99894356087205
30
0
41
1
10
9.31428591080726
20
8.61247177893142
30
0
41
1
10
10.3142874825572
20
9.22598377098277
30
0
41
1
10
11.3142943074
20
9.83948721035529
30
0
0
SPLINE
5
C2
100
AcDbEntity
8
1
62
256
6
ByLayer
370
-1
48
1
60
0
100
AcDbSpline
70
4
71
3
72
8
73
4
40
0
40
0
40
0
40
0
40
1
40
1
40
1
40
1
41
1
10
13.2726867999581
20
9.95868971816483
30
0
41
1
10
12.6198892993474
20
9.91895559962347
30
0
41
1
10
11.9670918017906
20
9.8792214309685
30
0
41
1
10
11.3142943074
20
9.83948721035529
30
0
0
SPLINE
5
C3
100
AcDbEntity
8
1
62
256
6
ByLayer
370
-1
48
1
60
0
100
AcDbSpline
70
4
71
3
72
8
73
4
40
0
40
0
40
0
40
0
40
1
40
1
40
1
40
1
41
1
10
5.00537651815768
20
-7.83530274686399
30
0
41
1
10
5.0035397479013
20
-7.86051369763626
30
0
41
1
10
5.02147162638192
20
-7.88309606519206
30
0
41
1
10
5.05838388137647
20
-7.90174031463954
30
0
0
SPLINE
5
C4
100
AcDbEntity
8
1
62
256
6
ByLayer
370
-1
48
1
60
0
100
AcDbSpline
70
4
71
3
72
8
73
4
40
0
40
0
40
0
40
0
40
1
40
1
40
1
40
1
41
1
10
5.12625167342219
20
-7.63106049041289
30
0
41
1
10
5.36689286400258
20
-6.59093011469921
30
0
41
1
10
5.8103090384862
20
-5.59331242648906
30
0
41
1
10
6.49024710699865
20
-4.67472167775486
30
0
0
SPLINE
5
C5
100
AcDbEntity
8
1
62
256
6
ByLayer
370
-1
48
1
60
0
100
AcDbSpline
70
4
71
3
72
18
73
14
40
0
40
0
40
0
40
0
40
0.134035194113924
40
0.134035194113924
40
0.350240769160631
40
0.350240769160631
40
0.510139996266066
40
0.510139996266066
40
0.670857972384902
40
0.670857972384902
40
0.878347562719708
40
0.878347562719708
40
1
40
1
40
1
40
1
41
1
10
5.21732931146136
20
-5.41410097253899
30
0
41
1
10
5.22952213918745
20
-5.27984515337698
30
0
41
1
10
5.26986010152081
20
-5.12892111665573
30
0
41
1
10
5.40387021103629
20
-4.71563632968514
30
0
41
1
10
5.5185780942092
20
-4.43354673479291
30
0
41
1
10
5.67728314244567
20
-3.91271328699421
30
0
41
1
10
5.73150311852032
20
-3.67470970861052
30
0
41
1
10
5.77031290705662
20
-3.19406046686342
30
0
41
1
10
5.75441631194212
20
-2.94721681483179
30
0
41
1
10
5.68185656242861
20
-2.4139011055
30
0
41
1
10
5.61802589174567
20
-2.1246606198917
30
0
41
1
10
5.56459261020802
20
-1.71093376157955
30
0
41
1
10
5.55468965214203
20
-1.56489994936757
30
0
41
1
10
5.56577405157668
20
-1.43370982094476
30
0
0
SPLINE
5
C6
100
AcDbEntity
8
1
62
256
6
ByLayer
370
-1
48
1
60
0
100
AcDbSpline
70
4
71
3
72
8
73
4
40
0
40
0
40
0
40
0
40
1
40
1
40
1
40
1
41
1
10
0.528766000000019
20
7.90174031463954
30
0
41
1
10
0.352431500249054
20
7.72321306091618
30
0
41
1
10
0.176170448695245
20
7.54461321633264
30
0
41
1
10
0
20
7.36592407527772
30
0
0
SPLINE
5
C7
100
AcDbEntity
8
1
62
256
6
ByLayer
370
-1
48
1
60
0
100
AcDbSpline
70
4
71
3
72
16
73
12
40
0
40
0
40
0
40
0
40
0.215206409891896
40
0.215206409891896
40
0.430404766381566
40
0.430404766381566
40
0.645709669962172
40
0.645709669962172
40
0.861299421438903
40
0.861299421438903
40
1
40
1
40
1
40
1
41
1
10
7.59970389709662
20
7.99894356087205
30
0
41
1
10
7.46429074059307
20
7.99894356087205
30
0
41
1
10
7.32701084843518
20
7.99941515743743
30
0
41
1
10
7.07146139363715
20
8.0001076506318
30
0
41
1
10
6.94967190872995
20
8.00028709832375
30
0
41
1
10
6.73808965962667
20
7.99743041311896
30
0
41
1
10
6.64540364335244
20
7.99427384239971
30
0
41
1
10
6.50121832897554
20
7.98169552215282
30
0
41
1
10
6.44778875672768
20
7.97202265762465
30
0
41
1
10
6.39729127353911
20
7.94988192174111
30
0
41
1
10
6.38656869138708
20
7.93949936793678
30
0
41
1
10
6.38527448815762
20
7.92769504748497
30
0
0
SPLINE
5
C8
100
AcDbEntity
8
1
62
256
6
ByLayer
370
-1
48
1
60
0
100
AcDbSpline
70
4
71
3
72
34
73
30
40
0
40
0
40
0
40
0
40
0.0484619167057188
40
0.0484619167057188
40
0.123250895849072
40
0.123250895849072
40
0.183570929309614
40
0.183570929309614
40
0.243735544402801
40
0.243735544402801
40
0.303833391333687
40
0.303833391333687
40
0.401539481582408
40
0.401539481582408
40
0.499173133035638
40
0.499173133035638
40
0.596804264320269
40
0.596804264320269
40
0.692486849042263
40
0.692486849042263
40
0.77326782940849
40
0.77326782940849
40
0.836555694129393
40
0.836555694129393
40
0.884954691232756
40
0.884954691232756
40
0.961866476551758
40
0.961866476551758
40
1
40
1
40
1
40
1
41
1
10
15.6449871205901
20
7.4313060642981
30
0
41
1
10
15.653643550479
20
7.43102267102242
30
0
41
1
10
15.6623862275835
20
7.43245122216939
30
0
41
1
10
15.6834023148638
20
7.43906744601856
30
0
41
1
10
15.695446019545
20
7.44588851720667
30
0
41
1
10
15.7152753677321
20
7.46067508790804
30
0
41
1
10
15.7235912552945
20
7.46829136583267
30
0
41
1
10
15.7390729337193
20
7.48470290558853
30
0
41
1
10
15.74629009209
20
7.49355133136621
30
0
41
1
10
15.759724269524
20
7.51208675129013
30
0
41
1
10
15.7659690248034
20
7.52181275888995
30
0
41
1
10
15.7811449425873
20
7.54814132482019
30
0
41
1
10
15.7893884544448
20
7.56535597766728
30
0
41
1
10
15.8035678014219
20
7.60074448344972
30
0
41
1
10
15.8095508075997
20
7.61904034530403
30
0
41
1
10
15.819173800665
20
7.65613265762443
30
0
41
1
10
15.8228448012996
20
7.67504770062101
30
0
41
1
10
15.8276027076067
20
7.71254954418265
30
0
41
1
10
15.8287588026203
20
7.73126026145942
30
0
41
1
10
15.8282838423212
20
7.76536236532937
30
0
41
1
10
15.8270587872742
20
7.78091947172868
30
0
41
1
10
15.8226566047111
20
7.80796969275477
30
0
41
1
10
15.8199468124878
20
7.8196861364616
30
0
41
1
10
15.8134614679363
20
7.83955271428579
30
0
41
1
10
15.8100678794851
20
7.84794310184398
30
0
41
1
10
15.7995456151551
20
7.86832317670638
30
0
41
1
10
15.7911698004091
20
7.87997394892443
30
0
41
1
10
15.7753482691493
20
7.89314359627687
30
0
41
1
10
15.7694289627854
20
7.89686862464524
30
0
41
1
10
15.7630890959991
20
7.89954292638316
30
0
0
SPLINE
5
C9
100
AcDbEntity
8
1
62
256
6
ByLayer
370
-1
48
1
60
0
100
AcDbSpline
70
4
71
3
72
42
73
38
40
0
40
0
40
0
40
0
40
0.0453868446055322
40
0.0453868446055322
40
0.0855289172227151
40
0.0855289172227151
40
0.13675526075947
40
0.13675526075947
40
0.176187381923014
40
0.176187381923014
40
0.232899104725512
40
0.232899104725512
40
0.289415721421962
40
0.289415721421962
40
0.345854377934233
40
0.345854377934233
40
0.459254087222222
40
0.459254087222222
40
0.515653380606245
40
0.515653380606245
40
0.572053913253581
40
0.572053913253581
40
0.659762760606564
40
0.659762760606564
40
0.726494882950775
40
0.726494882950775
40
0.77821944168042
40
0.77821944168042
40
0.861348933301174
40
0.861348933301174
40
0.909456127368967
40
0.909456127368967
40
0.95020531107822
40
0.95020531107822
40
0.991117202000562
40
0.991117202000562
40
1
40
1
40
1
40
1
41
1
10
16.5715692410636
20
8.36176325451697
30
0
41
1
10
16.5708088278109
20
8.37020964389282
30
0
41
1
10
16.571768072731
20
8.37887778193539
30
0
41
1
10
16.5770747343495
20
8.39388108077097
30
0
41
1
10
16.5810732701868
20
8.40054867673621
30
0
41
1
10
16.5924351347136
20
8.41376725327004
30
0
41
1
10
16.6005452857048
20
8.42002009446298
30
0
41
1
10
16.6161230304143
20
8.428976081407
30
0
41
1
10
16.6234230736542
20
8.43224326429322
30
0
41
1
10
16.6417444451369
20
8.43887767886679
30
0
41
1
10
16.6530959671252
20
8.44171132104012
30
0
41
1
10
16.6760694759877
20
8.44574632144489
30
0
41
1
10
16.6877690382996
20
8.44696313446491
30
0
41
1
10
16.7112401133982
20
8.44813968208442
30
0
41
1
10
16.7230538908519
20
8.44810090491012
30
0
41
1
10
16.7584984972629
20
8.44641679628958
30
0
41
1
10
16.7822126941024
20
8.44320926106022
30
0
41
1
10
16.8171648840305
20
8.43588445658338
30
0
41
1
10
16.8287266376399
20
8.43301846363633
30
0
41
1
10
16.8516223308255
20
8.42646167933677
30
0
41
1
10
16.8629728473272
20
8.42276619298477
30
0
41
1
10
16.8915681195335
20
8.41226533229167
30
0
41
1
10
16.9086644041694
20
8.40485426813783
30
0
41
1
10
16.937742406466
20
8.38985309182144
30
0
41
1
10
16.9500166604427
20
8.38270393270409
30
0
41
1
10
16.9708735826333
20
8.36868847698747
30
0
41
1
10
16.9796981246756
20
8.36209719407884
30
0
41
1
10
17.0013403970414
20
8.34364736969883
30
0
41
1
10
17.0136981057521
20
8.33076605807884
30
0
41
1
10
17.0287067258124
20
8.30809339157548
30
0
41
1
10
17.0333134716704
20
8.29910341841716
30
0
41
1
10
17.0387476789489
20
8.28210234033526
30
0
41
1
10
17.0400627121472
20
8.27398082028691
30
0
41
1
10
17.0396851252349
20
8.25839623681063
30
0
41
1
10
17.0379655261463
20
8.25074589810114
30
0
41
1
10
17.0343276849721
20
8.24239310010779
30
0
41
1
10
17.0336101872043
20
8.24091637470679
30
0
41
1
10
17.0328373935467
20
8.23947466415697
30
0
0
SPLINE
5
CA
100
AcDbEntity
8
1
62
256
6
ByLayer
370
-1
48
1
60
0
100
AcDbSpline
70
4
71
3
72
22
73
18
40
0
40
0
40
0
40
0
40
0.0986115253809074
40
0.0986115253809074
40
0.18391587523614
40
0.18391587523614
40
0.299838198386837
40
0.299838198386837
40
0.483762819016383
40
0.483762819016383
40
0.582277256960211
40
0.582277256960211
40
0.774223519347305
40
0.774223519347305
40
0.965774542234492
40
0.965774542234492
40
1
40
1
40
1
40
1
41
1
10
17.3729636326919
20
7.90311485096515
30
0
41
1
10
17.3803429722274
20
7.90761003403111
30
0
41
1
10
17.3888212140961
20
7.91044583800436
30
0
41
1
10
17.4050925742623
20
7.91177308204891
30
0
41
1
10
17.4130092989754
20
7.91083292798115
30
0
41
1
10
17.4310275426403
20
7.90566253229414
30
0
41
1
10
17.4411910333678
20
7.90036180851575
30
0
41
1
10
17.4653399787829
20
7.88348813342867
30
0
41
1
10
17.4786469904407
20
7.86985861408616
30
0
41
1
10
17.4966283118458
20
7.8471150590444
30
0
41
1
10
17.5025227735213
20
7.83871587091022
30
0
41
1
10
17.5187371706954
20
7.81318922552708
30
0
41
1
10
17.5280597789367
20
7.79521189055853
30
0
41
1
10
17.5441793813412
20
7.75822175334386
30
0
41
1
10
17.5510268944384
20
7.73908708994071
30
0
41
1
10
17.5576919411754
20
7.71613742086745
30
0
41
1
10
17.558665677263
20
7.71264123357562
30
0
41
1
10
17.5596011126144
20
7.70913395875039
30
0
0
SPLINE
5
CB
100
AcDbEntity
8
1
62
256
6
ByLayer
370
-1
48
1
60
0
100
AcDbSpline
70
4
71
3
72
34
73
30
40
0
40
0
40
0
40
0
40
0.0495805136006523
40
0.0495805136006523
40
0.129698637862946
40
0.129698637862946
40
0.194505892890833
40
0.194505892890833
40
0.259150175590203
40
0.259150175590203
40
0.323725661314038
40
0.323725661314038
40
0.425534197335529
40
0.425534197335529
40
0.527282435054681
40
0.527282435054681
40
0.629041292372163
40
0.629041292372163
40
0.72416948347526
40
0.72416948347526
40
0.802896330501575
40
0.802896330501575
40
0.86392513821331
40
0.86392513821331
40
0.910648821183633
40
0.910648821183633
40
0.947136701919322
40
0.947136701919322
40
1
40
1
40
1
40
1
41
1
10
16.571364753516
20
8.36176243811329
30
0
41
1
10
16.5715599688973
20
8.35335701815185
30
0
41
1
10
16.5701074095024
20
8.34492912491126
30
0
41
1
10
16.5633852085427
20
8.32411520650643
30
0
41
1
10
16.5563027091626
20
8.31204748923381
30
0
41
1
10
16.5409294747732
20
8.29220144009074
30
0
41
1
10
16.5329925573931
20
8.28388804035922
30
0
41
1
10
16.515870911422
20
8.26843995919816
30
0
41
1
10
16.5066302393988
20
8.26125421092064
30
0
41
1
10
16.4872491286711
20
8.24790799262198
30
0
41
1
10
16.4770670669992
20
8.24171955495564
30
0
41
1
10
16.4499868965119
20
8.22700738236415
30
0
41
1
10
16.4324830523051
20
8.21912251301634
30
0
41
1
10
16.396457147263
20
8.20561550163481
30
0
41
1
10
16.3778100230451
20
8.19994785278223
30
0
41
1
10
16.3399671554556
20
8.19094792772319
30
0
41
1
10
16.3206455767077
20
8.18758502851657
30
0
41
1
10
16.2831933118387
20
8.18357997806649
30
0
41
1
10
16.2649451092067
20
8.18275903877463
30
0
41
1
10
16.2319771229428
20
8.18371479302655
30
0
41
1
10
16.2170948221304
20
8.18506997478818
30
0
41
1
10
16.1913372211309
20
8.18952815732729
30
0
41
1
10
16.1802453596883
20
8.19218293216801
30
0
41
1
10
16.161433335498
20
8.19843112052826
30
0
41
1
10
16.1534855315936
20
8.20167678700491
30
0
41
1
10
16.1401197699137
20
8.20859604265794
30
0
41
1
10
16.1344962280834
20
8.21204004463303
30
0
41
1
10
16.1218205462799
20
8.22153516205657
30
0
41
1
10
16.115097993566
20
8.22819990998934
30
0
41
1
10
16.1099979314593
20
8.23579028571501
30
0
0
SPLINE
5
CC
100
AcDbEntity
8
1
62
256
6
ByLayer
370
-1
48
1
60
0
100
AcDbSpline
70
4
71
3
72
34
73
30
40
0
40
0
40
0
40
0
40
0.0489352209448021
40
0.0489352209448021
40
0.117200042217501
40
0.117200042217501
40
0.171506955646258
40
0.171506955646258
40
0.225668649239267
40
0.225668649239267
40
0.279765320459375
40
0.279765320459375
40
0.373225321592606
40
0.373225321592606
40
0.4665834777898
40
0.4665834777898
40
0.559915867375255
40
0.559915867375255
40
0.653268378335713
40
0.653268378335713
40
0.744703146931358
40
0.744703146931358
40
0.818565955739637
40
0.818565955739637
40
0.875584577609754
40
0.875584577609754
40
0.96511227515392
40
0.96511227515392
40
1
40
1
40
1
40
1
41
1
10
17.0359471150574
20
6.62589628270746
30
0
41
1
10
17.0332252764556
20
6.63327080628798
30
0
41
1
10
17.0288288626288
20
6.63993801833064
30
0
41
1
10
17.015997121453
20
6.65346591949344
30
0
41
1
10
17.0064999317791
20
6.65967859705657
30
0
41
1
10
16.9880691575557
20
6.66834191392948
30
0
41
1
10
16.9792685412006
20
6.67137056315011
30
0
41
1
10
16.9611006634811
20
6.67610655523271
30
0
41
1
10
16.9516749064858
20
6.67783093286386
30
0
41
1
10
16.9324756084669
20
6.68023044711452
30
0
41
1
10
16.9226631809859
20
6.68091030142654
30
0
41
1
10
16.8956402044488
20
6.68156379526167
30
0
41
1
10
16.8781113445441
20
6.68067640080508
30
0
41
1
10
16.842957203941
20
6.67679734570075
30
0
41
1
10
16.8252137719922
20
6.67379068815876
30
0
41
1
10
16.7899804543783
20
6.66592073550945
30
0
41
1
10
16.7723877806483
20
6.66103399637029
30
0
41
1
10
16.7378330803372
20
6.64951121405934
30
0
41
1
10
16.7207693513588
20
6.64284208214008
30
0
41
1
10
16.6880874755502
20
6.62790180245827
30
0
41
1
10
16.672338264255
20
6.61962082886572
30
0
41
1
10
16.6454084806307
20
6.60299070589252
30
0
41
1
10
16.6338544462701
20
6.59491304036865
30
0
41
1
10
16.6149171482131
20
6.57938991481683
30
0
41
1
10
16.6071352504384
20
6.57217865006237
30
0
41
1
10
16.589280726021
20
6.55261828171876
30
0
41
1
10
16.5799972776732
20
6.53926160853342
30
0
41
1
10
16.5727895036979
20
6.51951354164899
30
0
41
1
10
16.5713834774985
20
6.51372897325248
30
0
41
1
10
16.5708324567512
20
6.50795347070678
30
0
0
SPLINE
5
CD
100
AcDbEntity
8
1
62
256
6
ByLayer
370
-1
48
1
60
0
100
AcDbSpline
70
4
71
3
72
34
73
30
40
0
40
0
40
0
40
0
40
0.0493619475591318
40
0.0493619475591318
40
0.125539901664515
40
0.125539901664515
40
0.186980193980902
40
0.186980193980902
40
0.248262181512406
40
0.248262181512406
40
0.340547871918716
40
0.340547871918716
40
0.432709445704577
40
0.432709445704577
40
0.524833165866665
40
0.524833165866665
40
0.616962251766928
40
0.616962251766928
40
0.709145696793803
40
0.709145696793803
40
0.791292482820603
40
0.791292482820603
40
0.85480749946918
40
0.85480749946918
40
0.90351977451619
40
0.90351977451619
40
0.980968575571191
40
0.980968575571191
40
1
40
1
40
1
40
1
41
1
10
17.3729636326923
20
7.90311485096459
30
0
41
1
10
17.3664162141084
20
7.8986801806029
30
0
41
1
10
17.3589511615227
20
7.89568335372792
30
0
41
1
10
17.3394201962487
20
7.89122856154586
30
0
41
1
10
17.3267169419423
20
7.8912926932671
30
0
41
1
10
17.3040045039198
20
7.89446360345957
30
0
41
1
10
17.2937643388541
20
7.8970133144411
30
0
41
1
10
17.2735556086305
20
7.90367990206374
30
0
41
1
10
17.2635207365037
20
7.90781781267043
30
0
41
1
10
17.2387870580374
20
7.91968064423449
30
0
41
1
10
17.2241770110184
20
7.92821088599501
30
0
41
1
10
17.1958531824508
20
7.94723348375092
30
0
41
1
10
17.1820439418183
20
7.95779254543427
30
0
41
1
10
17.1554679997134
20
7.98047029323644
30
0
41
1
10
17.142626487477
20
7.99265380814026
30
0
41
1
10
17.1182126226636
20
8.01829707117977
30
0
41
1
10
17.1065731597804
20
8.03182682820307
30
0
41
1
10
17.0848930161678
20
8.05994476849179
30
0
41
1
10
17.0747855291974
20
8.07461689546633
30
0
41
1
10
17.0576812024566
20
8.10317854885827
30
0
41
1
10
17.0504112843919
20
8.11706524729181
30
0
41
1
10
17.0395954147067
20
8.14214876747769
30
0
41
1
10
17.0355510611838
20
8.15330881388536
30
0
41
1
10
17.0301340956123
20
8.17314750169723
30
0
41
1
10
17.0283469266191
20
8.18184912846181
30
0
41
1
10
17.0257747157759
20
8.20407260890315
30
0
41
1
10
17.0261408523797
20
8.21789746096141
30
0
41
1
10
17.0306039959894
20
8.23342631621367
30
0
41
1
10
17.0317018462497
20
8.23646091773375
30
0
41
1
10
17.0330144441505
20
8.23937269669298
30
0
0
SPLINE
5
CE
100
AcDbEntity
8
1
62
256
6
ByLayer
370
-1
48
1
60
0
100
AcDbSpline
70
4
71
3
72
22
73
18
40
0
40
0
40
0
40
0
40
0.0986115253821137
40
0.0986115253821137
40
0.183915875237344
40
0.183915875237344
40
0.299838198394107
40
0.299838198394107
40
0.483762819036949
40
0.483762819036949
40
0.582277256988331
40
0.582277256988331
40
0.77422351938833
40
0.77422351938833
40
0.965774542288438
40
0.965774542288438
40
1
40
1
40
1
40
1
41
1
10
15.6449871205901
20
7.43130606429864
30
0
41
1
10
15.6355061126924
20
7.43119767780772
30
0
41
1
10
15.625888539418
20
7.42909257863357
30
0
41
1
10
15.609676567847
20
7.42155053468249
30
0
41
1
10
15.6026537903344
20
7.41653128094541
30
0
41
1
10
15.5883106616055
20
7.40252489718873
30
0
41
1
10
15.5815098948287
20
7.39259223212235
30
0
41
1
10
15.5676330615924
20
7.36533595266221
30
0
41
1
10
15.5622944678857
20
7.34661541478758
30
0
41
1
10
15.5573361965132
20
7.31760840572141
30
0
41
1
10
15.5562037629373
20
7.30729058564938
30
0
41
1
10
15.554343118106
20
7.27682870903971
30
0
41
1
10
15.5549817991002
20
7.25648030412228
30
0
41
1
10
15.5591112575987
20
7.21621636358154
30
0
41
1
10
15.5626186414892
20
7.19616970727833
30
0
41
1
10
15.5682414276241
20
7.17293545812058
30
0
41
1
10
15.5691361264984
20
7.16941769041887
30
0
41
1
10
15.5700715548261
20
7.16591041368187
30
0
0
SPLINE
5
CF
100
AcDbEntity
8
1
62
256
6
ByLayer
370
-1
48
1
60
0
100
AcDbSpline
70
4
71
3
72
22
73
18
40
0
40
0
40
0
40
0
40
0.167842784250373
40
0.167842784250373
40
0.335898034473443
40
0.335898034473443
40
0.454065247810898
40
0.454065247810898
40
0.642558083168609
40
0.642558083168609
40
0.755508761176078
40
0.755508761176078
40
0.870151412064522
40
0.870151412064522
40
0.96701298227065
40
0.96701298227065
40
1
40
1
40
1
40
1
41
1
10
15.869568978296
20
8.197258189298
30
0
41
1
10
15.8814029634982
20
8.20770948336815
30
0
41
1
10
15.8938094993951
20
8.21756668996835
30
0
41
1
10
15.9196890184897
20
8.23571078642343
30
0
41
1
10
15.9332193486797
20
8.24404027123865
30
0
41
1
10
15.9571600315283
20
8.25635897772591
30
0
41
1
10
15.9673467002923
20
8.26092129625204
30
0
41
1
10
15.9942633800704
20
8.27078146944262
30
0
41
1
10
16.0116956906788
20
8.27509499768649
30
0
41
1
10
16.0394315096769
20
8.27656028154391
30
0
41
1
10
16.0499966817275
20
8.27584370408113
30
0
41
1
10
16.0698887097969
20
8.27097715851281
30
0
41
1
10
16.0794615930155
20
8.2666389186125
30
0
41
1
10
16.0941023472399
20
8.25560265791196
30
0
41
1
10
16.0998210538435
20
8.24925263500967
30
0
41
1
10
16.1057433845306
20
8.23987459053842
30
0
41
1
10
16.1071214931269
20
8.23738435407535
30
0
41
1
10
16.108361475236
20
8.23483318282462
30
0
0
SPLINE
5
D0
100
AcDbEntity
8
1
62
256
6
ByLayer
370
-1
48
1
60
0
100
AcDbSpline
70
4
71
3
72
24
73
20
40
0
40
0
40
0
40
0
40
0.157271741032123
40
0.157271741032123
40
0.348948952037961
40
0.348948952037961
40
0.444424851181326
40
0.444424851181326
40
0.53998140318847
40
0.53998140318847
40
0.635703613088436
40
0.635703613088436
40
0.713564507855792
40
0.713564507855792
40
0.838051590547653
40
0.838051590547653
40
0.924253033978382
40
0.924253033978382
40
1
40
1
40
1
40
1
41
1
10
17.5596011126144
20
7.70913395875039
30
0
41
1
10
17.5638932146559
20
7.69304136462756
30
0
41
1
10
17.5673907805439
20
7.67668566650909
30
0
41
1
10
17.5732326678997
20
7.64013265254314
30
0
41
1
10
17.5751822424056
20
7.6197714839287
30
0
41
1
10
17.575773299749
20
7.58931242658034
30
0
41
1
10
17.5755804551516
20
7.57915739591735
30
0
41
1
10
17.5742843425783
20
7.55895622582307
30
0
41
1
10
17.5731792428105
20
7.54888092912748
30
0
41
1
10
17.5698643882835
20
7.52901384199535
30
0
41
1
10
17.5676457148857
20
7.51917487024093
30
0
41
1
10
17.562371830835
20
7.5019175199306
30
0
41
1
10
17.5595344643397
20
7.4943472700277
30
0
41
1
10
17.5508043667678
20
7.47582187252195
30
0
41
1
10
17.5439003732509
20
7.46518970311416
30
0
41
1
10
17.529747584013
20
7.45116469839675
30
0
41
1
10
17.5231006304267
20
7.44645486102471
30
0
41
1
10
17.5099362858032
20
7.44057455390399
30
0
41
1
10
17.5033759617221
20
7.43898458478634
30
0
41
1
10
17.4968666722305
20
7.43855576913322
30
0
0
SPLINE
5
D1
100
AcDbEntity
8
1
62
256
6
ByLayer
370
-1
48
1
60
0
100
AcDbSpline
70
4
71
3
72
22
73
18
40
0
40
0
40
0
40
0
40
0.0991354884072691
40
0.0991354884072691
40
0.206229847801503
40
0.206229847801503
40
0.367627630835153
40
0.367627630835153
40
0.507529288585193
40
0.507529288585193
40
0.647011593785192
40
0.647011593785192
40
0.786332448960368
40
0.786332448960368
40
0.892876682580858
40
0.892876682580858
40
1
40
1
40
1
40
1
41
1
10
17.0359471150574
20
6.62589628270746
30
0
41
1
10
17.0416912133835
20
6.61968465329872
30
0
41
1
10
17.0491506721227
20
6.61476141359657
30
0
41
1
10
17.0663337579746
20
6.60798962437232
30
0
41
1
10
17.076412280814
20
6.60625856202773
30
0
41
1
10
17.1019619168339
20
6.60545824963364
30
0
41
1
10
17.1180421552476
20
6.60803112408942
30
0
41
1
10
17.1471909122629
20
6.61600641980255
30
0
41
1
10
17.1606294704676
20
6.62106417856128
30
0
41
1
10
17.1867396128209
20
6.63291457399168
30
0
41
1
10
17.1994965301657
20
6.63974511540238
30
0
41
1
10
17.2242417363329
20
6.65471681187066
30
0
41
1
10
17.2362760242776
20
6.66288652752922
30
0
41
1
10
17.2568241940999
20
6.67826121474633
30
0
41
1
10
17.2655175134567
20
6.68525583886282
30
0
41
1
10
17.2824685039503
20
6.699858647414
30
0
41
1
10
17.2907352812481
20
6.70748015126384
30
0
41
1
10
17.298738151225
20
6.71537089851256
30
0
0
SPLINE
5
D2
100
AcDbEntity
8
1
62
256
6
ByLayer
370
-1
48
1
60
0
100
AcDbSpline
70
4
71
3
72
42
73
38
40
0
40
0
40
0
40
0
40
0.0453868446055306
40
0.0453868446055306
40
0.0855289172227081
40
0.0855289172227081
40
0.136755260759469
40
0.136755260759469
40
0.176187381923015
40
0.176187381923015
40
0.232899104725519
40
0.232899104725519
40
0.289415721421974
40
0.289415721421974
40
0.345854377934255
40
0.345854377934255
40
0.459254087222266
40
0.459254087222266
40
0.515653380606297
40
0.515653380606297
40
0.572053913253648
40
0.572053913253648
40
0.659762760606621
40
0.659762760606621
40
0.726494882950807
40
0.726494882950807
40
0.778219441680451
40
0.778219441680451
40
0.861348933301192
40
0.861348933301192
40
0.909456127368985
40
0.909456127368985
40
0.95020531107824
40
0.95020531107824
40
0.991117202000586
40
0.991117202000586
40
1
40
1
40
1
40
1
41
1
10
16.1093598167198
20
6.63024124464727
30
0
41
1
10
16.1045271029582
20
6.62343204296306
30
0
41
1
10
16.1010771324235
20
6.61558244423082
30
0
41
1
10
16.0982701942274
20
6.6001906971882
30
0
41
1
10
16.0984462320061
20
6.59253850828372
30
0
41
1
10
16.1017765467161
20
6.57566941341054
30
0
41
1
10
16.1057264135952
20
6.56633706068897
30
0
41
1
10
16.1148232339587
20
6.55101430609656
30
0
41
1
10
16.1195458593743
20
6.54462600500426
30
0
41
1
10
16.1321728988184
20
6.5299283983403
30
0
41
1
10
16.1406279857284
20
6.52191145888489
30
0
41
1
10
16.158581221013
20
6.50713958574329
30
0
41
1
10
16.1681390746759
20
6.50033316195925
30
0
41
1
10
16.1879401941529
20
6.48776137689833
30
0
41
1
10
16.1982194217461
20
6.48197389206288
30
0
41
1
10
16.2298373787332
20
6.46595444679042
30
0
41
1
10
16.2520232320073
20
6.4570214538299
30
0
41
1
10
16.2860118732048
20
6.44608701755661
30
0
41
1
10
16.2974747668391
20
6.44285067685448
30
0
41
1
10
16.3206120670555
20
6.4371989971882
30
0
41
1
10
16.3323031997941
20
6.43477952227178
30
0
41
1
10
16.3623475014466
20
6.42970699394655
30
0
41
1
10
16.3808723089791
20
6.42764744083274
30
0
41
1
10
16.4135682218781
20
6.42619962692714
30
0
41
1
10
16.4277747602744
20
6.42628916270812
30
0
41
1
10
16.4528403440771
20
6.42804013197031
30
0
41
1
10
16.4637732672958
20
6.42934723498794
30
0
41
1
10
16.4917176322068
20
6.43450621513588
30
0
41
1
10
16.5088358432346
20
6.43945862586318
30
0
41
1
10
16.5331030590753
20
6.45147037194394
30
0
41
1
10
16.541556278595
20
6.45689000069927
30
0
41
1
10
16.5546911024454
20
6.46873685686899
30
0
41
1
10
16.5598514208232
20
6.47502048646027
30
0
41
1
10
16.5672295352856
20
6.48849019509686
30
0
41
1
10
16.5695164487821
20
6.49584899371447
30
0
41
1
10
16.5704815454328
20
6.50473965233218
30
0
41
1
10
16.5705874732483
20
6.50634763149594
30
0
41
1
10
16.5706279692029
20
6.50795265428729
30
0
0
SPLINE
5
D3
100
AcDbEntity
8
1
62
256
6
ByLayer
370
-1
48
1
60
0
100
AcDbSpline
70
4
71
3
72
36
73
32
40
0
40
0
40
0
40
0
40
0.0492962859145993
40
0.0492962859145993
40
0.128955121084946
40
0.128955121084946
40
0.193390858861428
40
0.193390858861428
40
0.257664558572565
40
0.257664558572565
40
0.321869855697079
40
0.321869855697079
40
0.386043638223811
40
0.386043638223811
40
0.49044858370365
40
0.49044858370365
40
0.5948412902484
40
0.5948412902484
40
0.692807648700571
40
0.692807648700571
40
0.776462598778965
40
0.776462598778965
40
0.842223390286644
40
0.842223390286644
40
0.892525018755483
40
0.892525018755483
40
0.931489584935948
40
0.931489584935948
40
0.988987173585857
40
0.988987173585857
40
1
40
1
40
1
40
1
41
1
10
17.3703213497253
20
6.97468600889405
30
0
41
1
10
17.3638704956325
20
6.97879883932058
30
0
41
1
10
17.3582323349533
20
6.98435611484254
30
0
41
1
10
17.3458803919394
20
7.00080612969506
30
0
41
1
10
17.3403154821768
20
7.0131126894035
30
0
41
1
10
17.3329985566725
20
7.03658644978967
30
0
41
1
10
17.3306710222882
20
7.0477194463106
30
0
41
1
10
17.3274930376639
20
7.0704647995889
30
0
41
1
10
17.3266318899793
20
7.08215179281726
30
0
41
1
10
17.3260850442437
20
7.10577933982611
30
0
41
1
10
17.3263987697995
20
7.11777029135229
30
0
41
1
10
17.3280216832092
20
7.14185267226227
30
0
41
1
10
17.329333940995
20
7.15398357019416
30
0
41
1
10
17.3339352035342
20
7.18577974336503
30
0
41
1
10
17.3379617836806
20
7.2055422371121
30
0
41
1
10
17.3480631206462
20
7.244446901456
30
0
41
1
10
17.354173587941
20
7.26372666397188
30
0
41
1
10
17.3679338578332
20
7.29996971494774
30
0
41
1
10
17.375509960336
20
7.31712391345044
30
0
41
1
10
17.3912586064232
20
7.34740881344476
30
0
41
1
10
17.3992290186748
20
7.36085391888491
30
0
41
1
10
17.4148204365541
20
7.38323033054144
30
0
41
1
10
17.4221944529829
20
7.39257224061632
30
0
41
1
10
17.4361570845864
20
7.40754116476998
30
0
41
1
10
17.4425597817895
20
7.41356165461073
30
0
41
1
10
17.4545240479101
20
7.42292571616358
30
0
41
1
10
17.4599815773743
20
7.42658830642077
30
0
41
1
10
17.4738962295054
20
7.43406535615355
30
0
41
1
10
17.4827572070203
20
7.43722446696006
30
0
41
1
10
17.4933959960027
20
7.43841412745218
30
0
41
1
10
17.4951323712455
20
7.43852764374384
30
0
41
1
10
17.4968666722304
20
7.43855576913612
30
0
0
SPLINE
5
D4
100
AcDbEntity
8
1
62
256
6
ByLayer
370
-1
48
1
60
0
100
AcDbSpline
70
4
71
3
72
24
73
20
40
0
40
0
40
0
40
0
40
0.15727174113272
40
0.15727174113272
40
0.348948952192717
40
0.348948952192717
40
0.444424851362982
40
0.444424851362982
40
0.539981403397113
40
0.539981403397113
40
0.635703613324255
40
0.635703613324255
40
0.713564508082774
40
0.713564508082774
40
0.838051590779652
40
0.838051590779652
40
0.924253034227031
40
0.924253034227031
40
1
40
1
40
1
40
1
41
1
10
15.5700715548261
20
7.16591041368187
30
0
41
1
10
15.5743636246493
20
7.14981781075497
30
0
41
1
10
15.5795171735456
20
7.13391426422305
30
0
41
1
10
15.5928466804028
20
7.09940567888978
30
0
41
1
10
15.6014679824049
20
7.08086616678
30
0
41
1
10
15.6165195572314
20
7.05435542652879
30
0
41
1
10
15.6218991929944
20
7.04572191261013
30
0
41
1
10
15.63345304391
20
7.02902931201263
30
0
41
1
10
15.6396438369367
20
7.02094609466687
30
0
41
1
10
15.65292098392
20
7.0056093075973
30
0
41
1
10
15.6600397594275
20
6.99831984413072
30
0
41
1
10
15.6738395011795
20
6.98627037957033
30
0
41
1
10
15.6803908275201
20
6.98126362966278
30
0
41
1
10
15.6981322003431
20
6.96996603430114
30
0
41
1
10
15.7101257674233
20
6.96449367758743
30
0
41
1
10
15.730812304408
20
6.95998124443901
30
0
41
1
10
15.7395864966517
20
6.95948201528699
30
0
41
1
10
15.7552457438472
20
6.96147173637533
30
0
41
1
10
15.7623815319977
20
6.96362137022209
30
0
41
1
10
15.7688908780487
20
6.96674717847557
30
0
0
SPLINE
5
D5
100
AcDbEntity
8
1
62
256
6
ByLayer
370
-1
48
1
60
0
100
AcDbSpline
70
4
71
3
72
22
73
18
40
0
40
0
40
0
40
0
40
0.0991354884062514
40
0.0991354884062514
40
0.206229847799412
40
0.206229847799412
40
0.367627630831408
40
0.367627630831408
40
0.507529288580055
40
0.507529288580055
40
0.647011593778661
40
0.647011593778661
40
0.786332448952426
40
0.786332448952426
40
0.892876682567125
40
0.892876682567125
40
1
40
1
40
1
40
1
41
1
10
15.7630890959991
20
7.89954292638316
30
0
41
1
10
15.7561550723768
20
7.9060172739066
30
0
41
1
10
15.7505193924596
20
7.91419728621557
30
0
41
1
10
15.7424226723689
20
7.93272096554284
30
0
41
1
10
15.7400687689503
20
7.94343003221428
30
0
41
1
10
15.7379147856132
20
7.97035050350814
30
0
41
1
10
15.7398273317423
20
7.98709984812533
30
0
41
1
10
15.7467714382522
20
8.01729355167873
30
0
41
1
10
15.7514238774394
20
8.03114287307048
30
0
41
1
10
15.7625696645101
20
8.0579668952488
30
0
41
1
10
15.7690989168375
20
8.07102896015127
30
0
41
1
10
15.7835443190423
20
8.09630684203125
30
0
41
1
10
15.791488236837
20
8.10856946211032
30
0
41
1
10
15.8065188941164
20
8.12946508035481
30
0
41
1
10
15.8133823294865
20
8.13829072219852
30
0
41
1
10
15.8277558485159
20
8.15547259913649
30
0
41
1
10
15.8352792845252
20
8.16383790482601
30
0
41
1
10
15.8430890596706
20
8.17192186654131
30
0
0
SPLINE
5
D6
100
AcDbEntity
8
1
62
256
6
ByLayer
370
-1
48
1
60
0
100
AcDbSpline
70
4
71
3
72
36
73
32
40
0
40
0
40
0
40
0
40
0.0492962859085572
40
0.0492962859085572
40
0.128955121069259
40
0.128955121069259
40
0.193390858837942
40
0.193390858837942
40
0.2576645585413
40
0.2576645585413
40
0.321869855658042
40
0.321869855658042
40
0.38604363817701
40
0.38604363817701
40
0.490448583644135
40
0.490448583644135
40
0.594841290176176
40
0.594841290176176
40
0.692807648616356
40
0.692807648616356
40
0.776462598684477
40
0.776462598684477
40
0.842223390184079
40
0.842223390184079
40
0.89252501864673
40
0.89252501864673
40
0.931489584822398
40
0.931489584822398
40
0.988987173442026
40
0.988987173442026
40
1
40
1
40
1
40
1
41
1
10
16.1091827661161
20
6.63034321211128
30
0
41
1
10
16.1135047617457
20
6.63739747439229
30
0
41
1
10
16.1164079132816
20
6.64528688008184
30
0
41
1
10
16.1208574596316
20
6.66632439381266
30
0
41
1
10
16.1206735840709
20
6.68010019757622
30
0
41
1
10
16.1171397976653
20
6.70460691081536
30
0
41
1
10
16.1143609746935
20
6.71561668695719
30
0
41
1
10
16.1071399382079
20
6.73725812048906
30
0
41
1
10
16.1026744171984
20
6.7479609712866
30
0
41
1
10
16.0924582696395
20
6.76894840048757
30
0
41
1
10
16.0866853564903
20
6.77927744885582
30
0
41
1
10
16.0740869002658
20
6.79947680988397
30
0
41
1
10
16.0672403464396
20
6.80938001607336
30
0
41
1
10
16.0481038932277
20
6.8346948147647
30
0
41
1
10
16.0350127048108
20
6.84978345238017
30
0
41
1
10
16.0069871999446
20
6.87827791794061
30
0
41
1
10
15.991953796285
20
6.89178453248223
30
0
41
1
10
15.9613547933977
20
6.91591567422722
30
0
41
1
10
15.9457783773195
20
6.92674828119007
30
0
41
1
10
15.915884661027
20
6.9445709356248
30
0
41
1
10
15.9016258996825
20
6.95194656075105
30
0
41
1
10
15.8755929565561
20
6.96295780677923
30
0
41
1
10
15.8638687210616
20
6.96708510716221
30
0
41
1
10
15.8429841768525
20
6.97253931648965
30
0
41
1
10
15.8338153734059
20
6.97430814505103
30
0
41
1
10
15.8176068297195
20
6.97597986870522
30
0
41
1
10
15.8105117707005
20
6.97621508509454
30
0
41
1
10
15.7933418919135
20
6.97520477709108
30
0
41
1
10
15.7832002144177
20
6.97317538010202
30
0
41
1
10
15.772318333195
20
6.96848901089788
30
0
41
1
10
15.7705823752125
20
6.96765443714091
30
0
41
1
10
15.7688908780487
20
6.9667471784756
30
0
0
SPLINE
5
D7
100
AcDbEntity
8
1
62
256
6
ByLayer
370
-1
48
1
60
0
100
AcDbSpline
70
4
71
3
72
22
73
18
40
0
40
0
40
0
40
0
40
0.16784278424377
40
0.16784278424377
40
0.33589803446803
40
0.33589803446803
40
0.454065247806361
40
0.454065247806361
40
0.642558083165547
40
0.642558083165547
40
0.75550876117411
40
0.75550876117411
40
0.870151412063663
40
0.870151412063663
40
0.967012982270822
40
0.967012982270822
40
1
40
1
40
1
40
1
41
1
10
17.3238735174096
20
6.74205260675168
30
0
41
1
10
17.3342664532535
20
6.753945843011
30
0
41
1
10
17.3441024151925
20
6.76637521621953
30
0
41
1
10
17.3622994427622
20
6.79220656404038
30
0
41
1
10
17.3707028999249
20
6.80566609833937
30
0
41
1
10
17.3832653341037
20
6.82937010311758
30
0
41
1
10
17.3879630747334
20
6.83942475055298
30
0
41
1
10
17.3982966915778
20
6.86587826104508
30
0
41
1
10
17.4030240758943
20
6.88290458717168
30
0
41
1
10
17.4054857958483
20
6.90965962914603
30
0
41
1
10
17.4052291840981
20
6.9197715403364
30
0
41
1
10
17.4014698187954
20
6.93857104183348
30
0
41
1
10
17.3978019378618
20
6.94748176966525
30
0
41
1
10
17.3881084256259
20
6.96079485220582
30
0
41
1
10
17.3824302263288
20
6.96584879638507
30
0
41
1
10
17.3739523432181
20
6.97087988765168
30
0
41
1
10
17.371694013294
20
6.97202834273725
30
0
41
1
10
17.3693741134041
20
6.97303925908156
30
0
0
LINE
5
49
100
AcDbEntity
8
80
62
256
6
ByLayer
370
-1
48
1
60
0
100
AcDbLine
10
0
20
0
30
0
11
-10
21
0
31
0
39
0
210
0
220
0
230
1
0
LINE
5
4A
100
AcDbEntity
8
81
62
256
6
ByLayer
370
-1
48
1
60
0
100
AcDbLine
10
20
20
10.9
30
0
11
30
21
10.9
31
0
39
0
210
0
220
0
230
1
0
LINE
5
4B
100
AcDbEntity
8
1
62
256
6
ByLayer
370
-1
48
1
60
0
100
AcDbLine
10
19.998484
20
10.470505
30
0
11
19.507042
21
4.853302
31
0
39
0
210
0
220
0
230
1
0
LINE
5
4C
100
AcDbEntity
8
1
62
256
6
ByLayer
370
-1
48
1
60
0
100
AcDbLine
10
19.147973
20
4.491431
30
0
11
13.556084
21
3.977836
31
0
39
0
210
0
220
0
230
1
0
LINE
5
4D
100
AcDbEntity
8
1
62
256
6
ByLayer
370
-1
48
1
60
0
100
AcDbLine
10
13.128503
20
4.405681
30
0
11
13.619944
21
10.022884
31
0
39
0
210
0
220
0
230
1
0
LINE
5
4E
100
AcDbEntity
8
SK4
62
256
6
ByLayer
370
-1
48
0.05
60
0
100
AcDbLine
10
-10
20
0
30
0
11
24.502958
21
0
31
0
39
0
210
0
220
0
230
1
0
LINE
5
50
100
AcDbEntity
8
4
62
256
6
ByLayer
370
-1
48
0.05
60
0
100
AcDbLine
10
0
20
0
30
0
11
29.502958
21
0
31
0
39
0
210
0
220
0
230
1
0
LINE
5
52
100
AcDbEntity
8
SK1
62
256
6
ByLayer
370
-1
48
1
60
0
100
AcDbLine
10
-1.49
20
-1.955
30
0
11
-0.221242
21
-1.955
31
0
39
0
210
0
220
0
230
1
0
LINE
5
54
100
AcDbEntity
8
SK1
62
256
6
ByLayer
370
-1
48
1
60
0
100
AcDbLine
10
-0.221242
20
1.955
30
0
11
-1.49
21
1.955
31
0
39
0
210
0
220
0
230
1
0
LINE
5
55
100
AcDbEntity
8
SK1
62
256
6
ByLayer
370
-1
48
1
60
0
100
AcDbLine
10
-1.49
20
1.955
30
0
11
-1.99
21
1.821025
31
0
39
0
210
0
220
0
230
1
0
LINE
5
56
100
AcDbEntity
8
SK1
62
256
6
ByLayer
370
-1
48
1
60
0
100
AcDbLine
10
-1.99
20
-1.821025
30
0
11
-1.49
21
-1.955
31
0
39
0
210
0
220
0
230
1
0
LINE
5
57
100
AcDbEntity
8
1
62
256
6
ByLayer
370
-1
48
1
60
0
100
AcDbLine
10
17.083835
20
6.627333
30
0
11
16.991946
21
6.666421
31
0
39
0
210
0
220
0
230
1
0
LINE
5
58
100
AcDbEntity
8
1
62
256
6
ByLayer
370
-1
48
1
60
0
100
AcDbLine
10
17.331067
20
8.986164
30
0
11
17.257658
21
9.017391
31
0
39
0
210
0
220
0
230
1
0
LINE
5
59
100
AcDbEntity
8
1
62
256
6
ByLayer
370
-1
48
1
60
0
100
AcDbLine
10
15.907184
20
5.842692
30
0
11
15.980593
21
5.811464
31
0
39
0
210
0
220
0
230
1
0
LINE
5
5A
100
AcDbEntity
8
1
62
256
6
ByLayer
370
-1
48
1
60
0
100
AcDbLine
10
17.26503
20
7.9074
30
0
11
17.35466
21
7.869272
31
0
39
0
210
0
220
0
230
1
0
LINE
5
5B
100
AcDbEntity
8
1
62
256
6
ByLayer
370
-1
48
1
60
0
100
AcDbLine
10
15.977222
20
6.919755
30
0
11
15.887619
21
6.95787
31
0
39
0
210
0
220
0
230
1
0
LINE
5
5C
100
AcDbEntity
8
1
62
256
6
ByLayer
370
-1
48
1
60
0
100
AcDbLine
10
16.156155
20
8.200784
30
0
11
16.248047
21
8.161694
31
0
39
0
210
0
220
0
230
1
0
LINE
5
5D
100
AcDbEntity
8
1
62
256
6
ByLayer
370
-1
48
1
60
0
100
AcDbLine
10
7.087734
20
8
30
0
11
6.159138
21
8
31
0
39
0
210
0
220
0
230
1
0
LINE
5
5E
100
AcDbEntity
8
SK1
62
256
6
ByLayer
370
-1
48
1
60
0
100
AcDbLine
10
-1.49
20
-1.955
30
0
11
-1.49
21
1.955
31
0
39
0
210
0
220
0
230
1
0
LINE
5
5F
100
AcDbEntity
8
SK1
62
256
6
ByLayer
370
-1
48
1
60
0
100
AcDbLine
10
-1.99
20
-1.821025
30
0
11
-1.99
21
1.821025
31
0
39
0
210
0
220
0
230
1
0
LINE
5
60
100
AcDbEntity
8
SK1
62
256
6
ByLayer
370
-1
48
1
60
0
100
AcDbLine
10
-0.221234
20
-7.141428
30
0
11
-0.221234
21
7.141428
31
0
39
0
210
0
220
0
230
1
0
LINE
5
61
100
AcDbEntity
8
SK1
62
256
6
ByLayer
370
-1
48
1
60
0
100
AcDbLine
10
0
20
7.365924
30
0
11
0
21
-7.365924
31
0
39
0
210
0
220
0
230
1
0
LINE
5
62
100
AcDbEntity
8
1
62
256
6
ByLayer
370
-1
48
1
60
0
100
AcDbLine
10
5.826444
20
1.543999
30
0
11
5.565774
21
-1.43371
31
0
39
0
210
0
220
0
230
1
0
LINE
5
63
100
AcDbEntity
8
1
62
256
6
ByLayer
370
-1
48
1
60
0
100
AcDbLine
10
7.599704
20
7.998944
30
0
11
6.490247
21
-4.674722
31
0
39
0
210
0
220
0
230
1
0
LINE
5
64
100
AcDbEntity
8
1
62
256
6
ByLayer
370
-1
48
1
60
0
100
AcDbLine
10
5.217329
20
-5.414101
30
0
11
5.005377
21
-7.835303
31
0
39
0
210
0
220
0
230
1
0
LINE
5
65
100
AcDbEntity
8
1
62
256
6
ByLayer
370
-1
48
1
60
0
100
AcDbLine
10
8.314294
20
7.998944
30
0
11
7.599704
21
7.998944
31
0
39
0
210
0
220
0
230
1
0
LINE
5
66
100
AcDbEntity
8
1
62
256
6
ByLayer
370
-1
48
1
60
0
100
AcDbLine
10
12.949321
20
6.440495
30
0
11
13.272687
21
9.95869
31
0
39
0
210
0
220
0
230
1
0
LINE
5
67
100
AcDbEntity
8
1
62
256
6
ByLayer
370
-1
48
1
60
0
100
AcDbLine
10
12.500172
20
5.370074
30
0
11
12.55874
21
4.708192
31
0
39
0
210
0
220
0
230
1
0
LINE
5
68
100
AcDbEntity
8
1
62
256
6
ByLayer
370
-1
48
1
60
0
100
AcDbLine
10
18.987227
20
4.160802
30
0
11
14.360476
21
3.760129
31
0
39
0
210
0
220
0
230
1
0
LINE
5
69
100
AcDbEntity
8
1
62
256
6
ByLayer
370
-1
48
1
60
0
100
AcDbLine
10
5.126252
20
-7.63106
30
0
11
5.080352
21
-7.614665
31
0
39
0
210
0
220
0
230
1
0
LINE
5
6A
100
AcDbEntity
8
1
62
256
6
ByLayer
370
-1
48
1
60
0
100
AcDbLine
10
12.920377
20
-1.434284
30
0
11
15.107295
21
-1.434284
31
0
39
0
210
0
220
0
230
1
0
LINE
5
6B
100
AcDbEntity
8
1
62
256
6
ByLayer
370
-1
48
1
60
0
100
AcDbLine
10
19.015086
20
4.479225
30
0
11
18.987227
21
4.160803
31
0
39
0
210
0
220
0
230
1
0
LINE
5
6C
100
AcDbEntity
8
1
62
256
6
ByLayer
370
-1
48
1
60
0
100
AcDbLine
10
18.987227
20
4.160802
30
0
11
18.793216
21
1.94324
31
0
39
0
210
0
220
0
230
1
0
LINE
5
6D
100
AcDbEntity
8
1
62
256
6
ByLayer
370
-1
48
1
60
0
100
AcDbLine
10
0.528766
20
-7.90174
30
0
11
0.528766
21
7.90174
31
0
39
0
210
0
220
0
230
1
0
LINE
5
6E
100
AcDbEntity
8
1
62
256
6
ByLayer
370
-1
48
1
60
0
100
AcDbLine
10
6.385274
20
7.927695
30
0
11
6.131379
21
5.027366
31
0
39
0
210
0
220
0
230
1
0
LINE
5
6F
100
AcDbEntity
8
1
62
256
6
ByLayer
370
-1
48
1
60
0
100
AcDbLine
10
6.159138
20
8
30
0
11
5.884049
21
7.90174
31
0
39
0
210
0
220
0
230
1
0
LINE
5
70
100
AcDbEntity
8
1
62
256
6
ByLayer
370
-1
48
1
60
0
100
AcDbLine
10
0.528766
20
-7.90174
30
0
11
5.058384
21
-7.90174
31
0
39
0
210
0
220
0
230
1
0
LINE
5
71
100
AcDbEntity
8
1
62
256
6
ByLayer
370
-1
48
1
60
0
100
AcDbLine
10
5.884049
20
7.90174
30
0
11
0.528766
21
7.90174
31
0
39
0
210
0
220
0
230
1
0
LINE
5
72
100
AcDbEntity
8
1
62
256
6
ByLayer
370
-1
48
1
60
0
100
AcDbLine
10
0
20
7.365924
30
0
11
0
21
-7.365924
31
0
39
0
210
0
220
0
230
1
0
LINE
5
73
100
AcDbEntity
8
1
62
256
6
ByLayer
370
-1
48
1
60
0
100
AcDbLine
10
5.068542
20
-7.90174
30
0
11
5.058327
21
-7.90174
31
0
39
0
210
0
220
0
230
1
0
LINE
5
74
100
AcDbEntity
8
1
62
256
6
ByLayer
370
-1
48
1
60
0
100
AcDbLine
10
15.740001
20
7.390889
30
0
11
15.644987
21
7.431306
31
0
39
0
210
0
220
0
230
1
0
LINE
5
75
100
AcDbEntity
8
1
62
256
6
ByLayer
370
-1
48
1
60
0
100
AcDbLine
10
16.204025
20
6.589999
30
0
11
16.109183
21
6.630343
31
0
39
0
210
0
220
0
230
1
0
LINE
5
76
100
AcDbEntity
8
1
62
256
6
ByLayer
370
-1
48
1
60
0
100
AcDbLine
10
16.204202
20
6.589897
30
0
11
16.10936
21
6.630241
31
0
39
0
210
0
220
0
230
1
0
LINE
5
77
100
AcDbEntity
8
1
62
256
6
ByLayer
370
-1
48
1
60
0
100
AcDbLine
10
17.079812
20
6.607237
30
0
11
17.035947
21
6.625896
31
0
39
0
210
0
220
0
230
1
0
LINE
5
78
100
AcDbEntity
8
1
62
256
6
ByLayer
370
-1
48
1
60
0
100
AcDbLine
10
17.467977
20
7.862697
30
0
11
17.372964
21
7.903115
31
0
39
0
210
0
220
0
230
1
0
LINE
5
79
100
AcDbEntity
8
1
62
256
6
ByLayer
370
-1
48
1
60
0
100
AcDbLine
10
16.666411
20
8.321419
30
0
11
16.571569
21
8.361763
31
0
39
0
210
0
220
0
230
1
0
LINE
5
7A
100
AcDbEntity
8
1
62
256
6
ByLayer
370
-1
48
1
60
0
100
AcDbLine
10
16.666207
20
8.321418
30
0
11
16.571365
21
8.361762
31
0
39
0
210
0
220
0
230
1
0
LINE
5
7B
100
AcDbEntity
8
1
62
256
6
ByLayer
370
-1
48
1
60
0
100
AcDbLine
10
16.112739
20
8.232971
30
0
11
16.108361
21
8.234833
31
0
39
0
210
0
220
0
230
1
0
LINE
5
7C
100
AcDbEntity
8
1
62
256
6
ByLayer
370
-1
48
1
60
0
100
AcDbLine
10
15.858476
20
7.858967
30
0
11
15.763089
21
7.899543
31
0
39
0
210
0
220
0
230
1
0
LINE
5
7D
100
AcDbEntity
8
1
62
256
6
ByLayer
370
-1
48
1
60
0
100
AcDbLine
10
13.979014
20
10.384755
30
0
11
19.570903
21
10.898351
31
0
39
0
210
0
220
0
230
1
0
LINE
5
7E
100
AcDbEntity
8
1
62
256
6
ByLayer
370
-1
48
1
60
0
100
AcDbLine
10
12.55874
20
4.708192
30
0
11
12.846811
21
4.58565
31
0
39
0
210
0
220
0
230
1
0
LINE
5
7F
100
AcDbEntity
8
1
62
256
6
ByLayer
370
-1
48
1
60
0
100
AcDbLine
10
12.500172
20
5.370074
30
0
11
12.789434
21
5.247026
31
0
39
0
210
0
220
0
230
1
0
LINE
5
80
100
AcDbEntity
8
1
62
256
6
ByLayer
370
-1
48
1
60
0
100
AcDbLine
10
13.017574
20
6.411461
30
0
11
12.949321
21
6.440495
31
0
39
0
210
0
220
0
230
1
0
LINE
5
81
100
AcDbEntity
8
1
62
256
6
ByLayer
370
-1
48
1
60
0
100
AcDbLine
10
12.846811
20
4.58565
30
0
11
12.789434
21
5.247026
31
0
39
0
210
0
220
0
230
1
0
LINE
5
82
100
AcDbEntity
8
1
62
256
6
ByLayer
370
-1
48
1
60
0
100
AcDbLine
10
13.340532
20
9.927014
30
0
11
13.017574
21
6.411461
31
0
39
0
210
0
220
0
230
1
0
LINE
5
83
100
AcDbEntity
8
2
62
256
6
ByLayer
370
-1
48
1
60
1
100
AcDbLine
10
20
20
0
30
0
11
20.001
21
0.001
31
0
39
0
210
0
220
0
230
1
0
MTEXT
5
D8
100
AcDbEntity
8
SK6
62
256
6
ByLayer
370
-1
48
1
60
0
100
AcDbMText
10
10.875
20
-19.886838
30
0
210
0
220
0
230
1
1
\W00.718;\fsimplex.shx,bigfont.shx;570-SCLPR-16-06 
40
3.5
41
0
44
1.084337
50
0
71
7
72
5
7
DEFAULT
0
DIMENSION
5
10C
100
AcDbEntity
8
SK2
62
256
6
ByLayer
370
-3
48
1
60
0
100
AcDbDimension
2
DimnDraft3D1
10
-9.75
20
8
30
0
11
-9.75
21
-4.221711
31
0
70
32
71
5
72
1
41
1
210
0
220
0
230
1
3
Standard
100
AcDbAlignedDimension
13
-2
23
-8
33
0
14
-2
24
8
34
0
50
90
100
AcDbRotatedDimension
1001
ACAD
1000
DSTYLE
1002
{
1070
    74
1070
     0
1070
   279
1070
     0
1070
   172
1070
     1
1070
   173
1070
     1
1070
   340
1005
D9
1070
    77
1070
     1
1070
    73
1070
     0
1070
   171
1070
     4
1070
   274
1070
     4
1070
   177
1070
     2
1070
   176
1070
     2
1070
   178
1070
     7
1070
    78
1070
     8
1070
    41
1041
3.175
1070
   147
1041
2.25
1070
    42
1041
2.0
1070
    44
1041
2.0
1070
   140
1041
4.5
1070
   343
1005
10D
1070
   344
1005
10D
1002
}
0
DIMENSION
5
121
100
AcDbEntity
8
2
62
256
6
ByLayer
370
-3
48
1
60
0
100
AcDbDimension
2
DimnDraft3D2
10
32.25
20
0
30
0
11
32.25
21
21.155
31
0
70
32
71
5
72
1
41
1
210
0
220
0
230
1
3
Standard
100
AcDbAlignedDimension
13
22
23
10.9
33
0
14
22
24
0
34
0
50
90
100
AcDbRotatedDimension
1001
ACAD
1000
DSTYLE
1002
{
1070
    74
1070
     0
1070
   279
1070
     0
1070
   172
1070
     1
1070
   173
1070
     1
1070
   340
1005
D9
1070
    77
1070
     1
1070
    73
1070
     0
1070
   171
1070
     4
1070
   274
1070
     4
1070
   177
1070
     2
1070
   176
1070
     2
1070
   178
1070
     7
1070
    78
1070
     8
1070
    41
1041
3.175
1070
   147
1041
2.25
1070
    42
1041
2.0
1070
    44
1041
2.0
1070
   140
1041
4.5
1070
   343
1005
10D
1070
   344
1005
10D
1002
}
0
DIMENSION
5
12F
100
AcDbEntity
8
2
62
256
6
ByLayer
370
-3
48
1
60
0
100
AcDbDimension
2
DimnDraft3D3
10
20
20
23.65
30
0
11
4.836842
21
23.65
31
0
70
32
71
5
72
1
41
1
210
0
220
0
230
1
3
Standard
100
AcDbAlignedDimension
13
0
23
10
33
0
14
20
24
12.9
34
0
50
0
100
AcDbRotatedDimension
1001
ACAD
1000
DSTYLE
1002
{
1070
   279
1070
     0
1070
   172
1070
     1
1070
   173
1070
     1
1070
   340
1005
D9
1070
    77
1070
     1
1070
    73
1070
     0
1070
   171
1070
     4
1070
   274
1070
     4
1070
   177
1070
     2
1070
   176
1070
     2
1070
   178
1070
     7
1070
    78
1070
     8
1070
    41
1041
3.175
1070
   147
1041
2.25
1070
    42
1041
2.0
1070
    44
1041
2.0
1070
   140
1041
4.5
1070
   343
1005
10D
1070
   344
1005
10D
1002
}
0
DIMENSION
5
13D
100
AcDbEntity
8
2
62
256
6
ByLayer
370
-3
48
1
60
0
100
AcDbDimension
2
DimnDraft3D4
10
67.97278
20
0
30
0
11
44.532084
21
-37.243123
31
0
70
34
71
5
72
1
41
1
210
0
220
0
230
1
3
Standard
100
AcDb2LineAngularDimension
13
19.302754
23
2.930442
33
0
14
14.782156
24
-48.740227
34
0
15
22
25
0
35
0
16
47.709239
26
-31.280028
36
0
40
0
0
ENDSEC
0
SECTION
2
OBJECTS
0
DICTIONARY
5
16e
330
0
100
AcDbDictionary
280
0
281
1
3
ACAD_GROUP
350
16f
3
ACAD_MLINESTYLE
350
170
0
DICTIONARY
5
16f
330
0
100
AcDbDictionary
280
0
281
1
0
DICTIONARY
5
170
330
0
100
AcDbDictionary
280
0
281
1
3
Standard
350
18
0
MLINESTYLE
5
18
330
170
100
AcDbMlineStyle
2
Standard
70
0
3

62
256
51
90
52
90
71
2
49
-0.5
62
256
6
ByLayer
49
0.5
62
256
6
ByLayer
0
RASTERVARIABLES
5
15c
330

100
AcDbRasterVariables
90
0
70
1
71
1
72
1
0
ENDSEC
0
EOF
