0
SECTION
2
HEADER
9
$ACADVER
1
AC1015
9
$DWGCODEPAGE
3
ANSI_1252
9
$HANDSEED
5
183
9
$ANGBASE
50
0
9
$ANGDIR
70
0
9
$ATTMODE
70
1
9
$AUNITS
70
0
9
$AUPREC
70
0
9
$CECOLOR
62
256
9
$CELTSCALE
40
1
9
$CELTYPE
6
ByLayer
9
$CELWEIGHT
370
-1
9
$CLAYER
8
0
9
$CMLJUST
70
0
9
$CMLSCALE
40
1
9
$CMLSTYLE
2
Standard
9
$DIMSTYLE
2
Standard
9
$TEXTSIZE
40
0.2
9
$TEXTSTYLE
7
Standard
9
$LUNITS
70
2
9
$LUPREC
70
4
9
$EXTNAMES
290
1
9
$INSUNITS
70
4
9
$LTSCALE
40
1
9
$LWDISPLAY
290
0
9
$PDMODE
70
0
9
$PDSIZE
40
0
9
$PLINEGEN
70
0
0
ENDSEC
0
SECTION
2
CLASSES
0
CLASS
1
RASTERVARIABLES
2
AcDbRasterVariables
3
ISM
90
0
280
0
281
0
0
ENDSEC
0
SECTION
2
TABLES
0
TABLE
2
VPORT
5
179
100
AcDbSymbolTable
0
VPORT
5
1
100
AcDbSymbolTableRecord
100
AcDbViewportTableRecord
2
*Active
70
0
10
0
20
0
11
1
21
1
12
-1
22
1
13
0
23
0
14
0.5
24
0.5
15
10
25
10
16
0
26
0
36
1
17
0
27
0
37
0
0
ENDTAB
0
TABLE
2
LTYPE
5
17a
100
AcDbSymbolTable
0
LTYPE
5
14
100
AcDbSymbolTableRecord
100
AcDbLinetypeTableRecord
70
0
2
ByBlock
3

72
65
73
0
40
0
0
LTYPE
5
15
100
AcDbSymbolTableRecord
100
AcDbLinetypeTableRecord
70
0
2
ByLayer
3

72
65
73
0
40
0
0
LTYPE
5
16
100
AcDbSymbolTableRecord
100
AcDbLinetypeTableRecord
70
0
2
CONTINUOUS
3
Solid line
72
65
73
0
40
0
0
LTYPE
5
3B
100
AcDbSymbolTableRecord
100
AcDbLinetypeTableRecord
70
0
2
DASHED
3
__ __ __ __ __ __ __ __ __
72
65
73
2
40
25.72
49
12.86
74
0
49
-12.86
74
0
0
LTYPE
5
3C
100
AcDbSymbolTableRecord
100
AcDbLinetypeTableRecord
70
0
2
HIDDEN
3
_ _ _ _ _ _ _ _ _ _ _ _ _ _ _
72
65
73
2
40
0.5
49
0.25
74
0
49
-0.25
74
0
0
LTYPE
5
3D
100
AcDbSymbolTableRecord
100
AcDbLinetypeTableRecord
70
0
2
PHANTOM
3
____ _ _ ____ _ _ _____ _ _ ____
72
65
73
6
40
50.5
49
18
74
0
49
-6.5
74
0
49
6.5
74
0
49
-6.5
74
0
49
6.5
74
0
49
-6.5
74
0
0
LTYPE
5
3E
100
AcDbSymbolTableRecord
100
AcDbLinetypeTableRecord
70
0
2
CENTER
3
____ _ ____ _ ____ _ ____
72
65
73
4
40
47.5
49
22
74
0
49
-8.5
74
0
49
8.5
74
0
49
-8.5
74
0
0
LTYPE
5
3F
100
AcDbSymbolTableRecord
100
AcDbLinetypeTableRecord
70
0
2
DOT
3
.........................
72
65
73
2
40
10
49
0
74
0
49
-10
74
0
0
LTYPE
5
40
100
AcDbSymbolTableRecord
100
AcDbLinetypeTableRecord
70
0
2
DASHDOT
3
_._._._._._._._._._._._._._._._.
72
65
73
4
40
70
49
31
74
0
49
-13
74
0
49
13
74
0
49
-13
74
0
0
ENDTAB
0
TABLE
2
LAYER
5
17b
100
AcDbSymbolTable
0
LAYER
5
10
100
AcDbSymbolTableRecord
100
AcDbLayerTableRecord
2
0
70
0
62
7
6
CONTINUOUS
290
1
370
-3
390
0
0
LAYER
5
42
100
AcDbSymbolTableRecord
100
AcDbLayerTableRecord
2
80
70
0
62
-6
6
CONTINUOUS
290
1
370
-3
390
0
0
LAYER
5
44
100
AcDbSymbolTableRecord
100
AcDbLayerTableRecord
2
81
70
0
62
-3
6
CONTINUOUS
290
1
370
-3
390
0
0
LAYER
5
46
100
AcDbSymbolTableRecord
100
AcDbLayerTableRecord
2
1
70
0
62
4
6
CONTINUOUS
290
1
370
-3
390
0
0
LAYER
5
48
100
AcDbSymbolTableRecord
100
AcDbLayerTableRecord
2
2
70
0
62
7
6
CONTINUOUS
290
1
370
-3
390
0
0
LAYER
5
5F
100
AcDbSymbolTableRecord
100
AcDbLayerTableRecord
2
4
70
0
62
-2
6
CENTER
290
1
370
-3
390
0
0
LAYER
5
165
100
AcDbSymbolTableRecord
100
AcDbLayerTableRecord
2
SK1
70
0
62
4
6
CONTINUOUS
290
1
370
-3
390
0
0
LAYER
5
166
100
AcDbSymbolTableRecord
100
AcDbLayerTableRecord
2
SK4
70
0
62
2
6
CENTER
290
1
370
-3
390
0
0
LAYER
5
167
100
AcDbSymbolTableRecord
100
AcDbLayerTableRecord
2
SK6
70
0
62
5
6
CONTINUOUS
290
1
370
-3
390
0
0
LAYER
5
168
100
AcDbSymbolTableRecord
100
AcDbLayerTableRecord
2
SK2
70
0
62
7
6
CONTINUOUS
290
1
370
-3
390
0
0
ENDTAB
0
TABLE
2
STYLE
5
17c
100
AcDbSymbolTable
0
STYLE
5
11
100
AcDbSymbolTableRecord
100
AcDbTextStyleTableRecord
2
Standard
3
txt
70
0
71
0
40
0
41
1
42
0
50
0
0
STYLE
5
E1
100
AcDbSymbolTableRecord
100
AcDbTextStyleTableRecord
2
DEFAULT
3
simplex.shx
70
0
71
0
40
0
41
1
42
0
50
0
0
STYLE
5
104
100
AcDbSymbolTableRecord
100
AcDbTextStyleTableRecord
2
DWGDirectTextStyle
3
SIMPLEX
70
0
71
0
40
0
41
1
42
0
50
0
0
ENDTAB
0
TABLE
2
DIMSTYLE
5
17d
100
AcDbSymbolTable
100
AcDbDimStyleTable
0
DIMSTYLE
105
27
100
AcDbSymbolTableRecord
100
AcDbDimStyleTableRecord
2
Standard
70
0
3
<>
41
0.18
42
0.0625
44
0.18
140
0.18
147
0.09
73
0
74
0
77
1
271
2
275
0
278
52
280
0
340
11
0
ENDTAB
0
TABLE
2
VIEW
5
17e
100
AcDbSymbolTable
0
ENDTAB
0
TABLE
2
UCS
5
17f
100
AcDbSymbolTable
0
ENDTAB
0
TABLE
2
APPID
5
180
100
AcDbSymbolTable
0
APPID
5
12
100
AcDbSymbolTableRecord
100
AcDbRegAppTableRecord
2
ACAD
70
0
0
ENDTAB
0
TABLE
2
BLOCK_RECORD
5
181
100
AcDbSymbolTable
0
BLOCK_RECORD
5
1F
100
AcDbSymbolTableRecord
100
AcDbBlockTableRecord
2
*Model_Space
340
0
70
0
0
BLOCK_RECORD
5
1B
100
AcDbSymbolTableRecord
100
AcDbBlockTableRecord
2
*Paper_Space
340
0
70
0
0
BLOCK_RECORD
5
23
100
AcDbSymbolTableRecord
100
AcDbBlockTableRecord
2
*Paper_Space0
340
0
70
0
0
BLOCK_RECORD
5
106
100
AcDbSymbolTableRecord
100
AcDbBlockTableRecord
2
DimnDraft3D1
340
0
70
0
0
BLOCK_RECORD
5
115
100
AcDbSymbolTableRecord
100
AcDbBlockTableRecord
2
_CLOSED
340
0
70
0
0
BLOCK_RECORD
5
11C
100
AcDbSymbolTableRecord
100
AcDbBlockTableRecord
2
DimnDraft3D2
340
0
70
0
0
BLOCK_RECORD
5
12A
100
AcDbSymbolTableRecord
100
AcDbBlockTableRecord
2
DimnDraft3D3
340
0
70
0
0
BLOCK_RECORD
5
138
100
AcDbSymbolTableRecord
100
AcDbBlockTableRecord
2
DimnDraft3D4
340
0
70
0
0
ENDTAB
0
ENDSEC
0
SECTION
2
BLOCKS
0
BLOCK
5
20
100
AcDbEntity
8
0
100
AcDbBlockBegin
2
*Model_Space
70
0
10
0
20
0
30
0
3
*Model_Space
0
ENDBLK
5
21
100
AcDbEntity
8
0
100
AcDbBlockEnd
0
BLOCK
5
1C
100
AcDbEntity
8
0
100
AcDbBlockBegin
2
*Paper_Space
70
0
10
0
20
0
30
0
3
*Paper_Space
0
ENDBLK
5
1D
100
AcDbEntity
8
0
100
AcDbBlockEnd
0
BLOCK
5
24
100
AcDbEntity
8
0
100
AcDbBlockBegin
2
*Paper_Space0
70
0
10
0
20
0
30
0
3
*Paper_Space0
0
ENDBLK
5
25
100
AcDbEntity
8
0
100
AcDbBlockEnd
0
BLOCK
5
112
100
AcDbEntity
8
0
100
AcDbBlockBegin
2
DimnDraft3D1
70
0
10
0
20
0
30
0
3
DimnDraft3D1
0
MTEXT
5
107
100
AcDbEntity
8
SK2
62
256
6
ByLayer
370
-1
48
1
60
0
100
AcDbMText
10
-10.875
20
-3.659211
30
0
210
0
220
0
230
1
1
\W01.000;\fsimplex.shx,bigfont.shx;%%c20 
40
4.5
41
0
44
1.084337
50
90
71
7
72
5
7
DEFAULT
0
LINE
5
109
100
AcDbEntity
8
SK2
62
256
6
ByLayer
370
-1
48
1
60
0
100
AcDbLine
10
-2
20
-10
30
0
11
-11.75
21
-10
31
0
39
0
210
0
220
0
230
1
0
LINE
5
10A
100
AcDbEntity
8
SK2
62
256
6
ByLayer
370
-1
48
1
60
0
100
AcDbLine
10
-2
20
10
30
0
11
-11.75
21
10
31
0
39
0
210
0
220
0
230
1
0
LINE
5
10B
100
AcDbEntity
8
SK2
62
256
6
ByLayer
370
-1
48
1
60
0
100
AcDbLine
10
-9.75
20
-10
30
0
11
-9.75
21
10
31
0
39
0
210
0
220
0
230
1
0
LINE
5
10C
100
AcDbEntity
8
SK2
62
256
6
ByLayer
370
-1
48
1
60
0
100
AcDbLine
10
-9.75
20
-10
30
0
11
-10.167997
21
-6.825002
31
0
39
0
210
0
220
0
230
1
0
LINE
5
10D
100
AcDbEntity
8
SK2
62
256
6
ByLayer
370
-1
48
1
60
0
100
AcDbLine
10
-9.75
20
-10
30
0
11
-9.332003
21
-6.824998
31
0
39
0
210
0
220
0
230
1
0
LINE
5
10E
100
AcDbEntity
8
SK2
62
256
6
ByLayer
370
-1
48
1
60
0
100
AcDbLine
10
-10.167997
20
-6.825002
30
0
11
-9.332003
21
-6.824998
31
0
39
0
210
0
220
0
230
1
0
LINE
5
10F
100
AcDbEntity
8
SK2
62
256
6
ByLayer
370
-1
48
1
60
0
100
AcDbLine
10
-9.75
20
10
30
0
11
-9.332003
21
6.825002
31
0
39
0
210
0
220
0
230
1
0
LINE
5
110
100
AcDbEntity
8
SK2
62
256
6
ByLayer
370
-1
48
1
60
0
100
AcDbLine
10
-9.75
20
10
30
0
11
-10.167997
21
6.824998
31
0
39
0
210
0
220
0
230
1
0
LINE
5
111
100
AcDbEntity
8
SK2
62
256
6
ByLayer
370
-1
48
1
60
0
100
AcDbLine
10
-9.332003
20
6.825002
30
0
11
-10.167997
21
6.824998
31
0
39
0
210
0
220
0
230
1
0
ENDBLK
5
113
100
AcDbEntity
8
0
100
AcDbBlockEnd
0
BLOCK
5
116
100
AcDbEntity
8
0
100
AcDbBlockBegin
2
_CLOSED
70
0
10
0
20
0
30
0
3
_CLOSED
0
LINE
5
118
100
AcDbEntity
8
0
62
256
6
ByLayer
370
-2
48
1
60
0
100
AcDbLine
10
-1
20
0.166667
30
0
11
0
21
0
31
0
39
0
210
0
220
0
230
1
0
LINE
5
119
100
AcDbEntity
8
0
62
256
6
ByLayer
370
-2
48
1
60
0
100
AcDbLine
10
0
20
0
30
0
11
-1
21
-0.166667
31
0
39
0
210
0
220
0
230
1
0
LINE
5
11A
100
AcDbEntity
8
0
62
256
6
ByLayer
370
-2
48
1
60
0
100
AcDbLine
10
-1
20
0.166667
30
0
11
-1
21
-0.166667
31
0
39
0
210
0
220
0
230
1
0
LINE
5
11B
100
AcDbEntity
8
0
62
256
6
ByLayer
370
-2
48
1
60
0
100
AcDbLine
10
0
20
0
30
0
11
-1
21
0
31
0
39
0
210
0
220
0
230
1
0
ENDBLK
5
117
100
AcDbEntity
8
0
100
AcDbBlockEnd
0
BLOCK
5
127
100
AcDbEntity
8
0
100
AcDbBlockBegin
2
DimnDraft3D2
70
0
10
0
20
0
30
0
3
DimnDraft3D2
0
MTEXT
5
11D
100
AcDbEntity
8
2
62
256
6
ByLayer
370
-1
48
1
60
0
100
AcDbMText
10
31.125
20
24.28
30
0
210
0
220
0
230
1
1
\W01.000;\fsimplex.shx,bigfont.shx;13.0 
40
4.5
41
0
44
1.084337
50
90
71
7
72
5
7
DEFAULT
0
LINE
5
11E
100
AcDbEntity
8
2
62
256
6
ByLayer
370
-1
48
1
60
0
100
AcDbLine
10
22
20
12.9
30
0
11
34.25
21
12.9
31
0
39
0
210
0
220
0
230
1
0
LINE
5
11F
100
AcDbEntity
8
2
62
256
6
ByLayer
370
-1
48
1
60
0
100
AcDbLine
10
22
20
0
30
0
11
34.25
21
0
31
0
39
0
210
0
220
0
230
1
0
LINE
5
120
100
AcDbEntity
8
2
62
256
6
ByLayer
370
-1
48
1
60
0
100
AcDbLine
10
32.25
20
0
30
0
11
32.25
21
32.356316
31
0
39
0
210
0
220
0
230
1
0
LINE
5
121
100
AcDbEntity
8
2
62
256
6
ByLayer
370
-1
48
1
60
0
100
AcDbLine
10
32.25
20
12.9
30
0
11
32.667997
21
9.725002
31
0
39
0
210
0
220
0
230
1
0
LINE
5
122
100
AcDbEntity
8
2
62
256
6
ByLayer
370
-1
48
1
60
0
100
AcDbLine
10
32.25
20
12.9
30
0
11
31.832003
21
9.724998
31
0
39
0
210
0
220
0
230
1
0
LINE
5
123
100
AcDbEntity
8
2
62
256
6
ByLayer
370
-1
48
1
60
0
100
AcDbLine
10
32.667997
20
9.725002
30
0
11
31.832003
21
9.724998
31
0
39
0
210
0
220
0
230
1
0
LINE
5
124
100
AcDbEntity
8
2
62
256
6
ByLayer
370
-1
48
1
60
0
100
AcDbLine
10
32.25
20
0
30
0
11
31.832003
21
3.174998
31
0
39
0
210
0
220
0
230
1
0
LINE
5
125
100
AcDbEntity
8
2
62
256
6
ByLayer
370
-1
48
1
60
0
100
AcDbLine
10
32.25
20
0
30
0
11
32.667997
21
3.175002
31
0
39
0
210
0
220
0
230
1
0
LINE
5
126
100
AcDbEntity
8
2
62
256
6
ByLayer
370
-1
48
1
60
0
100
AcDbLine
10
31.832003
20
3.174998
30
0
11
32.667997
21
3.175002
31
0
39
0
210
0
220
0
230
1
0
ENDBLK
5
128
100
AcDbEntity
8
0
100
AcDbBlockEnd
0
BLOCK
5
135
100
AcDbEntity
8
0
100
AcDbBlockBegin
2
DimnDraft3D3
70
0
10
0
20
0
30
0
3
DimnDraft3D3
0
MTEXT
5
12B
100
AcDbEntity
8
2
62
256
6
ByLayer
370
-1
48
1
60
0
100
AcDbMText
10
5.961842
20
26.775
30
0
210
0
220
0
230
1
1
\W01.000;\fsimplex.shx,bigfont.shx;20.0 
40
4.5
41
0
44
1.084337
50
0
71
7
72
5
7
DEFAULT
0
LINE
5
12C
100
AcDbEntity
8
2
62
256
6
ByLayer
370
-1
48
1
60
0
100
AcDbLine
10
0
20
12
30
0
11
0
21
27.65
31
0
39
0
210
0
220
0
230
1
0
LINE
5
12D
100
AcDbEntity
8
2
62
256
6
ByLayer
370
-1
48
1
60
0
100
AcDbLine
10
20
20
14.9
30
0
11
20
21
27.65
31
0
39
0
210
0
220
0
230
1
0
LINE
5
12E
100
AcDbEntity
8
2
62
256
6
ByLayer
370
-1
48
1
60
0
100
AcDbLine
10
-11.25
20
25.65
30
0
11
31.25
21
25.65
31
0
39
0
210
0
220
0
230
1
0
LINE
5
12F
100
AcDbEntity
8
2
62
256
6
ByLayer
370
-1
48
1
60
0
100
AcDbLine
10
0
20
25.65
30
0
11
-3.174998
21
25.232003
31
0
39
0
210
0
220
0
230
1
0
LINE
5
130
100
AcDbEntity
8
2
62
256
6
ByLayer
370
-1
48
1
60
0
100
AcDbLine
10
0
20
25.65
30
0
11
-3.175002
21
26.067997
31
0
39
0
210
0
220
0
230
1
0
LINE
5
131
100
AcDbEntity
8
2
62
256
6
ByLayer
370
-1
48
1
60
0
100
AcDbLine
10
-3.174998
20
25.232003
30
0
11
-3.175002
21
26.067997
31
0
39
0
210
0
220
0
230
1
0
LINE
5
132
100
AcDbEntity
8
2
62
256
6
ByLayer
370
-1
48
1
60
0
100
AcDbLine
10
20
20
25.65
30
0
11
23.174998
21
26.067997
31
0
39
0
210
0
220
0
230
1
0
LINE
5
133
100
AcDbEntity
8
2
62
256
6
ByLayer
370
-1
48
1
60
0
100
AcDbLine
10
20
20
25.65
30
0
11
23.175002
21
25.232003
31
0
39
0
210
0
220
0
230
1
0
LINE
5
134
100
AcDbEntity
8
2
62
256
6
ByLayer
370
-1
48
1
60
0
100
AcDbLine
10
23.174998
20
26.067997
30
0
11
23.175002
21
25.232003
31
0
39
0
210
0
220
0
230
1
0
ENDBLK
5
136
100
AcDbEntity
8
0
100
AcDbBlockEnd
0
BLOCK
5
143
100
AcDbEntity
8
0
100
AcDbBlockBegin
2
DimnDraft3D4
70
0
10
0
20
0
30
0
3
DimnDraft3D4
0
MTEXT
5
139
100
AcDbEntity
8
2
62
256
6
ByLayer
370
-1
48
1
60
0
100
AcDbMText
10
45.946583
20
-37.312521
30
0
210
0
220
0
230
1
1
\W01.000;\fsimplex.shx,bigfont.shx;95%%d0' 
40
4.5
41
0
44
1.084337
50
42.4999999999999
71
7
72
5
7
DEFAULT
0
LINE
5
13A
100
AcDbEntity
8
2
62
256
6
ByLayer
370
-1
48
1
60
0
100
AcDbLine
10
19.041287
20
1.941858
30
0
11
14.607179
21
-48.740227
31
0
39
0
210
0
220
0
230
1
0
LINE
5
13B
100
AcDbEntity
8
2
62
256
6
ByLayer
370
-1
48
1
60
0
100
AcDbLine
10
22
20
0
30
0
11
67.797803
21
0
31
0
39
0
210
0
220
0
230
1
0
ARC
5
13C
100
AcDbEntity
8
2
62
256
6
ByLayer
370
-1
48
1
60
0
100
AcDbCircle
39
0
10
18.871396
20
0
30
0
40
46.9264068782929
210
0
220
0
230
1
100
AcDbArc
50
265
51
0
0
LINE
5
13D
100
AcDbEntity
8
2
62
256
6
ByLayer
370
-1
48
1
60
0
100
AcDbLine
10
14.78149
20
-46.747838
30
0
11
17.978019
21
-46.554078
31
0
39
0
210
0
220
0
230
1
0
LINE
5
13E
100
AcDbEntity
8
2
62
256
6
ByLayer
370
-1
48
1
60
0
100
AcDbLine
10
14.78149
20
-46.747838
30
0
11
17.919251
21
-47.388003
31
0
39
0
210
0
220
0
230
1
0
LINE
5
13F
100
AcDbEntity
8
2
62
256
6
ByLayer
370
-1
48
1
60
0
100
AcDbLine
10
17.978019
20
-46.554078
30
0
11
17.919251
21
-47.388003
31
0
39
0
210
0
220
0
230
1
0
LINE
5
140
100
AcDbEntity
8
2
62
256
6
ByLayer
370
-1
48
1
60
0
100
AcDbLine
10
65.797803
20
0
30
0
11
66.162059
21
-3.181612
31
0
39
0
210
0
220
0
230
1
0
LINE
5
141
100
AcDbEntity
8
2
62
256
6
ByLayer
370
-1
48
1
60
0
100
AcDbLine
10
65.797803
20
0
30
0
11
65.326185
21
-3.16748
31
0
39
0
210
0
220
0
230
1
0
LINE
5
142
100
AcDbEntity
8
2
62
256
6
ByLayer
370
-1
48
1
60
0
100
AcDbLine
10
66.162059
20
-3.181612
30
0
11
65.326185
21
-3.16748
31
0
39
0
210
0
220
0
230
1
0
ENDBLK
5
144
100
AcDbEntity
8
0
100
AcDbBlockEnd
0
ENDSEC
0
SECTION
2
ENTITIES
0
ARC
5
84
100
AcDbEntity
8
1
62
256
6
ByLayer
370
-1
48
1
60
0
100
AcDbCircle
39
0
10
-14.55107
20
-0.101678
30
0
40
3.99999999999975
210
0
220
0
230
-1
100
AcDbArc
50
185
51
233.441481
0
ARC
5
85
100
AcDbEntity
8
1
62
256
6
ByLayer
370
-1
48
1
60
0
100
AcDbCircle
39
0
10
-12.768999
20
-12.101678
30
0
40
7.9999999975024
210
0
220
0
230
-1
100
AcDbArc
50
36.442802
51
42.201793
0
ELLIPSE
5
86
100
AcDbEntity
8
1
62
256
6
ByLayer
370
-1
48
1
60
0
100
AcDbEllipse
10
-189.714204
20
-4.597854
30
0
11
247.151080171596
21
-0.414642642814677
31
0
210
0
220
0
230
-1
40
0.012015
41
0.651289359235057
42
0.654481634991969
0
ELLIPSE
5
87
100
AcDbEntity
8
1
62
256
6
ByLayer
370
-1
48
1
60
0
100
AcDbEllipse
10
-189.866956
20
-4.596194
30
0
11
247.307900725973
21
-0.416021158571699
31
0
210
0
220
0
230
-1
40
0.012013
41
-0.653160591145443
42
-0.580486522795822
0
ELLIPSE
5
88
100
AcDbEntity
8
1
62
256
6
ByLayer
370
-1
48
1
60
0
100
AcDbEllipse
10
10.20432
20
2.695561
30
0
11
1.49429204713762
21
-0.130733614121486
31
0
210
0
220
0
230
1
40
0.990268
41
1.97097664835891
42
2.5641969112607
0
ELLIPSE
5
89
100
AcDbEntity
8
1
62
256
6
ByLayer
370
-1
48
1
60
0
100
AcDbEllipse
10
10.196436
20
2.605443
30
0
11
-1.49429204713762
21
0.130733614121483
31
0
210
0
220
0
230
1
40
0.990268
41
-1.17070778522829
42
-0.197992413896917
0
ELLIPSE
5
8A
100
AcDbEntity
8
1
62
256
6
ByLayer
370
-1
48
1
60
0
100
AcDbEllipse
10
10.548956
20
4.325107
30
0
11
1.64356934072492
21
-0.143793685032206
31
0
210
0
220
0
230
1
40
0.990268
41
3.13722933045981
42
-2.8107487832675
0
ELLIPSE
5
8B
100
AcDbEntity
8
1
62
256
6
ByLayer
370
-1
48
1
60
0
100
AcDbEllipse
10
10.532579
20
4.137924
30
0
11
-1.49429204713762
21
0.130733614121483
31
0
210
0
220
0
230
1
40
0.990268
41
-0.0043633231299905
42
0.236828448521983
0
ELLIPSE
5
8C
100
AcDbEntity
8
1
62
256
6
ByLayer
370
-1
48
1
60
0
100
AcDbEllipse
10
10.247382
20
3.187759
30
0
11
1.49429204713762
21
-0.130733614121486
31
0
210
0
220
0
230
1
40
0.990268
41
2.7046491020733
42
-0.187947344650425
0
ELLIPSE
5
8D
100
AcDbEntity
8
1
62
256
6
ByLayer
370
-1
48
1
60
0
100
AcDbEllipse
10
5.482589
20
0
30
0
11
0.495785454232977
21
9.9999996554434
31
0
210
0
220
0
230
-1
40
0.005295
41
0.138065826727125
42
2.72362492949403
0
ELLIPSE
5
8E
100
AcDbEntity
8
1
62
256
6
ByLayer
370
-1
48
1
60
0
100
AcDbEllipse
10
10.554726
20
4.378831
30
0
11
-1.49429204713762
21
0.130733614121483
31
0
210
0
220
0
230
1
40
0.990268
41
-1.01866068616883
42
-0.0043633231299905
0
ELLIPSE
5
8F
100
AcDbEntity
8
1
62
256
6
ByLayer
370
-1
48
1
60
0
100
AcDbEllipse
10
10.571102
20
4.566014
30
0
11
1.64356934072492
21
-0.143793685032206
31
0
210
0
220
0
230
1
40
0.990268
41
2.0678765388415
42
3.13722933045981
0
ELLIPSE
5
90
100
AcDbEntity
8
1
62
256
6
ByLayer
370
-1
48
1
60
0
100
AcDbEllipse
10
10.528041
20
4.073816
30
0
11
-1.49429204713762
21
0.130733614121483
31
0
210
0
220
0
230
1
40
0.990268
41
-1.01866068616883
42
-0.0043633231299887
0
ELLIPSE
5
91
100
AcDbEntity
8
1
62
256
6
ByLayer
370
-1
48
1
60
0
100
AcDbEllipse
10
14.831255
20
7.643126
30
0
11
-2.93926815525667
21
0.257152642647705
31
0
210
0
220
0
230
1
40
0.990268
41
0.088119542574121
42
0.896127018601948
0
ELLIPSE
5
92
100
AcDbEntity
8
1
62
256
6
ByLayer
370
-1
48
1
60
0
100
AcDbEllipse
10
14.831255
20
7.643126
30
0
11
-2.93926815525667
21
0.257152642647705
31
0
210
0
220
0
230
1
40
0.990268
41
2.24544129326731
42
-3.03985233813222E-16
0
ELLIPSE
5
93
100
AcDbEntity
8
1
62
256
6
ByLayer
370
-1
48
1
60
0
100
AcDbEllipse
10
14.831255
20
7.643126
30
0
11
-2.93926815525667
21
0.257152642647705
31
0
210
0
220
0
230
1
40
0.990268
41
0
42
0.0881196676595394
0
ELLIPSE
5
94
100
AcDbEntity
8
1
62
256
6
ByLayer
370
-1
48
1
60
0
100
AcDbEllipse
10
14.833123
20
7.664479
30
0
11
2.99461313765098
21
-0.261994701190256
31
0
210
0
220
0
230
1
40
0.990268
41
-0.501881298767819
42
-2.98367126685462E-16
0
ELLIPSE
5
95
100
AcDbEntity
8
1
62
256
6
ByLayer
370
-1
48
1
60
0
100
AcDbEllipse
10
14.833123
20
7.664479
30
0
11
2.99461313765098
21
-0.261994701190256
31
0
210
0
220
0
230
1
40
0.990268
41
0
42
0.0881196371878875
0
ELLIPSE
5
96
100
AcDbEntity
8
1
62
256
6
ByLayer
370
-1
48
1
60
0
100
AcDbEllipse
10
14.833123
20
7.664479
30
0
11
2.99461313765098
21
-0.261994701190256
31
0
210
0
220
0
230
1
40
0.990268
41
-2.63973511073326
42
-1.48097816171982
0
ELLIPSE
5
97
100
AcDbEntity
8
1
62
256
6
ByLayer
370
-1
48
1
60
0
100
AcDbEllipse
10
14.833123
20
7.664479
30
0
11
2.99461313765098
21
-0.261994701190256
31
0
210
0
220
0
230
1
40
0.990268
41
0.0881197191666915
42
-2.63973511073326
0
ELLIPSE
5
98
100
AcDbEntity
8
1
62
256
6
ByLayer
370
-1
48
1
60
0
100
AcDbEllipse
10
14.825182
20
7.57371
30
0
11
-1.20190890324769
21
0.105153403625046
31
0
210
0
220
0
230
1
40
0.990268
41
-0.629099067385812
42
0.114723629086447
0
ELLIPSE
5
99
100
AcDbEntity
8
1
62
256
6
ByLayer
370
-1
48
1
60
0
100
AcDbEllipse
10
14.839175
20
7.733656
30
0
11
1.20190890324769
21
-0.10515340362505
31
0
210
0
220
0
230
1
40
0.990268
41
2.37442831938013
42
2.51249358620399
0
ELLIPSE
5
9A
100
AcDbEntity
8
1
62
256
6
ByLayer
370
-1
48
1
60
0
100
AcDbEllipse
10
14.842467
20
7.771277
30
0
11
1.67012041135081
21
-0.146116602716449
31
0
210
0
220
0
230
1
40
0.990268
41
2.9698502760717
42
-2.26892802759262
0
ELLIPSE
5
9B
100
AcDbEntity
8
1
62
256
6
ByLayer
370
-1
48
1
60
0
100
AcDbEllipse
10
14.842467
20
7.771277
30
0
11
1.67012041135081
21
-0.146116602716449
31
0
210
0
220
0
230
1
40
0.990268
41
-2.26892802759262
42
-1.22452102407737
0
ELLIPSE
5
9C
100
AcDbEntity
8
1
62
256
6
ByLayer
370
-1
48
1
60
0
100
AcDbEllipse
10
14.825182
20
7.57371
30
0
11
-1.20190890324769
21
0.105153403625046
31
0
210
0
220
0
230
1
40
0.990268
41
0.440247392852063
42
1.07958751494067
0
ELLIPSE
5
9D
100
AcDbEntity
8
1
62
256
6
ByLayer
370
-1
48
1
60
0
100
AcDbEllipse
10
14.839175
20
7.733656
30
0
11
1.20190890324769
21
-0.10515340362505
31
0
210
0
220
0
230
1
40
0.990268
41
-0.767164334209632
42
-0.629099067385835
0
ELLIPSE
5
9E
100
AcDbEntity
8
1
62
256
6
ByLayer
370
-1
48
1
60
0
100
AcDbEllipse
10
14.825182
20
7.57371
30
0
11
1.20190890324769
21
-0.10515340362505
31
0
210
0
220
0
230
1
40
0.990268
41
0.350461124239533
42
1.39486812775478
0
ELLIPSE
5
9F
100
AcDbEntity
8
1
62
256
6
ByLayer
370
-1
48
1
60
0
100
AcDbEllipse
10
14.825182
20
7.57371
30
0
11
-1.20190890324769
21
0.105153403625046
31
0
210
0
220
0
230
1
40
0.990268
41
-1.74672452583501
42
-0.767164334209656
0
ELLIPSE
5
A0
100
AcDbEntity
8
1
62
256
6
ByLayer
370
-1
48
1
60
0
100
AcDbEllipse
10
14.842467
20
7.771277
30
0
11
1.67012041135081
21
-0.146116602716449
31
0
210
0
220
0
230
1
40
0.990268
41
-1.22452102407737
42
-0.171742377518091
0
ELLIPSE
5
A1
100
AcDbEntity
8
1
62
256
6
ByLayer
370
-1
48
1
60
0
100
AcDbEllipse
10
15.315967
20
9.382975
30
0
11
-0.683389562890938
21
0.0597888395248914
31
0
210
0
220
0
230
1
40
0.990268
41
1.39486812775479
42
2.17885877137559
0
ELLIPSE
5
A2
100
AcDbEntity
8
1
62
256
6
ByLayer
370
-1
48
1
60
0
100
AcDbEllipse
10
14.842467
20
7.771277
30
0
11
1.67012041135081
21
-0.146116602716449
31
0
210
0
220
0
230
1
40
0.990268
41
1.91707162951242
42
2.9698502760717
0
ELLIPSE
5
A3
100
AcDbEntity
8
1
62
256
6
ByLayer
370
-1
48
1
60
0
100
AcDbEllipse
10
14.825182
20
7.57371
30
0
11
1.20190890324769
21
-0.10515340362505
31
0
210
0
220
0
230
1
40
0.990268
41
2.37442831938014
42
2.51249358620398
0
ELLIPSE
5
A4
100
AcDbEntity
8
1
62
256
6
ByLayer
370
-1
48
1
60
0
100
AcDbEllipse
10
14.842467
20
7.771277
30
0
11
1.67012041135081
21
-0.146116602716449
31
0
210
0
220
0
230
1
40
0.990268
41
0.872664625997159
42
1.91707162951242
0
ELLIPSE
5
A5
100
AcDbEntity
8
1
62
256
6
ByLayer
370
-1
48
1
60
0
100
AcDbEllipse
10
13.49157
20
8.894551
30
0
11
-0.683389562890938
21
0.0597888395248914
31
0
210
0
220
0
230
1
40
0.990268
41
2.56507499400899
42
3.14158856128663
0
ELLIPSE
5
A6
100
AcDbEntity
8
1
62
256
6
ByLayer
370
-1
48
1
60
0
100
AcDbEllipse
10
14.825182
20
7.57371
30
0
11
-1.20190890324769
21
0.105153403625046
31
0
210
0
220
0
230
1
40
0.990268
41
1.67053791991045
42
2.27359489734401
0
ELLIPSE
5
A7
100
AcDbEntity
8
1
62
256
6
ByLayer
370
-1
48
1
60
0
100
AcDbEllipse
10
14.842467
20
7.771277
30
0
11
1.67012041135081
21
-0.146116602716449
31
0
210
0
220
0
230
1
40
0.990268
41
-0.171742377518091
42
0.872664625997158
0
ELLIPSE
5
A8
100
AcDbEntity
8
1
62
256
6
ByLayer
370
-1
48
1
60
0
100
AcDbEllipse
10
14.825182
20
7.57371
30
0
11
-1.20190890324769
21
0.105153403625046
31
0
210
0
220
0
230
1
40
0.990268
41
2.73558846344945
42
-2.79113152935026
0
ELLIPSE
5
A9
100
AcDbEntity
8
1
62
256
6
ByLayer
370
-1
48
1
60
0
100
AcDbEllipse
10
16.65196
20
8.059776
30
0
11
-0.683389562890938
21
0.0597888395248914
31
0
210
0
220
0
230
1
40
0.990268
41
0.350461124239537
42
1.13445176786034
0
ELLIPSE
5
AA
100
AcDbEntity
8
1
62
256
6
ByLayer
370
-1
48
1
60
0
100
AcDbEllipse
10
12.998404
20
7.087644
30
0
11
-0.683389562890938
21
0.0597888395248914
31
0
210
0
220
0
230
1
40
0.990268
41
2.70806313420853
42
3.1415847676435
0
ELLIPSE
5
AB
100
AcDbEntity
8
1
62
256
6
ByLayer
370
-1
48
1
60
0
100
AcDbEllipse
10
13.486662
20
7.926018
30
0
11
-0.29088885184279
21
0.0254494768823153
31
0
210
0
220
0
230
1
40
0.990268
41
-1.48939303571897
42
-0.350687097574968
0
ELLIPSE
5
AC
100
AcDbEntity
8
1
62
256
6
ByLayer
370
-1
48
1
60
0
100
AcDbEllipse
10
13.49157
20
8.894551
30
0
11
-0.683389562890938
21
0.0597888395248914
31
0
210
0
220
0
230
1
40
0.990268
41
1.65219961787082
42
2.32184691157513
0
ELLIPSE
5
AD
100
AcDbEntity
8
1
62
256
6
ByLayer
370
-1
48
1
60
0
100
AcDbEllipse
10
14.469476
20
8.899403
30
0
11
-0.29088885184279
21
0.0254494768823153
31
0
210
0
220
0
230
1
40
0.990268
41
-2.53071516945578
42
-0.417575453166911
0
ELLIPSE
5
AE
100
AcDbEntity
8
1
62
256
6
ByLayer
370
-1
48
1
60
0
100
AcDbEllipse
10
15.315967
20
9.382975
30
0
11
-0.683389562890938
21
0.0597888395248914
31
0
210
0
220
0
230
1
40
0.990268
41
0.610877484133999
42
1.39486812775479
0
ELLIPSE
5
AF
100
AcDbEntity
8
1
62
256
6
ByLayer
370
-1
48
1
60
0
100
AcDbEllipse
10
15.803272
20
8.542417
30
0
11
-0.29088885184279
21
0.0254494768823153
31
0
210
0
220
0
230
1
40
0.990268
41
-2.82246876341348
42
-0.962733882214232
0
ELLIPSE
5
B0
100
AcDbEntity
8
1
62
256
6
ByLayer
370
-1
48
1
60
0
100
AcDbEllipse
10
16.65196
20
8.059776
30
0
11
-0.683389562890938
21
0.0597888395248914
31
0
210
0
220
0
230
1
40
0.990268
41
-6.61416176681377E-06
42
0.350461124239537
0
ELLIPSE
5
B1
100
AcDbEntity
8
1
62
256
6
ByLayer
370
-1
48
1
60
0
100
AcDbEllipse
10
16.163702
20
7.221402
30
0
11
-0.29088885184279
21
0.0254494768823153
31
0
210
0
220
0
230
1
40
0.990268
41
-2.67474617805749
42
-2.00714088572946
0
ELLIPSE
5
B2
100
AcDbEntity
8
1
62
256
6
ByLayer
370
-1
48
1
60
0
100
AcDbEllipse
10
14.839126
20
7.733089
30
0
11
2.61501108249083
21
-0.228783824712601
31
0
210
0
220
0
230
1
40
0.990268
41
0
42
6.28318530717959
0
ELLIPSE
5
B3
100
AcDbEntity
8
1
62
256
6
ByLayer
370
-1
48
1
60
0
100
AcDbEllipse
10
14.842467
20
7.771277
30
0
11
1.79315045656515
21
-0.156880336945784
31
0
210
0
220
0
230
1
40
0.990268
41
0
42
6.28318530717959
0
ELLIPSE
5
B4
100
AcDbEntity
8
1
62
256
6
ByLayer
370
-1
48
1
60
0
100
AcDbEllipse
10
14.825485
20
7.577176
30
0
11
2.61501108249083
21
-0.228783824712601
31
0
210
0
220
0
230
1
40
0.990268
41
3.14158061451044
42
-3.41678902777113E-16
0
ELLIPSE
5
B5
100
AcDbEntity
8
1
62
256
6
ByLayer
370
-1
48
1
60
0
100
AcDbEllipse
10
14.844446
20
7.793896
30
0
11
3.05963802797407
21
-0.267683641940543
31
0
210
0
220
0
230
1
40
0.990268
41
0
42
6.28318530717959
0
ELLIPSE
5
B6
100
AcDbEntity
8
1
62
256
6
ByLayer
370
-1
48
1
60
0
100
AcDbEllipse
10
10.434703
20
2.923733
30
0
11
0.305378795826242
21
-0.0267171827159937
31
0
210
0
220
0
230
1
40
0.990268
41
-2.07893122664421
42
-1.39626340159548
0
ELLIPSE
5
B7
100
AcDbEntity
8
1
62
256
6
ByLayer
370
-1
48
1
60
0
100
AcDbEllipse
10
19.206034
20
12.113644
30
0
11
0.79097859028485
21
-0.0692016597416404
31
0
210
0
220
0
230
1
40
0.990268
41
0
42
1.74532925199433
0
ELLIPSE
5
B8
100
AcDbEntity
8
1
62
256
6
ByLayer
370
-1
48
1
60
0
100
AcDbEllipse
10
18.510443
20
4.163007
30
0
11
0.79097859028485
21
-0.0692016597416404
31
0
210
0
220
0
230
1
40
0.990268
41
-1.39626340159546
42
6.77763566591876E-15
0
ELLIPSE
5
B9
100
AcDbEntity
8
1
62
256
6
ByLayer
370
-1
48
1
60
0
100
AcDbEllipse
10
10.482858
20
3.474148
30
0
11
0.790978590284847
21
-0.0692016597416401
31
0
210
0
220
0
230
1
40
0.990268
41
3.14159265358979
42
-1.39626340159548
0
ELLIPSE
5
BA
100
AcDbEntity
8
1
62
256
6
ByLayer
370
-1
48
1
60
0
100
AcDbEllipse
10
11.178448
20
11.424785
30
0
11
0.790978590284849
21
-0.0692016597416403
31
0
210
0
220
0
230
1
40
0.990268
41
1.74532925199432
42
3.14159265358979
0
POINT
5
41
100
AcDbEntity
8
80
62
256
6
ByLayer
370
-1
48
1
60
0
100
AcDbPoint
10
0
20
0
30
0
39
0
210
0
220
0
230
1
50
360
0
POINT
5
43
100
AcDbEntity
8
81
62
256
6
ByLayer
370
-1
48
1
60
0
100
AcDbPoint
10
20
20
12.9
30
0
39
0
210
0
220
0
230
1
50
360
0
POINT
5
45
100
AcDbEntity
8
1
62
256
6
ByLayer
370
-1
48
1
60
0
100
AcDbPoint
10
0
20
0
30
0
39
0
210
0
220
0
230
1
50
360
0
POINT
5
47
100
AcDbEntity
8
2
62
256
6
ByLayer
370
-1
48
1
60
0
100
AcDbPoint
10
20
20
12.9
30
0
39
0
210
0
220
0
230
1
50
360
0
SPLINE
5
BB
100
AcDbEntity
8
1
62
256
6
ByLayer
370
-1
48
1
60
0
100
AcDbSpline
70
4
71
3
72
8
73
4
40
0
40
0
40
0
40
0
40
1
40
1
40
1
40
1
41
1
10
5.23931516510453
20
-9.39911297271325
30
0
41
1
10
5.09338087741884
20
-9.80570419079834
30
0
41
1
10
5.03539069578068
20
-10.007673760187
30
0
41
1
10
5.04349648099975
20
-9.99562517929655
30
0
0
SPLINE
5
BC
100
AcDbEntity
8
1
62
256
6
ByLayer
370
-1
48
1
60
0
100
AcDbSpline
70
4
71
3
72
10
73
6
40
0
40
0
40
0
40
0
40
0.504378130434099
40
0.504378130434099
40
1
40
1
40
1
40
1
41
1
10
6.24594136641787
20
9.98166276378103
30
0
41
1
10
6.15991316172608
20
9.97498131518486
30
0
41
1
10
6.09209243653322
20
9.9653612360857
30
0
41
1
10
6.00372784582856
20
9.93972562010828
30
0
41
1
10
5.98116083306661
20
9.92345922537197
30
0
41
1
10
5.98094349043208
20
9.90447881678995
30
0
0
SPLINE
5
BD
100
AcDbEntity
8
1
62
256
6
ByLayer
370
-1
48
1
60
0
100
AcDbSpline
70
4
71
3
72
8
73
4
40
0
40
0
40
0
40
0
40
1
40
1
40
1
40
1
41
1
10
8.94826386745478
20
3.93239908910678
30
0
41
1
10
8.97872783610251
20
3.93163305257326
30
0
41
1
10
9.01274636666312
20
3.92671942182662
30
0
41
1
10
9.04962310288272
20
3.91782859950484
30
0
0
SPLINE
5
BE
100
AcDbEntity
8
1
62
256
6
ByLayer
370
-1
48
1
60
0
100
AcDbSpline
70
4
71
3
72
16
73
12
40
0
40
0
40
0
40
0
40
0.224029760686858
40
0.224029760686858
40
0.446076229167925
40
0.446076229167925
40
0.708601850695343
40
0.708601850695343
40
0.859538739647253
40
0.859538739647253
40
1
40
1
40
1
40
1
41
1
10
5.1312888011937
20
-7.49547838845805
30
0
41
1
10
5.13250291947497
20
-7.45447828051792
30
0
41
1
10
5.16199565154136
20
-7.40016686408796
30
0
41
1
10
5.26166029685459
20
-7.277656100158
30
0
41
1
10
5.33241669523988
20
-7.2081527331961
30
0
41
1
10
5.51996455675186
20
-7.0538298130715
30
0
41
1
10
5.64531346051899
20
-6.96553585463536
30
0
41
1
10
5.87610150173754
20
-6.84696255253019
30
0
41
1
10
5.96957409984606
20
-6.80731611950441
30
0
41
1
10
6.16218222796141
20
-6.75255866238481
30
0
41
1
10
6.26319588834667
20
-6.73585451141358
30
0
41
1
10
6.36343132623296
20
-6.7344531917696
30
0
0
SPLINE
5
BF
100
AcDbEntity
8
1
62
256
6
ByLayer
370
-1
48
1
60
0
100
AcDbSpline
70
4
71
3
72
10
73
6
40
0
40
0
40
0
40
0
40
0.384548143556984
40
0.384548143556984
40
1
40
1
40
1
40
1
41
1
10
0
20
-9.38838503059796
30
0
41
1
10
0.0677626534147748
20
-9.4567456639615
30
0
41
1
10
0.13553180656271
20
-9.52509985498574
30
0
41
1
10
0.311778266037095
20
-9.7028361190587
30
0
41
1
10
0.420265079106628
20
-9.81220876746164
30
0
41
1
10
0.528766000000019
20
-9.92156741649222
30
0
0
SPLINE
5
C0
100
AcDbEntity
8
1
62
256
6
ByLayer
370
-1
48
1
60
0
100
AcDbSpline
70
4
71
3
72
10
73
6
40
0
40
0
40
0
40
0
40
0.5
40
0.5
40
1
40
1
40
1
40
1
41
1
10
6.84273069833159
20
-6.72772759760392
30
0
41
1
10
7.45882261073928
20
-6.04831560267462
30
0
41
1
10
8.42105147721225
20
-5.29042840418711
30
0
41
1
10
10.4951628548815
20
-4.3474894664291
30
0
41
1
10
11.619846019889
20
-4.10167772900937
30
0
41
1
10
12.768999337633
20
-4.10167772900937
30
0
0
SPLINE
5
C1
100
AcDbEntity
8
1
62
256
6
ByLayer
370
-1
48
1
60
0
100
AcDbSpline
70
4
71
3
72
8
73
4
40
0
40
0
40
0
40
0
40
1
40
1
40
1
40
1
41
1
10
0.528766000000019
20
9.92156741649222
30
0
41
1
10
0.352471271478066
20
9.74387903206528
30
0
41
1
10
0.176213710550201
20
9.56615376091634
30
0
41
1
10
0
20
9.38838503059796
30
0
0
SPLINE
5
C2
100
AcDbEntity
8
1
62
256
6
ByLayer
370
-1
48
1
60
0
100
AcDbSpline
70
4
71
3
72
12
73
8
40
0
40
0
40
0
40
0
40
0.179443637683848
40
0.179443637683848
40
0.596034476810348
40
0.596034476810348
40
1
40
1
40
1
40
1
41
1
10
16.9336438714512
20
-3.31467339722633
30
0
41
1
10
16.8149367732897
20
-3.40269979818262
30
0
41
1
10
16.6892796089416
20
-3.48558866575334
30
0
41
1
10
16.2560600956452
20
-3.73698216596461
30
0
41
1
10
15.921916381354
20
-3.8761965775881
30
0
41
1
10
15.2451559584188
20
-4.05607593937711
30
0
41
1
10
14.8965861582071
20
-4.10167772900937
30
0
41
1
10
14.551069877633
20
-4.10167772900937
30
0
0
SPLINE
5
C3
100
AcDbEntity
8
1
62
256
6
ByLayer
370
-1
48
1
60
0
100
AcDbSpline
70
4
71
3
72
12
73
8
40
0
40
0
40
0
40
0
40
0.259575394981171
40
0.259575394981171
40
0.766062371303811
40
0.766062371303811
40
1
40
1
40
1
40
1
41
1
10
7.23452881240826
20
11.1046279938309
30
0
41
1
10
7.16506523776042
20
11.0984423543386
30
0
41
1
10
7.09549657581846
20
11.0922605846718
30
0
41
1
10
6.89483443838276
20
11.074359889959
30
0
41
1
10
6.76509147087444
20
11.0627216449911
30
0
41
1
10
6.59401807463809
20
11.0461073045767
30
0
41
1
10
6.54187381843542
20
11.0408270363998
30
0
41
1
10
6.4929338174
20
11.0355295423456
30
0
0
SPLINE
5
C4
100
AcDbEntity
8
1
62
256
6
ByLayer
370
-1
48
1
60
0
100
AcDbSpline
70
4
71
3
72
8
73
4
40
0
40
0
40
0
40
0
40
1
40
1
40
1
40
1
41
1
10
10.3778698220968
20
11.3842763555583
30
0
41
1
10
9.33008168916558
20
11.291144651602
30
0
41
1
10
8.28230114184146
20
11.1979307346242
30
0
41
1
10
7.23452881240826
20
11.1046279938309
30
0
0
SPLINE
5
C5
100
AcDbEntity
8
1
62
256
6
ByLayer
370
-1
48
1
60
0
100
AcDbSpline
70
4
71
3
72
8
73
4
40
0
40
0
40
0
40
0
40
1
40
1
40
1
40
1
41
1
10
5.23931516510453
20
-9.39911297271325
30
0
41
1
10
5.48283019158237
20
-8.7206495847883
30
0
41
1
10
5.83863247412961
20
-8.01955170460624
30
0
41
1
10
6.33339720517358
20
-7.3495176735521
30
0
0
SPLINE
5
C6
100
AcDbEntity
8
1
62
256
6
ByLayer
370
-1
48
1
60
0
100
AcDbSpline
70
4
71
3
72
8
73
4
40
0
40
0
40
0
40
0
40
1
40
1
40
1
40
1
41
1
10
6.24594136641787
20
9.98166276378103
30
0
41
1
10
6.326373935878
20
10.3283585950897
30
0
41
1
10
6.40917974901379
20
10.680830194711
30
0
41
1
10
6.4929338174
20
11.0355295423456
30
0
0
SPLINE
5
C7
100
AcDbEntity
8
1
62
256
6
ByLayer
370
-1
48
1
60
0
100
AcDbSpline
70
4
71
3
72
16
73
12
40
0
40
0
40
0
40
0
40
0.164270759673312
40
0.164270759673312
40
0.325889136380391
40
0.325889136380391
40
0.588770185778135
40
0.588770185778135
40
0.859652478570125
40
0.859652478570125
40
1
40
1
40
1
40
1
41
1
10
6.53987440652435
20
-3.12110051436082
30
0
41
1
10
6.43773595570627
20
-3.11932511302069
30
0
41
1
10
6.33453994992908
20
-3.09751043486295
30
0
41
1
10
6.14855286960159
20
-3.02684483131444
30
0
41
1
10
6.0624702858882
20
-2.97822499568028
30
0
41
1
10
5.86022117305924
20
-2.83619008591555
30
0
41
1
10
5.75383459206415
20
-2.73162667927457
30
0
41
1
10
5.57814559334128
20
-2.51873072713948
30
0
41
1
10
5.5077238097291
20
-2.40696324323432
30
0
41
1
10
5.43738914634883
20
-2.24831137684845
30
0
41
1
10
5.41963452497021
20
-2.19537957855951
30
0
41
1
10
5.4090991241352
20
-2.14504678780543
30
0
0
SPLINE
5
C8
100
AcDbEntity
8
1
62
256
6
ByLayer
370
-1
48
1
60
0
100
AcDbSpline
70
4
71
3
72
10
73
6
40
0
40
0
40
0
40
0
40
0.572089139834831
40
0.572089139834831
40
1
40
1
40
1
40
1
41
1
10
5.05097454525958
20
-9.14022258151047
30
0
41
1
10
5.04752165910224
20
-9.19633375359342
30
0
41
1
10
5.06690709951869
20
-9.25070423321048
30
0
41
1
10
5.13985985992713
20
-9.33551163502187
30
0
41
1
10
5.1840326222885
20
-9.36923557262477
30
0
41
1
10
5.23931516510442
20
-9.39911297271328
30
0
0
SPLINE
5
C9
100
AcDbEntity
8
1
62
256
6
ByLayer
370
-1
48
1
60
0
100
AcDbSpline
70
4
71
3
72
8
73
4
40
0
40
0
40
0
40
0
40
1
40
1
40
1
40
1
41
1
10
16.9473506473511
20
-3.30279327101485
30
0
41
1
10
16.8613845310458
20
-3.36620209480194
30
0
41
1
10
16.771909092597
20
-3.42663293061128
30
0
41
1
10
16.6793829330146
20
-3.48378751459262
30
0
0
SPLINE
5
CA
100
AcDbEntity
8
SK1
62
256
6
ByLayer
370
-1
48
1
60
0
100
AcDbSpline
70
4
71
3
72
8
73
4
40
0
40
0
40
0
40
0
40
1
40
1
40
1
40
1
41
1
10
-0.221234122599981
20
-9.16515126617668
30
0
41
1
10
-0.147497495411869
20
-9.23957052807882
30
0
41
1
10
-0.0737525966162593
20
-9.31398159503547
30
0
41
1
10
0
20
-9.38838503059796
30
0
0
SPLINE
5
CB
100
AcDbEntity
8
SK1
62
256
6
ByLayer
370
-1
48
1
60
0
100
AcDbSpline
70
4
71
3
72
10
73
6
40
0
40
0
40
0
40
0
40
0.342346096613156
40
0.342346096613156
40
1
40
1
40
1
40
1
41
1
10
0
20
9.38838503059796
30
0
41
1
10
-0.0252489016902473
20
9.36291331683972
30
0
41
1
10
-0.0504969006874489
20
9.33744070825142
30
0
41
1
10
-0.124244117799321
20
9.26303202218557
30
0
41
1
10
-0.172740848199112
20
9.21409347881729
30
0
41
1
10
-0.221233999999981
20
9.16515138991167
30
0
0
SPLINE
5
CC
100
AcDbEntity
8
1
62
256
6
ByLayer
370
-1
48
1
60
0
100
AcDbSpline
70
4
71
3
72
18
73
14
40
0
40
0
40
0
40
0
40
0.200491802848401
40
0.200491802848401
40
0.376760387378706
40
0.376760387378706
40
0.554850657614115
40
0.554850657614115
40
0.708285004377407
40
0.708285004377407
40
0.909056452673397
40
0.909056452673397
40
1
40
1
40
1
40
1
41
1
10
14.7381745543018
20
9.22624541507963
30
0
41
1
10
14.771282119472
20
9.163971556711
30
0
41
1
10
14.814042344736
20
9.10510083599769
30
0
41
1
10
14.9107098913577
20
9.00893822139071
30
0
41
1
10
14.9638813328061
20
8.96893647287811
30
0
41
1
10
15.0807190339871
20
8.90718454984491
30
0
41
1
10
15.1463558291925
20
8.88492152632972
30
0
41
1
10
15.2689239394155
20
8.86493113716404
30
0
41
1
10
15.3272526970865
20
8.86389525362068
30
0
41
1
10
15.4555967754569
20
8.87852005467397
30
0
41
1
10
15.5258857945356
20
8.89939411158406
30
0
41
1
10
15.6188284472596
20
8.94290242638135
30
0
41
1
10
15.6469364505255
20
8.95853373368683
30
0
41
1
10
15.6737411331054
20
8.9758440932336
30
0
0
SPLINE
5
CD
100
AcDbEntity
8
1
62
256
6
ByLayer
370
-1
48
1
60
0
100
AcDbSpline
70
4
71
3
72
18
73
14
40
0
40
0
40
0
40
0
40
0.0289448810972279
40
0.0289448810972279
40
0.252553505367386
40
0.252553505367386
40
0.476995654186748
40
0.476995654186748
40
0.714300627921762
40
0.714300627921762
40
0.974002978663988
40
0.974002978663988
40
1
40
1
40
1
40
1
41
1
10
16.4632889825687
20
7.34466547128838
30
0
41
1
10
16.4642811817461
20
7.34838530991232
30
0
41
1
10
16.4651981101765
20
7.35212068262277
30
0
41
1
10
16.4724625088284
20
7.38449777928258
30
0
41
1
10
16.4743662488379
20
7.41416784118846
30
0
41
1
10
16.4691468283235
20
7.47085039016599
30
0
41
1
10
16.4619452108763
20
7.49857971612911
30
0
41
1
10
16.4395144545418
20
7.550224570864
30
0
41
1
10
16.423596526407
20
7.57449047926681
30
0
41
1
10
16.3842647704588
20
7.61755982430554
30
0
41
1
10
16.359818972767
20
7.63619553292489
30
0
41
1
10
16.3308326142338
20
7.65150273679211
30
0
41
1
10
16.3281483553787
20
7.65286291580921
30
0
41
1
10
16.3254436872833
20
7.65417707816206
30
0
0
SPLINE
5
CE
100
AcDbEntity
8
1
62
256
6
ByLayer
370
-1
48
1
60
0
100
AcDbSpline
70
4
71
3
72
12
73
8
40
0
40
0
40
0
40
0
40
0.305765777398146
40
0.305765777398146
40
0.770316479505105
40
0.770316479505105
40
1
40
1
40
1
40
1
41
1
10
14.0462193152349
20
8.63547593893645
30
0
41
1
10
14.0767106214168
20
8.67476724393936
30
0
41
1
10
14.1028642266293
20
8.71794268208311
30
0
41
1
10
14.1555110153782
20
8.82989891599951
30
0
41
1
10
14.176123637601
20
8.90210704513899
30
0
41
1
10
14.1910450854409
20
9.00901781488193
30
0
41
1
10
14.1934587984796
20
9.04475582027462
30
0
41
1
10
14.1934459416191
20
9.08017619018241
30
0
0
SPLINE
5
CF
100
AcDbEntity
8
1
62
256
6
ByLayer
370
-1
48
1
60
0
100
AcDbSpline
70
4
71
3
72
18
73
14
40
0
40
0
40
0
40
0
40
0.200342675205888
40
0.200342675205888
40
0.376638356727673
40
0.376638356727673
40
0.554757454662412
40
0.554757454662412
40
0.708198365768929
40
0.708198365768929
40
0.908944439492442
40
0.908944439492442
40
1
40
1
40
1
40
1
41
1
10
16.0726267439721
20
8.58077848912743
30
0
41
1
10
16.0389632811122
20
8.51851430095076
30
0
41
1
10
16.0129090788136
20
8.44984774250386
30
0
41
1
10
15.9834890619501
20
8.31490877355014
30
0
41
1
10
15.9776038285135
20
8.24776676587311
30
0
41
1
10
15.9852493715379
20
8.11488465658141
30
0
41
1
10
15.9993092761004
20
8.04721046947765
30
0
41
1
10
16.042451277441
20
7.93301188329687
30
0
41
1
10
16.0696206340102
20
7.8834423853516
30
0
41
1
10
16.1428072496571
20
7.78378267125305
30
0
41
1
10
16.1931055132993
20
7.73634742744576
30
0
41
1
10
16.2725610781442
20
7.68223903946154
30
0
41
1
10
16.298623307011
20
7.66720874519115
30
0
41
1
10
16.3254436872833
20
7.65417707816206
30
0
0
SPLINE
5
D0
100
AcDbEntity
8
1
62
256
6
ByLayer
370
-1
48
1
60
0
100
AcDbSpline
70
4
71
3
72
18
73
14
40
0
40
0
40
0
40
0
40
0.0280124460830279
40
0.0280124460830279
40
0.251652532400304
40
0.251652532400304
40
0.476071555467567
40
0.476071555467567
40
0.713309342832106
40
0.713309342832106
40
0.97291183014901
40
0.97291183014901
40
1
40
1
40
1
40
1
41
1
10
13.6580915703356
20
6.59826364495069
30
0
41
1
10
13.6607535533956
20
6.59562715489673
30
0
41
1
10
13.6634671059956
20
6.5930361417665
30
0
41
1
10
13.6880407674244
20
6.57041464277606
30
0
41
1
10
13.7132595102861
20
6.55318992170871
30
0
41
1
10
13.7663146417072
20
6.52694253364194
30
0
41
1
10
13.7948287897808
20
6.51759432936223
30
0
41
1
10
13.8529249789715
20
6.50690603003684
30
0
41
1
10
13.8831991199869
20
6.50589041830628
30
0
41
1
10
13.9431025086244
20
6.51226141196369
30
0
41
1
10
13.973159887163
20
6.5204949869179
30
0
41
1
10
14.0029542260735
20
6.53382785849081
30
0
41
1
10
14.0057676614799
20
6.53514373382697
30
0
41
1
10
14.0085495000078
20
6.53650172387552
30
0
0
SPLINE
5
D1
100
AcDbEntity
8
1
62
256
6
ByLayer
370
-1
48
1
60
0
100
AcDbSpline
70
4
71
3
72
16
73
12
40
0
40
0
40
0
40
0
40
0.0546821031262492
40
0.0546821031262492
40
0.277656877423886
40
0.277656877423886
40
0.502955500547087
40
0.502955500547087
40
0.742325267019435
40
0.742325267019435
40
1
40
1
40
1
40
1
41
1
10
13.2216445700295
20
8.19788905375927
30
0
41
1
10
13.2197751004424
20
8.19088025418006
30
0
41
1
10
13.2181692952611
20
8.18377690522286
30
0
41
1
10
13.2114348888524
20
8.14763533058746
30
0
41
1
10
13.2105242164236
20
8.11720694847446
30
0
41
1
10
13.2174786564315
20
8.05805387496775
30
0
41
1
10
13.2255008858442
20
8.02859471111603
30
0
41
1
10
13.2494151160266
20
7.97264939299626
30
0
41
1
10
13.2660379832509
20
7.94575123041568
30
0
41
1
10
13.3062274117105
20
7.89717458018066
30
0
41
1
10
13.3306879987415
20
7.8754382341113
30
0
41
1
10
13.3568469458298
20
7.85816873894794
30
0
0
SPLINE
5
D2
100
AcDbEntity
8
1
62
256
6
ByLayer
370
-1
48
1
60
0
100
AcDbSpline
70
4
71
3
72
18
73
14
40
0
40
0
40
0
40
0
40
0.210401690916604
40
0.210401690916604
40
0.384882850338823
40
0.384882850338823
40
0.561069797555403
40
0.561069797555403
40
0.714096166120323
40
0.714096166120323
40
0.916576102942435
40
0.916576102942435
40
1
40
1
40
1
40
1
41
1
10
14.944116078812
20
6.28610040202994
30
0
41
1
10
14.9084850951236
20
6.34135226989488
30
0
41
1
10
14.8622211815067
20
6.39346651748335
30
0
41
1
10
14.7605005987826
20
6.47622503861163
30
0
41
1
10
14.7067027719842
20
6.50986082770515
30
0
41
1
10
14.5895260274169
20
6.5632817087421
30
0
41
1
10
14.5242348713733
20
6.58359424614795
30
0
41
1
10
14.4026338702807
20
6.60509263842036
30
0
41
1
10
14.344833179451
20
6.60876129852636
30
0
41
1
10
14.2172667507393
20
6.60326422494362
30
0
41
1
10
14.1474359012277
20
6.58966817728418
30
0
41
1
10
14.0580947899618
20
6.55884453781078
30
0
41
1
10
14.0327720406107
20
6.54832626680255
30
0
41
1
10
14.0085495000078
20
6.53650172387552
30
0
0
SPLINE
5
D3
100
AcDbEntity
8
1
62
256
6
ByLayer
370
-1
48
1
60
0
100
AcDbSpline
70
4
71
3
72
20
73
16
40
0
40
0
40
0
40
0
40
0.0833211692703264
40
0.0833211692703264
40
0.283887803280291
40
0.283887803280291
40
0.446105055806517
40
0.446105055806517
40
0.609156483653394
40
0.609156483653394
40
0.761519868004696
40
0.761519868004696
40
0.977634375152377
40
0.977634375152377
40
1
40
1
40
1
40
1
41
1
10
13.6096638891402
20
6.93156732797945
30
0
41
1
10
13.6233696585674
20
6.95354999148103
30
0
41
1
10
13.6357263462243
20
6.97665483512341
30
0
41
1
10
13.6725008949321
20
7.05851478392873
30
0
41
1
10
13.6899836269266
20
7.12319479066082
30
0
41
1
10
13.7010810426545
20
7.24695249470696
30
0
41
1
10
13.6985812927073
20
7.30615241835363
30
0
41
1
10
13.6772434321658
20
7.4238638886755
30
0
41
1
10
13.6579655436873
20
7.48390759250273
30
0
41
1
10
13.6078134300699
20
7.59160793593372
30
0
41
1
10
13.5772916920264
20
7.64110632124306
30
0
41
1
10
13.4945565380125
20
7.74791367088298
30
0
41
1
10
13.4372939137863
20
7.80189192019191
30
0
41
1
10
13.3698007349575
20
7.84947428868551
30
0
41
1
10
13.3633477066452
20
7.85387709612758
30
0
41
1
10
13.3568469458298
20
7.85816873894794
30
0
0
SPLINE
5
D4
100
AcDbEntity
8
1
62
256
6
ByLayer
370
-1
48
1
60
0
100
AcDbSpline
70
4
71
3
72
12
73
8
40
0
40
0
40
0
40
0
40
0.320278000794364
40
0.320278000794364
40
0.788523690409504
40
0.788523690409504
40
1
40
1
40
1
40
1
41
1
10
15.6321313179503
20
6.8318354729148
30
0
41
1
10
15.6002876636633
20
6.79219732939021
30
0
41
1
10
15.5733468418995
20
6.74974620121205
30
0
41
1
10
15.5215003158405
20
6.64452933687281
30
0
41
1
10
15.5022505977647
20
6.57969197336391
30
0
41
1
10
15.4900542702553
20
6.48816135821625
30
0
41
1
10
15.4884044587298
20
6.45973347144428
30
0
41
1
10
15.4888025001851
20
6.4316873780493
30
0
0
SPLINE
5
D5
100
AcDbEntity
8
1
62
256
6
ByLayer
370
-1
48
1
60
0
100
AcDbSpline
70
4
71
3
72
14
73
10
40
0
40
0
40
0
40
0
40
0.27677037877146
40
0.27677037877146
40
0.563996966399359
40
0.563996966399359
40
0.823890856771286
40
0.823890856771286
40
1
40
1
40
1
40
1
41
1
10
14.7381745543019
20
9.22624541507969
30
0
41
1
10
14.7220171687588
20
9.2566367390487
30
0
41
1
10
14.7004931167951
20
9.28498979333079
30
0
41
1
10
14.6481093588981
20
9.33333292950897
30
0
41
1
10
14.6160625352397
20
9.35366929167935
30
0
41
1
10
14.5500440513662
20
9.37899156372887
30
0
41
1
10
14.515527213388
20
9.38557755828447
30
0
41
1
10
14.4580152777941
20
9.38552947291294
30
0
41
1
10
14.4344179383211
20
9.38250112003414
30
0
41
1
10
14.4117396811306
20
9.37656770601373
30
0
0
SPLINE
5
D6
100
AcDbEntity
8
1
62
256
6
ByLayer
370
-1
48
1
60
0
100
AcDbSpline
70
4
71
3
72
14
73
10
40
0
40
0
40
0
40
0
40
0.279052010768828
40
0.279052010768828
40
0.564174784825028
40
0.564174784825028
40
0.822113778983184
40
0.822113778983184
40
1
40
1
40
1
40
1
41
1
10
13.5040696644811
20
8.39741302810543
30
0
41
1
10
13.4710606885565
20
8.40003462436331
30
0
41
1
10
13.4369922441015
20
8.39680052032105
30
0
41
1
10
13.3717017772136
20
8.3776623538802
30
0
41
1
10
13.3395623416877
20
8.36112289547771
30
0
41
1
10
13.2868897313986
20
8.31826024092723
30
0
41
1
10
13.2647852056005
20
8.29232292283339
30
0
41
1
10
13.23680035525
20
8.24292486004487
30
0
41
1
10
13.2277520985369
20
8.22078669463394
30
0
41
1
10
13.2216445700295
20
8.19788905375927
30
0
0
SPLINE
5
D7
100
AcDbEntity
8
1
62
256
6
ByLayer
370
-1
48
1
60
0
100
AcDbSpline
70
4
71
3
72
18
73
14
40
0
40
0
40
0
40
0
40
0.0001012347891418
40
0.0001012347891418
40
0.222514202208888
40
0.222514202208888
40
0.444061850121181
40
0.444061850121181
40
0.676974831641647
40
0.676974831641647
40
0.931032615111069
40
0.931032615111069
40
1
40
1
40
1
40
1
41
1
10
15.2731938714677
20
6.16598681903389
30
0
41
1
10
15.273207180147
20
6.16599030104328
30
0
41
1
10
15.2732204885704
20
6.16599378392121
30
0
41
1
10
15.3020520941707
20
6.17354117950026
30
0
41
1
10
15.3300168640242
20
6.18539511778599
30
0
41
1
10
15.3796365742907
20
6.21546850719889
30
0
41
1
10
15.4019633360945
20
6.23403268039951
30
0
41
1
10
15.4398015526893
20
6.27604825864489
30
0
41
1
10
15.4554027442715
20
6.30021057991462
30
0
41
1
10
15.4786853210293
20
6.35218811176077
30
0
41
1
10
15.4858436023941
20
6.38077458664745
30
0
41
1
10
15.4886649323663
20
6.41642637431698
30
0
41
1
10
15.4889104476331
20
6.42408137578798
30
0
41
1
10
15.4888025001851
20
6.4316873780493
30
0
0
SPLINE
5
D8
100
AcDbEntity
8
1
62
256
6
ByLayer
370
-1
48
1
60
0
100
AcDbSpline
70
4
71
3
72
16
73
12
40
0
40
0
40
0
40
0
40
0.132181317609069
40
0.132181317609069
40
0.441939637945777
40
0.441939637945777
40
0.71717434334948
40
0.71717434334948
40
0.960588712252932
40
0.960588712252932
40
1
40
1
40
1
40
1
41
1
10
16.0726267439787
20
8.58077848912342
30
0
41
1
10
16.0805005429432
20
8.59534192552363
30
0
41
1
10
16.0873568123572
20
8.61064244785422
30
0
41
1
10
16.1062094979718
20
8.66325509972671
30
0
41
1
10
16.1130781419612
20
8.70386086084221
30
0
41
1
10
16.110845943776
20
8.78002351681127
30
0
41
1
10
16.1033262786191
20
8.81681906275043
30
0
41
1
10
16.0771212369401
20
8.88042383012973
30
0
41
1
10
16.0594096276921
20
8.90880140892085
30
0
41
1
10
16.034251365749
20
8.9367393832936
30
0
41
1
10
16.030597395736
20
8.94057143108176
30
0
41
1
10
16.0268419822627
20
8.94429088009696
30
0
0
SPLINE
5
D9
100
AcDbEntity
8
1
62
256
6
ByLayer
370
-1
48
1
60
0
100
AcDbSpline
70
4
71
3
72
12
73
8
40
0
40
0
40
0
40
0
40
0.493286023945307
40
0.493286023945307
40
0.89859456738891
40
0.89859456738891
40
1
40
1
40
1
40
1
41
1
10
16.1781787773187
20
7.11445054012665
30
0
41
1
10
16.106721513022
20
7.10979136523
30
0
41
1
10
16.0328767073511
20
7.09433664024502
30
0
41
1
10
15.9024030253128
20
7.0455718112506
30
0
41
1
10
15.8436300078696
20
7.01526130088848
30
0
41
1
10
15.7760639037619
20
6.96847855257181
30
0
41
1
10
15.7627187026713
20
6.95859420219318
30
0
41
1
10
15.7497164790935
20
6.94829265181474
30
0
0
SPLINE
5
DA
100
AcDbEntity
8
1
62
256
6
ByLayer
370
-1
48
1
60
0
100
AcDbSpline
70
4
71
3
72
14
73
10
40
0
40
0
40
0
40
0
40
0.194944241834606
40
0.194944241834606
40
0.492345470839485
40
0.492345470839485
40
0.760954096267826
40
0.760954096267826
40
1
40
1
40
1
40
1
41
1
10
14.9441160788098
20
6.28610040202886
30
0
41
1
10
14.9558018941171
20
6.26797956851786
30
0
41
1
10
14.9700775204022
20
6.25080899875309
30
0
41
1
10
15.0116631173895
20
6.21188879932885
30
0
41
1
10
15.0427247082888
20
6.19183886107248
30
0
41
1
10
15.1082744525301
20
6.16550050394443
30
0
41
1
10
15.1431776341624
20
6.15772371242284
30
0
41
1
10
15.2098257083812
20
6.15458835042909
30
0
41
1
10
15.2424511328289
20
6.15794345860581
30
0
41
1
10
15.2731938714677
20
6.16598681903389
30
0
0
SPLINE
5
DB
100
AcDbEntity
8
1
62
256
6
ByLayer
370
-1
48
1
60
0
100
AcDbSpline
70
4
71
3
72
18
73
14
40
0
40
0
40
0
40
0
40
0.0573302254183333
40
0.0573302254183333
40
0.278172192180313
40
0.278172192180313
40
0.501497084199682
40
0.501497084199682
40
0.738908793223349
40
0.738908793223349
40
0.999501689815667
40
0.999501689815667
40
1
40
1
40
1
40
1
41
1
10
14.4117396811306
20
9.37656770601373
30
0
41
1
10
14.4042531083351
20
9.37460896043569
30
0
41
1
10
14.3968369014139
20
9.37233199485883
30
0
41
1
10
14.3616037273415
20
9.35987840666519
30
0
41
1
10
14.3349129956994
20
9.34526015392339
30
0
41
1
10
14.28784095189
20
9.30902386854501
30
0
41
1
10
14.2669204653386
20
9.28688695854294
30
0
41
1
10
14.2320223506254
20
9.23703764171395
30
0
41
1
10
14.2181031182451
20
9.2084568062958
30
0
41
1
10
14.1984909069906
20
9.14705084995683
30
0
41
1
10
14.1934530198575
20
9.11332336842091
30
0
41
1
10
14.19344591378
20
9.08030363481851
30
0
41
1
10
14.1934459184894
20
9.08023991182995
30
0
41
1
10
14.1934459416191
20
9.08017619018241
30
0
0
SPLINE
5
DC
100
AcDbEntity
8
1
62
256
6
ByLayer
370
-1
48
1
60
0
100
AcDbSpline
70
4
71
3
72
14
73
10
40
0
40
0
40
0
40
0
40
0.243186232098348
40
0.243186232098348
40
0.532788633408114
40
0.532788633408114
40
0.79446566718474
40
0.79446566718474
40
1
40
1
40
1
40
1
41
1
10
16.1781787773187
20
7.11445054012646
30
0
41
1
10
16.2073240012918
20
7.11635087450435
30
0
41
1
10
16.2372025566979
20
7.12250409463437
30
0
41
1
10
16.3001534710072
20
7.14542094640089
30
0
41
1
10
16.333756594246
20
7.1644504803719
30
0
41
1
10
16.3893762171747
20
7.21106808078116
30
0
41
1
10
16.4130048510008
20
7.23841446775057
30
0
41
1
10
16.4451785899597
20
7.29223382679015
30
0
41
1
10
16.456236055968
20
7.31822345301163
30
0
41
1
10
16.4632889825687
20
7.34466547128838
30
0
0
SPLINE
5
DD
100
AcDbEntity
8
1
62
256
6
ByLayer
370
-1
48
1
60
0
100
AcDbSpline
70
4
71
3
72
14
73
10
40
0
40
0
40
0
40
0
40
0.234755035011794
40
0.234755035011794
40
0.52724242320026
40
0.52724242320026
40
0.79151846113136
40
0.79151846113136
40
1
40
1
40
1
40
1
41
1
10
13.6096638891398
20
6.93156732797971
30
0
41
1
10
13.5960596448578
20
6.90974750050978
30
0
41
1
10
13.585609510948
20
6.88530246167917
30
0
41
1
10
13.5713297900872
20
6.82729162422339
30
0
41
1
10
13.5696192494647
20
6.79196266757972
30
0
41
1
10
13.5802189575398
20
6.72534797181316
30
0
41
1
10
13.5914199677184
20
6.6929913734557
30
0
41
1
10
13.6214229434385
20
6.63998975136991
30
0
41
1
10
13.6384455618246
20
6.6177215095845
30
0
41
1
10
13.6580915703356
20
6.59826364495069
30
0
0
SPLINE
5
DE
100
AcDbEntity
8
1
62
256
6
ByLayer
370
-1
48
1
60
0
100
AcDbSpline
70
4
71
3
72
12
73
8
40
0
40
0
40
0
40
0
40
0.467750053704559
40
0.467750053704559
40
0.877555380277429
40
0.877555380277429
40
1
40
1
40
1
40
1
41
1
10
13.504069664481
20
8.39741302810532
30
0
41
1
10
13.5709924646648
20
8.39209797189218
30
0
41
1
10
13.6400402409388
20
8.39697391411619
30
0
41
1
10
13.766512036245
20
8.42821311691478
30
0
41
1
10
13.8257296982927
20
8.45238687574349
30
0
41
1
10
13.8968895353096
20
8.49619125678848
30
0
41
1
10
13.9130041919422
20
8.507196883549
30
0
41
1
10
13.9286341540916
20
8.51901876003649
30
0
0
SPLINE
5
DF
100
AcDbEntity
8
1
62
256
6
ByLayer
370
-1
48
1
60
0
100
AcDbSpline
70
4
71
3
72
16
73
12
40
0
40
0
40
0
40
0
40
0.186503516921892
40
0.186503516921892
40
0.409304067630861
40
0.409304067630861
40
0.641621184601148
40
0.641621184601148
40
0.893764853513334
40
0.893764853513334
40
1
40
1
40
1
40
1
41
1
10
16.0268419822627
20
8.94429088009696
30
0
41
1
10
16.0093047033437
20
8.96166020980377
30
0
41
1
10
15.9893021344959
20
8.97672283295933
30
0
41
1
10
15.9426118694951
20
9.00292792629074
30
0
41
1
10
15.914772675007
20
9.0130442621051
30
0
41
1
10
15.8575036201523
20
9.02426499761111
30
0
41
1
10
15.8273426354368
20
9.02513604018478
30
0
41
1
10
15.7670070247734
20
9.01765912835663
30
0
41
1
10
15.7362930103332
20
9.00845953124372
30
0
41
1
10
15.6963070588677
20
8.9894201372191
30
0
41
1
10
15.6847759341073
20
8.98297032471584
30
0
41
1
10
15.6737411331054
20
8.9758440932336
30
0
0
LINE
5
49
100
AcDbEntity
8
80
62
256
6
ByLayer
370
-1
48
1
60
0
100
AcDbLine
10
0
20
0
30
0
11
-10
21
0
31
0
39
0
210
0
220
0
230
1
0
LINE
5
4A
100
AcDbEntity
8
1
62
256
6
ByLayer
370
-1
48
1
60
0
100
AcDbLine
10
15.490961
20
6.490465
30
0
11
15.481623
21
6.383731
31
0
39
0
210
0
220
0
230
1
0
LINE
5
4B
100
AcDbEntity
8
1
62
256
6
ByLayer
370
-1
48
1
60
0
100
AcDbLine
10
17.440496
20
7.348393
30
0
11
17.454137
21
7.504305
31
0
39
0
210
0
220
0
230
1
0
LINE
5
4C
100
AcDbEntity
8
1
62
256
6
ByLayer
370
-1
48
1
60
0
100
AcDbLine
10
12.224115
20
7.961873
30
0
11
12.210474
21
7.80596
31
0
39
0
210
0
220
0
230
1
0
LINE
5
4D
100
AcDbEntity
8
1
62
256
6
ByLayer
370
-1
48
1
60
0
100
AcDbLine
10
13.681793
20
7.027856
30
0
11
13.696235
21
7.192922
31
0
39
0
210
0
220
0
230
1
0
LINE
5
4E
100
AcDbEntity
8
1
62
256
6
ByLayer
370
-1
48
1
60
0
100
AcDbLine
10
15.98307
20
8.285289
30
0
11
15.968571
21
8.119565
31
0
39
0
210
0
220
0
230
1
0
LINE
5
4F
100
AcDbEntity
8
1
62
256
6
ByLayer
370
-1
48
1
60
0
100
AcDbLine
10
14.174959
20
8.834762
30
0
11
14.190517
21
9.01259
31
0
39
0
210
0
220
0
230
1
0
LINE
5
50
100
AcDbEntity
8
SK1
62
256
6
ByLayer
370
-1
48
1
60
0
100
AcDbLine
10
-3.39
20
-2.955
30
0
11
-0.22125
21
-2.955
31
0
39
0
210
0
220
0
230
1
0
LINE
5
52
100
AcDbEntity
8
SK1
62
256
6
ByLayer
370
-1
48
1
60
0
100
AcDbLine
10
-0.22125
20
2.955
30
0
11
-3.39
21
2.955
31
0
39
0
210
0
220
0
230
1
0
LINE
5
53
100
AcDbEntity
8
SK1
62
256
6
ByLayer
370
-1
48
1
60
0
100
AcDbLine
10
-3.39
20
2.955
30
0
11
-3.89
21
2.821025
31
0
39
0
210
0
220
0
230
1
0
LINE
5
54
100
AcDbEntity
8
SK1
62
256
6
ByLayer
370
-1
48
1
60
0
100
AcDbLine
10
-3.89
20
-2.821025
30
0
11
-3.39
21
-2.955
31
0
39
0
210
0
220
0
230
1
0
LINE
5
55
100
AcDbEntity
8
1
62
256
6
ByLayer
370
-1
48
1
60
0
100
AcDbLine
10
6.245941
20
10
30
0
11
4.410722
21
10
31
0
39
0
210
0
220
0
230
1
0
LINE
5
56
100
AcDbEntity
8
1
62
256
6
ByLayer
370
-1
48
1
60
0
100
AcDbLine
10
4.410722
20
-10
30
0
11
5.056445
21
-10
31
0
39
0
210
0
220
0
230
1
0
LINE
5
57
100
AcDbEntity
8
1
62
256
6
ByLayer
370
-1
48
1
60
0
100
AcDbLine
10
6.492934
20
11.038575
30
0
11
6.245941
21
10
31
0
39
0
210
0
220
0
230
1
0
LINE
5
58
100
AcDbEntity
8
1
62
256
6
ByLayer
370
-1
48
1
60
0
100
AcDbLine
10
7.088539
20
11.091634
30
0
11
6.492934
21
11.038575
31
0
39
0
210
0
220
0
230
1
0
LINE
5
59
100
AcDbEntity
8
1
62
256
6
ByLayer
370
-1
48
1
60
0
100
AcDbLine
10
10.038144
20
2.823498
30
0
11
10.263009
21
2.672532
31
0
39
0
210
0
220
0
230
1
0
LINE
5
5A
100
AcDbEntity
8
1
62
256
6
ByLayer
370
-1
48
1
60
0
100
AcDbLine
10
18.697781
20
3.384096
30
0
11
18.835417
21
3.445018
31
0
39
0
210
0
220
0
230
1
0
LINE
5
5B
100
AcDbEntity
8
81
62
256
6
ByLayer
370
-1
48
1
60
0
100
AcDbLine
10
20
20
12.9
30
0
11
30
21
12.9
31
0
39
0
210
0
220
0
230
1
0
LINE
5
5C
100
AcDbEntity
8
SK4
62
256
6
ByLayer
370
-1
48
0.05
60
0
100
AcDbLine
10
-10
20
0
30
0
11
24.148537
21
0
31
0
39
0
210
0
220
0
230
1
0
LINE
5
5E
100
AcDbEntity
8
4
62
256
6
ByLayer
370
-1
48
0.05
60
0
100
AcDbLine
10
0
20
0
30
0
11
29.148537
21
0
31
0
39
0
210
0
220
0
230
1
0
LINE
5
60
100
AcDbEntity
8
SK1
62
256
6
ByLayer
370
-1
48
1
60
0
100
AcDbLine
10
-3.89
20
-2.821025
30
0
11
-3.89
21
2.821025
31
0
39
0
210
0
220
0
230
1
0
LINE
5
61
100
AcDbEntity
8
SK1
62
256
6
ByLayer
370
-1
48
1
60
0
100
AcDbLine
10
-3.39
20
-2.955
30
0
11
-3.39
21
2.955
31
0
39
0
210
0
220
0
230
1
0
LINE
5
62
100
AcDbEntity
8
1
62
256
6
ByLayer
370
-1
48
1
60
0
100
AcDbLine
10
6.245941
20
10
30
0
11
6.245941
21
9.981663
31
0
39
0
210
0
220
0
230
1
0
LINE
5
63
100
AcDbEntity
8
1
62
256
6
ByLayer
370
-1
48
1
60
0
100
AcDbLine
10
4.253475
20
9.921567
30
0
11
0.528766
21
9.921567
31
0
39
0
210
0
220
0
230
1
0
LINE
5
64
100
AcDbEntity
8
1
62
256
6
ByLayer
370
-1
48
1
60
0
100
AcDbLine
10
0
20
9.388385
30
0
11
0
21
-9.388385
31
0
39
0
210
0
220
0
230
1
0
LINE
5
65
100
AcDbEntity
8
1
62
256
6
ByLayer
370
-1
48
1
60
0
100
AcDbLine
10
8.92817
20
4.716908
30
0
11
9.061013
21
4.51602
31
0
39
0
210
0
220
0
230
1
0
LINE
5
66
100
AcDbEntity
8
1
62
256
6
ByLayer
370
-1
48
1
60
0
100
AcDbLine
10
8.906023
20
4.476001
30
0
11
8.92817
21
4.716908
31
0
39
0
210
0
220
0
230
1
0
LINE
5
67
100
AcDbEntity
8
1
62
256
6
ByLayer
370
-1
48
1
60
0
100
AcDbLine
10
7.234529
20
11.104628
30
0
11
6.539874
21
-3.121101
31
0
39
0
210
0
220
0
230
1
0
LINE
5
68
100
AcDbEntity
8
1
62
256
6
ByLayer
370
-1
48
1
60
0
100
AcDbLine
10
4.253475
20
-9.921567
30
0
11
4.410722
21
-10
31
0
39
0
210
0
220
0
230
1
0
LINE
5
69
100
AcDbEntity
8
1
62
256
6
ByLayer
370
-1
48
1
60
0
100
AcDbLine
10
9.061013
20
4.51602
30
0
11
9.038866
21
4.275113
31
0
39
0
210
0
220
0
230
1
0
LINE
5
6A
100
AcDbEntity
8
1
62
256
6
ByLayer
370
-1
48
1
60
0
100
AcDbLine
10
0.528766
20
-9.921567
30
0
11
4.253475
21
-9.921567
31
0
39
0
210
0
220
0
230
1
0
LINE
5
6B
100
AcDbEntity
8
1
62
256
6
ByLayer
370
-1
48
1
60
0
100
AcDbLine
10
9.022938
20
3.612813
30
0
11
9.049623
21
3.917829
31
0
39
0
210
0
220
0
230
1
0
LINE
5
6C
100
AcDbEntity
8
1
62
256
6
ByLayer
370
-1
48
1
60
0
100
AcDbLine
10
0.528766
20
-9.921567
30
0
11
0.528766
21
9.921567
31
0
39
0
210
0
220
0
230
1
0
LINE
5
6D
100
AcDbEntity
8
1
62
256
6
ByLayer
370
-1
48
1
60
0
100
AcDbLine
10
6.363431
20
-6.734453
30
0
11
6.333397
21
-7.349518
31
0
39
0
210
0
220
0
230
1
0
LINE
5
6E
100
AcDbEntity
8
1
62
256
6
ByLayer
370
-1
48
1
60
0
100
AcDbLine
10
4.410722
20
10
30
0
11
4.253475
21
9.921567
31
0
39
0
210
0
220
0
230
1
0
LINE
5
6F
100
AcDbEntity
8
1
62
256
6
ByLayer
370
-1
48
1
60
0
100
AcDbLine
10
8.906023
20
4.476001
30
0
11
9.038866
21
4.275113
31
0
39
0
210
0
220
0
230
1
0
LINE
5
70
100
AcDbEntity
8
1
62
256
6
ByLayer
370
-1
48
1
60
0
100
AcDbLine
10
9.034451
20
4.212415
30
0
11
9.061013
21
4.51602
31
0
39
0
210
0
220
0
230
1
0
LINE
5
71
100
AcDbEntity
8
1
62
256
6
ByLayer
370
-1
48
1
60
0
100
AcDbLine
10
6.492934
20
11.038575
30
0
11
6.492934
21
11.03553
31
0
39
0
210
0
220
0
230
1
0
LINE
5
72
100
AcDbEntity
8
1
62
256
6
ByLayer
370
-1
48
1
60
0
100
AcDbLine
10
12.768999
20
-4.101678
30
0
11
14.55107
21
-4.101678
31
0
39
0
210
0
220
0
230
1
0
LINE
5
73
100
AcDbEntity
8
SK1
62
256
6
ByLayer
370
-1
48
1
60
0
100
AcDbLine
10
-0.221234
20
-9.165151
30
0
11
-0.221234
21
9.165151
31
0
39
0
210
0
220
0
230
1
0
LINE
5
74
100
AcDbEntity
8
SK1
62
256
6
ByLayer
370
-1
48
1
60
0
100
AcDbLine
10
0
20
9.388385
30
0
11
0
21
-9.388385
31
0
39
0
210
0
220
0
230
1
0
LINE
5
75
100
AcDbEntity
8
1
62
256
6
ByLayer
370
-1
48
1
60
0
100
AcDbLine
10
10.461676
20
2.621281
30
0
11
11.67359
21
2.725278
31
0
39
0
210
0
220
0
230
1
0
LINE
5
76
100
AcDbEntity
8
1
62
256
6
ByLayer
370
-1
48
1
60
0
100
AcDbLine
10
10.38747
20
11.493987
30
0
11
9.691879
21
3.54335
31
0
39
0
210
0
220
0
230
1
0
LINE
5
77
100
AcDbEntity
8
1
62
256
6
ByLayer
370
-1
48
1
60
0
100
AcDbLine
10
19.136169
20
12.897041
30
0
11
11.108583
21
12.208183
31
0
39
0
210
0
220
0
230
1
0
LINE
5
78
100
AcDbEntity
8
1
62
256
6
ByLayer
370
-1
48
1
60
0
100
AcDbLine
10
19.301422
20
4.093805
30
0
11
19.997012
21
12.044442
31
0
39
0
210
0
220
0
230
1
0
LINE
5
79
100
AcDbEntity
8
1
62
256
6
ByLayer
370
-1
48
1
60
0
100
AcDbLine
10
10.552723
20
2.69075
30
0
11
18.580308
21
3.379609
31
0
39
0
210
0
220
0
230
1
0
LINE
5
7A
100
AcDbEntity
8
1
62
256
6
ByLayer
370
-1
48
1
60
0
100
AcDbLine
10
13.928634
20
8.519019
30
0
11
13.914641
21
8.359073
31
0
39
0
210
0
220
0
230
1
0
LINE
5
7B
100
AcDbEntity
8
1
62
256
6
ByLayer
370
-1
48
1
60
0
100
AcDbLine
10
14.032226
20
8.475531
30
0
11
14.046219
21
8.635476
31
0
39
0
210
0
220
0
230
1
0
LINE
5
7C
100
AcDbEntity
8
1
62
256
6
ByLayer
370
-1
48
1
60
0
100
AcDbLine
10
15.486146
20
6.401319
30
0
11
15.488803
21
6.431687
31
0
39
0
210
0
220
0
230
1
0
LINE
5
7D
100
AcDbEntity
8
1
62
256
6
ByLayer
370
-1
48
1
60
0
100
AcDbLine
10
16.30948
20
7.471714
30
0
11
16.325444
21
7.654177
31
0
39
0
210
0
220
0
230
1
0
LINE
5
7E
100
AcDbEntity
8
1
62
256
6
ByLayer
370
-1
48
1
60
0
100
AcDbLine
10
15.657778
20
8.793381
30
0
11
15.673741
21
8.975844
31
0
39
0
210
0
220
0
230
1
0
LINE
5
7F
100
AcDbEntity
8
1
62
256
6
ByLayer
370
-1
48
1
60
0
100
AcDbLine
10
14.722211
20
9.043783
30
0
11
14.738175
21
9.226245
31
0
39
0
210
0
220
0
230
1
0
LINE
5
80
100
AcDbEntity
8
1
62
256
6
ByLayer
370
-1
48
1
60
0
100
AcDbLine
10
13.488127
20
8.215192
30
0
11
13.50407
21
8.397413
31
0
39
0
210
0
220
0
230
1
0
LINE
5
81
100
AcDbEntity
8
1
62
256
6
ByLayer
370
-1
48
1
60
0
100
AcDbLine
10
13.5937
20
6.749105
30
0
11
13.609664
21
6.931567
31
0
39
0
210
0
220
0
230
1
0
LINE
5
82
100
AcDbEntity
8
1
62
256
6
ByLayer
370
-1
48
1
60
0
100
AcDbLine
10
10.552723
20
2.69075
30
0
11
10.461676
21
2.621281
31
0
39
0
210
0
220
0
230
1
0
LINE
5
83
100
AcDbEntity
8
2
62
256
6
ByLayer
370
-1
48
1
60
1
100
AcDbLine
10
20
20
0
30
0
11
20.001
21
0.001
31
0
39
0
210
0
220
0
230
1
0
MTEXT
5
E0
100
AcDbEntity
8
SK6
62
256
6
ByLayer
370
-1
48
1
60
0
100
AcDbMText
10
10.875
20
-22.325
30
0
210
0
220
0
230
1
1
\W00.730;\fsimplex.shx,bigfont.shx;570-SCLCR-20-09 
40
3.5
41
0
44
1.084337
50
0
71
7
72
5
7
DEFAULT
0
DIMENSION
5
114
100
AcDbEntity
8
SK2
62
256
6
ByLayer
370
-3
48
1
60
0
100
AcDbDimension
2
DimnDraft3D1
10
-9.75
20
10
30
0
11
-9.75
21
-4.784211
31
0
70
32
71
5
72
1
41
1
210
0
220
0
230
1
3
Standard
100
AcDbAlignedDimension
13
-2
23
-10
33
0
14
-2
24
10
34
0
50
90
100
AcDbRotatedDimension
1001
ACAD
1000
DSTYLE
1002
{
1070
    74
1070
     0
1070
   279
1070
     0
1070
   172
1070
     1
1070
   173
1070
     1
1070
   340
1005
E1
1070
    77
1070
     1
1070
    73
1070
     0
1070
   171
1070
     4
1070
   274
1070
     4
1070
   177
1070
     2
1070
   176
1070
     2
1070
   178
1070
     7
1070
    78
1070
     8
1070
    41
1041
3.175
1070
   147
1041
2.25
1070
    42
1041
2.0
1070
    44
1041
2.0
1070
   140
1041
4.5
1070
   343
1005
115
1070
   344
1005
115
1002
}
0
DIMENSION
5
129
100
AcDbEntity
8
2
62
256
6
ByLayer
370
-3
48
1
60
0
100
AcDbDimension
2
DimnDraft3D2
10
32.25
20
0
30
0
11
32.25
21
23.155
31
0
70
32
71
5
72
1
41
1
210
0
220
0
230
1
3
Standard
100
AcDbAlignedDimension
13
22
23
12.9
33
0
14
22
24
0
34
0
50
90
100
AcDbRotatedDimension
1001
ACAD
1000
DSTYLE
1002
{
1070
    74
1070
     0
1070
   279
1070
     0
1070
   172
1070
     1
1070
   173
1070
     1
1070
   340
1005
E1
1070
    77
1070
     1
1070
    73
1070
     0
1070
   171
1070
     4
1070
   274
1070
     4
1070
   177
1070
     2
1070
   176
1070
     2
1070
   178
1070
     7
1070
    78
1070
     8
1070
    41
1041
3.175
1070
   147
1041
2.25
1070
    42
1041
2.0
1070
    44
1041
2.0
1070
   140
1041
4.5
1070
   343
1005
115
1070
   344
1005
115
1002
}
0
DIMENSION
5
137
100
AcDbEntity
8
2
62
256
6
ByLayer
370
-3
48
1
60
0
100
AcDbDimension
2
DimnDraft3D3
10
20
20
25.65
30
0
11
4.836842
21
25.65
31
0
70
32
71
5
72
1
41
1
210
0
220
0
230
1
3
Standard
100
AcDbAlignedDimension
13
0
23
12
33
0
14
20
24
14.9
34
0
50
0
100
AcDbRotatedDimension
1001
ACAD
1000
DSTYLE
1002
{
1070
   279
1070
     0
1070
   172
1070
     1
1070
   173
1070
     1
1070
   340
1005
E1
1070
    77
1070
     1
1070
    73
1070
     0
1070
   171
1070
     4
1070
   274
1070
     4
1070
   177
1070
     2
1070
   176
1070
     2
1070
   178
1070
     7
1070
    78
1070
     8
1070
    41
1041
3.175
1070
   147
1041
2.25
1070
    42
1041
2.0
1070
    44
1041
2.0
1070
   140
1041
4.5
1070
   343
1005
115
1070
   344
1005
115
1002
}
0
DIMENSION
5
145
100
AcDbEntity
8
2
62
256
6
ByLayer
370
-3
48
1
60
0
100
AcDbDimension
2
DimnDraft3D4
10
67.797803
20
0
30
0
11
44.357107
21
-37.243123
31
0
70
34
71
5
72
1
41
1
210
0
220
0
230
1
3
Standard
100
AcDb2LineAngularDimension
13
19.041287
23
1.941858
33
0
14
14.607179
24
-48.740227
34
0
15
22
25
0
35
0
16
47.534261
26
-31.280028
36
0
40
0
0
ENDSEC
0
SECTION
2
OBJECTS
0
DICTIONARY
5
176
330
0
100
AcDbDictionary
280
0
281
1
3
ACAD_GROUP
350
177
3
ACAD_MLINESTYLE
350
178
0
DICTIONARY
5
177
330
0
100
AcDbDictionary
280
0
281
1
0
DICTIONARY
5
178
330
0
100
AcDbDictionary
280
0
281
1
3
Standard
350
18
0
MLINESTYLE
5
18
330
178
100
AcDbMlineStyle
2
Standard
70
0
3

62
256
51
90
52
90
71
2
49
-0.5
62
256
6
ByLayer
49
0.5
62
256
6
ByLayer
0
RASTERVARIABLES
5
164
330

100
AcDbRasterVariables
90
0
70
1
71
1
72
1
0
ENDSEC
0
EOF
