0
SECTION
2
HEADER
9
$ACADVER
1
AC1015
9
$DWGCODEPAGE
3
ANSI_1252
9
$HANDSEED
5
190
9
$ANGBASE
50
0
9
$ANGDIR
70
0
9
$ATTMODE
70
1
9
$AUNITS
70
0
9
$AUPREC
70
0
9
$CECOLOR
62
256
9
$CELTSCALE
40
1
9
$CELTYPE
6
ByLayer
9
$CELWEIGHT
370
18
9
$CLAYER
8
0
9
$CMLJUST
70
0
9
$CMLSCALE
40
1
9
$CMLSTYLE
2
Standard
9
$DIMSTYLE
2
Standard
9
$TEXTSIZE
40
0.2
9
$TEXTSTYLE
7
Standard
9
$LUNITS
70
2
9
$LUPREC
70
4
9
$EXTNAMES
290
1
9
$INSUNITS
70
4
9
$LTSCALE
40
1
9
$LWDISPLAY
290
1
9
$PDMODE
70
0
9
$PDSIZE
40
0
9
$PLINEGEN
70
0
0
ENDSEC
0
SECTION
2
CLASSES
0
CLASS
1
RASTERVARIABLES
2
AcDbRasterVariables
3
ISM
90
0
280
0
281
0
0
ENDSEC
0
SECTION
2
TABLES
0
TABLE
2
VPORT
5
186
100
AcDbSymbolTable
0
VPORT
5
1
100
AcDbSymbolTableRecord
100
AcDbViewportTableRecord
2
*Active
70
0
10
0
20
0
11
1
21
1
12
-1
22
1
13
0
23
0
14
0.5
24
0.5
15
10
25
10
16
0
26
0
36
1
17
0
27
0
37
0
0
ENDTAB
0
TABLE
2
LTYPE
5
187
100
AcDbSymbolTable
0
LTYPE
5
14
100
AcDbSymbolTableRecord
100
AcDbLinetypeTableRecord
70
0
2
ByBlock
3

72
65
73
0
40
0
0
LTYPE
5
15
100
AcDbSymbolTableRecord
100
AcDbLinetypeTableRecord
70
0
2
ByLayer
3

72
65
73
0
40
0
0
LTYPE
5
16
100
AcDbSymbolTableRecord
100
AcDbLinetypeTableRecord
70
0
2
CONTINUOUS
3
Solid line
72
65
73
0
40
0
0
LTYPE
5
6A
100
AcDbSymbolTableRecord
100
AcDbLinetypeTableRecord
70
0
2
CENTER
3
____ _ ____ _ ____ _ ____
72
65
73
4
40
47.5
49
22
74
0
49
-8.5
74
0
49
8.5
74
0
49
-8.5
74
0
0
LTYPE
5
6B
100
AcDbSymbolTableRecord
100
AcDbLinetypeTableRecord
70
0
2
DASHED
3
__ __ __ __ __ __ __ __ __
72
65
73
2
40
25.72
49
12.86
74
0
49
-12.86
74
0
0
ENDTAB
0
TABLE
2
LAYER
5
188
100
AcDbSymbolTable
0
LAYER
5
10
100
AcDbSymbolTableRecord
100
AcDbLayerTableRecord
2
0
70
0
62
7
6
CONTINUOUS
290
1
370
-3
390
0
0
LAYER
5
6D
100
AcDbSymbolTableRecord
100
AcDbLayerTableRecord
2
80
70
0
62
-6
6
CONTINUOUS
290
1
370
-3
390
0
0
LAYER
5
6F
100
AcDbSymbolTableRecord
100
AcDbLayerTableRecord
2
1
70
0
62
4
6
CONTINUOUS
290
1
370
-3
390
0
0
LAYER
5
72
100
AcDbSymbolTableRecord
100
AcDbLayerTableRecord
2
81
70
0
62
-3
6
CONTINUOUS
290
1
370
-3
390
0
0
LAYER
5
B2
100
AcDbSymbolTableRecord
100
AcDbLayerTableRecord
2
4
70
0
62
-2
6
CENTER
290
1
370
-3
390
0
0
LAYER
5
EA
100
AcDbSymbolTableRecord
100
AcDbLayerTableRecord
2
2
70
0
62
7
6
CONTINUOUS
290
1
370
-3
390
0
0
LAYER
5
173
100
AcDbSymbolTableRecord
100
AcDbLayerTableRecord
2
SK4
70
0
62
2
6
CENTER
290
1
370
-3
390
0
0
LAYER
5
174
100
AcDbSymbolTableRecord
100
AcDbLayerTableRecord
2
SK6
70
0
62
5
6
CONTINUOUS
290
1
370
-3
390
0
0
LAYER
5
175
100
AcDbSymbolTableRecord
100
AcDbLayerTableRecord
2
SK2
70
0
62
7
6
CONTINUOUS
290
1
370
-3
390
0
0
ENDTAB
0
TABLE
2
STYLE
5
189
100
AcDbSymbolTable
0
STYLE
5
11
100
AcDbSymbolTableRecord
100
AcDbTextStyleTableRecord
2
Standard
3
txt
70
0
71
0
40
0
41
1
42
0
50
0
0
STYLE
5
D5
100
AcDbSymbolTableRecord
100
AcDbTextStyleTableRecord
2
iso_b_vert
3
simplex.shx
70
0
71
0
40
0
41
1
42
0
50
0
0
STYLE
5
D6
100
AcDbSymbolTableRecord
100
AcDbTextStyleTableRecord
2
DWGDirectTextStyle
3
simplex
70
0
71
0
40
0
41
1
42
0
50
0
0
ENDTAB
0
TABLE
2
DIMSTYLE
5
18a
100
AcDbSymbolTable
100
AcDbDimStyleTable
0
DIMSTYLE
105
27
100
AcDbSymbolTableRecord
100
AcDbDimStyleTableRecord
2
Standard
70
0
3
<>
41
0.18
42
0.0625
44
0.18
140
0.18
147
0.09
73
0
74
0
77
1
271
2
275
0
278
52
280
0
340
11
0
ENDTAB
0
TABLE
2
VIEW
5
18b
100
AcDbSymbolTable
0
ENDTAB
0
TABLE
2
UCS
5
18c
100
AcDbSymbolTable
0
ENDTAB
0
TABLE
2
APPID
5
18d
100
AcDbSymbolTable
0
APPID
5
12
100
AcDbSymbolTableRecord
100
AcDbRegAppTableRecord
2
ACAD
70
0
0
ENDTAB
0
TABLE
2
BLOCK_RECORD
5
18e
100
AcDbSymbolTable
0
BLOCK_RECORD
5
1F
100
AcDbSymbolTableRecord
100
AcDbBlockTableRecord
2
*Model_Space
340
0
70
0
0
BLOCK_RECORD
5
1B
100
AcDbSymbolTableRecord
100
AcDbBlockTableRecord
2
*Paper_Space
340
0
70
0
0
BLOCK_RECORD
5
23
100
AcDbSymbolTableRecord
100
AcDbBlockTableRecord
2
*Paper_Space0
340
0
70
0
0
BLOCK_RECORD
5
D8
100
AcDbSymbolTableRecord
100
AcDbBlockTableRecord
2
DimnDraft3D1
340
0
70
0
0
BLOCK_RECORD
5
E8
100
AcDbSymbolTableRecord
100
AcDbBlockTableRecord
2
DimnDraft3D2
340
0
70
0
0
BLOCK_RECORD
5
F7
100
AcDbSymbolTableRecord
100
AcDbBlockTableRecord
2
_CLOSED
340
0
70
0
0
BLOCK_RECORD
5
FE
100
AcDbSymbolTableRecord
100
AcDbBlockTableRecord
2
DimnDraft3D3
340
0
70
0
0
BLOCK_RECORD
5
10C
100
AcDbSymbolTableRecord
100
AcDbBlockTableRecord
2
DimnDraft3D4
340
0
70
0
0
ENDTAB
0
ENDSEC
0
SECTION
2
BLOCKS
0
BLOCK
5
20
100
AcDbEntity
8
0
100
AcDbBlockBegin
2
*Model_Space
70
0
10
0
20
0
30
0
3
*Model_Space
0
ENDBLK
5
21
100
AcDbEntity
8
0
100
AcDbBlockEnd
0
BLOCK
5
1C
100
AcDbEntity
8
0
100
AcDbBlockBegin
2
*Paper_Space
70
0
10
0
20
0
30
0
3
*Paper_Space
0
ENDBLK
5
1D
100
AcDbEntity
8
0
100
AcDbBlockEnd
0
BLOCK
5
24
100
AcDbEntity
8
0
100
AcDbBlockBegin
2
*Paper_Space0
70
0
10
0
20
0
30
0
3
*Paper_Space0
0
ENDBLK
5
25
100
AcDbEntity
8
0
100
AcDbBlockEnd
0
BLOCK
5
E5
100
AcDbEntity
8
0
100
AcDbBlockBegin
2
DimnDraft3D1
70
0
10
0
20
0
30
0
3
DimnDraft3D1
0
MTEXT
5
D9
100
AcDbEntity
8
SK2
62
256
6
ByLayer
370
18
48
1
60
0
100
AcDbMText
10
-9.716571
20
3.205822
30
0
210
0
220
0
230
1
1
\W0.7183;40
40
3.50012
41
0
44
1.084337
50
90
71
7
72
5
7
iso_b_vert
0
MTEXT
5
DB
100
AcDbEntity
8
SK2
62
256
6
ByLayer
370
18
48
1
60
0
100
AcDbMText
10
-9.716571
20
-5.517134
30
0
210
0
220
0
230
1
1
%%c
40
3.50012
41
0
44
1.084337
50
90
71
7
72
5
7
iso_b_vert
0
LINE
5
DC
100
AcDbEntity
8
SK2
62
256
6
ByLayer
370
13
48
1
60
0
100
AcDbLine
10
-1.9125
20
-20
30
0
11
-11.141511
21
-20
31
0
39
0
210
0
220
0
230
1
0
LINE
5
DD
100
AcDbEntity
8
SK2
62
256
6
ByLayer
370
13
48
1
60
0
100
AcDbLine
10
-1.9125
20
20
30
0
11
-11.141511
21
20
31
0
39
0
210
0
220
0
230
1
0
LINE
5
DE
100
AcDbEntity
8
SK2
62
256
6
ByLayer
370
13
48
1
60
0
100
AcDbLine
10
-7.966511
20
-20
30
0
11
-7.966511
21
20
31
0
39
0
210
0
220
0
230
1
0
LINE
5
DF
100
AcDbEntity
8
SK2
62
256
6
ByLayer
370
13
48
1
60
0
100
AcDbLine
10
-7.966511
20
-20
30
0
11
-8.384507
21
-16.825002
31
0
39
0
210
0
220
0
230
1
0
LINE
5
E0
100
AcDbEntity
8
SK2
62
256
6
ByLayer
370
13
48
1
60
0
100
AcDbLine
10
-7.966511
20
-20
30
0
11
-7.548514
21
-16.824998
31
0
39
0
210
0
220
0
230
1
0
LINE
5
E1
100
AcDbEntity
8
SK2
62
256
6
ByLayer
370
13
48
1
60
0
100
AcDbLine
10
-8.384507
20
-16.825002
30
0
11
-7.548514
21
-16.824998
31
0
39
0
210
0
220
0
230
1
0
LINE
5
E2
100
AcDbEntity
8
SK2
62
256
6
ByLayer
370
13
48
1
60
0
100
AcDbLine
10
-7.966511
20
20
30
0
11
-7.548514
21
16.825002
31
0
39
0
210
0
220
0
230
1
0
LINE
5
E3
100
AcDbEntity
8
SK2
62
256
6
ByLayer
370
13
48
1
60
0
100
AcDbLine
10
-7.966511
20
20
30
0
11
-8.384507
21
16.824998
31
0
39
0
210
0
220
0
230
1
0
LINE
5
E4
100
AcDbEntity
8
SK2
62
256
6
ByLayer
370
13
48
1
60
0
100
AcDbLine
10
-7.548514
20
16.825002
30
0
11
-8.384507
21
16.824998
31
0
39
0
210
0
220
0
230
1
0
ENDBLK
5
E6
100
AcDbEntity
8
0
100
AcDbBlockEnd
0
BLOCK
5
F4
100
AcDbEntity
8
0
100
AcDbBlockBegin
2
DimnDraft3D2
70
0
10
0
20
0
30
0
3
DimnDraft3D2
0
MTEXT
5
E9
100
AcDbEntity
8
2
62
256
6
ByLayer
370
18
48
1
60
0
100
AcDbMText
10
16.679482
20
39.955721
30
0
210
0
220
0
230
1
1
\W0.6562;36
40
3.50012
41
0
44
1.084337
50
0
71
7
72
5
7
iso_b_vert
0
LINE
5
EB
100
AcDbEntity
8
2
62
256
6
ByLayer
370
13
48
1
60
0
100
AcDbLine
10
36.023519
20
29.131353
30
0
11
36.023519
21
42.255691
31
0
39
0
210
0
220
0
230
1
0
LINE
5
EC
100
AcDbEntity
8
2
62
256
6
ByLayer
370
13
48
1
60
0
100
AcDbLine
10
-0.325
20
21.5875
30
0
11
-0.325
21
42.255691
31
0
39
0
210
0
220
0
230
1
0
LINE
5
ED
100
AcDbEntity
8
2
62
256
6
ByLayer
370
13
48
1
60
0
100
AcDbLine
10
36.023519
20
39.080691
30
0
11
-0.325
21
39.080691
31
0
39
0
210
0
220
0
230
1
0
LINE
5
EE
100
AcDbEntity
8
2
62
256
6
ByLayer
370
13
48
1
60
0
100
AcDbLine
10
36.023519
20
39.080691
30
0
11
32.84852
21
38.662694
31
0
39
0
210
0
220
0
230
1
0
LINE
5
EF
100
AcDbEntity
8
2
62
256
6
ByLayer
370
13
48
1
60
0
100
AcDbLine
10
36.023519
20
39.080691
30
0
11
32.848517
21
39.498688
31
0
39
0
210
0
220
0
230
1
0
LINE
5
F0
100
AcDbEntity
8
2
62
256
6
ByLayer
370
13
48
1
60
0
100
AcDbLine
10
32.84852
20
38.662694
30
0
11
32.848517
21
39.498688
31
0
39
0
210
0
220
0
230
1
0
LINE
5
F1
100
AcDbEntity
8
2
62
256
6
ByLayer
370
13
48
1
60
0
100
AcDbLine
10
-0.325
20
39.080691
30
0
11
2.849998
21
39.498688
31
0
39
0
210
0
220
0
230
1
0
LINE
5
F2
100
AcDbEntity
8
2
62
256
6
ByLayer
370
13
48
1
60
0
100
AcDbLine
10
-0.325
20
39.080691
30
0
11
2.850002
21
38.662694
31
0
39
0
210
0
220
0
230
1
0
LINE
5
F3
100
AcDbEntity
8
2
62
256
6
ByLayer
370
13
48
1
60
0
100
AcDbLine
10
2.849998
20
39.498688
30
0
11
2.850002
21
38.662694
31
0
39
0
210
0
220
0
230
1
0
ENDBLK
5
F5
100
AcDbEntity
8
0
100
AcDbBlockEnd
0
BLOCK
5
F8
100
AcDbEntity
8
0
100
AcDbBlockBegin
2
_CLOSED
70
0
10
0
20
0
30
0
3
_CLOSED
0
LINE
5
FA
100
AcDbEntity
8
0
62
256
6
ByLayer
370
-2
48
1
60
0
100
AcDbLine
10
-1
20
0.166667
30
0
11
0
21
0
31
0
39
0
210
0
220
0
230
1
0
LINE
5
FB
100
AcDbEntity
8
0
62
256
6
ByLayer
370
-2
48
1
60
0
100
AcDbLine
10
0
20
0
30
0
11
-1
21
-0.166667
31
0
39
0
210
0
220
0
230
1
0
LINE
5
FC
100
AcDbEntity
8
0
62
256
6
ByLayer
370
-2
48
1
60
0
100
AcDbLine
10
-1
20
0.166667
30
0
11
-1
21
-0.166667
31
0
39
0
210
0
220
0
230
1
0
LINE
5
FD
100
AcDbEntity
8
0
62
256
6
ByLayer
370
-2
48
1
60
0
100
AcDbLine
10
0
20
0
30
0
11
-1
21
0
31
0
39
0
210
0
220
0
230
1
0
ENDBLK
5
F9
100
AcDbEntity
8
0
100
AcDbBlockEnd
0
BLOCK
5
109
100
AcDbEntity
8
0
100
AcDbBlockBegin
2
DimnDraft3D3
70
0
10
0
20
0
30
0
3
DimnDraft3D3
0
MTEXT
5
FF
100
AcDbEntity
8
2
62
256
6
ByLayer
370
18
48
1
60
0
100
AcDbMText
10
58.039292
20
11.967634
30
0
210
0
220
0
230
1
1
\W0.6562;27
40
3.50012
41
0
44
1.084337
50
90
71
7
72
5
7
iso_b_vert
0
LINE
5
100
100
AcDbEntity
8
2
62
256
6
ByLayer
370
13
48
1
60
0
100
AcDbLine
10
37.820657
20
0
30
0
11
62.089322
21
0
31
0
39
0
210
0
220
0
230
1
0
LINE
5
101
100
AcDbEntity
8
2
62
256
6
ByLayer
370
13
48
1
60
0
100
AcDbLine
10
37.611019
20
27.543853
30
0
11
62.089322
21
27.543853
31
0
39
0
210
0
220
0
230
1
0
LINE
5
102
100
AcDbEntity
8
2
62
256
6
ByLayer
370
13
48
1
60
0
100
AcDbLine
10
58.914322
20
0
30
0
11
58.914322
21
27.543853
31
0
39
0
210
0
220
0
230
1
0
LINE
5
103
100
AcDbEntity
8
2
62
256
6
ByLayer
370
13
48
1
60
0
100
AcDbLine
10
58.914322
20
0
30
0
11
58.496326
21
3.174998
31
0
39
0
210
0
220
0
230
1
0
LINE
5
104
100
AcDbEntity
8
2
62
256
6
ByLayer
370
13
48
1
60
0
100
AcDbLine
10
58.914322
20
0
30
0
11
59.332319
21
3.175002
31
0
39
0
210
0
220
0
230
1
0
LINE
5
105
100
AcDbEntity
8
2
62
256
6
ByLayer
370
13
48
1
60
0
100
AcDbLine
10
58.496326
20
3.174998
30
0
11
59.332319
21
3.175002
31
0
39
0
210
0
220
0
230
1
0
LINE
5
106
100
AcDbEntity
8
2
62
256
6
ByLayer
370
13
48
1
60
0
100
AcDbLine
10
58.914322
20
27.543853
30
0
11
59.332319
21
24.368855
31
0
39
0
210
0
220
0
230
1
0
LINE
5
107
100
AcDbEntity
8
2
62
256
6
ByLayer
370
13
48
1
60
0
100
AcDbLine
10
58.914322
20
27.543853
30
0
11
58.496326
21
24.368852
31
0
39
0
210
0
220
0
230
1
0
LINE
5
108
100
AcDbEntity
8
2
62
256
6
ByLayer
370
13
48
1
60
0
100
AcDbLine
10
59.332319
20
24.368855
30
0
11
58.496326
21
24.368852
31
0
39
0
210
0
220
0
230
1
0
ENDBLK
5
10A
100
AcDbEntity
8
0
100
AcDbBlockEnd
0
BLOCK
5
117
100
AcDbEntity
8
0
100
AcDbBlockBegin
2
DimnDraft3D4
70
0
10
0
20
0
30
0
3
DimnDraft3D4
0
MTEXT
5
10D
100
AcDbEntity
8
SK2
62
256
6
ByLayer
370
18
48
1
60
0
100
AcDbMText
10
44.433249
20
12.748677
30
0
210
0
220
0
230
1
1
\W0.7449;91%%d0'
40
3.50012
41
0
44
1.084337
50
42.252525883491
71
7
72
5
7
iso_b_vert
0
LINE
5
10E
100
AcDbEntity
8
SK2
62
256
6
ByLayer
370
13
48
1
60
0
100
AcDbLine
10
35.735898
20
11.066073
30
0
11
35.663023
21
6.891053
31
0
39
0
210
0
220
0
230
1
0
LINE
5
10F
100
AcDbEntity
8
SK2
62
256
6
ByLayer
370
13
48
1
60
0
100
AcDbLine
10
37.611019
20
27.543853
30
0
11
56.679466
21
27.543853
31
0
39
0
210
0
220
0
230
1
0
ARC
5
110
100
AcDbEntity
8
SK2
62
256
6
ByLayer
370
13
48
1
60
0
100
AcDbCircle
39
0
10
36.023519
20
27.543853
30
0
40
17.480946840988
210
0
220
0
230
1
100
AcDbArc
50
269
51
0
0
LINE
5
111
100
AcDbEntity
8
SK2
62
256
6
ByLayer
370
13
48
1
60
0
100
AcDbLine
10
35.718434
20
10.065569
30
0
11
38.880572
21
10.57175
31
0
39
0
210
0
220
0
230
1
0
LINE
5
112
100
AcDbEntity
8
SK2
62
256
6
ByLayer
370
13
48
1
60
0
100
AcDbLine
10
35.718434
20
10.065569
30
0
11
38.903837
21
9.73608
31
0
39
0
210
0
220
0
230
1
0
LINE
5
113
100
AcDbEntity
8
SK2
62
256
6
ByLayer
370
13
48
1
60
0
100
AcDbLine
10
38.880572
20
10.57175
30
0
11
38.903837
21
9.73608
31
0
39
0
210
0
220
0
230
1
0
LINE
5
114
100
AcDbEntity
8
SK2
62
256
6
ByLayer
370
13
48
1
60
0
100
AcDbLine
10
53.504466
20
27.543853
30
0
11
53.778312
21
24.353188
31
0
39
0
210
0
220
0
230
1
0
LINE
5
115
100
AcDbEntity
8
SK2
62
256
6
ByLayer
370
13
48
1
60
0
100
AcDbLine
10
53.504466
20
27.543853
30
0
11
52.943175
21
24.391028
31
0
39
0
210
0
220
0
230
1
0
LINE
5
116
100
AcDbEntity
8
SK2
62
256
6
ByLayer
370
13
48
1
60
0
100
AcDbLine
10
53.778312
20
24.353188
30
0
11
52.943175
21
24.391028
31
0
39
0
210
0
220
0
230
1
0
ENDBLK
5
118
100
AcDbEntity
8
0
100
AcDbBlockEnd
0
ENDSEC
0
SECTION
2
ENTITIES
0
ARC
5
B5
100
AcDbEntity
8
1
62
256
6
ByLayer
370
18
48
1
60
0
100
AcDbCircle
39
0
10
-17.194737
20
-14.855146
30
0
40
9.99999999999934
210
0
220
0
230
-1
100
AcDbArc
50
5
51
17.239236
0
ARC
5
B6
100
AcDbEntity
8
1
62
256
6
ByLayer
370
18
48
1
60
0
100
AcDbCircle
39
0
10
-29.010237
20
1.144854
30
0
40
5.99999999999978
210
0
220
0
230
-1
100
AcDbArc
50
195.023664
51
270
0
ARC
5
B7
100
AcDbEntity
8
1
62
256
6
ByLayer
370
18
48
1
60
0
100
AcDbCircle
39
0
10
-17.194737
20
-14.855146
30
0
40
10.0000000000001
210
0
220
0
230
-1
100
AcDbArc
50
17.239236
51
90
0
ARC
5
B8
100
AcDbEntity
8
1
62
256
6
ByLayer
370
18
48
1
60
0
100
AcDbCircle
39
0
10
15.330963
20
11.884225
30
0
40
1.47707209152501
210
0
220
0
230
1
100
AcDbArc
50
126.987695
51
216.119189
0
ARC
5
B9
100
AcDbEntity
8
1
62
256
6
ByLayer
370
18
48
1
60
0
100
AcDbCircle
39
0
10
20.904589
20
5.578938
30
0
40
1.58964907697442
210
0
220
0
230
1
100
AcDbArc
50
230.288698
51
310.926323
0
ELLIPSE
5
BA
100
AcDbEntity
8
1
62
256
6
ByLayer
370
18
48
1
60
0
100
AcDbEllipse
10
25.176432
20
12.452459
30
0
11
2.26161170326661
21
-2.01560536145475
31
0
210
0
220
0
230
-1
40
0.196272
41
-1.60507349519063
42
-0.418249603833815
0
ELLIPSE
5
BB
100
AcDbEntity
8
1
62
256
6
ByLayer
370
18
48
1
60
0
100
AcDbEllipse
10
22.870595
20
15.121682
30
0
11
1.60685629491397
21
-2.56795243803199
31
0
210
0
220
0
230
-1
40
0.179426
41
-2.84555005509796
42
-1.65872616374236
0
ELLIPSE
5
BC
100
AcDbEntity
8
1
62
256
6
ByLayer
370
18
48
1
60
0
100
AcDbEllipse
10
27.001454
20
15.2042
30
0
11
2.26568747989613
21
-2.00065018230088
31
0
210
0
220
0
230
-1
40
0.459048
41
-1.10441511436818
42
-0.453677588304217
0
ELLIPSE
5
BD
100
AcDbEntity
8
1
62
256
6
ByLayer
370
18
48
1
60
0
100
AcDbEllipse
10
25.908073
20
16.469891
30
0
11
1.47877600489208
21
-2.62292737183981
31
0
210
0
220
0
230
-1
40
0.441869
41
-2.82872324124492
42
-2.17798571518147
0
ELLIPSE
5
BE
100
AcDbEntity
8
1
62
256
6
ByLayer
370
18
48
1
60
0
100
AcDbEllipse
10
34.331717
20
21.500973
30
0
11
2.2794576615773
21
5.58793861525142
31
0
210
0
220
0
230
-1
40
0.221779
41
-3.03261685912183
42
-1.93105326322369
0
ELLIPSE
5
BF
100
AcDbEntity
8
1
62
256
6
ByLayer
370
18
48
1
60
0
100
AcDbEllipse
10
33.876823
20
22.027556
30
0
11
6.34578452591941
21
0.899947461985354
31
0
210
0
220
0
230
-1
40
0.139504
41
1.95401478167847
42
3.05557837757634
0
ELLIPSE
5
C0
100
AcDbEntity
8
1
62
256
6
ByLayer
370
18
48
1
60
0
100
AcDbEllipse
10
23.255617
20
19.868989
30
0
11
-0.674828350734126
21
0.418381042884903
31
0
210
0
220
0
230
1
40
0.979574
41
-0.518700075675781
42
2.21807666727046E-05
0
ELLIPSE
5
C1
100
AcDbEntity
8
1
62
256
6
ByLayer
370
18
48
1
60
0
100
AcDbEllipse
10
35.21047
20
26.217681
30
0
11
-0.674828350734126
21
0.418381042884903
31
0
210
0
220
0
230
1
40
0.979574
41
-2.61309517806896
42
-0.518700075675813
0
ELLIPSE
5
C2
100
AcDbEntity
8
1
62
256
6
ByLayer
370
18
48
1
60
0
100
AcDbEllipse
10
34.974191
20
12.681308
30
0
11
-0.674828350734126
21
0.418381042884903
31
0
210
0
220
0
230
1
40
0.979574
41
1.85745702257217
42
-2.61309517806898
0
ELLIPSE
5
C3
100
AcDbEntity
8
1
62
256
6
ByLayer
370
18
48
1
60
0
100
AcDbEllipse
10
34.46984
20
11.867814
30
0
11
0.674828350734127
21
-0.418381042884902
31
0
210
0
220
0
230
1
40
0.979574
41
-0.272739475345342
42
-1.02569621714958E-05
0
ELLIPSE
5
C4
100
AcDbEntity
8
1
62
256
6
ByLayer
370
18
48
1
60
0
100
AcDbEllipse
10
8.595031
20
0
30
0
11
1.7220156095959
21
19.999983488611
31
0
210
0
220
0
230
-1
40
0.014924
41
-2.5512259062558
42
-0.228859882521674
0
ELLIPSE
5
C5
100
AcDbEntity
8
1
62
256
6
ByLayer
370
18
48
1
60
0
100
AcDbEllipse
10
15.051627
20
-2.6E-05
30
0
11
3.46100396390746
21
-19.8056334238177
31
0
210
0
220
0
230
-1
40
0.80373
41
3.05355573664151
42
3.06850718038032
0
ELLIPSE
5
C6
100
AcDbEntity
8
1
62
256
6
ByLayer
370
18
48
1
60
0
100
AcDbEllipse
10
23.271776
20
19.895051
30
0
11
0.674828350734127
21
-0.418381042884902
31
0
210
0
220
0
230
1
40
0.979574
41
2.62289257791402
42
-1.56589762687244
0
ELLIPSE
5
C7
100
AcDbEntity
8
1
62
256
6
ByLayer
370
18
48
1
60
0
100
AcDbEllipse
10
34.974191
20
12.681308
30
0
11
-0.674828350734126
21
0.418381042884903
31
0
210
0
220
0
230
1
40
0.979574
41
1.85743561764959
42
2.15473782126012
0
POINT
5
6C
100
AcDbEntity
8
80
62
256
6
ByLayer
370
18
48
1
60
0
100
AcDbPoint
10
0
20
0
30
0
39
0
210
0
220
0
230
1
50
360
0
POINT
5
6E
100
AcDbEntity
8
1
62
256
6
ByLayer
370
13
48
1
60
1
100
AcDbPoint
10
194.026374
20
141.488016
30
0
39
0
210
0
220
0
230
1
50
360
0
POINT
5
70
100
AcDbEntity
8
1
62
256
6
ByLayer
370
13
48
1
60
1
100
AcDbPoint
10
194.026374
20
126.866429
30
0
39
0
210
0
220
0
230
1
50
360
0
POINT
5
71
100
AcDbEntity
8
81
62
256
6
ByLayer
370
18
48
1
60
0
100
AcDbPoint
10
36.023519
20
27.543853
30
0
39
0
210
0
220
0
230
1
50
360
0
SPLINE
5
C8
100
AcDbEntity
8
1
62
256
6
ByLayer
370
18
48
1
60
0
100
AcDbSpline
70
4
71
3
72
20
73
16
40
0
40
0
40
0
40
0
40
0.250000000000001
40
0.250000000000001
40
0.375000000000001
40
0.375000000000001
40
0.500000000000001
40
0.500000000000001
40
0.750000000000001
40
0.750000000000001
40
0.875
40
0.875
40
0.9375
40
0.9375
40
1
40
1
40
1
40
1
41
1
10
21.1918222282705
20
6.15346002555765
30
-5E-16
41
1
10
21.2645373600298
20
6.43906304643556
30
-5E-16
41
1
10
21.3314747256927
20
6.73777535502288
30
-5E-16
41
1
10
21.4269040442918
20
7.2008381054271
30
-5E-16
41
1
10
21.4578509247858
20
7.35774156152669
30
-5E-16
41
1
10
21.5183675694446
20
7.67630411070317
30
-5E-16
41
1
10
21.5476608097076
20
7.83653084125424
30
-5E-16
41
1
10
21.6326134430294
20
8.31632642252572
30
-5E-16
41
1
10
21.6856693749154
20
8.63653339886085
30
-4E-16
41
1
10
21.7615060318651
20
9.11712974736469
30
-4E-16
41
1
10
21.7861499697739
20
9.27737737061662
30
-4E-16
41
1
10
21.8222996783817
20
9.51780029460173
30
-4E-16
41
1
10
21.8342132244758
20
9.59794987855852
30
-4E-16
41
1
10
21.8577871250958
20
9.75826285253333
30
-4E-16
41
1
10
21.8695313175985
20
9.83900940930803
30
-4E-16
41
1
10
21.8809751657761
20
9.91849038963468
30
-4E-16
0
SPLINE
5
C9
100
AcDbEntity
8
1
62
256
6
ByLayer
370
18
48
1
60
0
100
AcDbSpline
70
4
71
3
72
22
73
18
40
0
40
0
40
0
40
0
40
0.0625000000000019
40
0.0625000000000019
40
0.125000000000004
40
0.125000000000004
40
0.250000000000004
40
0.250000000000004
40
0.500000000000001
40
0.500000000000001
40
0.625000000000001
40
0.625000000000001
40
0.750000000000001
40
0.750000000000001
40
0.875
40
0.875
40
1
40
1
40
1
40
1
41
1
10
19.7686745520794
20
5.37218612093562
30
3E-16
41
1
10
19.7886617537474
20
5.37499104072222
30
3E-16
41
1
10
19.8098331337579
20
5.37853735929104
30
3E-16
41
1
10
19.8534649221735
20
5.38703245841438
30
3E-16
41
1
10
19.8761092035572
20
5.39200937458693
30
3E-16
41
1
10
19.9461336983395
20
5.40914381118645
30
3E-16
41
1
10
19.9956037196737
20
5.42349373931606
30
-6E-16
41
1
10
20.1517419138606
20
5.47595106590978
30
-5E-16
41
1
10
20.2660970716872
20
5.52333684896371
30
-5E-16
41
1
10
20.4514788924777
20
5.6173655312634
30
-5E-16
41
1
10
20.5155204979198
20
5.65256124407139
30
-5E-16
41
1
10
20.6455660894325
20
5.7301869633045
30
-5E-16
41
1
10
20.7118397937258
20
5.77274456392809
30
-5E-16
41
1
10
20.8463646899938
20
5.86611666468801
30
-5E-16
41
1
10
20.9146183888159
20
5.91692664696927
30
-5E-16
41
1
10
21.0525277095493
20
6.02792369733731
30
-5E-16
41
1
10
21.1226137833486
20
6.08852047597827
30
-5E-16
41
1
10
21.1918222282705
20
6.15346002555765
30
-5E-16
0
SPLINE
5
CA
100
AcDbEntity
8
1
62
256
6
ByLayer
370
18
48
1
60
0
100
AcDbSpline
70
4
71
3
72
22
73
18
40
0
40
0
40
0
40
0
40
0.125000000000002
40
0.125000000000002
40
0.250000000000002
40
0.250000000000002
40
0.375000000000003
40
0.375000000000003
40
0.500000000000003
40
0.500000000000003
40
0.750000000000003
40
0.750000000000003
40
0.875000000000002
40
0.875000000000002
40
0.937500000000001
40
0.937500000000001
40
1
40
1
40
1
40
1
41
1
10
15.7975399492371
20
12.3978456864563
30
-8E-16
41
1
10
15.7282794741513
20
12.3329663666523
30
-8E-16
41
1
10
15.663545946583
20
12.2661735157249
30
-8E-16
41
1
10
15.5449559966283
20
12.132812488904
30
-8E-16
41
1
10
15.4906618101456
20
12.0658430670206
30
-8E-16
41
1
10
15.3910335412899
20
11.9320748600587
30
-8E-16
41
1
10
15.3457035856828
20
11.8652729138083
30
-8E-16
41
1
10
15.2633324662332
20
11.7324595395096
30
-8E-16
41
1
10
15.2261576759319
20
11.6661629783327
30
-8E-16
41
1
10
15.1275862894036
20
11.4716431087197
30
-9E-16
41
1
10
15.0790118425404
20
11.348110007625
30
0
41
1
10
15.0278162249773
20
11.1741718450664
30
0
41
1
10
15.0143964178833
20
11.1180904262157
30
0
41
1
10
14.999481760576
20
11.0371612044897
30
0
41
1
10
14.9953829513792
20
11.0107161717803
30
0
41
1
10
14.9889210743949
20
10.9591934278375
30
0
41
1
10
14.9865409533295
20
10.9338944715984
30
0
41
1
10
14.9850220288255
20
10.9097107957253
30
0
0
SPLINE
5
CB
100
AcDbEntity
8
1
62
256
6
ByLayer
370
18
48
1
60
0
100
AcDbSpline
70
4
71
3
72
20
73
16
40
0
40
0
40
0
40
0
40
0.0625000000000012
40
0.0625000000000012
40
0.125000000000003
40
0.125000000000003
40
0.250000000000003
40
0.250000000000003
40
0.500000000000003
40
0.500000000000003
40
0.625000000000001
40
0.625000000000001
40
0.75
40
0.75
40
1
40
1
40
1
40
1
41
1
10
19.5751375886821
20
12.5877127917941
30
-6E-16
41
1
10
19.49388886781
20
12.5890374726409
30
-6E-16
41
1
10
19.4114462459941
20
12.5901309523002
30
-6E-16
41
1
10
19.2479610626376
20
12.5917783583215
30
-6E-16
41
1
10
19.1663222844862
20
12.5923422440609
30
-6E-16
41
1
10
18.9217152208334
20
12.5932281822039
30
-6E-16
41
1
10
18.7590554453087
20
12.5927467841522
30
-6E-16
41
1
10
18.2723210765813
20
12.5878029222626
30
-7E-16
41
1
10
17.9494759048879
20
12.5799021941686
30
-7E-16
41
1
10
17.4679593574686
20
12.5591663896619
30
-7E-16
41
1
10
17.3075347902553
20
12.5507364200787
30
-7E-16
41
1
10
16.9893715424465
20
12.5304238828718
30
-7E-16
41
1
10
16.83306170898
20
12.5186397559909
30
-7E-16
41
1
10
16.3729721162424
20
12.4777053387257
30
-8E-16
41
1
10
16.0778135193138
20
12.4431804252934
30
-8E-16
41
1
10
15.7975399492371
20
12.3978456864563
30
-8E-16
0
SPLINE
5
CC
100
AcDbEntity
8
1
62
256
6
ByLayer
370
18
48
1
60
0
100
AcDbSpline
70
4
71
3
72
12
73
8
40
0
40
0
40
0
40
0
40
0.250000000000003
40
0.250000000000003
40
0.500000000000005
40
0.500000000000005
40
1
40
1
40
1
40
1
41
1
10
21.7510567542857
20
6.02464132068715
30
-4E-16
41
1
10
21.7101028182789
20
6.02899108775296
30
-4E-16
41
1
10
21.667186140818
20
6.03491145211211
30
-4E-16
41
1
10
21.5791978314669
20
6.04980317964737
30
-5E-16
41
1
10
21.5338645201247
20
6.05880114375992
30
-5E-16
41
1
10
21.3939520561118
20
6.09065919491172
30
-5E-16
41
1
10
21.2954834112386
20
6.11833894983837
30
-5E-16
41
1
10
21.1918222282705
20
6.15346002555765
30
-5E-16
0
SPLINE
5
CD
100
AcDbEntity
8
1
62
256
6
ByLayer
370
18
48
1
60
0
100
AcDbSpline
70
4
71
3
72
12
73
8
40
0
40
0
40
0
40
0
40
0.500000000000001
40
0.500000000000001
40
0.750000000000001
40
0.750000000000001
40
1
40
1
40
1
40
1
41
1
10
15.7975399492371
20
12.3978456864563
30
-8E-16
41
1
10
15.7878160703574
20
12.4939784120285
30
-8E-16
41
1
10
15.7850563775426
20
12.5834799145219
30
-8E-16
41
1
10
15.7898639227021
20
12.7080184281708
30
-8E-16
41
1
10
15.7929682093917
20
12.7479045050434
30
-8E-16
41
1
10
15.8020355419732
20
12.8243711807567
30
-8E-16
41
1
10
15.8080465093092
20
12.8611726235234
30
-8E-16
41
1
10
15.8153393926875
20
12.8957886694226
30
-8E-16
0
SPLINE
5
CE
100
AcDbEntity
8
1
62
256
6
ByLayer
370
18
48
1
60
0
100
AcDbSpline
70
4
71
3
72
15
73
11
40
0
40
0
40
0
40
0
40
0.500000000000001
40
0.500000000000001
40
0.75
40
0.75
40
0.874999999999998
40
0.937499999999999
40
0.937499999999999
40
1
40
1
40
1
40
1
41
1
10
28.8405466960894
20
15.2335764648265
30
0
41
1
10
28.4210959053552
20
15.033419610301
30
0
41
1
10
27.9881854376723
20
14.8346055897318
30
-1E-16
41
1
10
27.3235506436494
20
14.5310426532837
30
-1E-16
41
1
10
27.0994333869912
20
14.4289842445348
30
-1E-16
41
1
10
26.7598320489004
20
14.2737446378179
30
-1E-16
41
1
10
26.5891736218114
20
14.19558680584
30
-1E-16
41
1
10
26.4172991904173
20
14.1164587653541
30
-2E-16
41
1
10
26.3024532880861
20
14.0634723384605
30
-2E-16
41
1
10
26.2445222851491
20
14.036687288862
30
-2E-16
41
1
10
26.1873990310866
20
14.010209355559
30
-2E-16
0
SPLINE
5
CF
100
AcDbEntity
8
1
62
256
6
ByLayer
370
18
48
1
60
0
100
AcDbSpline
70
4
71
3
72
14
73
10
40
0
40
0
40
0
40
0
40
0.500000000000004
40
0.500000000000004
40
0.750000000000004
40
0.750000000000004
40
0.875000000000002
40
0.875000000000002
40
1
40
1
40
1
40
1
41
1
10
26.016166256531
20
18.5030606715116
30
-2E-16
41
1
10
26.457212184259
20
18.5716745158246
30
-2E-16
41
1
10
26.8897537260798
20
18.6229804258132
30
-1E-16
41
1
10
27.5255463427738
20
18.6793703896698
30
-1E-16
41
1
10
27.7352994971573
20
18.6947105372834
30
-1E-16
41
1
10
28.0465565693227
20
18.7130139201638
30
-1E-16
41
1
10
28.1497462889035
20
18.7183295156025
30
-1E-16
41
1
10
28.3549760329803
20
18.7274582005308
30
0
41
1
10
28.4574842242576
20
18.7312850546173
30
0
41
1
10
28.5583714214698
20
18.7343614188023
30
0
0
SPLINE
5
D0
100
AcDbEntity
8
1
62
256
6
ByLayer
370
18
48
1
60
0
100
AcDbSpline
70
4
71
3
72
14
73
10
40
0
40
0
40
0
40
0
40
0.124999999999999
40
0.124999999999999
40
0.249999999999999
40
0.249999999999999
40
0.500000000000001
40
0.500000000000001
40
1
40
1
40
1
40
1
41
1
10
29.5516383729912
20
17.5845621334308
30
0
41
1
10
29.5284725377814
20
17.4915160321568
30
0
41
1
10
29.5043742258457
20
17.3969224178392
30
0
41
1
10
29.4549380255812
20
17.2074481520312
30
0
41
1
10
29.4294930627602
20
17.1121357378854
30
0
41
1
10
29.3508774715556
20
16.8245281078973
30
0
41
1
10
29.2954302453174
20
16.6305644335084
30
0
41
1
10
29.1190482205251
20
16.0423637923193
30
0
41
1
10
28.9881831181428
20
15.6418392216791
30
0
41
1
10
28.8405466960894
20
15.2335764648265
30
0
0
SPLINE
5
D1
100
AcDbEntity
8
1
62
256
6
ByLayer
370
18
48
1
60
0
100
AcDbSpline
70
4
71
3
72
15
73
11
40
0
40
0
40
0
40
0
40
0.0625000000000016
40
0.0625000000000016
40
0.125000000000003
40
0.250000000000003
40
0.250000000000003
40
0.500000000000002
40
0.500000000000002
40
1
40
1
40
1
40
1
41
1
10
24.3420226917731
20
16.1464048596318
30
-3E-16
41
1
10
24.377467187446
20
16.1979779809564
30
-3E-16
41
1
10
24.4133906080217
20
16.2502388630418
30
-3E-16
41
1
10
24.484584287799
20
16.3537568154438
30
-3E-16
41
1
10
24.5910960498145
20
16.5085482517834
30
-3E-16
41
1
10
24.6968486339584
20
16.6618406603427
30
-3E-16
41
1
10
24.9075406250215
20
16.966304878694
30
-3E-16
41
1
10
25.0469174948331
20
17.1664582014931
30
-2E-16
41
1
10
25.4633531284895
20
17.757334852328
30
-2E-16
41
1
10
25.7386393728275
20
18.1386136363543
30
-2E-16
41
1
10
26.016166256531
20
18.5030606715116
30
-2E-16
0
SPLINE
5
D2
100
AcDbEntity
8
1
62
256
6
ByLayer
370
18
48
1
60
0
100
AcDbSpline
70
4
71
3
72
8
73
4
40
0
40
0
40
0
40
0
40
1
40
1
40
1
40
1
41
1
10
10.525
20
19.5517339055089
30
-2E-16
41
1
10
12.0161928164845
20
21.1727589975847
30
-2E-16
41
1
10
13.5302510948141
20
22.7724895225257
30
-1E-16
41
1
10
15.0560781538128
20
24.3612598013211
30
0
0
SPLINE
5
D3
100
AcDbEntity
8
1
62
256
6
ByLayer
370
18
48
1
60
0
100
AcDbSpline
70
4
71
3
72
12
73
8
40
0
40
0
40
0
40
0
40
0.298737889744249
40
0.298737889744249
40
0.649368944872124
40
0.649368944872124
40
1
40
1
40
1
40
1
41
1
10
14.3490498321878
20
23.8240408494821
30
0
41
1
10
14.4014321909083
20
23.8763820027917
30
0
41
1
10
14.4595189465261
20
23.9291631695995
30
0
41
1
10
14.5978420951406
20
24.0448242348123
30
0
41
1
10
14.6801490159733
20
24.1078321642288
30
0
41
1
10
14.8581440931337
20
24.2341654788021
30
0
41
1
10
14.953947104483
20
24.2975918794627
30
0
41
1
10
15.0560781538128
20
24.3612598013211
30
0
0
LINE
5
73
100
AcDbEntity
8
1
62
256
6
ByLayer
370
18
48
1
60
0
100
AcDbLine
10
19.768675
20
5.372186
30
0
11
14.985022
21
10.909711
31
0
39
0
210
0
220
0
230
1
0
LINE
5
74
100
AcDbEntity
8
1
62
256
6
ByLayer
370
18
48
1
60
0
100
AcDbLine
10
19.575138
20
12.587713
30
0
11
21.880975
21
9.91849
31
0
39
0
210
0
220
0
230
1
0
LINE
5
75
100
AcDbEntity
8
1
62
256
6
ByLayer
370
18
48
1
60
0
100
AcDbLine
10
21.880975
20
9.91849
30
0
11
25.494301
21
12.965166
31
0
39
0
210
0
220
0
230
1
0
LINE
5
76
100
AcDbEntity
8
1
62
256
6
ByLayer
370
18
48
1
60
0
100
AcDbLine
10
27.403777
20
10.790888
30
0
11
21.751057
21
6.024641
31
0
39
0
210
0
220
0
230
1
0
LINE
5
77
100
AcDbEntity
8
1
62
256
6
ByLayer
370
18
48
1
60
0
100
AcDbLine
10
15.815339
20
12.895789
30
0
11
21.468059
21
17.662035
31
0
39
0
210
0
220
0
230
1
0
LINE
5
78
100
AcDbEntity
8
1
62
256
6
ByLayer
370
18
48
1
60
0
100
AcDbLine
10
23.188463
20
15.634388
30
0
11
19.575138
21
12.587713
31
0
39
0
210
0
220
0
230
1
0
LINE
5
79
100
AcDbEntity
8
1
62
256
6
ByLayer
370
18
48
1
60
0
100
AcDbLine
10
24.342023
20
16.146405
30
0
11
23.188463
21
15.634388
31
0
39
0
210
0
220
0
230
1
0
LINE
5
7A
100
AcDbEntity
8
1
62
256
6
ByLayer
370
18
48
1
60
0
100
AcDbLine
10
26.187399
20
14.010209
30
0
11
24.342023
21
16.146405
31
0
39
0
210
0
220
0
230
1
0
LINE
5
7B
100
AcDbEntity
8
1
62
256
6
ByLayer
370
18
48
1
60
0
100
AcDbLine
10
25.494301
20
12.965166
30
0
11
26.187399
21
14.010209
31
0
39
0
210
0
220
0
230
1
0
LINE
5
7C
100
AcDbEntity
8
1
62
256
6
ByLayer
370
18
48
1
60
0
100
AcDbLine
10
29.440456
20
13.861764
30
0
11
27.403777
21
10.790888
31
0
39
0
210
0
220
0
230
1
0
LINE
5
7D
100
AcDbEntity
8
1
62
256
6
ByLayer
370
18
48
1
60
0
100
AcDbLine
10
28.558371
20
18.734361
30
0
11
29.551638
21
17.584562
31
0
39
0
210
0
220
0
230
1
0
LINE
5
7E
100
AcDbEntity
8
1
62
256
6
ByLayer
370
18
48
1
60
0
100
AcDbLine
10
19.888931
20
4.356063
30
0
11
19.768675
21
5.372186
31
0
39
0
210
0
220
0
230
1
0
LINE
5
7F
100
AcDbEntity
8
1
62
256
6
ByLayer
370
18
48
1
60
0
100
AcDbLine
10
21.751057
20
6.024641
30
0
11
21.945949
21
4.377875
31
0
39
0
210
0
220
0
230
1
0
LINE
5
80
100
AcDbEntity
8
1
62
256
6
ByLayer
370
18
48
1
60
0
100
AcDbLine
10
21.468059
20
17.662035
30
0
11
24.85781
21
19.166604
31
0
39
0
210
0
220
0
230
1
0
LINE
5
81
100
AcDbEntity
8
1
62
256
6
ByLayer
370
18
48
1
60
0
100
AcDbLine
10
14.985022
20
10.909711
30
0
11
14.137795
21
11.01354
31
0
39
0
210
0
220
0
230
1
0
LINE
5
82
100
AcDbEntity
8
1
62
256
6
ByLayer
370
18
48
1
60
0
100
AcDbLine
10
14.442292
20
13.064058
30
0
11
15.815339
21
12.895789
31
0
39
0
210
0
220
0
230
1
0
LINE
5
83
100
AcDbEntity
8
1
62
256
6
ByLayer
370
18
48
1
60
0
100
AcDbLine
10
21.945949
20
4.377875
30
0
11
27.999356
21
9.481972
31
0
39
0
210
0
220
0
230
1
0
LINE
5
84
100
AcDbEntity
8
1
62
256
6
ByLayer
370
18
48
1
60
0
100
AcDbLine
10
27.403777
20
10.790888
30
0
11
27.999356
21
9.481972
31
0
39
0
210
0
220
0
230
1
0
LINE
5
85
100
AcDbEntity
8
1
62
256
6
ByLayer
370
18
48
1
60
0
100
AcDbLine
10
20.495699
20
18.168156
30
0
11
14.442292
21
13.064058
31
0
39
0
210
0
220
0
230
1
0
LINE
5
86
100
AcDbEntity
8
1
62
256
6
ByLayer
370
18
48
1
60
0
100
AcDbLine
10
20.495699
20
18.168156
30
0
11
21.468059
21
17.662035
31
0
39
0
210
0
220
0
230
1
0
LINE
5
87
100
AcDbEntity
8
1
62
256
6
ByLayer
370
18
48
1
60
0
100
AcDbLine
10
31.930996
20
16.001164
30
0
11
29.440456
21
13.861764
31
0
39
0
210
0
220
0
230
1
0
LINE
5
88
100
AcDbEntity
8
1
62
256
6
ByLayer
370
18
48
1
60
0
100
AcDbLine
10
29.551638
20
17.584562
30
0
11
32.368442
21
20.004226
31
0
39
0
210
0
220
0
230
1
0
LINE
5
89
100
AcDbEntity
8
1
62
256
6
ByLayer
370
18
48
1
60
0
100
AcDbLine
10
24.85781
20
19.166604
30
0
11
27.565284
21
21.054884
31
0
39
0
210
0
220
0
230
1
0
LINE
5
8A
100
AcDbEntity
8
1
62
256
6
ByLayer
370
18
48
1
60
0
100
AcDbLine
10
31.620527
20
20.870008
30
0
11
28.558371
21
18.734361
31
0
39
0
210
0
220
0
230
1
0
LINE
5
8B
100
AcDbEntity
8
1
62
256
6
ByLayer
370
18
48
1
60
0
100
AcDbLine
10
32.155237
20
15.748151
30
0
11
27.999356
21
9.481972
31
0
39
0
210
0
220
0
230
1
0
LINE
5
8C
100
AcDbEntity
8
1
62
256
6
ByLayer
370
18
48
1
60
0
100
AcDbLine
10
32.155237
20
15.748151
30
0
11
31.930996
21
16.001164
31
0
39
0
210
0
220
0
230
1
0
LINE
5
8D
100
AcDbEntity
8
1
62
256
6
ByLayer
370
18
48
1
60
0
100
AcDbLine
10
20.495699
20
18.168156
30
0
11
27.412549
21
21.238255
31
0
39
0
210
0
220
0
230
1
0
LINE
5
8E
100
AcDbEntity
8
1
62
256
6
ByLayer
370
18
48
1
60
0
100
AcDbLine
10
27.565284
20
21.054884
30
0
11
27.412549
21
21.238255
31
0
39
0
210
0
220
0
230
1
0
LINE
5
8F
100
AcDbEntity
8
1
62
256
6
ByLayer
370
18
48
1
60
0
100
AcDbLine
10
32.182777
20
20.917743
30
0
11
31.620527
21
20.870008
31
0
39
0
210
0
220
0
230
1
0
LINE
5
90
100
AcDbEntity
8
1
62
256
6
ByLayer
370
18
48
1
60
0
100
AcDbLine
10
32.182777
20
20.917743
30
0
11
32.529206
21
20.516718
31
0
39
0
210
0
220
0
230
1
0
LINE
5
91
100
AcDbEntity
8
1
62
256
6
ByLayer
370
18
48
1
60
0
100
AcDbLine
10
32.368442
20
20.004226
30
0
11
32.529206
21
20.516718
31
0
39
0
210
0
220
0
230
1
0
LINE
5
92
100
AcDbEntity
8
1
62
256
6
ByLayer
370
18
48
1
60
0
100
AcDbLine
10
27.999356
20
9.481972
30
0
11
27.946644
21
9.396949
31
0
39
0
210
0
220
0
230
1
0
LINE
5
93
100
AcDbEntity
8
1
62
256
6
ByLayer
370
18
48
1
60
0
100
AcDbLine
10
32.697859
20
20.122484
30
0
11
32.529206
21
20.516718
31
0
39
0
210
0
220
0
230
1
0
LINE
5
94
100
AcDbEntity
8
1
62
256
6
ByLayer
370
18
48
1
60
0
100
AcDbLine
10
32.155237
20
15.748151
30
0
11
32.697859
21
20.122484
31
0
39
0
210
0
220
0
230
1
0
LINE
5
95
100
AcDbEntity
8
1
62
256
6
ByLayer
370
18
48
1
60
0
100
AcDbLine
10
32.155237
20
15.748151
30
0
11
32.086366
21
15.637064
31
0
39
0
210
0
220
0
230
1
0
LINE
5
96
100
AcDbEntity
8
1
62
256
6
ByLayer
370
18
48
1
60
0
100
AcDbLine
10
31.114734
20
14.172051
30
0
11
32.086366
21
15.637064
31
0
39
0
210
0
220
0
230
1
0
LINE
5
97
100
AcDbEntity
8
1
62
256
6
ByLayer
370
18
48
1
60
0
100
AcDbLine
10
31.870467
20
21.080266
30
0
11
27.412549
21
21.238255
31
0
39
0
210
0
220
0
230
1
0
LINE
5
98
100
AcDbEntity
8
1
62
256
6
ByLayer
370
18
48
1
60
0
100
AcDbLine
10
32.182777
20
20.917743
30
0
11
31.870467
21
21.080266
31
0
39
0
210
0
220
0
230
1
0
LINE
5
99
100
AcDbEntity
8
1
62
256
6
ByLayer
370
18
48
1
60
0
100
AcDbLine
10
34.827582
20
26.908744
30
0
11
22.87273
21
20.560052
31
0
39
0
210
0
220
0
230
1
0
LINE
5
9A
100
AcDbEntity
8
1
62
256
6
ByLayer
370
18
48
1
60
0
100
AcDbLine
10
35.763604
20
12.653331
30
0
11
35.999882
21
26.189705
31
0
39
0
210
0
220
0
230
1
0
LINE
5
9B
100
AcDbEntity
8
1
62
256
6
ByLayer
370
18
48
1
60
0
100
AcDbLine
10
35.144668
20
11.449433
30
0
11
35.64902
21
12.262927
31
0
39
0
210
0
220
0
230
1
0
LINE
5
9C
100
AcDbEntity
8
1
62
256
6
ByLayer
370
18
48
1
60
0
100
AcDbLine
10
10.204431
20
19.484328
30
0
11
6.998336
21
-16.600412
31
0
39
0
210
0
220
0
230
1
0
LINE
5
9D
100
AcDbEntity
8
1
62
256
6
ByLayer
370
18
48
1
60
0
100
AcDbLine
10
10.525
20
20
30
0
11
-0.325
21
20
31
0
39
0
210
0
220
0
230
1
0
LINE
5
9E
100
AcDbEntity
8
1
62
256
6
ByLayer
370
18
48
1
60
0
100
AcDbLine
10
-0.325
20
-20
30
0
11
6.706422
21
-20
31
0
39
0
210
0
220
0
230
1
0
LINE
5
9F
100
AcDbEntity
8
1
62
256
6
ByLayer
370
18
48
1
60
0
100
AcDbLine
10
6.706422
20
-20
30
0
11
7.003492
21
-16.604472
31
0
39
0
210
0
220
0
230
1
0
LINE
5
A0
100
AcDbEntity
8
1
62
256
6
ByLayer
370
18
48
1
60
0
100
AcDbLine
10
10.525
20
20
30
0
11
10.525
21
19.551734
31
0
39
0
210
0
220
0
230
1
0
LINE
5
A1
100
AcDbEntity
8
1
62
256
6
ByLayer
370
18
48
1
60
0
100
AcDbLine
10
-0.325
20
20
30
0
11
-0.325
21
-20
31
0
39
0
210
0
220
0
230
1
0
LINE
5
A2
100
AcDbEntity
8
1
62
256
6
ByLayer
370
18
48
1
60
0
100
AcDbLine
10
10.437496
20
19.549613
30
0
11
7.643981
21
-11.891524
31
0
39
0
210
0
220
0
230
1
0
LINE
5
A3
100
AcDbEntity
8
1
62
256
6
ByLayer
370
18
48
1
60
0
100
AcDbLine
10
7.23279
20
-13.983589
30
0
11
7.003492
21
-16.604472
31
0
39
0
210
0
220
0
230
1
0
LINE
5
A4
100
AcDbEntity
8
1
62
256
6
ByLayer
370
18
48
1
60
0
100
AcDbLine
10
29.010237
20
-4.855146
30
0
11
17.194737
21
-4.855146
31
0
39
0
210
0
220
0
230
1
0
LINE
5
A5
100
AcDbEntity
8
1
62
256
6
ByLayer
370
18
48
1
60
0
100
AcDbLine
10
15.056078
20
24.36126
30
0
11
32.226097
21
25.544692
31
0
39
0
210
0
220
0
230
1
0
LINE
5
A6
100
AcDbEntity
8
1
62
256
6
ByLayer
370
18
48
1
60
0
100
AcDbLine
10
22.888888
20
20.586114
30
0
11
32.226097
21
25.544692
31
0
39
0
210
0
220
0
230
1
0
LINE
5
A7
100
AcDbEntity
8
1
62
256
6
ByLayer
370
18
48
1
60
0
100
AcDbLine
10
35.017901
20
11.778041
30
0
11
31.113862
21
14.172614
31
0
39
0
210
0
220
0
230
1
0
LINE
5
A8
100
AcDbEntity
8
1
62
256
6
ByLayer
370
18
48
1
60
0
100
AcDbLine
10
22.876834
20
19.224861
30
0
11
22.865251
21
19.231965
31
0
39
0
210
0
220
0
230
1
0
LINE
5
A9
100
AcDbEntity
8
1
62
256
6
ByLayer
370
18
48
1
60
0
100
AcDbLine
10
35.017901
20
11.778041
30
0
11
34.80515
21
-0.410454
31
0
39
0
210
0
220
0
230
1
0
LINE
5
AA
100
AcDbEntity
8
1
62
256
6
ByLayer
370
18
48
1
60
0
100
AcDbLine
10
14.359104
20
23.834104
30
0
11
10.525
21
20
31
0
39
0
210
0
220
0
230
1
0
LINE
5
AB
100
AcDbEntity
8
1
62
256
6
ByLayer
370
18
48
1
60
0
100
AcDbLine
10
22.872728
20
20.560049
30
0
11
22.888888
21
20.586114
31
0
39
0
210
0
220
0
230
1
0
LINE
5
AC
100
AcDbEntity
8
1
62
256
6
ByLayer
370
18
48
1
60
0
100
AcDbLine
10
35.002364
20
11.787571
30
0
11
35.004311
21
11.899141
31
0
39
0
210
0
220
0
230
1
0
LINE
5
AD
100
AcDbEntity
8
1
62
256
6
ByLayer
370
18
48
1
60
0
100
AcDbLine
10
32.226097
20
25.544692
30
0
11
32.209936
21
25.518627
31
0
39
0
210
0
220
0
230
1
0
LINE
5
AE
100
AcDbEntity
8
1
62
256
6
ByLayer
370
18
48
1
60
0
100
AcDbLine
10
19.888931
20
4.356063
30
0
11
14.137795
21
11.01354
31
0
39
0
210
0
220
0
230
1
0
LINE
5
AF
100
AcDbEntity
8
80
62
256
6
ByLayer
370
18
48
1
60
0
100
AcDbLine
10
0
20
0
30
0
11
-1.09424
21
0
31
0
39
0
210
0
220
0
230
1
0
LINE
5
B0
100
AcDbEntity
8
81
62
256
6
ByLayer
370
18
48
1
60
0
100
AcDbLine
10
36.023519
20
27.543853
30
0
11
36.891631
21
27.543853
31
0
39
0
210
0
220
0
230
1
0
LINE
5
B1
100
AcDbEntity
8
4
62
256
6
ByLayer
370
18
48
0.05
60
0
100
AcDbLine
10
-1.09424
20
0
30
0
11
36.233157
21
0
31
0
39
0
210
0
220
0
230
1
0
LINE
5
B3
100
AcDbEntity
8
SK4
62
256
6
ByLayer
370
18
48
0.05
60
0
100
AcDbLine
10
-0.54712
20
0
30
0
11
35.461579
21
0
31
0
39
0
210
0
220
0
230
1
0
MTEXT
5
D4
100
AcDbEntity
8
SK6
62
256
6
ByLayer
370
18
48
1
60
0
100
AcDbMText
10
1.785137
20
-34.177603
30
0
210
0
220
0
230
1
1
\W0.7305;570-DTFNR-40-16-L
40
3.175
41
0
44
1.084337
50
0
71
7
72
5
7
iso_b_vert
0
DIMENSION
5
E7
100
AcDbEntity
8
SK2
62
256
6
ByLayer
370
13
48
1
60
0
100
AcDbDimension
2
DimnDraft3D1
10
-11.141511
20
20
30
0
11
-10.591601
21
2.330792
31
0
70
33
71
5
72
1
41
1
210
0
220
0
230
1
3
Standard
100
AcDbAlignedDimension
13
-1.9125
23
-20
33
0
14
-1.9125
24
20
34
0
1001
ACAD
1000
DSTYLE
1002
{
1070
   279
1070
     0
1070
    74
1070
     0
1070
   173
1070
     1
1070
   340
1005
D5
1070
   271
1070
     1
1070
   272
1070
     2
1070
    77
1070
     1
1070
    73
1070
     0
1070
   171
1070
     3
1070
   274
1070
     4
1070
   177
1070
     7
1070
   176
1070
     7
1070
   178
1070
     7
1070
    78
1070
     8
1070
    48
1040
-0.005
1070
    41
1041
3.175
1070
   147
1041
1.75006
1070
    42
1041
1.5875
1070
    44
1041
3.175
1070
   140
1041
3.50012
1070
   343
1005
0
1070
   344
1005
0
1002
}
0
DIMENSION
5
F6
100
AcDbEntity
8
2
62
256
6
ByLayer
370
13
48
1
60
0
100
AcDbDimension
2
DimnDraft3D2
10
-39.080691
20
-0.325
30
0
11
-39.080691
21
17.849259
31
0
70
32
71
5
72
1
41
1
210
0
220
0
230
1
3
Standard
100
AcDbAlignedDimension
13
-29.131353
23
36.023519
33
0
14
-21.5875
24
-0.325
34
0
50
90
100
AcDbRotatedDimension
1001
ACAD
1000
DSTYLE
1002
{
1070
    74
1070
     0
1070
   279
1070
     0
1070
   172
1070
     1
1070
   173
1070
     1
1070
   340
1005
D5
1070
   271
1070
     0
1070
   272
1070
     2
1070
    77
1070
     1
1070
    73
1070
     0
1070
   171
1070
     3
1070
   274
1070
     4
1070
   177
1070
     7
1070
   176
1070
     7
1070
   178
1070
     7
1070
    78
1070
     8
1070
    48
1040
-0.005
1070
    41
1041
3.175
1070
   147
1041
1.75006
1070
    42
1041
1.5875
1070
    44
1041
3.175
1070
   140
1041
3.50012
1070
   343
1005
F7
1070
   344
1005
F7
1002
}
0
DIMENSION
5
10B
100
AcDbEntity
8
2
62
256
6
ByLayer
370
13
48
1
60
0
100
AcDbDimension
2
DimnDraft3D3
10
27.543853
20
-58.914322
30
0
11
13.137411
21
-58.914322
31
0
70
32
71
5
72
1
41
1
210
0
220
0
230
1
3
Standard
100
AcDbAlignedDimension
13
0
23
-37.820657
33
0
14
27.543853
24
-37.611019
34
0
50
0
100
AcDbRotatedDimension
1001
ACAD
1000
DSTYLE
1002
{
1070
   279
1070
     0
1070
   172
1070
     1
1070
   173
1070
     1
1070
   340
1005
D5
1070
   271
1070
     0
1070
   272
1070
     2
1070
    77
1070
     1
1070
    73
1070
     0
1070
   171
1070
     3
1070
   274
1070
     4
1070
   177
1070
     7
1070
   176
1070
     7
1070
   178
1070
     7
1070
    78
1070
     8
1070
    48
1040
-0.005
1070
    41
1041
3.175
1070
   147
1041
1.75006
1070
    42
1041
1.5875
1070
    44
1041
3.175
1070
   140
1041
3.50012
1070
   343
1005
0
1070
   344
1005
0
1002
}
0
DIMENSION
5
119
100
AcDbEntity
8
SK2
62
256
6
ByLayer
370
13
48
1
60
0
100
AcDbDimension
2
DimnDraft3D4
10
36.023519
20
26.543853
30
0
11
17.195406
21
-45.424219
31
0
70
34
71
5
72
1
41
1
210
0
220
0
230
1
3
Standard
100
AcDb2LineAngularDimension
13
35.763604
23
12.653331
33
0
14
35.999882
24
26.189705
34
0
15
36.023519
25
27.543853
35
0
16
15.07556
26
-48.276076
36
0
40
0
0
ENDSEC
0
SECTION
2
OBJECTS
0
DICTIONARY
5
183
330
0
100
AcDbDictionary
280
0
281
1
3
ACAD_GROUP
350
184
3
ACAD_MLINESTYLE
350
185
0
DICTIONARY
5
184
330
0
100
AcDbDictionary
280
0
281
1
0
DICTIONARY
5
185
330
0
100
AcDbDictionary
280
0
281
1
3
Standard
350
18
0
MLINESTYLE
5
18
330
185
100
AcDbMlineStyle
2
Standard
70
0
3

62
256
51
90
52
90
71
2
49
-0.5
62
256
6
ByLayer
49
0.5
62
256
6
ByLayer
0
RASTERVARIABLES
5
172
330

100
AcDbRasterVariables
90
0
70
1
71
1
72
1
0
ENDSEC
0
EOF
