0
SECTION
2
HEADER
9
$ACADVER
1
AC1015
9
$DWGCODEPAGE
3
ANSI_1252
9
$HANDSEED
5
197
9
$ANGBASE
50
0
9
$ANGDIR
70
0
9
$ATTMODE
70
1
9
$AUNITS
70
0
9
$AUPREC
70
0
9
$CECOLOR
62
256
9
$CELTSCALE
40
1
9
$CELTYPE
6
ByLayer
9
$CELWEIGHT
370
18
9
$CLAYER
8
0
9
$CMLJUST
70
0
9
$CMLSCALE
40
1
9
$CMLSTYLE
2
Standard
9
$DIMSTYLE
2
Standard
9
$TEXTSIZE
40
0.2
9
$TEXTSTYLE
7
Standard
9
$LUNITS
70
2
9
$LUPREC
70
4
9
$EXTNAMES
290
1
9
$INSUNITS
70
4
9
$LTSCALE
40
1
9
$LWDISPLAY
290
1
9
$PDMODE
70
0
9
$PDSIZE
40
0
9
$PLINEGEN
70
0
0
ENDSEC
0
SECTION
2
CLASSES
0
CLASS
1
RASTERVARIABLES
2
AcDbRasterVariables
3
ISM
90
0
280
0
281
0
0
ENDSEC
0
SECTION
2
TABLES
0
TABLE
2
VPORT
5
18d
100
AcDbSymbolTable
0
VPORT
5
1
100
AcDbSymbolTableRecord
100
AcDbViewportTableRecord
2
*Active
70
0
10
0
20
0
11
1
21
1
12
-1
22
1
13
0
23
0
14
0.5
24
0.5
15
10
25
10
16
0
26
0
36
1
17
0
27
0
37
0
0
ENDTAB
0
TABLE
2
LTYPE
5
18e
100
AcDbSymbolTable
0
LTYPE
5
14
100
AcDbSymbolTableRecord
100
AcDbLinetypeTableRecord
70
0
2
ByBlock
3

72
65
73
0
40
0
0
LTYPE
5
15
100
AcDbSymbolTableRecord
100
AcDbLinetypeTableRecord
70
0
2
ByLayer
3

72
65
73
0
40
0
0
LTYPE
5
16
100
AcDbSymbolTableRecord
100
AcDbLinetypeTableRecord
70
0
2
CONTINUOUS
3
Solid line
72
65
73
0
40
0
0
LTYPE
5
6A
100
AcDbSymbolTableRecord
100
AcDbLinetypeTableRecord
70
0
2
CENTER
3
____ _ ____ _ ____ _ ____
72
65
73
4
40
47.5
49
22
74
0
49
-8.5
74
0
49
8.5
74
0
49
-8.5
74
0
0
LTYPE
5
6B
100
AcDbSymbolTableRecord
100
AcDbLinetypeTableRecord
70
0
2
DASHED
3
__ __ __ __ __ __ __ __ __
72
65
73
2
40
25.72
49
12.86
74
0
49
-12.86
74
0
0
ENDTAB
0
TABLE
2
LAYER
5
18f
100
AcDbSymbolTable
0
LAYER
5
10
100
AcDbSymbolTableRecord
100
AcDbLayerTableRecord
2
0
70
0
62
7
6
CONTINUOUS
290
1
370
-3
390
0
0
LAYER
5
6D
100
AcDbSymbolTableRecord
100
AcDbLayerTableRecord
2
80
70
0
62
-6
6
CONTINUOUS
290
1
370
-3
390
0
0
LAYER
5
6F
100
AcDbSymbolTableRecord
100
AcDbLayerTableRecord
2
1
70
0
62
4
6
CONTINUOUS
290
1
370
-3
390
0
0
LAYER
5
72
100
AcDbSymbolTableRecord
100
AcDbLayerTableRecord
2
81
70
0
62
-3
6
CONTINUOUS
290
1
370
-3
390
0
0
LAYER
5
B4
100
AcDbSymbolTableRecord
100
AcDbLayerTableRecord
2
4
70
0
62
-2
6
CENTER
290
1
370
-3
390
0
0
LAYER
5
F0
100
AcDbSymbolTableRecord
100
AcDbLayerTableRecord
2
2
70
0
62
7
6
CONTINUOUS
290
1
370
-3
390
0
0
LAYER
5
17a
100
AcDbSymbolTableRecord
100
AcDbLayerTableRecord
2
SK4
70
0
62
2
6
CENTER
290
1
370
-3
390
0
0
LAYER
5
17b
100
AcDbSymbolTableRecord
100
AcDbLayerTableRecord
2
SK6
70
0
62
5
6
CONTINUOUS
290
1
370
-3
390
0
0
LAYER
5
17c
100
AcDbSymbolTableRecord
100
AcDbLayerTableRecord
2
SK2
70
0
62
7
6
CONTINUOUS
290
1
370
-3
390
0
0
ENDTAB
0
TABLE
2
STYLE
5
190
100
AcDbSymbolTable
0
STYLE
5
11
100
AcDbSymbolTableRecord
100
AcDbTextStyleTableRecord
2
Standard
3
txt
70
0
71
0
40
0
41
1
42
0
50
0
0
STYLE
5
DB
100
AcDbSymbolTableRecord
100
AcDbTextStyleTableRecord
2
iso_b_vert
3
simplex.shx
70
0
71
0
40
0
41
1
42
0
50
0
0
STYLE
5
DC
100
AcDbSymbolTableRecord
100
AcDbTextStyleTableRecord
2
DWGDirectTextStyle
3
simplex
70
0
71
0
40
0
41
1
42
0
50
0
0
ENDTAB
0
TABLE
2
DIMSTYLE
5
191
100
AcDbSymbolTable
100
AcDbDimStyleTable
0
DIMSTYLE
105
27
100
AcDbSymbolTableRecord
100
AcDbDimStyleTableRecord
2
Standard
70
0
3
<>
41
0.18
42
0.0625
44
0.18
140
0.18
147
0.09
73
0
74
0
77
1
271
2
275
0
278
52
280
0
340
11
0
ENDTAB
0
TABLE
2
VIEW
5
192
100
AcDbSymbolTable
0
ENDTAB
0
TABLE
2
UCS
5
193
100
AcDbSymbolTable
0
ENDTAB
0
TABLE
2
APPID
5
194
100
AcDbSymbolTable
0
APPID
5
12
100
AcDbSymbolTableRecord
100
AcDbRegAppTableRecord
2
ACAD
70
0
0
ENDTAB
0
TABLE
2
BLOCK_RECORD
5
195
100
AcDbSymbolTable
0
BLOCK_RECORD
5
1F
100
AcDbSymbolTableRecord
100
AcDbBlockTableRecord
2
*Model_Space
340
0
70
0
0
BLOCK_RECORD
5
1B
100
AcDbSymbolTableRecord
100
AcDbBlockTableRecord
2
*Paper_Space
340
0
70
0
0
BLOCK_RECORD
5
23
100
AcDbSymbolTableRecord
100
AcDbBlockTableRecord
2
*Paper_Space0
340
0
70
0
0
BLOCK_RECORD
5
DE
100
AcDbSymbolTableRecord
100
AcDbBlockTableRecord
2
DimnDraft3D1
340
0
70
0
0
BLOCK_RECORD
5
EE
100
AcDbSymbolTableRecord
100
AcDbBlockTableRecord
2
DimnDraft3D2
340
0
70
0
0
BLOCK_RECORD
5
FD
100
AcDbSymbolTableRecord
100
AcDbBlockTableRecord
2
_CLOSED
340
0
70
0
0
BLOCK_RECORD
5
104
100
AcDbSymbolTableRecord
100
AcDbBlockTableRecord
2
DimnDraft3D3
340
0
70
0
0
BLOCK_RECORD
5
112
100
AcDbSymbolTableRecord
100
AcDbBlockTableRecord
2
DimnDraft3D4
340
0
70
0
0
ENDTAB
0
ENDSEC
0
SECTION
2
BLOCKS
0
BLOCK
5
20
100
AcDbEntity
8
0
100
AcDbBlockBegin
2
*Model_Space
70
0
10
0
20
0
30
0
3
*Model_Space
0
ENDBLK
5
21
100
AcDbEntity
8
0
100
AcDbBlockEnd
0
BLOCK
5
1C
100
AcDbEntity
8
0
100
AcDbBlockBegin
2
*Paper_Space
70
0
10
0
20
0
30
0
3
*Paper_Space
0
ENDBLK
5
1D
100
AcDbEntity
8
0
100
AcDbBlockEnd
0
BLOCK
5
24
100
AcDbEntity
8
0
100
AcDbBlockBegin
2
*Paper_Space0
70
0
10
0
20
0
30
0
3
*Paper_Space0
0
ENDBLK
5
25
100
AcDbEntity
8
0
100
AcDbBlockEnd
0
BLOCK
5
EB
100
AcDbEntity
8
0
100
AcDbBlockBegin
2
DimnDraft3D1
70
0
10
0
20
0
30
0
3
DimnDraft3D1
0
MTEXT
5
DF
100
AcDbEntity
8
SK2
62
256
6
ByLayer
370
18
48
1
60
0
100
AcDbMText
10
-8.023997
20
2.084827
30
0
210
0
220
0
230
1
1
\W0.6562;32
40
3.50012
41
0
44
1.084337
50
90
71
7
72
5
7
iso_b_vert
0
MTEXT
5
E1
100
AcDbEntity
8
SK2
62
256
6
ByLayer
370
18
48
1
60
0
100
AcDbMText
10
-8.023997
20
-6.638128
30
0
210
0
220
0
230
1
1
%%c
40
3.50012
41
0
44
1.084337
50
90
71
7
72
5
7
iso_b_vert
0
LINE
5
E2
100
AcDbEntity
8
SK2
62
256
6
ByLayer
370
13
48
1
60
0
100
AcDbLine
10
-1.9125
20
-16
30
0
11
-9.448937
21
-16
31
0
39
0
210
0
220
0
230
1
0
LINE
5
E3
100
AcDbEntity
8
SK2
62
256
6
ByLayer
370
13
48
1
60
0
100
AcDbLine
10
-1.9125
20
16
30
0
11
-9.448937
21
16
31
0
39
0
210
0
220
0
230
1
0
LINE
5
E4
100
AcDbEntity
8
SK2
62
256
6
ByLayer
370
13
48
1
60
0
100
AcDbLine
10
-6.273937
20
-16
30
0
11
-6.273937
21
16
31
0
39
0
210
0
220
0
230
1
0
LINE
5
E5
100
AcDbEntity
8
SK2
62
256
6
ByLayer
370
13
48
1
60
0
100
AcDbLine
10
-6.273937
20
-16
30
0
11
-6.691933
21
-12.825002
31
0
39
0
210
0
220
0
230
1
0
LINE
5
E6
100
AcDbEntity
8
SK2
62
256
6
ByLayer
370
13
48
1
60
0
100
AcDbLine
10
-6.273937
20
-16
30
0
11
-5.85594
21
-12.824998
31
0
39
0
210
0
220
0
230
1
0
LINE
5
E7
100
AcDbEntity
8
SK2
62
256
6
ByLayer
370
13
48
1
60
0
100
AcDbLine
10
-6.691933
20
-12.825002
30
0
11
-5.85594
21
-12.824998
31
0
39
0
210
0
220
0
230
1
0
LINE
5
E8
100
AcDbEntity
8
SK2
62
256
6
ByLayer
370
13
48
1
60
0
100
AcDbLine
10
-6.273937
20
16
30
0
11
-5.85594
21
12.825002
31
0
39
0
210
0
220
0
230
1
0
LINE
5
E9
100
AcDbEntity
8
SK2
62
256
6
ByLayer
370
13
48
1
60
0
100
AcDbLine
10
-6.273937
20
16
30
0
11
-6.691933
21
12.824998
31
0
39
0
210
0
220
0
230
1
0
LINE
5
EA
100
AcDbEntity
8
SK2
62
256
6
ByLayer
370
13
48
1
60
0
100
AcDbLine
10
-5.85594
20
12.825002
30
0
11
-6.691933
21
12.824998
31
0
39
0
210
0
220
0
230
1
0
ENDBLK
5
EC
100
AcDbEntity
8
0
100
AcDbBlockEnd
0
BLOCK
5
FA
100
AcDbEntity
8
0
100
AcDbBlockBegin
2
DimnDraft3D2
70
0
10
0
20
0
30
0
3
DimnDraft3D2
0
MTEXT
5
EF
100
AcDbEntity
8
2
62
256
6
ByLayer
370
18
48
1
60
0
100
AcDbMText
10
8.658629
20
-35.108586
30
0
210
0
220
0
230
1
1
\W0.6562;20
40
3.50012
41
0
44
1.084337
50
0
71
7
72
5
7
iso_b_vert
0
LINE
5
F1
100
AcDbEntity
8
2
62
256
6
ByLayer
370
13
48
1
60
0
100
AcDbLine
10
19.981811
20
-24.498989
30
0
11
19.981811
21
-39.158616
31
0
39
0
210
0
220
0
230
1
0
LINE
5
F2
100
AcDbEntity
8
2
62
256
6
ByLayer
370
13
48
1
60
0
100
AcDbLine
10
-0.325
20
-17.5875
30
0
11
-0.325
21
-39.158616
31
0
39
0
210
0
220
0
230
1
0
LINE
5
F3
100
AcDbEntity
8
2
62
256
6
ByLayer
370
13
48
1
60
0
100
AcDbLine
10
19.981811
20
-35.983616
30
0
11
-0.325
21
-35.983616
31
0
39
0
210
0
220
0
230
1
0
LINE
5
F4
100
AcDbEntity
8
2
62
256
6
ByLayer
370
13
48
1
60
0
100
AcDbLine
10
19.981811
20
-35.983616
30
0
11
16.806813
21
-36.401613
31
0
39
0
210
0
220
0
230
1
0
LINE
5
F5
100
AcDbEntity
8
2
62
256
6
ByLayer
370
13
48
1
60
0
100
AcDbLine
10
19.981811
20
-35.983616
30
0
11
16.806809
21
-35.565619
31
0
39
0
210
0
220
0
230
1
0
LINE
5
F6
100
AcDbEntity
8
2
62
256
6
ByLayer
370
13
48
1
60
0
100
AcDbLine
10
16.806813
20
-36.401613
30
0
11
16.806809
21
-35.565619
31
0
39
0
210
0
220
0
230
1
0
LINE
5
F7
100
AcDbEntity
8
2
62
256
6
ByLayer
370
13
48
1
60
0
100
AcDbLine
10
-0.325
20
-35.983616
30
0
11
2.849998
21
-35.565619
31
0
39
0
210
0
220
0
230
1
0
LINE
5
F8
100
AcDbEntity
8
2
62
256
6
ByLayer
370
13
48
1
60
0
100
AcDbLine
10
-0.325
20
-35.983616
30
0
11
2.850002
21
-36.401613
31
0
39
0
210
0
220
0
230
1
0
LINE
5
F9
100
AcDbEntity
8
2
62
256
6
ByLayer
370
13
48
1
60
0
100
AcDbLine
10
2.849998
20
-35.565619
30
0
11
2.850002
21
-36.401613
31
0
39
0
210
0
220
0
230
1
0
ENDBLK
5
FB
100
AcDbEntity
8
0
100
AcDbBlockEnd
0
BLOCK
5
FE
100
AcDbEntity
8
0
100
AcDbBlockBegin
2
_CLOSED
70
0
10
0
20
0
30
0
3
_CLOSED
0
LINE
5
100
100
AcDbEntity
8
0
62
256
6
ByLayer
370
-2
48
1
60
0
100
AcDbLine
10
-1
20
0.166667
30
0
11
0
21
0
31
0
39
0
210
0
220
0
230
1
0
LINE
5
101
100
AcDbEntity
8
0
62
256
6
ByLayer
370
-2
48
1
60
0
100
AcDbLine
10
0
20
0
30
0
11
-1
21
-0.166667
31
0
39
0
210
0
220
0
230
1
0
LINE
5
102
100
AcDbEntity
8
0
62
256
6
ByLayer
370
-2
48
1
60
0
100
AcDbLine
10
-1
20
0.166667
30
0
11
-1
21
-0.166667
31
0
39
0
210
0
220
0
230
1
0
LINE
5
103
100
AcDbEntity
8
0
62
256
6
ByLayer
370
-2
48
1
60
0
100
AcDbLine
10
0
20
0
30
0
11
-1
21
0
31
0
39
0
210
0
220
0
230
1
0
ENDBLK
5
FF
100
AcDbEntity
8
0
100
AcDbBlockEnd
0
BLOCK
5
10F
100
AcDbEntity
8
0
100
AcDbBlockBegin
2
DimnDraft3D3
70
0
10
0
20
0
30
0
3
DimnDraft3D3
0
MTEXT
5
105
100
AcDbEntity
8
2
62
256
6
ByLayer
370
18
48
1
60
0
100
AcDbMText
10
44.749012
20
-13.181818
30
0
210
0
220
0
230
1
1
\W0.6562;22
40
3.50012
41
0
44
1.084337
50
90
71
7
72
5
7
iso_b_vert
0
LINE
5
106
100
AcDbEntity
8
2
62
256
6
ByLayer
370
13
48
1
60
0
100
AcDbLine
10
21.569311
20
-22.911489
30
0
11
48.799042
21
-22.911489
31
0
39
0
210
0
220
0
230
1
0
LINE
5
107
100
AcDbEntity
8
2
62
256
6
ByLayer
370
13
48
1
60
0
100
AcDbLine
10
33.638946
20
0
30
0
11
48.799042
21
0
31
0
39
0
210
0
220
0
230
1
0
LINE
5
108
100
AcDbEntity
8
2
62
256
6
ByLayer
370
13
48
1
60
0
100
AcDbLine
10
45.624042
20
-22.911489
30
0
11
45.624042
21
0
31
0
39
0
210
0
220
0
230
1
0
LINE
5
109
100
AcDbEntity
8
2
62
256
6
ByLayer
370
13
48
1
60
0
100
AcDbLine
10
45.624042
20
-22.911489
30
0
11
45.206046
21
-19.736491
31
0
39
0
210
0
220
0
230
1
0
LINE
5
10A
100
AcDbEntity
8
2
62
256
6
ByLayer
370
13
48
1
60
0
100
AcDbLine
10
45.624042
20
-22.911489
30
0
11
46.042039
21
-19.736488
31
0
39
0
210
0
220
0
230
1
0
LINE
5
10B
100
AcDbEntity
8
2
62
256
6
ByLayer
370
13
48
1
60
0
100
AcDbLine
10
45.206046
20
-19.736491
30
0
11
46.042039
21
-19.736488
31
0
39
0
210
0
220
0
230
1
0
LINE
5
10C
100
AcDbEntity
8
2
62
256
6
ByLayer
370
13
48
1
60
0
100
AcDbLine
10
45.624042
20
0
30
0
11
46.042039
21
-3.174998
31
0
39
0
210
0
220
0
230
1
0
LINE
5
10D
100
AcDbEntity
8
2
62
256
6
ByLayer
370
13
48
1
60
0
100
AcDbLine
10
45.624042
20
0
30
0
11
45.206046
21
-3.175002
31
0
39
0
210
0
220
0
230
1
0
LINE
5
10E
100
AcDbEntity
8
2
62
256
6
ByLayer
370
13
48
1
60
0
100
AcDbLine
10
46.042039
20
-3.174998
30
0
11
45.206046
21
-3.175002
31
0
39
0
210
0
220
0
230
1
0
ENDBLK
5
110
100
AcDbEntity
8
0
100
AcDbBlockEnd
0
BLOCK
5
11E
100
AcDbEntity
8
0
100
AcDbBlockBegin
2
DimnDraft3D4
70
0
10
0
20
0
30
0
3
DimnDraft3D4
0
MTEXT
5
113
100
AcDbEntity
8
SK2
62
256
6
ByLayer
370
18
48
1
60
0
100
AcDbMText
10
10.514281
20
-22.151615
30
0
210
0
220
0
230
1
1
\W0.8159;63%%d0'
40
3.50012
41
0
44
1.084337
50
59.4289335172691
71
7
72
5
7
iso_b_vert
0
LINE
5
114
100
AcDbEntity
8
SK2
62
256
6
ByLayer
370
13
48
1
60
0
100
AcDbLine
10
18.394311
20
-22.911489
30
0
11
9.14383
21
-22.911489
31
0
39
0
210
0
220
0
230
1
0
LINE
5
115
100
AcDbEntity
8
SK2
62
256
6
ByLayer
370
13
48
1
60
0
100
AcDbLine
10
19.944219
20
-22.982607
30
0
11
14.916947
21
-32.49319
31
0
39
0
210
0
220
0
230
1
0
ARC
5
116
100
AcDbEntity
8
SK2
62
256
6
ByLayer
370
13
48
1
60
0
100
AcDbCircle
39
0
10
19.981811
20
-22.911489
30
0
40
7.66298100699963
210
0
220
0
230
1
100
AcDbArc
50
116.116451
51
180
0
ARC
5
117
100
AcDbEntity
8
SK2
62
256
6
ByLayer
370
13
48
1
60
0
100
AcDbCircle
39
0
10
19.981811
20
-22.911489
30
0
40
7.66298100699963
210
0
220
0
230
1
100
AcDbArc
50
180
51
242.139176
0
LINE
5
118
100
AcDbEntity
8
SK2
62
256
6
ByLayer
370
13
48
1
60
0
100
AcDbLine
10
12.31883
20
-22.911489
30
0
11
13.058372
21
-26.027322
31
0
39
0
210
0
220
0
230
1
0
LINE
5
119
100
AcDbEntity
8
SK2
62
256
6
ByLayer
370
13
48
1
60
0
100
AcDbLine
10
12.31883
20
-22.911489
30
0
11
12.226735
21
-26.112563
31
0
39
0
210
0
220
0
230
1
0
LINE
5
11A
100
AcDbEntity
8
SK2
62
256
6
ByLayer
370
13
48
1
60
0
100
AcDbLine
10
13.058372
20
-26.027322
30
0
11
12.226735
21
-26.112563
31
0
39
0
210
0
220
0
230
1
0
LINE
5
11B
100
AcDbEntity
8
SK2
62
256
6
ByLayer
370
13
48
1
60
0
100
AcDbLine
10
16.400705
20
-29.686219
30
0
11
13.527647
21
-28.271697
31
0
39
0
210
0
220
0
230
1
0
LINE
5
11C
100
AcDbEntity
8
SK2
62
256
6
ByLayer
370
13
48
1
60
0
100
AcDbLine
10
16.400705
20
-29.686219
30
0
11
13.991647
21
-27.576291
31
0
39
0
210
0
220
0
230
1
0
LINE
5
11D
100
AcDbEntity
8
SK2
62
256
6
ByLayer
370
13
48
1
60
0
100
AcDbLine
10
13.527647
20
-28.271697
30
0
11
13.991647
21
-27.576291
31
0
39
0
210
0
220
0
230
1
0
ENDBLK
5
11F
100
AcDbEntity
8
0
100
AcDbBlockEnd
0
ENDSEC
0
SECTION
2
ENTITIES
0
ARC
5
B7
100
AcDbEntity
8
1
62
256
6
ByLayer
370
18
48
1
60
0
100
AcDbCircle
39
0
10
-16.660396
20
16.510205
30
0
40
9.9999999980907
210
0
220
0
230
-1
100
AcDbArc
50
341.888977
51
348.361579
0
ARC
5
B8
100
AcDbEntity
8
1
62
256
6
ByLayer
370
18
48
1
60
0
100
AcDbCircle
39
0
10
-25.486596
20
0.810205
30
0
40
5.69999999999993
210
0
220
0
230
-1
100
AcDbArc
50
90
51
155.59257
0
ARC
5
B9
100
AcDbEntity
8
1
62
256
6
ByLayer
370
18
48
1
60
0
100
AcDbCircle
39
0
10
-16.660396
20
16.510205
30
0
40
10.0000000000001
210
0
220
0
230
-1
100
AcDbArc
50
270
51
341.888977
0
ARC
5
BA
100
AcDbEntity
8
1
62
256
6
ByLayer
370
18
48
1
60
0
100
AcDbCircle
39
0
10
21.447271
20
4.796076
30
0
40
1.4523994398119
210
0
220
0
230
1
100
AcDbArc
50
76.5486
51
166.430098
0
ELLIPSE
5
BB
100
AcDbEntity
8
1
62
256
6
ByLayer
370
18
48
1
60
0
100
AcDbEllipse
10
21.430428
20
-3.440548
30
0
11
2.9772486004847
21
-0.559975940583653
31
0
210
0
220
0
230
-1
40
0.169082
41
1.5390052144893
42
2.72582910584528
0
ELLIPSE
5
BC
100
AcDbEntity
8
1
62
256
6
ByLayer
370
18
48
1
60
0
100
AcDbEllipse
10
24.781704
20
-4.544834
30
0
11
2.70300463590586
21
-1.36763971547223
31
0
210
0
220
0
230
-1
40
0.15391
41
0.306255578295116
42
1.49307946965118
0
ELLIPSE
5
BD
100
AcDbEntity
8
1
62
256
6
ByLayer
370
18
48
1
60
0
100
AcDbEllipse
10
21.2834
20
-6.756903
30
0
11
2.97386175311189
21
-0.539046422548019
31
0
210
0
220
0
230
-1
40
0.433252
41
2.04040848201363
42
2.69114600807672
0
ELLIPSE
5
BE
100
AcDbEntity
8
1
62
256
6
ByLayer
370
18
48
1
60
0
100
AcDbEllipse
10
22.872506
20
-7.280533
30
0
11
2.62712498653192
21
-1.47318216728693
31
0
210
0
220
0
230
-1
40
0.417611
41
0.325564612616807
42
0.976302138678613
0
ELLIPSE
5
BF
100
AcDbEntity
8
1
62
256
6
ByLayer
370
18
48
1
60
0
100
AcDbEllipse
10
29.659416
20
2.089735
30
0
11
1.62778760337963
21
-0.038200372120391
31
0
210
0
220
0
230
-1
40
0.907256
41
-0.956059289880852
42
-0.300444095674472
0
ELLIPSE
5
C0
100
AcDbEntity
8
1
62
256
6
ByLayer
370
18
48
1
60
0
100
AcDbEllipse
10
31.07525
20
2.63334
30
0
11
0.465650945915427
21
1.78157351104196
31
0
210
0
220
0
230
-1
40
0.09823
41
1.62547479633477
42
2.20326710868936
0
ELLIPSE
5
C1
100
AcDbEntity
8
1
62
256
6
ByLayer
370
18
48
1
60
0
100
AcDbEllipse
10
18.225471
20
-16.162981
30
0
11
0.8824067631632
21
-6.14131613479252
31
0
210
0
220
0
230
-1
40
0.220261
41
-3.05347524964885
42
-1.95191165375076
0
ELLIPSE
5
C2
100
AcDbEntity
8
1
62
256
6
ByLayer
370
18
48
1
60
0
100
AcDbEllipse
10
18.886609
20
-16.380834
30
0
11
4.98067318939436
21
4.21978231368423
31
0
210
0
220
0
230
-1
40
0.149389
41
-1.17196380406807
42
-0.0704002081697604
0
ELLIPSE
5
C3
100
AcDbEntity
8
1
62
256
6
ByLayer
370
18
48
1
60
0
100
AcDbEllipse
10
23.950311
20
-13.710462
30
0
11
-0.794
21
9.72337444934968E-17
31
0
210
0
220
0
230
1
40
0.984808
41
2.66162710929137
42
3.14159265358979
0
ELLIPSE
5
C4
100
AcDbEntity
8
1
62
256
6
ByLayer
370
18
48
1
60
0
100
AcDbEllipse
10
19.981811
20
-21.218063
30
0
11
-0.794
21
9.72337444934968E-17
31
0
210
0
220
0
230
1
40
0.984808
41
0.479965544298439
42
2.66162710929136
0
ELLIPSE
5
C5
100
AcDbEntity
8
1
62
256
6
ByLayer
370
18
48
1
60
0
100
AcDbEllipse
10
16.013311
20
-13.710462
30
0
11
-0.794
21
9.72337444934968E-17
31
0
210
0
220
0
230
1
40
0.984808
41
0
42
0.479965544298428
0
ELLIPSE
5
C6
100
AcDbEntity
8
1
62
256
6
ByLayer
370
18
48
1
60
0
100
AcDbEllipse
10
16.013311
20
-11.797796
30
0
11
-0.794
21
9.72337444934968E-17
31
0
210
0
220
0
230
1
40
0.984808
41
-0.304342696365691
42
0
0
ELLIPSE
5
C7
100
AcDbEntity
8
1
62
256
6
ByLayer
370
18
48
1
60
0
100
AcDbEllipse
10
23.950311
20
-11.797796
30
0
11
-0.794
21
9.72337444934968E-17
31
0
210
0
220
0
230
1
40
0.984808
41
3.14159265358979
42
-2.8372499572241
0
ELLIPSE
5
C8
100
AcDbEntity
8
1
62
256
6
ByLayer
370
18
48
1
60
0
100
AcDbEllipse
10
8.156706
20
0
30
0
11
1.37886696497419
21
-15.9999864881943
31
0
210
0
220
0
230
-1
40
0.01508
41
0.673115270394022
42
2.70143468744751
0
ELLIPSE
5
C9
100
AcDbEntity
8
1
62
256
6
ByLayer
370
18
48
1
60
0
100
AcDbEllipse
10
14.034171
20
0
30
0
11
7.38402640072352
21
15.9923932996592
31
0
210
0
220
0
230
-1
40
0.066808
41
3.0345276883704
42
3.11075632033209
0
ELLIPSE
5
CA
100
AcDbEntity
8
1
62
256
6
ByLayer
370
18
48
1
60
0
100
AcDbEllipse
10
12.392875
20
0.000548
30
0
11
12.3472851341869
21
11.3200714484397
31
0
210
0
220
0
230
-1
40
0.915712
41
-1.22626602680948
42
-1.2223321478509
0
ELLIPSE
5
CB
100
AcDbEntity
8
1
62
256
6
ByLayer
370
18
48
1
60
0
100
AcDbEllipse
10
14.028914
20
0
30
0
11
7.38402634965964
21
15.9923932998482
31
0
210
0
220
0
230
-1
40
0.066808
41
2.43894011403723
42
3.03452768872113
0
ELLIPSE
5
CC
100
AcDbEntity
8
1
62
256
6
ByLayer
370
18
48
1
60
0
100
AcDbEllipse
10
12.093313
20
-15.1589
30
0
11
-4.05
21
4.95965573298063E-16
31
0
210
0
220
0
230
1
40
0.984808
41
-2.33079438316325
42
-1.57952297305303
0
ELLIPSE
5
CD
100
AcDbEntity
8
1
62
256
6
ByLayer
370
18
48
1
60
0
100
AcDbEllipse
10
11.653329
20
-15.155119
30
0
11
-4.05
21
4.95965573298063E-16
31
0
210
0
220
0
230
1
40
0.984808
41
-1.57952297305487
42
-0.883694902726302
0
ELLIPSE
5
CE
100
AcDbEntity
8
1
62
256
6
ByLayer
370
18
48
1
60
0
100
AcDbEllipse
10
12.093313
20
-14.306288
30
0
11
4.05
21
0
31
0
210
0
220
0
230
1
40
0.984808
41
0.689046599797311
42
0.706327448251747
0
POINT
5
6C
100
AcDbEntity
8
80
62
256
6
ByLayer
370
18
48
1
60
0
100
AcDbPoint
10
0
20
0
30
0
39
0
210
0
220
0
230
1
50
360
0
POINT
5
6E
100
AcDbEntity
8
1
62
256
6
ByLayer
370
13
48
1
60
1
100
AcDbPoint
10
204.119086
20
178.871397
30
0
39
0
210
0
220
0
230
1
50
360
0
POINT
5
70
100
AcDbEntity
8
1
62
256
6
ByLayer
370
13
48
1
60
1
100
AcDbPoint
10
204.119086
20
153.572734
30
0
39
0
210
0
220
0
230
1
50
360
0
POINT
5
71
100
AcDbEntity
8
81
62
256
6
ByLayer
370
18
48
1
60
0
100
AcDbPoint
10
19.981811
20
-22.911489
30
0
39
0
210
0
220
0
230
1
50
360
0
SPLINE
5
CF
100
AcDbEntity
8
1
62
256
6
ByLayer
370
18
48
1
60
0
100
AcDbSpline
70
4
71
3
72
20
73
16
40
0
40
0
40
0
40
0
40
0.25
40
0.25
40
0.375
40
0.375
40
0.5
40
0.5
40
0.75
40
0.75
40
0.875
40
0.875
40
0.9375
40
0.9375
40
1
40
1
40
1
40
1
41
1
10
21.6066834038052
20
4.10338057627612
30
-5E-16
41
1
10
21.6920280526512
20
3.82547964899817
30
-4E-16
41
1
10
21.7889849778274
20
3.53834084040352
30
-4E-16
41
1
10
21.946301249395
20
3.09619623489763
30
-4E-16
41
1
10
22.0007743131157
20
2.94687933106326
30
-4E-16
41
1
10
22.1133157614598
20
2.64451096466908
30
-4E-16
41
1
10
22.1708818292506
20
2.49282049781516
30
-4E-16
41
1
10
22.3455789446734
20
2.03947362255525
30
-4E-16
41
1
10
22.465217951653
20
1.73808415520685
30
-4E-16
41
1
10
22.6479406806472
20
1.28672799460242
30
-4E-16
41
1
10
22.7094016804452
20
1.13640013549892
30
-4E-16
41
1
10
22.8022954985506
20
0.911044440395756
30
-4E-16
41
1
10
22.8333774421336
20
0.83594862693883
30
-4E-16
41
1
10
22.8957574518834
20
0.685794699356649
30
-4E-16
41
1
10
22.927284016743
20
0.610190733958348
30
-4E-16
41
1
10
22.9584121183684
20
0.535791285333261
30
-4E-16
0
SPLINE
5
D0
100
AcDbEntity
8
1
62
256
6
ByLayer
370
18
48
1
60
0
100
AcDbSpline
70
4
71
3
72
12
73
8
40
0
40
0
40
0
40
0
40
0.250000000000002
40
0.250000000000002
40
0.500000000000003
40
0.500000000000003
40
1
40
1
40
1
40
1
41
1
10
21.0589676841423
20
3.90399722472867
30
-5E-16
41
1
10
21.0964906992652
20
3.92329507504894
30
-5E-16
41
1
10
21.1365043477558
20
3.94225010160841
30
-5E-16
41
1
10
21.2199418759601
20
3.97856372747069
30
-5E-16
41
1
10
21.2636049032572
20
3.99604670529234
30
-5E-16
41
1
10
21.4004441264658
20
4.04624316517098
30
-5E-16
41
1
10
21.4994278530297
20
4.07673108742634
30
-5E-16
41
1
10
21.6066834038052
20
4.10338057627612
30
-5E-16
0
SPLINE
5
D1
100
AcDbEntity
8
1
62
256
6
ByLayer
370
18
48
1
60
0
100
AcDbSpline
70
4
71
3
72
22
73
18
40
0
40
0
40
0
40
0
40
0.0624999999999992
40
0.0624999999999992
40
0.124999999999999
40
0.124999999999999
40
0.249999999999998
40
0.249999999999998
40
0.499999999999999
40
0.499999999999999
40
0.624999999999999
40
0.624999999999999
40
0.749999999999999
40
0.749999999999999
40
0.875
40
0.875
40
1
40
1
40
1
40
1
41
1
10
22.4175574137825
20
5.44687893365298
30
-4E-16
41
1
10
22.4020217075879
20
5.43565005580993
30
-4E-16
41
1
10
22.3858550988229
20
5.42319182367695
30
-4E-16
41
1
10
22.3531359944503
20
5.3963651829628
30
-4E-16
41
1
10
22.3364417527971
20
5.3818912035583
30
-4E-16
41
1
10
22.2856982017979
20
5.33545654070699
30
-4E-16
41
1
10
22.2509839286457
20
5.30049475033914
30
-4E-16
41
1
10
22.1450513921725
20
5.18338885709079
30
-4E-16
41
1
10
22.0720122243403
20
5.08915751300674
30
-4E-16
41
1
10
21.9623828610403
20
4.92065562253251
30
-4E-16
41
1
10
21.9258936759996
20
4.8599648787353
30
-4E-16
41
1
10
21.8549427895118
20
4.7311660799927
30
-4E-16
41
1
10
21.8203168602046
20
4.66282100387377
30
-4E-16
41
1
10
21.7536089050556
20
4.51785197041238
30
-4E-16
41
1
10
21.7215224036451
20
4.44123060726929
30
-4E-16
41
1
10
21.6609634817966
20
4.27904096690961
30
-5E-16
41
1
10
21.6323344726428
20
4.19291042844597
30
-5E-16
41
1
10
21.6066834038052
20
4.10338057627612
30
-5E-16
0
SPLINE
5
D2
100
AcDbEntity
8
1
62
256
6
ByLayer
370
18
48
1
60
0
100
AcDbSpline
70
4
71
3
72
22
73
18
40
0
40
0
40
0
40
0
40
0.125
40
0.125
40
0.25
40
0.25
40
0.375000000000001
40
0.375000000000001
40
0.500000000000001
40
0.500000000000001
40
0.75
40
0.75
40
0.874999999999999
40
0.874999999999999
40
0.9375
40
0.9375
40
1
40
1
40
1
40
1
41
1
10
29.446666414386
20
1.52001158671956
30
0
41
1
10
29.4723931032191
20
1.60951652118857
30
0
41
1
10
29.4932427880172
20
1.69821044088315
30
0
41
1
10
29.5257231758096
20
1.86965229697529
30
0
41
1
10
29.5375210949925
20
1.95295899273938
30
0
41
1
10
29.5535107243501
20
2.11464032645384
30
0
41
1
10
29.5576972688821
20
2.19301554710032
30
0
41
1
10
29.5593586685246
20
2.34464606771996
30
0
41
1
10
29.556799957412
20
2.41820356440343
30
0
41
1
10
29.5402601114362
20
2.62827973153623
30
0
41
1
10
29.5176944092041
20
2.75401403375693
30
0
41
1
10
29.4711047054129
20
2.92137784531775
30
0
41
1
10
29.4534240439747
20
2.97360439876581
30
0
41
1
10
29.4240716401889
20
3.04643164505785
30
0
41
1
10
29.4138121224079
20
3.06978721338675
30
0
41
1
10
29.3925089381694
20
3.11441484996456
30
0
41
1
10
29.3813645640725
20
3.13587238045113
30
0
41
1
10
29.3700587051225
20
3.15594587784665
30
0
0
SPLINE
5
D3
100
AcDbEntity
8
1
62
256
6
ByLayer
370
18
48
1
60
0
100
AcDbSpline
70
4
71
3
72
20
73
16
40
0
40
0
40
0
40
0
40
0.0624999999999993
40
0.0624999999999993
40
0.124999999999999
40
0.124999999999999
40
0.25
40
0.25
40
0.499999999999999
40
0.499999999999999
40
0.625
40
0.625
40
0.750000000000001
40
0.750000000000001
40
1
40
1
40
1
40
1
41
1
10
26.3096878756347
20
-0.568494509047952
30
-2E-16
41
1
10
26.3800133108601
20
-0.527525224828509
30
-2E-16
41
1
10
26.4512389669672
20
-0.485779355920414
30
-2E-16
41
1
10
26.5922042815633
20
-0.402630166024153
30
-1E-16
41
1
10
26.6624601261161
20
-0.360926376374806
30
-1E-16
41
1
10
26.8725356443272
20
-0.235402732842459
30
-1E-16
41
1
10
27.0116651524279
20
-0.151171866169364
30
-1E-16
41
1
10
27.4261360652913
20
0.103401784440706
30
-1E-16
41
1
10
27.6986053958285
20
0.275586823881497
30
-1E-16
41
1
10
28.1002693583598
20
0.539015770293275
30
-1E-16
41
1
10
28.2332879359892
20
0.627906297121854
30
0
41
1
10
28.4952068675331
20
0.80688545056563
30
0
41
1
10
28.6229347659833
20
0.896164939152499
30
0
41
1
10
28.9956112174498
20
1.16367054817982
30
0
41
1
10
29.2303482013467
20
1.34151221192502
30
0
41
1
10
29.446666414386
20
1.52001158671956
30
0
0
SPLINE
5
D4
100
AcDbEntity
8
1
62
256
6
ByLayer
370
18
48
1
60
0
100
AcDbSpline
70
4
71
3
72
12
73
8
40
0
40
0
40
0
40
0
40
0.499999999999998
40
0.499999999999998
40
0.749999999999999
40
0.749999999999999
40
1
40
1
40
1
40
1
41
1
10
29.446666414386
20
1.52001158671956
30
0
41
1
10
29.504203307268
20
1.43906099950215
30
0
41
1
10
29.5523435921316
20
1.36009394046442
30
0
41
1
10
29.6118641835686
20
1.24519455262455
30
0
41
1
10
29.6295762973382
20
1.20748772534461
30
0
41
1
10
29.6608415386677
20
1.13337815305863
30
0
41
1
10
29.6744661918833
20
1.09674865895386
30
0
41
1
10
29.6858657334743
20
1.06133023595683
30
0
0
SPLINE
5
D5
100
AcDbEntity
8
1
62
256
6
ByLayer
370
18
48
1
60
0
100
AcDbSpline
70
4
71
3
72
15
73
11
40
0
40
0
40
0
40
0
40
0.499999999999998
40
0.499999999999998
40
0.749999999999998
40
0.749999999999998
40
0.874999999999998
40
0.937499999999999
40
0.937499999999999
40
1
40
1
40
1
40
1
41
1
10
19.7293464623935
20
-7.66191265815075
30
3E-16
41
1
10
19.9861860802286
20
-7.26806238883614
30
3E-16
41
1
10
20.255151055731
20
-6.86944590132501
30
-5E-16
41
1
10
20.6687899693281
20
-6.26048481487669
30
-5E-16
41
1
10
20.8084016630747
20
-6.0556624502297
30
-5E-16
41
1
10
21.0196105055012
20
-5.74517108497486
30
-5E-16
41
1
10
21.1256639207378
20
-5.58911031499059
30
-5E-16
41
1
10
21.2322461508153
20
-5.43172391092523
30
-5E-16
41
1
10
21.3034025496015
20
-5.32649281348179
30
-5E-16
41
1
10
21.3392643750111
20
-5.27337826520858
30
-5E-16
41
1
10
21.3745904697364
20
-5.220962649797
30
-5E-16
0
SPLINE
5
D6
100
AcDbEntity
8
1
62
256
6
ByLayer
370
18
48
1
60
0
100
AcDbSpline
70
4
71
3
72
14
73
10
40
0
40
0
40
0
40
0
40
0.5
40
0.5
40
0.75
40
0.75
40
0.875
40
0.875
40
1
40
1
40
1
40
1
41
1
10
23.8342659894306
20
-9.01453316720813
30
-3E-16
41
1
10
23.4912250793519
20
-9.30563326622854
30
-3E-16
41
1
10
23.146495173957
20
-9.5780680419862
30
-4E-16
41
1
10
22.6298737765561
20
-9.96319378641724
30
-4E-16
41
1
10
22.4577375371204
20
-10.0876202291052
30
-4E-16
41
1
10
22.1999764724668
20
-10.2686947531998
30
-4E-16
41
1
10
22.1141299030422
20
-10.3281242589504
30
-4E-16
41
1
10
21.9426405077912
20
-10.445173051107
30
-4E-16
41
1
10
21.8566028004178
20
-10.5030537405379
30
-4E-16
41
1
10
21.7715655127678
20
-10.5594731014265
30
-4E-16
0
SPLINE
5
D7
100
AcDbEntity
8
1
62
256
6
ByLayer
370
18
48
1
60
0
100
AcDbSpline
70
4
71
3
72
14
73
10
40
0
40
0
40
0
40
0
40
0.125
40
0.125
40
0.250000000000001
40
0.250000000000001
40
0.5
40
0.5
40
1
40
1
40
1
40
1
41
1
10
20.3279636354306
20
-10.0837888661232
30
4E-16
41
1
10
20.3000416587825
20
-9.99014806482185
30
4E-16
41
1
10
20.2721194192899
20
-9.89471619799758
30
4E-16
41
1
10
20.2171804087833
20
-9.7030565143379
30
3E-16
41
1
10
20.1900337122587
20
-9.60639436421963
30
3E-16
41
1
10
20.1096765317143
20
-9.31390579901435
30
3E-16
41
1
10
20.0575464475665
20
-9.11558089698462
30
3E-16
41
1
10
19.9064661843795
20
-8.51043939972476
30
3E-16
41
1
10
19.8127432915062
20
-8.0935291371068
30
3E-16
41
1
10
19.7293464623935
20
-7.66191265815075
30
3E-16
0
SPLINE
5
D8
100
AcDbEntity
8
1
62
256
6
ByLayer
370
18
48
1
60
0
100
AcDbSpline
70
4
71
3
72
15
73
11
40
0
40
0
40
0
40
0
40
0.0624999999999999
40
0.0624999999999999
40
0.125
40
0.25
40
0.25
40
0.5
40
0.5
40
1
40
1
40
1
40
1
41
1
10
24.0566375707156
20
-6.10472952784366
30
-3E-16
41
1
10
24.0528191147593
20
-6.16752729036196
30
-3E-16
41
1
10
24.0489428368038
20
-6.23118146241953
30
-3E-16
41
1
10
24.0412300372758
20
-6.35731799125077
30
-3E-16
41
1
10
24.0296451008041
20
-6.54600714967944
30
-3E-16
41
1
10
24.0179250332966
20
-6.73315189585034
30
-3E-16
41
1
10
23.9940714382086
20
-7.10537907550065
30
-3E-16
41
1
10
23.9776203724792
20
-7.35078435298362
30
-3E-16
41
1
10
23.924711042515
20
-8.07861018935742
30
-3E-16
41
1
10
23.8848351597141
20
-8.55271429682031
30
-3E-16
41
1
10
23.8342659894306
20
-9.01453316720813
30
-3E-16
0
SPLINE
5
D9
100
AcDbEntity
8
1
62
256
6
ByLayer
370
18
48
1
60
0
100
AcDbSpline
70
4
71
3
72
10
73
6
40
0
40
0
40
0
40
0
40
0.5
40
0.5
40
1
40
1
40
1
40
1
41
1
10
6.69844882691297
20
15.6386479598219
30
0
41
1
10
6.70964805987387
20
15.5106401413277
30
0
41
1
10
6.72601212543464
20
15.350346543361
30
4E-16
41
1
10
6.77816631421274
20
14.9678721151473
30
4E-16
41
1
10
6.81392064895141
20
14.745678070646
30
4E-16
41
1
10
6.86599389821322
20
14.4928578136546
30
4E-16
0
LINE
5
73
100
AcDbEntity
8
1
62
256
6
ByLayer
370
18
48
1
60
0
100
AcDbLine
10
21.430428
20
-3.961493
30
0
11
21.37459
21
-5.220963
31
0
39
0
210
0
220
0
230
1
0
LINE
5
74
100
AcDbEntity
8
1
62
256
6
ByLayer
370
18
48
1
60
0
100
AcDbLine
10
22.958412
20
0.535791
30
0
11
21.430428
21
-3.961493
31
0
39
0
210
0
220
0
230
1
0
LINE
5
75
100
AcDbEntity
8
1
62
256
6
ByLayer
370
18
48
1
60
0
100
AcDbLine
10
18.668576
20
-3.131595
30
0
11
21.058968
21
3.903997
31
0
39
0
210
0
220
0
230
1
0
LINE
5
76
100
AcDbEntity
8
1
62
256
6
ByLayer
370
18
48
1
60
0
100
AcDbLine
10
22.417557
20
5.446879
30
0
11
29.370059
21
3.155946
31
0
39
0
210
0
220
0
230
1
0
LINE
5
77
100
AcDbEntity
8
1
62
256
6
ByLayer
370
18
48
1
60
0
100
AcDbLine
10
26.309688
20
-0.568495
30
0
11
22.958412
21
0.535791
31
0
39
0
210
0
220
0
230
1
0
LINE
5
78
100
AcDbEntity
8
1
62
256
6
ByLayer
370
18
48
1
60
0
100
AcDbLine
10
29.685866
20
1.06133
30
0
11
27.295474
21
-5.974262
31
0
39
0
210
0
220
0
230
1
0
LINE
5
79
100
AcDbEntity
8
1
62
256
6
ByLayer
370
18
48
1
60
0
100
AcDbLine
10
24.781704
20
-5.065779
30
0
11
26.309688
21
-0.568495
31
0
39
0
210
0
220
0
230
1
0
LINE
5
7A
100
AcDbEntity
8
1
62
256
6
ByLayer
370
18
48
1
60
0
100
AcDbLine
10
24.056638
20
-6.10473
30
0
11
24.781704
21
-5.065779
31
0
39
0
210
0
220
0
230
1
0
LINE
5
7B
100
AcDbEntity
8
1
62
256
6
ByLayer
370
18
48
1
60
0
100
AcDbLine
10
21.37459
20
-5.220963
30
0
11
24.056638
21
-6.10473
31
0
39
0
210
0
220
0
230
1
0
LINE
5
7C
100
AcDbEntity
8
1
62
256
6
ByLayer
370
18
48
1
60
0
100
AcDbLine
10
18.504495
20
-6.832566
30
0
11
18.668576
21
-3.131595
31
0
39
0
210
0
220
0
230
1
0
LINE
5
7D
100
AcDbEntity
8
1
62
256
6
ByLayer
370
18
48
1
60
0
100
AcDbLine
10
21.771566
20
-10.559473
30
0
11
20.327964
21
-10.083789
31
0
39
0
210
0
220
0
230
1
0
LINE
5
7E
100
AcDbEntity
8
1
62
256
6
ByLayer
370
18
48
1
60
0
100
AcDbLine
10
27.295474
20
-5.974262
30
0
11
25.164855
21
-9.027235
31
0
39
0
210
0
220
0
230
1
0
LINE
5
7F
100
AcDbEntity
8
1
62
256
6
ByLayer
370
18
48
1
60
0
100
AcDbLine
10
21.785129
20
6.208633
30
0
11
22.417557
21
5.446879
31
0
39
0
210
0
220
0
230
1
0
LINE
5
80
100
AcDbEntity
8
1
62
256
6
ByLayer
370
18
48
1
60
0
100
AcDbLine
10
21.058968
20
3.903997
30
0
11
20.035416
21
5.136855
31
0
39
0
210
0
220
0
230
1
0
LINE
5
81
100
AcDbEntity
8
1
62
256
6
ByLayer
370
18
48
1
60
0
100
AcDbLine
10
29.370059
20
3.155946
30
0
11
30.145662
21
3.453736
31
0
39
0
210
0
220
0
230
1
0
LINE
5
82
100
AcDbEntity
8
1
62
256
6
ByLayer
370
18
48
1
60
0
100
AcDbLine
10
30.941138
20
1.543288
30
0
11
29.685866
21
1.06133
31
0
39
0
210
0
220
0
230
1
0
LINE
5
83
100
AcDbEntity
8
1
62
256
6
ByLayer
370
18
48
1
60
0
100
AcDbLine
10
20.035416
20
5.136855
30
0
11
17.475584
21
-2.397448
31
0
39
0
210
0
220
0
230
1
0
LINE
5
84
100
AcDbEntity
8
1
62
256
6
ByLayer
370
18
48
1
60
0
100
AcDbLine
10
18.668576
20
-3.131595
30
0
11
17.475584
21
-2.397448
31
0
39
0
210
0
220
0
230
1
0
LINE
5
85
100
AcDbEntity
8
1
62
256
6
ByLayer
370
18
48
1
60
0
100
AcDbLine
10
28.381306
20
-5.991015
30
0
11
30.941138
21
1.543288
31
0
39
0
210
0
220
0
230
1
0
LINE
5
86
100
AcDbEntity
8
1
62
256
6
ByLayer
370
18
48
1
60
0
100
AcDbLine
10
28.381306
20
-5.991015
30
0
11
27.295474
21
-5.974262
31
0
39
0
210
0
220
0
230
1
0
LINE
5
87
100
AcDbEntity
8
1
62
256
6
ByLayer
370
18
48
1
60
0
100
AcDbLine
10
17.465529
20
-10.028388
30
0
11
18.504495
21
-6.832566
31
0
39
0
210
0
220
0
230
1
0
LINE
5
88
100
AcDbEntity
8
1
62
256
6
ByLayer
370
18
48
1
60
0
100
AcDbLine
10
20.327964
20
-10.083789
30
0
11
19.152892
21
-13.698267
31
0
39
0
210
0
220
0
230
1
0
LINE
5
89
100
AcDbEntity
8
1
62
256
6
ByLayer
370
18
48
1
60
0
100
AcDbLine
10
25.164855
20
-9.027235
30
0
11
23.810601
21
-12.119166
31
0
39
0
210
0
220
0
230
1
0
LINE
5
8A
100
AcDbEntity
8
1
62
256
6
ByLayer
370
18
48
1
60
0
100
AcDbLine
10
20.239903
20
-14.05645
30
0
11
21.771566
21
-10.559473
31
0
39
0
210
0
220
0
230
1
0
LINE
5
8B
100
AcDbEntity
8
1
62
256
6
ByLayer
370
18
48
1
60
0
100
AcDbLine
10
17.140774
20
-9.949347
30
0
11
17.475584
21
-2.397448
31
0
39
0
210
0
220
0
230
1
0
LINE
5
8C
100
AcDbEntity
8
1
62
256
6
ByLayer
370
18
48
1
60
0
100
AcDbLine
10
17.140774
20
-9.949347
30
0
11
17.465529
21
-10.028388
31
0
39
0
210
0
220
0
230
1
0
LINE
5
8D
100
AcDbEntity
8
1
62
256
6
ByLayer
370
18
48
1
60
0
100
AcDbLine
10
28.381306
20
-5.991015
30
0
11
24.033739
21
-12.220662
31
0
39
0
210
0
220
0
230
1
0
LINE
5
8E
100
AcDbEntity
8
1
62
256
6
ByLayer
370
18
48
1
60
0
100
AcDbLine
10
23.810601
20
-12.119166
30
0
11
24.033739
21
-12.220662
31
0
39
0
210
0
220
0
230
1
0
LINE
5
8F
100
AcDbEntity
8
1
62
256
6
ByLayer
370
18
48
1
60
0
100
AcDbLine
10
19.781704
20
-14.397608
30
0
11
20.239903
21
-14.05645
31
0
39
0
210
0
220
0
230
1
0
LINE
5
90
100
AcDbEntity
8
1
62
256
6
ByLayer
370
18
48
1
60
0
100
AcDbLine
10
19.781704
20
-14.397608
30
0
11
19.278207
21
-14.2317
31
0
39
0
210
0
220
0
230
1
0
LINE
5
91
100
AcDbEntity
8
1
62
256
6
ByLayer
370
18
48
1
60
0
100
AcDbLine
10
19.152892
20
-13.698267
30
0
11
19.278207
21
-14.2317
31
0
39
0
210
0
220
0
230
1
0
LINE
5
92
100
AcDbEntity
8
1
62
256
6
ByLayer
370
18
48
1
60
0
100
AcDbLine
10
17.475584
20
-2.397448
30
0
11
17.475584
21
-2.310625
31
0
39
0
210
0
220
0
230
1
0
LINE
5
93
100
AcDbEntity
8
1
62
256
6
ByLayer
370
18
48
1
60
0
100
AcDbLine
10
18.928696
20
-13.998814
30
0
11
19.278207
21
-14.2317
31
0
39
0
210
0
220
0
230
1
0
LINE
5
94
100
AcDbEntity
8
1
62
256
6
ByLayer
370
18
48
1
60
0
100
AcDbLine
10
17.140774
20
-9.949347
30
0
11
18.928696
21
-13.998814
31
0
39
0
210
0
220
0
230
1
0
LINE
5
95
100
AcDbEntity
8
1
62
256
6
ByLayer
370
18
48
1
60
0
100
AcDbLine
10
20.131216
20
-14.395059
30
0
11
24.033739
21
-12.220662
31
0
39
0
210
0
220
0
230
1
0
LINE
5
96
100
AcDbEntity
8
1
62
256
6
ByLayer
370
18
48
1
60
0
100
AcDbLine
10
19.781704
20
-14.397608
30
0
11
20.131216
21
-14.395059
31
0
39
0
210
0
220
0
230
1
0
LINE
5
97
100
AcDbEntity
8
1
62
256
6
ByLayer
370
18
48
1
60
0
100
AcDbLine
10
17.140774
20
-9.949347
30
0
11
17.140774
21
-9.836475
31
0
39
0
210
0
220
0
230
1
0
LINE
5
98
100
AcDbEntity
8
1
62
256
6
ByLayer
370
18
48
1
60
0
100
AcDbLine
10
17.229771
20
-7.829086
30
0
11
17.140774
21
-9.836475
31
0
39
0
210
0
220
0
230
1
0
LINE
5
99
100
AcDbEntity
8
1
62
256
6
ByLayer
370
18
48
1
60
0
100
AcDbLine
10
24.654598
20
-14.07152
30
0
11
20.686098
21
-21.579121
31
0
39
0
210
0
220
0
230
1
0
LINE
5
9A
100
AcDbEntity
8
1
62
256
6
ByLayer
370
18
48
1
60
0
100
AcDbLine
10
19.277524
20
-21.579121
30
0
11
15.309024
21
-14.07152
31
0
39
0
210
0
220
0
230
1
0
LINE
5
9B
100
AcDbEntity
8
1
62
256
6
ByLayer
370
18
48
1
60
0
100
AcDbLine
10
15.219311
20
-11.797796
30
0
11
15.219311
21
-13.710462
31
0
39
0
210
0
220
0
230
1
0
LINE
5
9C
100
AcDbEntity
8
1
62
256
6
ByLayer
370
18
48
1
60
0
100
AcDbLine
10
24.744311
20
-13.710462
30
0
11
24.744311
21
-11.797796
31
0
39
0
210
0
220
0
230
1
0
LINE
5
9D
100
AcDbEntity
8
1
62
256
6
ByLayer
370
18
48
1
60
0
100
AcDbLine
10
15.219311
20
-11.632496
30
0
11
15.219311
21
-11.797796
31
0
39
0
210
0
220
0
230
1
0
LINE
5
9E
100
AcDbEntity
8
1
62
256
6
ByLayer
370
18
48
1
60
0
100
AcDbLine
10
24.744311
20
-11.797796
30
0
11
24.744311
21
-11.632496
31
0
39
0
210
0
220
0
230
1
0
LINE
5
9F
100
AcDbEntity
8
1
62
256
6
ByLayer
370
18
48
1
60
0
100
AcDbLine
10
9.084396
20
-11.1753
30
0
11
6.806459
21
14.466078
31
0
39
0
210
0
220
0
230
1
0
LINE
5
A0
100
AcDbEntity
8
1
62
256
6
ByLayer
370
18
48
1
60
0
100
AcDbLine
10
9.084396
20
-12.523086
30
0
11
9.084396
21
-11.1753
31
0
39
0
210
0
220
0
230
1
0
LINE
5
A1
100
AcDbEntity
8
1
62
256
6
ByLayer
370
18
48
1
60
0
100
AcDbLine
10
-0.325
20
-16
30
0
11
6.686596
21
-16
31
0
39
0
210
0
220
0
230
1
0
LINE
5
A2
100
AcDbEntity
8
1
62
256
6
ByLayer
370
18
48
1
60
0
100
AcDbLine
10
6.666835
20
16
30
0
11
-0.325
21
16
31
0
39
0
210
0
220
0
230
1
0
LINE
5
A3
100
AcDbEntity
8
1
62
256
6
ByLayer
370
18
48
1
60
0
100
AcDbLine
10
6.666835
20
16
30
0
11
6.698449
21
15.638648
31
0
39
0
210
0
220
0
230
1
0
LINE
5
A4
100
AcDbEntity
8
1
62
256
6
ByLayer
370
18
48
1
60
0
100
AcDbLine
10
6.80134
20
-15.953537
30
0
11
6.806597
21
-15.953537
31
0
39
0
210
0
220
0
230
1
0
LINE
5
A5
100
AcDbEntity
8
1
62
256
6
ByLayer
370
18
48
1
60
0
100
AcDbLine
10
-0.325
20
16
30
0
11
-0.325
21
-16
31
0
39
0
210
0
220
0
230
1
0
LINE
5
A6
100
AcDbEntity
8
1
62
256
6
ByLayer
370
18
48
1
60
0
100
AcDbLine
10
9.295705
20
-10.685619
30
0
11
7.155836
21
13.401612
31
0
39
0
210
0
220
0
230
1
0
LINE
5
A7
100
AcDbEntity
8
1
62
256
6
ByLayer
370
18
48
1
60
0
100
AcDbLine
10
9.084396
20
-11.1753
30
0
11
9.295705
21
-10.685619
31
0
39
0
210
0
220
0
230
1
0
LINE
5
A8
100
AcDbEntity
8
1
62
256
6
ByLayer
370
18
48
1
60
0
100
AcDbLine
10
17.230979
20
-7.826835
30
0
11
14.883439
21
-12.267907
31
0
39
0
210
0
220
0
230
1
0
LINE
5
A9
100
AcDbEntity
8
1
62
256
6
ByLayer
370
18
48
1
60
0
100
AcDbLine
10
12.128655
20
-11.170581
30
0
11
11.688672
21
-11.166799
31
0
39
0
210
0
220
0
230
1
0
LINE
5
AA
100
AcDbEntity
8
1
62
256
6
ByLayer
370
18
48
1
60
0
100
AcDbLine
10
6.80906
20
-15.948336
30
0
11
6.806597
21
-15.953537
31
0
39
0
210
0
220
0
230
1
0
LINE
5
AB
100
AcDbEntity
8
1
62
256
6
ByLayer
370
18
48
1
60
0
100
AcDbLine
10
16.660396
20
6.510205
30
0
11
25.486596
21
6.510205
31
0
39
0
210
0
220
0
230
1
0
LINE
5
AC
100
AcDbEntity
8
1
62
256
6
ByLayer
370
18
48
1
60
0
100
AcDbLine
10
31.075
20
-0.458517
30
0
11
31.075
21
1.932586
31
0
39
0
210
0
220
0
230
1
0
LINE
5
AD
100
AcDbEntity
8
1
62
256
6
ByLayer
370
18
48
1
60
0
100
AcDbLine
10
24.956384
20
-12.033704
30
0
11
27.430026
21
-7.354073
31
0
39
0
210
0
220
0
230
1
0
LINE
5
AE
100
AcDbEntity
8
1
62
256
6
ByLayer
370
18
48
1
60
0
100
AcDbLine
10
28.796485
20
-4.769008
30
0
11
31.075
21
-0.458517
31
0
39
0
210
0
220
0
230
1
0
LINE
5
AF
100
AcDbEntity
8
1
62
256
6
ByLayer
370
18
48
1
60
0
100
AcDbLine
10
24.956384
20
-12.033704
30
0
11
24.614961
21
-11.387801
31
0
39
0
210
0
220
0
230
1
0
LINE
5
B0
100
AcDbEntity
8
1
62
256
6
ByLayer
370
18
48
1
60
0
100
AcDbLine
10
30.626545
20
3.274154
30
0
11
21.785129
21
6.208633
31
0
39
0
210
0
220
0
230
1
0
LINE
5
B1
100
AcDbEntity
8
80
62
256
6
ByLayer
370
18
48
1
60
0
100
AcDbLine
10
0
20
0
30
0
11
-0.926349
21
0
31
0
39
0
210
0
220
0
230
1
0
LINE
5
B2
100
AcDbEntity
8
81
62
256
6
ByLayer
370
18
48
1
60
0
100
AcDbLine
10
20.914642
20
-22.911489
30
0
11
19.981811
21
-22.911489
31
0
39
0
210
0
220
0
230
1
0
LINE
5
B3
100
AcDbEntity
8
4
62
256
6
ByLayer
370
18
48
0.05
60
0
100
AcDbLine
10
-0.926349
20
0
30
0
11
32.051446
21
0
31
0
39
0
210
0
220
0
230
1
0
LINE
5
B5
100
AcDbEntity
8
SK4
62
256
6
ByLayer
370
18
48
0.05
60
0
100
AcDbLine
10
-0.463175
20
0
30
0
11
31.476053
21
0
31
0
39
0
210
0
220
0
230
1
0
MTEXT
5
DA
100
AcDbEntity
8
SK6
62
256
6
ByLayer
370
18
48
1
60
0
100
AcDbMText
10
-6.206222
20
-50.517476
30
0
210
0
220
0
230
1
1
\W0.7282;570-DDXNL-32-11
40
3.175
41
0
44
1.084337
50
0
71
7
72
5
7
iso_b_vert
0
DIMENSION
5
ED
100
AcDbEntity
8
SK2
62
256
6
ByLayer
370
13
48
1
60
0
100
AcDbDimension
2
DimnDraft3D1
10
-9.448937
20
16
30
0
11
-8.899027
21
1.209797
31
0
70
33
71
5
72
1
41
1
210
0
220
0
230
1
3
Standard
100
AcDbAlignedDimension
13
-1.9125
23
-16
33
0
14
-1.9125
24
16
34
0
1001
ACAD
1000
DSTYLE
1002
{
1070
   279
1070
     0
1070
    74
1070
     0
1070
   173
1070
     1
1070
   340
1005
DB
1070
   271
1070
     1
1070
   272
1070
     2
1070
    77
1070
     1
1070
    73
1070
     0
1070
   171
1070
     3
1070
   274
1070
     4
1070
   177
1070
     7
1070
   176
1070
     7
1070
   178
1070
     7
1070
    78
1070
     8
1070
    48
1040
-0.005
1070
    41
1041
3.175
1070
   147
1041
1.75006
1070
    42
1041
1.5875
1070
    44
1041
3.175
1070
   140
1041
3.50012
1070
   343
1005
0
1070
   344
1005
0
1002
}
0
DIMENSION
5
FC
100
AcDbEntity
8
2
62
256
6
ByLayer
370
13
48
1
60
0
100
AcDbDimension
2
DimnDraft3D2
10
35.983616
20
-0.325
30
0
11
35.983616
21
9.828406
31
0
70
32
71
5
72
1
41
1
210
0
220
0
230
1
3
Standard
100
AcDbAlignedDimension
13
24.498989
23
19.981811
33
0
14
17.5875
24
-0.325
34
0
50
90
100
AcDbRotatedDimension
1001
ACAD
1000
DSTYLE
1002
{
1070
    74
1070
     0
1070
   279
1070
     0
1070
   172
1070
     1
1070
   173
1070
     1
1070
   340
1005
DB
1070
   271
1070
     0
1070
   272
1070
     2
1070
    77
1070
     1
1070
    73
1070
     0
1070
   171
1070
     3
1070
   274
1070
     4
1070
   177
1070
     7
1070
   176
1070
     7
1070
   178
1070
     7
1070
    78
1070
     8
1070
    48
1040
-0.005
1070
    41
1041
3.175
1070
   147
1041
1.75006
1070
    42
1041
1.5875
1070
    44
1041
3.175
1070
   140
1041
3.50012
1070
   343
1005
FD
1070
   344
1005
FD
1002
}
0
DIMENSION
5
111
100
AcDbEntity
8
2
62
256
6
ByLayer
370
13
48
1
60
0
100
AcDbDimension
2
DimnDraft3D3
10
0
20
-45.624042
30
0
11
-12.012041
21
-45.624042
31
0
70
32
71
5
72
1
41
1
210
0
220
0
230
1
3
Standard
100
AcDbAlignedDimension
13
-22.911489
23
-21.569311
33
0
14
0
24
-33.638946
34
0
50
0
100
AcDbRotatedDimension
1001
ACAD
1000
DSTYLE
1002
{
1070
   279
1070
     0
1070
   172
1070
     1
1070
   173
1070
     1
1070
   340
1005
DB
1070
   271
1070
     0
1070
   272
1070
     2
1070
    77
1070
     1
1070
    73
1070
     0
1070
   171
1070
     3
1070
   274
1070
     4
1070
   177
1070
     7
1070
   176
1070
     7
1070
   178
1070
     7
1070
    78
1070
     8
1070
    48
1040
-0.005
1070
    41
1041
3.175
1070
   147
1041
1.75006
1070
    42
1041
1.5875
1070
    44
1041
3.175
1070
   140
1041
3.50012
1070
   343
1005
0
1070
   344
1005
0
1002
}
0
DIMENSION
5
120
100
AcDbEntity
8
SK2
62
256
6
ByLayer
370
13
48
1
60
0
100
AcDbDimension
2
DimnDraft3D4
10
20.686098
20
-21.579121
30
0
11
-17.233861
21
-10.370392
31
0
70
34
71
5
72
1
41
1
210
0
220
0
230
1
3
Standard
100
AcDb2LineAngularDimension
13
19.981811
23
-22.911489
33
0
14
19.981811
24
-23.911489
34
0
15
24.654598
25
-14.07152
35
0
16
-26.866191
26
-13.418153
36
0
40
0
0
ENDSEC
0
SECTION
2
OBJECTS
0
DICTIONARY
5
18a
330
0
100
AcDbDictionary
280
0
281
1
3
ACAD_GROUP
350
18b
3
ACAD_MLINESTYLE
350
18c
0
DICTIONARY
5
18b
330
0
100
AcDbDictionary
280
0
281
1
0
DICTIONARY
5
18c
330
0
100
AcDbDictionary
280
0
281
1
3
Standard
350
18
0
MLINESTYLE
5
18
330
18c
100
AcDbMlineStyle
2
Standard
70
0
3

62
256
51
90
52
90
71
2
49
-0.5
62
256
6
ByLayer
49
0.5
62
256
6
ByLayer
0
RASTERVARIABLES
5
179
330

100
AcDbRasterVariables
90
0
70
1
71
1
72
1
0
ENDSEC
0
EOF
