0
SECTION
2
HEADER
9
$ACADVER
1
AC1015
9
$DWGCODEPAGE
3
ANSI_1252
9
$HANDSEED
5
2a5
9
$ANGBASE
50
0
9
$ANGDIR
70
0
9
$ATTMODE
70
1
9
$AUNITS
70
0
9
$AUPREC
70
0
9
$CECOLOR
62
256
9
$CELTSCALE
40
1
9
$CELTYPE
6
ByLayer
9
$CELWEIGHT
370
18
9
$CLAYER
8
0
9
$CMLJUST
70
0
9
$CMLSCALE
40
1
9
$CMLSTYLE
2
Standard
9
$DIMSTYLE
2
Standard
9
$TEXTSIZE
40
0.2
9
$TEXTSTYLE
7
Standard
9
$LUNITS
70
2
9
$LUPREC
70
4
9
$EXTNAMES
290
1
9
$INSUNITS
70
4
9
$LTSCALE
40
1
9
$LWDISPLAY
290
1
9
$PDMODE
70
0
9
$PDSIZE
40
0
9
$PLINEGEN
70
0
0
ENDSEC
0
SECTION
2
CLASSES
0
CLASS
1
RASTERVARIABLES
2
AcDbRasterVariables
3
ISM
90
0
280
0
281
0
0
ENDSEC
0
SECTION
2
TABLES
0
TABLE
2
VPORT
5
29b
100
AcDbSymbolTable
0
VPORT
5
1
100
AcDbSymbolTableRecord
100
AcDbViewportTableRecord
2
*Active
70
0
10
0
20
0
11
1
21
1
12
-1
22
1
13
0
23
0
14
0.5
24
0.5
15
10
25
10
16
0
26
0
36
1
17
0
27
0
37
0
0
ENDTAB
0
TABLE
2
LTYPE
5
29c
100
AcDbSymbolTable
0
LTYPE
5
14
100
AcDbSymbolTableRecord
100
AcDbLinetypeTableRecord
70
0
2
ByBlock
3

72
65
73
0
40
0
0
LTYPE
5
15
100
AcDbSymbolTableRecord
100
AcDbLinetypeTableRecord
70
0
2
ByLayer
3

72
65
73
0
40
0
0
LTYPE
5
16
100
AcDbSymbolTableRecord
100
AcDbLinetypeTableRecord
70
0
2
CONTINUOUS
3
Solid line
72
65
73
0
40
0
0
LTYPE
5
6A
100
AcDbSymbolTableRecord
100
AcDbLinetypeTableRecord
70
0
2
CENTER
3
____ _ ____ _ ____ _ ____
72
65
73
4
40
47.5
49
22
74
0
49
-8.5
74
0
49
8.5
74
0
49
-8.5
74
0
0
LTYPE
5
6B
100
AcDbSymbolTableRecord
100
AcDbLinetypeTableRecord
70
0
2
DASHED
3
__ __ __ __ __ __ __ __ __
72
65
73
2
40
25.72
49
12.86
74
0
49
-12.86
74
0
0
ENDTAB
0
TABLE
2
LAYER
5
29d
100
AcDbSymbolTable
0
LAYER
5
10
100
AcDbSymbolTableRecord
100
AcDbLayerTableRecord
2
0
70
0
62
7
6
CONTINUOUS
290
1
370
-3
390
0
0
LAYER
5
6D
100
AcDbSymbolTableRecord
100
AcDbLayerTableRecord
2
80
70
0
62
-6
6
CONTINUOUS
290
1
370
-3
390
0
0
LAYER
5
6F
100
AcDbSymbolTableRecord
100
AcDbLayerTableRecord
2
81
70
0
62
-3
6
CONTINUOUS
290
1
370
-3
390
0
0
LAYER
5
71
100
AcDbSymbolTableRecord
100
AcDbLayerTableRecord
2
1
70
0
62
4
6
CONTINUOUS
290
1
370
-3
390
0
0
LAYER
5
F6
100
AcDbSymbolTableRecord
100
AcDbLayerTableRecord
2
4
70
0
62
-2
6
CENTER
290
1
370
-3
390
0
0
LAYER
5
1FC
100
AcDbSymbolTableRecord
100
AcDbLayerTableRecord
2
2
70
0
62
7
6
CONTINUOUS
290
1
370
-3
390
0
0
LAYER
5
287
100
AcDbSymbolTableRecord
100
AcDbLayerTableRecord
2
SK1
70
0
62
4
6
CONTINUOUS
290
1
370
-3
390
0
0
LAYER
5
288
100
AcDbSymbolTableRecord
100
AcDbLayerTableRecord
2
SK4
70
0
62
2
6
CENTER
290
1
370
-3
390
0
0
LAYER
5
289
100
AcDbSymbolTableRecord
100
AcDbLayerTableRecord
2
SK6
70
0
62
5
6
CONTINUOUS
290
1
370
-3
390
0
0
LAYER
5
28a
100
AcDbSymbolTableRecord
100
AcDbLayerTableRecord
2
SK2
70
0
62
7
6
CONTINUOUS
290
1
370
-3
390
0
0
ENDTAB
0
TABLE
2
STYLE
5
29e
100
AcDbSymbolTable
0
STYLE
5
11
100
AcDbSymbolTableRecord
100
AcDbTextStyleTableRecord
2
Standard
3
txt
70
0
71
0
40
0
41
1
42
0
50
0
0
STYLE
5
1F6
100
AcDbSymbolTableRecord
100
AcDbTextStyleTableRecord
2
iso_b_vert
3
simplex.shx
70
0
71
0
40
0
41
1
42
0
50
0
0
STYLE
5
1F7
100
AcDbSymbolTableRecord
100
AcDbTextStyleTableRecord
2
DWGDirectTextStyle
3
simplex
70
0
71
0
40
0
41
1
42
0
50
0
0
STYLE
5
1FB
100
AcDbSymbolTableRecord
100
AcDbTextStyleTableRecord
2
blockfont
3
simplex.shx
70
0
71
0
40
0
41
1
42
0
50
0
0
ENDTAB
0
TABLE
2
DIMSTYLE
5
29f
100
AcDbSymbolTable
100
AcDbDimStyleTable
0
DIMSTYLE
105
27
100
AcDbSymbolTableRecord
100
AcDbDimStyleTableRecord
2
Standard
70
0
3
<>
41
0.18
42
0.0625
44
0.18
140
0.18
147
0.09
73
0
74
0
77
1
271
2
275
0
278
52
280
0
340
11
0
ENDTAB
0
TABLE
2
VIEW
5
2a0
100
AcDbSymbolTable
0
ENDTAB
0
TABLE
2
UCS
5
2a1
100
AcDbSymbolTable
0
ENDTAB
0
TABLE
2
APPID
5
2a2
100
AcDbSymbolTable
0
APPID
5
12
100
AcDbSymbolTableRecord
100
AcDbRegAppTableRecord
2
ACAD
70
0
0
ENDTAB
0
TABLE
2
BLOCK_RECORD
5
2a3
100
AcDbSymbolTable
0
BLOCK_RECORD
5
1F
100
AcDbSymbolTableRecord
100
AcDbBlockTableRecord
2
*Model_Space
340
0
70
0
0
BLOCK_RECORD
5
1B
100
AcDbSymbolTableRecord
100
AcDbBlockTableRecord
2
*Paper_Space
340
0
70
0
0
BLOCK_RECORD
5
23
100
AcDbSymbolTableRecord
100
AcDbBlockTableRecord
2
*Paper_Space0
340
0
70
0
0
BLOCK_RECORD
5
1F9
100
AcDbSymbolTableRecord
100
AcDbBlockTableRecord
2
DimnDraft3D1
340
0
70
0
0
BLOCK_RECORD
5
209
100
AcDbSymbolTableRecord
100
AcDbBlockTableRecord
2
_CLOSED
340
0
70
0
0
BLOCK_RECORD
5
210
100
AcDbSymbolTableRecord
100
AcDbBlockTableRecord
2
DimnDraft3D2
340
0
70
0
0
BLOCK_RECORD
5
21E
100
AcDbSymbolTableRecord
100
AcDbBlockTableRecord
2
DimnDraft3D3
340
0
70
0
0
ENDTAB
0
ENDSEC
0
SECTION
2
BLOCKS
0
BLOCK
5
20
100
AcDbEntity
8
0
100
AcDbBlockBegin
2
*Model_Space
70
0
10
0
20
0
30
0
3
*Model_Space
0
ENDBLK
5
21
100
AcDbEntity
8
0
100
AcDbBlockEnd
0
BLOCK
5
1C
100
AcDbEntity
8
0
100
AcDbBlockBegin
2
*Paper_Space
70
0
10
0
20
0
30
0
3
*Paper_Space
0
ENDBLK
5
1D
100
AcDbEntity
8
0
100
AcDbBlockEnd
0
BLOCK
5
24
100
AcDbEntity
8
0
100
AcDbBlockBegin
2
*Paper_Space0
70
0
10
0
20
0
30
0
3
*Paper_Space0
0
ENDBLK
5
25
100
AcDbEntity
8
0
100
AcDbBlockEnd
0
BLOCK
5
206
100
AcDbEntity
8
0
100
AcDbBlockBegin
2
DimnDraft3D1
70
0
10
0
20
0
30
0
3
DimnDraft3D1
0
MTEXT
5
1FA
100
AcDbEntity
8
2
62
256
6
ByLayer
370
18
48
1
60
0
100
AcDbMText
10
20.26529
20
50.121082
30
0
210
0
220
0
230
1
1
\W1.1795;45
40
3
41
0
44
0.903614
50
0
71
7
72
5
7
blockfont
0
LINE
5
1FD
100
AcDbEntity
8
2
62
256
6
ByLayer
370
18
48
1
60
0
100
AcDbLine
10
45.077975
20
-58.543625
30
0
11
45.077975
21
51.589832
31
0
39
0
210
0
220
0
230
1
0
LINE
5
1FE
100
AcDbEntity
8
2
62
256
6
ByLayer
370
18
48
1
60
0
100
AcDbLine
10
0.190104
20
33.477015
30
0
11
0.190104
21
51.589832
31
0
39
0
210
0
220
0
230
1
0
LINE
5
1FF
100
AcDbEntity
8
2
62
256
6
ByLayer
370
18
48
1
60
0
100
AcDbLine
10
45.077975
20
49.589832
30
0
11
0.190104
21
49.589832
31
0
39
0
210
0
220
0
230
1
0
LINE
5
200
100
AcDbEntity
8
2
62
256
6
ByLayer
370
18
48
1
60
0
100
AcDbLine
10
45.077975
20
49.589832
30
0
11
41.902977
21
49.171835
31
0
39
0
210
0
220
0
230
1
0
LINE
5
201
100
AcDbEntity
8
2
62
256
6
ByLayer
370
18
48
1
60
0
100
AcDbLine
10
45.077975
20
49.589832
30
0
11
41.902974
21
50.007828
31
0
39
0
210
0
220
0
230
1
0
LINE
5
202
100
AcDbEntity
8
2
62
256
6
ByLayer
370
18
48
1
60
0
100
AcDbLine
10
41.902977
20
49.171835
30
0
11
41.902974
21
50.007828
31
0
39
0
210
0
220
0
230
1
0
LINE
5
203
100
AcDbEntity
8
2
62
256
6
ByLayer
370
18
48
1
60
0
100
AcDbLine
10
0.190104
20
49.589832
30
0
11
3.365103
21
50.007828
31
0
39
0
210
0
220
0
230
1
0
LINE
5
204
100
AcDbEntity
8
2
62
256
6
ByLayer
370
18
48
1
60
0
100
AcDbLine
10
0.190104
20
49.589832
30
0
11
3.365106
21
49.171835
31
0
39
0
210
0
220
0
230
1
0
LINE
5
205
100
AcDbEntity
8
2
62
256
6
ByLayer
370
18
48
1
60
0
100
AcDbLine
10
3.365103
20
50.007828
30
0
11
3.365106
21
49.171835
31
0
39
0
210
0
220
0
230
1
0
ENDBLK
5
207
100
AcDbEntity
8
0
100
AcDbBlockEnd
0
BLOCK
5
20A
100
AcDbEntity
8
0
100
AcDbBlockBegin
2
_CLOSED
70
0
10
0
20
0
30
0
3
_CLOSED
0
LINE
5
20C
100
AcDbEntity
8
0
62
256
6
ByLayer
370
-2
48
1
60
0
100
AcDbLine
10
-1
20
0.166667
30
0
11
0
21
0
31
0
39
0
210
0
220
0
230
1
0
LINE
5
20D
100
AcDbEntity
8
0
62
256
6
ByLayer
370
-2
48
1
60
0
100
AcDbLine
10
0
20
0
30
0
11
-1
21
-0.166667
31
0
39
0
210
0
220
0
230
1
0
LINE
5
20E
100
AcDbEntity
8
0
62
256
6
ByLayer
370
-2
48
1
60
0
100
AcDbLine
10
-1
20
0.166667
30
0
11
-1
21
-0.166667
31
0
39
0
210
0
220
0
230
1
0
LINE
5
20F
100
AcDbEntity
8
0
62
256
6
ByLayer
370
-2
48
1
60
0
100
AcDbLine
10
0
20
0
30
0
11
-1
21
0
31
0
39
0
210
0
220
0
230
1
0
ENDBLK
5
20B
100
AcDbEntity
8
0
100
AcDbBlockEnd
0
BLOCK
5
21B
100
AcDbEntity
8
0
100
AcDbBlockBegin
2
DimnDraft3D2
70
0
10
0
20
0
30
0
3
DimnDraft3D2
0
MTEXT
5
211
100
AcDbEntity
8
2
62
256
6
ByLayer
370
18
48
1
60
0
100
AcDbMText
10
63.999505
20
-32.640563
30
0
210
0
220
0
230
1
1
\W1.1795;57
40
3
41
0
44
0.903614
50
90
71
7
72
5
7
blockfont
0
LINE
5
212
100
AcDbEntity
8
2
62
256
6
ByLayer
370
18
48
1
60
0
100
AcDbLine
10
47.077975
20
-60.543625
30
0
11
66.530755
21
-60.543625
31
0
39
0
210
0
220
0
230
1
0
LINE
5
213
100
AcDbEntity
8
2
62
256
6
ByLayer
370
18
48
1
60
0
100
AcDbLine
10
2
20
0
30
0
11
66.530755
21
0
31
0
39
0
210
0
220
0
230
1
0
LINE
5
214
100
AcDbEntity
8
2
62
256
6
ByLayer
370
18
48
1
60
0
100
AcDbLine
10
64.530755
20
-60.543625
30
0
11
64.530755
21
0
31
0
39
0
210
0
220
0
230
1
0
LINE
5
215
100
AcDbEntity
8
2
62
256
6
ByLayer
370
18
48
1
60
0
100
AcDbLine
10
64.530755
20
-60.543625
30
0
11
64.112759
21
-57.368627
31
0
39
0
210
0
220
0
230
1
0
LINE
5
216
100
AcDbEntity
8
2
62
256
6
ByLayer
370
18
48
1
60
0
100
AcDbLine
10
64.530755
20
-60.543625
30
0
11
64.948752
21
-57.368624
31
0
39
0
210
0
220
0
230
1
0
LINE
5
217
100
AcDbEntity
8
2
62
256
6
ByLayer
370
18
48
1
60
0
100
AcDbLine
10
64.112759
20
-57.368627
30
0
11
64.948752
21
-57.368624
31
0
39
0
210
0
220
0
230
1
0
LINE
5
218
100
AcDbEntity
8
2
62
256
6
ByLayer
370
18
48
1
60
0
100
AcDbLine
10
64.530755
20
0
30
0
11
64.948752
21
-3.174998
31
0
39
0
210
0
220
0
230
1
0
LINE
5
219
100
AcDbEntity
8
2
62
256
6
ByLayer
370
18
48
1
60
0
100
AcDbLine
10
64.530755
20
0
30
0
11
64.112759
21
-3.175002
31
0
39
0
210
0
220
0
230
1
0
LINE
5
21A
100
AcDbEntity
8
2
62
256
6
ByLayer
370
18
48
1
60
0
100
AcDbLine
10
64.948752
20
-3.174998
30
0
11
64.112759
21
-3.175002
31
0
39
0
210
0
220
0
230
1
0
ENDBLK
5
21C
100
AcDbEntity
8
0
100
AcDbBlockEnd
0
BLOCK
5
22B
100
AcDbEntity
8
0
100
AcDbBlockBegin
2
DimnDraft3D3
70
0
10
0
20
0
30
0
3
DimnDraft3D3
0
MTEXT
5
21F
100
AcDbEntity
8
SK2
62
256
6
ByLayer
370
18
48
1
60
0
100
AcDbMText
10
-37.314201
20
-8.356453
30
0
210
0
220
0
230
1
1
%%c
40
3
41
0
44
1.084337
50
90
71
7
72
5
7
iso_b_vert
0
MTEXT
5
221
100
AcDbEntity
8
SK2
62
256
6
ByLayer
370
18
48
1
60
0
100
AcDbMText
10
-37.095451
20
-0.87989
30
0
210
0
220
0
230
1
1
\W1.1795;77
40
3
41
0
44
0.903614
50
90
71
7
72
5
7
blockfont
0
LINE
5
222
100
AcDbEntity
8
SK2
62
256
6
ByLayer
370
18
48
1
60
0
100
AcDbLine
10
-1.325
20
35.382939
30
0
11
-37.814201
21
35.382939
31
0
39
0
210
0
220
0
230
1
0
LINE
5
223
100
AcDbEntity
8
SK2
62
256
6
ByLayer
370
18
48
1
60
0
100
AcDbLine
10
0.367113
20
-41.40522
30
0
11
-37.814201
21
-41.40522
31
0
39
0
210
0
220
0
230
1
0
LINE
5
224
100
AcDbEntity
8
SK2
62
256
6
ByLayer
370
18
48
1
60
0
100
AcDbLine
10
-35.814201
20
35.382939
30
0
11
-35.814201
21
-41.40522
31
0
39
0
210
0
220
0
230
1
0
LINE
5
225
100
AcDbEntity
8
SK2
62
256
6
ByLayer
370
18
48
1
60
0
100
AcDbLine
10
-35.814201
20
35.382939
30
0
11
-35.396204
21
32.20794
31
0
39
0
210
0
220
0
230
1
0
LINE
5
226
100
AcDbEntity
8
SK2
62
256
6
ByLayer
370
18
48
1
60
0
100
AcDbLine
10
-35.814201
20
35.382939
30
0
11
-36.232198
21
32.207937
31
0
39
0
210
0
220
0
230
1
0
LINE
5
227
100
AcDbEntity
8
SK2
62
256
6
ByLayer
370
18
48
1
60
0
100
AcDbLine
10
-35.396204
20
32.20794
30
0
11
-36.232198
21
32.207937
31
0
39
0
210
0
220
0
230
1
0
LINE
5
228
100
AcDbEntity
8
SK2
62
256
6
ByLayer
370
18
48
1
60
0
100
AcDbLine
10
-35.814201
20
-41.40522
30
0
11
-36.232198
21
-38.230221
31
0
39
0
210
0
220
0
230
1
0
LINE
5
229
100
AcDbEntity
8
SK2
62
256
6
ByLayer
370
18
48
1
60
0
100
AcDbLine
10
-35.814201
20
-41.40522
30
0
11
-35.396204
21
-38.230218
31
0
39
0
210
0
220
0
230
1
0
LINE
5
22A
100
AcDbEntity
8
SK2
62
256
6
ByLayer
370
18
48
1
60
0
100
AcDbLine
10
-36.232198
20
-38.230221
30
0
11
-35.396204
21
-38.230218
31
0
39
0
210
0
220
0
230
1
0
ENDBLK
5
22C
100
AcDbEntity
8
0
100
AcDbBlockEnd
0
ENDSEC
0
SECTION
2
ENTITIES
0
ARC
5
F9
100
AcDbEntity
8
1
62
256
6
ByLayer
370
18
48
1
60
0
100
AcDbCircle
39
0
10
27.518524
20
0.472909
30
0
40
10.5
210
0
220
0
230
1
100
AcDbArc
50
190
51
270
0
ARC
5
FA
100
AcDbEntity
8
1
62
256
6
ByLayer
370
18
48
1
60
0
100
AcDbCircle
39
0
10
13.175
20
-43
30
0
40
1.49999999999996
210
0
220
0
230
1
100
AcDbArc
50
0
51
90
0
ARC
5
FC
100
AcDbEntity
8
1
62
256
6
ByLayer
370
18
48
1
60
0
100
AcDbCircle
39
0
10
-32.018524
20
-20.027091
30
0
40
9.99999999999671
210
0
220
0
230
-1
100
AcDbArc
50
90
51
168
0
CIRCLE
5
FB
100
AcDbEntity
8
1
62
256
6
ByLayer
370
18
48
1
60
0
100
AcDbCircle
10
44.18933
20
-59.061125
30
0
40
0.794000000000002
39
0
210
0
220
0
230
1
0
ELLIPSE
5
FD
100
AcDbEntity
8
1
62
256
6
ByLayer
370
18
48
1
60
0
100
AcDbEllipse
10
32.45934
20
-51.057993
30
0
11
0.914854892829925
21
0.761989773712174
31
0
210
0
220
0
230
1
40
0.984948
41
-3.14159265257682
42
-2.81653033338611
0
ELLIPSE
5
FE
100
AcDbEntity
8
1
62
256
6
ByLayer
370
18
48
1
60
0
100
AcDbEllipse
10
32.45934
20
-51.057993
30
0
11
0.914854892245608
21
0.761989774702152
31
0
210
0
220
0
230
1
40
0.984948
41
2.7765696526298
42
3.14159265358979
0
ELLIPSE
5
FF
100
AcDbEntity
8
1
62
256
6
ByLayer
370
18
48
1
60
0
100
AcDbEllipse
10
42.422411
20
-45.060354
30
0
11
0.91485489333138
21
0.761989773562273
31
0
210
0
220
0
230
1
40
0.984948
41
-0.634868768031653
42
-0.340259795415051
0
ELLIPSE
5
100
100
AcDbEntity
8
1
62
256
6
ByLayer
370
18
48
1
60
0
100
AcDbEllipse
10
41.925119
20
-45.174159
30
0
11
0.91514303552613
21
0.762229771430993
31
0
210
0
220
0
230
1
40
0.984948
41
1.10681489201789E-10
42
0.32506231927938
0
ELLIPSE
5
101
100
AcDbEntity
8
1
62
256
6
ByLayer
370
18
48
1
60
0
100
AcDbEllipse
10
33.08841
20
-50.493743
30
0
11
0.915143035492567
21
0.762229771520298
31
0
210
0
220
0
230
1
40
0.984948
41
2.50672388419384
42
2.98668942849198
0
ELLIPSE
5
102
100
AcDbEntity
8
1
62
256
6
ByLayer
370
18
48
1
60
0
100
AcDbEllipse
10
34.361567
20
-52.630972
30
0
11
0.91514303543775
21
0.762229771626202
31
0
210
0
220
0
230
1
40
0.984948
41
3.14159265358979
42
-2.81653033448908
0
ELLIPSE
5
103
100
AcDbEntity
8
1
62
256
6
ByLayer
370
18
48
1
60
0
100
AcDbEllipse
10
44.210873
20
-59.088034
30
0
11
0.610095356975535
21
0.508153181035908
31
0
210
0
220
0
230
1
40
0.984948
41
-2.81653033442591
42
-0.634868769433046
0
ELLIPSE
5
104
100
AcDbEntity
8
1
62
256
6
ByLayer
370
18
48
1
60
0
100
AcDbEllipse
10
43.198277
20
-47.311388
30
0
11
0.915143035260381
21
0.762229771759637
31
0
210
0
220
0
230
1
40
0.984948
41
-0.634868769677806
42
-0.154903225374112
0
ELLIPSE
5
105
100
AcDbEntity
8
1
62
256
6
ByLayer
370
18
48
1
60
0
100
AcDbEllipse
10
38.143343
20
-48.902566
30
0
11
1.98242572054023
21
1.65117784168858
31
0
210
0
220
0
230
1
40
0.984948
41
2.89280408357023
42
-3.14159265296319
0
ELLIPSE
5
106
100
AcDbEntity
8
1
62
256
6
ByLayer
370
18
48
1
60
0
100
AcDbEllipse
10
38.143343
20
-48.902566
30
0
11
1.98242571914044
21
1.65117784265977
31
0
210
0
220
0
230
1
40
0.984948
41
3.14159265358979
42
-0.72606823185312
0
ELLIPSE
5
107
100
AcDbEntity
8
1
62
256
6
ByLayer
370
18
48
1
60
0
100
AcDbEllipse
10
37.440875
20
-48.059173
30
0
11
1.98242572209867
21
1.65117783831668
31
0
210
0
220
0
230
1
40
0.984948
41
-2.92390938517698
42
-2.71941699519392
0
ELLIPSE
5
108
100
AcDbEntity
8
1
62
256
6
ByLayer
370
18
48
1
60
0
100
AcDbEllipse
10
35.90906
20
-35.730339
30
0
11
1.76727874186965
21
1.47198024733202
31
0
210
0
220
0
230
1
40
0.984948
41
0
42
6.28318530717959
0
ELLIPSE
5
109
100
AcDbEntity
8
1
62
256
6
ByLayer
370
18
48
1
60
0
100
AcDbEllipse
10
34.851155
20
-34.574054
30
0
11
0.326562376214508
21
0.271996350051203
31
0
210
0
220
0
230
1
40
0.984948
41
-2.41885885694561
42
-0.631114518957594
0
ELLIPSE
5
10A
100
AcDbEntity
8
1
62
256
6
ByLayer
370
18
48
1
60
0
100
AcDbEllipse
10
35.649963
20
-34.51758
30
0
11
0.291985183439495
21
0.243196736515527
31
0
210
0
220
0
230
1
40
0.984948
41
0
42
2.51047813463524
0
ELLIPSE
5
10B
100
AcDbEntity
8
1
62
256
6
ByLayer
370
18
48
1
60
0
100
AcDbEllipse
10
36.83614
20
-34.884497
30
0
11
0.291985183435298
21
0.243196736520999
31
0
210
0
220
0
230
1
40
0.984948
41
0
42
1.4632805834201
0
ELLIPSE
5
10C
100
AcDbEntity
8
1
62
256
6
ByLayer
370
18
48
1
60
0
100
AcDbEllipse
10
37.455912
20
-35.379778
30
0
11
0.326562376212835
21
0.2719963500529
31
0
210
0
220
0
230
1
40
0.984948
41
1.76993134783487
42
3.14159265358979
0
ELLIPSE
5
10D
100
AcDbEntity
8
1
62
256
6
ByLayer
370
18
48
1
60
0
100
AcDbEllipse
10
36.966964
20
-36.886623
30
0
11
0.326562376215038
21
0.271996350050572
31
0
210
0
220
0
230
1
40
0.984948
41
0.722733796646133
42
2.51047813463418
0
ELLIPSE
5
10E
100
AcDbEntity
8
1
62
256
6
ByLayer
370
18
48
1
60
0
100
AcDbEllipse
10
36.168156
20
-36.943098
30
0
11
0.291985183439464
21
0.243196736515572
31
0
210
0
220
0
230
1
40
0.984948
41
3.14159265358979
42
-0.631114518954761
0
ELLIPSE
5
10F
100
AcDbEntity
8
1
62
256
6
ByLayer
370
18
48
1
60
0
100
AcDbEllipse
10
34.981979
20
-36.57618
30
0
11
0.291985183442185
21
0.243196736512066
31
0
210
0
220
0
230
1
40
0.984948
41
3.14159265358979
42
-1.67831207013937
0
ELLIPSE
5
110
100
AcDbEntity
8
1
62
256
6
ByLayer
370
18
48
1
60
0
100
AcDbEllipse
10
34.722883
20
-35.363421
30
0
11
0.291985183439183
21
0.243196736515896
31
0
210
0
220
0
230
1
40
0.984948
41
0.722733796645391
42
3.14159265358979
0
ELLIPSE
5
111
100
AcDbEntity
8
1
62
256
6
ByLayer
370
18
48
1
60
0
100
AcDbEllipse
10
36.398008
20
-34.223493
30
0
11
0.326562376219236
21
0.271996350045002
31
0
210
0
220
0
230
1
40
0.984948
41
3.14159265358979
42
-1.67831207013529
0
ELLIPSE
5
112
100
AcDbEntity
8
1
62
256
6
ByLayer
370
18
48
1
60
0
100
AcDbEllipse
10
36.65914
20
-34.671989
30
0
11
0.291985183406367
21
0.243196736552198
31
0
210
0
220
0
230
1
40
0.984948
41
-1.37166130587836
42
-0.378432123159008
0
ELLIPSE
5
113
100
AcDbEntity
8
1
62
256
6
ByLayer
370
18
48
1
60
0
100
AcDbEllipse
10
36.83614
20
-34.884497
30
0
11
0.291985183448906
21
0.243196736505144
31
0
210
0
220
0
230
1
40
0.984948
41
-1.37166130570883
42
0
0
ELLIPSE
5
114
100
AcDbEntity
8
1
62
256
6
ByLayer
370
18
48
1
60
0
100
AcDbEllipse
10
34.981979
20
-36.57618
30
0
11
0.291985183457744
21
0.243196736495475
31
0
210
0
220
0
230
1
40
0.984948
41
1.76993134791612
42
3.14159265358979
0
ELLIPSE
5
115
100
AcDbEntity
8
1
62
256
6
ByLayer
370
18
48
1
60
0
100
AcDbEllipse
10
34.804979
20
-36.363672
30
0
11
0.29198518341594
21
0.243196736546113
31
0
210
0
220
0
230
1
40
0.984948
41
-2.76316056915961
42
-1.67831207025422
0
ELLIPSE
5
116
100
AcDbEntity
8
1
62
256
6
ByLayer
370
18
48
1
60
0
100
AcDbEllipse
10
35.64356
20
-35.411576
30
0
11
3.07352824672964
21
2.55996564753417
31
0
210
0
220
0
230
1
40
0.984948
41
0
42
2.66380351683686
0
ELLIPSE
5
117
100
AcDbEntity
8
1
62
256
6
ByLayer
370
18
48
1
60
0
100
AcDbEllipse
10
35.827856
20
-35.632845
30
0
11
3.07352824672987
21
2.55996564753389
31
0
210
0
220
0
230
1
40
0.984948
41
3.14159265358979
42
0
0
ELLIPSE
5
118
100
AcDbEntity
8
1
62
256
6
ByLayer
370
18
48
1
60
0
100
AcDbEllipse
10
35.64356
20
-35.411576
30
0
11
3.07352824666917
21
2.5599656475859
31
0
210
0
220
0
230
1
40
0.984948
41
2.66380351681674
42
3.14159265358979
0
ELLIPSE
5
119
100
AcDbEntity
8
1
62
256
6
ByLayer
370
18
48
1
60
0
100
AcDbEllipse
10
37.278912
20
-35.16727
30
0
11
0.326562376201209
21
0.271996350065687
31
0
210
0
220
0
230
1
40
0.984948
41
1.76993134779339
42
3.14159265358979
0
ELLIPSE
5
11A
100
AcDbEntity
8
1
62
256
6
ByLayer
370
18
48
1
60
0
100
AcDbEllipse
10
35.243112
20
-37.024676
30
0
11
0.326562376212826
21
0.271996350053368
31
0
210
0
220
0
230
1
40
0.984948
41
0
42
1.46328058342917
0
ELLIPSE
5
11B
100
AcDbEntity
8
1
62
256
6
ByLayer
370
18
48
1
60
0
100
AcDbEllipse
10
35.420112
20
-37.237184
30
0
11
0.32656237621041
21
0.271996350056523
31
0
210
0
220
0
230
1
40
0.984948
41
0
42
1.46328058341963
0
ELLIPSE
5
11C
100
AcDbEntity
8
1
62
256
6
ByLayer
370
18
48
1
60
0
100
AcDbEllipse
10
36.918237
20
-35.884748
30
0
11
0.291985183439272
21
0.243196736515844
31
0
210
0
220
0
230
1
40
0.984948
41
-2.41885885694385
42
-0.378432045485252
0
ELLIPSE
5
11D
100
AcDbEntity
8
1
62
256
6
ByLayer
370
18
48
1
60
0
100
AcDbEllipse
10
37.095237
20
-36.097256
30
0
11
0.29198518343844
21
0.243196736516769
31
0
210
0
220
0
230
1
40
0.984948
41
-2.41885885694732
42
0
0
ELLIPSE
5
11E
100
AcDbEntity
8
1
62
256
6
ByLayer
370
18
48
1
60
0
100
AcDbEllipse
10
35.991156
20
-36.730589
30
0
11
0.29198518343915
21
0.243196736515898
31
0
210
0
220
0
230
1
40
0.984948
41
-2.76770651993379
42
-0.631114518955829
0
ELLIPSE
5
11F
100
AcDbEntity
8
1
62
256
6
ByLayer
370
18
48
1
60
0
100
AcDbEllipse
10
36.789964
20
-36.674115
30
0
11
0.326562376215101
21
0.271996350050437
31
0
210
0
220
0
230
1
40
0.984948
41
0.722733796646353
42
2.51047813463465
0
ELLIPSE
5
120
100
AcDbEntity
8
1
62
256
6
ByLayer
370
18
48
1
60
0
100
AcDbEllipse
10
35.73206
20
-35.51783
30
0
11
0.883639370751449
21
0.735990123905508
31
0
210
0
220
0
230
1
40
0.984948
41
0.6506167920325
42
1.29538454238272
0
ELLIPSE
5
121
100
AcDbEntity
8
1
62
256
6
ByLayer
370
18
48
1
60
0
100
AcDbEllipse
10
35.73206
20
-35.51783
30
0
11
0.883639371334325
21
0.735990123224836
31
0
210
0
220
0
230
1
40
0.984948
41
1.95498145071933
42
2.60424500286068
0
ELLIPSE
5
122
100
AcDbEntity
8
1
62
256
6
ByLayer
370
18
48
1
60
0
100
AcDbEllipse
10
27.0495
20
-60.452662
30
0
11
7.68382061644977
21
6.39991411933313
31
0
210
0
220
0
230
1
40
0.984948
41
0.383155080383326
42
0.830848648554403
0
ELLIPSE
5
123
100
AcDbEntity
8
1
62
256
6
ByLayer
370
18
48
1
60
0
100
AcDbEllipse
10
29.705862
20
-39.536663
30
0
11
1.82028022886883
21
1.51612559922366
31
0
210
0
220
0
230
1
40
0.984948
41
1.89585864595784
42
-3.07523992949538
0
ELLIPSE
5
124
100
AcDbEntity
8
1
62
256
6
ByLayer
370
18
48
1
60
0
100
AcDbEllipse
10
29.86391
20
-39.282209
30
0
11
1.82028022876486
21
1.51612559932683
31
0
210
0
220
0
230
1
40
0.984948
41
1.53751876667937
42
1.89585864589722
0
ELLIPSE
5
125
100
AcDbEntity
8
1
62
256
6
ByLayer
370
18
48
1
60
0
100
AcDbEllipse
10
29.705862
20
-39.536663
30
0
11
1.82028022846915
21
1.51612559994743
31
0
210
0
220
0
230
1
40
0.984948
41
-3.07523992983508
42
-2.81653033477516
0
ELLIPSE
5
126
100
AcDbEntity
8
1
62
256
6
ByLayer
370
18
48
1
60
0
100
AcDbEllipse
10
30.187005
20
-30.513303
30
0
11
1.34943099638893
21
1.4761558135862
31
0
210
0
220
0
230
1
40
0.745008
41
1.0433137032106
42
2.4559891974703
0
ELLIPSE
5
127
100
AcDbEntity
8
1
62
256
6
ByLayer
370
18
48
1
60
0
100
AcDbEllipse
10
32.223124
20
-32.979865
30
0
11
1.21562919032207
21
-5.3639766658203
31
0
210
0
220
0
230
1
40
0.079481
41
1.96292039329916
42
2.40468813258603
0
ELLIPSE
5
128
100
AcDbEntity
8
1
62
256
6
ByLayer
370
18
48
1
60
0
100
AcDbEllipse
10
37.278476
20
-31.834179
30
0
11
1.21562919023573
21
-5.3639766653023
31
0
210
0
220
0
230
1
40
0.079481
41
1.96292039324765
42
2.40468813256621
0
ELLIPSE
5
129
100
AcDbEntity
8
1
62
256
6
ByLayer
370
18
48
1
60
0
100
AcDbEllipse
10
38.366034
20
-28.659703
30
0
11
1.95307025237529
21
-0.430716367563206
31
0
210
0
220
0
230
1
40
0.795918
41
0.468981413565365
42
1.88165690782495
0
ELLIPSE
5
12A
100
AcDbEntity
8
1
62
256
6
ByLayer
370
18
48
1
60
0
100
AcDbEllipse
10
39.893266
20
-28.606523
30
0
11
2.38489191668532
21
1.81996993033114
31
0
210
0
220
0
230
1
40
0.982119
41
2.70574311556666
42
2.98818130162342
0
ELLIPSE
5
12B
100
AcDbEntity
8
1
62
256
6
ByLayer
370
18
48
1
60
0
100
AcDbEllipse
10
35.358098
20
-34.125256
30
0
11
3.29910048055914
21
2.51762507455152
31
0
210
0
220
0
230
1
40
0.982119
41
-0.435849539465483
42
-0.218243317374951
0
ELLIPSE
5
12C
100
AcDbEntity
8
1
62
256
6
ByLayer
370
18
48
1
60
0
100
AcDbEllipse
10
35.777301
20
-36.101203
30
0
11
3.299100482604
21
2.51762507250029
31
0
210
0
220
0
230
1
40
0.982119
41
3.08226101437561
42
-0.435849538765786
0
ELLIPSE
5
12D
100
AcDbEntity
8
1
62
256
6
ByLayer
370
18
48
1
60
0
100
AcDbEllipse
10
22.175001
20
-2.999998
30
0
11
16.005864765141
21
35.0151744131912
31
0
210
0
220
0
230
1
40
1
41
3.12743431117744
42
-3.12719255587679
0
ELLIPSE
5
12E
100
AcDbEntity
8
1
62
256
6
ByLayer
370
18
48
1
60
0
100
AcDbEllipse
10
114.618298
20
-2.999966
30
0
11
345.886511383922
21
5.20842943261713
31
0
210
0
220
0
230
1
40
0.110285
41
-1.8865891990258
42
-1.87011764962996
0
ELLIPSE
5
12F
100
AcDbEntity
8
1
62
256
6
ByLayer
370
18
48
1
60
0
100
AcDbEllipse
10
22.174999
20
-2.999998
30
0
11
34.9941180985768
21
16.0518419606877
31
0
210
0
220
0
230
1
40
1
41
1.55508273566618
42
1.5836411771519
0
ELLIPSE
5
130
100
AcDbEntity
8
1
62
256
6
ByLayer
370
18
48
1
60
0
100
AcDbEllipse
10
7.875
20
-34.200125
30
0
11
1.20000000000184
21
-1.35971962855961E-15
31
0
210
0
220
0
230
1
40
0.06712
41
1.68164811757157
42
3.14159265358979
0
ELLIPSE
5
131
100
AcDbEntity
8
1
62
256
6
ByLayer
370
18
48
1
60
0
100
AcDbEllipse
10
24.425112
20
-27.572125
30
0
11
1.09776172626054
21
-5.48141639819593
31
0
210
0
220
0
230
1
40
0.713155
41
-0.670314794557301
42
0.0179797276018005
0
ELLIPSE
5
132
100
AcDbEntity
8
1
62
256
6
ByLayer
370
18
48
1
60
0
100
AcDbEllipse
10
29.089411
20
-62.901845
30
0
11
3.0944540908342
21
11.1410380133799
31
0
210
0
220
0
230
1
40
0.470881
41
0.047808141780296
42
0.0681237153990251
0
ELLIPSE
5
133
100
AcDbEntity
8
1
62
256
6
ByLayer
370
18
48
1
60
0
100
AcDbEllipse
10
30.08856
20
-33.463618
30
0
11
1.43532702349951
21
-5.31371495754409
31
0
210
0
220
0
230
1
40
0.315714
41
2.51211387945769
42
2.56510618422331
0
ELLIPSE
5
134
100
AcDbEntity
8
1
62
256
6
ByLayer
370
18
48
1
60
0
100
AcDbEllipse
10
39.413039
20
-31.350427
30
0
11
1.01272839765876
21
-5.40986005691544
31
0
210
0
220
0
230
1
40
0.15701
41
-2.57210498553061
42
-2.51911267944137
0
ELLIPSE
5
135
100
AcDbEntity
8
1
62
256
6
ByLayer
370
18
48
1
60
0
100
AcDbEllipse
10
28.347756
20
-33.969698
30
0
11
1.02129660300152
21
-3.35538382597331
31
0
210
0
220
0
230
1
40
0.449559
41
2.4923663684302
42
-3.06760083235097
0
ELLIPSE
5
136
100
AcDbEntity
8
1
62
256
6
ByLayer
370
18
48
1
60
0
100
AcDbEllipse
10
29.595892
20
-30.009812
30
0
11
1.74692473622688
21
2.44770324884276
31
0
210
0
220
0
230
1
40
0.987626
41
0.836536035147322
42
1.88822509821126
0
ELLIPSE
5
137
100
AcDbEntity
8
1
62
256
6
ByLayer
370
18
48
1
60
0
100
AcDbEllipse
10
31.178365
20
-32.93643
30
0
11
3.82912728343578
21
-2.54050778593483
31
0
210
0
220
0
230
1
40
0.513319
41
-3.01807766564152
42
-2.65846193228389
0
ELLIPSE
5
138
100
AcDbEntity
8
1
62
256
6
ByLayer
370
18
48
1
60
0
100
AcDbEllipse
10
41.31018
20
-31.032046
30
0
11
0.557174627525388
21
-3.46187196717765
31
0
210
0
220
0
230
1
40
0.291422
41
3.05338149710647
42
-2.50658570367446
0
ELLIPSE
5
139
100
AcDbEntity
8
1
62
256
6
ByLayer
370
18
48
1
60
0
100
AcDbEllipse
10
39.344703
20
-31.085707
30
0
11
0.955289645460877
21
3.92817243177026
31
0
210
0
220
0
230
1
40
0.429707
41
-0.444328979305818
42
-0.368625121796897
0
ELLIPSE
5
13A
100
AcDbEntity
8
1
62
256
6
ByLayer
370
18
48
1
60
0
100
AcDbEllipse
10
37.76223
20
-28.159089
30
0
11
1.74692473625301
21
2.44770324882175
31
0
210
0
220
0
230
1
40
0.987626
41
-0.215153027906072
42
0.836536035158389
0
ELLIPSE
5
13B
100
AcDbEntity
8
1
62
256
6
ByLayer
370
18
48
1
60
0
100
AcDbEllipse
10
39.344703
20
-31.085707
30
0
11
0.955289691544401
21
3.92817252879862
31
0
210
0
220
0
230
1
40
0.429707
41
-0.728240848211496
42
-0.444328971324841
0
ELLIPSE
5
13C
100
AcDbEntity
8
1
62
256
6
ByLayer
370
18
48
1
60
0
100
AcDbEllipse
10
38.494273
20
-49.402929
30
0
11
2.36720814996686
21
0.147511226591158
31
0
210
0
220
0
230
1
40
0.774732
41
-2.38758195023483
42
-1.53237061675799
0
ELLIPSE
5
13D
100
AcDbEntity
8
1
62
256
6
ByLayer
370
18
48
1
60
0
100
AcDbEllipse
10
38.494273
20
-49.402929
30
0
11
1.49187901034667
21
1.62877596564596
31
0
210
0
220
0
230
1
40
0.749302
41
-2.14982292499826
42
-1.29461159152196
0
ELLIPSE
5
13E
100
AcDbEntity
8
1
62
256
6
ByLayer
370
18
48
1
60
0
100
AcDbEllipse
10
31.884147
20
-32.440477
30
0
11
0.296355601717347
21
-0.106763089739609
31
0
210
0
220
0
230
1
40
0.302604
41
0
42
6.28318530717959
0
ELLIPSE
5
13F
100
AcDbEntity
8
1
62
256
6
ByLayer
370
18
48
1
60
0
100
AcDbEllipse
10
31.991727
20
-31.317482
30
0
11
0.26212734315164
21
-0.17468330192739
31
0
210
0
220
0
230
1
40
0.151615
41
0
42
6.28318530717959
0
POINT
5
6C
100
AcDbEntity
8
80
62
256
6
ByLayer
370
18
48
1
60
0
100
AcDbPoint
10
0
20
0
30
0
39
0
210
0
220
0
230
1
50
360
0
POINT
5
6E
100
AcDbEntity
8
81
62
256
6
ByLayer
370
18
48
1
60
0
100
AcDbPoint
10
45.077975
20
-60.543625
30
0
39
0
210
0
220
0
230
1
50
360
0
SPLINE
5
140
100
AcDbEntity
8
1
62
256
6
ByLayer
370
18
48
1
60
0
100
AcDbSpline
70
4
71
1
72
4
73
2
40
0
40
0
40
1
40
1
41
1
10
0.190104359425154
20
-37.4770154133839
30
0
41
1
10
0.675
20
-37.7850542618522
30
0
0
SPLINE
5
141
100
AcDbEntity
8
1
62
256
6
ByLayer
370
18
48
1
60
0
100
AcDbSpline
70
4
71
1
72
4
73
2
40
0
40
0
40
1
40
1
41
1
10
0.190104359425147
20
31.4770154133838
30
0
41
1
10
0.675
20
31.7850542618521
30
0
0
SPLINE
5
142
100
AcDbEntity
8
1
62
256
6
ByLayer
370
18
48
1
60
0
100
AcDbSpline
70
4
71
3
72
11
73
7
40
0
40
0
40
0
40
0
40
0.414823101850642
40
0.687527022367593
40
0.910076580489147
40
1
40
1
40
1
40
1
41
1
10
0.343278579257537
20
-40.9657577144988
30
0
41
1
10
0.366464673990482
20
-40.9903604889047
30
0
41
1
10
0.398960740088618
20
-41.0259991408321
30
0
41
1
10
0.432444308898765
20
-41.0654009750534
30
0
41
1
10
0.443877398035809
20
-41.0814291582371
30
0
41
1
10
0.445234675750342
20
-41.0853053629658
30
0
41
1
10
0.445278447513532
20
-41.0860863514252
30
0
0
SPLINE
5
143
100
AcDbEntity
8
1
62
256
6
ByLayer
370
18
48
1
60
0
100
AcDbSpline
70
4
71
1
72
4
73
2
40
0
40
0
40
1
40
1
41
1
10
0.343278579257543
20
-41.0006420547285
30
0
41
1
10
-0.325
20
-40.3642856716143
30
0
0
SPLINE
5
144
100
AcDbEntity
8
1
62
256
6
ByLayer
370
18
48
1
60
0
100
AcDbSpline
70
4
71
1
72
4
73
2
40
0
40
0
40
1
40
1
41
1
10
0.343278579257541
20
-41.0910588771582
30
0
41
1
10
-0.325
20
-40.3943825159608
30
0
0
SPLINE
5
145
100
AcDbEntity
8
1
62
256
6
ByLayer
370
18
48
1
60
0
100
AcDbSpline
70
4
71
3
72
11
73
7
40
0
40
0
40
0
40
0
40
0.420539200778165
40
0.686077538383456
40
0.906164016571435
40
1
40
1
40
1
40
1
41
1
10
0.343278579257541
20
-41.0910588771582
30
0
41
1
10
0.366836898603028
20
-41.1154774012484
30
0
41
1
10
0.399238957208794
20
-41.1497700122612
30
0
41
1
10
0.432516575511255
20
-41.1866206578218
30
0
41
1
10
0.443846527183927
20
-41.2006799475865
30
0
41
1
10
0.445239646810083
20
-41.2035762442237
30
0
41
1
10
0.445278529408553
20
-41.2040714707357
30
0
0
SPLINE
5
146
100
AcDbEntity
8
1
62
256
6
ByLayer
370
18
48
1
60
0
100
AcDbSpline
70
4
71
1
72
4
73
2
40
0
40
0
40
1
40
1
41
1
10
0.343278579257524
20
-41.1119244990919
30
0
41
1
10
-0.325
20
-40.4620120088337
30
0
0
SPLINE
5
147
100
AcDbEntity
8
1
62
256
6
ByLayer
370
18
48
1
60
0
100
AcDbSpline
70
4
71
1
72
4
73
2
40
0
40
0
40
1
40
1
41
1
10
0.34327857925754
20
-41.1570278445564
30
0
41
1
10
-0.325
20
-40.4770242115086
30
0
0
SPLINE
5
148
100
AcDbEntity
8
1
62
256
6
ByLayer
370
18
48
1
60
0
100
AcDbSpline
70
4
71
3
72
11
73
7
40
0
40
0
40
0
40
0
40
0.425933970172034
40
0.684649017008229
40
0.902391231593078
40
1
40
1
40
1
40
1
41
1
10
0.34327857925754
20
-41.1570278445564
30
0
41
1
10
0.367201497518464
20
-41.1812801408254
30
0
41
1
10
0.399521710581044
20
-41.2142918657755
30
0
41
1
10
0.432599135162227
20
-41.2486548711324
30
0
41
1
10
0.443819720240408
20
-41.2608092355365
30
0
41
1
10
0.445245514866698
20
-41.2627378864387
30
0
41
1
10
0.445278570762478
20
-41.2629276659724
30
0
0
SPLINE
5
149
100
AcDbEntity
8
1
62
256
6
ByLayer
370
18
48
1
60
0
100
AcDbSpline
70
4
71
1
72
4
73
2
40
0
40
0
40
1
40
1
41
1
10
0.343278579257526
20
-41.1639722968845
30
0
41
1
10
-0.325
20
-40.4995312470703
30
0
0
SPLINE
5
14A
100
AcDbEntity
8
1
62
256
6
ByLayer
370
18
48
1
60
0
100
AcDbSpline
70
4
71
1
72
4
73
2
40
0
40
0
40
1
40
1
41
1
10
0.34327857925753
20
-37.6865780736453
30
0
41
1
10
0.190104359425154
20
-37.4770154133839
30
0
0
SPLINE
5
14B
100
AcDbEntity
8
1
62
256
6
ByLayer
370
18
48
1
60
0
100
AcDbSpline
70
4
71
3
72
10
73
6
40
0
40
0
40
0
40
0
40
0.526881375948369
40
0.804841645633065
40
1
40
1
40
1
40
1
41
1
10
0.34327857925753
20
-37.6865780736453
30
0
41
1
10
0.373713516168288
20
-37.7273985285823
30
0
41
1
10
0.409758588486718
20
-37.7837123846247
30
0
41
1
10
0.440362519660764
20
-37.8481354919974
30
0
41
1
10
0.444782016482286
20
-37.8706577259697
30
0
41
1
10
0.445278450757719
20
-37.8789979793877
30
0
0
SPLINE
5
14C
100
AcDbEntity
8
1
62
256
6
ByLayer
370
18
48
1
60
0
100
AcDbSpline
70
4
71
1
72
4
73
2
40
0
40
0
40
1
40
1
41
1
10
0.343278579257558
20
-37.8466477146444
30
0
41
1
10
-0.325
20
-37.2868756778742
30
0
0
SPLINE
5
14D
100
AcDbEntity
8
1
62
256
6
ByLayer
370
18
48
1
60
0
100
AcDbSpline
70
4
71
1
72
4
73
2
40
0
40
0
40
1
40
1
41
1
10
0.34327857925753
20
-38.3367896958143
30
0
41
1
10
-0.325
20
-37.4505419950108
30
0
0
SPLINE
5
14E
100
AcDbEntity
8
1
62
256
6
ByLayer
370
18
48
1
60
0
100
AcDbSpline
70
4
71
3
72
10
73
6
40
0
40
0
40
0
40
0
40
0.510500749938476
40
0.789943215704582
40
1
40
1
40
1
40
1
41
1
10
0.34327857925753
20
-38.3367896958143
30
0
41
1
10
0.372632376081444
20
-38.3748050074676
30
0
41
1
10
0.40827985162989
20
-38.4276853972168
30
0
41
1
10
0.43987821012276
20
-38.4888904098418
30
0
41
1
10
0.444720675068257
20
-38.510253738687
30
0
41
1
10
0.445278563399202
20
-38.5182970993694
30
0
0
SPLINE
5
14F
100
AcDbEntity
8
1
62
256
6
ByLayer
370
18
48
1
60
0
100
AcDbSpline
70
4
71
1
72
4
73
2
40
0
40
0
40
1
40
1
41
1
10
0.343278579257558
20
-38.4789916626927
30
0
41
1
10
-0.325
20
-37.9127819537487
30
0
0
SPLINE
5
150
100
AcDbEntity
8
1
62
256
6
ByLayer
370
18
48
1
60
0
100
AcDbSpline
70
4
71
1
72
4
73
2
40
0
40
0
40
1
40
1
41
1
10
0.343278579257529
20
-38.912653947506
30
0
41
1
10
-0.325
20
-38.0574862725496
30
0
0
SPLINE
5
151
100
AcDbEntity
8
1
62
256
6
ByLayer
370
18
48
1
60
0
100
AcDbSpline
70
4
71
3
72
11
73
7
40
0
40
0
40
0
40
0
40
0.495301697992574
40
0.775353928661593
40
0.99594367115982
40
1
40
1
40
1
40
1
41
1
10
0.343278579257529
20
-38.912653947506
30
0
41
1
10
0.371624334524277
20
-38.9481697313041
30
0
41
1
10
0.4070525884548
20
-38.998173725424
30
0
41
1
10
0.438883930787136
20
-39.0554320091688
30
0
41
1
10
0.445225464235738
20
-39.0768957128944
30
0
41
1
10
0.445278387427549
20
-39.0838098386473
30
0
41
1
10
0.445278571575409
20
-39.0839340059007
30
0
0
SPLINE
5
152
100
AcDbEntity
8
1
62
256
6
ByLayer
370
18
48
1
60
0
100
AcDbSpline
70
4
71
1
72
4
73
2
40
0
40
0
40
1
40
1
41
1
10
0.343278579257553
20
-39.0378806515352
30
0
41
1
10
-0.325
20
-38.4642755988332
30
0
0
SPLINE
5
153
100
AcDbEntity
8
1
62
256
6
ByLayer
370
18
48
1
60
0
100
AcDbSpline
70
4
71
1
72
4
73
2
40
0
40
0
40
1
40
1
41
1
10
0.343278579257529
20
-39.4176979105001
30
0
41
1
10
-0.325
20
-38.5909376632591
30
0
0
SPLINE
5
154
100
AcDbEntity
8
1
62
256
6
ByLayer
370
18
48
1
60
0
100
AcDbSpline
70
4
71
3
72
11
73
7
40
0
40
0
40
0
40
0
40
0.481128427304917
40
0.761159434076171
40
0.982547460064093
40
1
40
1
40
1
40
1
41
1
10
0.343278579257529
20
-39.4176979105001
30
0
41
1
10
0.37067801293788
20
-39.4509699206732
30
0
41
1
10
0.405660087519785
20
-39.4980941705149
30
0
41
1
10
0.437896350328075
20
-39.5518094430487
30
0
41
1
10
0.445042372022264
20
-39.5723413698932
30
0
41
1
10
0.445275485359011
20
-39.5788655975214
30
0
41
1
10
0.445278487817299
20
-39.579329813203
30
0
0
SPLINE
5
155
100
AcDbEntity
8
1
62
256
6
ByLayer
370
18
48
1
60
0
100
AcDbSpline
70
4
71
1
72
4
73
2
40
0
40
0
40
1
40
1
41
1
10
0.343278579257555
20
-39.5266866045523
30
0
41
1
10
-0.325
20
-38.9447818709476
30
0
0
SPLINE
5
156
100
AcDbEntity
8
1
62
256
6
ByLayer
370
18
48
1
60
0
100
AcDbSpline
70
4
71
1
72
4
73
2
40
0
40
0
40
1
40
1
41
1
10
0.343278579257534
20
-39.8548331789408
30
0
41
1
10
-0.325
20
-39.0541584806801
30
0
0
SPLINE
5
157
100
AcDbEntity
8
1
62
256
6
ByLayer
370
18
48
1
60
0
100
AcDbSpline
70
4
71
3
72
11
73
7
40
0
40
0
40
0
40
0
40
0.388093343982387
40
0.693439433448917
40
0.926455296682209
40
1
40
1
40
1
40
1
41
1
10
0.343278579257534
20
-39.8548331789408
30
0
41
1
10
0.364868165537571
20
-39.8803456123467
30
0
41
1
10
0.39788762161899
20
-39.9222286226721
30
0
41
1
10
0.432269094980726
20
-39.9728053667572
30
0
41
1
10
0.444063904990394
20
-39.9976518990701
30
0
41
1
10
0.445230717800283
20
-40.0056396787396
30
0
41
1
10
0.445278189169871
20
-40.0073494428992
30
0
0
SPLINE
5
158
100
AcDbEntity
8
1
62
256
6
ByLayer
370
18
48
1
60
0
100
AcDbSpline
70
4
71
1
72
4
73
2
40
0
40
0
40
1
40
1
41
1
10
0.34327857925755
20
-39.9481911162112
30
0
41
1
10
-0.325
20
-39.3571154486987
30
0
0
SPLINE
5
159
100
AcDbEntity
8
1
62
256
6
ByLayer
370
18
48
1
60
0
100
AcDbSpline
70
4
71
1
72
4
73
2
40
0
40
0
40
1
40
1
41
1
10
0.343278579257535
20
-40.226452103238
30
0
41
1
10
-0.325
20
-39.4498263884754
30
0
0
SPLINE
5
15A
100
AcDbEntity
8
1
62
256
6
ByLayer
370
18
48
1
60
0
100
AcDbSpline
70
4
71
3
72
11
73
7
40
0
40
0
40
0
40
0
40
0.395316899923486
40
0.691760863569683
40
0.922074085896417
40
1
40
1
40
1
40
1
41
1
10
0.343278579257535
20
-40.226452103238
30
0
41
1
10
0.36528674622213
20
-40.2517117483072
30
0
41
1
10
0.398150093032743
20
-40.2918791177853
30
0
41
1
10
0.432294468742964
20
-40.3394783855542
30
0
41
1
10
0.444011090801115
20
-40.3619526960144
30
0
41
1
10
0.445230823990631
20
-40.368876685595
30
0
41
1
10
0.445278292314572
20
-40.3703900813728
30
0
0
SPLINE
5
15B
100
AcDbEntity
8
1
62
256
6
ByLayer
370
18
48
1
60
0
100
AcDbSpline
70
4
71
1
72
4
73
2
40
0
40
0
40
1
40
1
41
1
10
0.343278579257548
20
-40.3046755677214
30
0
41
1
10
-0.325
20
-39.7035739915066
30
0
0
SPLINE
5
15C
100
AcDbEntity
8
1
62
256
6
ByLayer
370
18
48
1
60
0
100
AcDbSpline
70
4
71
1
72
4
73
2
40
0
40
0
40
1
40
1
41
1
10
0.343278579257535
20
-40.5345007125683
30
0
41
1
10
-0.325
20
-39.7801215842199
30
0
0
SPLINE
5
15D
100
AcDbEntity
8
1
62
256
6
ByLayer
370
18
48
1
60
0
100
AcDbSpline
70
4
71
3
72
11
73
7
40
0
40
0
40
0
40
0
40
0.402146263596274
40
0.690203520337936
40
0.917842625228541
40
1
40
1
40
1
40
1
41
1
10
0.343278579257535
20
-40.5345007125683
30
0
41
1
10
0.365691205280594
20
-40.5595243530638
30
0
41
1
10
0.398416479209675
20
-40.5980887372225
30
0
41
1
10
0.432332588184714
20
-40.6428468494713
30
0
41
1
10
0.443963460720162
20
-40.6630737380667
30
0
41
1
10
0.445231909567295
20
-40.6689600686209
30
0
41
1
10
0.445278383228387
20
-40.6702520505783
30
0
0
SPLINE
5
15E
100
AcDbEntity
8
1
62
256
6
ByLayer
370
18
48
1
60
0
100
AcDbSpline
70
4
71
1
72
4
73
2
40
0
40
0
40
1
40
1
41
1
10
0.343278579257549
20
-40.5979894630795
30
0
41
1
10
-0.325
20
-39.9860087566907
30
0
0
SPLINE
5
15F
100
AcDbEntity
8
1
62
256
6
ByLayer
370
18
48
1
60
0
100
AcDbSpline
70
4
71
1
72
4
73
2
40
0
40
0
40
1
40
1
41
1
10
0.343278579257535
20
-40.7805340259889
30
0
41
1
10
-0.325
20
-40.0467926243285
30
0
0
SPLINE
5
160
100
AcDbEntity
8
1
62
256
6
ByLayer
370
18
48
1
60
0
100
AcDbSpline
70
4
71
3
72
11
73
7
40
0
40
0
40
0
40
0
40
0.408772230758387
40
0.689021945542798
40
0.914137625359271
40
1
40
1
40
1
40
1
41
1
10
0.343278579257535
20
-40.7805340259889
30
0
41
1
10
0.366083299262145
20
-40.8053386228053
30
0
41
1
10
0.398686639003362
20
-40.8423976046233
30
0
41
1
10
0.432382829850832
20
-40.8844296784708
30
0
41
1
10
0.443912578182295
20
-40.9025027360529
30
0
41
1
10
0.44523063650256
20
-40.9073740526281
30
0
41
1
10
0.445278319189607
20
-40.9084196747169
30
0
0
SPLINE
5
161
100
AcDbEntity
8
1
62
256
6
ByLayer
370
18
48
1
60
0
100
AcDbSpline
70
4
71
1
72
4
73
2
40
0
40
0
40
1
40
1
41
1
10
0.343278579257547
20
-40.8296022199377
30
0
41
1
10
-0.325
20
-40.2058778118458
30
0
0
SPLINE
5
162
100
AcDbEntity
8
1
62
256
6
ByLayer
370
18
48
1
60
0
100
AcDbSpline
70
4
71
1
72
4
73
2
40
0
40
0
40
1
40
1
41
1
10
0.343278579257537
20
-40.9657577144988
30
0
41
1
10
-0.325
20
-40.2512059368553
30
0
0
SPLINE
5
163
100
AcDbEntity
8
1
62
256
6
ByLayer
370
18
48
1
60
0
100
AcDbSpline
70
4
71
3
72
27
73
23
40
0
40
0
40
0
40
0
40
0.0285263178468648
40
0.0789525042804253
40
0.129384032544835
40
0.180182949142115
40
0.230990473126867
40
0.283430852833975
40
0.335879255696551
40
0.390372593876395
40
0.444870655387431
40
0.500942101155656
40
0.557013504548696
40
0.613680484324471
40
0.670341737774035
40
0.726459602115511
40
0.782566568533731
40
0.837026682277772
40
0.891475662816374
40
0.943730507915759
40
0.995980766993258
40
1
40
1
40
1
40
1
41
1
10
7.24999999999996
20
-41.5
30
0
41
1
10
7.24998332584199
20
-41.4999922498822
30
0
41
1
10
7.23757144275474
20
-41.4990413956904
30
0
41
1
10
7.15954583499108
20
-41.4929619193166
30
0
41
1
10
6.98785792636752
20
-41.4802409883501
30
0
41
1
10
6.73773077576892
20
-41.4629128701421
30
0
41
1
10
6.41611340435101
20
-41.4428276115909
30
0
41
1
10
6.02825182345149
20
-41.4219678634087
30
0
41
1
10
5.57985600425577
20
-41.4022438798082
30
0
41
1
10
5.0834230520946
20
-41.3862558923293
30
0
41
1
10
4.54741302173385
20
-41.3754749624082
30
0
41
1
10
3.99093511667035
20
-41.3719417760231
30
0
41
1
10
3.42747562794823
20
-41.3757643353078
30
0
41
1
10
2.87841022085402
20
-41.387201767521
30
0
41
1
10
2.36061839750395
20
-41.4044628787086
30
0
41
1
10
1.89291856153582
20
-41.4258291451495
30
0
41
1
10
1.49110709255782
20
-41.4482930514673
30
0
41
1
10
1.16803087102959
20
-41.4692139598557
30
0
41
1
10
0.931999865434805
20
-41.4860996586338
30
0
41
1
10
0.788561047531922
20
-41.4969444462534
30
0
41
1
10
0.751244421125056
20
-41.4999043294042
30
0
41
1
10
0.749988485897028
20
-41.500000699763
30
0
41
1
10
0.750004342319356
20
-41.4999997932901
30
0
0
SPLINE
5
164
100
AcDbEntity
8
1
62
256
6
ByLayer
370
18
48
1
60
0
100
AcDbSpline
70
4
71
3
72
12
73
8
40
0
40
0
40
0
40
0
40
0.224372463269598
40
0.475365503112069
40
0.715974603985728
40
0.943441893867832
40
1
40
1
40
1
40
1
41
1
10
6.675
20
-40.6312079968243
30
0
41
1
10
6.67551544200157
20
-40.6605161311707
30
0
41
1
10
6.71750523597839
20
-40.7182259689221
30
0
41
1
10
6.91771361103431
20
-40.7948814800521
30
0
41
1
10
7.24162585082834
20
-40.8500144558923
30
0
41
1
10
7.54072895863762
20
-40.8717600206975
30
0
41
1
10
7.70837673451897
20
-40.8766296431597
30
0
41
1
10
7.74225011574517
20
-40.8773402888322
30
0
0
SPLINE
5
165
100
AcDbEntity
8
1
62
256
6
ByLayer
370
18
48
1
60
0
100
AcDbSpline
70
4
71
3
72
13
73
9
40
0
40
0
40
0
40
0
40
0.0847736339011022
40
0.292400771246584
40
0.500938939044112
40
0.712629397647691
40
0.929029270789234
40
1
40
1
40
1
40
1
41
1
10
7.875
20
34.7015914783448
30
0
41
1
10
7.8207164806091
20
34.7015852657568
30
0
41
1
10
7.63655362410853
20
34.6990346165441
30
0
41
1
10
7.32657217317474
20
34.6792683918527
30
0
41
1
10
7.00214970202082
20
34.6289663481664
30
0
41
1
10
6.77040970351502
20
34.5560607529972
30
0
41
1
10
6.68460465771077
20
34.4859471382453
30
0
41
1
10
6.67501276655656
20
34.4438591917249
30
0
41
1
10
6.67499999999378
20
34.4332739684899
30
0
0
SPLINE
5
166
100
AcDbEntity
8
1
62
256
6
ByLayer
370
18
48
1
60
0
100
AcDbSpline
70
4
71
1
72
4
73
2
40
0
40
0
40
1
40
1
41
1
10
0.675
20
35.3829389182225
30
0
41
1
10
0.19010435942516
20
34.8550348280422
30
0
0
SPLINE
5
167
100
AcDbEntity
8
1
62
256
6
ByLayer
370
18
48
1
60
0
100
AcDbSpline
70
4
71
1
72
4
73
2
40
0
40
0
40
1
40
1
41
1
10
0.19010435942516
20
34.8550348280422
30
0
41
1
10
0.343278579257543
20
35.0006420547285
30
0
0
SPLINE
5
168
100
AcDbEntity
8
1
62
256
6
ByLayer
370
18
48
1
60
0
100
AcDbSpline
70
4
71
3
72
10
73
6
40
0
40
0
40
0
40
0
40
0.429962646202749
40
0.739797198813241
40
1
40
1
40
1
40
1
41
1
10
0.343278579257543
20
35.0006420547285
30
0
41
1
10
0.363177222655588
20
35.0196296200634
30
0
41
1
10
0.393044059345151
20
35.0472478061032
30
0
41
1
10
0.427051252916347
20
35.0765936289705
30
0
41
1
10
0.437984726857471
20
35.0842139326892
30
0
41
1
10
0.441629459758328
20
35.0862054932969
30
0
0
SPLINE
5
169
100
AcDbEntity
8
1
62
256
6
ByLayer
370
18
48
1
60
0
100
AcDbSpline
70
4
71
1
72
4
73
2
40
0
40
0
40
1
40
1
41
1
10
-0.325
20
34.2512059368552
30
0
41
1
10
0.343278579257537
20
34.9657577144987
30
0
0
SPLINE
5
16A
100
AcDbEntity
8
1
62
256
6
ByLayer
370
18
48
1
60
0
100
AcDbSpline
70
4
71
1
72
4
73
2
40
0
40
0
40
1
40
1
41
1
10
-0.325
20
34.2058778118458
30
0
41
1
10
0.343278579257544
20
34.8296022199377
30
0
0
SPLINE
5
16B
100
AcDbEntity
8
1
62
256
6
ByLayer
370
18
48
1
60
0
100
AcDbSpline
70
4
71
3
72
11
73
7
40
0
40
0
40
0
40
0
40
0.348122333990393
40
0.603592601353276
40
0.819470948622019
40
1
40
1
40
1
40
1
41
1
10
0.343278579257544
20
34.8296022199377
30
0
41
1
10
0.362536186838789
20
34.8476471620272
30
0
41
1
10
0.391966969372677
20
34.874036538219
30
0
41
1
10
0.425532489379306
20
34.9013146544426
30
0
41
1
10
0.442146463195016
20
34.9114783098157
30
0
41
1
10
0.445207334571568
20
34.9103591494666
30
0
41
1
10
0.445278485655533
20
34.9084378919069
30
0
0
SPLINE
5
16C
100
AcDbEntity
8
1
62
256
6
ByLayer
370
18
48
1
60
0
100
AcDbSpline
70
4
71
1
72
4
73
2
40
0
40
0
40
1
40
1
41
1
10
-0.325
20
34.0467926243284
30
0
41
1
10
0.343278579257535
20
34.7805340259889
30
0
0
SPLINE
5
16D
100
AcDbEntity
8
1
62
256
6
ByLayer
370
18
48
1
60
0
100
AcDbSpline
70
4
71
1
72
4
73
2
40
0
40
0
40
1
40
1
41
1
10
-0.325
20
33.9860087566907
30
0
41
1
10
0.343278579257546
20
34.5979894630795
30
0
0
SPLINE
5
16E
100
AcDbEntity
8
1
62
256
6
ByLayer
370
18
48
1
60
0
100
AcDbSpline
70
4
71
3
72
11
73
7
40
0
40
0
40
0
40
0
40
0.337173244993511
40
0.589061847596236
40
0.80326165625394
40
1
40
1
40
1
40
1
41
1
10
0.343278579257546
20
34.5979894630794
30
0
41
1
10
0.361904615311851
20
34.6151458294392
30
0
41
1
10
0.39077301796777
20
34.6402775718823
30
0
41
1
10
0.424230829995748
20
34.6659161200632
30
0
41
1
10
0.441789235234681
20
34.6751103810505
30
0
41
1
10
0.44520203754259
20
34.6729876414307
30
0
41
1
10
0.44527853634165
20
34.6702791714622
30
0
0
SPLINE
5
16F
100
AcDbEntity
8
1
62
256
6
ByLayer
370
18
48
1
60
0
100
AcDbSpline
70
4
71
1
72
4
73
2
40
0
40
0
40
1
40
1
41
1
10
-0.325
20
33.7801215842199
30
0
41
1
10
0.343278579257534
20
34.5345007125683
30
0
0
SPLINE
5
170
100
AcDbEntity
8
1
62
256
6
ByLayer
370
18
48
1
60
0
100
AcDbSpline
70
4
71
1
72
4
73
2
40
0
40
0
40
1
40
1
41
1
10
-0.325
20
33.7035739915066
30
0
41
1
10
0.343278579257549
20
34.3046755677213
30
0
0
SPLINE
5
171
100
AcDbEntity
8
1
62
256
6
ByLayer
370
18
48
1
60
0
100
AcDbSpline
70
4
71
3
72
11
73
7
40
0
40
0
40
0
40
0
40
0.326036015001483
40
0.573907060253874
40
0.823554123641277
40
1
40
1
40
1
40
1
41
1
10
0.343278579257549
20
34.3046755677213
30
0
41
1
10
0.361280657654708
20
34.320992431024
30
0
41
1
10
0.389569625089552
20
34.3449272140364
30
0
41
1
10
0.424477830874549
20
34.3701867725028
30
0
41
1
10
0.442189950143453
20
34.3773433776631
30
0
41
1
10
0.445258908310858
20
34.3734156578975
30
0
41
1
10
0.445278432078032
20
34.3704116634205
30
0
0
SPLINE
5
172
100
AcDbEntity
8
1
62
256
6
ByLayer
370
18
48
1
60
0
100
AcDbSpline
70
4
71
1
72
4
73
2
40
0
40
0
40
1
40
1
41
1
10
-0.325
20
33.4498263884754
30
0
41
1
10
0.343278579257534
20
34.226452103238
30
0
0
SPLINE
5
173
100
AcDbEntity
8
1
62
256
6
ByLayer
370
18
48
1
60
0
100
AcDbSpline
70
4
71
1
72
4
73
2
40
0
40
0
40
1
40
1
41
1
10
-0.325
20
33.3571154486986
30
0
41
1
10
0.34327857925755
20
33.9481911162111
30
0
0
SPLINE
5
174
100
AcDbEntity
8
1
62
256
6
ByLayer
370
18
48
1
60
0
100
AcDbSpline
70
4
71
3
72
11
73
7
40
0
40
0
40
0
40
0
40
0.315111174875548
40
0.558837060479245
40
0.804238945779919
40
1
40
1
40
1
40
1
41
1
10
0.34327857925755
20
33.9481911162112
30
0
41
1
10
0.360662550543122
20
33.9637132022149
30
0
41
1
10
0.38835708558044
20
33.9865178864484
30
0
41
1
10
0.42301833400335
20
34.0102098662242
30
0
41
1
10
0.441773935263804
20
34.0163974236675
30
0
41
1
10
0.44525946948305
20
34.0113662114445
30
0
41
1
10
0.445278538269608
20
34.0074208461597
30
0
0
SPLINE
5
175
100
AcDbEntity
8
1
62
256
6
ByLayer
370
18
48
1
60
0
100
AcDbSpline
70
4
71
1
72
4
73
2
40
0
40
0
40
1
40
1
41
1
10
-0.325
20
33.0541584806801
30
0
41
1
10
0.34327857925753
20
33.8548331789408
30
0
0
SPLINE
5
176
100
AcDbEntity
8
1
62
256
6
ByLayer
370
18
48
1
60
0
100
AcDbSpline
70
4
71
1
72
4
73
2
40
0
40
0
40
1
40
1
41
1
10
-0.325
20
32.9447818709476
30
0
41
1
10
0.343278579257551
20
33.5266866045523
30
0
0
SPLINE
5
177
100
AcDbEntity
8
1
62
256
6
ByLayer
370
18
48
1
60
0
100
AcDbSpline
70
4
71
3
72
12
73
8
40
0
40
0
40
0
40
0
40
0.304067206680172
40
0.543270983534542
40
0.784052234571785
40
0.991505297796085
40
1
40
1
40
1
40
1
41
1
10
0.343278579257551
20
33.5266866045523
30
0
41
1
10
0.360048586782361
20
33.5414548323078
30
0
41
1
10
0.387129325597867
20
33.5631975021183
30
0
41
1
10
0.421502107487888
20
33.5853711615604
30
0
41
1
10
0.441096035052824
20
33.5906679462726
30
0
41
1
10
0.445209181243163
20
33.584329957892
30
0
41
1
10
0.445278852970385
20
33.5795683011486
30
0
41
1
10
0.445278575882608
20
33.5793778973283
30
0
0
SPLINE
5
178
100
AcDbEntity
8
1
62
256
6
ByLayer
370
18
48
1
60
0
100
AcDbSpline
70
4
71
1
72
4
73
2
40
0
40
0
40
1
40
1
41
1
10
-0.325
20
32.5909376632591
30
0
41
1
10
0.343278579257529
20
33.4176979105
30
0
0
SPLINE
5
179
100
AcDbEntity
8
1
62
256
6
ByLayer
370
18
48
1
60
0
100
AcDbSpline
70
4
71
1
72
4
73
2
40
0
40
0
40
1
40
1
41
1
10
-0.325
20
32.4642755988332
30
0
41
1
10
0.343278579257553
20
33.0378806515352
30
0
0
SPLINE
5
17A
100
AcDbEntity
8
1
62
256
6
ByLayer
370
18
48
1
60
0
100
AcDbSpline
70
4
71
3
72
12
73
8
40
0
40
0
40
0
40
0
40
0.292539366790443
40
0.526548046884025
40
0.762035944718126
40
0.966206692199751
40
1
40
1
40
1
40
1
41
1
10
0.343278579257553
20
33.0378806515352
30
0
41
1
10
0.359437086008062
20
33.0519326035074
30
0
41
1
10
0.385885332195386
20
33.0726585665288
30
0
41
1
10
0.419915986053566
20
33.0934300485079
30
0
41
1
10
0.43994121980028
20
33.0976782379458
30
0
41
1
10
0.444988936570642
20
33.0904758267609
30
0
41
1
10
0.445283815382491
20
33.0847475409157
30
0
41
1
10
0.445278487574353
20
33.0838853724254
30
0
0
SPLINE
5
17B
100
AcDbEntity
8
1
62
256
6
ByLayer
370
18
48
1
60
0
100
AcDbSpline
70
4
71
1
72
4
73
2
40
0
40
0
40
1
40
1
41
1
10
-0.325
20
32.0574862725495
30
0
41
1
10
0.343278579257532
20
32.912653947506
30
0
0
SPLINE
5
17C
100
AcDbEntity
8
1
62
256
6
ByLayer
370
18
48
1
60
0
100
AcDbSpline
70
4
71
1
72
4
73
2
40
0
40
0
40
1
40
1
41
1
10
-0.325
20
31.9127819537487
30
0
41
1
10
0.343278579257557
20
32.4789916626926
30
0
0
SPLINE
5
17D
100
AcDbEntity
8
1
62
256
6
ByLayer
370
18
48
1
60
0
100
AcDbSpline
70
4
71
3
72
12
73
8
40
0
40
0
40
0
40
0
40
0.280863066550292
40
0.509255259925154
40
0.739031130720472
40
0.939487995394011
40
1
40
1
40
1
40
1
41
1
10
0.343278579257557
20
32.4789916626926
30
0
41
1
10
0.358826366030627
20
32.4923620000871
30
0
41
1
10
0.384619175139219
20
32.5121212998383
30
0
41
1
10
0.418258468209041
20
32.5315750735276
30
0
41
1
10
0.438675020016493
20
32.5348468145124
30
0
41
1
10
0.444734773573103
20
32.5267291016293
30
0
41
1
10
0.445297553890427
20
32.5199104388415
30
0
41
1
10
0.44527821234381
20
32.5181737609986
30
0
0
SPLINE
5
17E
100
AcDbEntity
8
1
62
256
6
ByLayer
370
18
48
1
60
0
100
AcDbSpline
70
4
71
1
72
4
73
2
40
0
40
0
40
1
40
1
41
1
10
-0.325
20
31.4505419950107
30
0
41
1
10
0.34327857925753
20
32.3367896958142
30
0
0
SPLINE
5
17F
100
AcDbEntity
8
1
62
256
6
ByLayer
370
18
48
1
60
0
100
AcDbSpline
70
4
71
1
72
4
73
2
40
0
40
0
40
1
40
1
41
1
10
-0.325
20
31.2868756778742
30
0
41
1
10
0.343278579257561
20
31.8466477146444
30
0
0
SPLINE
5
180
100
AcDbEntity
8
1
62
256
6
ByLayer
370
18
48
1
60
0
100
AcDbSpline
70
4
71
3
72
12
73
8
40
0
40
0
40
0
40
0
40
0.269052779731199
40
0.491408984440569
40
0.715056821184436
40
0.91134914209746
40
1
40
1
40
1
40
1
41
1
10
0.343278579257561
20
31.8466477146444
30
0
41
1
10
0.358214713953555
20
31.8593685521138
30
0
41
1
10
0.38332647604386
20
31.8782083010956
30
0
41
1
10
0.416522027734308
20
31.8964277291569
30
0
41
1
10
0.437286465500162
20
31.8987979887592
30
0
41
1
10
0.444444788508059
20
31.8897123563682
30
0
41
1
10
0.445323264797817
20
31.8816703940718
30
0
41
1
10
0.445277729504437
20
31.8788346937634
30
0
0
SPLINE
5
181
100
AcDbEntity
8
1
62
256
6
ByLayer
370
18
48
1
60
0
100
AcDbSpline
70
4
71
1
72
4
73
2
40
0
40
0
40
1
40
1
41
1
10
0.190104359425147
20
31.4770154133838
30
0
41
1
10
0.34327857925753
20
31.6865780736453
30
0
0
SPLINE
5
182
100
AcDbEntity
8
1
62
256
6
ByLayer
370
18
48
1
60
0
100
AcDbSpline
70
4
71
3
72
13
73
9
40
0
40
0
40
0
40
0
40
0.0307721161762844
40
0.244555876884053
40
0.45931259384028
40
0.654985519165184
40
0.924911593491443
40
1
40
1
40
1
40
1
41
1
10
0.445278450757719
20
-37.8789979793877
30
0
41
1
10
0.445284071844781
20
-37.879964582626
30
0
41
1
10
0.445027944326751
20
-37.8873401158368
30
0
41
1
10
0.440427795184282
20
-37.8975003858919
30
0
41
1
10
0.422473993069646
20
-37.8980182697163
30
0
41
1
10
0.3934041207493
20
-37.8847281272145
30
0
41
1
10
0.365452007347487
20
-37.8648237995931
30
0
41
1
10
0.347288122653175
20
-37.8500178444944
30
0
41
1
10
0.343278579257558
20
-37.8466477146444
30
0
0
SPLINE
5
183
100
AcDbEntity
8
1
62
256
6
ByLayer
370
18
48
1
60
0
100
AcDbSpline
70
4
71
3
72
11
73
7
40
0
40
0
40
0
40
0
40
0.136897834436771
40
0.434376292327143
40
0.884594117932311
40
1
40
1
40
1
40
1
41
1
10
0.445277729504437
20
31.8788346937634
30
0
41
1
10
0.445024171138426
20
31.8731130265457
30
0
41
1
10
0.441995450178148
20
31.853300633377
30
0
41
1
10
0.417917351405362
20
31.798304573648
30
0
41
1
10
0.378963582902075
20
31.7363136813622
30
0
41
1
10
0.349518548416503
20
31.6950811524734
30
0
41
1
10
0.34327857925753
20
31.6865780736453
30
0
0
SPLINE
5
184
100
AcDbEntity
8
1
62
256
6
ByLayer
370
18
48
1
60
0
100
AcDbSpline
70
4
71
3
72
13
73
9
40
0
40
0
40
0
40
0
40
0.0122388324488323
40
0.226567206142849
40
0.441727632044476
40
0.640735672493244
40
0.918746264203803
40
1
40
1
40
1
40
1
41
1
10
0.445278563399202
20
-38.5182970993694
30
0
41
1
10
0.445279351274484
20
-38.518643364083
30
0
41
1
10
0.445181654577594
20
-38.5249391925642
30
0
41
1
10
0.441235471654031
20
-38.533816154717
30
0
41
1
10
0.423844345718875
20
-38.5332494659763
30
0
41
1
10
0.394960014641595
20
-38.5190263756781
30
0
41
1
10
0.36641705974191
20
-38.4981985166364
30
0
41
1
10
0.347603237482081
20
-38.4826669529407
30
0
41
1
10
0.343278579257558
20
-38.4789916626927
30
0
0
SPLINE
5
185
100
AcDbEntity
8
1
62
256
6
ByLayer
370
18
48
1
60
0
100
AcDbSpline
70
4
71
3
72
11
73
7
40
0
40
0
40
0
40
0
40
0.162047987055052
40
0.460617566926602
40
0.905290652645913
40
1
40
1
40
1
40
1
41
1
10
0.44527821234381
20
32.5181737609986
30
0
41
1
10
0.444941274043766
20
32.5120947298959
30
0
41
1
10
0.44125466072325
20
32.4927360386528
30
0
41
1
10
0.415087743948232
20
32.439012918855
30
0
41
1
10
0.376568763089408
20
32.38129323492
30
0
41
1
10
0.348378844057561
20
32.3434904223497
30
0
41
1
10
0.34327857925753
20
32.3367896958142
30
0
0
SPLINE
5
186
100
AcDbEntity
8
1
62
256
6
ByLayer
370
18
48
1
60
0
100
AcDbSpline
70
4
71
3
72
12
73
8
40
0
40
0
40
0
40
0
40
0.209458530958559
40
0.424452724280593
40
0.626287964859458
40
0.911637576587024
40
1
40
1
40
1
40
1
41
1
10
0.445278571575409
20
-39.0839340059007
30
0
41
1
10
0.445324826597333
20
-39.0895008201657
30
0
41
1
10
0.441846069069909
20
-39.096709626455
30
0
41
1
10
0.425215962772982
20
-39.0952479252249
30
0
41
1
10
0.396581710880499
20
-39.0800366885166
30
0
41
1
10
0.367459767685441
20
-39.0582392224009
30
0
41
1
10
0.347972664481416
20
-39.0419203065938
30
0
41
1
10
0.343278579257553
20
-39.0378806515352
30
0
0
SPLINE
5
187
100
AcDbEntity
8
1
62
256
6
ByLayer
370
18
48
1
60
0
100
AcDbSpline
70
4
71
3
72
11
73
7
40
0
40
0
40
0
40
0
40
0.186382254639567
40
0.485395658450988
40
0.924600243475036
40
1
40
1
40
1
40
1
41
1
10
0.445278487574353
20
33.0838853724254
30
0
41
1
10
0.444849308195015
20
33.0776478288045
30
0
41
1
10
0.440493203738753
20
33.0588770414578
30
0
41
1
10
0.412322251559937
20
33.0064175675808
30
0
41
1
10
0.374306610679742
20
32.9525452224962
30
0
41
1
10
0.347323780061198
20
32.9177880788769
30
0
41
1
10
0.343278579257532
20
32.912653947506
30
0
0
SPLINE
5
188
100
AcDbEntity
8
1
62
256
6
ByLayer
370
18
48
1
60
0
100
AcDbSpline
70
4
71
3
72
12
73
8
40
0
40
0
40
0
40
0
40
0.193395214125471
40
0.407674517581711
40
0.611807661454013
40
0.903751743521653
40
1
40
1
40
1
40
1
41
1
10
0.445278487817299
20
-39.579329813203
30
0
41
1
10
0.445308181926072
20
-39.5838528338659
30
0
41
1
10
0.44217869556615
20
-39.5898075481131
30
0
41
1
10
0.42656822446815
20
-39.5873246374721
30
0
41
1
10
0.398259188399758
20
-39.5711614775756
30
0
41
1
10
0.368568726155639
20
-39.5483131023551
30
0
41
1
10
0.348389464054308
20
-39.5311465958683
30
0
41
1
10
0.343278579257555
20
-39.5266866045523
30
0
0
SPLINE
5
189
100
AcDbEntity
8
1
62
256
6
ByLayer
370
18
48
1
60
0
100
AcDbSpline
70
4
71
3
72
11
73
7
40
0
40
0
40
0
40
0
40
0.17241265343353
40
0.455715006273193
40
0.866460337419299
40
1
40
1
40
1
40
1
41
1
10
0.445278575882608
20
33.5793778973284
30
0
41
1
10
0.444954355557498
20
33.5744054073249
30
0
41
1
10
0.441184770604105
20
33.5588812845478
30
0
41
1
10
0.416087055601113
20
33.5137255892873
30
0
41
1
10
0.37852873678521
20
33.4617855425837
30
0
41
1
10
0.350461685128602
20
33.426508938675
30
0
41
1
10
0.343278579257529
20
33.4176979105
30
0
0
SPLINE
5
18A
100
AcDbEntity
8
1
62
256
6
ByLayer
370
18
48
1
60
0
100
AcDbSpline
70
4
71
3
72
12
73
8
40
0
40
0
40
0
40
0
40
0.134323358677477
40
0.35322981436517
40
0.558058072498237
40
0.841929520724616
40
1
40
1
40
1
40
1
41
1
10
0.445278189169871
20
-40.0073494428992
30
0
41
1
10
0.445312584610545
20
-40.0100603895645
30
0
41
1
10
0.443429608596022
20
-40.015047306587
30
0
41
1
10
0.431705871146589
20
-40.0140266055561
30
0
41
1
10
0.405719711231725
20
-39.9991959803317
30
0
41
1
10
0.374435119985997
20
-39.9751218543757
30
0
41
1
10
0.351734126801764
20
-39.9556961565365
30
0
41
1
10
0.34327857925755
20
-39.9481911162112
30
0
0
SPLINE
5
18B
100
AcDbEntity
8
1
62
256
6
ByLayer
370
18
48
1
60
0
100
AcDbSpline
70
4
71
3
72
12
73
8
40
0
40
0
40
0
40
0
40
0.0125920612603127
40
0.196277256326516
40
0.480517059417837
40
0.888165025777175
40
1
40
1
40
1
40
1
41
1
10
0.445278538269608
20
34.0074208461597
30
0
41
1
10
0.44527725886863
20
34.0071364396271
30
0
41
1
10
0.445140535644371
20
34.0025956793208
30
0
41
1
10
0.439724668882321
20
33.9865355728427
30
0
41
1
10
0.413397603428543
20
33.94332033649
30
0
41
1
10
0.376137301540403
20
33.8944891517054
30
0
41
1
10
0.349265483973051
20
33.8619534126907
30
0
41
1
10
0.34327857925753
20
33.8548331789408
30
0
0
SPLINE
5
18C
100
AcDbEntity
8
1
62
256
6
ByLayer
370
18
48
1
60
0
100
AcDbSpline
70
4
71
3
72
19
73
15
40
0
40
0
40
0
40
0
40
0.101686028992367
40
0.203516719044043
40
0.306408689665718
40
0.413166294200632
40
0.53040743789864
40
0.651838644501318
40
0.727471140761421
40
0.783602570335035
40
0.834242082952189
40
0.88889968343017
40
0.944167537512414
40
1
40
1
40
1
40
1
41
1
10
21.4698933427599
20
-27.8120270310389
30
0
41
1
10
21.5423645056288
20
-27.6605710455137
30
0
41
1
10
21.7039593046422
20
-27.3638460798785
30
0
41
1
10
21.9992102798784
20
-26.9349486910878
30
0
41
1
10
22.3460690184295
20
-26.5216428567656
30
0
41
1
10
22.7624197802506
20
-26.1178108857769
30
0
41
1
10
23.271963442615
20
-25.7447602186838
30
0
41
1
10
23.7715791053673
20
-25.4437768631243
30
0
41
1
10
24.1838193822886
20
-25.2125450542528
30
0
41
1
10
24.4977477136873
20
-25.068327630161
30
0
41
1
10
24.7872121265746
20
-24.9613694441905
30
0
41
1
10
25.0769557986909
20
-24.8588319071473
30
0
41
1
10
25.3831173636957
20
-24.7683417312747
30
0
41
1
10
25.5911408251876
20
-24.716264603382
30
0
41
1
10
25.6965566864273
20
-24.6924129722317
30
0
0
SPLINE
5
18D
100
AcDbEntity
8
1
62
256
6
ByLayer
370
18
48
1
60
0
100
AcDbSpline
70
4
71
3
72
11
73
7
40
0
40
0
40
0
40
0
40
0.27606212293518
40
0.552124245870361
40
0.776733154349833
40
1
40
1
40
1
40
1
41
1
10
25.6965566864273
20
-24.6924129722317
30
0
41
1
10
25.6785857458412
20
-24.5360968624091
30
0
41
1
10
25.6921517789099
20
-24.219192180153
30
0
41
1
10
25.8548497225386
20
-23.7532529321439
30
0
41
1
10
26.1169213941025
20
-23.3225056622419
30
0
41
1
10
26.3372759908177
20
-23.0661079832028
30
0
41
1
10
26.46183141008
20
-22.9401251611346
30
0
0
SPLINE
5
18E
100
AcDbEntity
8
1
62
256
6
ByLayer
370
18
48
1
60
0
100
AcDbSpline
70
4
71
3
72
16
73
12
40
0
40
0
40
0
40
0
40
0.13181678939174
40
0.263808680036915
40
0.39916894217356
40
0.534555959570979
40
0.637146931468579
40
0.73981555935595
40
0.842030692044811
40
0.921069367336808
40
1
40
1
40
1
40
1
41
1
10
21.4698933457768
20
-27.8120270265006
30
0
41
1
10
21.5505863478706
20
-27.5003819386301
30
0
41
1
10
21.7579889547941
20
-26.8973723222837
30
0
41
1
10
22.2232462553642
20
-26.0418542688668
30
0
41
1
10
22.8094480023592
20
-25.2545564773977
30
0
41
1
10
23.4585263795901
20
-24.6157163442114
30
0
41
1
10
24.1021902981864
20
-24.0940977180873
30
0
41
1
10
24.7140220625348
20
-23.662558013942
30
0
41
1
10
25.3231796824628
20
-23.3353224827792
30
0
41
1
10
25.9081186843933
20
-23.0933407187636
30
0
41
1
10
26.2754054722405
20
-22.9851672326544
30
0
41
1
10
26.462120958015
20
-22.9401151121217
30
0
0
SPLINE
5
18F
100
AcDbEntity
8
1
62
256
6
ByLayer
370
18
48
1
60
0
100
AcDbSpline
70
4
71
3
72
11
73
7
40
0
40
0
40
0
40
0
40
0.214815686014541
40
0.42963137202908
40
0.71481568601454
40
1
40
1
40
1
40
1
41
1
10
22.8568856682251
20
-32.3538536276383
30
0
41
1
10
23.0145523308954
20
-32.394296447303
30
0
41
1
10
23.3422605899119
20
-32.4571223461506
30
0
41
1
10
23.9334624912494
20
-32.5022671480981
30
0
41
1
10
24.6232680707912
20
-32.4732154069639
30
0
41
1
10
25.131019769315
20
-32.3889023247342
30
0
41
1
10
25.38879691926
20
-32.3307804152423
30
0
0
SPLINE
5
190
100
AcDbEntity
8
1
62
256
6
ByLayer
370
18
48
1
60
0
100
AcDbSpline
70
4
71
3
72
20
73
16
40
0
40
0
40
0
40
0
40
0.0954611577633981
40
0.190423686204093
40
0.286891044164495
40
0.385280336869941
40
0.485040453304317
40
0.585933952660485
40
0.641874070977271
40
0.702538367679671
40
0.766889033697337
40
0.820618933546101
40
0.860513065827665
40
0.928089036650719
40
1
40
1
40
1
40
1
41
1
10
25.38879691926
20
-32.3307804152423
30
0
41
1
10
25.3211517827033
20
-32.0958935090257
30
0
41
1
10
25.2307914470742
20
-31.6235931631534
30
0
41
1
10
25.2298433435907
20
-30.8933274100205
30
0
41
1
10
25.3624476321594
20
-30.159264851308
30
0
41
1
10
25.6401698757936
20
-29.4331020221437
30
0
41
1
10
26.0557899779581
20
-28.7348362042654
30
0
41
1
10
26.5133629705693
20
-28.1787357852304
30
0
41
1
10
26.9723351846988
20
-27.7519109353811
30
0
41
1
10
27.4017994473941
20
-27.4340073185882
30
0
41
1
10
27.8579574343621
20
-27.1529021808607
30
0
41
1
10
28.2702382000443
20
-26.9148192093219
30
0
41
1
10
28.7130097344647
20
-26.6997005944366
30
0
41
1
10
29.2384196003731
20
-26.5132148063676
30
0
41
1
10
29.6565300570648
20
-26.3961871181351
30
0
41
1
10
29.8766549987141
20
-26.3454955989671
30
0
0
SPLINE
5
191
100
AcDbEntity
8
1
62
256
6
ByLayer
370
18
48
1
60
0
100
AcDbSpline
70
4
71
3
72
15
73
11
40
0
40
0
40
0
40
0
40
0.124999999999999
40
0.250000000000001
40
0.375000000000001
40
0.500000000000001
40
0.625000000000001
40
0.749999999999999
40
0.874999999999989
40
1
40
1
40
1
40
1
41
1
10
29.8766549987141
20
-26.3454955989671
30
0
41
1
10
29.6188160094519
20
-26.4039292241071
30
0
41
1
10
29.1109320697291
20
-26.4887251462943
30
0
41
1
10
28.3597153216149
20
-26.5191428867649
30
0
41
1
10
27.6574265997743
20
-26.454470960022
30
0
41
1
10
27.0314702403345
20
-26.2925223727605
30
0
41
1
10
26.5018168743907
20
-26.044355373153
30
0
41
1
10
26.0947896082811
20
-25.7153409476369
30
0
41
1
10
25.8187353524049
20
-25.3203538881124
30
0
41
1
10
25.7348554813602
20
-25.0255462662917
30
0
41
1
10
25.7168845407741
20
-24.8692301564691
30
0
0
SPLINE
5
192
100
AcDbEntity
8
1
62
256
6
ByLayer
370
18
48
1
60
0
100
AcDbSpline
70
4
71
3
72
19
73
15
40
0
40
0
40
0
40
0
40
0.100899591059675
40
0.202098136986924
40
0.303934167796799
40
0.407820726908128
40
0.52055737131808
40
0.643470625945844
40
0.724910047907804
40
0.785666795072363
40
0.835359804652414
40
0.889444636024404
40
0.944430265085906
40
1
40
1
40
1
40
1
41
1
10
21.3692916582521
20
-28.2646607292741
30
0
41
1
10
21.4342963773972
20
-28.1022388349116
30
0
41
1
10
21.5835367135217
20
-27.7833126468513
30
0
41
1
10
21.8662845932377
20
-27.3204385020113
30
0
41
1
10
22.208049720436
20
-26.8776710484119
30
0
41
1
10
22.6117639225046
20
-26.4435929064753
30
0
41
1
10
23.1214363941428
20
-26.0349195127348
30
0
41
1
10
23.6495209768451
20
-25.7042483239657
30
0
41
1
10
24.1037581652087
20
-25.4432521830245
30
0
41
1
10
24.4475806368738
20
-25.2721877967511
30
0
41
1
10
24.7604897645519
20
-25.1556669958699
30
0
41
1
10
25.0636178703439
20
-25.0463082716791
30
0
41
1
10
25.3859176952847
20
-24.949683198109
30
0
41
1
10
25.6055156390608
20
-24.8944235801194
30
0
41
1
10
25.7168845407741
20
-24.8692301564692
30
0
0
SPLINE
5
193
100
AcDbEntity
8
1
62
256
6
ByLayer
370
18
48
1
60
0
100
AcDbSpline
70
4
71
3
72
14
73
10
40
0
40
0
40
0
40
0
40
0.143560996538262
40
0.287112424883554
40
0.433014242029094
40
0.578934506226534
40
0.723801947265303
40
0.868716495079338
40
1
40
1
40
1
40
1
41
1
10
22.8568856682252
20
-32.3538536276384
30
0
41
1
10
22.6796297370903
20
-32.2210820253592
30
0
41
1
10
22.3524604853504
20
-31.9309092849797
30
0
41
1
10
21.9344624596977
20
-31.4136305152615
30
0
41
1
10
21.6119548274717
20
-30.8290175482381
30
0
41
1
10
21.3912383741311
20
-30.1954668255079
30
0
41
1
10
21.2805696977604
20
-29.534564921712
30
0
41
1
10
21.2739570299965
20
-28.8848996507874
30
0
41
1
10
21.3292783310025
20
-28.4642954168233
30
0
41
1
10
21.3692916581134
20
-28.2646607280864
30
0
0
SPLINE
5
194
100
AcDbEntity
8
1
62
256
6
ByLayer
370
18
48
1
60
0
100
AcDbSpline
70
4
71
3
72
12
73
8
40
0
40
0
40
0
40
0
40
0.128351671741724
40
0.344123798178838
40
0.550487977087635
40
0.843151535017469
40
1
40
1
40
1
40
1
41
1
10
0.445278292314572
20
-40.3703900813728
30
0
41
1
10
0.445297954501963
20
-40.3725818601362
30
0
41
1
10
0.443503765231837
20
-40.3764729924093
30
0
41
1
10
0.43211097727757
20
-40.3740099942048
30
0
41
1
10
0.406228264386781
20
-40.3576890067562
30
0
41
1
10
0.374694121498564
20
-40.3323931270776
30
0
41
1
10
0.35165401408475
20
-40.3122267716734
30
0
41
1
10
0.343278579257548
20
-40.3046755677214
30
0
0
SPLINE
5
195
100
AcDbEntity
8
1
62
256
6
ByLayer
370
18
48
1
60
0
100
AcDbSpline
70
4
71
3
72
12
73
8
40
0
40
0
40
0
40
0
40
0.0322968194543203
40
0.219777874813406
40
0.504502365976543
40
0.909028041026555
40
1
40
1
40
1
40
1
41
1
10
0.445278432078032
20
34.3704116634205
30
0
41
1
10
0.445271091126863
20
34.3697999138216
30
0
41
1
10
0.444893978746415
20
34.365332462165
30
0
41
1
10
0.438221141174902
20
34.3494228142922
30
0
41
1
10
0.410593045239877
20
34.3079413659205
30
0
41
1
10
0.373837659476759
20
34.2621132201784
30
0
41
1
10
0.348127085100585
20
34.2320508917364
30
0
41
1
10
0.343278579257534
20
34.226452103238
30
0
0
SPLINE
5
196
100
AcDbEntity
8
1
62
256
6
ByLayer
370
18
48
1
60
0
100
AcDbSpline
70
4
71
3
72
12
73
8
40
0
40
0
40
0
40
0
40
0.226991467501728
40
0.453906533980565
40
0.681770263866788
40
0.903515484858366
40
1
40
1
40
1
40
1
41
1
10
14.675
20
-42.5639613889692
30
0
41
1
10
14.672985660204
20
-42.3743788430401
30
0
41
1
10
14.6126319929193
20
-42.0192249144304
30
0
41
1
10
14.3406904718072
20
-41.5317090105834
30
0
41
1
10
13.926741034856
20
-41.1711593030566
30
0
41
1
10
13.5068841996413
20
-41.0122636589403
30
0
41
1
10
13.253596342312
20
-40.9875467429402
30
0
41
1
10
13.175
20
-40.9857875517052
30
0
0
SPLINE
5
197
100
AcDbEntity
8
1
62
256
6
ByLayer
370
18
48
1
60
0
100
AcDbSpline
70
4
71
3
72
10
73
6
40
0
40
0
40
0
40
0
40
0.323427137872764
40
0.66170220629708
40
1
40
1
40
1
40
1
41
1
10
21.3692916589852
20
-28.2646607279658
30
0
41
1
10
21.3740922597968
20
-28.2402796210743
30
0
41
1
10
21.3841086509462
20
-28.1904354037142
30
0
41
1
10
21.3998481835792
20
-28.1152202985272
30
0
41
1
10
21.4109139039102
20
-28.0644157853859
30
0
41
1
10
21.4165511372386
20
-28.0390331404095
30
0
0
SPLINE
5
198
100
AcDbEntity
8
1
62
256
6
ByLayer
370
18
48
1
60
0
100
AcDbSpline
70
4
71
3
72
10
73
6
40
0
40
0
40
0
40
0
40
0.31984489595792
40
0.659910531317946
40
1
40
1
40
1
40
1
41
1
10
21.4165511381525
20
-28.039033140445
30
0
41
1
10
21.421940597331
20
-28.014766289331
30
0
41
1
10
21.433256643947
20
-27.9647410144108
30
0
41
1
10
21.4510187740852
20
-27.8890647830724
30
0
41
1
10
21.4635299480951
20
-27.8376909568225
30
0
41
1
10
21.4698933422067
20
-27.8120270262271
30
0
0
SPLINE
5
199
100
AcDbEntity
8
1
62
256
6
ByLayer
370
18
48
1
60
0
100
AcDbSpline
70
4
71
3
72
13
73
9
40
0
40
0
40
0
40
0
40
0.20632881916278
40
0.312336107504716
40
0.418223097648572
40
0.706639321301506
40
0.852837932926963
40
1
40
1
40
1
40
1
41
1
10
38.1877592633839
20
-20.2827530303696
30
0
41
1
10
38.4745107272738
20
-20.2236594995933
30
0
41
1
10
38.9102017484989
20
-20.1666655862248
30
0
41
1
10
39.4990181060837
20
-20.1534572893628
30
0
41
1
10
40.2009178826026
20
-20.197486176603
30
0
41
1
10
40.9463259454184
20
-20.3463282211603
30
0
41
1
10
41.735476968421
20
-20.5504881744164
30
0
41
1
10
42.1207974981979
20
-20.6912671820353
30
0
41
1
10
42.3115974916348
20
-20.7694936220791
30
0
0
SPLINE
5
19A
100
AcDbEntity
8
1
62
256
6
ByLayer
370
18
48
1
60
0
100
AcDbSpline
70
4
71
1
72
4
73
2
40
0
40
0
40
1
40
1
41
1
10
25.7067206136007
20
-24.7808215643505
30
0
41
1
10
25.6965566864273
20
-24.6924129722316
30
0
0
SPLINE
5
19B
100
AcDbEntity
8
1
62
256
6
ByLayer
370
18
48
1
60
0
100
AcDbSpline
70
4
71
1
72
4
73
2
40
0
40
0
40
1
40
1
41
1
10
25.7168845407741
20
-24.8692301564692
30
0
41
1
10
25.7067206136007
20
-24.7808215643503
30
0
0
SPLINE
5
19C
100
AcDbEntity
8
1
62
256
6
ByLayer
370
18
48
1
60
0
100
AcDbSpline
70
4
71
3
72
17
73
13
40
0
40
0
40
0
40
0
40
0.119959689389108
40
0.23991937877822
40
0.305322849737367
40
0.37003787896739
40
0.499985978379666
40
0.62993407779194
40
0.759882177204219
40
0.840135148658704
40
0.919747028545515
40
1
40
1
40
1
40
1
41
1
10
39.3274479407126
20
-21.7846906074607
30
0
41
1
10
39.3446808629575
20
-21.9345872338111
30
0
41
1
10
39.3335380662667
20
-22.238488845891
30
0
41
1
10
39.1994402610278
20
-22.6428874683529
30
0
41
1
10
39.0209988792357
20
-22.9716257979429
30
0
41
1
10
38.7855545977097
20
-23.3095439144073
30
0
41
1
10
38.3999599423612
20
-23.7169805974421
30
0
41
1
10
37.8178221221358
20
-24.1636007248618
30
0
41
1
10
37.2203852621051
20
-24.4976028465951
30
0
41
1
10
36.6718361136651
20
-24.7360772610666
30
0
41
1
10
36.1966523581589
20
-24.900802055149
30
0
41
1
10
35.8739632495113
20
-24.9864370284107
30
0
41
1
10
35.7097535986877
20
-25.0235500779634
30
0
0
SPLINE
5
19D
100
AcDbEntity
8
1
62
256
6
ByLayer
370
18
48
1
60
0
100
AcDbSpline
70
4
71
1
72
4
73
2
40
0
40
0
40
1
40
1
41
1
10
39.3274479407126
20
-21.7846906074607
30
0
41
1
10
39.3172840135392
20
-21.6962820153419
30
0
0
SPLINE
5
19E
100
AcDbEntity
8
1
62
256
6
ByLayer
370
18
48
1
60
0
100
AcDbSpline
70
4
71
1
72
4
73
2
40
0
40
0
40
1
40
1
41
1
10
39.3172840135392
20
-21.6962820153419
30
0
41
1
10
39.3071200863658
20
-21.6078734232231
30
0
0
SPLINE
5
19F
100
AcDbEntity
8
1
62
256
6
ByLayer
370
18
48
1
60
0
100
AcDbSpline
70
4
71
3
72
12
73
8
40
0
40
0
40
0
40
0
40
0.182727902484379
40
0.469711786710094
40
0.646946464037644
40
0.822765322672444
40
1
40
1
40
1
40
1
41
1
10
38.1880643341322
20
-20.2826226846175
30
0
41
1
10
38.3078360971538
20
-20.3353145236244
30
0
41
1
10
38.5923417329782
20
-20.4848782232236
30
0
41
1
10
38.9053923568311
20
-20.7465281676774
30
0
41
1
10
39.1278656931663
20
-21.0451735749987
30
0
41
1
10
39.253156862223
20
-21.3163689024347
30
0
41
1
10
39.2958389356333
20
-21.5082904557248
30
0
41
1
10
39.3071200863658
20
-21.6078734232231
30
0
0
SPLINE
5
1A0
100
AcDbEntity
8
1
62
256
6
ByLayer
370
18
48
1
60
0
100
AcDbSpline
70
4
71
3
72
19
73
15
40
0
40
0
40
0
40
0
40
0.101366359044343
40
0.202830865706777
40
0.30514992909198
40
0.41026791522318
40
0.525191421963767
40
0.647815078561921
40
0.72636069234087
40
0.784787834319697
40
0.834818308091216
40
0.8891918444675
40
0.944308678901669
40
1
40
1
40
1
40
1
41
1
10
21.4165511373857
20
-28.0390331416891
30
0
41
1
10
21.4855057264061
20
-27.8818798741881
30
0
41
1
10
21.641293580286
20
-27.573855910944
30
0
41
1
10
21.9306860176271
20
-27.1277444231474
30
0
41
1
10
22.2753322453846
20
-26.7000664899196
30
0
41
1
10
22.6846360983157
20
-26.2806148448779
30
0
41
1
10
23.1955508049734
20
-25.8896829658081
30
0
41
1
10
23.7105018415571
20
-25.5738532259698
30
0
41
1
10
24.1442655146036
20
-25.3273562470155
30
0
41
1
10
24.4727862675932
20
-25.1698788725491
30
0
41
1
10
24.7738676688902
20
-25.0585710928289
30
0
41
1
10
25.0701220792084
20
-24.9525710830821
30
0
41
1
10
25.3844625133788
20
-24.8590310438911
30
0
41
1
10
25.5983090809989
20
-24.8053484939451
30
0
41
1
10
25.7067206136008
20
-24.7808215643505
30
0
0
SPLINE
5
1A1
100
AcDbEntity
8
1
62
256
6
ByLayer
370
18
48
1
60
0
100
AcDbSpline
70
4
71
3
72
12
73
8
40
0
40
0
40
0
40
0
40
0.12282913619611
40
0.335630507416058
40
0.543629905373505
40
0.845199792074827
40
1
40
1
40
1
40
1
41
1
10
0.445278383228387
20
-40.6702520505783
30
0
41
1
10
0.445285570538122
20
-40.6719679066353
30
0
41
1
10
0.443572365236744
20
-40.6748132414553
30
0
41
1
10
0.432482446949126
20
-40.670941029861
30
0
41
1
10
0.406665477774217
20
-40.6530529162749
30
0
41
1
10
0.374887837577725
20
-40.6264828633013
30
0
41
1
10
0.351532636250666
20
-40.6055575132952
30
0
41
1
10
0.343278579257549
20
-40.5979894630795
30
0
0
SPLINE
5
1A2
100
AcDbEntity
8
1
62
256
6
ByLayer
370
18
48
1
60
0
100
AcDbSpline
70
4
71
3
72
12
73
8
40
0
40
0
40
0
40
0
40
0.0164539035174149
40
0.204853892321513
40
0.475041847922727
40
0.853975923278965
40
1
40
1
40
1
40
1
41
1
10
0.44527853634165
20
34.6702791714622
30
0
41
1
10
0.445276829616516
20
34.6700297699909
30
0
41
1
10
0.445098392324466
20
34.6667751127302
30
0
41
1
10
0.43957961881186
20
34.6541756183319
30
0
41
1
10
0.41437089044555
20
34.618069358496
30
0
41
1
10
0.377931092470478
20
34.5738914665219
30
0
41
1
10
0.351087328631975
20
34.5432588889184
30
0
41
1
10
0.343278579257534
20
34.5345007125683
30
0
0
SPLINE
5
1A3
100
AcDbEntity
8
1
62
256
6
ByLayer
370
18
48
1
60
0
100
AcDbSpline
70
4
71
3
72
13
73
9
40
0
40
0
40
0
40
0
40
0.206878802269419
40
0.389865310802563
40
0.528088744736852
40
0.634283052989987
40
0.814813886314078
40
1
40
1
40
1
40
1
41
1
10
42.2127279994345
20
-21.5388116158447
30
0
41
1
10
42.0151892124527
20
-21.5103080758835
30
0
41
1
10
41.641004856565
20
-21.4661374634179
30
0
41
1
10
41.1291617480167
20
-21.4305271106751
30
0
41
1
10
40.7117687332007
20
-21.4181563215441
30
0
41
1
10
40.2962127331594
20
-21.4514224033807
30
0
41
1
10
39.8357292792738
20
-21.5006363341127
30
0
41
1
10
39.4841542979067
20
-21.5678320337855
30
0
41
1
10
39.3071200863658
20
-21.6078734232231
30
0
0
SPLINE
5
1A4
100
AcDbEntity
8
1
62
256
6
ByLayer
370
18
48
1
60
0
100
AcDbSpline
70
4
71
2
72
6
73
3
40
0
40
0
40
0
40
1
40
1
40
1
41
1
10
42.2127279993847
20
-21.538811615961
30
0
41
1
10
42.2506429156478
20
-21.0587471708258
30
0
41
1
10
42.3115974916348
20
-20.7694936220791
30
0
0
SPLINE
5
1A5
100
AcDbEntity
8
1
62
256
6
ByLayer
370
18
48
1
60
0
100
AcDbSpline
70
4
71
3
72
13
73
9
40
0
40
0
40
0
40
0
40
0.20794677241298
40
0.389437984526833
40
0.526415034685983
40
0.632746275026951
40
0.814123803199002
40
1
40
1
40
1
40
1
41
1
10
42.1985602125018
20
-21.7102941686022
30
0
41
1
10
42.0021813641289
20
-21.682847355697
30
0
41
1
10
41.6325822323977
20
-21.6407438043039
30
0
41
1
10
41.128444910215
20
-21.6061584552553
30
0
41
1
10
40.7184579289072
20
-21.5954972165137
30
0
41
1
10
40.308251974487
20
-21.6292079546125
30
0
41
1
10
39.8517419410807
20
-21.6781548546983
30
0
41
1
10
39.5029840916508
20
-21.74497210027
30
0
41
1
10
39.3274479407126
20
-21.7846906074607
30
0
0
SPLINE
5
1A6
100
AcDbEntity
8
1
62
256
6
ByLayer
370
18
48
1
60
0
100
AcDbSpline
70
4
71
3
72
20
73
16
40
0
40
0
40
0
40
0
40
0.0954632760362964
40
0.192505798078064
40
0.291218425103201
40
0.391274123840669
40
0.491993111746376
40
0.597055084159453
40
0.675715227301415
40
0.755838066028026
40
0.817499514687268
40
0.861583553917299
40
0.906420043492857
40
0.952941921917013
40
1
40
1
40
1
40
1
41
1
10
42.5096552529025
20
-27.4733379035883
30
0
41
1
10
42.400878119865
20
-27.2840976792798
30
0
41
1
10
42.1527278303341
20
-26.9188223054751
30
0
41
1
10
41.6878873006789
20
-26.4104625812554
30
0
41
1
10
41.1282536300315
20
-25.9570601977691
30
0
41
1
10
40.4875536064271
20
-25.5659486049892
30
0
41
1
10
39.7700599499206
20
-25.2426808413173
30
0
41
1
10
39.0515545035168
20
-25.0206789240876
30
0
41
1
10
38.3481685321451
20
-24.9094254186189
30
0
41
1
10
37.7516755734175
20
-24.8603803350507
30
0
41
1
10
37.2454908536941
20
-24.8314081897316
30
0
41
1
10
36.8326740076347
20
-24.8545603442021
30
0
41
1
10
36.4628580440432
20
-24.8906541473846
30
0
41
1
10
36.086667035273
20
-24.9447833156393
30
0
41
1
10
35.8354523681427
20
-24.9949967154588
30
0
41
1
10
35.7097535986877
20
-25.0235500779634
30
0
0
SPLINE
5
1A7
100
AcDbEntity
8
1
62
256
6
ByLayer
370
18
48
1
60
0
100
AcDbSpline
70
4
71
3
72
19
73
15
40
0
40
0
40
0
40
0
40
0.0913474455602821
40
0.183045057173104
40
0.274065995838007
40
0.364485876703704
40
0.41949358738994
40
0.474419002327551
40
0.529691992014424
40
0.584994216846962
40
0.653026090184492
40
0.72126516632074
40
0.860488318983011
40
1
40
1
40
1
40
1
41
1
10
42.509655253325
20
-27.4733379047683
30
0
41
1
10
42.4851943177378
20
-27.3060865230554
30
0
41
1
10
42.436628618286
20
-26.9653809884546
30
0
41
1
10
42.3645316790269
20
-26.4457437006224
30
0
41
1
10
42.2954741945905
20
-25.8970186939863
30
0
41
1
10
42.2399733773414
20
-25.3889371044335
30
0
41
1
10
42.198749104016
20
-24.9361161157515
30
0
41
1
10
42.1703548102701
20
-24.5521995027187
30
0
41
1
10
42.1495655748965
20
-24.1690602907501
30
0
41
1
10
42.1353933067649
20
-23.7703714532739
30
0
41
1
10
42.1306516890012
20
-23.3750568310755
30
0
41
1
10
42.1359000195937
20
-22.8614649886047
30
0
41
1
10
42.1568327407791
20
-22.2891773629842
30
0
41
1
10
42.1827665574423
20
-21.891952786972
30
0
41
1
10
42.1985602084382
20
-21.7102941678921
30
0
0
SPLINE
5
1A8
100
AcDbEntity
8
1
62
256
6
ByLayer
370
18
48
1
60
0
100
AcDbSpline
70
4
71
3
72
11
73
7
40
0
40
0
40
0
40
0
40
0.247591200286335
40
0.498810590121419
40
0.881989867805674
40
1
40
1
40
1
40
1
41
1
10
0.442224521536961
20
-40.9102359647747
30
0
41
1
10
0.439051401186275
20
-40.9093152398252
30
0
41
1
10
0.429828955674414
20
-40.9042664482964
30
0
41
1
10
0.401659441941402
20
-40.8822896843185
30
0
41
1
10
0.37053141125607
20
-40.8547999106233
30
0
41
1
10
0.348576214998877
20
-40.8345434369062
30
0
41
1
10
0.343278579257547
20
-40.8296022199377
30
0
0
SPLINE
5
1A9
100
AcDbEntity
8
1
62
256
6
ByLayer
370
18
48
1
60
0
100
AcDbSpline
70
4
71
3
72
12
73
8
40
0
40
0
40
0
40
0
40
0.0337282095679085
40
0.225575128773159
40
0.495093486046787
40
0.870053569242938
40
1
40
1
40
1
40
1
41
1
10
0.445278485655533
20
34.9084378919069
30
0
41
1
10
0.445272406059184
20
34.9080422521227
30
0
41
1
10
0.444884067757841
20
34.9050618437867
30
0
41
1
10
0.438308979041611
20
34.892848094066
30
0
41
1
10
0.412085241815489
20
34.8583641597495
30
0
41
1
10
0.376091493026258
20
34.8167103643081
30
0
41
1
10
0.350202475372677
20
34.7880944467216
30
0
41
1
10
0.343278579257535
20
34.7805340259889
30
0
0
SPLINE
5
1AA
100
AcDbEntity
8
1
62
256
6
ByLayer
370
18
48
1
60
0
100
AcDbSpline
70
4
71
3
72
13
73
9
40
0
40
0
40
0
40
0
40
0.207432102870317
40
0.389667985525469
40
0.52726586721671
40
0.633519734353135
40
0.814471737255552
40
1
40
1
40
1
40
1
41
1
10
42.2056408959466
20
-21.6245305874307
30
0
41
1
10
42.0086587308014
20
-21.596560447538
30
0
41
1
10
41.6367494788268
20
-21.553435226567
30
0
41
1
10
41.1287536074153
20
-21.5183340811127
30
0
41
1
10
40.7150847864778
20
-21.5068194981203
30
0
41
1
10
40.3022192975424
20
-21.5403187865724
30
0
41
1
10
39.8437326214513
20
-21.5893947010341
30
0
41
1
10
39.4935678196487
20
-21.6564022710646
30
0
41
1
10
39.3172840135392
20
-21.6962820153419
30
0
0
SPLINE
5
1AB
100
AcDbEntity
8
1
62
256
6
ByLayer
370
18
48
1
60
0
100
AcDbSpline
70
4
71
3
72
10
73
6
40
0
40
0
40
0
40
0
40
0.24999999468354
40
0.624999993681863
40
1
40
1
40
1
40
1
41
1
10
42.2056408959375
20
-21.6245305874524
30
0
41
1
10
42.2062312238094
20
-21.6173854193242
30
0
41
1
10
42.207707208493
20
-21.5995236990039
30
0
41
1
10
42.2100694423792
20
-21.5709497342987
30
0
41
1
10
42.2118417141298
20
-21.5495236003872
30
0
41
1
10
42.2127279987786
20
-21.538811615729
30
0
0
SPLINE
5
1AC
100
AcDbEntity
8
1
62
256
6
ByLayer
370
18
48
1
60
0
100
AcDbSpline
70
4
71
3
72
10
73
6
40
0
40
0
40
0
40
0
40
0.249999994798215
40
0.624999993818258
40
1
40
1
40
1
40
1
41
1
10
42.1985602085787
20
-21.710294168035
30
0
41
1
10
42.1991500046327
20
-21.7031453038387
30
0
41
1
10
42.2006246580127
20
-21.6852743300155
30
0
41
1
10
42.202984754842
20
-21.6566855066144
30
0
41
1
10
42.2047554173772
20
-21.6352481802991
30
0
41
1
10
42.2056408958249
20
-21.6245305873948
30
0
0
SPLINE
5
1AD
100
AcDbEntity
8
1
62
256
6
ByLayer
370
18
48
1
60
0
100
AcDbSpline
70
4
71
3
72
11
73
7
40
0
40
0
40
0
40
0
40
0.241526076203254
40
0.491968712533472
40
0.87907649541174
40
1
40
1
40
1
40
1
41
1
10
0.442569825470048
20
-41.0866355086856
30
0
41
1
10
0.439582490942089
20
-41.0852416321226
30
0
41
1
10
0.430692396420841
20
-41.0793430331105
30
0
41
1
10
0.402802872779685
20
-41.0559439423162
30
0
41
1
10
0.371265069362302
20
-41.0270911074346
30
0
41
1
10
0.348773748843812
20
-41.0058679697836
30
0
41
1
10
0.343278579257543
20
-41.0006420547285
30
0
0
SPLINE
5
1AE
100
AcDbEntity
8
1
62
256
6
ByLayer
370
18
48
1
60
0
100
AcDbSpline
70
4
71
3
72
12
73
8
40
0
40
0
40
0
40
0
40
0.0512885317101117
40
0.246298013764541
40
0.514769644056918
40
0.885632789404985
40
1
40
1
40
1
40
1
41
1
10
0.445278482836152
20
35.0860896856404
30
0
41
1
10
0.445266650129808
20
35.0856596545453
30
0
41
1
10
0.444643180459912
20
35.0830433165564
30
0
41
1
10
0.436980491633998
20
35.0712542443405
30
0
41
1
10
0.40980432927973
20
35.0383079107499
30
0
41
1
10
0.374303169808795
20
34.9989852867038
30
0
41
1
10
0.349353779453772
20
34.972223369826
30
0
41
1
10
0.343278579257537
20
34.9657577144987
30
0
0
SPLINE
5
1AF
100
AcDbEntity
8
1
62
256
6
ByLayer
370
18
48
1
60
0
100
AcDbSpline
70
4
71
3
72
11
73
7
40
0
40
0
40
0
40
0
40
0.235985139277498
40
0.485848747994545
40
0.877397220818644
40
1
40
1
40
1
40
1
41
1
10
0.442878759605145
20
-41.2035007054131
30
0
41
1
10
0.440063593334302
20
-41.2016307967728
30
0
41
1
10
0.431484692784903
20
-41.1948459158298
30
0
41
1
10
0.403832274614718
20
-41.169901347759
30
0
41
1
10
0.371909612796969
20
-41.139611722427
30
0
41
1
10
0.348914695846579
20
-41.1173950132738
30
0
41
1
10
0.343278579257524
20
-41.1119244990919
30
0
0
SPLINE
5
1B0
100
AcDbEntity
8
1
62
256
6
ByLayer
370
18
48
1
60
0
100
AcDbSpline
70
4
71
3
72
10
73
6
40
0
40
0
40
0
40
0
40
0.23121285980052
40
0.537690391520983
40
1
40
1
40
1
40
1
41
1
10
0.443154770457081
20
-41.2613688643589
30
0
41
1
10
0.440464922173315
20
-41.2589831604858
30
0
41
1
10
0.431317830833196
20
-41.2504817839671
30
0
41
1
10
0.397929863563343
20
-41.2180128447692
30
0
41
1
10
0.365975205226477
20
-41.1865019454912
30
0
41
1
10
0.343278579257526
20
-41.1639722968845
30
0
0
SPLINE
5
1B1
100
AcDbEntity
8
1
62
256
6
ByLayer
370
18
48
1
60
0
100
AcDbSpline
70
4
71
3
72
14
73
10
40
0
40
0
40
0
40
0
40
0.165893799697863
40
0.331787599395727
40
0.497681399093591
40
0.663575198791454
40
0.829468998489317
40
0.995362798187181
40
1
40
1
40
1
40
1
41
1
10
30.0220766608673
20
-38.3956247507594
30
0
41
1
10
30.1025157497799
20
-38.4039581338697
30
0
41
1
10
30.2789430415908
20
-38.4156844522529
30
0
41
1
10
30.591855153783
20
-38.4184841017767
30
0
41
1
10
30.9481669428963
20
-38.4063993768657
30
0
41
1
10
31.3441199812567
20
-38.3795840948789
30
0
41
1
10
31.774979549546
20
-38.3383529201169
30
0
41
1
10
32.0866682073
20
-38.3010348296022
30
0
41
1
10
32.2488662917783
20
-38.2797931925466
30
0
41
1
10
32.2532804164433
20
-38.2792138056733
30
0
0
SPLINE
5
1B2
100
AcDbEntity
8
1
62
256
6
ByLayer
370
18
48
1
60
0
100
AcDbSpline
70
4
71
1
72
4
73
2
40
0
40
0
40
1
40
1
41
1
10
31.9668790213934
20
-32.9024067959583
30
0
41
1
10
32.0672371797679
20
-32.7070593387517
30
0
0
SPLINE
5
1B3
100
AcDbEntity
8
1
62
256
6
ByLayer
370
18
48
1
60
0
100
AcDbSpline
70
4
71
3
72
13
73
9
40
0
40
0
40
0
40
0
40
0.185542077677144
40
0.37697411850808
40
0.564436283538226
40
0.751993450280345
40
0.875991388353915
40
1
40
1
40
1
40
1
41
1
10
28.4462007935796
20
-31.0193830704249
30
0
41
1
10
28.5922346837747
20
-31.1101680150953
30
0
41
1
10
28.9239986930753
20
-31.3015512656055
30
0
41
1
10
29.5392845757163
20
-31.6131488140569
30
0
41
1
10
30.2407431935413
20
-31.9392681106361
30
0
41
1
10
30.9134663597928
20
-32.232707217824
30
0
41
1
10
31.5279540844259
20
-32.4893903641428
30
0
41
1
10
31.8858888251655
20
-32.6345925987385
30
0
41
1
10
32.0672371797706
20
-32.7070593387433
30
0
0
SPLINE
5
1B4
100
AcDbEntity
8
1
62
256
6
ByLayer
370
18
48
1
60
0
100
AcDbSpline
70
4
71
3
72
13
73
9
40
0
40
0
40
0
40
0
40
0.260826629403521
40
0.395259496261933
40
0.529675126106437
40
0.743030866964578
40
0.956232741360659
40
1
40
1
40
1
40
1
41
1
10
32.2663643640502
20
-31.5748716737274
30
0
41
1
10
32.0226144286258
20
-31.3092708083016
30
0
41
1
10
31.6652374249179
20
-30.9166274364826
30
0
41
1
10
31.2078453301691
20
-30.40786492099
30
0
41
1
10
30.8117480424901
20
-29.9618171360477
30
0
41
1
10
30.3881177319883
20
-29.4747961512521
30
0
41
1
10
30.0835457203064
20
-29.110428823013
30
0
41
1
10
29.9398776663468
20
-28.9315360254301
30
0
41
1
10
29.915987597603
20
-28.9015771527637
30
0
0
SPLINE
5
1B5
100
AcDbEntity
8
1
62
256
6
ByLayer
370
18
48
1
60
0
100
AcDbSpline
70
4
71
3
72
11
73
7
40
0
40
0
40
0
40
0
40
0.228974136894832
40
0.466571673620232
40
0.928121431217292
40
1
40
1
40
1
40
1
41
1
10
32.0672371797679
20
-32.7070593387517
30
0
41
1
10
32.1034041242618
20
-32.627772661713
30
0
41
1
10
32.1671082437687
20
-32.461690383368
30
0
41
1
10
32.2537577548752
20
-32.1074830367642
30
0
41
1
10
32.274277768845
20
-31.8038458355451
30
0
41
1
10
32.2676840421178
20
-31.6020277255047
30
0
41
1
10
32.2663643640502
20
-31.5748716737274
30
0
0
SPLINE
5
1B6
100
AcDbEntity
8
1
62
256
6
ByLayer
370
18
48
1
60
0
100
AcDbSpline
70
4
71
1
72
4
73
2
40
0
40
0
40
1
40
1
41
1
10
29.8671936315856
20
-28.7447920625351
30
0
41
1
10
29.7996438602675
20
-28.7616844178657
30
0
0
SPLINE
5
1B7
100
AcDbEntity
8
1
62
256
6
ByLayer
370
18
48
1
60
0
100
AcDbSpline
70
4
71
2
72
6
73
3
40
0
40
0
40
0
40
1
40
1
40
1
41
1
10
37.4599099685752
20
-30.3978669939057
30
0
41
1
10
37.2985884139767
20
-30.0487907795162
30
0
41
1
10
37.2078961911279
20
-29.6950382323669
30
0
0
SPLINE
5
1B8
100
AcDbEntity
8
1
62
256
6
ByLayer
370
18
48
1
60
0
100
AcDbSpline
70
4
71
3
72
12
73
8
40
0
40
0
40
0
40
0
40
0.181429666134873
40
0.366867448225742
40
0.582033047866576
40
0.802198386802963
40
1
40
1
40
1
40
1
41
1
10
38.0950169355325
20
-27.0479772154195
30
0
41
1
10
38.0899485045531
20
-27.1972634994216
30
0
41
1
10
38.0661006485937
20
-27.5223163996699
30
0
41
1
10
37.9818641983875
20
-28.1200566122095
30
0
41
1
10
37.8476089951413
20
-28.8265049581679
30
0
41
1
10
37.6685722622052
20
-29.6049448921643
30
0
41
1
10
37.5303337850522
20
-30.1392053024775
30
0
41
1
10
37.4599099685752
20
-30.3978669939057
30
0
0
SPLINE
5
1B9
100
AcDbEntity
8
1
62
256
6
ByLayer
370
18
48
1
60
0
100
AcDbSpline
70
4
71
1
72
4
73
2
40
0
40
0
40
1
40
1
41
1
10
38.0335316715487
20
-26.8940683331299
30
0
41
1
10
38.1021433280859
20
-26.8801026485009
30
0
0
SPLINE
5
1BA
100
AcDbEntity
8
1
62
256
6
ByLayer
370
18
48
1
60
0
100
AcDbSpline
70
4
71
2
72
6
73
3
40
0
40
0
40
0
40
1
40
1
40
1
41
1
10
32.2663643640502
20
-31.5748716737274
30
0
41
1
10
32.2465775009308
20
-31.1937196854998
30
0
41
1
10
32.1525440711508
20
-30.8407243505701
30
0
0
SPLINE
5
1BB
100
AcDbEntity
8
1
62
256
6
ByLayer
370
18
48
1
60
0
100
AcDbSpline
70
4
71
3
72
14
73
10
40
0
40
0
40
0
40
0
40
0.187504650273769
40
0.374945987534522
40
0.487828230250276
40
0.600697019063289
40
0.717934301748048
40
0.835151914885184
40
1
40
1
40
1
40
1
41
1
10
38.1241451057048
20
-31.3343922790817
30
0
41
1
10
38.3156348064144
20
-31.1186102039702
30
0
41
1
10
38.6807271869201
20
-30.6942626778519
30
0
41
1
10
39.1155710429238
20
-30.155120454149
30
0
41
1
10
39.4440084272562
20
-29.7187082351104
30
0
41
1
10
39.6895024880372
20
-29.3712328949393
30
0
41
1
10
39.9055429421228
20
-29.0389034660736
30
0
41
1
10
40.1121700764058
20
-28.6834219591752
30
0
41
1
10
40.2161183190277
20
-28.4616160283254
30
0
41
1
10
40.2631745701371
20
-28.3413217813857
30
0
0
SPLINE
5
1BC
100
AcDbEntity
8
1
62
256
6
ByLayer
370
18
48
1
60
0
100
AcDbSpline
70
4
71
1
72
4
73
2
40
0
40
0
40
1
40
1
41
1
10
37.4599099685752
20
-30.3978669939057
30
0
41
1
10
37.5516655678283
20
-30.5805837454255
30
0
0
SPLINE
5
1BD
100
AcDbEntity
8
1
62
256
6
ByLayer
370
18
48
1
60
0
100
AcDbSpline
70
4
71
3
72
10
73
6
40
0
40
0
40
0
40
0
40
0.357486635751513
40
0.868077586491019
40
1
40
1
40
1
40
1
41
1
10
37.5516655678283
20
-30.5805837454255
30
0
41
1
10
37.6059679507679
20
-30.6828393740481
30
0
41
1
10
37.7491900496348
20
-30.9190420529565
30
0
41
1
10
37.9547585449859
20
-31.1733485407677
30
0
41
1
10
38.09483596795
20
-31.3076569514434
30
0
41
1
10
38.1241451057048
20
-31.3343922790817
30
0
0
SPLINE
5
1BE
100
AcDbEntity
8
1
62
256
6
ByLayer
370
18
48
1
60
0
100
AcDbSpline
70
4
71
1
72
4
73
2
40
0
40
0
40
1
40
1
41
1
10
38.1241451057048
20
-31.3343922790817
30
0
41
1
10
38.2867490196865
20
-31.4701450752998
30
0
0
SPLINE
5
1BF
100
AcDbEntity
8
1
62
256
6
ByLayer
370
18
48
1
60
0
100
AcDbSpline
70
4
71
3
72
10
73
6
40
0
40
0
40
0
40
0
40
0.143882904005773
40
0.666719351046186
40
1
40
1
40
1
40
1
41
1
10
39.6313333262094
20
-33.652315693579
30
0
41
1
10
39.6197713642499
20
-33.5981153718632
30
0
41
1
10
39.5615963199486
20
-33.3492918424529
30
0
41
1
10
39.4405055012256
20
-32.988111618749
30
0
41
1
10
39.3043120753671
20
-32.7025084635552
30
0
41
1
10
39.2460953251844
20
-32.59430607224
30
0
0
SPLINE
5
1C0
100
AcDbEntity
8
1
62
256
6
ByLayer
370
18
48
1
60
0
100
AcDbSpline
70
4
71
2
72
6
73
3
40
0
40
0
40
0
40
1
40
1
40
1
41
1
10
40.1532948098722
20
-36.4888465567651
30
0
41
1
10
40.1442862576687
20
-36.0553821846152
30
0
41
1
10
40.0554010126164
20
-35.6372599450196
30
0
0
SPLINE
5
1C1
100
AcDbEntity
8
1
62
256
6
ByLayer
370
18
48
1
60
0
100
AcDbSpline
70
4
71
3
72
14
73
10
40
0
40
0
40
0
40
0
40
0.0046371930015449
40
0.170530994167954
40
0.336424795334363
40
0.502318596500772
40
0.668212397667182
40
0.834106198833591
40
1
40
1
40
1
40
1
41
1
10
40.1532948319457
20
-36.4888465578881
30
0
41
1
10
40.1571190295863
20
-36.4875589081563
30
0
41
1
10
40.2975729963055
20
-36.4402110104447
30
0
41
1
10
40.5625710235633
20
-36.3468355489666
30
0
41
1
10
40.9143776472482
20
-36.2106923747113
30
0
41
1
10
41.2221621376029
20
-36.0780207805374
30
0
41
1
10
41.482252464939
20
-35.9504113098141
30
0
41
1
10
41.6918682406062
20
-35.8291920263483
30
0
41
1
10
41.7958344287974
20
-35.7539205957652
30
0
41
1
10
41.8390504374248
20
-35.7175634617203
30
0
0
SPLINE
5
1C2
100
AcDbEntity
8
1
62
256
6
ByLayer
370
18
48
1
60
0
100
AcDbSpline
70
4
71
3
72
11
73
7
40
0
40
0
40
0
40
0
40
0.137402946279285
40
0.505888811700984
40
0.874531147507815
40
1
40
1
40
1
40
1
41
1
10
39.2460953251844
20
-32.59430607224
30
0
41
1
10
39.2128435684298
20
-32.5328600463635
30
0
41
1
10
39.084894364144
20
-32.3115946015658
30
0
41
1
10
38.8266992159678
20
-31.9595934398205
30
0
41
1
10
38.5251650173437
20
-31.6600032369175
30
0
41
1
10
38.3359118949473
20
-31.5076245175919
30
0
41
1
10
38.2867490196865
20
-31.4701450752998
30
0
0
SPLINE
5
1C3
100
AcDbEntity
8
1
62
256
6
ByLayer
370
18
48
1
60
0
100
AcDbSpline
70
4
71
3
72
21
73
17
40
0
40
0
40
0
40
0
40
0.038784640137499
40
0.0869206919816722
40
0.143208125785326
40
0.206285280139473
40
0.315676119316182
40
0.432650019756177
40
0.540774574242065
40
0.645946529723409
40
0.743522580543515
40
0.828841547104868
40
0.899151826997125
40
0.936215701474595
40
0.969831648827315
40
1
40
1
40
1
40
1
41
1
10
30.0220766608673
20
-38.3956247507594
30
0
41
1
10
30.0726560600979
20
-38.5248931071625
30
0
41
1
10
30.1959382708577
20
-38.809687305628
30
0
41
1
10
30.4475147412735
20
-39.2563062989605
30
0
41
1
10
30.7633331455442
20
-39.7645453382181
30
0
41
1
10
31.2198617757368
20
-40.4427383084074
30
0
41
1
10
31.8243124796136
20
-41.282029504125
30
0
41
1
10
32.5466600030021
20
-42.2334030545839
30
0
41
1
10
33.2739681564671
20
-43.1576847097174
30
0
41
1
10
33.9652327858458
20
-44.016656976458
30
0
41
1
10
34.6066825502046
20
-44.8049050214837
30
0
41
1
10
35.1676091039298
20
-45.4906600491564
30
0
41
1
10
35.5816905387027
20
-46.0114207865582
30
0
41
1
10
35.8317947342252
20
-46.4120590309994
30
0
41
1
10
35.9486984154746
20
-46.7129134142098
30
0
41
1
10
35.9994478870947
20
-46.9017122087525
30
0
41
1
10
36.0173220033041
20
-46.9914211253855
30
0
0
SPLINE
5
1C4
100
AcDbEntity
8
1
62
256
6
ByLayer
370
18
48
1
60
0
100
AcDbSpline
70
4
71
3
72
15
73
11
40
0
40
0
40
0
40
0
40
0.110693970968656
40
0.197429022413275
40
0.284502571994587
40
0.366456905974869
40
0.497678234412346
40
0.615432755153239
40
0.733526927695917
40
1
40
1
40
1
40
1
41
1
10
36.0173220033226
20
-46.9914211254665
30
0
41
1
10
36.0518733328025
20
-46.9587063835593
30
0
41
1
10
36.1304472209477
20
-46.9163777155784
30
0
41
1
10
36.2894082488364
20
-46.8897529590267
30
0
41
1
10
36.4628801878709
20
-46.9106569256158
30
0
41
1
10
36.672519493832
20
-46.9785493193285
30
0
41
1
10
36.8886820671414
20
-47.0927623950223
30
0
41
1
10
37.0987171939392
20
-47.2394381535188
30
0
41
1
10
37.3550068100336
20
-47.4544143719829
30
0
41
1
10
37.5273909532657
20
-47.6246635316355
30
0
41
1
10
37.6337024547659
20
-47.7467213921577
30
0
0
SPLINE
5
1C5
100
AcDbEntity
8
1
62
256
6
ByLayer
370
18
48
1
60
0
100
AcDbSpline
70
4
71
3
72
17
73
13
40
0
40
0
40
0
40
0
40
0.130238464790173
40
0.2633347320621
40
0.393954291856959
40
0.516373348690231
40
0.624775658810998
40
0.716205668354822
40
0.783807885365182
40
0.846432157703244
40
0.915848409145678
40
1
40
1
40
1
40
1
41
1
10
35.7523761962493
20
-40.8156287431378
30
0
41
1
10
35.8455236628162
20
-41.1377345911584
30
0
41
1
10
36.0331775964887
20
-41.7833537020672
30
0
41
1
10
36.3121479946922
20
-42.731964740825
30
0
41
1
10
36.5829495494784
20
-43.6451860812717
30
0
41
1
10
36.8340344114778
20
-44.485561685036
30
0
41
1
10
37.0559948744238
20
-45.2210918119939
30
0
41
1
10
37.2365953438653
20
-45.8178494019847
30
0
41
1
10
37.3658812084647
20
-46.3107223414816
30
0
41
1
10
37.4521242588445
20
-46.7580027894753
30
0
41
1
10
37.5347582647517
20
-47.2347247629911
30
0
41
1
10
37.5985348344046
20
-47.5667413896969
30
0
41
1
10
37.6337024547624
20
-47.7467213921402
30
0
0
SPLINE
5
1C6
100
AcDbEntity
8
1
62
256
6
ByLayer
370
18
48
1
60
0
100
AcDbSpline
70
4
71
1
72
4
73
2
40
0
40
0
40
1
40
1
41
1
10
32.2532804164433
20
-38.2792138056733
30
0
41
1
10
32.3978912277719
20
-38.5727330700892
30
0
0
SPLINE
5
1C7
100
AcDbEntity
8
1
62
256
6
ByLayer
370
18
48
1
60
0
100
AcDbSpline
70
4
71
3
72
15
73
11
40
0
40
0
40
0
40
0
40
0.166515919983869
40
0.332774473620626
40
0.501628500714137
40
0.630966776588328
40
0.722350043801146
40
0.814286437225678
40
0.896171486345311
40
1
40
1
40
1
40
1
41
1
10
38.8433653282332
20
-47.4725774890331
30
0
41
1
10
38.8812743137685
20
-47.3731815510986
30
0
41
1
10
38.9651462534705
20
-47.1729889615491
30
0
41
1
10
39.1121795765777
20
-46.8657278849009
30
0
41
1
10
39.2782601145284
20
-46.5783769927757
30
0
41
1
10
39.4524118968107
20
-46.3467926143696
30
0
41
1
10
39.6121282725213
20
-46.1905867866051
30
0
41
1
10
39.7500497837835
20
-46.1022597812947
30
0
41
1
10
39.8754144095015
20
-46.0699641815376
30
0
41
1
10
39.9415130190667
20
-46.0790394014693
30
0
41
1
10
39.9733152270995
20
-46.094880901841
30
0
0
SPLINE
5
1C8
100
AcDbEntity
8
1
62
256
6
ByLayer
370
18
48
1
60
0
100
AcDbSpline
70
4
71
3
72
21
73
17
40
0
40
0
40
0
40
0
40
0.0387846401381876
40
0.0869206919828087
40
0.143208125786672
40
0.206285280140794
40
0.315676119316982
40
0.432650019755858
40
0.540774574240228
40
0.645946529719765
40
0.743522580537988
40
0.828841547097602
40
0.899151826988439
40
0.93621570146523
40
0.96983164881745
40
1
40
1
40
1
40
1
41
1
10
41.8390504374248
20
-35.7175634617203
30
0
41
1
10
41.8484309205413
20
-35.8561686605781
30
0
41
1
10
41.8590057839616
20
-36.1665055394032
30
0
41
1
10
41.82629263337
20
-36.6775526209607
30
0
41
1
10
41.7631505642157
20
-37.271674847679
30
0
41
1
10
41.6474831092452
20
-38.0795436735056
30
0
41
1
10
41.4671597822915
20
-39.0966869142917
30
0
41
1
10
41.2240926426486
20
-40.2668507985401
30
0
41
1
10
40.9570174997539
20
-41.416487901079
30
0
41
1
10
40.6885333579841
20
-42.4929664498605
30
0
41
1
10
40.429620163233
20
-43.4852622682284
30
0
41
1
10
40.1956285963347
20
-44.351168279302
30
0
41
1
10
40.0218465723898
20
-45.0051555433682
30
0
41
1
10
39.9427076625474
20
-45.4804096100811
30
0
41
1
10
39.9420361723662
20
-45.807909860624
30
0
41
1
10
39.9597900264562
20
-46.0041863976113
30
0
41
1
10
39.9733152270995
20
-46.0948809018414
30
0
0
SPLINE
5
1C9
100
AcDbEntity
8
1
62
256
6
ByLayer
370
18
48
1
60
0
100
AcDbSpline
70
4
71
3
72
15
73
11
40
0
40
0
40
0
40
0
40
0.113779781629085
40
0.227638929968222
40
0.353559136983216
40
0.47954421091659
40
0.632299923218908
40
0.785036244231014
40
0.892516027901575
40
1
40
1
40
1
40
1
41
1
10
38.0980661409086
20
-40.2840290493769
30
0
41
1
10
38.2496254813995
20
-40.1995658019847
30
0
41
1
10
38.5374359467586
20
-40.0118978765542
30
0
41
1
10
38.9393965192279
20
-39.6579406306246
30
0
41
1
10
39.2968465089304
20
-39.2381444424794
30
0
41
1
10
39.6247735111308
20
-38.7246961137446
30
0
41
1
10
39.8928479653461
20
-38.1305989467932
30
0
41
1
10
40.0626539110948
20
-37.5281172141681
30
0
41
1
10
40.14418913678
20
-36.976508913872
30
0
41
1
10
40.1561013827759
20
-36.6520318501302
30
0
41
1
10
40.1532948100542
20
-36.4888465652592
30
0
0
SPLINE
5
1CA
100
AcDbEntity
8
1
62
256
6
ByLayer
370
18
48
1
60
0
100
AcDbSpline
70
4
71
3
72
17
73
13
40
0
40
0
40
0
40
0
40
0.130238464742312
40
0.263334731270985
40
0.393954289831347
40
0.516373345248183
40
0.624775654101449
40
0.716205662892979
40
0.783807881204233
40
0.84643215474748
40
0.915848407525954
40
1
40
1
40
1
40
1
41
1
10
38.0980661409086
20
-40.2840290493769
30
0
41
1
10
38.1376617968388
20
-40.6182712485029
30
0
41
1
10
38.2134891676954
20
-41.2892334122683
30
0
41
1
10
38.3132943638192
20
-42.278448338596
30
0
41
1
10
38.4001638812597
20
-43.233353864769
30
0
41
1
10
38.472450000126
20
-44.1142503050065
30
0
41
1
10
38.528421972098
20
-44.8873981059092
30
0
41
1
10
38.568238493887
20
-45.5160613157572
30
0
41
1
10
38.6167200740759
20
-46.0272467911308
30
0
41
1
10
38.687863195576
20
-46.4779493111167
30
0
41
1
10
38.7689698444109
20
-46.9550174270507
30
0
41
1
10
38.8179765041989
20
-47.2903813340856
30
0
41
1
10
38.8433653282318
20
-47.4725774890227
30
0
0
SPLINE
5
1CB
100
AcDbEntity
8
1
62
256
6
ByLayer
370
18
48
1
60
0
100
AcDbSpline
70
4
71
3
72
14
73
10
40
0
40
0
40
0
40
0
40
0.0955561191329631
40
0.26885621330741
40
0.442534067308859
40
0.616171388484794
40
0.760404780660803
40
0.904495076129667
40
1
40
1
40
1
40
1
41
1
10
32.3978912277719
20
-38.5727330700892
30
0
41
1
10
32.4621246352859
20
-38.6907278165475
30
0
41
1
10
32.6566143955401
20
-39.0126864363817
30
0
41
1
10
33.04412869402
20
-39.5017731072045
30
0
41
1
10
33.5881958281665
20
-39.9934321511448
30
0
41
1
10
34.1706068561658
20
-40.3689073100062
30
0
41
1
10
34.766289375069
20
-40.6290791148399
30
0
41
1
10
35.2890761091431
20
-40.7679232256342
30
0
41
1
10
35.6194322034081
20
-40.8071121996411
30
0
41
1
10
35.7523762374343
20
-40.8156288857957
30
0
0
SPLINE
5
1CC
100
AcDbEntity
8
1
62
256
6
ByLayer
370
18
48
1
60
0
100
AcDbSpline
70
4
71
3
72
11
73
7
40
0
40
0
40
0
40
0
40
0.287267503471614
40
0.570601528946047
40
0.783593067567299
40
1
40
1
40
1
40
1
41
1
10
35.7523762374338
20
-40.815628885795
30
0
41
1
10
35.9856074725593
20
-40.8297690432953
30
0
41
1
10
36.4452809198814
20
-40.8204065410989
30
0
41
1
10
37.074750961432
20
-40.7041192602702
30
0
41
1
10
37.6267611739552
20
-40.5195646843169
30
0
41
1
10
37.9426193794618
20
-40.369629502552
30
0
41
1
10
38.0980661409087
20
-40.2840290493769
30
0
0
SPLINE
5
1CD
100
AcDbEntity
8
1
62
256
6
ByLayer
370
18
48
1
60
0
100
AcDbSpline
70
4
71
2
72
6
73
3
40
0
40
0
40
0
40
1
40
1
40
1
41
1
10
37.6337024547659
20
-47.7467213921577
30
0
41
1
10
38.0486532357628
20
-48.2011338255346
30
0
41
1
10
38.4109028148093
20
-48.6604370728001
30
0
0
SPLINE
5
1CE
100
AcDbEntity
8
1
62
256
6
ByLayer
370
18
48
1
60
0
100
AcDbSpline
70
4
71
2
72
6
73
3
40
0
40
0
40
0
40
1
40
1
40
1
41
1
10
38.4109028147997
20
-48.6604370727879
30
0
41
1
10
38.6066210306236
20
-48.0742963133897
30
0
41
1
10
38.8433653282332
20
-47.4725774890331
30
0
0
SPLINE
5
1CF
100
AcDbEntity
8
1
62
256
6
ByLayer
370
18
48
1
60
0
100
AcDbSpline
70
4
71
3
72
15
73
11
40
0
40
0
40
0
40
0
40
0.0745275399797386
40
0.149166569620988
40
0.29671410198799
40
0.404641565313067
40
0.512745133321917
40
0.692425899560697
40
0.872499590221622
40
1
40
1
40
1
40
1
41
1
10
29.7996438602674
20
-28.7616844178657
30
0
41
1
10
29.6964574685151
20
-28.7898774087698
30
0
41
1
10
29.4928896000089
20
-28.8520580554724
30
0
41
1
10
29.0948344006644
20
-28.9993897496554
30
0
41
1
10
28.6877597382393
20
-29.1987981875528
30
0
41
1
10
28.3077957735126
20
-29.4344417764891
30
0
41
1
10
27.9553821796541
20
-29.6943520584298
30
0
41
1
10
27.625414354056
20
-29.9924306082459
30
0
41
1
10
27.3724669482239
20
-30.3140144804595
30
0
41
1
10
27.2574671904957
20
-30.5537131789959
30
0
41
1
10
27.2177433722522
20
-30.6574365517536
30
0
0
SPLINE
5
1D0
100
AcDbEntity
8
1
62
256
6
ByLayer
370
18
48
1
60
0
100
AcDbSpline
70
4
71
3
72
10
73
6
40
0
40
0
40
0
40
0
40
0.324059532807387
40
0.655488310967217
40
1
40
1
40
1
40
1
41
1
10
26.884569414912
20
-31.0503307048062
30
0
41
1
10
26.8267502451244
20
-30.8714873771686
30
0
41
1
10
26.7380500896276
20
-30.4911278735792
30
0
41
1
10
26.6664620656746
20
-29.8419177605712
30
0
41
1
10
26.7111752892036
20
-29.378959916038
30
0
41
1
10
26.7539894905342
20
-29.1346876364108
30
0
0
SPLINE
5
1D1
100
AcDbEntity
8
1
62
256
6
ByLayer
370
18
48
1
60
0
100
AcDbSpline
70
4
71
1
72
4
73
2
40
0
40
0
40
1
40
1
41
1
10
30.0220766608673
20
-38.3956247507594
30
0
41
1
10
28.6047423796884
20
-38.248454700312
30
0
0
SPLINE
5
1D2
100
AcDbEntity
8
1
62
256
6
ByLayer
370
18
48
1
60
0
100
AcDbSpline
70
4
71
3
72
16
73
12
40
0
40
0
40
0
40
0
40
0.193175194179158
40
0.386603933897725
40
0.49900769381081
40
0.611232808940372
40
0.703623602274012
40
0.795912588408085
40
0.868506640166581
40
0.941036848444268
40
1
40
1
40
1
40
1
41
1
10
40.8440490715001
20
-27.5693293514006
30
0
41
1
10
40.7601127833644
20
-27.4474052446881
30
0
41
1
10
40.5634511957545
20
-27.2336065191781
30
0
41
1
10
40.2526050862322
20
-27.0571689365252
30
0
41
1
10
39.92046657056
20
-26.9326117233392
30
0
41
1
10
39.6187921848915
20
-26.8589747372398
30
0
41
1
10
39.2896333731433
20
-26.8128406383603
30
0
41
1
10
38.9711863548324
20
-26.796838308775
30
0
41
1
10
38.6551919130305
20
-26.8071384660387
30
0
41
1
10
38.3709785190997
20
-26.8356013381019
30
0
41
1
10
38.1859085266869
20
-26.8647898603759
30
0
41
1
10
38.1021433280859
20
-26.8801026485009
30
0
0
SPLINE
5
1D3
100
AcDbEntity
8
1
62
256
6
ByLayer
370
18
48
1
60
0
100
AcDbSpline
70
4
71
2
72
6
73
3
40
0
40
0
40
0
40
1
40
1
40
1
41
1
10
40.4616407768304
20
-26.8440491387339
30
0
41
1
10
40.2679305304045
20
-26.4827046325804
30
0
41
1
10
39.9849878178934
20
-26.1361682941629
30
0
0
SPLINE
5
1D4
100
AcDbEntity
8
1
62
256
6
ByLayer
370
18
48
1
60
0
100
AcDbSpline
70
4
71
1
72
4
73
2
40
0
40
0
40
1
40
1
41
1
10
41.8390504374248
20
-35.7175634617203
30
0
41
1
10
42.6000442127426
20
-35.0767225143716
30
0
0
SPLINE
5
1D5
100
AcDbEntity
8
1
62
256
6
ByLayer
370
18
48
1
60
0
100
AcDbSpline
70
4
71
3
72
14
73
10
40
0
40
0
40
0
40
0
40
0.121523556149596
40
0.222387548357044
40
0.323386695988187
40
0.488282595064851
40
0.653577964344724
40
0.82669383649284
40
1
40
1
40
1
40
1
41
1
10
35.4302848377613
20
-49.7383476624152
30
0
41
1
10
35.3251490557023
20
-49.5982874466931
30
0
41
1
10
35.1705805626584
20
-49.3461528142255
30
0
41
1
10
35.048481983426
20
-48.9858616243691
30
0
41
1
10
35.0091003992669
20
-48.5994837345466
30
0
41
1
10
35.0877493664698
20
-48.1819996461664
30
0
41
1
10
35.3029746260969
20
-47.7459353736514
30
0
41
1
10
35.621318309558
20
-47.3509672079675
30
0
41
1
10
35.8769734686083
20
-47.1068605768028
30
0
41
1
10
36.0173220033223
20
-46.9914211254652
30
0
0
SPLINE
5
1D6
100
AcDbEntity
8
1
62
256
6
ByLayer
370
18
48
1
60
0
100
AcDbSpline
70
4
71
3
72
13
73
9
40
0
40
0
40
0
40
0
40
0.094947267863884
40
0.189949212980494
40
0.381309552622272
40
0.576703357263043
40
0.772123707848175
40
1
40
1
40
1
40
1
41
1
10
28.6047423796884
20
-38.248454700312
30
0
41
1
10
28.6619421101286
20
-38.4918383227019
30
0
41
1
10
28.7883888270792
20
-38.9750324817381
30
0
41
1
10
29.1020595080721
20
-39.9271470348724
30
0
41
1
10
29.5461287696616
20
-41.1129069320776
30
0
41
1
10
30.1865178301698
20
-42.5020711837204
30
0
41
1
10
30.9716598982258
20
-43.9248029885896
30
0
41
1
10
31.5729199916374
20
-44.8577089764337
30
0
41
1
10
31.916400161579
20
-45.3482632418545
30
0
0
SPLINE
5
1D7
100
AcDbEntity
8
1
62
256
6
ByLayer
370
18
48
1
60
0
100
AcDbSpline
70
4
71
3
72
11
73
7
40
0
40
0
40
0
40
0
40
0.277489935641321
40
0.563277494182934
40
0.780107031837097
40
1
40
1
40
1
40
1
41
1
10
32.9327132893116
20
-47.3022908581962
30
0
41
1
10
32.8815257656425
20
-47.1315783420599
30
0
41
1
10
32.7523085751031
20
-46.7784163189782
30
0
41
1
10
32.5027709559245
20
-46.2598322910974
30
0
41
1
10
32.2119070503696
20
-45.781767314746
30
0
41
1
10
32.019039216727
20
-45.4933151822694
30
0
41
1
10
31.916400161579
20
-45.3482632418544
30
0
0
SPLINE
5
1D8
100
AcDbEntity
8
1
62
256
6
ByLayer
370
18
48
1
60
0
100
AcDbSpline
70
4
71
1
72
4
73
2
40
0
40
0
40
1
40
1
41
1
10
32.9327132893116
20
-47.3022908581962
30
0
41
1
10
33.0330777120884
20
-47.5943179868965
30
0
0
SPLINE
5
1D9
100
AcDbEntity
8
1
62
256
6
ByLayer
370
18
48
1
60
0
100
AcDbSpline
70
4
71
1
72
4
73
2
40
0
40
0
40
1
40
1
41
1
10
34.4417241088394
20
-49.0001941027122
30
0
41
1
10
33.0332495042838
20
-47.5942331137356
30
0
0
SPLINE
5
1DA
100
AcDbEntity
8
1
62
256
6
ByLayer
370
18
48
1
60
0
100
AcDbSpline
70
4
71
1
72
4
73
2
40
0
40
0
40
1
40
1
41
1
10
34.4418036325691
20
-49.0002414841586
30
0
41
1
10
35.430284837775
20
-49.7383476624335
30
0
0
SPLINE
5
1DB
100
AcDbEntity
8
1
62
256
6
ByLayer
370
18
48
1
60
0
100
AcDbSpline
70
4
71
1
72
4
73
2
40
0
40
0
40
1
40
1
41
1
10
42.2641224959283
20
-45.5023015230904
30
0
41
1
10
42.2671284968527
20
-45.1868477256469
30
0
0
SPLINE
5
1DC
100
AcDbEntity
8
1
62
256
6
ByLayer
370
18
48
1
60
0
100
AcDbSpline
70
4
71
3
72
11
73
7
40
0
40
0
40
0
40
0
40
0.302293823441656
40
0.613181578417228
40
0.805254037931527
40
1
40
1
40
1
40
1
41
1
10
42.4877989901019
20
-42.9524845502046
30
0
41
1
10
42.4397364096245
20
-43.1956408212688
30
0
41
1
10
42.3585853686746
20
-43.6789840343993
30
0
41
1
10
42.2826102365112
20
-44.298216343962
30
0
41
1
10
42.2658453584758
20
-44.8008828670632
30
0
41
1
10
42.2646196160249
20
-45.0605513307577
30
0
41
1
10
42.2671284968527
20
-45.1868477256469
30
0
0
SPLINE
5
1DD
100
AcDbEntity
8
1
62
256
6
ByLayer
370
18
48
1
60
0
100
AcDbSpline
70
4
71
3
72
14
73
10
40
0
40
0
40
0
40
0
40
0.144402987238157
40
0.288816040396093
40
0.434645866304541
40
0.580466006356704
40
0.789543228855802
40
0.894806799335098
40
1
40
1
40
1
40
1
41
1
10
42.4877989901019
20
-42.9524845502047
30
0
41
1
10
42.5587034103364
20
-42.576662960563
30
0
41
1
10
42.6827046805418
20
-41.8228935216666
30
0
41
1
10
42.8152030967163
20
-40.6810177380223
30
0
41
1
10
42.8950846523391
20
-39.5314449972151
30
0
41
1
10
42.9136160365848
20
-38.2091702276002
30
0
41
1
10
42.8480146184148
20
-36.9967506428609
30
0
41
1
10
42.7417575909577
20
-35.8957555031961
30
0
41
1
10
42.6521670690379
20
-35.3489769685699
30
0
41
1
10
42.6000442127426
20
-35.0767225143716
30
0
0
SPLINE
5
1DE
100
AcDbEntity
8
1
62
256
6
ByLayer
370
18
48
1
60
0
100
AcDbSpline
70
4
71
3
72
15
73
11
40
0
40
0
40
0
40
0
40
0.183386250218152
40
0.366943563477102
40
0.549390059741182
40
0.671720177562543
40
0.793783034007534
40
0.892517276558757
40
0.991241635182389
40
1
40
1
40
1
40
1
41
1
10
39.9733152270995
20
-46.094880901841
30
0
41
1
10
40.1156401226588
20
-46.1513053678461
30
0
41
1
10
40.3810105163798
20
-46.2900937540283
30
0
41
1
10
40.7328359976946
20
-46.5620363307178
30
0
41
1
10
40.9715524254216
20
-46.896270361676
30
0
41
1
10
41.1052492096142
20
-47.2688840295012
30
0
41
1
10
41.1473396651115
20
-47.6313865670856
30
0
41
1
10
41.1105519659044
20
-48.0283385339683
30
0
41
1
10
41.0431574068732
20
-48.312163464749
30
0
41
1
10
40.9959250075286
20
-48.4653783546832
30
0
41
1
10
40.9919949480635
20
-48.4779064679068
30
0
0
SPLINE
5
1DF
100
AcDbEntity
8
1
62
256
6
ByLayer
370
18
48
1
60
0
100
AcDbSpline
70
4
71
1
72
4
73
2
40
0
40
0
40
1
40
1
41
1
10
41.5584968339213
20
-47.3873970349672
30
0
41
1
10
40.9919949480635
20
-48.4779064679068
30
0
0
SPLINE
5
1E0
100
AcDbEntity
8
1
62
256
6
ByLayer
370
18
48
1
60
0
100
AcDbSpline
70
4
71
1
72
4
73
2
40
0
40
0
40
1
40
1
41
1
10
42.2639324125025
20
-45.5022987703486
30
0
41
1
10
41.5585656688236
20
-47.3872961461077
30
0
0
SPLINE
5
1E1
100
AcDbEntity
8
1
62
256
6
ByLayer
370
18
48
1
60
0
100
AcDbSpline
70
4
71
1
72
4
73
2
40
0
40
0
40
1
40
1
41
1
10
36.6661242170373
20
-50.6347715426195
30
0
41
1
10
36.4891883781325
20
-50.4711012019038
30
0
0
SPLINE
5
1E2
100
AcDbEntity
8
1
62
256
6
ByLayer
370
18
48
1
60
0
100
AcDbSpline
70
4
71
1
72
4
73
2
40
0
40
0
40
1
40
1
41
1
10
40.2996655029036
20
-49.6075390519344
30
0
41
1
10
40.1922835668136
20
-49.8356438613553
30
0
0
SPLINE
5
1E3
100
AcDbEntity
8
1
62
256
6
ByLayer
370
18
48
1
60
0
100
AcDbSpline
70
4
71
2
72
6
73
3
40
0
40
0
40
0
40
1
40
1
40
1
41
0.500750594361858
10
42.8402624902322
20
-44.4119292086692
30
0
41
0.499249405638142
10
42.8985263272797
20
-44.4818815336548
30
0
41
0.500750594361858
10
42.9451350442975
20
-44.5601228660036
30
0
0
SPLINE
5
1E4
100
AcDbEntity
8
1
62
256
6
ByLayer
370
18
48
1
60
0
100
AcDbSpline
70
4
71
2
72
6
73
3
40
0
40
0
40
0
40
1
40
1
40
1
41
0.500750594361858
10
33.446424243918
20
-53.3932021016635
30
0
41
0.499249405638142
10
33.3881604068705
20
-53.3232497766779
30
0
41
0.500750594361858
10
33.3415516898527
20
-53.2450084443291
30
0
0
SPLINE
5
1E5
100
AcDbEntity
8
1
62
256
6
ByLayer
370
18
48
1
60
0
100
AcDbSpline
70
4
71
2
72
6
73
3
40
0
40
0
40
0
40
1
40
1
40
1
41
0.500750594361858
10
32.6390835523376
20
-52.4016160085125
30
0
41
0.499249405638142
10
32.6856922693554
20
-52.4798573408613
30
0
41
0.500750594361858
10
32.7439561064029
20
-52.5498096658469
30
0
0
SPLINE
5
1E6
100
AcDbEntity
8
1
62
256
6
ByLayer
370
18
48
1
60
0
100
AcDbSpline
70
4
71
2
72
6
73
3
40
0
40
0
40
0
40
1
40
1
40
1
41
0.505449426129046
10
34.5526256965714
20
-35.7021064997511
30
0
41
0.494550573870954
10
34.48146246116
20
-35.6673269429008
30
0
41
0.505449426129046
10
34.4308974043197
20
-35.6066178741498
30
0
0
SPLINE
5
1E7
100
AcDbEntity
8
1
62
256
6
ByLayer
370
18
48
1
60
0
100
AcDbSpline
70
4
71
2
72
6
73
3
40
0
40
0
40
0
40
1
40
1
40
1
41
0.503304382979469
10
36.0030772788917
20
-34.3787562654158
30
0
41
0.496695617020531
10
36.0275975781063
20
-34.4428456963615
30
0
41
0.503304382979469
10
36.0714451974711
20
-34.4954897217997
30
0
0
SPLINE
5
1E8
100
AcDbEntity
8
1
62
256
6
ByLayer
370
18
48
1
60
0
100
AcDbSpline
70
4
71
2
72
6
73
3
40
0
40
0
40
0
40
1
40
1
40
1
41
0.505449426129044
10
37.2654934024142
20
-35.7585708026136
30
0
41
0.494550573870956
10
37.3366566378256
20
-35.793350359464
30
0
41
0.505449426129044
10
37.3872216946659
20
-35.8540594282149
30
0
0
SPLINE
5
1E9
100
AcDbEntity
8
1
62
256
6
ByLayer
370
18
48
1
60
0
100
AcDbSpline
70
4
71
2
72
6
73
3
40
0
40
0
40
0
40
1
40
1
40
1
41
0.503304382979468
10
35.815041820094
20
-37.0819210369489
30
0
41
0.496695617020532
10
35.7905215208793
20
-37.0178316060031
30
0
41
0.503304382979468
10
35.7466739015145
20
-36.965187580565
30
0
0
SPLINE
5
1EA
100
AcDbEntity
8
1
62
256
6
ByLayer
370
18
48
1
60
0
100
AcDbSpline
70
4
71
2
72
6
73
3
40
0
40
0
40
0
40
1
40
1
40
1
41
0.503304382979468
10
35.9419483163971
20
-34.2743828220607
30
0
41
0.496695617020532
10
35.9811532466527
20
-34.3214527742172
30
0
41
0.503304382979468
10
36.0030772788916
20
-34.3787562654158
30
0
0
SPLINE
5
1EB
100
AcDbEntity
8
1
62
256
6
ByLayer
370
18
48
1
60
0
100
AcDbSpline
70
4
71
2
72
6
73
3
40
0
40
0
40
0
40
1
40
1
40
1
41
0.502338058390152
10
35.8342893902725
20
-34.1861458639656
30
0
41
0.497661941609849
10
35.8576337762905
20
-34.23878493238
30
0
41
0.502338058390152
10
35.894445351798
20
-34.2829813915152
30
0
0
SPLINE
5
1EC
100
AcDbEntity
8
1
62
256
6
ByLayer
370
18
48
1
60
0
100
AcDbSpline
70
4
71
2
72
6
73
3
40
0
40
0
40
0
40
1
40
1
40
1
41
0.505449426129046
10
34.5117693356536
20
-35.5963946586259
30
0
41
0.494550573870954
10
34.4552163115559
20
-35.5284963580492
30
0
41
0.505449426129046
10
34.3756258508983
20
-35.4895981694666
30
0
0
SPLINE
5
1ED
100
AcDbEntity
8
1
62
256
6
ByLayer
370
18
48
1
60
0
100
AcDbSpline
70
4
71
2
72
6
73
3
40
0
40
0
40
0
40
1
40
1
40
1
41
0.505449426129047
10
34.6887691813267
20
-35.8089029889104
30
0
41
0.494550573870954
10
34.632216157229
20
-35.7410046883337
30
0
41
0.505449426129047
10
34.5526256965714
20
-35.7021064997511
30
0
0
SPLINE
5
1EE
100
AcDbEntity
8
1
62
256
6
ByLayer
370
18
48
1
60
0
100
AcDbSpline
70
4
71
2
72
6
73
3
40
0
40
0
40
0
40
1
40
1
40
1
41
0.505449426129045
10
37.1293499176589
20
-35.6517743134543
30
0
41
0.494550573870955
10
37.1859029417567
20
-35.719672614031
30
0
41
0.505449426129045
10
37.2654934024142
20
-35.7585708026136
30
0
0
SPLINE
5
1EF
100
AcDbEntity
8
1
62
256
6
ByLayer
370
18
48
1
60
0
100
AcDbSpline
70
4
71
2
72
6
73
3
40
0
40
0
40
0
40
1
40
1
40
1
41
0.503304382979469
10
35.8761707825886
20
-37.186294480304
30
0
41
0.496695617020531
10
35.8369658523329
20
-37.1392245281475
30
0
41
0.503304382979469
10
35.815041820094
20
-37.0819210369489
30
0
0
SPLINE
5
1F0
100
AcDbEntity
8
1
62
256
6
ByLayer
370
18
48
1
60
0
100
AcDbSpline
70
4
71
1
72
4
73
2
40
0
40
0
40
1
40
1
41
0.500000781257324
10
-0.325
20
-40.5
30
0
41
0.500000781257324
10
-0.325
20
-40.4995312470703
30
0
0
SPLINE
5
1F1
100
AcDbEntity
8
1
62
256
6
ByLayer
370
18
48
1
60
0
100
AcDbSpline
70
4
71
2
72
6
73
3
40
0
40
0
40
0
40
1
40
1
40
1
41
0.500141160285629
10
35.8462725153775
20
-50.0729635235297
30
0
41
0.499858839714371
10
35.9249945498315
20
-50.1173845058052
30
0
41
0.500141160285629
10
36.0066092585514
20
-50.1563882121907
30
0
0
SPLINE
5
1F2
100
AcDbEntity
8
1
62
256
6
ByLayer
370
18
48
1
60
0
100
AcDbSpline
70
4
71
2
72
6
73
3
40
0
40
0
40
0
40
1
40
1
40
1
41
0.500006827532375
10
26.884569414912
20
-31.0503307048062
30
0
41
0.499993172467625
10
26.8957260915008
20
-31.0870400763826
30
0
41
0.500006827532375
10
26.9068116584898
20
-31.1232336473372
30
0
0
SPLINE
5
1F3
100
AcDbEntity
8
1
62
256
6
ByLayer
370
18
48
1
60
0
100
AcDbSpline
70
4
71
2
72
6
73
3
40
0
40
0
40
0
40
1
40
1
40
1
41
0.500384200432465
10
7.74225011574517
20
-34.1200754346265
30
0
41
0.499615799567535
10
7.80842073373583
20
-34.1195810740296
30
0
41
0.500384200432465
10
7.875
20
-34.0641266838981
30
0
0
SPLINE
5
1F4
100
AcDbEntity
8
1
62
256
6
ByLayer
370
18
48
1
60
0
100
AcDbSpline
70
4
71
2
72
6
73
3
40
0
40
0
40
0
40
1
40
1
40
1
41
1
10
32.2532804102273
20
-38.2792137917622
30
0
41
1
10
31.9380261941688
20
-37.5755158969472
30
0
41
1
10
31.8983902099372
20
-36.7968648195999
30
0
0
LINE
5
70
100
AcDbEntity
8
1
62
256
6
ByLayer
370
18
48
1
60
0
100
AcDbLine
10
31.832087
20
-52.067855
30
0
11
32.867063
21
-52.697614
31
0
39
0
210
0
220
0
230
1
0
LINE
5
72
100
AcDbEntity
8
1
62
256
6
ByLayer
370
18
48
1
60
0
100
AcDbLine
10
43.643486
20
-45.732434
30
0
11
43.604118
21
-44.981246
31
0
39
0
210
0
220
0
230
1
0
LINE
5
73
100
AcDbEntity
8
1
62
256
6
ByLayer
370
18
48
1
60
0
100
AcDbLine
10
31.544485
20
-51.819982
30
0
11
31.173368
21
-51.374414
31
0
39
0
210
0
220
0
230
1
0
LINE
5
74
100
AcDbEntity
8
1
62
256
6
ByLayer
370
18
48
1
60
0
100
AcDbLine
10
42.325064
20
-44.025547
30
0
11
42.55257
21
-44.163979
31
0
39
0
210
0
220
0
230
1
0
LINE
5
75
100
AcDbEntity
8
1
62
256
6
ByLayer
370
18
48
1
60
0
100
AcDbLine
10
31.906331
20
-50.572876
30
0
11
31.607427
21
-44.869447
31
0
39
0
210
0
220
0
230
1
0
LINE
5
76
100
AcDbEntity
8
1
62
256
6
ByLayer
370
18
48
1
60
0
100
AcDbLine
10
32.068395
20
-51.107779
30
0
11
33.341552
21
-53.245008
31
0
39
0
210
0
220
0
230
1
0
LINE
5
77
100
AcDbEntity
8
1
62
256
6
ByLayer
370
18
48
1
60
0
100
AcDbLine
10
43.792573
20
-59.761488
30
0
11
33.734117
21
-53.641153
31
0
39
0
210
0
220
0
230
1
0
LINE
5
78
100
AcDbEntity
8
1
62
256
6
ByLayer
370
18
48
1
60
0
100
AcDbLine
10
44.380356
20
-47.232255
30
0
11
44.998926
21
-59.035279
31
0
39
0
210
0
220
0
230
1
0
LINE
5
79
100
AcDbEntity
8
1
62
256
6
ByLayer
370
18
48
1
60
0
100
AcDbLine
10
44.218292
20
-46.697352
30
0
11
42.945135
21
-44.560123
31
0
39
0
210
0
220
0
230
1
0
LINE
5
7A
100
AcDbEntity
8
1
62
256
6
ByLayer
370
18
48
1
60
0
100
AcDbLine
10
31.906331
20
-50.572876
30
0
11
31.203863
21
-49.729484
31
0
39
0
210
0
220
0
230
1
0
LINE
5
7B
100
AcDbEntity
8
1
62
256
6
ByLayer
370
18
48
1
60
0
100
AcDbLine
10
42.502789
20
-44.104211
30
0
11
42.55257
21
-44.163979
31
0
39
0
210
0
220
0
230
1
0
LINE
5
7C
100
AcDbEntity
8
1
62
256
6
ByLayer
370
18
48
1
60
0
100
AcDbLine
10
31.883121
20
-50.885337
30
0
11
32.068395
21
-51.107779
31
0
39
0
210
0
220
0
230
1
0
LINE
5
7D
100
AcDbEntity
8
1
62
256
6
ByLayer
370
18
48
1
60
0
100
AcDbLine
10
31.898647
20
-51.158656
30
0
11
32.639084
21
-52.401616
31
0
39
0
210
0
220
0
230
1
0
LINE
5
7E
100
AcDbEntity
8
1
62
256
6
ByLayer
370
18
48
1
60
0
100
AcDbLine
10
33.341552
20
-53.245008
30
0
11
32.639084
21
-52.401616
31
0
39
0
210
0
220
0
230
1
0
LINE
5
7F
100
AcDbEntity
8
1
62
256
6
ByLayer
370
18
48
1
60
0
100
AcDbLine
10
42.667374
20
-44.204357
30
0
11
42.840262
21
-44.411929
31
0
39
0
210
0
220
0
230
1
0
LINE
5
80
100
AcDbEntity
8
1
62
256
6
ByLayer
370
18
48
1
60
0
100
AcDbLine
10
33.446424
20
-53.393202
30
0
11
32.743956
21
-52.54981
31
0
39
0
210
0
220
0
230
1
0
LINE
5
81
100
AcDbEntity
8
1
62
256
6
ByLayer
370
18
48
1
60
0
100
AcDbLine
10
35.850349
20
-34.195389
30
0
11
36.003077
21
-34.378756
31
0
39
0
210
0
220
0
230
1
0
LINE
5
82
100
AcDbEntity
8
1
62
256
6
ByLayer
370
18
48
1
60
0
100
AcDbLine
10
34.375626
20
-35.489598
30
0
11
34.552626
21
-35.702106
31
0
39
0
210
0
220
0
230
1
0
LINE
5
83
100
AcDbEntity
8
1
62
256
6
ByLayer
370
18
48
1
60
0
100
AcDbLine
10
36.071445
20
-34.49549
30
0
11
35.894445
21
-34.282981
31
0
39
0
210
0
220
0
230
1
0
LINE
5
84
100
AcDbEntity
8
1
62
256
6
ByLayer
370
18
48
1
60
0
100
AcDbLine
10
34.511769
20
-35.596395
30
0
11
34.688769
21
-35.808903
31
0
39
0
210
0
220
0
230
1
0
LINE
5
85
100
AcDbEntity
8
1
62
256
6
ByLayer
370
18
48
1
60
0
100
AcDbLine
10
36.951704
20
-34.905786
30
0
11
37.128703
21
-35.118294
31
0
39
0
210
0
220
0
230
1
0
LINE
5
86
100
AcDbEntity
8
1
62
256
6
ByLayer
370
18
48
1
60
0
100
AcDbLine
10
35.011799
20
-36.675698
30
0
11
35.188799
21
-36.888207
31
0
39
0
210
0
220
0
230
1
0
LINE
5
87
100
AcDbEntity
8
1
62
256
6
ByLayer
370
18
48
1
60
0
100
AcDbLine
10
38.717088
20
-32.851611
30
0
11
38.901384
21
-33.072879
31
0
39
0
210
0
220
0
230
1
0
LINE
5
88
100
AcDbEntity
8
1
62
256
6
ByLayer
370
18
48
1
60
0
100
AcDbLine
10
32.754328
20
-38.192811
30
0
11
32.570032
21
-37.971542
31
0
39
0
210
0
220
0
230
1
0
LINE
5
89
100
AcDbEntity
8
1
62
256
6
ByLayer
370
18
48
1
60
0
100
AcDbLine
10
37.12935
20
-35.651774
30
0
11
36.95235
21
-35.439266
31
0
39
0
210
0
220
0
230
1
0
LINE
5
8A
100
AcDbEntity
8
1
62
256
6
ByLayer
370
18
48
1
60
0
100
AcDbLine
10
35.569674
20
-36.752679
30
0
11
35.746674
21
-36.965188
31
0
39
0
210
0
220
0
230
1
0
LINE
5
8B
100
AcDbEntity
8
1
62
256
6
ByLayer
370
18
48
1
60
0
100
AcDbLine
10
36.857686
20
-36.257368
30
0
11
37.034686
21
-36.469877
31
0
39
0
210
0
220
0
230
1
0
LINE
5
8C
100
AcDbEntity
8
1
62
256
6
ByLayer
370
18
48
1
60
0
100
AcDbLine
10
36.368233
20
-36.703931
30
0
11
36.545233
21
-36.916439
31
0
39
0
210
0
220
0
230
1
0
LINE
5
8D
100
AcDbEntity
8
1
62
256
6
ByLayer
370
18
48
1
60
0
100
AcDbLine
10
0.190104
20
31.477015
30
0
11
0.190104
21
-37.477015
31
0
39
0
210
0
220
0
230
1
0
LINE
5
8E
100
AcDbEntity
8
1
62
256
6
ByLayer
370
18
48
1
60
0
100
AcDbLine
10
0.675
20
-41.5
30
0
11
-0.325
21
-40.5
31
0
39
0
210
0
220
0
230
1
0
LINE
5
8F
100
AcDbEntity
8
1
62
256
6
ByLayer
370
18
48
1
60
0
100
AcDbLine
10
0.753162
20
-41.5
30
0
11
0.675
21
-41.5
31
0
39
0
210
0
220
0
230
1
0
LINE
5
90
100
AcDbEntity
8
1
62
256
6
ByLayer
370
18
48
1
60
0
100
AcDbLine
10
13.175
20
-41.5
30
0
11
7.238784
21
-41.5
31
0
39
0
210
0
220
0
230
1
0
LINE
5
91
100
AcDbEntity
8
1
62
256
6
ByLayer
370
18
48
1
60
0
100
AcDbLine
10
0.675
20
-37.785054
30
0
11
5.675
21
-37.785054
31
0
39
0
210
0
220
0
230
1
0
LINE
5
92
100
AcDbEntity
8
1
62
256
6
ByLayer
370
18
48
1
60
0
100
AcDbLine
10
7.325
20
35.5
30
0
11
10.680323
21
35.5
31
0
39
0
210
0
220
0
230
1
0
LINE
5
93
100
AcDbEntity
8
1
62
256
6
ByLayer
370
18
48
1
60
0
100
AcDbLine
10
0.675
20
35.382939
30
0
11
7.325
21
35.382939
31
0
39
0
210
0
220
0
230
1
0
LINE
5
94
100
AcDbEntity
8
1
62
256
6
ByLayer
370
18
48
1
60
0
100
AcDbLine
10
0.675
20
31.785054
30
0
11
5.675
21
31.785054
31
0
39
0
210
0
220
0
230
1
0
LINE
5
95
100
AcDbEntity
8
1
62
256
6
ByLayer
370
18
48
1
60
0
100
AcDbLine
10
7.875
20
34.701591
30
0
11
10.821104
21
34.701591
31
0
39
0
210
0
220
0
230
1
0
LINE
5
96
100
AcDbEntity
8
1
62
256
6
ByLayer
370
18
48
1
60
0
100
AcDbLine
10
5.675
20
-37.785054
30
0
11
5.675
21
31.785054
31
0
39
0
210
0
220
0
230
1
0
LINE
5
97
100
AcDbEntity
8
1
62
256
6
ByLayer
370
18
48
1
60
0
100
AcDbLine
10
0.343279
20
31.846648
30
0
11
0.343279
21
31.686578
31
0
39
0
210
0
220
0
230
1
0
LINE
5
98
100
AcDbEntity
8
1
62
256
6
ByLayer
370
18
48
1
60
0
100
AcDbLine
10
0.343279
20
-37.686578
30
0
11
0.343279
21
-37.846648
31
0
39
0
210
0
220
0
230
1
0
LINE
5
99
100
AcDbEntity
8
1
62
256
6
ByLayer
370
18
48
1
60
0
100
AcDbLine
10
0.343279
20
32.478992
30
0
11
0.343279
21
32.33679
31
0
39
0
210
0
220
0
230
1
0
LINE
5
9A
100
AcDbEntity
8
1
62
256
6
ByLayer
370
18
48
1
60
0
100
AcDbLine
10
0.343279
20
-38.33679
30
0
11
0.343279
21
-38.478992
31
0
39
0
210
0
220
0
230
1
0
LINE
5
9B
100
AcDbEntity
8
1
62
256
6
ByLayer
370
18
48
1
60
0
100
AcDbLine
10
0.343279
20
33.037881
30
0
11
0.343279
21
32.912654
31
0
39
0
210
0
220
0
230
1
0
LINE
5
9C
100
AcDbEntity
8
1
62
256
6
ByLayer
370
18
48
1
60
0
100
AcDbLine
10
0.343279
20
-38.912654
30
0
11
0.343279
21
-39.037881
31
0
39
0
210
0
220
0
230
1
0
LINE
5
9D
100
AcDbEntity
8
1
62
256
6
ByLayer
370
18
48
1
60
0
100
AcDbLine
10
0.343279
20
33.526687
30
0
11
0.343279
21
33.417698
31
0
39
0
210
0
220
0
230
1
0
LINE
5
9E
100
AcDbEntity
8
1
62
256
6
ByLayer
370
18
48
1
60
0
100
AcDbLine
10
0.343279
20
-39.417698
30
0
11
0.343279
21
-39.526687
31
0
39
0
210
0
220
0
230
1
0
LINE
5
9F
100
AcDbEntity
8
1
62
256
6
ByLayer
370
18
48
1
60
0
100
AcDbLine
10
0.343279
20
33.948191
30
0
11
0.343279
21
33.854833
31
0
39
0
210
0
220
0
230
1
0
LINE
5
A0
100
AcDbEntity
8
1
62
256
6
ByLayer
370
18
48
1
60
0
100
AcDbLine
10
0.343279
20
-39.854833
30
0
11
0.343279
21
-39.948191
31
0
39
0
210
0
220
0
230
1
0
LINE
5
A1
100
AcDbEntity
8
1
62
256
6
ByLayer
370
18
48
1
60
0
100
AcDbLine
10
7.875
20
34.701591
30
0
11
7.875
21
-34.064127
31
0
39
0
210
0
220
0
230
1
0
LINE
5
A2
100
AcDbEntity
8
1
62
256
6
ByLayer
370
18
48
1
60
0
100
AcDbLine
10
7.74225
20
-40.87734
30
0
11
7.74225
21
-34.120075
31
0
39
0
210
0
220
0
230
1
0
LINE
5
A3
100
AcDbEntity
8
1
62
256
6
ByLayer
370
18
48
1
60
0
100
AcDbLine
10
0.343279
20
34.304676
30
0
11
0.343279
21
34.226452
31
0
39
0
210
0
220
0
230
1
0
LINE
5
A4
100
AcDbEntity
8
1
62
256
6
ByLayer
370
18
48
1
60
0
100
AcDbLine
10
0.343279
20
-40.226452
30
0
11
0.343279
21
-40.304676
31
0
39
0
210
0
220
0
230
1
0
LINE
5
A5
100
AcDbEntity
8
1
62
256
6
ByLayer
370
18
48
1
60
0
100
AcDbLine
10
35.828586
20
-10.781366
30
0
11
7.875
21
-34.064127
31
0
39
0
210
0
220
0
230
1
0
LINE
5
A6
100
AcDbEntity
8
1
62
256
6
ByLayer
370
18
48
1
60
0
100
AcDbLine
10
14.675
20
-42.563961
30
0
11
14.675
21
-43.689309
31
0
39
0
210
0
220
0
230
1
0
LINE
5
A7
100
AcDbEntity
8
1
62
256
6
ByLayer
370
18
48
1
60
0
100
AcDbLine
10
27.575092
20
-50.548409
30
0
11
14.675
21
-43.689309
31
0
39
0
210
0
220
0
230
1
0
LINE
5
A8
100
AcDbEntity
8
1
62
256
6
ByLayer
370
18
48
1
60
0
100
AcDbLine
10
31.81958
20
-51.687461
30
0
11
31.415387
21
-44.571842
31
0
39
0
210
0
220
0
230
1
0
LINE
5
A9
100
AcDbEntity
8
1
62
256
6
ByLayer
370
18
48
1
60
0
100
AcDbLine
10
30.297463
20
-42.665357
30
0
11
28.457822
21
-41.545979
31
0
39
0
210
0
220
0
230
1
0
LINE
5
AA
100
AcDbEntity
8
1
62
256
6
ByLayer
370
18
48
1
60
0
100
AcDbLine
10
27.86747
20
-38.067422
30
0
11
27.709422
21
-38.321876
31
0
39
0
210
0
220
0
230
1
0
LINE
5
AB
100
AcDbEntity
8
1
62
256
6
ByLayer
370
18
48
1
60
0
100
AcDbLine
10
43.559782
20
-44.586265
30
0
11
42.345247
21
-43.847249
31
0
39
0
210
0
220
0
230
1
0
LINE
5
AC
100
AcDbEntity
8
1
62
256
6
ByLayer
370
18
48
1
60
0
100
AcDbLine
10
42.750808
20
-29.15013
30
0
11
43.559782
21
-44.586265
31
0
39
0
210
0
220
0
230
1
0
LINE
5
AD
100
AcDbEntity
8
1
62
256
6
ByLayer
370
18
48
1
60
0
100
AcDbLine
10
41.400936
20
-29.456049
30
0
11
42.750808
21
-29.15013
31
0
39
0
210
0
220
0
230
1
0
LINE
5
AE
100
AcDbEntity
8
1
62
256
6
ByLayer
370
18
48
1
60
0
100
AcDbLine
10
25.592977
20
-33.038581
30
0
11
27.370099
21
-32.635834
31
0
39
0
210
0
220
0
230
1
0
LINE
5
AF
100
AcDbEntity
8
1
62
256
6
ByLayer
370
18
48
1
60
0
100
AcDbLine
10
26.46176
20
-22.940197
30
0
11
38.188156
21
-20.282663
31
0
39
0
210
0
220
0
230
1
0
LINE
5
B0
100
AcDbEntity
8
1
62
256
6
ByLayer
370
18
48
1
60
0
100
AcDbLine
10
42.282756
20
-20.219162
30
0
11
42.311597
21
-20.769494
31
0
39
0
210
0
220
0
230
1
0
LINE
5
B1
100
AcDbEntity
8
1
62
256
6
ByLayer
370
18
48
1
60
0
100
AcDbLine
10
42.282756
20
-20.219162
30
0
11
41.8
21
-17.947974
31
0
39
0
210
0
220
0
230
1
0
LINE
5
B2
100
AcDbEntity
8
1
62
256
6
ByLayer
370
18
48
1
60
0
100
AcDbLine
10
32.018524
20
-10.027091
30
0
11
27.518524
21
-10.027091
31
0
39
0
210
0
220
0
230
1
0
LINE
5
B3
100
AcDbEntity
8
1
62
256
6
ByLayer
370
18
48
1
60
0
100
AcDbLine
10
29.876655
20
-26.345496
30
0
11
35.709754
21
-25.02355
31
0
39
0
210
0
220
0
230
1
0
LINE
5
B4
100
AcDbEntity
8
1
62
256
6
ByLayer
370
18
48
1
60
0
100
AcDbLine
10
0.343279
20
34.597989
30
0
11
0.343279
21
34.534501
31
0
39
0
210
0
220
0
230
1
0
LINE
5
B5
100
AcDbEntity
8
1
62
256
6
ByLayer
370
18
48
1
60
0
100
AcDbLine
10
0.343279
20
-40.534501
30
0
11
0.343279
21
-40.597989
31
0
39
0
210
0
220
0
230
1
0
LINE
5
B6
100
AcDbEntity
8
1
62
256
6
ByLayer
370
18
48
1
60
0
100
AcDbLine
10
25.592977
20
-33.038581
30
0
11
25.388797
21
-32.33078
31
0
39
0
210
0
220
0
230
1
0
LINE
5
B7
100
AcDbEntity
8
1
62
256
6
ByLayer
370
18
48
1
60
0
100
AcDbLine
10
42.509655
20
-27.473338
30
0
11
42.750808
21
-29.15013
31
0
39
0
210
0
220
0
230
1
0
LINE
5
B8
100
AcDbEntity
8
1
62
256
6
ByLayer
370
18
48
1
60
0
100
AcDbLine
10
0.343279
20
-40.780534
30
0
11
0.343279
21
-40.829602
31
0
39
0
210
0
220
0
230
1
0
LINE
5
B9
100
AcDbEntity
8
1
62
256
6
ByLayer
370
18
48
1
60
0
100
AcDbLine
10
0.343279
20
34.829602
30
0
11
0.343279
21
34.780534
31
0
39
0
210
0
220
0
230
1
0
LINE
5
BA
100
AcDbEntity
8
1
62
256
6
ByLayer
370
18
48
1
60
0
100
AcDbLine
10
27.628667
20
-40.672842
30
0
11
28.457822
21
-41.545979
31
0
39
0
210
0
220
0
230
1
0
LINE
5
BB
100
AcDbEntity
8
1
62
256
6
ByLayer
370
18
48
1
60
0
100
AcDbLine
10
43.504523
20
-44.713743
30
0
11
42.328186
21
-43.997969
31
0
39
0
210
0
220
0
230
1
0
LINE
5
BC
100
AcDbEntity
8
1
62
256
6
ByLayer
370
18
48
1
60
0
100
AcDbLine
10
43.504523
20
-44.713743
30
0
11
43.559782
21
-44.586265
31
0
39
0
210
0
220
0
230
1
0
LINE
5
BD
100
AcDbEntity
8
1
62
256
6
ByLayer
370
18
48
1
60
0
100
AcDbLine
10
27.49817
20
-40.385382
30
0
11
29.907161
21
-41.851197
31
0
39
0
210
0
220
0
230
1
0
LINE
5
BE
100
AcDbEntity
8
1
62
256
6
ByLayer
370
18
48
1
60
0
100
AcDbLine
10
0.343279
20
-40.965758
30
0
11
0.343279
21
-41.000642
31
0
39
0
210
0
220
0
230
1
0
LINE
5
BF
100
AcDbEntity
8
1
62
256
6
ByLayer
370
18
48
1
60
0
100
AcDbLine
10
0.343279
20
35.000642
30
0
11
0.343279
21
34.965758
31
0
39
0
210
0
220
0
230
1
0
LINE
5
C0
100
AcDbEntity
8
1
62
256
6
ByLayer
370
18
48
1
60
0
100
AcDbLine
10
31.535023
20
-44.757243
30
0
11
31.929618
21
-51.703901
31
0
39
0
210
0
220
0
230
1
0
LINE
5
C1
100
AcDbEntity
8
1
62
256
6
ByLayer
370
18
48
1
60
0
100
AcDbLine
10
0.190104
20
34.855035
30
0
11
0.190104
21
34.801977
31
0
39
0
210
0
220
0
230
1
0
LINE
5
C2
100
AcDbEntity
8
1
62
256
6
ByLayer
370
18
48
1
60
0
100
AcDbLine
10
0.343279
20
-41.091059
30
0
11
0.343279
21
-41.111924
31
0
39
0
210
0
220
0
230
1
0
LINE
5
C3
100
AcDbEntity
8
1
62
256
6
ByLayer
370
18
48
1
60
0
100
AcDbLine
10
0.343279
20
-41.157028
30
0
11
0.343279
21
-41.163972
31
0
39
0
210
0
220
0
230
1
0
LINE
5
C4
100
AcDbEntity
8
1
62
256
6
ByLayer
370
18
48
1
60
0
100
AcDbLine
10
27.425861
20
-40.156248
30
0
11
29.788697
21
-41.593978
31
0
39
0
210
0
220
0
230
1
0
LINE
5
C5
100
AcDbEntity
8
1
62
256
6
ByLayer
370
18
48
1
60
0
100
AcDbLine
10
28.446201
20
-31.019383
30
0
11
30.022077
21
-38.395625
31
0
39
0
210
0
220
0
230
1
0
LINE
5
C6
100
AcDbEntity
8
1
62
256
6
ByLayer
370
18
48
1
60
0
100
AcDbLine
10
29.867194
20
-28.744792
30
0
11
38.033532
21
-26.894068
31
0
39
0
210
0
220
0
230
1
0
LINE
5
C7
100
AcDbEntity
8
1
62
256
6
ByLayer
370
18
48
1
60
0
100
AcDbLine
10
31.609383
20
-28.942632
30
0
11
36.664735
21
-27.796946
31
0
39
0
210
0
220
0
230
1
0
LINE
5
C8
100
AcDbEntity
8
1
62
256
6
ByLayer
370
18
48
1
60
0
100
AcDbLine
10
37.552853
20
-30.582797
30
0
11
37.263246
21
-30.047199
31
0
39
0
210
0
220
0
230
1
0
LINE
5
C9
100
AcDbEntity
8
1
62
256
6
ByLayer
370
18
48
1
60
0
100
AcDbLine
10
37.207896
20
-29.695038
30
0
11
36.976717
21
-29.267496
31
0
39
0
210
0
220
0
230
1
0
LINE
5
CA
100
AcDbEntity
8
1
62
256
6
ByLayer
370
18
48
1
60
0
100
AcDbLine
10
40.055401
20
-35.63726
30
0
11
39.631333
21
-33.652316
31
0
39
0
210
0
220
0
230
1
0
LINE
5
CB
100
AcDbEntity
8
1
62
256
6
ByLayer
370
18
48
1
60
0
100
AcDbLine
10
40.263175
20
-28.341322
30
0
11
41.83905
21
-35.717563
31
0
39
0
210
0
220
0
230
1
0
LINE
5
CC
100
AcDbEntity
8
1
62
256
6
ByLayer
370
18
48
1
60
0
100
AcDbLine
10
39.631333
20
-33.652316
30
0
11
39.392658
21
-33.21091
31
0
39
0
210
0
220
0
230
1
0
LINE
5
CD
100
AcDbEntity
8
1
62
256
6
ByLayer
370
18
48
1
60
0
100
AcDbLine
10
36.976717
20
-29.267496
30
0
11
36.664735
21
-27.796946
31
0
39
0
210
0
220
0
230
1
0
LINE
5
CE
100
AcDbEntity
8
1
62
256
6
ByLayer
370
18
48
1
60
0
100
AcDbLine
10
40.055401
20
-35.63726
30
0
11
39.811861
21
-35.186858
31
0
39
0
210
0
220
0
230
1
0
LINE
5
CF
100
AcDbEntity
8
1
62
256
6
ByLayer
370
18
48
1
60
0
100
AcDbLine
10
39.392658
20
-33.21091
30
0
11
39.811861
21
-35.186858
31
0
39
0
210
0
220
0
230
1
0
LINE
5
D0
100
AcDbEntity
8
1
62
256
6
ByLayer
370
18
48
1
60
0
100
AcDbLine
10
29.867194
20
-28.744792
30
0
11
28.971887
21
-27.089015
31
0
39
0
210
0
220
0
230
1
0
LINE
5
D1
100
AcDbEntity
8
1
62
256
6
ByLayer
370
18
48
1
60
0
100
AcDbLine
10
27.18168
20
-31.599807
30
0
11
26.884569
21
-31.050331
31
0
39
0
210
0
220
0
230
1
0
LINE
5
D2
100
AcDbEntity
8
1
62
256
6
ByLayer
370
18
48
1
60
0
100
AcDbLine
10
38.033532
20
-26.894068
30
0
11
37.138225
21
-25.238292
31
0
39
0
210
0
220
0
230
1
0
LINE
5
D3
100
AcDbEntity
8
1
62
256
6
ByLayer
370
18
48
1
60
0
100
AcDbLine
10
37.138225
20
-25.238292
30
0
11
28.971887
21
-27.089015
31
0
39
0
210
0
220
0
230
1
0
LINE
5
D4
100
AcDbEntity
8
1
62
256
6
ByLayer
370
18
48
1
60
0
100
AcDbLine
10
27.478936
20
-32.991179
30
0
11
27.18168
21
-31.599807
31
0
39
0
210
0
220
0
230
1
0
LINE
5
D5
100
AcDbEntity
8
1
62
256
6
ByLayer
370
18
48
1
60
0
100
AcDbLine
10
27.478936
20
-32.991179
30
0
11
27.482535
21
-32.995709
31
0
39
0
210
0
220
0
230
1
0
LINE
5
D6
100
AcDbEntity
8
1
62
256
6
ByLayer
370
18
48
1
60
0
100
AcDbLine
10
28.604742
20
-38.248455
30
0
11
27.482535
21
-32.995709
31
0
39
0
210
0
220
0
230
1
0
LINE
5
D7
100
AcDbEntity
8
1
62
256
6
ByLayer
370
18
48
1
60
0
100
AcDbLine
10
40.46003
20
-26.841061
30
0
11
40.932808
21
-27.715414
31
0
39
0
210
0
220
0
230
1
0
LINE
5
D8
100
AcDbEntity
8
1
62
256
6
ByLayer
370
18
48
1
60
0
100
AcDbLine
10
42.600044
20
-35.076723
30
0
11
41.477837
21
-29.823977
31
0
39
0
210
0
220
0
230
1
0
LINE
5
D9
100
AcDbEntity
8
1
62
256
6
ByLayer
370
18
48
1
60
0
100
AcDbLine
10
41.478373
20
-29.818509
30
0
11
41.477837
21
-29.823977
31
0
39
0
210
0
220
0
230
1
0
LINE
5
DA
100
AcDbEntity
8
1
62
256
6
ByLayer
370
18
48
1
60
0
100
AcDbLine
10
41.181117
20
-28.427137
30
0
11
41.478373
21
-29.818509
31
0
39
0
210
0
220
0
230
1
0
LINE
5
DB
100
AcDbEntity
8
1
62
256
6
ByLayer
370
18
48
1
60
0
100
AcDbLine
10
36.281533
20
-50.355806
30
0
11
35.430285
21
-49.738348
31
0
39
0
210
0
220
0
230
1
0
LINE
5
DC
100
AcDbEntity
8
1
62
256
6
ByLayer
370
18
48
1
60
0
100
AcDbLine
10
36.489188
20
-50.471101
30
0
11
36.281533
21
-50.355806
31
0
39
0
210
0
220
0
230
1
0
LINE
5
DD
100
AcDbEntity
8
1
62
256
6
ByLayer
370
18
48
1
60
0
100
AcDbLine
10
36.846933
20
-50.765922
30
0
11
36.666124
21
-50.634772
31
0
39
0
210
0
220
0
230
1
0
LINE
5
DE
100
AcDbEntity
8
1
62
256
6
ByLayer
370
18
48
1
60
0
100
AcDbLine
10
38.410903
20
-48.660437
30
0
11
38.69941
21
-51.229861
31
0
39
0
210
0
220
0
230
1
0
LINE
5
DF
100
AcDbEntity
8
1
62
256
6
ByLayer
370
18
48
1
60
0
100
AcDbLine
10
40.441152
20
-49.413118
30
0
11
40.299666
21
-49.607539
31
0
39
0
210
0
220
0
230
1
0
LINE
5
E0
100
AcDbEntity
8
1
62
256
6
ByLayer
370
18
48
1
60
0
100
AcDbLine
10
40.441152
20
-49.413118
30
0
11
40.991995
21
-48.477906
31
0
39
0
210
0
220
0
230
1
0
LINE
5
E1
100
AcDbEntity
8
1
62
256
6
ByLayer
370
18
48
1
60
0
100
AcDbLine
10
40.075283
20
-50.034286
30
0
11
40.192284
21
-49.835644
31
0
39
0
210
0
220
0
230
1
0
LINE
5
E2
100
AcDbEntity
8
1
62
256
6
ByLayer
370
18
48
1
60
0
100
AcDbLine
10
27.478936
20
-32.991179
30
0
11
26.906812
21
-31.123234
31
0
39
0
210
0
220
0
230
1
0
LINE
5
E3
100
AcDbEntity
8
SK1
62
256
6
ByLayer
370
18
48
1
60
0
100
AcDbLine
10
1.5
20
-43.5
30
0
11
1.5
21
-41.448289
31
0
39
0
210
0
220
0
230
1
0
LINE
5
E5
100
AcDbEntity
8
SK1
62
256
6
ByLayer
370
18
48
1
60
0
100
AcDbLine
10
6.5
20
-41.448534
30
0
11
6.5
21
-43.5
31
0
39
0
210
0
220
0
230
1
0
LINE
5
E6
100
AcDbEntity
8
SK1
62
256
6
ByLayer
370
18
48
1
60
0
100
AcDbLine
10
6.5
20
-43.5
30
0
11
6
21
-44
31
0
39
0
210
0
220
0
230
1
0
LINE
5
E7
100
AcDbEntity
8
SK1
62
256
6
ByLayer
370
18
48
1
60
0
100
AcDbLine
10
2
20
-44
30
0
11
1.5
21
-43.5
31
0
39
0
210
0
220
0
230
1
0
LINE
5
E8
100
AcDbEntity
8
1
62
256
6
ByLayer
370
18
48
1
60
0
100
AcDbLine
10
34.375626
20
-35.489598
30
0
11
34.363057
21
-35.483156
31
0
39
0
210
0
220
0
230
1
0
LINE
5
E9
100
AcDbEntity
8
1
62
256
6
ByLayer
370
18
48
1
60
0
100
AcDbLine
10
13.175
20
-40.985788
30
0
11
13.175
21
-41.5
31
0
39
0
210
0
220
0
230
1
0
LINE
5
EA
100
AcDbEntity
8
1
62
256
6
ByLayer
370
18
48
1
60
0
100
AcDbLine
10
7.325
20
35.382939
30
0
11
7.325
21
35.5
31
0
39
0
210
0
220
0
230
1
0
LINE
5
EB
100
AcDbEntity
8
1
62
256
6
ByLayer
370
18
48
1
60
0
100
AcDbLine
10
17.178043
20
-1.350397
30
0
11
10.680323
21
35.5
31
0
39
0
210
0
220
0
230
1
0
LINE
5
EC
100
AcDbEntity
8
1
62
256
6
ByLayer
370
18
48
1
60
0
100
AcDbLine
10
0.675
20
-41.5
30
0
11
0.675
21
35.382939
31
0
39
0
210
0
220
0
230
1
0
LINE
5
ED
100
AcDbEntity
8
1
62
256
6
ByLayer
370
18
48
1
60
0
100
AcDbLine
10
6.675
20
-40.631208
30
0
11
6.675
21
34.433274
31
0
39
0
210
0
220
0
230
1
0
LINE
5
EE
100
AcDbEntity
8
1
62
256
6
ByLayer
370
18
48
1
60
0
100
AcDbLine
10
-0.325
20
-40.499531
30
0
11
-0.325
21
34.251206
31
0
39
0
210
0
220
0
230
1
0
LINE
5
EF
100
AcDbEntity
8
SK1
62
256
6
ByLayer
370
18
48
1
60
0
100
AcDbLine
10
2
20
-44
30
0
11
6
21
-44
31
0
39
0
210
0
220
0
230
1
0
LINE
5
F0
100
AcDbEntity
8
SK1
62
256
6
ByLayer
370
18
48
1
60
0
100
AcDbLine
10
1.5
20
-43.5
30
0
11
6.5
21
-43.5
31
0
39
0
210
0
220
0
230
1
0
LINE
5
F1
100
AcDbEntity
8
80
62
256
6
ByLayer
370
13
48
1
60
0
100
AcDbLine
10
0
20
0
30
0
11
-31.121363
21
0
31
0
39
0
210
0
220
0
230
1
0
LINE
5
F2
100
AcDbEntity
8
81
62
256
6
ByLayer
370
13
48
1
60
0
100
AcDbLine
10
45.077975
20
-60.543625
30
0
11
60.635136
21
-60.543625
31
0
39
0
210
0
220
0
230
1
0
LINE
5
F3
100
AcDbEntity
8
1
62
256
6
ByLayer
370
18
48
1
60
0
100
AcDbLine
10
31.89839
20
-36.796865
30
0
11
31.966879
21
-32.902407
31
0
39
0
210
0
220
0
230
1
0
LINE
5
F4
100
AcDbEntity
8
1
62
256
6
ByLayer
370
18
48
1
60
0
100
AcDbLine
10
34.689416
20
-36.342383
30
0
11
34.688769
21
-35.808903
31
0
39
0
210
0
220
0
230
1
0
LINE
5
F5
100
AcDbEntity
8
4
62
256
6
ByLayer
370
13
48
0.05
60
0
100
AcDbLine
10
0
20
0
30
0
11
45
21
0
31
0
39
0
210
0
220
0
230
1
0
LINE
5
F7
100
AcDbEntity
8
SK4
62
256
6
ByLayer
370
13
48
0.05
60
0
100
AcDbLine
10
-14.133293
20
0
30
0
11
50
21
0
31
0
39
0
210
0
220
0
230
1
0
MTEXT
5
1F5
100
AcDbEntity
8
SK6
62
256
6
ByLayer
370
18
48
1
60
0
100
AcDbMText
10
-2.621931
20
-85.019507
30
0
210
0
220
0
230
1
1
\W1.0721;570-DDUNL-80-15
40
3
41
0
44
1.084337
50
0
71
7
72
5
7
iso_b_vert
0
DIMENSION
5
208
100
AcDbEntity
8
2
62
256
6
ByLayer
370
18
48
1
60
0
100
AcDbDimension
2
DimnDraft3D1
10
-49.589832
20
0.190104
30
0
11
-49.589832
21
25.75279
31
0
70
32
71
5
72
1
41
1
210
0
220
0
230
1
3
Standard
100
AcDbAlignedDimension
13
58.543625
23
45.077975
33
0
14
-33.477015
24
0.190104
34
0
50
90
100
AcDbRotatedDimension
1001
ACAD
1000
DSTYLE
1002
{
1070
    74
1070
     0
1070
   279
1070
     0
1070
   172
1070
     1
1070
   173
1070
     1
1070
   340
1005
1FB
1070
   271
1070
     0
1070
    77
1070
     1
1070
    73
1070
     0
1070
   171
1070
     3
1070
   274
1070
     4
1070
   177
1070
     7
1070
   176
1070
     7
1070
   178
1070
     7
1070
    78
1070
     8
1070
    41
1041
3.175
1070
   147
1041
1.5
1070
    42
1041
2.0
1070
    44
1041
2.0
1070
   140
1041
3.0
1070
   343
1005
209
1070
   344
1005
209
1002
}
0
DIMENSION
5
21D
100
AcDbEntity
8
2
62
256
6
ByLayer
370
18
48
1
60
0
100
AcDbDimension
2
DimnDraft3D2
10
0
20
-64.530755
30
0
11
-27.153063
21
-64.530755
31
0
70
32
71
5
72
1
41
1
210
0
220
0
230
1
3
Standard
100
AcDbAlignedDimension
13
-60.543625
23
-47.077975
33
0
14
0
24
-2
34
0
50
0
100
AcDbRotatedDimension
1001
ACAD
1000
DSTYLE
1002
{
1070
   279
1070
     0
1070
   172
1070
     1
1070
   173
1070
     1
1070
   340
1005
1FB
1070
   271
1070
     0
1070
    77
1070
     1
1070
    73
1070
     0
1070
   171
1070
     3
1070
   274
1070
     4
1070
   177
1070
     7
1070
   176
1070
     7
1070
   178
1070
     7
1070
    78
1070
     8
1070
    41
1041
3.175
1070
   147
1041
1.5
1070
    42
1041
2.0
1070
    44
1041
2.0
1070
   140
1041
3.0
1070
   343
1005
209
1070
   344
1005
209
1002
}
0
DIMENSION
5
22D
100
AcDbEntity
8
SK2
62
256
6
ByLayer
370
18
48
1
60
0
100
AcDbDimension
2
DimnDraft3D3
10
-41.40522
20
35.814201
30
0
11
4.60761
21
35.814201
31
0
70
32
71
5
72
1
41
1
210
0
220
0
230
1
3
Standard
100
AcDbAlignedDimension
13
35.382939
23
1.325
33
0
14
-41.40522
24
-0.367113
34
0
50
0
100
AcDbRotatedDimension
1001
ACAD
1000
DSTYLE
1002
{
1070
   279
1070
     0
1070
   172
1070
     1
1070
   173
1070
     1
1070
   340
1005
1FB
1070
   271
1070
     0
1070
    77
1070
     1
1070
    73
1070
     0
1070
   171
1070
     3
1070
   274
1070
     4
1070
   177
1070
     7
1070
   176
1070
     7
1070
   178
1070
     7
1070
    78
1070
     8
1070
    41
1041
3.175
1070
   147
1041
1.5
1070
    42
1041
2.0
1070
    44
1041
2.0
1070
   140
1041
3.0
1070
   343
1005
209
1070
   344
1005
209
1002
}
0
ENDSEC
0
SECTION
2
OBJECTS
0
DICTIONARY
5
298
330
0
100
AcDbDictionary
280
0
281
1
3
ACAD_GROUP
350
299
3
ACAD_MLINESTYLE
350
29a
0
DICTIONARY
5
299
330
0
100
AcDbDictionary
280
0
281
1
0
DICTIONARY
5
29a
330
0
100
AcDbDictionary
280
0
281
1
3
Standard
350
18
0
MLINESTYLE
5
18
330
29a
100
AcDbMlineStyle
2
Standard
70
0
3

62
256
51
90
52
90
71
2
49
-0.5
62
256
6
ByLayer
49
0.5
62
256
6
ByLayer
0
RASTERVARIABLES
5
286
330

100
AcDbRasterVariables
90
0
70
1
71
1
72
1
0
ENDSEC
0
EOF
