0
SECTION
2
HEADER
9
$ACADVER
1
AC1015
9
$DWGCODEPAGE
3
ANSI_1252
9
$HANDSEED
5
32d
9
$ANGBASE
50
0
9
$ANGDIR
70
0
9
$ATTMODE
70
1
9
$AUNITS
70
0
9
$AUPREC
70
0
9
$CECOLOR
62
256
9
$CELTSCALE
40
1
9
$CELTYPE
6
ByLayer
9
$CELWEIGHT
370
18
9
$CLAYER
8
0
9
$CMLJUST
70
0
9
$CMLSCALE
40
1
9
$CMLSTYLE
2
Standard
9
$DIMSTYLE
2
Standard
9
$TEXTSIZE
40
0.2
9
$TEXTSTYLE
7
Standard
9
$LUNITS
70
2
9
$LUPREC
70
4
9
$EXTNAMES
290
1
9
$INSUNITS
70
4
9
$LTSCALE
40
1
9
$LWDISPLAY
290
1
9
$PDMODE
70
0
9
$PDSIZE
40
0
9
$PLINEGEN
70
0
0
ENDSEC
0
SECTION
2
CLASSES
0
CLASS
1
RASTERVARIABLES
2
AcDbRasterVariables
3
ISM
90
0
280
0
281
0
0
ENDSEC
0
SECTION
2
TABLES
0
TABLE
2
VPORT
5
323
100
AcDbSymbolTable
0
VPORT
5
1
100
AcDbSymbolTableRecord
100
AcDbViewportTableRecord
2
*Active
70
0
10
0
20
0
11
1
21
1
12
-1
22
1
13
0
23
0
14
0.5
24
0.5
15
10
25
10
16
0
26
0
36
1
17
0
27
0
37
0
0
ENDTAB
0
TABLE
2
LTYPE
5
324
100
AcDbSymbolTable
0
LTYPE
5
14
100
AcDbSymbolTableRecord
100
AcDbLinetypeTableRecord
70
0
2
ByBlock
3

72
65
73
0
40
0
0
LTYPE
5
15
100
AcDbSymbolTableRecord
100
AcDbLinetypeTableRecord
70
0
2
ByLayer
3

72
65
73
0
40
0
0
LTYPE
5
16
100
AcDbSymbolTableRecord
100
AcDbLinetypeTableRecord
70
0
2
CONTINUOUS
3
Solid line
72
65
73
0
40
0
0
LTYPE
5
6A
100
AcDbSymbolTableRecord
100
AcDbLinetypeTableRecord
70
0
2
CENTER
3
____ _ ____ _ ____ _ ____
72
65
73
4
40
47.5
49
22
74
0
49
-8.5
74
0
49
8.5
74
0
49
-8.5
74
0
0
LTYPE
5
6B
100
AcDbSymbolTableRecord
100
AcDbLinetypeTableRecord
70
0
2
DASHED
3
__ __ __ __ __ __ __ __ __
72
65
73
2
40
25.72
49
12.86
74
0
49
-12.86
74
0
0
ENDTAB
0
TABLE
2
LAYER
5
325
100
AcDbSymbolTable
0
LAYER
5
10
100
AcDbSymbolTableRecord
100
AcDbLayerTableRecord
2
0
70
0
62
7
6
CONTINUOUS
290
1
370
-3
390
0
0
LAYER
5
6D
100
AcDbSymbolTableRecord
100
AcDbLayerTableRecord
2
80
70
0
62
-6
6
CONTINUOUS
290
1
370
-3
390
0
0
LAYER
5
6F
100
AcDbSymbolTableRecord
100
AcDbLayerTableRecord
2
81
70
0
62
-3
6
CONTINUOUS
290
1
370
-3
390
0
0
LAYER
5
71
100
AcDbSymbolTableRecord
100
AcDbLayerTableRecord
2
1
70
0
62
4
6
CONTINUOUS
290
1
370
-3
390
0
0
LAYER
5
11B
100
AcDbSymbolTableRecord
100
AcDbLayerTableRecord
2
4
70
0
62
-2
6
CENTER
290
1
370
-3
390
0
0
LAYER
5
28D
100
AcDbSymbolTableRecord
100
AcDbLayerTableRecord
2
2
70
0
62
7
6
CONTINUOUS
290
1
370
-3
390
0
0
LAYER
5
30f
100
AcDbSymbolTableRecord
100
AcDbLayerTableRecord
2
SK1
70
0
62
4
6
CONTINUOUS
290
1
370
-3
390
0
0
LAYER
5
310
100
AcDbSymbolTableRecord
100
AcDbLayerTableRecord
2
SK4
70
0
62
2
6
CENTER
290
1
370
-3
390
0
0
LAYER
5
311
100
AcDbSymbolTableRecord
100
AcDbLayerTableRecord
2
SK6
70
0
62
5
6
CONTINUOUS
290
1
370
-3
390
0
0
LAYER
5
312
100
AcDbSymbolTableRecord
100
AcDbLayerTableRecord
2
SK2
70
0
62
7
6
CONTINUOUS
290
1
370
-3
390
0
0
ENDTAB
0
TABLE
2
STYLE
5
326
100
AcDbSymbolTable
0
STYLE
5
11
100
AcDbSymbolTableRecord
100
AcDbTextStyleTableRecord
2
Standard
3
txt
70
0
71
0
40
0
41
1
42
0
50
0
0
STYLE
5
288
100
AcDbSymbolTableRecord
100
AcDbTextStyleTableRecord
2
blockfont
3
simplex.shx
70
0
71
0
40
0
41
1
42
0
50
0
0
STYLE
5
289
100
AcDbSymbolTableRecord
100
AcDbTextStyleTableRecord
2
DWGDirectTextStyle
3
simplex
70
0
71
0
40
0
41
1
42
0
50
0
0
ENDTAB
0
TABLE
2
DIMSTYLE
5
327
100
AcDbSymbolTable
100
AcDbDimStyleTable
0
DIMSTYLE
105
27
100
AcDbSymbolTableRecord
100
AcDbDimStyleTableRecord
2
Standard
70
0
3
<>
41
0.18
42
0.0625
44
0.18
140
0.18
147
0.09
73
0
74
0
77
1
271
2
275
0
278
52
280
0
340
11
0
ENDTAB
0
TABLE
2
VIEW
5
328
100
AcDbSymbolTable
0
ENDTAB
0
TABLE
2
UCS
5
329
100
AcDbSymbolTable
0
ENDTAB
0
TABLE
2
APPID
5
32a
100
AcDbSymbolTable
0
APPID
5
12
100
AcDbSymbolTableRecord
100
AcDbRegAppTableRecord
2
ACAD
70
0
0
ENDTAB
0
TABLE
2
BLOCK_RECORD
5
32b
100
AcDbSymbolTable
0
BLOCK_RECORD
5
1F
100
AcDbSymbolTableRecord
100
AcDbBlockTableRecord
2
*Model_Space
340
0
70
0
0
BLOCK_RECORD
5
1B
100
AcDbSymbolTableRecord
100
AcDbBlockTableRecord
2
*Paper_Space
340
0
70
0
0
BLOCK_RECORD
5
23
100
AcDbSymbolTableRecord
100
AcDbBlockTableRecord
2
*Paper_Space0
340
0
70
0
0
BLOCK_RECORD
5
28B
100
AcDbSymbolTableRecord
100
AcDbBlockTableRecord
2
DimnDraft3D1
340
0
70
0
0
BLOCK_RECORD
5
296
100
AcDbSymbolTableRecord
100
AcDbBlockTableRecord
2
DimnDraft3D2
340
0
70
0
0
BLOCK_RECORD
5
2A2
100
AcDbSymbolTableRecord
100
AcDbBlockTableRecord
2
DimnDraft3D3
340
0
70
0
0
BLOCK_RECORD
5
2AC
100
AcDbSymbolTableRecord
100
AcDbBlockTableRecord
2
DimnDraft3D4
340
0
70
0
0
ENDTAB
0
ENDSEC
0
SECTION
2
BLOCKS
0
BLOCK
5
20
100
AcDbEntity
8
0
100
AcDbBlockBegin
2
*Model_Space
70
0
10
0
20
0
30
0
3
*Model_Space
0
ENDBLK
5
21
100
AcDbEntity
8
0
100
AcDbBlockEnd
0
BLOCK
5
1C
100
AcDbEntity
8
0
100
AcDbBlockBegin
2
*Paper_Space
70
0
10
0
20
0
30
0
3
*Paper_Space
0
ENDBLK
5
1D
100
AcDbEntity
8
0
100
AcDbBlockEnd
0
BLOCK
5
24
100
AcDbEntity
8
0
100
AcDbBlockBegin
2
*Paper_Space0
70
0
10
0
20
0
30
0
3
*Paper_Space0
0
ENDBLK
5
25
100
AcDbEntity
8
0
100
AcDbBlockEnd
0
BLOCK
5
293
100
AcDbEntity
8
0
100
AcDbBlockBegin
2
DimnDraft3D1
70
0
10
0
20
0
30
0
3
DimnDraft3D1
0
MTEXT
5
28C
100
AcDbEntity
8
2
62
256
6
ByLayer
370
13
48
1
60
0
100
AcDbMText
10
68.248876
20
13.236458
30
0
210
0
220
0
230
1
1
\W1.1795;32
40
3.5
41
0
44
0.903614
50
90
71
7
72
5
7
blockfont
0
LINE
5
28E
100
AcDbEntity
8
2
62
256
6
ByLayer
370
13
48
1
60
0
100
AcDbLine
10
46.5875
20
0
30
0
11
72.043668
21
0
31
0
39
0
210
0
220
0
230
1
0
LINE
5
28F
100
AcDbEntity
8
2
62
256
6
ByLayer
370
13
48
1
60
0
100
AcDbLine
10
45.5875
20
32
30
0
11
72.043668
21
32
31
0
39
0
210
0
220
0
230
1
0
LINE
5
290
100
AcDbEntity
8
2
62
256
6
ByLayer
370
13
48
1
60
0
100
AcDbLine
10
68.868668
20
0
30
0
11
68.868668
21
32
31
0
39
0
210
0
220
0
230
1
0
SOLID
5
291
100
AcDbEntity
8
2
62
256
6
ByLayer
370
13
48
1
60
0
100
AcDbTrace
10
68.868668
20
0
30
0
11
68.450671
21
3.174998
31
0
12
69.286665
22
3.175002
32
0
13
68.868668
23
0
33
0
39
0
210
0
220
0
230
1
0
SOLID
5
292
100
AcDbEntity
8
2
62
256
6
ByLayer
370
13
48
1
60
0
100
AcDbTrace
10
68.868668
20
32
30
0
11
69.286665
21
28.825002
31
0
12
68.450671
22
28.824998
32
0
13
68.868668
23
32
33
0
39
0
210
0
220
0
230
1
0
ENDBLK
5
294
100
AcDbEntity
8
0
100
AcDbBlockEnd
0
BLOCK
5
29F
100
AcDbEntity
8
0
100
AcDbBlockBegin
2
DimnDraft3D2
70
0
10
0
20
0
30
0
3
DimnDraft3D2
0
MTEXT
5
297
100
AcDbEntity
8
SK2
62
256
6
ByLayer
370
13
48
1
60
0
100
AcDbMText
10
-8.798507
20
3.443471
30
0
210
0
220
0
230
1
1
\W1.1795;40
40
3.5
41
0
44
0.903614
50
89.9945593981203
71
7
72
5
7
blockfont
0
MTEXT
5
299
100
AcDbEntity
8
SK2
62
256
6
ByLayer
370
13
48
1
60
0
100
AcDbMText
10
-8.799252
20
-4.404185
30
0
210
0
220
0
230
1
1
%%c
40
3.5
41
0
44
0.903614
50
89.9945593981203
71
7
72
5
7
blockfont
0
LINE
5
29A
100
AcDbEntity
8
SK2
62
256
6
ByLayer
370
13
48
1
60
0
100
AcDbLine
10
-0.916378
20
-19.993756
30
0
11
-10.48094
21
-19.992848
31
0
39
0
210
0
220
0
230
1
0
LINE
5
29B
100
AcDbEntity
8
SK2
62
256
6
ByLayer
370
13
48
1
60
0
100
AcDbLine
10
-0.91258
20
20.006244
30
0
11
-10.477142
21
20.007152
31
0
39
0
210
0
220
0
230
1
0
LINE
5
29C
100
AcDbEntity
8
SK2
62
256
6
ByLayer
370
13
48
1
60
0
100
AcDbLine
10
-7.30594
20
-19.99315
30
0
11
-7.302142
21
20.00685
31
0
39
0
210
0
220
0
230
1
0
SOLID
5
29D
100
AcDbEntity
8
SK2
62
256
6
ByLayer
370
13
48
1
60
0
100
AcDbTrace
10
-7.30594
20
-19.99315
30
0
11
-7.723636
21
-16.818111
31
0
12
-6.887642
22
-16.818188
32
0
13
-7.30594
23
-19.99315
33
0
39
0
210
0
220
0
230
1
0
SOLID
5
29E
100
AcDbEntity
8
SK2
62
256
6
ByLayer
370
13
48
1
60
0
100
AcDbTrace
10
-7.302142
20
20.00685
30
0
11
-6.884447
21
16.831812
31
0
12
-7.72044
22
16.831888
32
0
13
-7.302142
23
20.00685
33
0
39
0
210
0
220
0
230
1
0
ENDBLK
5
2A0
100
AcDbEntity
8
0
100
AcDbBlockEnd
0
BLOCK
5
2A9
100
AcDbEntity
8
0
100
AcDbBlockBegin
2
DimnDraft3D3
70
0
10
0
20
0
30
0
3
DimnDraft3D3
0
MTEXT
5
2A3
100
AcDbEntity
8
SK2
62
256
6
ByLayer
370
13
48
1
60
0
100
AcDbMText
10
48.055975
20
16.426427
30
0
210
0
220
0
230
1
1
\W1.4729;95%%d
40
3.5
41
0
44
0.903614
50
42.5
71
7
72
5
7
blockfont
0
LINE
5
2A4
100
AcDbEntity
8
SK2
62
256
6
ByLayer
370
13
48
1
60
0
100
AcDbLine
10
38.689233
20
15.646673
30
0
11
38.321216
21
11.44021
31
0
39
0
210
0
220
0
230
1
0
LINE
5
2A5
100
AcDbEntity
8
SK2
62
256
6
ByLayer
370
13
48
1
60
0
100
AcDbLine
10
45.5875
20
32
30
0
11
60.758289
21
32
31
0
39
0
210
0
220
0
230
1
0
ARC
5
2A6
100
AcDbEntity
8
SK2
62
256
6
ByLayer
370
13
48
1
60
0
100
AcDbCircle
39
0
10
40.119964
20
32
30
0
40
17.4633246337281
210
0
220
0
230
1
100
AcDbArc
50
265
51
0
0
SOLID
5
2A7
100
AcDbEntity
8
SK2
62
256
6
ByLayer
370
13
48
1
60
0
100
AcDbTrace
10
38.597935
20
14.603129
30
0
11
41.787667
21
14.887642
31
0
12
41.75262
22
14.052383
32
0
13
38.597935
23
14.603129
33
0
39
0
210
0
220
0
230
1
0
SOLID
5
2A8
100
AcDbEntity
8
SK2
62
256
6
ByLayer
370
13
48
1
60
0
100
AcDbTrace
10
57.583289
20
32
30
0
11
57.85699
21
28.809322
31
0
12
57.021855
22
28.8472
32
0
13
57.583289
23
32
33
0
39
0
210
0
220
0
230
1
0
ENDBLK
5
2AA
100
AcDbEntity
8
0
100
AcDbBlockEnd
0
BLOCK
5
2B3
100
AcDbEntity
8
0
100
AcDbBlockBegin
2
DimnDraft3D4
70
0
10
0
20
0
30
0
3
DimnDraft3D4
0
MTEXT
5
2AD
100
AcDbEntity
8
2
62
256
6
ByLayer
370
13
48
1
60
0
100
AcDbMText
10
17.236458
20
45.383842
30
0
210
0
220
0
230
1
1
\W1.1795;40
40
3.5
41
0
44
0.903614
50
0
71
7
72
5
7
blockfont
0
LINE
5
2AE
100
AcDbEntity
8
2
62
256
6
ByLayer
370
13
48
1
60
0
100
AcDbLine
10
0
20
1.5875
30
0
11
0
21
47.939051
31
0
39
0
210
0
220
0
230
1
0
LINE
5
2AF
100
AcDbEntity
8
2
62
256
6
ByLayer
370
13
48
1
60
0
100
AcDbLine
10
40
20
33.5875
30
0
11
40
21
47.939051
31
0
39
0
210
0
220
0
230
1
0
LINE
5
2B0
100
AcDbEntity
8
2
62
256
6
ByLayer
370
13
48
1
60
0
100
AcDbLine
10
0
20
44.764051
30
0
11
40
21
44.764051
31
0
39
0
210
0
220
0
230
1
0
SOLID
5
2B1
100
AcDbEntity
8
2
62
256
6
ByLayer
370
13
48
1
60
0
100
AcDbTrace
10
0
20
44.764051
30
0
11
3.174998
21
45.182048
31
0
12
3.175002
22
44.346054
32
0
13
0
23
44.764051
33
0
39
0
210
0
220
0
230
1
0
SOLID
5
2B2
100
AcDbEntity
8
2
62
256
6
ByLayer
370
13
48
1
60
0
100
AcDbTrace
10
40
20
44.764051
30
0
11
36.825002
21
44.346054
31
0
12
36.824998
22
45.182048
32
0
13
40
23
44.764051
33
0
39
0
210
0
220
0
230
1
0
ENDBLK
5
2B4
100
AcDbEntity
8
0
100
AcDbBlockEnd
0
ENDSEC
0
SECTION
2
ENTITIES
0
ELLIPSE
5
120
100
AcDbEntity
8
1
62
256
6
ByLayer
370
18
48
1
60
0
100
AcDbEllipse
10
9.053151
20
0.005297
30
0
11
-1.75140601357155
21
-19.9998336902675
31
0
210
0
220
0
230
1
40
0.000383
41
3.34900259810638E-05
42
0.18900637184469
0
ELLIPSE
5
121
100
AcDbEntity
8
1
62
256
6
ByLayer
370
18
48
1
60
0
100
AcDbEllipse
10
35.831298
20
-10.067683
30
0
11
-43.0774654035612
21
1.0616297747244
31
0
210
0
220
0
230
1
40
0.119375
41
-1.05524707039771
42
-0.908895706883483
0
ELLIPSE
5
122
100
AcDbEntity
8
1
62
256
6
ByLayer
370
18
48
1
60
0
100
AcDbEllipse
10
-0.326978
20
0.006191
30
0
11
-0.00180417333709021
21
-19.0000032417153
31
0
210
0
220
0
230
1
40
0.001138
41
-0.314287078193386
42
-0.293485323052482
0
ELLIPSE
5
123
100
AcDbEntity
8
1
62
256
6
ByLayer
370
18
48
1
60
0
100
AcDbEllipse
10
-0.326978
20
0.006198
30
0
11
-0.00180417526650265
21
-19.0000096830486
31
0
210
0
220
0
230
1
40
0.001138
41
-0.231863959118419
42
-0.21154871614647
0
ELLIPSE
5
124
100
AcDbEntity
8
1
62
256
6
ByLayer
370
18
48
1
60
0
100
AcDbEllipse
10
-0.326978
20
0.006198
30
0
11
-0.00180418174938298
21
-19.0000109369463
31
0
210
0
220
0
230
1
40
0.001138
41
-0.908778951883665
42
-0.876614711137212
0
ELLIPSE
5
125
100
AcDbEntity
8
1
62
256
6
ByLayer
370
18
48
1
60
0
100
AcDbEllipse
10
8.24682
20
-9.097349
30
0
11
-1.1663128075341
21
-13.3116875785128
31
0
210
0
220
0
230
1
40
0.000947
41
-3.09001682009726
42
-2.85559020593415
0
ELLIPSE
5
126
100
AcDbEntity
8
1
62
256
6
ByLayer
370
18
48
1
60
0
100
AcDbEllipse
10
27.756004
20
-10.066916
30
0
11
-15.2822813158449
21
4.50509820857325
31
0
210
0
220
0
230
1
40
0.176545
41
-1.52959417588918
42
-0.539738406944841
0
ELLIPSE
5
127
100
AcDbEntity
8
SK1
62
256
6
ByLayer
370
18
48
1
60
0
100
AcDbEllipse
10
-3.226976
20
0.006463
30
0
11
-0.00028486924784033
21
-2.99999998647614
31
0
210
0
220
0
230
1
40
0.001138
41
-1.6639351237533
42
-2.15189042787311E-13
0
ELLIPSE
5
128
100
AcDbEntity
8
1
62
256
6
ByLayer
370
18
48
1
60
0
100
AcDbEllipse
10
35.810669
20
-10.067681
30
0
11
-0.571472298946974
21
-5.24963377194522
31
0
210
0
220
0
230
1
40
0.10024
41
-2.92101554500551
42
-2.07676831586607
0
ELLIPSE
5
129
100
AcDbEntity
8
1
62
256
6
ByLayer
370
18
48
1
60
0
100
AcDbEllipse
10
17.284345
20
-20.692801
30
0
11
-2.94016836056722
21
-9.60051766731441
31
0
210
0
220
0
230
1
40
0.995726
41
-2.06169772530099
42
-1.95274459133212
0
ELLIPSE
5
12A
100
AcDbEntity
8
1
62
256
6
ByLayer
370
18
48
1
60
0
100
AcDbEllipse
10
27.845124
20
-1.173511
30
0
11
-2.86372205686352
21
2.01435795920943
31
0
210
0
220
0
230
1
40
0.979643
41
1.82398004669483
42
2.99621487740637
0
ELLIPSE
5
12B
100
AcDbEntity
8
SK1
62
256
6
ByLayer
370
18
48
1
60
0
100
AcDbEllipse
10
-3.826976
20
0.00652
30
0
11
-0.000251975380455763
21
-2.65358982652739
31
0
210
0
220
0
230
1
40
0.001138
41
-3.14093549813445
42
-1.66393512375526
0
ELLIPSE
5
12C
100
AcDbEntity
8
1
62
256
6
ByLayer
370
18
48
1
60
0
100
AcDbEllipse
10
-0.326978
20
0.006181
30
0
11
-0.0018041700318119
21
-18.9999925875979
31
0
210
0
220
0
230
1
40
0.001138
41
-0.151139892873095
42
-0.131151963571063
0
ELLIPSE
5
12D
100
AcDbEntity
8
1
62
256
6
ByLayer
370
18
48
1
60
0
100
AcDbEllipse
10
-0.326978
20
0.006196
30
0
11
-0.0018041794005819
21
-19.0000087490917
31
0
210
0
220
0
230
1
40
0.001138
41
-0.786950770466813
42
-0.758898635821725
0
ELLIPSE
5
12E
100
AcDbEntity
8
1
62
256
6
ByLayer
370
18
48
1
60
0
100
AcDbEllipse
10
35.831298
20
-10.067683
30
0
11
-43.0774660494212
21
1.06162973516767
31
0
210
0
220
0
230
1
40
0.119375
41
0.893375634361995
42
0.937619314562115
0
ELLIPSE
5
12F
100
AcDbEntity
8
1
62
256
6
ByLayer
370
18
48
1
60
0
100
AcDbEllipse
10
13.491957
20
0.294109
30
0
11
-2.49712020341237
21
-6.539443838549
31
0
210
0
220
0
230
1
40
0.042814
41
-2.24944719180175
42
-2.2187681198794
0
ELLIPSE
5
130
100
AcDbEntity
8
1
62
256
6
ByLayer
370
18
48
1
60
0
100
AcDbEllipse
10
-0.326978
20
0.006201
30
0
11
-0.00180417406709825
21
-19.0000129976281
31
0
210
0
220
0
230
1
40
0.001138
41
-0.0715125828284846
42
-0.0517136222921997
0
ELLIPSE
5
131
100
AcDbEntity
8
1
62
256
6
ByLayer
370
18
48
1
60
0
100
AcDbEllipse
10
-0.326978
20
0.006219
30
0
11
-0.00180419646605164
21
-19.0000314700215
31
0
210
0
220
0
230
1
40
0.001138
41
-0.678962544365497
42
-0.653503855319045
0
ELLIPSE
5
132
100
AcDbEntity
8
1
62
256
6
ByLayer
370
18
48
1
60
0
100
AcDbEllipse
10
29.841006
20
2.649663
30
0
11
-0.878175113361157
21
4.91609931867333
31
0
210
0
220
0
230
1
40
0.432863
41
2.65819371067059
42
-2.63097959909709
0
ELLIPSE
5
133
100
AcDbEntity
8
1
62
256
6
ByLayer
370
18
48
1
60
0
100
AcDbEllipse
10
-0.326978
20
0.006187
30
0
11
-0.00180417057320516
21
-18.9999984175834
31
0
210
0
220
0
230
1
40
0.001138
41
-1.05485248375464
42
-1.0150197345555
0
ELLIPSE
5
134
100
AcDbEntity
8
SK1
62
256
6
ByLayer
370
18
48
1
60
0
100
AcDbEllipse
10
-3.226976
20
0.006463
30
0
11
-0.000284869247833741
21
-2.99999998649093
31
0
210
0
220
0
230
1
40
0.001138
41
3.14159265358969
42
-1.66393512375859
0
ELLIPSE
5
135
100
AcDbEntity
8
1
62
256
6
ByLayer
370
18
48
1
60
0
100
AcDbEllipse
10
27.277555
20
3.230638
30
0
11
-1.96202421509193
21
-5.13813789081754
31
0
210
0
220
0
230
1
40
0.042814
41
0.898088900998762
42
1.30350807298033
0
ELLIPSE
5
136
100
AcDbEntity
8
1
62
256
6
ByLayer
370
18
48
1
60
0
100
AcDbEllipse
10
-0.326978
20
0.006197
30
0
11
-0.00180417815710579
21
-19.0000088250237
31
0
210
0
220
0
230
1
40
0.001138
41
-0.5799859241232
42
-0.556303060383745
0
ELLIPSE
5
137
100
AcDbEntity
8
1
62
256
6
ByLayer
370
18
48
1
60
0
100
AcDbEllipse
10
31.474448
20
-5.134686
30
0
11
-1.85678292671742
21
-5.18756957837677
31
0
210
0
220
0
230
1
40
0.72523
41
1.86540196434748
42
3.12632851521589
0
ELLIPSE
5
138
100
AcDbEntity
8
SK1
62
256
6
ByLayer
370
18
48
1
60
0
100
AcDbEllipse
10
-3.826976
20
0.00652
30
0
11
-0.000251975380455263
21
-2.65358982652212
31
0
210
0
220
0
230
1
40
0.001138
41
-1.66393512375398
42
-0.000657155453326673
0
ELLIPSE
5
139
100
AcDbEntity
8
1
62
256
6
ByLayer
370
18
48
1
60
0
100
AcDbEllipse
10
9.067185
20
0.005296
30
0
11
-1.78436715215848
21
-19.9998300711854
31
0
210
0
220
0
230
1
40
0.002678
41
-1.10211051960585
42
-0.833628363631115
0
ELLIPSE
5
13A
100
AcDbEntity
8
1
62
256
6
ByLayer
370
18
48
1
60
0
100
AcDbEllipse
10
27.756004
20
-10.066916
30
0
11
-15.2822813199199
21
4.50509821015099
31
0
210
0
220
0
230
1
40
0.176545
41
-0.539738406868857
42
-0.421073129255972
0
ELLIPSE
5
13B
100
AcDbEntity
8
1
62
256
6
ByLayer
370
18
48
1
60
0
100
AcDbEllipse
10
29.841006
20
2.649663
30
0
11
-0.878175111539373
21
4.91609931498339
31
0
210
0
220
0
230
1
40
0.432863
41
-2.6309795988173
42
-2.50701892200088
0
ELLIPSE
5
13C
100
AcDbEntity
8
1
62
256
6
ByLayer
370
18
48
1
60
0
100
AcDbEllipse
10
-0.326978
20
0.006188
30
0
11
-0.00180417200712873
21
-19.0000000393045
31
0
210
0
220
0
230
1
40
0.001138
41
-0.487288504882077
42
-0.464877092449075
0
ELLIPSE
5
13D
100
AcDbEntity
8
1
62
256
6
ByLayer
370
18
48
1
60
0
100
AcDbEllipse
10
21.677453
20
5.369066
30
0
11
-1.96202421504879
21
-5.13813789069332
31
0
210
0
220
0
230
1
40
0.042814
41
0.898088901004625
42
1.30350807299399
0
ELLIPSE
5
13E
100
AcDbEntity
8
1
62
256
6
ByLayer
370
18
48
1
60
0
100
AcDbEllipse
10
29.53726
20
0.274504
30
0
11
-2.58325747637203
21
1.52537889900206
31
0
210
0
220
0
230
1
40
0.968914
41
0.0506427668412009
42
0.173931253089648
0
ELLIPSE
5
13F
100
AcDbEntity
8
1
62
256
6
ByLayer
370
18
48
1
60
0
100
AcDbEllipse
10
8.142476
20
-10.065053
30
0
11
-0.468396377738409
21
-5.24995539694367
31
0
210
0
220
0
230
1
40
0.002678
41
-2.40259868202941
42
-1.15968439408645
0
ELLIPSE
5
140
100
AcDbEntity
8
1
62
256
6
ByLayer
370
18
48
1
60
0
100
AcDbEllipse
10
35.831298
20
-10.067682
30
0
11
-43.0774619954302
21
1.06162970259732
31
0
210
0
220
0
230
1
40
0.119375
41
-1.57764764007876
42
-1.56280264533711
0
ELLIPSE
5
141
100
AcDbEntity
8
1
62
256
6
ByLayer
370
18
48
1
60
0
100
AcDbEllipse
10
-0.326978
20
0.006187
30
0
11
-0.00180417118964362
21
-18.9999985760796
31
0
210
0
220
0
230
1
40
0.001138
41
-0.399126791489705
42
-0.377644905755969
0
ELLIPSE
5
142
100
AcDbEntity
8
1
62
256
6
ByLayer
370
18
48
1
60
0
100
AcDbEllipse
10
-0.326978
20
0.006188
30
0
11
-0.00180417193345606
21
-18.9999999552999
31
0
210
0
220
0
230
1
40
0.001138
41
-1.25987480836292
42
-1.19795475929722
0
ELLIPSE
5
143
100
AcDbEntity
8
1
62
256
6
ByLayer
370
18
48
1
60
0
100
AcDbEllipse
10
17.820942
20
2.654274
30
0
11
-2.86372205686934
21
2.01435795919998
31
0
210
0
220
0
230
1
40
0.979643
41
0.651745215979901
42
1.82398004669159
0
ELLIPSE
5
144
100
AcDbEntity
8
1
62
256
6
ByLayer
370
18
48
1
60
0
100
AcDbEllipse
10
19.303525
20
17.043515
30
0
11
-3.43664372465975
21
-3.19363501000491
31
0
210
0
220
0
230
1
40
0.319103
41
-1.67624228697058
42
-1.50469622203343
0
ELLIPSE
5
145
100
AcDbEntity
8
1
62
256
6
ByLayer
370
18
48
1
60
0
100
AcDbEllipse
10
0.806421
20
9.731629
30
0
11
-43.0774653893788
21
1.06162977491587
31
0
210
0
220
0
230
1
40
0.119375
41
-1.92146597769272
42
-1.81238843823564
0
ELLIPSE
5
146
100
AcDbEntity
8
1
62
256
6
ByLayer
370
18
48
1
60
0
100
AcDbEllipse
10
0.80642
20
9.731629
30
0
11
-43.0774669658424
21
1.06162969303006
31
0
210
0
220
0
230
1
40
0.119375
41
-1.99604041312822
42
-1.97055448361506
0
ELLIPSE
5
147
100
AcDbEntity
8
1
62
256
6
ByLayer
370
18
48
1
60
0
100
AcDbEllipse
10
19.303525
20
17.043515
30
0
11
-3.43664372433334
21
-3.19363500968417
31
0
210
0
220
0
230
1
40
0.319103
41
0.815205165669981
42
1.27761426466835
0
ELLIPSE
5
148
100
AcDbEntity
8
1
62
256
6
ByLayer
370
18
48
1
60
0
100
AcDbEllipse
10
18.791092
20
16.54674
30
0
11
-0.0825736097349551
21
1.99881131941541
31
0
210
0
220
0
230
1
40
0.111681
41
0.270881164322865
42
0.527668688605632
0
ELLIPSE
5
149
100
AcDbEntity
8
1
62
256
6
ByLayer
370
18
48
1
60
0
100
AcDbEllipse
10
9.907698
20
9.730765
30
0
11
-0.468396377820874
21
-5.24995539786397
31
0
210
0
220
0
230
1
40
0.002678
41
2.89184121539107
42
-3.14135402317828
0
ELLIPSE
5
14A
100
AcDbEntity
8
1
62
256
6
ByLayer
370
18
48
1
60
0
100
AcDbEllipse
10
19.303525
20
17.043515
30
0
11
-3.43664372435211
21
-3.19363500971287
31
0
210
0
220
0
230
1
40
0.319103
41
-1.50469622202443
42
-0.236847002238635
0
ELLIPSE
5
14B
100
AcDbEntity
8
1
62
256
6
ByLayer
370
18
48
1
60
0
100
AcDbEllipse
10
27.816928
20
9.062354
30
0
11
-0.384460293745712
21
0.23385953590331
31
0
210
0
220
0
230
1
40
0.973019
41
-2.38919916827812
42
-1.01476692582553
0
ELLIPSE
5
14C
100
AcDbEntity
8
1
62
256
6
ByLayer
370
18
48
1
60
0
100
AcDbEllipse
10
26.527838
20
9.422937
30
0
11
-4.43459201337624
21
2.6185671033792
31
0
210
0
220
0
230
1
40
0.968914
41
-2.96766140286128
42
-0.000482615270804757
0
ELLIPSE
5
14D
100
AcDbEntity
8
1
62
256
6
ByLayer
370
18
48
1
60
0
100
AcDbEllipse
10
27.182768
20
10.707523
30
0
11
-0.384460293745844
21
0.233859535903214
31
0
210
0
220
0
230
1
40
0.973019
41
-2.80073785304439
42
0
0
ELLIPSE
5
14E
100
AcDbEntity
8
1
62
256
6
ByLayer
370
18
48
1
60
0
100
AcDbEllipse
10
26.682011
20
9.355837
30
0
11
-1.2174575968091
21
0.74055519713109
31
0
210
0
220
0
230
1
40
0.973019
41
2.15084091117574
42
2.4112347196902
0
ELLIPSE
5
14F
100
AcDbEntity
8
1
62
256
6
ByLayer
370
18
48
1
60
0
100
AcDbEllipse
10
26.370259
20
8.843322
30
0
11
-1.19609868882624
21
0.72756300033876
31
0
210
0
220
0
230
1
40
0.973019
41
-3.14159265271585
42
-3.04655109884709
0
ELLIPSE
5
150
100
AcDbEntity
8
1
62
256
6
ByLayer
370
18
48
1
60
0
100
AcDbEllipse
10
26.871015
20
10.195007
30
0
11
-0.384460293745924
21
0.233859535903072
31
0
210
0
220
0
230
1
40
0.973019
41
-2.80073785304478
42
-0.0471229011567416
0
ELLIPSE
5
151
100
AcDbEntity
8
1
62
256
6
ByLayer
370
18
48
1
60
0
100
AcDbEllipse
10
24.929691
20
10.02497
30
0
11
-0.427178104154392
21
0.259843928791577
31
0
210
0
220
0
230
1
40
0.973019
41
-2.57592612902377
42
-2.06196447699635
0
ELLIPSE
5
152
100
AcDbEntity
8
1
62
256
6
ByLayer
370
18
48
1
60
0
100
AcDbEllipse
10
28.434332
20
8.686704
30
0
11
-0.427178104139924
21
0.259843928832682
31
0
210
0
220
0
230
1
40
0.973019
41
-0.706342750537832
42
-0.192381098515492
0
ELLIPSE
5
153
100
AcDbEntity
8
1
62
256
6
ByLayer
370
18
48
1
60
0
100
AcDbEllipse
10
25.736098
20
10.48849
30
0
11
-0.384460293744691
21
0.23385953590488
31
0
210
0
220
0
230
1
40
0.973019
41
0
42
1.07962817657169
0
ELLIPSE
5
154
100
AcDbEntity
8
1
62
256
6
ByLayer
370
18
48
1
60
0
100
AcDbEllipse
10
26.35598
20
11.175359
30
0
11
-0.427178104161309
21
0.259843928782422
31
0
210
0
220
0
230
1
40
0.973019
41
2.66006162693616
42
3.14159265358979
0
ELLIPSE
5
155
100
AcDbEntity
8
1
62
256
6
ByLayer
370
18
48
1
60
0
100
AcDbEllipse
10
26.682011
20
9.355837
30
0
11
-1.21745759694925
21
0.740555196897755
31
0
210
0
220
0
230
1
40
0.973019
41
1.10364335978552
42
1.36403716830023
0
ELLIPSE
5
156
100
AcDbEntity
8
1
62
256
6
ByLayer
370
18
48
1
60
0
100
AcDbEllipse
10
25.235342
20
9.136804
30
0
11
-0.384460293745872
21
0.233859535903146
31
0
210
0
220
0
230
1
40
0.973019
41
0
42
2.12682572776363
0
ELLIPSE
5
157
100
AcDbEntity
8
1
62
256
6
ByLayer
370
18
48
1
60
0
100
AcDbEllipse
10
26.370259
20
8.843322
30
0
11
-1.19609869164641
21
0.727563000597723
31
0
210
0
220
0
230
1
40
0.973019
41
-2.8633487814481
42
-1.99935354860132
0
ELLIPSE
5
158
100
AcDbEntity
8
1
62
256
6
ByLayer
370
18
48
1
60
0
100
AcDbEllipse
10
28.128681
20
9.57487
30
0
11
-0.384460293745929
21
0.233859535903064
31
0
210
0
220
0
230
1
40
0.973019
41
3.14159265358979
42
-1.01476692582637
0
ELLIPSE
5
159
100
AcDbEntity
8
1
62
256
6
ByLayer
370
18
48
1
60
0
100
AcDbEllipse
10
27.796548
20
9.993711
30
0
11
-0.427178104159045
21
0.259843928787569
31
0
210
0
220
0
230
1
40
0.973019
41
1.49285131322663
42
2.12682572777724
0
ELLIPSE
5
15A
100
AcDbEntity
8
1
62
256
6
ByLayer
370
18
48
1
60
0
100
AcDbEllipse
10
26.355981
20
11.175359
30
0
11
-0.427176933988507
21
0.259843621863523
31
0
210
0
220
0
230
1
40
0.97302
41
-3.1415919804395
42
-3.10916131746862
0
ELLIPSE
5
15B
100
AcDbEntity
8
1
62
256
6
ByLayer
370
18
48
1
60
0
100
AcDbEllipse
10
26.268339
20
8.675769
30
0
11
-1.1960986916541
21
0.727563000587129
31
0
210
0
220
0
230
1
40
0.973019
41
-2.95494994063234
42
-0.278243872132659
0
ELLIPSE
5
15C
100
AcDbEntity
8
1
62
256
6
ByLayer
370
18
48
1
60
0
100
AcDbEllipse
10
26.676819
20
9.347301
30
0
11
-1.19609869112975
21
0.727563001624053
31
0
210
0
220
0
230
1
40
0.973019
41
2.18943665700653
42
2.37263897534904
0
ELLIPSE
5
15D
100
AcDbEntity
8
1
62
256
6
ByLayer
370
18
48
1
60
0
100
AcDbEllipse
10
26.485443
20
9.032682
30
0
11
-4.27178104093253
21
2.59843928809836
31
0
210
0
220
0
230
1
40
0.973019
41
-3.14159265347238
42
-2.95494994050666
0
ELLIPSE
5
15E
100
AcDbEntity
8
1
62
256
6
ByLayer
370
18
48
1
60
0
100
AcDbEllipse
10
27.008043
20
7.536315
30
0
11
-0.427178104159747
21
0.259843928797005
31
0
210
0
220
0
230
1
40
0.973019
41
-1.75354030181557
42
-1.23957864979534
0
ELLIPSE
5
15F
100
AcDbEntity
8
1
62
256
6
ByLayer
370
18
48
1
60
0
100
AcDbEllipse
10
26.682011
20
9.355837
30
0
11
-1.21745759713525
21
0.74055519677191
31
0
210
0
220
0
230
1
40
0.973019
41
0.0564458084525169
42
0.316839616958715
0
ELLIPSE
5
160
100
AcDbEntity
8
1
62
256
6
ByLayer
370
18
48
1
60
0
100
AcDbEllipse
10
28.128681
20
9.57487
30
0
11
-0.384460293732916
21
0.233859535933859
31
0
210
0
220
0
230
1
40
0.973019
41
2.43524990301366
42
3.14159265358979
0
ELLIPSE
5
161
100
AcDbEntity
8
1
62
256
6
ByLayer
370
18
48
1
60
0
100
AcDbEllipse
10
26.370259
20
8.843322
30
0
11
-1.19609869165256
21
0.727563000590069
31
0
210
0
220
0
230
1
40
0.973019
41
-1.81615123025816
42
-0.952155997411911
0
ELLIPSE
5
162
100
AcDbEntity
8
1
62
256
6
ByLayer
370
18
48
1
60
0
100
AcDbEllipse
10
26.676819
20
9.347301
30
0
11
-1.19609869076284
21
0.727563002348503
31
0
210
0
220
0
230
1
40
0.973019
41
-0.952155996001503
42
-0.768953677665505
0
ELLIPSE
5
163
100
AcDbEntity
8
1
62
256
6
ByLayer
370
18
48
1
60
0
100
AcDbEllipse
10
26.044227
20
10.662844
30
0
11
-0.427178104178434
21
0.259843928739983
31
0
210
0
220
0
230
1
40
0.973019
41
2.5400488643189
42
3.14159265358979
0
ELLIPSE
5
164
100
AcDbEntity
8
1
62
256
6
ByLayer
370
18
48
1
60
0
100
AcDbEllipse
10
25.255722
20
8.205447
30
0
11
-0.427178104180815
21
0.259843928756004
31
0
210
0
220
0
230
1
40
0.973019
41
-2.80073785310615
42
-2.28677620108128
0
ELLIPSE
5
165
100
AcDbEntity
8
1
62
256
6
ByLayer
370
18
48
1
60
0
100
AcDbEllipse
10
27.627925
20
8.223184
30
0
11
-0.38446029374325
21
0.233859535906691
31
0
210
0
220
0
230
1
40
0.973019
41
3.14159265358979
42
-2.06196447701273
0
ELLIPSE
5
166
100
AcDbEntity
8
1
62
256
6
ByLayer
370
18
48
1
60
0
100
AcDbEllipse
10
27.796548
20
9.993711
30
0
11
-0.42717810415405
21
0.259843928792568
31
0
210
0
220
0
230
1
40
0.973019
41
0.340854800572146
42
0.974829215124467
0
ELLIPSE
5
167
100
AcDbEntity
8
1
62
256
6
ByLayer
370
18
48
1
60
0
100
AcDbEllipse
10
37.649553
20
17.356618
30
0
11
-1.017538244256
21
0.618948238220276
31
0
210
0
220
0
230
1
40
0.973019
41
3.14159265343452
42
-2.69315055299815
0
ELLIPSE
5
168
100
AcDbEntity
8
1
62
256
6
ByLayer
370
18
48
1
60
0
100
AcDbEllipse
10
26.682011
20
9.355837
30
0
11
-1.21745759673943
21
0.740555197269652
31
0
210
0
220
0
230
1
40
0.973019
41
-0.990751742304478
42
-0.730357933791602
0
ELLIPSE
5
169
100
AcDbEntity
8
1
62
256
6
ByLayer
370
18
48
1
60
0
100
AcDbEllipse
10
27.627925
20
8.223184
30
0
11
-0.3844602937467
21
0.233859535901601
31
0
210
0
220
0
230
1
40
0.973019
41
1.38805235173774
42
3.14159265358979
0
ELLIPSE
5
16A
100
AcDbEntity
8
1
62
256
6
ByLayer
370
18
48
1
60
0
100
AcDbEllipse
10
26.370259
20
8.843322
30
0
11
-1.19609869157091
21
0.727563001215075
31
0
210
0
220
0
230
1
40
0.973019
41
2.89859350480885
42
-3.141592653187
0
ELLIPSE
5
16B
100
AcDbEntity
8
1
62
256
6
ByLayer
370
18
48
1
60
0
100
AcDbEllipse
10
26.370259
20
8.843322
30
0
11
-1.19609869236311
21
0.727562999697566
31
0
210
0
220
0
230
1
40
0.973019
41
0.278243871335581
42
0.606127655806545
0
ELLIPSE
5
16C
100
AcDbEntity
8
1
62
256
6
ByLayer
370
18
48
1
60
0
100
AcDbEllipse
10
28.108301
20
10.506227
30
0
11
-0.42717810415446
21
0.259843928796847
31
0
210
0
220
0
230
1
40
0.973019
41
1.6128640757724
42
2.1268257277976
0
ELLIPSE
5
16D
100
AcDbEntity
8
1
62
256
6
ByLayer
370
18
48
1
60
0
100
AcDbEllipse
10
27.008043
20
7.536315
30
0
11
-0.42717810417508
21
0.259843928742819
31
0
210
0
220
0
230
1
40
0.973019
41
-0.481531026737686
42
0
0
ELLIPSE
5
16E
100
AcDbEntity
8
1
62
256
6
ByLayer
370
18
48
1
60
0
100
AcDbEllipse
10
25.424345
20
9.975974
30
0
11
-0.384460293743393
21
0.233859535908256
31
0
210
0
220
0
230
1
40
0.973019
41
-1.75354030183487
42
-0.754632851755833
0
ELLIPSE
5
16F
100
AcDbEntity
8
1
62
256
6
ByLayer
370
18
48
1
60
0
100
AcDbEllipse
10
24.617938
20
9.512454
30
0
11
-0.427178104166937
21
0.259843928770217
31
0
210
0
220
0
230
1
40
0.973019
41
2.47893112833686
42
3.06922431746645
0
ELLIPSE
5
170
100
AcDbEntity
8
1
62
256
6
ByLayer
370
18
48
1
60
0
100
AcDbEllipse
10
26.682011
20
9.355837
30
0
11
-1.21745759596285
21
0.740555198227332
31
0
210
0
220
0
230
1
40
0.973019
41
-2.037949292657
42
-1.77755548411751
0
ELLIPSE
5
171
100
AcDbEntity
8
1
62
256
6
ByLayer
370
18
48
1
60
0
100
AcDbEllipse
10
26.181255
20
8.004151
30
0
11
-0.384460293745979
21
0.233859535902977
31
0
210
0
220
0
230
1
40
0.973019
41
0.340854800544746
42
3.14159265358979
0
ELLIPSE
5
172
100
AcDbEntity
8
1
62
256
6
ByLayer
370
18
48
1
60
0
100
AcDbEllipse
10
26.676819
20
9.347301
30
0
11
-1.19609869449958
21
0.727562998036853
31
0
210
0
220
0
230
1
40
0.973019
41
-3.04655110238666
42
-2.86334878410961
0
ELLIPSE
5
173
100
AcDbEntity
8
1
62
256
6
ByLayer
370
18
48
1
60
0
100
AcDbEllipse
10
27.316172
20
7.710669
30
0
11
-0.384460292331282
21
0.233859537871087
31
0
210
0
220
0
230
1
40
0.973019
41
-2.38695979649824
42
-2.06196447160133
0
ELLIPSE
5
174
100
AcDbEntity
8
1
62
256
6
ByLayer
370
18
48
1
60
0
100
AcDbEllipse
10
26.35598
20
11.175359
30
0
11
-0.42717810415483
21
0.259843928810105
31
0
210
0
220
0
230
1
40
0.973019
41
1.38805235180343
42
1.90201400382097
0
ELLIPSE
5
175
100
AcDbEntity
8
1
62
256
6
ByLayer
370
18
48
1
60
0
100
AcDbEllipse
10
28.434332
20
8.686704
30
0
11
-0.427178104249523
21
0.25984392866021
31
0
210
0
220
0
230
1
40
0.973019
41
0.565666524246318
42
1.07962817626473
0
ELLIPSE
5
176
100
AcDbEntity
8
1
62
256
6
ByLayer
370
18
48
1
60
0
100
AcDbEllipse
10
26.370259
20
8.843322
30
0
11
-1.19609869166136
21
0.727563000570241
31
0
210
0
220
0
230
1
40
0.973019
41
-0.768953679077429
42
-0.218246812027425
0
ELLIPSE
5
177
100
AcDbEntity
8
1
62
256
6
ByLayer
370
18
48
1
60
0
100
AcDbEllipse
10
37.649553
20
17.356618
30
0
11
-1.01753824411282
21
0.618948238359389
31
0
210
0
220
0
230
1
40
0.973019
41
2.19377135275357
42
3.14159265358979
0
ELLIPSE
5
178
100
AcDbEntity
8
1
62
256
6
ByLayer
370
18
48
1
60
0
100
AcDbEllipse
10
26.485443
20
9.032682
30
0
11
-4.27178104162166
21
2.59843928781139
31
0
210
0
220
0
230
1
40
0.973019
41
-2.9549499406323
42
-3.65122744653547E-16
0
ELLIPSE
5
179
100
AcDbEntity
8
1
62
256
6
ByLayer
370
18
48
1
60
0
100
AcDbEllipse
10
25.235342
20
9.136804
30
0
11
-0.384460293749621
21
0.233859535893767
31
0
210
0
220
0
230
1
40
0.973019
41
-0.706342750674324
42
0
0
ELLIPSE
5
17A
100
AcDbEntity
8
1
62
256
6
ByLayer
370
18
48
1
60
0
100
AcDbEllipse
10
26.181254
20
8.004152
30
0
11
-0.384461299602512
21
0.233859801663623
31
0
210
0
220
0
230
1
40
0.973018
41
3.1415920142618
42
-3.1091627034961
0
ELLIPSE
5
17B
100
AcDbEntity
8
1
62
256
6
ByLayer
370
18
48
1
60
0
100
AcDbEllipse
10
26.676819
20
9.347301
30
0
11
-1.19609869349008
21
0.727562998141076
31
0
210
0
220
0
230
1
40
0.973019
41
-1.99935355076758
42
-1.81615123245259
0
ELLIPSE
5
17C
100
AcDbEntity
8
1
62
256
6
ByLayer
370
18
48
1
60
0
100
AcDbEllipse
10
28.108301
20
10.506227
30
0
11
-0.427178104091204
21
0.259843928875496
31
0
210
0
220
0
230
1
40
0.973019
41
0.340854800776599
42
0.854816452810375
0
ELLIPSE
5
17D
100
AcDbEntity
8
1
62
256
6
ByLayer
370
18
48
1
60
0
100
AcDbEllipse
10
27.008043
20
7.536315
30
0
11
-0.427177805121809
21
0.259843824644353
31
0
210
0
220
0
230
1
40
0.973019
41
1.29290215547462E-07
42
0.0324307647022253
0
ELLIPSE
5
17E
100
AcDbEntity
8
1
62
256
6
ByLayer
370
18
48
1
60
0
100
AcDbEllipse
10
26.676819
20
9.347301
30
0
11
-1.19609869142287
21
0.727563000901378
31
0
210
0
220
0
230
1
40
0.973019
41
1.14223910525567
42
1.32544142360983
0
ELLIPSE
5
17F
100
AcDbEntity
8
1
62
256
6
ByLayer
370
18
48
1
60
0
100
AcDbEllipse
10
26.044227
20
10.662844
30
0
11
-0.427178104161332
21
0.259843928784441
31
0
210
0
220
0
230
1
40
0.973019
41
1.38805235174853
42
2.02202676629869
0
ELLIPSE
5
180
100
AcDbEntity
8
1
62
256
6
ByLayer
370
18
48
1
60
0
100
AcDbEllipse
10
27.182769
20
10.707522
30
0
11
-0.384461028983789
21
0.233859700850607
31
0
210
0
220
0
230
1
40
0.973018
41
-5.21469785463129E-07
42
0.0324300781718356
0
ELLIPSE
5
181
100
AcDbEntity
8
1
62
256
6
ByLayer
370
18
48
1
60
0
100
AcDbEllipse
10
24.929691
20
10.02497
30
0
11
-0.427178104176252
21
0.259843928749488
31
0
210
0
220
0
230
1
40
0.973019
41
2.43524990286798
42
2.94921155489716
0
ELLIPSE
5
182
100
AcDbEntity
8
1
62
256
6
ByLayer
370
18
48
1
60
0
100
AcDbEllipse
10
25.736098
20
10.48849
30
0
11
-0.384460293745721
21
0.233859535903464
31
0
210
0
220
0
230
1
40
0.973019
41
-1.75354030184717
42
0
0
ELLIPSE
5
183
100
AcDbEntity
8
1
62
256
6
ByLayer
370
18
48
1
60
0
100
AcDbEllipse
10
26.682011
20
9.355837
30
0
11
-1.21745759828608
21
0.740555195745186
31
0
210
0
220
0
230
1
40
0.973019
41
-3.08514684615318
42
-2.82475303768877
0
ELLIPSE
5
184
100
AcDbEntity
8
1
62
256
6
ByLayer
370
18
48
1
60
0
100
AcDbEllipse
10
26.268339
20
8.675769
30
0
11
-1.1960986736547
21
0.727563013491623
31
0
210
0
220
0
230
1
40
0.973019
41
-3.06954664021709
42
-2.95494992588984
0
ELLIPSE
5
185
100
AcDbEntity
8
1
62
256
6
ByLayer
370
18
48
1
60
0
100
AcDbEllipse
10
26.676819
20
9.347301
30
0
11
-1.19609869065879
21
0.72756300138539
31
0
210
0
220
0
230
1
40
0.973019
41
0.0950415546301718
42
0.27824387301004
0
ELLIPSE
5
186
100
AcDbEntity
8
1
62
256
6
ByLayer
370
18
48
1
60
0
100
AcDbEllipse
10
28.122579
20
8.174189
30
0
11
-0.427178104241667
21
0.259843928671509
31
0
210
0
220
0
230
1
40
0.973019
41
0.445653761749621
42
1.07962817629189
0
ELLIPSE
5
187
100
AcDbEntity
8
1
62
256
6
ByLayer
370
18
48
1
60
0
100
AcDbEllipse
10
26.682011
20
9.355837
30
0
11
-2.13589052081081
21
1.29921964390572
31
0
210
0
220
0
230
1
40
0.973019
41
0
42
6.28318530717959
0
ELLIPSE
5
188
100
AcDbEntity
8
1
62
256
6
ByLayer
370
18
48
1
60
0
100
AcDbEllipse
10
25.255722
20
8.205447
30
0
11
-0.427178104177174
21
0.259843928750757
31
0
210
0
220
0
230
1
40
0.973019
41
-1.5287285779225
42
-1.01476692589301
0
ELLIPSE
5
189
100
AcDbEntity
8
1
62
256
6
ByLayer
370
18
48
1
60
0
100
AcDbEllipse
10
31.949238
20
24.456454
30
0
11
-2.9835724130171
21
0.153074442923121
31
0
210
0
220
0
230
1
40
0.67945
41
-1.73587751885601
42
-1.28616754282831
0
ELLIPSE
5
18A
100
AcDbEntity
8
1
62
256
6
ByLayer
370
18
48
1
60
0
100
AcDbEllipse
10
31.459072
20
23.600643
30
0
11
-2.71258096142975
21
1.65000894776024
31
0
210
0
220
0
230
1
40
0.973019
41
-2.67393515398457
42
-0.090969405084389
0
ELLIPSE
5
18B
100
AcDbEntity
8
1
62
256
6
ByLayer
370
18
48
1
60
0
100
AcDbEllipse
10
38.817593
20
30.707368
30
0
11
-1.01753824411423
21
0.618948238356768
31
0
210
0
220
0
230
1
40
0.973019
41
-2.69315055283304
42
-0.947821300838735
0
ELLIPSE
5
18C
100
AcDbEntity
8
1
62
256
6
ByLayer
370
18
48
1
60
0
100
AcDbEllipse
10
24.507195
20
28.592949
30
0
11
-1.01753824415929
21
0.618948238309694
31
0
210
0
220
0
230
1
40
0.973019
41
0
42
0.448442100702052
0
ELLIPSE
5
18D
100
AcDbEntity
8
1
62
256
6
ByLayer
370
18
48
1
60
0
100
AcDbEllipse
10
25.268591
20
29.844669
30
0
11
-1.0175382441166
21
0.618948238351911
31
0
210
0
220
0
230
1
40
0.973019
41
-0.947821300843333
42
0
0
ELLIPSE
5
18E
100
AcDbEntity
8
1
62
256
6
ByLayer
370
18
48
1
60
0
100
AcDbEllipse
10
25.268591
20
29.844669
30
0
11
-1.01753824415624
21
0.618948238310517
31
0
210
0
220
0
230
1
40
0.973019
41
0
42
0.448442100704345
0
ELLIPSE
5
18F
100
AcDbEntity
8
1
62
256
6
ByLayer
370
18
48
1
60
0
100
AcDbEllipse
10
31.949238
20
24.456454
30
0
11
-1.90829861986273
21
2.14390505840076
31
0
210
0
220
0
230
1
40
0.660269
41
-1.6344789366149
42
-1.18476896058395
0
ELLIPSE
5
190
100
AcDbEntity
8
1
62
256
6
ByLayer
370
18
48
1
60
0
100
AcDbEllipse
10
20.408561
20
16.3234
30
0
11
-2.8606020976755
21
1.7400472555443
31
0
210
0
220
0
230
1
40
0.973019
41
-0.947821300817057
42
-0.471572514120234
0
ELLIPSE
5
191
100
AcDbEntity
8
1
62
256
6
ByLayer
370
18
48
1
60
0
100
AcDbEllipse
10
0.806374
20
9.731635
30
0
11
-43.0775138702782
21
1.06163452031767
31
0
210
0
220
0
230
1
40
0.119375
41
2.46441479677226
42
2.47806919162497
0
ELLIPSE
5
192
100
AcDbEntity
8
1
62
256
6
ByLayer
370
18
48
1
60
0
100
AcDbEllipse
10
21.94934
20
18.856408
30
0
11
-2.86250058049761
21
1.74120206478823
31
0
210
0
220
0
230
1
40
0.973019
41
-0.0490915748180746
42
0.622975025971283
0
ELLIPSE
5
193
100
AcDbEntity
8
1
62
256
6
ByLayer
370
18
48
1
60
0
100
AcDbEllipse
10
20.426547
20
16.352968
30
0
11
-2.98875552920718
21
1.81800043361302
31
0
210
0
220
0
230
1
40
0.973019
41
-0.947821300999963
42
-0.498898305772497
0
ELLIPSE
5
194
100
AcDbEntity
8
1
62
256
6
ByLayer
370
18
48
1
60
0
100
AcDbEllipse
10
21.94934
20
18.856408
30
0
11
-2.86250058054411
21
1.74120206472363
31
0
210
0
220
0
230
1
40
0.973019
41
-0.947821300848024
42
-0.0490915748410225
0
ELLIPSE
5
195
100
AcDbEntity
8
1
62
256
6
ByLayer
370
18
48
1
60
0
100
AcDbEllipse
10
-0.326978
20
0.006188
30
0
11
-0.00180417176668067
21
-19.0000001175988
31
0
210
0
220
0
230
1
40
0.001138
41
-2.09173221804495
42
-2.05189947168473
0
ELLIPSE
5
196
100
AcDbEntity
8
1
62
256
6
ByLayer
370
18
48
1
60
0
100
AcDbEllipse
10
-0.326978
20
0.006182
30
0
11
-0.00180417040288528
21
-19.0000053031024
31
0
210
0
220
0
230
1
40
0.001138
41
-2.81326662033115
42
-2.79246486640389
0
ELLIPSE
5
197
100
AcDbEntity
8
1
62
256
6
ByLayer
370
18
48
1
60
0
100
AcDbEllipse
10
25.791549
20
7.430647
30
0
11
-4.43459199485835
21
2.6185671151829
31
0
210
0
220
0
230
1
40
0.968914
41
-3.0607747836756
42
-2.96766139900957
0
ELLIPSE
5
198
100
AcDbEntity
8
1
62
256
6
ByLayer
370
18
48
1
60
0
100
AcDbEllipse
10
-0.326978
20
0.006188
30
0
11
-0.00180417195000188
21
-18.9999998160532
31
0
210
0
220
0
230
1
40
0.001138
41
-1.9087971621751
42
-1.8468771126931
0
ELLIPSE
5
199
100
AcDbEntity
8
1
62
256
6
ByLayer
370
18
48
1
60
0
100
AcDbEllipse
10
-0.326978
20
0.006222
30
0
11
-0.00180418465301317
21
-18.9999655413965
31
0
210
0
220
0
230
1
40
0.001138
41
-2.72910667091662
42
-2.70762476477501
0
ELLIPSE
5
19A
100
AcDbEntity
8
1
62
256
6
ByLayer
370
18
48
1
60
0
100
AcDbEllipse
10
0.673021
20
0.006093
30
0
11
-0.00189912831893476
21
-19.9999999098328
31
0
210
0
220
0
230
1
40
0.001138
41
-3.1404544267893
42
-0.00113822680120819
0
ELLIPSE
5
19B
100
AcDbEntity
8
1
62
256
6
ByLayer
370
18
48
1
60
0
100
AcDbEllipse
10
-0.326978
20
0.006222
30
0
11
-0.00180418752325997
21
-18.9999657251673
31
0
210
0
220
0
230
1
40
0.001138
41
-2.64187440506117
42
-2.6194629696301
0
ELLIPSE
5
19C
100
AcDbEntity
8
1
62
256
6
ByLayer
370
18
48
1
60
0
100
AcDbEllipse
10
97.63838
20
-0.002824
30
0
11
-164.106772245841
21
4.04417454995656
31
0
210
0
220
0
230
1
40
0.119375
41
1.0006264142974
42
1.00683923827367
0
ELLIPSE
5
19D
100
AcDbEntity
8
1
62
256
6
ByLayer
370
18
48
1
60
0
100
AcDbEllipse
10
-0.326978
20
0.006189
30
0
11
-0.00180417240126661
21
-18.9999989672753
31
0
210
0
220
0
230
1
40
0.001138
41
-2.55044872824376
42
-2.52676585730072
0
ELLIPSE
5
19E
100
AcDbEntity
8
1
62
256
6
ByLayer
370
18
48
1
60
0
100
AcDbEllipse
10
-0.326978
20
0.00619
30
0
11
-0.00180417172665119
21
-18.9999976085761
31
0
210
0
220
0
230
1
40
0.001138
41
-3.134040869114
42
-3.11430370544905
0
ELLIPSE
5
19F
100
AcDbEntity
8
1
62
256
6
ByLayer
370
18
48
1
60
0
100
AcDbEllipse
10
9.067185
20
0.005296
30
0
11
-1.78436715331898
21
-19.9998300839374
31
0
210
0
220
0
230
1
40
0.002678
41
-2.72865471262878
42
-2.00416414293694
0
ELLIPSE
5
1A0
100
AcDbEntity
8
1
62
256
6
ByLayer
370
18
48
1
60
0
100
AcDbEllipse
10
26.485443
20
9.032682
30
0
11
-4.27178104162169
21
2.59843928781134
31
0
210
0
220
0
230
1
40
0.973019
41
0
42
3.14159265358979
0
ELLIPSE
5
1A1
100
AcDbEntity
8
1
62
256
6
ByLayer
370
18
48
1
60
0
100
AcDbEllipse
10
9.907698
20
9.730765
30
0
11
-0.468396377738709
21
-5.24995539694725
31
0
210
0
220
0
230
1
40
0.002678
41
-3.14135402317812
42
-0.170938984306598
0
ELLIPSE
5
1A2
100
AcDbEntity
8
1
62
256
6
ByLayer
370
18
48
1
60
0
100
AcDbEllipse
10
-0.326978
20
0.006192
30
0
11
-0.00180417427067465
21
-18.9999960541714
31
0
210
0
220
0
230
1
40
0.001138
41
-2.45324752037482
42
-2.42778880193411
0
ELLIPSE
5
1A3
100
AcDbEntity
8
1
62
256
6
ByLayer
370
18
48
1
60
0
100
AcDbEllipse
10
-0.326978
20
0.006203
30
0
11
-0.00180417211879193
21
-18.9999852489667
31
0
210
0
220
0
230
1
40
0.001138
41
-3.0550382496803
42
-3.03523927463735
0
ELLIPSE
5
1A4
100
AcDbEntity
8
1
62
256
6
ByLayer
370
18
48
1
60
0
100
AcDbEllipse
10
10.714307
20
0.005139
30
0
11
-0.00189912831987941
21
-19.9999999027576
31
0
210
0
220
0
230
1
40
0.001138
41
-3.13734472148057
42
-2.74055797589471
0
ELLIPSE
5
1A5
100
AcDbEntity
8
1
62
256
6
ByLayer
370
18
48
1
60
0
100
AcDbEllipse
10
-0.326978
20
0.006194
30
0
11
-0.00180417657415647
21
-18.9999930012656
31
0
210
0
220
0
230
1
40
0.001138
41
-2.34785301926301
42
-2.31980086906079
0
ELLIPSE
5
1A6
100
AcDbEntity
8
1
62
256
6
ByLayer
370
18
48
1
60
0
100
AcDbEllipse
10
-0.326978
20
0.00619
30
0
11
-0.00180417214312989
21
-18.9999978459443
31
0
210
0
220
0
230
1
40
0.001138
41
-2.9755999757343
42
-2.95561204921817
0
ELLIPSE
5
1A7
100
AcDbEntity
8
1
62
256
6
ByLayer
370
18
48
1
60
0
100
AcDbEllipse
10
19.816824
20
6.477448
30
0
11
-4.54159426406766
21
-2.69702157295725
31
0
210
0
220
0
230
1
40
0.473933
41
-0.530007451405775
42
0.587965222764642
0
ELLIPSE
5
1A8
100
AcDbEntity
8
1
62
256
6
ByLayer
370
18
48
1
60
0
100
AcDbEllipse
10
-0.326978
20
0.006178
30
0
11
-0.00180416421402743
21
-19.0000107662374
31
0
210
0
220
0
230
1
40
0.001138
41
-2.23013721064328
42
-2.19797297000347
0
ELLIPSE
5
1A9
100
AcDbEntity
8
1
62
256
6
ByLayer
370
18
48
1
60
0
100
AcDbEllipse
10
-0.326978
20
0.00619
30
0
11
-0.00180417237507736
21
-18.9999973326473
31
0
210
0
220
0
230
1
40
0.001138
41
-2.89520313652741
42
-2.8748878867823
0
ELLIPSE
5
1AA
100
AcDbEntity
8
1
62
256
6
ByLayer
370
18
48
1
60
0
100
AcDbEllipse
10
5.673018
20
0.005618
30
0
11
-0.00189912831892816
21
-19.9999999097633
31
0
210
0
220
0
230
1
40
0.001138
41
-1.95609180312541
42
-1.15066011996104
0
ELLIPSE
5
1AB
100
AcDbEntity
8
1
62
256
6
ByLayer
370
18
48
1
60
0
100
AcDbEllipse
10
12.925335
20
9.730478
30
0
11
-33.800650947244
21
2.74249196319928
31
0
210
0
220
0
230
1
40
0.132503
41
1.61011739155848
42
1.64548456253524
0
POINT
5
6C
100
AcDbEntity
8
80
62
256
6
ByLayer
370
18
48
1
60
0
100
AcDbPoint
10
0
20
0
30
0
39
0
210
0
220
0
230
1
50
360
0
POINT
5
6E
100
AcDbEntity
8
81
62
256
6
ByLayer
370
18
48
1
60
0
100
AcDbPoint
10
40
20
32
30
0
39
0
210
0
220
0
230
1
50
360
0
SPLINE
5
1AC
100
AcDbEntity
8
1
62
256
6
ByLayer
370
18
48
1
60
0
100
AcDbSpline
70
4
71
1
72
4
73
2
40
0
40
0
40
1
40
1
41
1
10
0.335377188203728
20
-19.3316749287681
30
0
41
1
10
-0.333282985701806
20
-18.5702424503974
30
0
0
SPLINE
5
1AD
100
AcDbEntity
8
1
62
256
6
ByLayer
370
18
48
1
60
0
100
AcDbSpline
70
4
71
1
72
4
73
2
40
0
40
0
40
1
40
1
41
1
10
0.32909872382826
20
-17.3391976704596
30
0
41
1
10
-0.338698358968172
20
-16.7823196458282
30
0
0
SPLINE
5
1AE
100
AcDbEntity
8
1
62
256
6
ByLayer
370
18
48
1
60
0
100
AcDbSpline
70
4
71
1
72
4
73
2
40
0
40
0
40
1
40
1
41
1
10
0.323853738878447
20
-13.6114864222065
30
0
41
1
10
-0.344753781417607
20
-12.1491842200584
30
0
0
SPLINE
5
1AF
100
AcDbEntity
8
1
62
256
6
ByLayer
370
18
48
1
60
0
100
AcDbSpline
70
4
71
3
72
14
73
10
40
0
40
0
40
0
40
0
40
0.0590300174150524
40
0.306389102815959
40
0.483633088347371
40
0.61230758949862
40
0.741695835744359
40
0.858638121874541
40
1
40
1
40
1
40
1
41
1
10
0.424450586659498
20
-12.2156298458057
30
0
41
1
10
0.424479913482739
20
-12.2196038525306
30
0
41
1
10
0.424131077741361
20
-12.2398421596564
30
0
41
1
10
0.420629251646429
20
-12.2700594526343
30
0
41
1
10
0.407848872197955
20
-12.2967302439749
30
0
41
1
10
0.390377269295031
20
-12.30807927952
30
0
41
1
10
0.369919832994937
20
-12.3072022425868
30
0
41
1
10
0.346398070858584
20
-12.2958140065879
30
0
41
1
10
0.331099157740925
20
-12.2842091110328
30
0
41
1
10
0.322648684795382
20
-12.2763463677439
30
0
0
SPLINE
5
1B0
100
AcDbEntity
8
1
62
256
6
ByLayer
370
18
48
1
60
0
100
AcDbSpline
70
4
71
3
72
11
73
7
40
0
40
0
40
0
40
0
40
0.281715970131807
40
0.545545606548135
40
0.809375242964461
40
1
40
1
40
1
40
1
41
1
10
13.0599870221223
20
-2.67039921796436
30
0
41
1
10
13.0017226757489
20
-2.84399992719106
30
0
41
1
10
12.9695144805857
20
-3.19778736422874
30
0
41
1
10
13.1402027800843
20
-3.78722426058685
30
0
41
1
10
13.5138462165837
20
-4.3289553150736
30
0
41
1
10
13.8330099684505
20
-4.65746852465398
30
0
41
1
10
13.9839226153179
20
-4.79433746688542
30
0
0
SPLINE
5
1B1
100
AcDbEntity
8
1
62
256
6
ByLayer
370
18
48
1
60
0
100
AcDbSpline
70
4
71
1
72
4
73
2
40
0
40
0
40
1
40
1
41
1
10
13.0534560006742
20
5.17244073702699
30
0
41
1
10
13.8016851511338
20
4.93112052977153
30
0
0
SPLINE
5
1B2
100
AcDbEntity
8
1
62
256
6
ByLayer
370
18
48
1
60
0
100
AcDbSpline
70
4
71
3
72
12
73
8
40
0
40
0
40
0
40
0
40
0.187004033779613
40
0.405477793527566
40
0.6062677778841
40
0.88230277211576
40
1
40
1
40
1
40
1
41
1
10
0.434211101170244
20
-18.6909118973132
30
0
41
1
10
0.434286258705701
20
-18.695745033998
30
0
41
1
10
0.431374299711525
20
-18.7027517005269
30
0
41
1
10
0.416416538789469
20
-18.7021819706008
30
0
41
1
10
0.388838014961166
20
-18.6877074820586
30
0
41
1
10
0.359126024415509
20
-18.6655339558212
30
0
41
1
10
0.338688657307838
20
-18.6483565469518
30
0
41
1
10
0.332415977887165
20
-18.6428935119004
30
0
0
SPLINE
5
1B3
100
AcDbEntity
8
1
62
256
6
ByLayer
370
18
48
1
60
0
100
AcDbSpline
70
4
71
3
72
11
73
7
40
0
40
0
40
0
40
0
40
0.35841482572751
40
0.634672243783176
40
0.860426831929831
40
1
40
1
40
1
40
1
41
1
10
0.338768208417077
20
-19.6534730624092
30
0
41
1
10
0.358563414362711
20
-19.6736133273296
30
0
41
1
10
0.389243131168862
20
-19.7050263906517
30
0
41
1
10
0.423358620530371
20
-19.7404756665624
30
0
41
1
10
0.438511321625577
20
-19.7567338832019
30
0
41
1
10
0.440865560316884
20
-19.7596820275786
30
0
41
1
10
0.440961391079263
20
-19.76000411212
30
0
0
SPLINE
5
1B4
100
AcDbEntity
8
1
62
256
6
ByLayer
370
18
48
1
60
0
100
AcDbSpline
70
4
71
3
72
10
73
6
40
0
40
0
40
0
40
0
40
0.55925678771931
40
0.830202012600415
40
1
40
1
40
1
40
1
41
1
10
0.327074544523337
20
-16.1990026856105
30
0
41
1
10
0.359646346520521
20
-16.2508777663748
30
0
41
1
10
0.396291893450904
20
-16.3223003946908
30
0
41
1
10
0.424984770842474
20
-16.4038578021466
30
0
41
1
10
0.428801047487692
20
-16.4335148524157
30
0
41
1
10
0.429255437742078
20
-16.4443031627909
30
0
0
SPLINE
5
1B5
100
AcDbEntity
8
1
62
256
6
ByLayer
370
18
48
1
60
0
100
AcDbSpline
70
4
71
3
72
13
73
9
40
0
40
0
40
0
40
0
40
0.0568256757895479
40
0.127058506424863
40
0.23944585601541
40
0.462176278515708
40
0.730715672973134
40
1
40
1
40
1
40
1
41
1
10
6.05184819378523
20
-9.02444373798609
30
0
41
1
10
6.02985607730167
20
-9.02379421888054
30
0
41
1
10
5.98330849284695
20
-9.01670621262066
30
0
41
1
10
5.90492796870623
20
-8.97392166358663
30
0
41
1
10
5.80673876966969
20
-8.86871387170726
30
0
41
1
10
5.71879066748543
20
-8.67926319400441
30
0
41
1
10
5.66262457308101
20
-8.42661038049206
30
0
41
1
10
5.6498309136222
20
-8.24464173498636
30
0
41
1
10
5.6514586299954
20
-8.15207623464966
30
0
0
SPLINE
5
1B6
100
AcDbEntity
8
1
62
256
6
ByLayer
370
18
48
1
60
0
100
AcDbSpline
70
4
71
3
72
15
73
11
40
0
40
0
40
0
40
0
40
0.322422375356445
40
0.609818595426304
40
0.701793396169273
40
0.758317720246057
40
0.803734106424764
40
0.849286830632311
40
0.905598715283993
40
1
40
1
40
1
40
1
41
1
10
0.42143645527542
20
-6.57996159064971
30
0
41
1
10
0.422830368386593
20
-6.61890254387999
30
0
41
1
10
0.419227084996238
20
-6.68866953856771
30
0
41
1
10
0.409514357595872
20
-6.76828127641757
30
0
41
1
10
0.391661935508683
20
-6.80808555928126
30
0
41
1
10
0.379649747667155
20
-6.82060620349716
30
0
41
1
10
0.367860579470123
20
-6.82464125743794
30
0
41
1
10
0.354637580753431
20
-6.82202718276748
30
0
41
1
10
0.337551031078503
20
-6.80998860918205
30
0
41
1
10
0.326192399936455
20
-6.79729979531272
30
0
41
1
10
0.319645857473084
20
-6.78733095717813
30
0
0
SPLINE
5
1B7
100
AcDbEntity
8
1
62
256
6
ByLayer
370
18
48
1
60
0
100
AcDbSpline
70
4
71
2
72
6
73
3
40
0
40
0
40
0
40
1
40
1
40
1
41
1
10
9.4267872292913
20
4.27270348646624
30
0
41
1
10
9.4154673146325
20
4.23524186124522
30
0
41
1
10
9.41359860439035
20
4.22190591919646
30
0
0
SPLINE
5
1B8
100
AcDbEntity
8
1
62
256
6
ByLayer
370
18
48
1
60
0
100
AcDbSpline
70
4
71
3
72
13
73
9
40
0
40
0
40
0
40
0
40
0.125260205652591
40
0.250547093653017
40
0.379805671657662
40
0.509084240437051
40
0.752371685079522
40
1
40
1
40
1
40
1
41
1
10
28.6172511995209
20
-1.48039407427105
30
0
41
1
10
28.5828832599595
20
-1.33784770719847
30
0
41
1
10
28.5087498515465
20
-1.04401643253302
30
0
41
1
10
28.3791664018636
20
-0.569581740743925
30
0
41
1
10
28.2331981682812
20
-0.0683766948921644
30
0
41
1
10
28.0248257528652
20
0.609462373505149
30
0
41
1
10
27.7389006078958
20
1.47963828883498
30
0
41
1
10
27.4916524598528
20
2.18000412076104
30
0
41
1
10
27.360877934379
20
2.53810651175397
30
0
0
SPLINE
5
1B9
100
AcDbEntity
8
1
62
256
6
ByLayer
370
18
48
1
60
0
100
AcDbSpline
70
4
71
1
72
4
73
2
40
0
40
0
40
1
40
1
41
1
10
0.337068294824659
20
-19.5511885876724
30
0
41
1
10
-0.331594950377157
20
-18.8306379899506
30
0
0
SPLINE
5
1BA
100
AcDbEntity
8
1
62
256
6
ByLayer
370
18
48
1
60
0
100
AcDbSpline
70
4
71
1
72
4
73
2
40
0
40
0
40
1
40
1
41
1
10
0.330751664319432
20
-18.0667388926307
30
0
41
1
10
-0.337044709552425
20
-17.5004244044105
30
0
0
SPLINE
5
1BB
100
AcDbEntity
8
1
62
256
6
ByLayer
370
18
48
1
60
0
100
AcDbSpline
70
4
71
1
72
4
73
2
40
0
40
0
40
1
40
1
41
1
10
0.325453979599938
20
-15.0405118026192
30
0
41
1
10
-0.343168708001007
20
-13.7801008837747
30
0
0
SPLINE
5
1BC
100
AcDbEntity
8
1
62
256
6
ByLayer
370
18
48
1
60
0
100
AcDbSpline
70
4
71
1
72
4
73
2
40
0
40
0
40
1
40
1
41
1
10
0.319645857473224
20
-6.78733095717818
30
0
41
1
10
-0.3481193826082
20
-5.80659604371727
30
0
0
SPLINE
5
1BD
100
AcDbEntity
8
1
62
256
6
ByLayer
370
18
48
1
60
0
100
AcDbSpline
70
4
71
3
72
10
73
6
40
0
40
0
40
0
40
0
40
0.419320200747439
40
0.850977049530489
40
1
40
1
40
1
40
1
41
1
10
14.775917124809
20
4.32636583410463
30
0
41
1
10
14.6802208286888
20
4.11008025146799
30
0
41
1
10
14.5184295922725
20
3.64519595986034
30
0
41
1
10
14.3828909461589
20
3.02776020090312
30
0
41
1
10
14.3525684377837
20
2.65193621901804
30
0
41
1
10
14.3472218175844
20
2.55404163126446
30
0
0
SPLINE
5
1BE
100
AcDbEntity
8
1
62
256
6
ByLayer
370
18
48
1
60
0
100
AcDbSpline
70
4
71
3
72
10
73
6
40
0
40
0
40
0
40
0
40
0.518004016883644
40
0.803662010477456
40
1
40
1
40
1
40
1
41
1
10
0.328711171959745
20
-17.143686212039
30
0
41
1
10
0.358601179277459
20
-17.187252945277
30
0
41
1
10
0.394766106533354
20
-17.2494597437415
30
0
41
1
10
0.425717188626703
20
-17.3222997019356
30
0
41
1
10
0.43033741221121
20
-17.3496600812933
30
0
41
1
10
0.430895775995438
20
-17.3599164552705
30
0
0
SPLINE
5
1BF
100
AcDbEntity
8
1
62
256
6
ByLayer
370
18
48
1
60
0
100
AcDbSpline
70
4
71
3
72
15
73
11
40
0
40
0
40
0
40
0
40
0.118920861074843
40
0.238639524449547
40
0.360573374157023
40
0.483162931418901
40
0.691163101800012
40
0.796701639447868
40
0.902819284146137
40
1
40
1
40
1
40
1
41
1
10
9.85714169672188
20
-0.881612471008758
30
0
41
1
10
9.96809575358369
20
-1.08357615819204
30
0
41
1
10
10.2059130450946
20
-1.47909966331201
30
0
41
1
10
10.6139407033481
20
-2.04771946900547
30
0
41
1
10
11.0676160970671
20
-2.59065221436553
30
0
41
1
10
11.6782180133261
20
-3.22407546059437
30
0
41
1
10
12.3217004108531
20
-3.780703324862
30
0
41
1
10
12.9860284874766
20
-4.25603719469141
30
0
41
1
10
13.4980057740888
20
-4.57396595011017
30
0
41
1
10
13.8561963811746
20
-4.74146098820058
30
0
41
1
10
14.0317408053336
20
-4.81367329864137
30
0
0
SPLINE
5
1C0
100
AcDbEntity
8
1
62
256
6
ByLayer
370
18
48
1
60
0
100
AcDbSpline
70
4
71
1
72
4
73
2
40
0
40
0
40
1
40
1
41
1
10
9.18286132465671
20
1.72344903138815
30
0
41
1
10
9.20841378560191
20
1.59938631994083
30
0
0
SPLINE
5
1C1
100
AcDbEntity
8
1
62
256
6
ByLayer
370
18
48
1
60
0
100
AcDbSpline
70
4
71
3
72
17
73
13
40
0
40
0
40
0
40
0
40
0.102992230007423
40
0.206635923500909
40
0.311441121829307
40
0.418095913428566
40
0.52743710201747
40
0.615762333387616
40
0.706637562657417
40
0.800696512127446
40
0.898286281849839
40
1
40
1
40
1
40
1
41
1
10
13.8016851511338
20
4.93112052977155
30
0
41
1
10
13.6961743757558
20
4.67474775681244
30
0
41
1
10
13.5357058136796
20
4.1496865604448
30
0
41
1
10
13.4475073030497
20
3.31584911773197
30
0
41
1
10
13.5188524836977
20
2.45981093628854
30
0
41
1
10
13.7552519164965
20
1.59693027161245
30
0
41
1
10
14.1320810279307
20
0.810360073379371
30
0
41
1
10
14.6115010047726
20
0.112651390801564
30
0
41
1
10
15.1624683951168
20
-0.49434618021361
30
0
41
1
10
15.8224527253151
20
-1.05153583785141
30
0
41
1
10
16.5921005023779
20
-1.5427170796113
30
0
41
1
10
17.1569037306915
20
-1.80342561440389
30
0
41
1
10
17.4575802006951
20
-1.91843029597789
30
0
0
SPLINE
5
1C2
100
AcDbEntity
8
1
62
256
6
ByLayer
370
18
48
1
60
0
100
AcDbSpline
70
4
71
3
72
14
73
10
40
0
40
0
40
0
40
0
40
0.157335345285184
40
0.31467069057037
40
0.472006035855554
40
0.629341381140737
40
0.786676726425923
40
0.944012071711108
40
1
40
1
40
1
40
1
41
1
10
32.4686910738948
20
-2.19697109063393
30
0
41
1
10
32.7160635319175
20
-2.29170985887943
30
0
41
1
10
33.192367329385
20
-2.50233797456682
30
0
41
1
10
33.8636368935808
20
-2.8883600998952
30
0
41
1
10
34.4553086545854
20
-3.32457753439649
30
0
41
1
10
34.9475122761184
20
-3.79565710726871
30
0
41
1
10
35.3204786965946
20
-4.28282384125316
30
0
41
1
10
35.5089034710052
20
-4.66430563828314
30
0
41
1
10
35.5733545250287
20
-4.87638207170132
30
0
41
1
10
35.5873343798852
20
-4.93173404114105
30
0
0
SPLINE
5
1C3
100
AcDbEntity
8
1
62
256
6
ByLayer
370
18
48
1
60
0
100
AcDbSpline
70
4
71
1
72
4
73
2
40
0
40
0
40
1
40
1
41
1
10
27.1458441991055
20
2.17565868082669
30
0
41
1
10
26.9715215529735
20
1.79255043350064
30
0
0
SPLINE
5
1C4
100
AcDbEntity
8
1
62
256
6
ByLayer
370
18
48
1
60
0
100
AcDbSpline
70
4
71
3
72
15
73
11
40
0
40
0
40
0
40
0
40
0.0867053084987765
40
0.173427834034996
40
0.352575907354719
40
0.459359020107297
40
0.566162424072926
40
0.676001668014177
40
0.785854580879622
40
1
40
1
40
1
40
1
41
1
10
16.7926003799697
20
3.03533210777117
30
0
41
1
10
16.8906924122928
20
3.08594856161489
30
0
41
1
10
17.0975003155605
20
3.19019449130327
30
0
41
1
10
17.5637325855516
20
3.41559209986155
30
0
41
1
10
18.1177211391361
20
3.66954098558351
30
0
41
1
10
18.7482349350907
20
3.94533489544551
30
0
41
1
10
19.290871499224
20
4.17546076387748
30
0
41
1
10
19.8570272712048
20
4.40862494412424
30
0
41
1
10
20.6287128091794
20
4.71764117889982
30
0
41
1
10
21.2174078859635
20
4.94419134224776
30
0
41
1
10
21.61290693517
20
5.09245094812596
30
0
0
SPLINE
5
1C5
100
AcDbEntity
8
1
62
256
6
ByLayer
370
18
48
1
60
0
100
AcDbSpline
70
4
71
1
72
4
73
2
40
0
40
0
40
1
40
1
41
1
10
28.2286953943433
20
-1.37387931491558
30
0
41
1
10
28.6172511995209
20
-1.48039407427105
30
0
0
SPLINE
5
1C6
100
AcDbEntity
8
1
62
256
6
ByLayer
370
18
48
1
60
0
100
AcDbSpline
70
4
71
1
72
4
73
2
40
0
40
0
40
1
40
1
41
1
10
0.338768208417088
20
-19.6534730624092
30
0
41
1
10
-0.329897702956847
20
-18.9684117566582
30
0
0
SPLINE
5
1C7
100
AcDbEntity
8
1
62
256
6
ByLayer
370
18
48
1
60
0
100
AcDbSpline
70
4
71
1
72
4
73
2
40
0
40
0
40
1
40
1
41
1
10
0.332415977895722
20
-18.6428935119041
30
0
41
1
10
-0.335379385941429
20
-18.0631344981295
30
0
0
SPLINE
5
1C8
100
AcDbEntity
8
1
62
256
6
ByLayer
370
18
48
1
60
0
100
AcDbSpline
70
4
71
1
72
4
73
2
40
0
40
0
40
1
40
1
41
1
10
0.327074544523337
20
-16.1990026856105
30
0
41
1
10
-0.341558692557194
20
-15.0790153942466
30
0
0
SPLINE
5
1C9
100
AcDbEntity
8
1
62
256
6
ByLayer
370
18
48
1
60
0
100
AcDbSpline
70
4
71
1
72
4
73
2
40
0
40
0
40
1
40
1
41
1
10
0.321108031762853
20
-10.0541521301025
30
0
41
1
10
-0.346679307300409
20
-9.36757572639557
30
0
0
SPLINE
5
1CA
100
AcDbEntity
8
1
62
256
6
ByLayer
370
18
48
1
60
0
100
AcDbSpline
70
4
71
3
72
17
73
13
40
0
40
0
40
0
40
0
40
0.0686489105039128
40
0.159757779186023
40
0.253308137830607
40
0.348628334365971
40
0.446153249094465
40
0.553421517001937
40
0.663063639742457
40
0.786330330574711
40
0.912389966663956
40
1
40
1
40
1
40
1
41
1
10
9.56850334336951
20
4.48079713587396
30
0
41
1
10
9.58779277217719
20
4.48106885644973
30
0
41
1
10
9.64595289366493
20
4.48845405818322
30
0
41
1
10
9.78868816477123
20
4.5273127406212
30
0
41
1
10
10.0055340897797
20
4.5970978913958
30
0
41
1
10
10.2826118481872
20
4.6880300616578
30
0
41
1
10
10.6236491633349
20
4.79374541957631
30
0
41
1
10
11.0277425288411
20
4.90490627828987
30
0
41
1
10
11.5065100482965
20
5.01341810025604
30
0
41
1
10
12.04598851846
20
5.10380614539928
30
0
41
1
10
12.5744621783419
20
5.15644223049973
30
0
41
1
10
12.9133545388495
20
5.17004580708541
30
0
41
1
10
13.0534559581022
20
5.17244074826388
30
0
0
SPLINE
5
1CB
100
AcDbEntity
8
1
62
256
6
ByLayer
370
18
48
1
60
0
100
AcDbSpline
70
4
71
3
72
17
73
13
40
0
40
0
40
0
40
0
40
0.0864550934774851
40
0.185741893117041
40
0.258134133946043
40
0.331095136874009
40
0.480421500935591
40
0.574919994958661
40
0.670118019616088
40
0.767345533173755
40
0.865232402118084
40
1
40
1
40
1
40
1
41
1
10
10.1263630090472
20
-13.5727182346301
30
0
41
1
10
10.264873971323
20
-13.4271133649249
30
0
41
1
10
10.5811048716343
20
-13.1177888405414
30
0
41
1
10
11.0806934673491
20
-12.6899016025853
30
0
41
1
10
11.5957033033883
20
-12.3073611289394
30
0
41
1
10
12.2536111057351
20
-11.8755495158211
30
0
41
1
10
13.0146480960057
20
-11.4692987322367
30
0
41
1
10
13.8716437234718
20
-11.1176410672147
30
0
41
1
10
14.6199474345901
20
-10.876978113787
30
0
41
1
10
15.3945341675415
20
-10.6941918853217
30
0
41
1
10
16.2894634870929
20
-10.5578008802631
30
0
41
1
10
16.9255127344798
20
-10.5225470562854
30
0
41
1
10
17.2963390466313
20
-10.5224768463244
30
0
0
SPLINE
5
1CC
100
AcDbEntity
8
1
62
256
6
ByLayer
370
18
48
1
60
0
100
AcDbSpline
70
4
71
1
72
4
73
2
40
0
40
0
40
1
40
1
41
1
10
13.0831565102858
20
-2.59443687217131
30
0
41
1
10
13.0599870221223
20
-2.67039921796436
30
0
0
SPLINE
5
1CD
100
AcDbEntity
8
1
62
256
6
ByLayer
370
18
48
1
60
0
100
AcDbSpline
70
4
71
3
72
10
73
6
40
0
40
0
40
0
40
0
40
0.108043133815861
40
0.771092357506863
40
1
40
1
40
1
40
1
41
1
10
31.077161660204
20
-2.54539513471611
30
0
41
1
10
31.0577590775433
20
-2.58286201613664
30
0
41
1
10
30.915180918345
20
-2.84973371212123
30
0
41
1
10
30.6958654148862
20
-3.20140068775711
30
0
41
1
10
30.4567664353948
20
-3.49753409641987
30
0
41
1
10
30.3927655391858
20
-3.57303124909172
30
0
0
SPLINE
5
1CE
100
AcDbEntity
8
1
62
256
6
ByLayer
370
18
48
1
60
0
100
AcDbSpline
70
4
71
3
72
10
73
6
40
0
40
0
40
0
40
0
40
0.483774150151459
40
0.775061174009872
40
1
40
1
40
1
40
1
41
1
10
0.330361226569578
20
-17.9096412633652
30
0
41
1
10
0.358031167982682
20
-17.9469770931202
30
0
41
1
10
0.393446748539171
20
-18.0016019016007
30
0
41
1
10
0.426374861593708
20
-18.0672553474719
30
0
41
1
10
0.431857414731323
20
-18.0920540136356
30
0
41
1
10
0.432547988377289
20
-18.1016423726057
30
0
0
SPLINE
5
1CF
100
AcDbEntity
8
1
62
256
6
ByLayer
370
18
48
1
60
0
100
AcDbSpline
70
4
71
3
72
10
73
6
40
0
40
0
40
0
40
0
40
0.373275341685041
40
0.899381361566668
40
1
40
1
40
1
40
1
41
1
10
0.319327352237996
20
-5.67274300037245
30
0
41
1
10
0.339890799060971
20
-5.786791293074
30
0
41
1
10
0.381311199139759
20
-6.06006154016518
30
0
41
1
10
0.416647162120974
20
-6.36475056653245
30
0
41
1
10
0.421035764615964
20
-6.55025201181002
30
0
41
1
10
0.42143645527542
20
-6.57996159064971
30
0
0
SPLINE
5
1D0
100
AcDbEntity
8
1
62
256
6
ByLayer
370
18
48
1
60
0
100
AcDbSpline
70
4
71
1
72
4
73
2
40
0
40
0
40
1
40
1
41
1
10
9.54335079001791
20
4.48351249047701
30
0
41
1
10
9.54977007515357
20
4.48213407846897
30
0
0
SPLINE
5
1D1
100
AcDbEntity
8
1
62
256
6
ByLayer
370
18
48
1
60
0
100
AcDbSpline
70
4
71
3
72
13
73
9
40
0
40
0
40
0
40
0
40
0.158472869939539
40
0.34830898515662
40
0.539715215447774
40
0.708177468235302
40
0.906119390752695
40
1
40
1
40
1
40
1
41
1
10
0.427623570639384
20
-15.3218098770779
30
0
41
1
10
0.427883585576869
20
-15.3300102962604
30
0
41
1
10
0.42640206349296
20
-15.3459820574815
30
0
41
1
10
0.418161834150597
20
-15.365675608345
30
0
41
1
10
0.399831885938608
20
-15.3739879658791
30
0
41
1
10
0.372901693211515
20
-15.3677304125096
30
0
41
1
10
0.347242284152749
20
-15.3521380845981
30
0
41
1
10
0.331094195537415
20
-15.3395890965455
30
0
41
1
10
0.32583408311229
20
-15.3351675232802
30
0
0
SPLINE
5
1D2
100
AcDbEntity
8
1
62
256
6
ByLayer
370
18
48
1
60
0
100
AcDbSpline
70
4
71
3
72
13
73
9
40
0
40
0
40
0
40
0
40
0.0861870788349484
40
0.295957541627372
40
0.507444515515803
40
0.68771106548124
40
0.912085663077269
40
1
40
1
40
1
40
1
41
1
10
0.429255437742078
20
-16.4443031627909
30
0
41
1
10
0.429316513151192
20
-16.4480465611749
30
0
41
1
10
0.428570639890783
20
-16.4599432415309
30
0
41
1
10
0.422467892430065
20
-16.4762311557869
30
0
41
1
10
0.40383053274949
20
-16.4823843417186
30
0
41
1
10
0.375596370476274
20
-16.4735530800336
30
0
41
1
10
0.349104146587591
20
-16.4564898304183
30
0
41
1
10
0.332264819323595
20
-16.443230366106
30
0
41
1
10
0.327458737592592
20
-16.4392228571982
30
0
0
SPLINE
5
1D3
100
AcDbEntity
8
1
62
256
6
ByLayer
370
18
48
1
60
0
100
AcDbSpline
70
4
71
3
72
12
73
8
40
0
40
0
40
0
40
0
40
0.155035621435596
40
0.371384451155089
40
0.575867302883394
40
0.863958129710613
40
1
40
1
40
1
40
1
41
1
10
0.435884613403531
20
-19.1428750130197
30
0
41
1
10
0.435920488747864
20
-19.1459227819722
30
0
41
1
10
0.433635643112307
20
-19.1506219077102
30
0
41
1
10
0.420642377077365
20
-19.1481409024635
30
0
41
1
10
0.393905720397067
20
-19.1318537086897
30
0
41
1
10
0.363173686624902
20
-19.1075208038743
30
0
41
1
10
0.341333436143659
20
-19.0885457314187
30
0
41
1
10
0.334090582571936
20
-19.0820636037844
30
0
0
SPLINE
5
1D4
100
AcDbEntity
8
1
62
256
6
ByLayer
370
18
48
1
60
0
100
AcDbSpline
70
4
71
3
72
12
73
8
40
0
40
0
40
0
40
0
40
0.0860457295935336
40
0.304002574271726
40
0.509985176983779
40
0.796940788950904
40
1
40
1
40
1
40
1
41
1
10
0.437568020856488
20
-19.4676348177942
30
0
41
1
10
0.437579034887985
20
-19.4687974212876
30
0
41
1
10
0.436506456419963
20
-19.4717290290435
30
0
41
1
10
0.427679410978848
20
-19.4695333228366
30
0
41
1
10
0.403762084882789
20
-19.4533154187397
30
0
41
1
10
0.371444629567633
20
-19.4264482983779
30
0
41
1
10
0.346660307325782
20
-19.4042052917517
30
0
41
1
10
0.335774735343665
20
-19.3941398022358
30
0
0
SPLINE
5
1D5
100
AcDbEntity
8
1
62
256
6
ByLayer
370
18
48
1
60
0
100
AcDbSpline
70
4
71
3
72
13
73
9
40
0
40
0
40
0
40
0
40
0.108097845296597
40
0.261062704054104
40
0.501857223970365
40
0.690308849357436
40
0.879123452890371
40
1
40
1
40
1
40
1
41
1
10
17.8470724118588
20
2.63225374318075
30
0
41
1
10
17.799767754631
20
2.66064320050187
30
0
41
1
10
17.6863238743934
20
2.72528654542391
30
0
41
1
10
17.4627607385215
20
2.83071485189637
30
0
41
1
10
17.2373591390707
20
2.92311668753956
30
0
41
1
10
17.0356350992766
20
2.98941230823054
30
0
41
1
10
16.8970359120961
20
3.02196206142102
30
0
41
1
10
16.8207394887584
20
3.032669567222
30
0
41
1
10
16.7926003799624
20
3.0353321077817
30
0
0
SPLINE
5
1D6
100
AcDbEntity
8
1
62
256
6
ByLayer
370
18
48
1
60
0
100
AcDbSpline
70
4
71
3
72
13
73
9
40
0
40
0
40
0
40
0
40
0.236322744745057
40
0.47191553004952
40
0.657506231940604
40
0.844171875648265
40
0.957158437148348
40
1
40
1
40
1
40
1
41
1
10
29.5998637379934
20
-1.85518686460365
30
0
41
1
10
29.5647259493076
20
-1.82595154062764
30
0
41
1
10
29.4753675122953
20
-1.76714938385826
30
0
41
1
10
29.3015926863737
20
-1.68496059627144
30
0
41
1
10
29.0900755396074
20
-1.60650314891243
30
0
41
1
10
28.8826179589123
20
-1.54164445892734
30
0
41
1
10
28.7150447683914
20
-1.49900812011065
30
0
41
1
10
28.6384755153892
20
-1.48423069987474
30
0
41
1
10
28.6172511995209
20
-1.48039407427105
30
0
0
SPLINE
5
1D7
100
AcDbEntity
8
1
62
256
6
ByLayer
370
18
48
1
60
0
100
AcDbSpline
70
4
71
1
72
4
73
2
40
0
40
0
40
1
40
1
41
1
10
0.334090582585386
20
-19.0820636037911
30
0
41
1
10
-0.333703508783677
20
-18.4853668264475
30
0
0
SPLINE
5
1D8
100
AcDbEntity
8
1
62
256
6
ByLayer
370
18
48
1
60
0
100
AcDbSpline
70
4
71
1
72
4
73
2
40
0
40
0
40
1
40
1
41
1
10
0.328711171959745
20
-17.143686212039
30
0
41
1
10
-0.339929965334396
20
-16.1288582931269
30
0
0
SPLINE
5
1D9
100
AcDbEntity
8
1
62
256
6
ByLayer
370
18
48
1
60
0
100
AcDbSpline
70
4
71
1
72
4
73
2
40
0
40
0
40
1
40
1
41
1
10
0.322648684794878
20
-12.2763463677458
30
0
41
1
10
-0.345144928367895
20
-11.6732842877664
30
0
0
SPLINE
5
1DA
100
AcDbEntity
8
1
62
256
6
ByLayer
370
18
48
1
60
0
100
AcDbSpline
70
4
71
3
72
14
73
10
40
0
40
0
40
0
40
0
40
0.111744776350399
40
0.223653447715503
40
0.347588644347744
40
0.471673144797319
40
0.628308712520446
40
0.78502704991135
40
1
40
1
40
1
40
1
41
1
10
9.36220046650959
20
3.67392052232602
30
0
41
1
10
9.35544434493834
20
3.59953318513518
30
0
41
1
10
9.34151640050072
20
3.44563892976697
30
0
41
1
10
9.31819003712987
20
3.18616203697532
30
0
41
1
10
9.29356980714076
20
2.91075197992819
30
0
41
1
10
9.26610588173988
20
2.6020232790822
30
0
41
1
10
9.23740865099121
20
2.2777655188502
30
0
41
1
10
9.20480481240418
20
1.90728284473157
30
0
41
1
10
9.18468437475823
20
1.67677622704865
30
0
41
1
10
9.17388051729569
20
1.55230143437305
30
0
0
SPLINE
5
1DB
100
AcDbEntity
8
1
62
256
6
ByLayer
370
18
48
1
60
0
100
AcDbSpline
70
4
71
3
72
18
73
14
40
0
40
0
40
0
40
0
40
0.0720355393500228
40
0.144177419647279
40
0.248359670981852
40
0.352692602506621
40
0.461015812568944
40
0.569262608620381
40
0.664006282486176
40
0.758685529860727
40
0.853642657371701
40
0.948610801737593
40
1
40
1
40
1
40
1
41
1
10
35.5873344569932
20
-4.93173434673583
30
0
41
1
10
35.5066260705707
20
-4.97829623546286
30
0
41
1
10
35.3209161365561
20
-5.08860165479468
30
0
41
1
10
34.9079106747016
20
-5.34509097257858
30
0
41
1
10
34.3529593619635
20
-5.69582396174549
30
0
41
1
10
33.6378722589861
20
-6.13438759613223
30
0
41
1
10
32.8357723451586
20
-6.5867857465964
30
0
41
1
10
31.9799452150214
20
-6.98314695661506
30
0
41
1
10
31.0942131213527
20
-7.26788410976069
30
0
41
1
10
30.2050452092716
20
-7.42666073154686
30
0
41
1
10
29.2966550508452
20
-7.44340469662232
30
0
41
1
10
28.5338556062396
20
-7.3438767292688
30
0
41
1
10
28.0881594058243
20
-7.23393399249092
30
0
41
1
10
27.9331009046501
20
-7.18904498838023
30
0
0
SPLINE
5
1DC
100
AcDbEntity
8
1
62
256
6
ByLayer
370
18
48
1
60
0
100
AcDbSpline
70
4
71
3
72
13
73
9
40
0
40
0
40
0
40
0
40
0.0785370283414544
40
0.160240668907769
40
0.353895814658585
40
0.553001811902401
40
0.773622976971538
40
1
40
1
40
1
40
1
41
1
10
9.17388051729574
20
1.55230143437322
30
0
41
1
10
9.17032412694567
20
1.49844402058201
30
0
41
1
10
9.16809375641031
20
1.38358017636279
30
0
41
1
10
9.18924359517261
20
1.09951755560936
30
0
41
1
10
9.25428068965666
20
0.702942263456647
30
0
41
1
10
9.39133286191823
20
0.187347003672974
30
0
41
1
10
9.58947785568212
20
-0.349754746374924
30
0
41
1
10
9.76100234101625
20
-0.704930528203268
30
0
41
1
10
9.85714169672188
20
-0.881612471008789
30
0
0
SPLINE
5
1DD
100
AcDbEntity
8
1
62
256
6
ByLayer
370
18
48
1
60
0
100
AcDbSpline
70
4
71
3
72
14
73
10
40
0
40
0
40
0
40
0
40
0.125005954112928
40
0.289419456601299
40
0.422231810619695
40
0.558878530181679
40
0.700312527034293
40
0.847055726501585
40
1
40
1
40
1
40
1
41
1
10
9.20841378560191
20
1.59938631994083
30
0
41
1
10
9.25813905895532
20
1.37398397916804
30
0
41
1
10
9.4096246124718
20
0.861157992952384
30
0
41
1
10
9.75773474253762
20
0.134111406637014
30
0
41
1
10
10.2370578800956
20
-0.563294403122348
30
0
41
1
10
10.7880501750358
20
-1.17036986530805
30
0
41
1
10
11.4480274805134
20
-1.72753755255489
30
0
41
1
10
12.217677283503
20
-2.21872513056711
30
0
41
1
10
12.7824800402822
20
-2.47943219059732
30
0
41
1
10
13.0831565102858
20
-2.59443687217131
30
0
0
SPLINE
5
1DE
100
AcDbEntity
8
1
62
256
6
ByLayer
370
18
48
1
60
0
100
AcDbSpline
70
4
71
3
72
11
73
7
40
0
40
0
40
0
40
0
40
0.258240595936038
40
0.5
40
0.741759404063961
40
1
40
1
40
1
40
1
41
1
10
17.4575802006951
20
-1.91843029597788
30
0
41
1
10
17.134168465326
20
-1.79202121427207
30
0
41
1
10
16.5171074620161
20
-1.59769814983199
30
0
41
1
10
15.5974730741864
20
-1.43736041352415
30
0
41
1
10
14.7640053894981
20
-1.45089762616256
30
0
41
1
10
14.294452773685
20
-1.55423029659524
30
0
41
1
10
14.0737499589821
20
-1.63507654306237
30
0
0
SPLINE
5
1DF
100
AcDbEntity
8
1
62
256
6
ByLayer
370
18
48
1
60
0
100
AcDbSpline
70
4
71
1
72
4
73
2
40
0
40
0
40
1
40
1
41
1
10
16.7926003799697
20
3.03533210777116
30
0
41
1
10
16.7468771263773
20
3.03945858621256
30
0
0
SPLINE
5
1E0
100
AcDbEntity
8
1
62
256
6
ByLayer
370
18
48
1
60
0
100
AcDbSpline
70
4
71
1
72
4
73
2
40
0
40
0
40
1
40
1
41
1
10
-0.0337998099590411
20
-19.2888632019686
30
0
41
1
10
-0.328618872112268
20
-18.9932702950925
30
0
0
SPLINE
5
1E1
100
AcDbEntity
8
1
62
256
6
ByLayer
370
18
48
1
60
0
100
AcDbSpline
70
4
71
3
72
11
73
7
40
0
40
0
40
0
40
0
40
0.454883999575174
40
0.747445488699569
40
0.974582943908274
40
1
40
1
40
1
40
1
41
1
10
0.332022973734879
20
-18.5199572578324
30
0
41
1
10
0.357783608036727
20
-18.5524187063512
30
0
41
1
10
0.392537420994193
20
-18.6010135011356
30
0
41
1
10
0.425616045683227
20
-18.6581572154662
30
0
41
1
10
0.433839168116071
20
-18.6822451226233
30
0
41
1
10
0.434203867847897
20
-18.6901429584439
30
0
41
1
10
0.434211101170244
20
-18.6909118973132
30
0
0
SPLINE
5
1E2
100
AcDbEntity
8
1
62
256
6
ByLayer
370
18
48
1
60
0
100
AcDbSpline
70
4
71
3
72
10
73
6
40
0
40
0
40
0
40
0
40
0.650514468684853
40
0.940959608318135
40
1
40
1
40
1
40
1
41
1
10
0.320753820415748
20
-9.41484655214788
30
0
41
1
10
0.35958969935746
20
-9.53478505663282
30
0
41
1
10
0.39868968912701
20
-9.70351253670497
30
0
41
1
10
0.421383942326387
20
-9.88056330790882
30
0
41
1
10
0.422800208225566
20
-9.93936339673128
30
0
41
1
10
0.422906212686452
20
-9.94924504102217
30
0
0
SPLINE
5
1E3
100
AcDbEntity
8
1
62
256
6
ByLayer
370
18
48
1
60
0
100
AcDbSpline
70
4
71
1
72
4
73
2
40
0
40
0
40
1
40
1
41
1
10
9.511406398803
20
4.48226307225826
30
0
41
1
10
9.4267872292913
20
4.27270348646623
30
0
0
SPLINE
5
1E4
100
AcDbEntity
8
1
62
256
6
ByLayer
370
18
48
1
60
0
100
AcDbSpline
70
4
71
3
72
11
73
7
40
0
40
0
40
0
40
0
40
0.25
40
0.500000000000001
40
0.75
40
1
40
1
40
1
40
1
41
1
10
27.7570614843329
20
-6.86015892055021
30
0
41
1
10
27.6270671350648
20
-6.65297696887923
30
0
41
1
10
27.3087355666947
20
-6.25118017982337
30
0
41
1
10
26.6370872817331
20
-5.67207423398162
30
0
41
1
10
25.8286550330791
20
-5.15889384123073
30
0
41
1
10
25.2367555373241
20
-4.88894815835658
30
0
41
1
10
24.9243825697994
20
-4.76966694414006
30
0
0
SPLINE
5
1E5
100
AcDbEntity
8
1
62
256
6
ByLayer
370
18
48
1
60
0
100
AcDbSpline
70
4
71
1
72
4
73
2
40
0
40
0
40
1
40
1
41
1
10
18.2045132138206
20
2.45390588524217
30
0
41
1
10
17.8470724118588
20
2.63225374318075
30
0
0
SPLINE
5
1E6
100
AcDbEntity
8
1
62
256
6
ByLayer
370
18
48
1
60
0
100
AcDbSpline
70
4
71
1
72
4
73
2
40
0
40
0
40
1
40
1
41
1
10
0.335774735343675
20
-19.3941398022358
30
0
41
1
10
-0.332017836266256
20
-18.7772135820807
30
0
0
SPLINE
5
1E7
100
AcDbEntity
8
1
62
256
6
ByLayer
370
18
48
1
60
0
100
AcDbSpline
70
4
71
1
72
4
73
2
40
0
40
0
40
1
40
1
41
1
10
0.330361226569579
20
-17.9096412633652
30
0
41
1
10
-0.338286120241216
20
-16.9774679291056
30
0
0
SPLINE
5
1E8
100
AcDbEntity
8
1
62
256
6
ByLayer
370
18
48
1
60
0
100
AcDbSpline
70
4
71
1
72
4
73
2
40
0
40
0
40
1
40
1
41
1
10
0.324228537525123
20
-13.9767553893709
30
0
41
1
10
-0.34356765010264
20
-13.4079618450627
30
0
0
SPLINE
5
1E9
100
AcDbEntity
8
1
62
256
6
ByLayer
370
18
48
1
60
0
100
AcDbSpline
70
4
71
3
72
13
73
9
40
0
40
0
40
0
40
0
40
0.207438039460519
40
0.416274474974626
40
0.629718048959344
40
0.737283553742757
40
0.844850323786195
40
1
40
1
40
1
40
1
41
1
10
0.319327352237995
20
-5.67274300037246
30
0
41
1
10
0.190524731999781
20
-4.94246833701567
30
0
41
1
10
-0.0146417206909949
20
-3.46997167593512
30
0
41
1
10
-0.166525899257913
20
-1.21427680089333
30
0
41
1
10
-0.150510446063915
20
0.690203884161791
30
0
41
1
10
-0.0502279484136197
20
2.22563752097052
30
0
41
1
10
0.0861424184022209
20
3.54743884627432
30
0
41
1
10
0.224099092686789
20
4.47814998015743
30
0
41
1
10
0.320131077803313
20
5.02561026605168
30
0
0
SPLINE
5
1EA
100
AcDbEntity
8
1
62
256
6
ByLayer
370
18
48
1
60
0
100
AcDbSpline
70
4
71
3
72
17
73
13
40
0
40
0
40
0
40
0
40
0.0681575622258458
40
0.13632203441026
40
0.230047459833672
40
0.32379340683908
40
0.420178622774294
40
0.516578848431445
40
0.635930985614634
40
0.755300839028687
40
0.877647078476057
40
1
40
1
40
1
40
1
41
1
10
9.50960065375035
20
-14.3977695625615
30
0
41
1
10
9.37615823775116
20
-14.561113711015
30
0
41
1
10
9.12511666465243
20
-14.8861203046171
30
0
41
1
10
8.75635491917607
20
-15.4318778263826
30
0
41
1
10
8.41361939857474
20
-16.0227760290454
30
0
41
1
10
8.10990778268724
20
-16.6484481686453
30
0
41
1
10
7.87180586295817
20
-17.2384439148025
30
0
41
1
10
7.67606341744652
20
-17.8285649852052
30
0
41
1
10
7.52846922981507
20
-18.3912525688494
30
0
41
1
10
7.42619562575358
20
-18.9074578536007
30
0
41
1
10
7.36518378156762
20
-19.3307521233484
30
0
41
1
10
7.3411641367984
20
-19.5471532874139
30
0
41
1
10
7.33437335525801
20
-19.6384936767444
30
0
0
SPLINE
5
1EB
100
AcDbEntity
8
1
62
256
6
ByLayer
370
18
48
1
60
0
100
AcDbSpline
70
4
71
1
72
4
73
2
40
0
40
0
40
1
40
1
41
1
10
9.54977007515357
20
4.48213407846898
30
0
41
1
10
9.56850334336951
20
4.48079713587396
30
0
0
SPLINE
5
1EC
100
AcDbEntity
8
1
62
256
6
ByLayer
370
18
48
1
60
0
100
AcDbSpline
70
4
71
3
72
13
73
9
40
0
40
0
40
0
40
0
40
0.195572095805211
40
0.390545070318066
40
0.594416308120539
40
0.767239440963965
40
0.941107712253237
40
1
40
1
40
1
40
1
41
1
10
7.94240554631674
20
-12.1619374256073
30
0
41
1
10
7.93081172023758
20
-12.2720601111175
30
0
41
1
10
7.92897925512811
20
-12.486335068901
30
0
41
1
10
7.98125895785991
20
-12.8017050527763
30
0
41
1
10
8.11432227301627
20
-13.0756759784071
30
0
41
1
10
8.33403869799606
20
-13.2854502010725
30
0
41
1
10
8.55843925504275
20
-13.3805977857068
30
0
41
1
10
8.69634063523814
20
-13.4047847531396
30
0
41
1
10
8.73222578347563
20
-13.4091634933311
30
0
0
SPLINE
5
1ED
100
AcDbEntity
8
1
62
256
6
ByLayer
370
18
48
1
60
0
100
AcDbSpline
70
4
71
1
72
4
73
2
40
0
40
0
40
1
40
1
41
1
10
9.16872520719268
20
1.60168590961598
30
0
41
1
10
9.18573974942103
20
1.52117271591496
30
0
0
SPLINE
5
1EE
100
AcDbEntity
8
1
62
256
6
ByLayer
370
18
48
1
60
0
100
AcDbSpline
70
4
71
3
72
13
73
9
40
0
40
0
40
0
40
0
40
0.0402783830004834
40
0.256376107722181
40
0.473949116063163
40
0.662958247881824
40
0.908168491602652
40
1
40
1
40
1
40
1
41
1
10
0.430895775995438
20
-17.3599164552705
30
0
41
1
10
0.430907183878155
20
-17.3613894242428
30
0
41
1
10
0.4305839462713
20
-17.3703658484925
30
0
41
1
10
0.425900106628944
20
-17.3834073595347
30
0
41
1
10
0.407887745205257
20
-17.3870857988728
30
0
41
1
10
0.379442369637725
20
-17.3762412739963
30
0
41
1
10
0.351918226067654
20
-17.3576523674107
30
0
41
1
10
0.334048623600161
20
-17.343350217309
30
0
41
1
10
0.329098723823362
20
-17.3391976704578
30
0
0
SPLINE
5
1EF
100
AcDbEntity
8
1
62
256
6
ByLayer
370
18
48
1
60
0
100
AcDbSpline
70
4
71
3
72
17
73
13
40
0
40
0
40
0
40
0
40
0.102992230007424
40
0.206635923500909
40
0.311441121829308
40
0.418095913428565
40
0.527437102017469
40
0.615762333387616
40
0.706637562657416
40
0.800696512127446
40
0.898286281849839
40
1
40
1
40
1
40
1
41
1
10
32.4686910738948
20
-2.19697109063392
30
0
41
1
10
32.3626788274487
20
-2.45315237430261
30
0
41
1
10
32.1050840409385
20
-2.94112542544901
30
0
41
1
10
31.574735726527
20
-3.60612570571912
30
0
41
1
10
30.9124527269868
20
-4.182024216916
30
0
41
1
10
30.125175390028
20
-4.65400867495324
30
0
41
1
10
29.2901126326138
20
-4.97781176897478
30
0
41
1
10
28.4437500522766
20
-5.16926360589605
30
0
41
1
10
27.6099978017168
20
-5.24749890460149
30
0
41
1
10
26.7324236965759
20
-5.21756401510119
30
0
41
1
10
25.8221083512787
20
-5.06724275214054
30
0
41
1
10
25.2251943936121
20
-4.88434364182226
30
0
41
1
10
24.9243825697994
20
-4.76966694414007
30
0
0
SPLINE
5
1F0
100
AcDbEntity
8
1
62
256
6
ByLayer
370
18
48
1
60
0
100
AcDbSpline
70
4
71
3
72
11
73
7
40
0
40
0
40
0
40
0
40
0.428504043577707
40
0.719269512070456
40
0.947201166118257
40
1
40
1
40
1
40
1
41
1
10
0.333695231869048
20
-18.9903622390805
30
0
41
1
10
0.35776399348455
20
-19.0188854852432
30
0
41
1
10
0.391553800534074
20
-19.0621619752598
30
0
41
1
10
0.425157898652703
20
-19.1126887052115
30
0
41
1
10
0.435070521816102
20
-19.1347577953594
30
0
41
1
10
0.435859541003933
20
-19.1416842021136
30
0
41
1
10
0.435884613403531
20
-19.1428750130197
30
0
0
SPLINE
5
1F1
100
AcDbEntity
8
1
62
256
6
ByLayer
370
18
48
1
60
0
100
AcDbSpline
70
4
71
2
72
6
73
3
40
0
40
0
40
0
40
1
40
1
40
1
41
1
10
0.322281477846747
20
-11.8100247046017
30
0
41
1
10
0.416656931825599
20
-12.0284695175683
30
0
41
1
10
0.424450586659498
20
-12.2156298458057
30
0
0
SPLINE
5
1F2
100
AcDbEntity
8
1
62
256
6
ByLayer
370
18
48
1
60
0
100
AcDbSpline
70
4
71
1
72
4
73
2
40
0
40
0
40
1
40
1
41
1
10
35.5873344569932
20
-4.93173434673583
30
0
41
1
10
35.6136820465908
20
-4.91698893955328
30
0
0
SPLINE
5
1F3
100
AcDbEntity
8
1
62
256
6
ByLayer
370
18
48
1
60
0
100
AcDbSpline
70
4
71
3
72
15
73
11
40
0
40
0
40
0
40
0
40
0.004146657457864
40
0.158432295832959
40
0.316618640749336
40
0.444389874704674
40
0.575842705268173
40
0.711878109364516
40
0.852979781367202
40
1
40
1
40
1
40
1
41
1
10
9.19737493132896
20
1.84570335518406
30
0
41
1
10
9.19877181142229
20
1.83802146954655
30
0
41
1
10
9.25287474196242
20
1.54461221003449
30
0
41
1
10
9.4181550738133
20
0.960676211861043
30
0
41
1
10
9.79768341033963
20
0.181933921833754
30
0
41
1
10
10.2774963228051
20
-0.508608824746593
30
0
41
1
10
10.8269619456902
20
-1.10909222747068
30
0
41
1
10
11.4835471703947
20
-1.66025225590526
30
0
41
1
10
12.2478689827938
20
-2.14619296082332
30
0
41
1
10
12.8082084714709
20
-2.40445610032194
30
0
41
1
10
13.1063259984493
20
-2.51847452637826
30
0
0
SPLINE
5
1F4
100
AcDbEntity
8
1
62
256
6
ByLayer
370
18
48
1
60
0
100
AcDbSpline
70
4
71
1
72
4
73
2
40
0
40
0
40
1
40
1
41
1
10
14.0737499589821
20
-1.63507654306237
30
0
41
1
10
13.6602485835814
20
-1.83029958866329
30
0
0
SPLINE
5
1F5
100
AcDbEntity
8
1
62
256
6
ByLayer
370
18
48
1
60
0
100
AcDbSpline
70
4
71
3
72
13
73
9
40
0
40
0
40
0
40
0
40
0.0012353451081345
40
0.219509662384905
40
0.438964153408824
40
0.634951520689534
40
0.897297047136141
40
1
40
1
40
1
40
1
41
1
10
0.432547988377289
20
-18.1016423726057
30
0
41
1
10
0.432547994470534
20
-18.101679776523
30
0
41
1
10
0.432538406485949
20
-18.1083153239824
30
0
41
1
10
0.429119950540734
20
-18.1185675736479
30
0
41
1
10
0.412133079617424
20
-18.1199642979198
30
0
41
1
10
0.383969085165373
20
-18.1073133377837
30
0
41
1
10
0.355338108719113
20
-18.0870319175578
30
0
41
1
10
0.336238155808633
20
-18.0714129642186
30
0
41
1
10
0.330751664313705
20
-18.0667388926285
30
0
0
SPLINE
5
1F6
100
AcDbEntity
8
1
62
256
6
ByLayer
370
18
48
1
60
0
100
AcDbSpline
70
4
71
3
72
12
73
8
40
0
40
0
40
0
40
0
40
0.112161471836872
40
0.323147232695921
40
0.5337169404454
40
0.850713981105286
40
1
40
1
40
1
40
1
41
1
10
0.439260304725838
20
-19.6719291511451
30
0
41
1
10
0.439252979119194
20
-19.672772329341
30
0
41
1
10
0.437697996205734
20
-19.6736008711285
30
0
41
1
10
0.427112740835473
20
-19.6667797655894
30
0
41
1
10
0.401274447253452
20
-19.645173478861
30
0
41
1
10
0.369184551060699
20
-19.6158070360654
30
0
41
1
10
0.345398302130226
20
-19.5933026631602
30
0
41
1
10
0.337467940694381
20
-19.5857172713241
30
0
0
SPLINE
5
1F7
100
AcDbEntity
8
1
62
256
6
ByLayer
370
18
48
1
60
0
100
AcDbSpline
70
4
71
2
72
6
73
3
40
0
40
0
40
0
40
1
40
1
40
1
41
1
10
29.6294860537965
20
-1.87983147693194
30
0
41
1
10
29.6150576588203
20
-1.86757129794838
30
0
41
1
10
29.5998637379934
20
-1.85518686460365
30
0
0
SPLINE
5
1F8
100
AcDbEntity
8
1
62
256
6
ByLayer
370
18
48
1
60
0
100
AcDbSpline
70
4
71
2
72
6
73
3
40
0
40
0
40
0
40
1
40
1
40
1
41
1
10
21.61290693517
20
5.09245094812596
30
0
41
1
10
21.6170732889772
20
4.91703429604979
30
0
41
1
10
21.5909336702687
20
4.74138921972495
30
0
0
SPLINE
5
1F9
100
AcDbEntity
8
1
62
256
6
ByLayer
370
18
48
1
60
0
100
AcDbSpline
70
4
71
1
72
4
73
2
40
0
40
0
40
1
40
1
41
1
10
0.337467940701635
20
-19.5857172713295
30
0
41
1
10
-0.330322862293905
20
-18.9452491078279
30
0
0
SPLINE
5
1FA
100
AcDbEntity
8
1
62
256
6
ByLayer
370
18
48
1
60
0
100
AcDbSpline
70
4
71
1
72
4
73
2
40
0
40
0
40
1
40
1
41
1
10
0.332022973734879
20
-18.5199572578324
30
0
41
1
10
-0.336629421857937
20
-17.6549880240228
30
0
0
SPLINE
5
1FB
100
AcDbEntity
8
1
62
256
6
ByLayer
370
18
48
1
60
0
100
AcDbSpline
70
4
71
1
72
4
73
2
40
0
40
0
40
1
40
1
41
1
10
0.325834083145794
20
-15.3351675232911
30
0
41
1
10
-0.341963133632344
20
-14.7800729338537
30
0
0
SPLINE
5
1FC
100
AcDbEntity
8
1
62
256
6
ByLayer
370
18
48
1
60
0
100
AcDbSpline
70
4
71
2
72
6
73
3
40
0
40
0
40
0
40
1
40
1
40
1
41
1
10
0.320753820415748
20
-9.41484655214788
30
0
41
1
10
-0.0598916571312359
20
-8.18176238150462
30
0
41
1
10
-0.347775739075725
20
-6.91481174031802
30
0
0
SPLINE
5
1FD
100
AcDbEntity
8
1
62
256
6
ByLayer
370
18
48
1
60
0
100
AcDbSpline
70
4
71
3
72
14
73
10
40
0
40
0
40
0
40
0
40
0.298461847728533
40
0.446420503101144
40
0.59541399963318
40
0.688467338612359
40
0.782077086532923
40
0.867338947619239
40
1
40
1
40
1
40
1
41
1
10
0.422906212686452
20
-9.94924504102216
30
0
41
1
10
0.423817426033365
20
-9.97469681486684
30
0
41
1
10
0.421137667753042
20
-10.0096746842226
30
0
41
1
10
0.411244026644931
20
-10.0520869011497
30
0
41
1
10
0.398955027018008
20
-10.0746468134173
30
0
41
1
10
0.38223998480571
20
-10.0851715153195
30
0
41
1
10
0.364907874847745
20
-10.0849257388331
30
0
41
1
10
0.343621526075267
20
-10.074720050515
30
0
41
1
10
0.329567608731343
20
-10.0632071146307
30
0
41
1
10
0.321108031762839
20
-10.0541521301025
30
0
0
SPLINE
5
1FE
100
AcDbEntity
8
1
62
256
6
ByLayer
370
18
48
1
60
0
100
AcDbSpline
70
4
71
3
72
13
73
9
40
0
40
0
40
0
40
0
40
0.210225047987937
40
0.436491225778211
40
0.583419904729574
40
0.730728831399887
40
0.87375682946909
40
1
40
1
40
1
40
1
41
1
10
0.42602984476393
20
-13.9441397324741
30
0
41
1
10
0.426434685227605
20
-13.9567055376108
30
0
41
1
10
0.423835783564275
20
-13.9792385196178
30
0
41
1
10
0.412600228968919
20
-14.003320091888
30
0
41
1
10
0.392670967220183
20
-14.0116286908746
30
0
41
1
10
0.370310501138427
20
-14.0075804037253
30
0
41
1
10
0.346613091276063
20
-13.9945142291617
30
0
41
1
10
0.331434353448787
20
-13.983009363808
30
0
41
1
10
0.324228537525269
20
-13.97675538937
30
0
0
SPLINE
5
1FF
100
AcDbEntity
8
1
62
256
6
ByLayer
370
18
48
1
60
0
100
AcDbSpline
70
4
71
1
72
4
73
2
40
0
40
0
40
1
40
1
41
1
10
27.9219538987842
20
-7.18713058166739
30
0
41
1
10
27.7570614843329
20
-6.86015892055021
30
0
0
SPLINE
5
200
100
AcDbEntity
8
1
62
256
6
ByLayer
370
18
48
1
60
0
100
AcDbSpline
70
4
71
3
72
11
73
7
40
0
40
0
40
0
40
0
40
0.347705322258941
40
0.639469218211095
40
0.870988225421211
40
1
40
1
40
1
40
1
41
1
10
0.337068294824653
20
-19.5511885876724
30
0
41
1
10
0.356216221333453
20
-19.5715995529499
30
0
41
1
10
0.387170006880558
20
-19.6054703003118
30
0
41
1
10
0.421692358144815
20
-19.6454680475507
30
0
41
1
10
0.436926218484761
20
-19.6656954798882
30
0
41
1
10
0.43915014502926
20
-19.6707733768021
30
0
41
1
10
0.439260304725838
20
-19.6719291511451
30
0
0
SPLINE
5
201
100
AcDbEntity
8
1
62
256
6
ByLayer
370
18
48
1
60
0
100
AcDbSpline
70
4
71
2
72
6
73
3
40
0
40
0
40
0
40
1
40
1
40
1
41
1
10
21.5909336702687
20
4.74138921972495
30
0
41
1
10
21.5285678975694
20
4.31994955878951
30
0
41
1
10
21.3714197761452
20
3.93097791962228
30
0
0
SPLINE
5
202
100
AcDbEntity
8
1
62
256
6
ByLayer
370
18
48
1
60
0
100
AcDbSpline
70
4
71
3
72
14
73
10
40
0
40
0
40
0
40
0
40
0.204637600540898
40
0.413088857373512
40
0.597846997972197
40
0.692591613896215
40
0.787318893071171
40
0.893678447838695
40
1
40
1
40
1
40
1
41
1
10
27.5757449616583
20
2.81551077109335
30
0
41
1
10
27.7605322083464
20
2.45875510748081
30
0
41
1
10
28.1178626340985
20
1.74749292843058
30
0
41
1
10
28.5955621395907
20
0.732712706696513
30
0
41
1
10
28.9400219945663
20
-0.0577994198498369
30
0
41
1
10
29.1724681512868
20
-0.630206220618369
30
0
41
1
10
29.3369179287938
20
-1.05987422046128
30
0
41
1
10
29.4837897345788
20
-1.47586954300724
30
0
41
1
10
29.5644773199288
20
-1.73336836591952
30
0
41
1
10
29.5998637379934
20
-1.85518686460365
30
0
0
SPLINE
5
203
100
AcDbEntity
8
1
62
256
6
ByLayer
370
18
48
1
60
0
100
AcDbSpline
70
4
71
3
72
11
73
7
40
0
40
0
40
0
40
0
40
0.335491685598578
40
0.64408940726153
40
0.881285137333265
40
1
40
1
40
1
40
1
41
1
10
0.335377188203724
20
-19.3316749287681
30
0
41
1
10
0.353833016123213
20
-19.352390441929
30
0
41
1
10
0.385114522980715
20
-19.3890225710084
30
0
41
1
10
0.420075682762039
20
-19.4339382004423
30
0
41
1
10
0.435385881429112
20
-19.4584881918903
30
0
41
1
10
0.437457803866242
20
-19.4657503305569
30
0
41
1
10
0.437568020856488
20
-19.4676348177942
30
0
0
SPLINE
5
204
100
AcDbEntity
8
1
62
256
6
ByLayer
370
18
48
1
60
0
100
AcDbSpline
70
4
71
3
72
10
73
6
40
0
40
0
40
0
40
0
40
0.656288848917502
40
0.991431993041424
40
1
40
1
40
1
40
1
41
1
10
0.323853738878447
20
-13.6114864222065
30
0
41
1
10
0.363937677889216
20
-13.6909742425588
30
0
41
1
10
0.404797156016221
20
-13.8023285544409
30
0
41
1
10
0.425839068631858
20
-13.9109682896826
30
0
41
1
10
0.426028086276793
20
-13.9433346066999
30
0
41
1
10
0.42602984476393
20
-13.9441397324741
30
0
0
SPLINE
5
205
100
AcDbEntity
8
1
62
256
6
ByLayer
370
18
48
1
60
0
100
AcDbSpline
70
4
71
1
72
4
73
2
40
0
40
0
40
1
40
1
41
1
10
9.44373684247902
20
4.55753839708472
30
0
41
1
10
9.49502983583703
20
4.51193105179238
30
0
0
SPLINE
5
206
100
AcDbEntity
8
1
62
256
6
ByLayer
370
18
48
1
60
0
100
AcDbSpline
70
4
71
3
72
13
73
9
40
0
40
0
40
0
40
0
40
0.163950837014248
40
0.32708306365317
40
0.558230385546465
40
0.720152467065824
40
0.882346790867
40
1
40
1
40
1
40
1
41
1
10
9.45511529205016
20
-5.35875270659471
30
0
41
1
10
9.34908402567967
20
-5.36668113188331
30
0
41
1
10
9.15440091411027
20
-5.39707874469748
30
0
41
1
10
8.87251396699298
20
-5.5027387386294
30
0
41
1
10
8.67740279099468
20
-5.65767905740308
30
0
41
1
10
8.55695100098642
20
-5.84784890897505
30
0
41
1
10
8.5014595525542
20
-6.01782961679225
30
0
41
1
10
8.48344601583112
20
-6.13352301420532
30
0
41
1
10
8.47922150498577
20
-6.18372231402934
30
0
0
SPLINE
5
207
100
AcDbEntity
8
1
62
256
6
ByLayer
370
18
48
1
60
0
100
AcDbSpline
70
4
71
3
72
14
73
10
40
0
40
0
40
0
40
0
40
0.124639887649707
40
0.28912217491398
40
0.421990092908995
40
0.558693980610094
40
0.700187148428785
40
0.846991740044153
40
1
40
1
40
1
40
1
41
1
10
9.18573974942104
20
1.52117271591496
30
0
41
1
10
9.23540658639729
20
1.29654263522955
30
0
41
1
10
9.38680048608762
20
0.784473713688285
30
0
41
1
10
9.73456511669147
20
0.0581494961392899
30
0
41
1
10
10.2138884265004
20
-0.639256858206056
30
0
41
1
10
10.764880677142
20
-1.24633218033812
30
0
41
1
10
11.4248579951148
20
-1.80349990708922
30
0
41
1
10
12.1945077945007
20
-2.29468747370843
30
0
41
1
10
12.7593105521187
20
-2.55539453639037
30
0
41
1
10
13.0599870221223
20
-2.67039921796436
30
0
0
SPLINE
5
208
100
AcDbEntity
8
1
62
256
6
ByLayer
370
18
48
1
60
0
100
AcDbSpline
70
4
71
1
72
4
73
2
40
0
40
0
40
1
40
1
41
1
10
9.50999831202152
20
4.47608993203789
30
0
41
1
10
9.41967072847402
20
4.25738691755078
30
0
0
SPLINE
5
209
100
AcDbEntity
8
1
62
256
6
ByLayer
370
18
48
1
60
0
100
AcDbSpline
70
4
71
2
72
6
73
3
40
0
40
0
40
0
40
1
40
1
40
1
41
1
10
27.360877934379
20
2.53810651175397
30
0
41
1
10
27.2423996149459
20
2.36216323521998
30
0
41
1
10
27.1458441991055
20
2.17565868082669
30
0
0
SPLINE
5
20A
100
AcDbEntity
8
1
62
256
6
ByLayer
370
18
48
1
60
0
100
AcDbSpline
70
4
71
3
72
16
73
12
40
0
40
0
40
0
40
0
40
0.0859926725103625
40
0.172000560799575
40
0.285872753986835
40
0.399811855322462
40
0.528709626506046
40
0.657655627731997
40
0.807333087705387
40
0.957008125496231
40
1
40
1
40
1
40
1
41
1
10
35.6273491924977
20
-7.47329757369265
30
0
41
1
10
35.5455043728851
20
-7.61853915712293
30
0
41
1
10
35.3661504866741
20
-7.90527040867715
30
0
41
1
10
35.0153596870899
20
-8.37514474370383
30
0
41
1
10
34.5656180536564
20
-8.8599517773813
30
0
41
1
10
33.9852229197712
20
-9.3542531422367
30
0
41
1
10
33.3133956563756
20
-9.78795190327018
30
0
41
1
10
32.5190384822627
20
-10.1598760112102
30
0
41
1
10
31.6338854450656
20
-10.420164917824
30
0
41
1
10
30.9016730947936
20
-10.514300905203
30
0
41
1
10
30.4887011969726
20
-10.5237342964403
30
0
41
1
10
30.3963305016641
20
-10.5237207745675
30
0
0
SPLINE
5
20B
100
AcDbEntity
8
1
62
256
6
ByLayer
370
18
48
1
60
0
100
AcDbSpline
70
4
71
1
72
4
73
2
40
0
40
0
40
1
40
1
41
1
10
0.339169897847777
20
-19.6608000986094
30
0
41
1
10
-0.0337998099590411
20
-19.2888632019686
30
0
0
SPLINE
5
20C
100
AcDbEntity
8
1
62
256
6
ByLayer
370
18
48
1
60
0
100
AcDbSpline
70
4
71
1
72
4
73
2
40
0
40
0
40
1
40
1
41
1
10
0.333695231869052
20
-18.9903622390805
30
0
41
1
10
-0.334961371185924
20
-18.1813983365751
30
0
0
SPLINE
5
20D
100
AcDbEntity
8
1
62
256
6
ByLayer
370
18
48
1
60
0
100
AcDbSpline
70
4
71
1
72
4
73
2
40
0
40
0
40
1
40
1
41
1
10
0.327458737600295
20
-16.4392228572009
30
0
41
1
10
-0.340338675878341
20
-15.8867465314176
30
0
0
SPLINE
5
20E
100
AcDbEntity
8
1
62
256
6
ByLayer
370
18
48
1
60
0
100
AcDbSpline
70
4
71
1
72
4
73
2
40
0
40
0
40
1
40
1
41
1
10
0.322281477846747
20
-11.8100247046017
30
0
41
1
10
-0.346301292039329
20
-10.0182709572234
30
0
0
SPLINE
5
20F
100
AcDbEntity
8
1
62
256
6
ByLayer
370
18
48
1
60
0
100
AcDbSpline
70
4
71
1
72
4
73
2
40
0
40
0
40
1
40
1
41
1
10
13.1063259984493
20
-2.51847452637826
30
0
41
1
10
13.0831565102858
20
-2.59443687217131
30
0
0
SPLINE
5
210
100
AcDbEntity
8
1
62
256
6
ByLayer
370
18
48
1
60
0
100
AcDbSpline
70
4
71
2
72
6
73
3
40
0
40
0
40
0
40
1
40
1
40
1
41
1
10
13.6602485835814
20
-1.83029958866329
30
0
41
1
10
13.2345110657175
20
-2.09821326136378
30
0
41
1
10
13.1063259984493
20
-2.51847452637826
30
0
0
SPLINE
5
211
100
AcDbEntity
8
1
62
256
6
ByLayer
370
18
48
1
60
0
100
AcDbSpline
70
4
71
3
72
13
73
9
40
0
40
0
40
0
40
0
40
0.144384137961537
40
0.288755721797824
40
0.436732040259568
40
0.58468374866894
40
0.790246154830233
40
1
40
1
40
1
40
1
41
1
10
21.5909336702687
20
4.74138921972495
30
0
41
1
10
21.3943481307548
20
4.63758557827042
30
0
41
1
10
21.0040143231249
20
4.42960945204623
30
0
41
1
10
20.4205390449526
20
4.113046157589
30
0
41
1
10
19.8443541185826
20
3.79449484353485
30
0
41
1
10
19.2074366663188
20
3.43536208569166
30
0
41
1
10
18.5238891490701
20
3.03999060529983
30
0
41
1
10
18.0672717968005
20
2.76662975022187
30
0
41
1
10
17.8470724118588
20
2.63225374318075
30
0
0
SPLINE
5
212
100
AcDbEntity
8
1
62
256
6
ByLayer
370
18
48
1
60
0
100
AcDbSpline
70
4
71
3
72
12
73
8
40
0
40
0
40
0
40
0
40
0.152346598350046
40
0.369333228618444
40
0.589935110320295
40
0.810643512882429
40
1
40
1
40
1
40
1
41
1
10
30.4967630092733
20
5.31619780961066
30
0
41
1
10
30.4247149308626
20
5.17889370926207
30
0
41
1
10
30.2369560142625
20
4.86089123264326
30
0
41
1
10
29.8839151474807
20
4.40713611299044
30
0
41
1
10
29.4284086360545
20
3.98446846922877
30
0
41
1
10
28.9390592887153
20
3.65602755225476
30
0
41
1
10
28.5919900982058
20
3.48779849586517
30
0
41
1
10
28.4253310575151
20
3.41984607865862
30
0
0
SPLINE
5
213
100
AcDbEntity
8
1
62
256
6
ByLayer
370
18
48
1
60
0
100
AcDbSpline
70
4
71
2
72
6
73
3
40
0
40
0
40
0
40
1
40
1
40
1
41
1
10
27.360877934379
20
2.53810651175397
30
0
41
1
10
27.4623750692952
20
2.68977990176657
30
0
41
1
10
27.5757449616584
20
2.81551077109341
30
0
0
SPLINE
5
214
100
AcDbEntity
8
1
62
256
6
ByLayer
370
18
48
1
60
0
100
AcDbSpline
70
4
71
1
72
4
73
2
40
0
40
0
40
1
40
1
41
1
10
13.8909634379184
20
5.14745607408064
30
0
41
1
10
13.0534559581022
20
5.17244074826388
30
0
0
SPLINE
5
215
100
AcDbEntity
8
1
62
256
6
ByLayer
370
18
48
1
60
0
100
AcDbSpline
70
4
71
3
72
10
73
6
40
0
40
0
40
0
40
0
40
0.519507368960061
40
0.810370385592908
40
1
40
1
40
1
40
1
41
1
10
0.325453979599938
20
-15.0405118026192
30
0
41
1
10
0.355347866106885
20
-15.0937989578219
30
0
41
1
10
0.391716799888672
20
-15.1728576070003
30
0
41
1
10
0.422149688747358
20
-15.2676346240372
30
0
41
1
10
0.426932449324795
20
-15.3069461383479
30
0
41
1
10
0.427623570639384
20
-15.3218098770779
30
0
0
SPLINE
5
216
100
AcDbEntity
8
1
62
256
6
ByLayer
370
18
48
1
60
0
100
AcDbSpline
70
4
71
3
72
12
73
8
40
0
40
0
40
0
40
0
40
0.182937147696563
40
0.365507371729756
40
0.557380354027283
40
0.777893817108758
40
1
40
1
40
1
40
1
41
1
10
8.65122723024873
20
-14.3111984777557
30
0
41
1
10
8.55036742357673
20
-14.2999517560095
30
0
41
1
10
8.36519525473638
20
-14.2577952255807
30
0
41
1
10
8.12304484654413
20
-14.1255619847654
30
0
41
1
10
7.93998559715697
20
-13.9362692439413
30
0
41
1
10
7.83358671536555
20
-13.6981183407015
30
0
41
1
10
7.81949372410429
20
-13.5251488819985
30
0
41
1
10
7.82809677041193
20
-13.4349294826886
30
0
0
SPLINE
5
217
100
AcDbEntity
8
1
62
256
6
ByLayer
370
18
48
1
60
0
100
AcDbSpline
70
4
71
3
72
12
73
8
40
0
40
0
40
0
40
0
40
0.0904070232797601
40
0.295115187090283
40
0.507900544386794
40
0.837161338739091
40
1
40
1
40
1
40
1
41
1
10
0.440961391079263
20
-19.76000411212
30
0
41
1
10
0.440945478382411
20
-19.7601289355891
30
0
41
1
10
0.439743890809827
20
-19.7593677291512
30
0
41
1
10
0.430530473887951
20
-19.7508203533523
30
0
41
1
10
0.405609974093938
20
-19.7266118346186
30
0
41
1
10
0.372809390638838
20
-19.6942136150111
30
0
41
1
10
0.347830223165083
20
-19.6694148313226
30
0
41
1
10
0.339169897841411
20
-19.6608000986033
30
0
0
SPLINE
5
218
100
AcDbEntity
8
1
62
256
6
ByLayer
370
18
48
1
60
0
100
AcDbSpline
70
4
71
3
72
11
73
7
40
0
40
0
40
0
40
0
40
0.007857816866671
40
0.417986723929738
40
0.841480154300543
40
1
40
1
40
1
40
1
41
1
10
27.5757449616583
20
2.81551077109335
30
0
41
1
10
27.5776433180475
20
2.81760736351203
30
0
41
1
10
27.6787756446586
20
2.92892892280092
30
0
41
1
10
27.9006657393544
20
3.13334054418311
30
0
41
1
10
28.1955443207345
20
3.31780909177773
30
0
41
1
10
28.3755702961159
20
3.39946862745855
30
0
41
1
10
28.4253310575151
20
3.41984607865862
30
0
0
SPLINE
5
219
100
AcDbEntity
8
1
62
256
6
ByLayer
370
18
48
1
60
0
100
AcDbSpline
70
4
71
3
72
12
73
8
40
0
40
0
40
0
40
0
40
0.179566864018002
40
0.382244499077161
40
0.586257946480443
40
0.762431229004698
40
1
40
1
40
1
40
1
41
1
10
0.329900705005176
20
16.0656906310252
30
0
41
1
10
0.339847504589199
20
16.0738743672318
30
0
41
1
10
0.360187392334998
20
16.088473470001
30
0
41
1
10
0.390406244666381
20
16.1037036507566
30
0
41
1
10
0.414087880864187
20
16.1050085493766
30
0
41
1
10
0.428734932550935
20
16.0917440165307
30
0
41
1
10
0.432048905505951
20
16.0764328015341
30
0
41
1
10
0.431699567488179
20
16.0651037513688
30
0
0
SPLINE
5
21A
100
AcDbEntity
8
1
62
256
6
ByLayer
370
18
48
1
60
0
100
AcDbSpline
70
4
71
3
72
12
73
8
40
0
40
0
40
0
40
0
40
0.225107905661764
40
0.450123611384654
40
0.677695741273324
40
0.908432344551869
40
1
40
1
40
1
40
1
41
1
10
11.2357048309412
20
14.4706639063316
30
0
41
1
10
11.122515831832
20
14.4779951675798
30
0
41
1
10
10.9140686512466
20
14.5039815702332
30
0
41
1
10
10.6402194169506
20
14.5852837958856
30
0
41
1
10
10.4467864303787
20
14.6854506461084
30
0
41
1
10
10.3713564882496
20
14.765838556915
30
0
41
1
10
10.3642093316273
20
14.8063341669307
30
0
41
1
10
10.3650359589695
20
14.8175245460483
30
0
0
SPLINE
5
21B
100
AcDbEntity
8
1
62
256
6
ByLayer
370
18
48
1
60
0
100
AcDbSpline
70
4
71
1
72
4
73
2
40
0
40
0
40
1
40
1
41
1
10
-0.342966178753252
20
11.6455109204172
30
0
41
1
10
0.325862055968169
20
13.1211280721632
30
0
0
SPLINE
5
21C
100
AcDbEntity
8
1
62
256
6
ByLayer
370
18
48
1
60
0
100
AcDbSpline
70
4
71
1
72
4
73
2
40
0
40
0
40
1
40
1
41
1
10
-0.336199895196046
20
16.4746143265338
30
0
41
1
10
0.331679840380109
20
17.0179235723769
30
0
0
SPLINE
5
21D
100
AcDbEntity
8
1
62
256
6
ByLayer
370
18
48
1
60
0
100
AcDbSpline
70
4
71
3
72
13
73
9
40
0
40
0
40
0
40
0
40
0.153334077440457
40
0.371580030893577
40
0.558850291195942
40
0.719407243165723
40
0.968112063834599
40
1
40
1
40
1
40
1
41
1
10
0.328106237856261
20
14.9093771690225
30
0
41
1
10
0.336734081641581
20
14.916536074361
30
0
41
1
10
0.356966692369958
20
14.9310421907771
30
0
41
1
10
0.387269602684675
20
14.9451954354237
30
0
41
1
10
0.410846664426297
20
14.9430068257423
30
0
41
1
10
0.42599638008121
20
14.927033502131
30
0
41
1
10
0.429690040106864
20
14.9070393794471
30
0
41
1
10
0.429912545278966
20
14.892856818809
30
0
41
1
10
0.429903396172797
20
14.8912133594345
30
0
0
SPLINE
5
21E
100
AcDbEntity
8
1
62
256
6
ByLayer
370
18
48
1
60
0
100
AcDbSpline
70
4
71
1
72
4
73
2
40
0
40
0
40
1
40
1
41
1
10
-0.344837789733301
20
9.4623395294898
30
0
41
1
10
0.324015195398096
20
11.2674082264659
30
0
0
SPLINE
5
21F
100
AcDbEntity
8
1
62
256
6
ByLayer
370
18
48
1
60
0
100
AcDbSpline
70
4
71
1
72
4
73
2
40
0
40
0
40
1
40
1
41
1
10
-0.337978699887649
20
15.5267830840308
30
0
41
1
10
0.329900705005767
20
16.0656906310257
30
0
0
SPLINE
5
220
100
AcDbEntity
8
1
62
256
6
ByLayer
370
18
48
1
60
0
100
AcDbSpline
70
4
71
1
72
4
73
2
40
0
40
0
40
1
40
1
41
1
10
10.6800783396054
20
18.3259730008488
30
0
41
1
10
10.7071683840633
20
18.4182917497488
30
0
0
SPLINE
5
221
100
AcDbEntity
8
1
62
256
6
ByLayer
370
18
48
1
60
0
100
AcDbSpline
70
4
71
2
72
6
73
3
40
0
40
0
40
0
40
1
40
1
40
1
41
1
10
0.426245534504293
20
11.6790734747676
30
0
41
1
10
0.416162400558724
20
11.4850829214659
30
0
41
1
10
0.324015195398106
20
11.2674082264659
30
0
0
SPLINE
5
222
100
AcDbEntity
8
1
62
256
6
ByLayer
370
18
48
1
60
0
100
AcDbSpline
70
4
71
3
72
13
73
9
40
0
40
0
40
0
40
0
40
0.209803736214009
40
0.441716599932277
40
0.62863606909647
40
0.817332231033407
40
0.93826496288435
40
1
40
1
40
1
40
1
41
1
10
17.1808939777421
20
12.8965864990742
30
0
41
1
10
17.2663699027848
20
12.9770024790943
30
0
41
1
10
17.432991378465
20
13.1479277571217
30
0
41
1
10
17.6414637119353
20
13.3958285802794
30
0
41
1
10
17.7865809525148
20
13.6402098024659
30
0
41
1
10
17.8277735879128
20
13.842978939341
30
0
41
1
10
17.7679218246176
20
13.9804926910605
30
0
41
1
10
17.7110304228473
20
14.03715924504
30
0
41
1
10
17.6887197324461
20
14.0553696720937
30
0
0
SPLINE
5
223
100
AcDbEntity
8
1
62
256
6
ByLayer
370
18
48
1
60
0
100
AcDbSpline
70
4
71
3
72
13
73
9
40
0
40
0
40
0
40
0
40
0.124551431732861
40
0.311973195989503
40
0.45292782424233
40
0.593599882475869
40
0.801865873071838
40
1
40
1
40
1
40
1
41
1
10
0.326292661871341
20
13.4987069070089
30
0
41
1
10
0.333483049322405
20
13.5048255491679
30
0
41
1
10
0.351159868717005
20
13.5178092004232
30
0
41
1
10
0.377364232885659
20
13.5304020452244
30
0
41
1
10
0.399997705453399
20
13.5300580183647
30
0
41
1
10
0.416963110972781
20
13.5181090506709
30
0
41
1
10
0.426399884651599
20
13.4930249287075
30
0
41
1
10
0.428495388276706
20
13.4706843265643
30
0
41
1
10
0.428082080230575
20
13.4583919448901
30
0
0
SPLINE
5
224
100
AcDbEntity
8
1
62
256
6
ByLayer
370
18
48
1
60
0
100
AcDbSpline
70
4
71
2
72
6
73
3
40
0
40
0
40
0
40
1
40
1
40
1
41
1
10
-0.346782464298676
20
6.30662218449192
30
0
41
1
10
-0.0587098952274328
20
7.57930534816097
30
0
41
1
10
0.322123731227327
20
8.81997194591959
30
0
0
SPLINE
5
225
100
AcDbEntity
8
1
62
256
6
ByLayer
370
18
48
1
60
0
100
AcDbSpline
70
4
71
1
72
4
73
2
40
0
40
0
40
1
40
1
41
1
10
-0.339773363735416
20
14.3678513583744
30
0
41
1
10
0.32810623785738
20
14.9093771690235
30
0
0
SPLINE
5
226
100
AcDbEntity
8
1
62
256
6
ByLayer
370
18
48
1
60
0
100
AcDbSpline
70
4
71
1
72
4
73
2
40
0
40
0
40
1
40
1
41
1
10
-0.333994930304069
20
17.412605364844
30
0
41
1
10
0.334788429120595
20
18.2908895482514
30
0
0
SPLINE
5
227
100
AcDbEntity
8
1
62
256
6
ByLayer
370
18
48
1
60
0
100
AcDbSpline
70
4
71
3
72
11
73
7
40
0
40
0
40
0
40
0
40
0.119841639034327
40
0.39046674341072
40
0.789700713866574
40
1
40
1
40
1
40
1
41
1
10
0.437002696071602
20
18.4679755772819
30
0
41
1
10
0.436843513294011
20
18.4638217484048
30
0
41
1
10
0.434475461586189
20
18.4488032502865
30
0
41
1
10
0.414762840112313
20
18.4054574814986
30
0
41
1
10
0.377040392268857
20
18.3472402902283
30
0
41
1
10
0.346225236066826
20
18.3056320578709
30
0
41
1
10
0.334788429120672
20
18.2908895482513
30
0
0
SPLINE
5
228
100
AcDbEntity
8
1
62
256
6
ByLayer
370
18
48
1
60
0
100
AcDbSpline
70
4
71
3
72
14
73
10
40
0
40
0
40
0
40
0
40
0.0952732612126718
40
0.251655975647784
40
0.369367477902084
40
0.486928956779439
40
0.657566116805322
40
0.949456804272888
40
1
40
1
40
1
40
1
41
1
10
0.324453392989593
20
11.7460397572886
30
0
41
1
10
0.330081810887222
20
11.7511119450774
30
0
41
1
10
0.344900318704807
20
11.7627246369903
30
0
41
1
10
0.367696668551947
20
11.774859121383
30
0
41
1
10
0.389357457976816
20
11.7759970093234
30
0
41
1
10
0.4068116564262
20
11.7663791902408
30
0
41
1
10
0.422083502248288
20
11.7390537644027
30
0
41
1
10
0.425944650801722
20
11.705835121735
30
0
41
1
10
0.426271533711711
20
11.6825657774155
30
0
41
1
10
0.426245534504293
20
11.6790734747676
30
0
0
SPLINE
5
229
100
AcDbEntity
8
1
62
256
6
ByLayer
370
18
48
1
60
0
100
AcDbSpline
70
4
71
3
72
16
73
12
40
0
40
0
40
0
40
0
40
0.0483025941111969
40
0.183775789055515
40
0.318827936442538
40
0.459885897818837
40
0.601407923319434
40
0.742631479117375
40
0.868608795639464
40
0.994370381290409
40
1
40
1
40
1
40
1
41
1
10
11.8938563146854
20
7.77116711491782
30
0
41
1
10
11.9778989720706
20
7.85363826749586
30
0
41
1
10
12.2959373707624
20
8.17104852576042
30
0
41
1
10
12.8269469050068
20
8.75578113608302
30
0
41
1
10
13.5151777175335
20
9.53023146306074
30
0
41
1
10
14.2522213206906
20
10.2852564199344
30
0
41
1
10
15.026741288094
20
11.0123684043174
30
0
41
1
10
15.7848385258416
20
11.6774139399982
30
0
41
1
10
16.5120353152802
20
12.2868561458126
30
0
41
1
10
16.9605437631614
20
12.6840247396064
30
0
41
1
10
17.171862945833
20
12.8878527113896
30
0
41
1
10
17.1808939777421
20
12.8965864990742
30
0
0
SPLINE
5
22A
100
AcDbEntity
8
1
62
256
6
ByLayer
370
18
48
1
60
0
100
AcDbSpline
70
4
71
1
72
4
73
2
40
0
40
0
40
1
40
1
41
1
10
-0.341587968866891
20
12.9434821414909
30
0
41
1
10
0.326292661873658
20
13.4987069070109
30
0
0
SPLINE
5
22B
100
AcDbEntity
8
1
62
256
6
ByLayer
370
18
48
1
60
0
100
AcDbSpline
70
4
71
1
72
4
73
2
40
0
40
0
40
1
40
1
41
1
10
-0.335757353522561
20
16.6828271418343
30
0
41
1
10
0.333031054684123
20
17.6283154256917
30
0
0
SPLINE
5
22C
100
AcDbEntity
8
1
62
256
6
ByLayer
370
18
48
1
60
0
100
AcDbSpline
70
4
71
3
72
14
73
10
40
0
40
0
40
0
40
0
40
0.0624083364534886
40
0.181941871451767
40
0.268025926851834
40
0.354181998541706
40
0.469243291483401
40
0.664598684962153
40
1
40
1
40
1
40
1
41
1
10
0.322574924405529
20
9.47158739153157
30
0
41
1
10
0.326508813512426
20
9.47559554224173
30
0
41
1
10
0.338132460612718
20
9.48609893599005
30
0
41
1
10
0.356593655801965
20
9.49827234850989
30
0
41
1
10
0.376250685357011
20
9.50195526475939
30
0
41
1
10
0.392767415800063
20
9.49619965168016
30
0
41
1
10
0.409024387763905
20
9.47662663449618
30
0
41
1
10
0.422161344048297
20
9.43003053953316
30
0
41
1
10
0.425977193265743
20
9.38778184998641
30
0
41
1
10
0.424337344813344
20
9.35770683157243
30
0
0
SPLINE
5
22D
100
AcDbEntity
8
1
62
256
6
ByLayer
370
18
48
1
60
0
100
AcDbSpline
70
4
71
3
72
12
73
8
40
0
40
0
40
0
40
0
40
0.250187827931637
40
0.49015694644607
40
0.731858620952303
40
0.937610437901219
40
1
40
1
40
1
40
1
41
1
10
0.33520082951649
20
18.4261356700062
30
0
41
1
10
0.348856630610805
20
18.4378433020698
30
0
41
1
10
0.373697312289435
20
18.4572263838903
30
0
41
1
10
0.407530786876253
20
18.4782619451925
30
0
41
1
10
0.429732586098202
20
18.4837283894727
30
0
41
1
10
0.436402993035434
20
18.4763374355284
30
0
41
1
10
0.437020211237162
20
18.4696912707062
30
0
41
1
10
0.437002696071602
20
18.4679755772819
30
0
0
SPLINE
5
22E
100
AcDbEntity
8
1
62
256
6
ByLayer
370
18
48
1
60
0
100
AcDbSpline
70
4
71
1
72
4
73
2
40
0
40
0
40
1
40
1
41
1
10
-0.343429812203407
20
11.1565464561021
30
0
41
1
10
0.324453392995078
20
11.7460397572934
30
0
0
SPLINE
5
22F
100
AcDbEntity
8
1
62
256
6
ByLayer
370
18
48
1
60
0
100
AcDbSpline
70
4
71
3
72
13
73
9
40
0
40
0
40
0
40
0
40
0.495007406069562
40
0.646058807279771
40
0.846661626289994
40
0.915204513999165
40
0.984433183737013
40
1
40
1
40
1
40
1
41
1
10
5.65263618321863
20
7.52227943573409
30
0
41
1
10
5.64531563449408
20
7.69850468751762
30
0
41
1
10
5.67685008420815
20
7.91819672621754
30
0
41
1
10
5.7779208985496
20
8.19165588585696
30
0
41
1
10
5.85923776550321
20
8.31893210454265
30
0
41
1
10
5.95979598481276
20
8.39004211157795
30
0
41
1
10
6.01581690767747
20
8.4071425291969
30
0
41
1
10
6.04731242952058
20
8.40848794840511
30
0
41
1
10
6.05315786335922
20
8.40850647481163
30
0
0
SPLINE
5
230
100
AcDbEntity
8
1
62
256
6
ByLayer
370
18
48
1
60
0
100
AcDbSpline
70
4
71
3
72
12
73
8
40
0
40
0
40
0
40
0
40
0.162788932680828
40
0.385586390332106
40
0.608769556427462
40
0.837897729470273
40
1
40
1
40
1
40
1
41
1
10
15.7237038512576
20
14.1963526103531
30
0
41
1
10
15.4969219815707
20
14.1600885332223
30
0
41
1
10
14.9770284681017
20
14.0481885571784
30
0
41
1
10
14.2202488057512
20
13.7702910266069
30
0
41
1
10
13.4650330611454
20
13.3462199836613
30
0
41
1
10
12.8400710524506
20
12.8504600850214
30
0
41
1
10
12.458230861021
20
12.4998136482849
30
0
41
1
10
12.3039409253305
20
12.3469057735787
30
0
0
SPLINE
5
231
100
AcDbEntity
8
1
62
256
6
ByLayer
370
18
48
1
60
0
100
AcDbSpline
70
4
71
3
72
11
73
7
40
0
40
0
40
0
40
0
40
0.0864811382518381
40
0.430197719241479
40
0.774516726223668
40
1
40
1
40
1
40
1
41
1
10
9.59416152786234
20
6.27930614346071
30
0
41
1
10
9.67062395055271
20
6.30545164158202
30
0
41
1
10
10.0463838079283
20
6.44331214011798
30
0
41
1
10
10.6818227991578
20
6.76829196863683
30
0
41
1
10
11.3532853010066
20
7.26704522212651
30
0
41
1
10
11.7442427871583
20
7.622605915093
30
0
41
1
10
11.8938563146854
20
7.77116711491782
30
0
0
SPLINE
5
232
100
AcDbEntity
8
1
62
256
6
ByLayer
370
18
48
1
60
0
100
AcDbSpline
70
4
71
3
72
12
73
8
40
0
40
0
40
0
40
0
40
0.22704772483585
40
0.45573711770646
40
0.686001936942894
40
0.883474419453181
40
1
40
1
40
1
40
1
41
1
10
0.333446021490781
20
17.7977229226403
30
0
41
1
10
0.345897513517492
20
17.8081765941069
30
0
41
1
10
0.369364578445927
20
17.8258141361197
30
0
41
1
10
0.402226890454229
20
17.8445898897471
30
0
41
1
10
0.42510301050885
20
17.8483329162309
30
0
41
1
10
0.434040082160122
20
17.839115977781
30
0
41
1
10
0.435323116588416
20
17.8300807735485
30
0
41
1
10
0.435245941871126
20
17.8261360235242
30
0
0
SPLINE
5
233
100
AcDbEntity
8
1
62
256
6
ByLayer
370
18
48
1
60
0
100
AcDbSpline
70
4
71
3
72
10
73
6
40
0
40
0
40
0
40
0
40
0.246967254139479
40
0.724704879499343
40
1
40
1
40
1
40
1
41
1
10
0.429903396172797
20
14.8912133594345
30
0
41
1
10
0.428741130637577
20
14.8706694762898
30
0
41
1
10
0.420226381807815
20
14.8081897315506
30
0
41
1
10
0.380547346698628
20
14.7061094740323
30
0
41
1
10
0.34311629489493
20
14.6305649657314
30
0
41
1
10
0.327680936848449
20
14.6024115806683
30
0
0
SPLINE
5
234
100
AcDbEntity
8
1
62
256
6
ByLayer
370
18
48
1
60
0
100
AcDbSpline
70
4
71
3
72
11
73
7
40
0
40
0
40
0
40
0
40
0.0054036530787986
40
0.268385173336805
40
0.708240227024975
40
1
40
1
40
1
40
1
41
1
10
0.431699567488179
20
16.0651037513688
30
0
41
1
10
0.4316989423614
20
16.0647583749165
30
0
41
1
10
0.431602454519237
20
16.0475579029167
30
0
41
1
10
0.420371721645673
20
15.9932166066874
30
0
41
1
10
0.382062175549127
20
15.9051761756108
30
0
41
1
10
0.345782406264137
20
15.8398194483244
30
0
41
1
10
0.329479493526821
20
15.8131605917521
30
0
0
SPLINE
5
235
100
AcDbEntity
8
1
62
256
6
ByLayer
370
18
48
1
60
0
100
AcDbSpline
70
4
71
3
72
13
73
9
40
0
40
0
40
0
40
0
40
0.229547997230396
40
0.366196690799543
40
0.506591470880011
40
0.704223876985385
40
0.868965353514994
40
1
40
1
40
1
40
1
41
1
10
18.607349072361
20
18.2690362018075
30
0
41
1
10
18.5878841949664
20
18.1524045427376
30
0
41
1
10
18.5754460604193
20
17.9429382077054
30
0
41
1
10
18.5939454832806
20
17.5951874227018
30
0
41
1
10
18.6506077106162
20
17.2447485822602
30
0
41
1
10
18.7730812464901
20
16.8503177460755
30
0
41
1
10
18.9776697318895
20
16.4737009247506
30
0
41
1
10
19.1289534508245
20
16.2854282457528
30
0
41
1
10
19.2024848578282
20
16.2071055434248
30
0
0
SPLINE
5
236
100
AcDbEntity
8
1
62
256
6
ByLayer
370
18
48
1
60
0
100
AcDbSpline
70
4
71
1
72
4
73
2
40
0
40
0
40
1
40
1
41
1
10
-0.345314554872664
20
8.79857976663882
30
0
41
1
10
0.322574924420578
20
9.47158739154655
30
0
0
SPLINE
5
237
100
AcDbEntity
8
1
62
256
6
ByLayer
370
18
48
1
60
0
100
AcDbSpline
70
4
71
1
72
4
73
2
40
0
40
0
40
1
40
1
41
1
10
-0.339323024410123
20
14.6798583507904
30
0
41
1
10
0.329479493526822
20
15.8131605917521
30
0
0
SPLINE
5
238
100
AcDbEntity
8
1
62
256
6
ByLayer
370
18
48
1
60
0
100
AcDbSpline
70
4
71
1
72
4
73
2
40
0
40
0
40
1
40
1
41
1
10
-0.332680625019248
20
17.8599454350201
30
0
41
1
10
0.335200829516616
20
18.4261356700063
30
0
0
SPLINE
5
239
100
AcDbEntity
8
1
62
256
6
ByLayer
370
18
48
1
60
0
100
AcDbSpline
70
4
71
3
72
15
73
11
40
0
40
0
40
0
40
0
40
0.0857701619282082
40
0.137063141779128
40
0.188830506971026
40
0.234893139230578
40
0.293969065950787
40
0.397890706015534
40
0.716586363769404
40
1
40
1
40
1
40
1
41
1
10
0.320617977125163
20
6.1525080905406
30
0
41
1
10
0.326548976029442
20
6.16127237986689
30
0
41
1
10
0.336829805000584
20
6.17282279390855
30
0
41
1
10
0.352885612641355
20
6.18496837023743
30
0
41
1
10
0.366417620120718
20
6.1887512790371
30
0
41
1
10
0.379324721822314
20
6.18497340463262
30
0
41
1
10
0.392668923799146
20
6.17135430246127
30
0
41
1
10
0.412010939190472
20
6.12552341340175
30
0
41
1
10
0.420393899548973
20
6.04336040009856
30
0
41
1
10
0.423413655214814
20
5.97320235411217
30
0
41
1
10
0.422376465335171
20
5.93876962889327
30
0
0
SPLINE
5
23A
100
AcDbEntity
8
1
62
256
6
ByLayer
370
18
48
1
60
0
100
AcDbSpline
70
4
71
3
72
11
73
7
40
0
40
0
40
0
40
0
40
0.106997409479287
40
0.38961372605846
40
0.821070963103824
40
1
40
1
40
1
40
1
41
1
10
0.435245941871126
20
17.8261360235242
30
0
41
1
10
0.435088886977534
20
17.8214762432389
30
0
41
1
10
0.432881577616371
20
17.8032772071648
30
0
41
1
10
0.412626536008739
20
17.7519728917332
30
0
41
1
10
0.373972271745818
20
17.6869694825186
30
0
41
1
10
0.342765598201108
20
17.6417888255678
30
0
41
1
10
0.333031054684124
20
17.6283154256917
30
0
0
SPLINE
5
23B
100
AcDbEntity
8
1
62
256
6
ByLayer
370
18
48
1
60
0
100
AcDbSpline
70
4
71
3
72
12
73
8
40
0
40
0
40
0
40
0
40
0.203502769335851
40
0.419731456359026
40
0.637400011095457
40
0.825063669905774
40
1
40
1
40
1
40
1
41
1
10
0.331679840379771
20
17.0179235723766
30
0
41
1
10
0.342900514710224
20
17.0272088309553
30
0
41
1
10
0.364876951495134
20
17.0432567649133
30
0
41
1
10
0.396548116311122
20
17.0600937912298
30
0
41
1
10
0.419929428849067
20
17.0624356536282
30
0
41
1
10
0.431501897181991
20
17.0512491368711
30
0
41
1
10
0.433666438263638
20
17.0393375844601
30
0
41
1
10
0.433478492839416
20
17.0322426372008
30
0
0
SPLINE
5
23C
100
AcDbEntity
8
1
62
256
6
ByLayer
370
18
48
1
60
0
100
AcDbSpline
70
4
71
3
72
12
73
8
40
0
40
0
40
0
40
0
40
0.0854235635101638
40
0.373450466606118
40
0.677357840539587
40
0.982266305397912
40
1
40
1
40
1
40
1
41
1
10
12.3039409253306
20
12.3469057735787
30
0
41
1
10
12.2382414316117
20
12.2823312933764
30
0
41
1
10
11.9507403768367
20
11.9979127802071
30
0
41
1
10
11.4349357285964
20
11.460743738246
30
0
41
1
10
10.7259203195148
20
10.7266316418679
30
0
41
1
10
10.1854717770656
20
10.2458857648559
30
0
41
1
10
9.93106628608607
20
9.97395438672909
30
0
41
1
10
9.91710219664693
20
9.95898297026639
30
0
0
SPLINE
5
23D
100
AcDbEntity
8
1
62
256
6
ByLayer
370
18
48
1
60
0
100
AcDbSpline
70
4
71
1
72
4
73
2
40
0
40
0
40
1
40
1
41
1
10
-0.337532630031151
20
15.7819593777632
30
0
41
1
10
0.331261987692188
20
16.8101022462731
30
0
0
SPLINE
5
23E
100
AcDbEntity
8
1
62
256
6
ByLayer
370
18
48
1
60
0
100
AcDbSpline
70
4
71
1
72
4
73
2
40
0
40
0
40
1
40
1
41
1
10
-0.341132130568082
20
13.328685712226
30
0
41
1
10
0.327680936848448
20
14.6024115806683
30
0
0
SPLINE
5
23F
100
AcDbEntity
8
1
62
256
6
ByLayer
370
18
48
1
60
0
100
AcDbSpline
70
4
71
1
72
4
73
2
40
0
40
0
40
1
40
1
41
1
10
-0.334434423010023
20
17.2449772132086
30
0
41
1
10
0.333446021490982
20
17.7977229226405
30
0
0
SPLINE
5
240
100
AcDbEntity
8
1
62
256
6
ByLayer
370
18
48
1
60
0
100
AcDbSpline
70
4
71
3
72
10
73
6
40
0
40
0
40
0
40
0
40
0.0980852442006434
40
0.869453923217824
40
1
40
1
40
1
40
1
41
1
10
0.424337344813344
20
9.35770683157243
30
0
41
1
10
0.423958359085652
20
9.34096767959375
30
0
41
1
10
0.418295149926458
20
9.1920681073424
30
0
41
1
10
0.376645424607467
20
9.00640860000835
30
0
41
1
10
0.329390483829217
20
8.8436130924652
30
0
41
1
10
0.322123731227391
20
8.81997194591968
30
0
0
SPLINE
5
241
100
AcDbEntity
8
1
62
256
6
ByLayer
370
18
48
1
60
0
100
AcDbSpline
70
4
71
3
72
10
73
6
40
0
40
0
40
0
40
0
40
0.0922853606843552
40
0.504002143683705
40
1
40
1
40
1
40
1
41
1
10
0.428082080230575
20
13.4583919448901
30
0
41
1
10
0.427870079554271
20
13.4492872806335
30
0
41
1
10
0.425130399078981
20
13.3988271224267
30
0
41
1
10
0.39549791227204
20
13.2841900237448
30
0
41
1
10
0.354697576663621
20
13.1801704346657
30
0
41
1
10
0.325862055968168
20
13.1211280721632
30
0
0
SPLINE
5
242
100
AcDbEntity
8
1
62
256
6
ByLayer
370
18
48
1
60
0
100
AcDbSpline
70
4
71
3
72
11
73
7
40
0
40
0
40
0
40
0
40
0.0566642663426395
40
0.332240400144586
40
0.770122723631142
40
1
40
1
40
1
40
1
41
1
10
0.433478492839416
20
17.0322426372008
30
0
41
1
10
0.433425923869641
20
17.0292464780418
30
0
41
1
10
0.432334172417408
20
17.0111079280017
30
0
41
1
10
0.416407382522576
20
16.9580937333984
30
0
41
1
10
0.377600068145461
20
16.8829097564749
30
0
41
1
10
0.343906537828175
20
16.8290202724061
30
0
41
1
10
0.331261987695013
20
16.810102246273
30
0
0
SPLINE
5
243
100
AcDbEntity
8
1
62
256
6
ByLayer
370
18
48
1
60
0
100
AcDbSpline
70
4
71
3
72
10
73
6
40
0
40
0
40
0
40
0
40
0.3642966358861
40
0.858178546449545
40
1
40
1
40
1
40
1
41
1
10
19.2024848578283
20
16.2071055434238
30
0
41
1
10
19.2679391087425
20
16.138244123723
30
0
41
1
10
19.419939490652
20
15.9948448018397
30
0
41
1
10
19.6017120828736
20
15.8806611498389
30
0
41
1
10
19.7057046540719
20
15.8313713618088
30
0
41
1
10
19.7286286086783
20
15.8215698896471
30
0
0
SPLINE
5
244
100
AcDbEntity
8
1
62
256
6
ByLayer
370
18
48
1
60
0
100
AcDbSpline
70
4
71
3
72
11
73
7
40
0
40
0
40
0
40
0
40
0.368715593177087
40
0.631236009227133
40
0.851875614998473
40
1
40
1
40
1
40
1
41
1
10
0.342123395971811
20
19.6530747690815
30
0
41
1
10
0.362508626716815
20
19.6729810647176
30
0
41
1
10
0.39290217604122
20
19.7021666604344
30
0
41
1
10
0.426526662097475
20
19.7333263581853
30
0
41
1
10
0.441424452240038
20
19.7458047251551
30
0
41
1
10
0.443855628229176
20
19.7466851163086
30
0
41
1
10
0.443929293444619
20
19.7461060216625
30
0
0
SPLINE
5
245
100
AcDbEntity
8
1
62
256
6
ByLayer
370
18
48
1
60
0
100
AcDbSpline
70
4
71
2
72
6
73
3
40
0
40
0
40
0
40
1
40
1
40
1
41
1
10
13.3632250557884
20
29.5600159183009
30
0
41
1
10
13.1613493487535
20
29.1242211829486
30
0
41
1
10
13.0454195600717
20
28.6948477127196
30
0
0
SPLINE
5
246
100
AcDbEntity
8
1
62
256
6
ByLayer
370
18
48
1
60
0
100
AcDbSpline
70
4
71
3
72
12
73
8
40
0
40
0
40
0
40
0
40
0.0888287256829125
40
0.283732363315752
40
0.568080383493194
40
0.965726443391451
40
1
40
1
40
1
40
1
41
1
10
0.442211090769515
20
19.6057729596313
30
0
41
1
10
0.442170711525748
20
19.6047598804001
30
0
41
1
10
0.440941779940823
20
19.6004707282447
30
0
41
1
10
0.430529723441549
20
19.5840662184594
30
0
41
1
10
0.399597259114602
20
19.5452862289256
30
0
41
1
10
0.364455715923963
20
19.5055809392529
30
0
41
1
10
0.341813326732104
20
19.4808680514364
30
0
41
1
10
0.340000472836123
20
19.4788952623689
30
0
0
SPLINE
5
247
100
AcDbEntity
8
1
62
256
6
ByLayer
370
18
48
1
60
0
100
AcDbSpline
70
4
71
1
72
4
73
2
40
0
40
0
40
1
40
1
41
1
10
13.3632250557884
20
29.5600159183009
30
0
41
1
10
12.1635015010281
20
24.8030096274557
30
0
0
SPLINE
5
248
100
AcDbEntity
8
1
62
256
6
ByLayer
370
18
48
1
60
0
100
AcDbSpline
70
4
71
1
72
4
73
2
40
0
40
0
40
1
40
1
41
1
10
-0.325764652441324
20
18.999113744353
30
0
41
1
10
0.34212339597183
20
19.6530747690815
30
0
0
SPLINE
5
249
100
AcDbEntity
8
1
62
256
6
ByLayer
370
18
48
1
60
0
100
AcDbSpline
70
4
71
3
72
12
73
8
40
0
40
0
40
0
40
0
40
0.294189598932764
40
0.552154357035351
40
0.769093057827429
40
0.986617835138571
40
1
40
1
40
1
40
1
41
1
10
0.338680315272296
20
19.281898216523
30
0
41
1
10
0.354720487594237
20
19.2964537542157
30
0
41
1
10
0.382042850208728
20
19.3198864482698
30
0
41
1
10
0.41540366074009
20
19.3450063767068
30
0
41
1
10
0.43553103410534
20
19.3553797326965
30
0
41
1
10
0.440357914259041
20
19.3530088071181
30
0
41
1
10
0.440484713697071
20
19.3494755043225
30
0
41
1
10
0.440484320442813
20
19.3492626819095
30
0
0
SPLINE
5
24A
100
AcDbEntity
8
1
62
256
6
ByLayer
370
18
48
1
60
0
100
AcDbSpline
70
4
71
3
72
12
73
8
40
0
40
0
40
0
40
0
40
0.072596999516513
40
0.271189031846837
40
0.534628769479278
40
0.895271196810405
40
1
40
1
40
1
40
1
41
1
10
0.443929293444619
20
19.7461060216625
30
0
41
1
10
0.443911607462215
20
19.7457653180511
30
0
41
1
10
0.442977725373884
20
19.7436327788274
30
0
41
1
10
0.434025328574954
20
19.7322954060003
30
0
41
1
10
0.406074072891375
20
19.7011174920457
30
0
41
1
10
0.371270964606248
20
19.6641898099566
30
0
41
1
10
0.347275895129481
20
19.6391999097637
30
0
41
1
10
0.341719680845314
20
19.633437865198
30
0
0
SPLINE
5
24B
100
AcDbEntity
8
1
62
256
6
ByLayer
370
18
48
1
60
0
100
AcDbSpline
70
4
71
1
72
4
73
2
40
0
40
0
40
1
40
1
41
1
10
-0.32747978386146
20
18.8988344289959
30
0
41
1
10
0.340406231516191
20
19.5257338137091
30
0
0
SPLINE
5
24C
100
AcDbEntity
8
1
62
256
6
ByLayer
370
18
48
1
60
0
100
AcDbSpline
70
4
71
3
72
12
73
8
40
0
40
0
40
0
40
0
40
0.272252620884149
40
0.521681311208102
40
0.733462808569022
40
0.945650053253705
40
1
40
1
40
1
40
1
41
1
10
0.336945346428736
20
18.9175638899857
30
0
41
1
10
0.351793062504271
20
18.9306310771039
30
0
41
1
10
0.377912039182123
20
18.9519403079338
30
0
41
1
10
0.410760002261605
20
18.9743342439865
30
0
41
1
10
0.431732057503727
20
18.9825250589716
30
0
41
1
10
0.438194624608462
20
18.9785872074548
30
0
41
1
10
0.438758157401706
20
18.9734285006861
30
0
41
1
10
0.438748293605487
20
18.9722449696617
30
0
0
SPLINE
5
24D
100
AcDbEntity
8
1
62
256
6
ByLayer
370
18
48
1
60
0
100
AcDbSpline
70
4
71
1
72
4
73
2
40
0
40
0
40
1
40
1
41
1
10
-0.3253372622411
20
19.0056460103646
30
0
41
1
10
-0.108374112043228
20
19.2229589724496
30
0
0
SPLINE
5
24E
100
AcDbEntity
8
1
62
256
6
ByLayer
370
18
48
1
60
0
100
AcDbSpline
70
4
71
3
72
11
73
7
40
0
40
0
40
0
40
0
40
0.377428390941151
40
0.626775169660563
40
0.877935797578433
40
1
40
1
40
1
40
1
41
1
10
0.340406231516158
20
19.5257338137091
30
0
41
1
10
0.361376523281262
20
19.5454578973176
30
0
41
1
10
0.391570656253658
20
19.5726036593137
30
0
41
1
10
0.426250839969621
20
19.6008166426931
30
0
41
1
10
0.440251394695678
20
19.6088283913253
30
0
41
1
10
0.442192505898674
20
19.6070184355286
30
0
41
1
10
0.442211090769515
20
19.6057729596312
30
0
0
SPLINE
5
24F
100
AcDbEntity
8
1
62
256
6
ByLayer
370
18
48
1
60
0
100
AcDbSpline
70
4
71
3
72
11
73
7
40
0
40
0
40
0
40
0
40
0.130783786265465
40
0.390175569329214
40
0.761584070134388
40
1
40
1
40
1
40
1
41
1
10
0.438748293605487
20
18.9722449696617
30
0
41
1
10
0.438583357655633
20
18.9687636722382
30
0
41
1
10
0.436063934229408
20
18.9566533896925
30
0
41
1
10
0.416908173972683
20
18.9201299220204
30
0
41
1
10
0.380012207468533
20
18.8678116639118
30
0
41
1
10
0.349495760859361
20
18.8292313139065
30
0
41
1
10
0.336535292588457
20
18.8135526575906
30
0
0
SPLINE
5
250
100
AcDbEntity
8
1
62
256
6
ByLayer
370
18
48
1
60
0
100
AcDbSpline
70
4
71
3
72
11
73
7
40
0
40
0
40
0
40
0
40
0.173392251090537
40
0.433809494987725
40
0.799161815017366
40
1
40
1
40
1
40
1
41
1
10
0.440484320442813
20
19.3492626819095
30
0
41
1
10
0.440210419584129
20
19.3458491417597
30
0
41
1
10
0.436647133447207
20
19.3347622984929
30
0
41
1
10
0.414167142486326
20
19.2996076604148
30
0
41
1
10
0.377712643127375
20
19.2531744826434
30
0
41
1
10
0.349102977746894
20
19.2195135829578
30
0
41
1
10
0.338272457854918
20
19.2071234753688
30
0
0
SPLINE
5
251
100
AcDbEntity
8
1
62
256
6
ByLayer
370
18
48
1
60
0
100
AcDbSpline
70
4
71
1
72
4
73
2
40
0
40
0
40
1
40
1
41
1
10
-0.327050162798074
20
18.9350616098493
30
0
41
1
10
0.341719680845454
20
19.6334378651982
30
0
0
SPLINE
5
252
100
AcDbEntity
8
1
62
256
6
ByLayer
370
18
48
1
60
0
100
AcDbSpline
70
4
71
2
72
6
73
3
40
0
40
0
40
0
40
1
40
1
40
1
41
1
10
26.7937406557014
20
7.97723504037865
30
0
41
1
10
26.7674168035793
20
7.9684948959305
30
0
41
1
10
26.7465368499977
20
7.95911475509124
30
0
0
SPLINE
5
253
100
AcDbEntity
8
1
62
256
6
ByLayer
370
18
48
1
60
0
100
AcDbSpline
70
4
71
2
72
6
73
3
40
0
40
0
40
0
40
1
40
1
40
1
41
1
10
27.6371693109584
20
10.3631877817978
30
0
41
1
10
27.6430553484009
20
10.3319274973393
30
0
41
1
10
27.6540833743602
20
10.2995473457453
30
0
0
SPLINE
5
254
100
AcDbEntity
8
1
62
256
6
ByLayer
370
18
48
1
60
0
100
AcDbSpline
70
4
71
3
72
11
73
7
40
0
40
0
40
0
40
0
40
0.285829026671017
40
0.578637116264075
40
0.787421011610952
40
1
40
1
40
1
40
1
41
1
10
35.6421619035384
20
16.2261702092189
30
0
41
1
10
35.6276884322534
20
16.4576657314406
30
0
41
1
10
35.6098069018999
20
16.9137395198261
30
0
41
1
10
35.6132742271132
20
17.5086076765319
30
0
41
1
10
35.6468320464305
20
18.0071453053119
30
0
41
1
10
35.6835208818792
20
18.2731858500953
30
0
41
1
10
35.7061761935807
20
18.4009087266628
30
0
0
SPLINE
5
255
100
AcDbEntity
8
1
62
256
6
ByLayer
370
18
48
1
60
0
100
AcDbSpline
70
4
71
2
72
6
73
3
40
0
40
0
40
0
40
1
40
1
40
1
41
1
10
25.7268535203163
20
8.34848604622618
30
0
41
1
10
25.7152038518134
20
8.37027103910861
30
0
41
1
10
25.6995553840303
20
8.39505527884904
30
0
0
SPLINE
5
256
100
AcDbEntity
8
1
62
256
6
ByLayer
370
18
48
1
60
0
100
AcDbSpline
70
4
71
2
72
6
73
3
40
0
40
0
40
0
40
1
40
1
40
1
41
1
10
26.559898102688
20
10.7173675842158
30
0
41
1
10
26.5907952016397
20
10.7336260529075
30
0
41
1
10
26.6174859812771
20
10.7525590729327
30
0
0
SPLINE
5
257
100
AcDbEntity
8
1
62
256
6
ByLayer
370
18
48
1
60
0
100
AcDbSpline
70
4
71
3
72
12
73
8
40
0
40
0
40
0
40
0
40
0.158767531158602
40
0.369075648368952
40
0.579383765579301
40
0.78969188278965
40
1
40
1
40
1
40
1
41
1
10
31.558060006486
20
8.08647240104221
30
0
41
1
10
31.6592650109907
20
8.02437104763273
30
0
41
1
10
31.8843170810565
20
7.88150614539278
30
0
41
1
10
32.2018000580548
20
7.66170301805579
30
0
41
1
10
32.4981031432025
20
7.43129878400606
30
0
41
1
10
32.7424639481942
20
7.21179709309068
30
0
41
1
10
32.8684237032014
20
7.07487106688963
30
0
41
1
10
32.9223599904207
20
7.00858182303144
30
0
0
SPLINE
5
258
100
AcDbEntity
8
1
62
256
6
ByLayer
370
18
48
1
60
0
100
AcDbSpline
70
4
71
1
72
4
73
2
40
0
40
0
40
1
40
1
41
1
10
21.9538745215924
20
11.7538797292026
30
0
41
1
10
22.1254778760628
20
12.1175120629065
30
0
0
SPLINE
5
259
100
AcDbEntity
8
1
62
256
6
ByLayer
370
18
48
1
60
0
100
AcDbSpline
70
4
71
3
72
12
73
8
40
0
40
0
40
0
40
0
40
0.158767555627574
40
0.36907566672068
40
0.579383777813787
40
0.789691888906893
40
1
40
1
40
1
40
1
41
1
10
21.9538745215924
20
11.7538797292026
30
0
41
1
10
21.8295129091836
20
11.7779121374527
30
0
41
1
10
21.5482591717448
20
11.8283826915701
30
0
41
1
10
21.1334625757445
20
11.8882042569772
30
0
41
1
10
20.7213954660071
20
11.9282948023909
30
0
41
1
10
20.3524526591035
20
11.9429862303281
30
0
41
1
10
20.1387980375542
20
11.9357436896152
30
0
41
1
10
20.0397510630014
20
11.927871886176
30
0
0
SPLINE
5
25A
100
AcDbEntity
8
1
62
256
6
ByLayer
370
18
48
1
60
0
100
AcDbSpline
70
4
71
2
72
6
73
3
40
0
40
0
40
0
40
1
40
1
40
1
41
1
10
27.1082177168617
20
8.01387499419193
30
0
41
1
10
27.0778754248212
20
8.01544010155963
30
0
41
1
10
27.0440973270869
20
8.01514025583642
30
0
0
SPLINE
5
25B
100
AcDbEntity
8
1
62
256
6
ByLayer
370
18
48
1
60
0
100
AcDbSpline
70
4
71
2
72
6
73
3
40
0
40
0
40
0
40
1
40
1
40
1
41
1
10
25.300647219092
20
9.69044796604619
30
0
41
1
10
25.316515837038
20
9.70582728469247
30
0
41
1
10
25.3322774361387
20
9.72721633530896
30
0
0
SPLINE
5
25C
100
AcDbEntity
8
1
62
256
6
ByLayer
370
18
48
1
60
0
100
AcDbSpline
70
4
71
3
72
16
73
12
40
0
40
0
40
0
40
0
40
0.0488972166004767
40
0.162493486580013
40
0.29381066766453
40
0.425204758482153
40
0.56698008256555
40
0.708660608492822
40
0.821309594759678
40
0.933842416208929
40
1
40
1
40
1
40
1
41
1
10
22.1254778760628
20
12.1175120629065
30
0
41
1
10
22.172730479101
20
12.207520294723
30
0
41
1
10
22.3382611338198
20
12.5017748353418
30
0
41
1
10
22.6909716413178
20
13.00794173278
30
0
41
1
10
23.23493729474
20
13.5907676951162
30
0
41
1
10
23.9030553954291
20
14.1293200731281
30
0
41
1
10
24.6628722198673
20
14.5737275083519
30
0
41
1
10
25.4477023643309
20
14.8770164275178
30
0
41
1
10
26.2093720948155
20
15.0363339564621
30
0
41
1
10
26.8276635022459
20
15.0691645136194
30
0
41
1
10
27.2011988493849
20
15.0377556035323
30
0
41
1
10
27.3393625668642
20
15.0193762857286
30
0
0
SPLINE
5
25D
100
AcDbEntity
8
1
62
256
6
ByLayer
370
18
48
1
60
0
100
AcDbSpline
70
4
71
1
72
4
73
2
40
0
40
0
40
1
40
1
41
1
10
21.9538745216524
20
11.7538797293446
30
0
41
1
10
21.8716954180486
20
11.5469222770826
30
0
0
SPLINE
5
25E
100
AcDbEntity
8
1
62
256
6
ByLayer
370
18
48
1
60
0
100
AcDbSpline
70
4
71
2
72
6
73
3
40
0
40
0
40
0
40
1
40
1
40
1
41
1
10
25.4189369705582
20
9.96113532921142
30
0
41
1
10
25.4239687377281
20
9.99587355126541
30
0
41
1
10
25.4258409890739
20
10.028381938496
30
0
0
SPLINE
5
25F
100
AcDbEntity
8
1
62
256
6
ByLayer
370
18
48
1
60
0
100
AcDbSpline
70
4
71
3
72
11
73
7
40
0
40
0
40
0
40
0
40
0.274372063566575
40
0.548743888963175
40
0.772964608938921
40
1
40
1
40
1
40
1
41
1
10
27.3393625668641
20
15.0193762857285
30
0
41
1
10
27.5706081690793
20
14.9880397034024
30
0
41
1
10
28.025845439922
20
14.8968621065048
30
0
41
1
10
28.65187381207
20
14.6864693606799
30
0
41
1
10
29.2132400733422
20
14.4232908316513
30
0
41
1
10
29.5424024437623
20
14.2252295486805
30
0
41
1
10
29.7033929807225
20
14.116659189419
30
0
0
SPLINE
5
260
100
AcDbEntity
8
1
62
256
6
ByLayer
370
18
48
1
60
0
100
AcDbSpline
70
4
71
2
72
6
73
3
40
0
40
0
40
0
40
1
40
1
40
1
41
1
10
25.535858247065
20
8.59106905729262
30
0
41
1
10
25.512251415113
20
8.61330445544019
30
0
41
1
10
25.4903664234342
20
8.63165977957529
30
0
0
SPLINE
5
261
100
AcDbEntity
8
1
62
256
6
ByLayer
370
18
48
1
60
0
100
AcDbSpline
70
4
71
2
72
6
73
3
40
0
40
0
40
0
40
1
40
1
40
1
41
1
10
26.255805114413
20
10.697798833832
30
0
41
1
10
26.2804023322129
20
10.6867889419205
30
0
41
1
10
26.3095414313037
20
10.6794623687579
30
0
0
SPLINE
5
262
100
AcDbEntity
8
1
62
256
6
ByLayer
370
18
48
1
60
0
100
AcDbSpline
70
4
71
2
72
6
73
3
40
0
40
0
40
0
40
1
40
1
40
1
41
1
10
27.9347017878321
20
8.73346729538253
30
0
41
1
10
27.9342369927196
20
8.70623708197976
30
0
41
1
10
27.9381818422009
20
8.68329188952789
30
0
0
SPLINE
5
263
100
AcDbEntity
8
1
62
256
6
ByLayer
370
18
48
1
60
0
100
AcDbSpline
70
4
71
3
72
16
73
12
40
0
40
0
40
0
40
0
40
0.0906968187834702
40
0.181452090039393
40
0.304886776498982
40
0.428457050100114
40
0.554103264959011
40
0.679719172461891
40
0.820251593222322
40
0.960728460740152
40
1
40
1
40
1
40
1
41
1
10
29.7033929807225
20
14.1166591894189
30
0
41
1
10
29.8733107641355
20
14.0008362524452
30
0
41
1
10
30.1933743552363
20
13.7483765222849
30
0
41
1
10
30.6676463488743
20
13.2483521356744
30
0
41
1
10
31.0969885875569
20
12.6192184838108
30
0
41
1
10
31.4522054708882
20
11.8598039363566
30
0
41
1
10
31.6909127918605
20
11.0500019384659
30
0
41
1
10
31.8197677607966
20
10.1745045042844
30
0
41
1
10
31.8156023778124
20
9.25589896773756
30
0
41
1
10
31.6958461830158
20
8.54854416674427
30
0
41
1
10
31.5844558974398
20
8.16884463152585
30
0
41
1
10
31.5580599509357
20
8.08647243512504
30
0
0
SPLINE
5
264
100
AcDbEntity
8
1
62
256
6
ByLayer
370
18
48
1
60
0
100
AcDbSpline
70
4
71
2
72
6
73
3
40
0
40
0
40
0
40
1
40
1
40
1
41
1
10
28.0633756121828
20
9.02122586197771
30
0
41
1
10
28.0416898934095
20
8.99628334855371
30
0
41
1
10
28.0213613222518
20
8.96738628928455
30
0
0
SPLINE
5
265
100
AcDbEntity
8
1
62
256
6
ByLayer
370
18
48
1
60
0
100
AcDbSpline
70
4
71
2
72
6
73
3
40
0
40
0
40
0
40
1
40
1
40
1
41
1
10
27.8177805113255
20
10.1035335673017
30
0
41
1
10
27.8459945850281
20
10.0888723803573
30
0
41
1
10
27.8736564078406
20
10.0800140484486
30
0
0
SPLINE
5
266
100
AcDbEntity
8
1
62
256
6
ByLayer
370
18
48
1
60
0
100
AcDbSpline
70
4
71
3
72
12
73
8
40
0
40
0
40
0
40
0
40
0.207389559952627
40
0.435858949488774
40
0.671968308759465
40
0.834013574611258
40
1
40
1
40
1
40
1
41
1
10
21.347901818088
20
6.12239860713137
30
0
41
1
10
21.2345330723578
20
6.33812765782157
30
0
41
1
10
21.0374776019335
20
6.80220132998447
30
0
41
1
10
20.8612815050107
20
7.55397945727098
30
0
41
1
10
20.8408745117522
20
8.28626360001461
30
0
41
1
10
20.9418151187048
20
8.95905823170765
30
0
41
1
10
21.056660886838
20
9.3467147320889
30
0
41
1
10
21.1292361739109
20
9.54281135535096
30
0
0
SPLINE
5
267
100
AcDbEntity
8
1
62
256
6
ByLayer
370
18
48
1
60
0
100
AcDbSpline
70
4
71
1
72
4
73
2
40
0
40
0
40
1
40
1
41
1
10
31.5580599509357
20
8.08647243512504
30
0
41
1
10
31.4852034682704
20
7.87595509257378
30
0
0
SPLINE
5
268
100
AcDbEntity
8
1
62
256
6
ByLayer
370
18
48
1
60
0
100
AcDbSpline
70
4
71
3
72
13
73
9
40
0
40
0
40
0
40
0
40
0.264501747229009
40
0.448386406949539
40
0.632293150443362
40
0.80828727769096
40
0.984397949906613
40
1
40
1
40
1
40
1
41
1
10
34.3124333038581
20
23.8512337293412
30
0
41
1
10
34.2816281647106
20
23.9939850465411
30
0
41
1
10
34.2088158323083
20
24.2434312708961
30
0
41
1
10
34.0546714032082
20
24.6189318334817
30
0
41
1
10
33.8912414074593
20
24.9442408561693
30
0
41
1
10
33.7047959033315
20
25.2584459313389
30
0
41
1
10
33.5648034977171
20
25.4650376253272
30
0
41
1
10
33.4895112936656
20
25.5690118184781
30
0
41
1
10
33.4833649940075
20
25.577452530323
30
0
0
SPLINE
5
269
100
AcDbEntity
8
1
62
256
6
ByLayer
370
18
48
1
60
0
100
AcDbSpline
70
4
71
3
72
10
73
6
40
0
40
0
40
0
40
0
40
0.355206539474763
40
0.687065685878785
40
1
40
1
40
1
40
1
41
1
10
28.6764455872352
20
25.4001497375134
30
0
41
1
10
28.2354960792799
20
25.1343876543214
30
0
41
1
10
27.3973915853443
20
24.5996758166967
30
0
41
1
10
26.2167150610749
20
23.7633822087317
30
0
41
1
10
25.4838402389786
20
23.1888153293727
30
0
41
1
10
25.13447326867
20
22.9016587891631
30
0
0
SPLINE
5
26A
100
AcDbEntity
8
1
62
256
6
ByLayer
370
18
48
1
60
0
100
AcDbSpline
70
4
71
3
72
15
73
11
40
0
40
0
40
0
40
0
40
0.228435565827107
40
0.455268471850385
40
0.597059656971081
40
0.693578837374156
40
0.768481282605448
40
0.843713841304806
40
0.91329402040012
40
1
40
1
40
1
40
1
41
1
10
32.0340311220565
20
22.3973511157113
30
0
41
1
10
32.0709692489068
20
22.2315855119278
30
0
41
1
10
32.1680415521959
20
21.8922498058952
30
0
41
1
10
32.3428801880487
20
21.4194511575808
30
0
41
1
10
32.5351943373875
20
21.0418245805707
30
0
41
1
10
32.6964690080923
20
20.8006041507061
30
0
41
1
10
32.8387813006337
20
20.6416041302659
30
0
41
1
10
32.9649386390253
20
20.5489919758221
30
0
41
1
10
33.07923771412
20
20.5130806070541
30
0
41
1
10
33.1416721879549
20
20.5182950864169
30
0
41
1
10
33.1718873085988
20
20.5317219152081
30
0
0
SPLINE
5
26B
100
AcDbEntity
8
1
62
256
6
ByLayer
370
18
48
1
60
0
100
AcDbSpline
70
4
71
3
72
11
73
7
40
0
40
0
40
0
40
0
40
0.283766240604022
40
0.577212127289772
40
0.78724612273614
40
1
40
1
40
1
40
1
41
1
10
24.9220991796152
20
22.5188636528636
30
0
41
1
10
24.8426816738924
20
22.3659398990991
30
0
41
1
10
24.6539264905991
20
22.0497697201341
30
0
41
1
10
24.3115972038051
20
21.5987435860165
30
0
41
1
10
23.9549109963149
20
21.1859681193895
30
0
41
1
10
23.7273775695635
20
20.9434068358114
30
0
41
1
10
23.6081210332557
20
20.8214302226358
30
0
0
SPLINE
5
26C
100
AcDbEntity
8
1
62
256
6
ByLayer
370
18
48
1
60
0
100
AcDbSpline
70
4
71
2
72
6
73
3
40
0
40
0
40
0
40
1
40
1
40
1
41
1
10
31.7307742099226
20
23.7289153399166
30
0
41
1
10
31.8687782938619
20
23.0720583988472
30
0
41
1
10
32.0340311220565
20
22.3973511157113
30
0
0
SPLINE
5
26D
100
AcDbEntity
8
1
62
256
6
ByLayer
370
18
48
1
60
0
100
AcDbSpline
70
4
71
3
72
15
73
11
40
0
40
0
40
0
40
0
40
0.168844406260327
40
0.338112901645274
40
0.448061316414474
40
0.558007865422696
40
0.6713142019195
40
0.784553545822868
40
0.891017892761625
40
1
40
1
40
1
40
1
41
1
10
33.1718873085988
20
20.5317219152081
30
0
41
1
10
33.3260332091363
20
20.5802523292744
30
0
41
1
10
33.6197778884855
20
20.7020557769834
30
0
41
1
10
33.9861096410449
20
20.9042710850042
30
0
41
1
10
34.2519385692475
20
21.1619155846839
30
0
41
1
10
34.444787164166
20
21.4326455528762
30
0
41
1
10
34.6024168286596
20
21.7565469992492
30
0
41
1
10
34.7124957260584
20
22.1341377354514
30
0
41
1
10
34.7696551555865
20
22.5673077331084
30
0
41
1
10
34.7518982795163
20
22.9037433459039
30
0
41
1
10
34.7306581152812
20
23.0862080122702
30
0
0
SPLINE
5
26E
100
AcDbEntity
8
1
62
256
6
ByLayer
370
18
48
1
60
0
100
AcDbSpline
70
4
71
3
72
16
73
12
40
0
40
0
40
0
40
0
40
0.063798660916696
40
0.127642915900321
40
0.260105498711661
40
0.363136258917891
40
0.466201155740998
40
0.572053271930383
40
0.67790871753703
40
0.838591252276261
40
1
40
1
40
1
40
1
41
1
10
28.6726896765946
20
25.3994742225119
30
0
41
1
10
28.5994724134956
20
25.3254027002369
30
0
41
1
10
28.4669130858431
20
25.1772354791587
30
0
41
1
10
28.2577053894514
20
24.8741285843784
30
0
41
1
10
28.1028129681652
20
24.5300937781766
30
0
41
1
10
28.0119270792636
20
24.152499505294
30
0
41
1
10
27.987182601946
20
23.8146068243638
30
0
41
1
10
28.0166542286928
20
23.4850672437062
30
0
41
1
10
28.1156023884393
20
23.1107787859258
30
0
41
1
10
28.3251685536038
20
22.7079967794171
30
0
41
1
10
28.5109715862259
20
22.4146591716049
30
0
41
1
10
28.6160733111833
20
22.2713827752869
30
0
0
SPLINE
5
26F
100
AcDbEntity
8
1
62
256
6
ByLayer
370
18
48
1
60
0
100
AcDbSpline
70
4
71
3
72
13
73
9
40
0
40
0
40
0
40
0
40
0.127184875645933
40
0.273253586308538
40
0.447674241578032
40
0.643202188315996
40
0.827263456704803
40
1
40
1
40
1
40
1
41
1
10
35.7721993247909
20
18.8400081678369
30
0
41
1
10
35.7412825694792
20
19.0227158844977
30
0
41
1
10
35.6707178704678
20
19.4145635165375
30
0
41
1
10
35.5382992396357
20
20.0538463941815
30
0
41
1
10
35.3716174827002
20
20.7880151776905
30
0
41
1
10
35.1761342494071
20
21.5728041155174
30
0
41
1
10
34.9611166077514
20
22.3506009613384
30
0
41
1
10
34.8065764544613
20
22.8487904822123
30
0
41
1
10
34.7283657160469
20
23.089097111357
30
0
0
SPLINE
5
270
100
AcDbEntity
8
1
62
256
6
ByLayer
370
18
48
1
60
0
100
AcDbSpline
70
4
71
3
72
16
73
12
40
0
40
0
40
0
40
0
40
0.118546636851417
40
0.191014590194124
40
0.263713635625982
40
0.333764906153627
40
0.452008025544354
40
0.553339821228452
40
0.65492161486268
40
0.827282712617541
40
1
40
1
40
1
40
1
41
1
10
28.6160733111833
20
22.2713827752869
30
0
41
1
10
28.6419426951041
20
22.2251924719064
30
0
41
1
10
28.7141527400552
20
22.1684474837521
30
0
41
1
10
28.8817022822258
20
22.1215793320067
30
0
41
1
10
29.0606427171858
20
22.1205753734524
30
0
41
1
10
29.2950252047326
20
22.1577909532315
30
0
41
1
10
29.5520282752441
20
22.2374110821082
30
0
41
1
10
29.8126641982452
20
22.3484014518203
30
0
41
1
10
30.0932633553605
20
22.4933466626559
30
0
41
1
10
30.3932596390579
20
22.6803137563955
30
0
41
1
10
30.6020890257131
20
22.82986863565
30
0
41
1
10
30.7000194546494
20
22.9067502891586
30
0
0
SPLINE
5
271
100
AcDbEntity
8
1
62
256
6
ByLayer
370
18
48
1
60
0
100
AcDbSpline
70
4
71
3
72
13
73
9
40
0
40
0
40
0
40
0
40
0.0563758328103308
40
0.244667706604231
40
0.43281576207166
40
0.621794598248234
40
0.810787676669418
40
1
40
1
40
1
40
1
41
1
10
31.2112688885227
20
26.4450640410967
30
0
41
1
10
31.1739097502589
20
26.4372955648481
30
0
41
1
10
31.0121677240533
20
26.4018730376605
30
0
41
1
10
30.7266069901753
20
26.3258764696212
30
0
41
1
10
30.3660890386552
20
26.2008254399516
30
0
41
1
10
30.0306937068855
20
26.0505977645653
30
0
41
1
10
29.7300293580741
20
25.8802022631966
30
0
41
1
10
29.5611094939161
20
25.7584397641904
30
0
41
1
10
29.4838365450839
20
25.6950580810853
30
0
0
SPLINE
5
272
100
AcDbEntity
8
1
62
256
6
ByLayer
370
18
48
1
60
0
100
AcDbSpline
70
4
71
2
72
6
73
3
40
0
40
0
40
0
40
1
40
1
40
1
41
1
10
30.7000194546494
20
22.9067502891586
30
0
41
1
10
31.2329814880616
20
23.3149826583477
30
0
41
1
10
31.7307742099088
20
23.7289153399051
30
0
0
SPLINE
5
273
100
AcDbEntity
8
1
62
256
6
ByLayer
370
18
48
1
60
0
100
AcDbSpline
70
4
71
1
72
4
73
2
40
0
40
0
40
1
40
1
41
1
10
24.9220991796152
20
22.5188636528636
30
0
41
1
10
25.1330371741681
20
22.902633631432
30
0
0
SPLINE
5
274
100
AcDbEntity
8
1
62
256
6
ByLayer
370
18
48
1
60
0
100
AcDbSpline
70
4
71
1
72
4
73
2
40
0
40
0
40
1
40
1
41
1
10
-0.330503123256657
20
18.4323760474036
30
0
41
1
10
0.338272457855283
20
19.2071234753721
30
0
0
SPLINE
5
275
100
AcDbEntity
8
1
62
256
6
ByLayer
370
18
48
1
60
0
100
AcDbSpline
70
4
71
3
72
12
73
8
40
0
40
0
40
0
40
0
40
0.286154556480555
40
0.572947251879412
40
0.785448211657377
40
0.892380279620974
40
1
40
1
40
1
40
1
41
1
10
12.1635015010281
20
24.8030096274557
30
0
41
1
10
12.0075994873837
20
24.1765628546645
30
0
41
1
10
11.7034923191985
20
22.9296258112133
30
0
41
1
10
11.3040208757537
20
21.2352126723433
30
0
41
1
10
11.016806392724
20
19.947968233907
30
0
41
1
10
10.828244672324
20
19.0558922453076
30
0
41
1
10
10.7459620794189
20
18.628659667409
30
0
41
1
10
10.7071683840633
20
18.4182917497488
30
0
0
SPLINE
5
276
100
AcDbEntity
8
1
62
256
6
ByLayer
370
18
48
1
60
0
100
AcDbSpline
70
4
71
1
72
4
73
2
40
0
40
0
40
1
40
1
41
1
10
-0.332243859374311
20
17.9912738054888
30
0
41
1
10
0.336535292588192
20
18.813552657592
30
0
0
SPLINE
5
277
100
AcDbEntity
8
1
62
256
6
ByLayer
370
18
48
1
60
0
100
AcDbSpline
70
4
71
3
72
22
73
18
40
0
40
0
40
0
40
0
40
0.0398593159879892
40
0.088643135315905
40
0.145182137750538
40
0.208222486425829
40
0.276480167267102
40
0.348665814073606
40
0.423501122453941
40
0.512388740500031
40
0.600607238340983
40
0.685540260576635
40
0.764545249691686
40
0.835054174446871
40
0.896263553347476
40
0.951870103079891
40
1
40
1
40
1
40
1
41
1
10
20.0397510630014
20
11.927871886176
30
0
41
1
10
20.1232314194547
20
12.091876510007
30
0
41
1
10
20.3187873721164
20
12.4511179379952
30
0
41
1
10
20.6858069282817
20
13.0150901560656
30
0
41
1
10
21.1344471955507
20
13.6526125868606
30
0
41
1
10
21.657101796526
20
14.3474886350772
30
0
41
1
10
22.2399371343197
20
15.0855015808735
30
0
41
1
10
22.8707821779232
20
15.8516800459873
30
0
41
1
10
23.5745213465873
20
16.6753752432022
30
0
41
1
10
24.3376198188989
20
17.5353323994412
30
0
41
1
10
25.1386018174459
20
18.4114448067963
30
0
41
1
10
25.9123186084461
20
19.2393327338476
30
0
41
1
10
26.6299209939764
20
19.9967813744344
30
0
41
1
10
27.2701900533661
20
20.6658762648799
30
0
41
1
10
27.8229183332558
20
21.253528991883
30
0
41
1
10
28.2801164909411
20
21.7734971542954
30
0
41
1
10
28.5154442051086
20
22.1123828648482
30
0
41
1
10
28.6160733111833
20
22.2713827752869
30
0
0
SPLINE
5
278
100
AcDbEntity
8
1
62
256
6
ByLayer
370
18
48
1
60
0
100
AcDbSpline
70
4
71
3
72
22
73
18
40
0
40
0
40
0
40
0
40
0.039859315990695
40
0.0886431353209839
40
0.1451821377576
40
0.208222486434422
40
0.276480167276715
40
0.348665814083663
40
0.423501122463803
40
0.512388740508843
40
0.600607238348101
40
0.685540260581719
40
0.764545249694693
40
0.835054174448038
40
0.896263553347136
40
0.951870103079798
40
1
40
1
40
1
40
1
41
1
10
32.9223599904207
20
7.00858182303143
30
0
41
1
10
32.9673565760817
20
7.18728167144775
30
0
41
1
10
33.0566758644789
20
7.58709011269764
30
0
41
1
10
33.1534504479734
20
8.25425675486846
30
0
41
1
10
33.2376820793798
20
9.03093048582797
30
0
41
1
10
33.3040205970116
20
9.90005316277112
30
0
41
1
10
33.3527882744392
20
10.8420025743679
30
0
41
1
10
33.3826490273376
20
11.8376699625854
30
0
41
1
10
33.3934199446925
20
12.9259786283886
30
0
41
1
10
33.3801192280191
20
14.0824077831786
30
0
41
1
10
33.3456079765972
20
15.2775575582959
30
0
41
1
10
33.2972639259775
20
16.4193536193206
30
0
41
1
10
33.2426786195474
20
17.4716660767751
30
0
41
1
10
33.1864207125475
20
18.4067333493219
30
0
41
1
10
33.1405020384824
20
19.2229824754143
30
0
41
1
10
33.1200032030081
20
19.9253616762086
30
0
41
1
10
33.1507001366422
20
20.3423866961927
30
0
41
1
10
33.1718873085988
20
20.5317219152081
30
0
0
SPLINE
5
279
100
AcDbEntity
8
1
62
256
6
ByLayer
370
18
48
1
60
0
100
AcDbSpline
70
4
71
1
72
4
73
2
40
0
40
0
40
1
40
1
41
1
10
-0.32920393149088
20
18.6785407751563
30
0
41
1
10
0.338680315272346
20
19.281898216523
30
0
0
SPLINE
5
27A
100
AcDbEntity
8
1
62
256
6
ByLayer
370
18
48
1
60
0
100
AcDbSpline
70
4
71
3
72
14
73
10
40
0
40
0
40
0
40
0
40
0.0971228810155617
40
0.194273244046016
40
0.389896406310713
40
0.589616406423277
40
0.790639726765425
40
0.895248017943774
40
1
40
1
40
1
40
1
41
1
10
17.6742962884895
20
11.7392643089595
30
0
41
1
10
17.801330200445
20
12.0696452824212
30
0
41
1
10
18.0703022059623
20
12.7237482728208
30
0
41
1
10
18.678954880439
20
14.0061198165425
30
0
41
1
10
19.5265517970364
20
15.5867883133223
30
0
41
1
10
20.7145156439669
20
17.4058966830454
30
0
41
1
10
21.8470053329385
20
18.8572173515804
30
0
41
1
10
22.8219197686647
20
19.9899785815238
30
0
41
1
10
23.3422994569216
20
20.5473281234656
30
0
41
1
10
23.6081210332557
20
20.8214302226358
30
0
0
SPLINE
5
27B
100
AcDbEntity
8
1
62
256
6
ByLayer
370
18
48
1
60
0
100
AcDbSpline
70
4
71
1
72
4
73
2
40
0
40
0
40
1
40
1
41
1
10
20.0397510630014
20
11.927871886176
30
0
41
1
10
17.6742962884895
20
11.7392643089595
30
0
0
SPLINE
5
27C
100
AcDbEntity
8
1
62
256
6
ByLayer
370
18
48
1
60
0
100
AcDbSpline
70
4
71
1
72
4
73
2
40
0
40
0
40
1
40
1
41
1
10
-0.330937380575229
20
18.3344358914306
30
0
41
1
10
0.336945346428813
20
18.9175638899858
30
0
0
SPLINE
5
27D
100
AcDbEntity
8
1
62
256
6
ByLayer
370
18
48
1
60
0
100
AcDbSpline
70
4
71
3
72
18
73
14
40
0
40
0
40
0
40
0
40
0.0759799328441223
40
0.216950636843263
40
0.35642310148899
40
0.488469120205416
40
0.607076641018376
40
0.708907296935519
40
0.77331916481356
40
0.830732578780719
40
0.883746847658007
40
0.938130719748054
40
1
40
1
40
1
40
1
41
1
10
29.7033929806984
20
14.1166591893417
30
0
41
1
10
29.7743325916093
20
14.3434514948145
30
0
41
1
10
29.9738586331932
20
14.9877444445171
30
0
41
1
10
30.286473105389
20
16.0304051135578
30
0
41
1
10
30.6291814971162
20
17.2150447237438
30
0
41
1
10
30.9369180898993
20
18.3158438582021
30
0
41
1
10
31.1995675989952
20
19.2918768981162
30
0
41
1
10
31.3980971458585
20
20.0624961942646
30
0
41
1
10
31.5501740948201
20
20.6546236209982
30
0
41
1
10
31.6714269606685
20
21.1102401838754
30
0
41
1
10
31.7914621916965
20
21.533226017163
30
0
41
1
10
31.9137475610655
20
21.9583676878907
30
0
41
1
10
31.9929035204351
20
22.2458481633144
30
0
41
1
10
32.0340311220132
20
22.3973511155505
30
0
0
SPLINE
5
27E
100
AcDbEntity
8
1
62
256
6
ByLayer
370
18
48
1
60
0
100
AcDbSpline
70
4
71
1
72
4
73
2
40
0
40
0
40
1
40
1
41
1
10
35.772227578461
20
18.8400043976722
30
0
41
1
10
35.7061761935807
20
18.4009087266628
30
0
0
SPLINE
5
27F
100
AcDbEntity
8
1
62
256
6
ByLayer
370
18
48
1
60
0
100
AcDbSpline
70
4
71
3
72
18
73
14
40
0
40
0
40
0
40
0
40
0.075979932840414
40
0.216950636837052
40
0.356423101480453
40
0.488469120194706
40
0.607076641005627
40
0.708907296920897
40
0.773319164801295
40
0.830732578770265
40
0.883746847649595
40
0.938130719742847
40
1
40
1
40
1
40
1
41
1
10
27.3393625668335
20
15.0193762856542
30
0
41
1
10
27.4299211324136
20
15.238676993005
30
0
41
1
10
27.6878559634684
20
15.8606662479092
30
0
41
1
10
28.1086735839906
20
16.862008991721
30
0
41
1
10
28.5909898106522
20
17.9933386365936
30
0
41
1
10
29.0428525063165
20
19.0391024820298
30
0
41
1
10
29.4472401299004
20
19.9610120984938
30
0
41
1
10
29.7695591211881
20
20.684361762602
30
0
41
1
10
30.0153275468604
20
21.2407126201072
30
0
41
1
10
30.2001609925405
20
21.6720506136376
30
0
41
1
10
30.3653120747007
20
22.0778087286088
30
0
41
1
10
30.5285620889316
20
22.4873078403596
30
0
41
1
10
30.6407371682598
20
22.7621797960914
30
0
41
1
10
30.7000194546494
20
22.9067502891586
30
0
0
SPLINE
5
280
100
AcDbEntity
8
1
62
256
6
ByLayer
370
18
48
1
60
0
100
AcDbSpline
70
4
71
1
72
4
73
2
40
0
40
0
40
1
40
1
41
1
10
-0.328772036979536
20
18.7450297150493
30
0
41
1
10
0.340000472836124
20
19.4788952623689
30
0
0
SPLINE
5
281
100
AcDbEntity
8
1
62
256
6
ByLayer
370
18
48
1
60
0
100
AcDbSpline
70
4
71
1
72
4
73
2
40
0
40
0
40
1
40
1
41
1
10
-0.347293601166641
20
5.18534195587581
30
0
41
1
10
0.320617977125161
20
6.1525080905406
30
0
0
SPLINE
5
282
100
AcDbEntity
8
1
62
256
6
ByLayer
370
18
48
1
60
0
100
AcDbSpline
70
4
71
2
72
6
73
3
40
0
40
0
40
0
40
1
40
1
40
1
41
1
10
30.7427442241328
20
5.87184417084215
30
0
41
1
10
30.6353892267043
20
5.58190831873521
30
0
41
1
10
30.4967630092733
20
5.31619780961066
30
0
0
SPLINE
5
283
100
AcDbEntity
8
1
62
256
6
ByLayer
370
18
48
1
60
0
100
AcDbSpline
70
4
71
3
72
13
73
9
40
0
40
0
40
0
40
0
40
0.190808571032885
40
0.382494663905351
40
0.577280028351449
40
0.773344727987366
40
0.886540068783193
40
1
40
1
40
1
40
1
41
1
10
35.6421619035384
20
16.2261702092189
30
0
41
1
10
35.6809206719179
20
15.5259134599182
30
0
41
1
10
35.7114584489007
20
14.124297801773
30
0
41
1
10
35.6217834708724
20
12.0106448091316
30
0
41
1
10
35.3717644479564
20
9.89378975234485
30
0
41
1
10
34.9970780814153
20
8.09110298575906
30
0
41
1
10
34.6020716934977
20
6.60065763342937
30
0
41
1
10
34.3472618226139
20
5.8152408687916
30
0
41
1
10
34.2098703543111
20
5.42507083707232
30
0
0
SPLINE
5
284
100
AcDbEntity
8
1
62
256
6
ByLayer
370
18
48
1
60
0
100
AcDbSpline
70
4
71
3
72
10
73
6
40
0
40
0
40
0
40
0
40
0.145342570183193
40
0.405399202914362
40
1
40
1
40
1
40
1
41
1
10
0.422376465335171
20
5.93876962889327
30
0
41
1
10
0.422287328382731
20
5.89546380873658
30
0
41
1
10
0.419605188719279
20
5.77415476511366
30
0
41
1
10
0.388792520428841
20
5.46911990141153
30
0
41
1
10
0.353225249351278
20
5.20829619524467
30
0
41
1
10
0.320131077803311
20
5.02561026605168
30
0
0
SPLINE
5
285
100
AcDbEntity
8
1
62
256
6
ByLayer
370
18
48
1
60
0
100
AcDbSpline
70
4
71
1
72
4
73
2
40
0
40
0
40
1
40
1
41
1
10
32.9223599904207
20
7.00858182303144
30
0
41
1
10
34.2098703543111
20
5.42507083707233
30
0
0
SPLINE
5
286
100
AcDbEntity
8
1
62
256
6
ByLayer
370
18
48
1
60
0
100
AcDbSpline
70
4
71
3
72
10
73
6
40
0
40
0
40
0
40
0
40
0.340160854642359
40
0.688236432610493
40
1
40
1
40
1
40
1
41
1
10
21.347901818088
20
6.12239860713136
30
0
41
1
10
21.403214462545
20
6.01610311574552
30
0
41
1
10
21.497739236679
20
5.79381936379418
30
0
41
1
10
21.5853384787907
20
5.44392384140744
30
0
41
1
10
21.6090881933034
20
5.20674711573021
30
0
41
1
10
21.61290693517
20
5.09245094812599
30
0
0
LINE
5
70
100
AcDbEntity
8
1
62
256
6
ByLayer
370
18
48
1
60
0
100
AcDbLine
10
14.031741
20
-4.813673
30
0
11
14.703816
21
-5.070309
31
0
39
0
210
0
220
0
230
1
0
LINE
5
72
100
AcDbEntity
8
1
62
256
6
ByLayer
370
18
48
1
60
0
100
AcDbLine
10
-0.338698
20
-16.78232
30
0
11
-0.338649
21
-16.130802
31
0
39
0
210
0
220
0
230
1
0
LINE
5
73
100
AcDbEntity
8
1
62
256
6
ByLayer
370
18
48
1
60
0
100
AcDbLine
10
19.020356
20
-0.743593
30
0
11
19.661338
21
0.484229
31
0
39
0
210
0
220
0
230
1
0
LINE
5
74
100
AcDbEntity
8
1
62
256
6
ByLayer
370
18
48
1
60
0
100
AcDbLine
10
7.942406
20
-12.161937
30
0
11
7.828097
21
-13.434929
31
0
39
0
210
0
220
0
230
1
0
LINE
5
75
100
AcDbEntity
8
1
62
256
6
ByLayer
370
18
48
1
60
0
100
AcDbLine
10
-0.340339
20
-15.886747
30
0
11
-0.340278
21
-15.08116
31
0
39
0
210
0
220
0
230
1
0
LINE
5
76
100
AcDbEntity
8
1
62
256
6
ByLayer
370
18
48
1
60
0
100
AcDbLine
10
-0.330323
20
-18.945249
30
0
11
-0.330314
21
-18.832018
31
0
39
0
210
0
220
0
230
1
0
LINE
5
77
100
AcDbEntity
8
1
62
256
6
ByLayer
370
18
48
1
60
0
100
AcDbLine
10
32.468378
20
0.693733
30
0
11
32.467779
21
0.722665
31
0
39
0
210
0
220
0
230
1
0
LINE
5
78
100
AcDbEntity
8
1
62
256
6
ByLayer
370
18
48
1
60
0
100
AcDbLine
10
15.252136
20
5.238579
30
0
11
14.775917
21
4.326366
31
0
39
0
210
0
220
0
230
1
0
LINE
5
79
100
AcDbEntity
8
1
62
256
6
ByLayer
370
18
48
1
60
0
100
AcDbLine
10
0.321108
20
-10.054152
30
0
11
0.321156
21
-9.416524
31
0
39
0
210
0
220
0
230
1
0
LINE
5
7A
100
AcDbEntity
8
1
62
256
6
ByLayer
370
18
48
1
60
0
100
AcDbLine
10
17.296339
20
-10.522477
30
0
11
30.396331
21
-10.523721
31
0
39
0
210
0
220
0
230
1
0
LINE
5
7B
100
AcDbEntity
8
1
62
256
6
ByLayer
370
18
48
1
60
0
100
AcDbLine
10
0.324229
20
-13.976755
30
0
11
0.324256
21
-13.612547
31
0
39
0
210
0
220
0
230
1
0
LINE
5
7C
100
AcDbEntity
8
1
62
256
6
ByLayer
370
18
48
1
60
0
100
AcDbLine
10
-0.337045
20
-17.500424
30
0
11
-0.337006
21
-16.979253
31
0
39
0
210
0
220
0
230
1
0
LINE
5
7D
100
AcDbEntity
8
1
62
256
6
ByLayer
370
18
48
1
60
0
100
AcDbLine
10
0.33917
20
-19.6608
30
0
11
0.33917
21
-19.65283
31
0
39
0
210
0
220
0
230
1
0
LINE
5
7E
100
AcDbEntity
8
1
62
256
6
ByLayer
370
18
48
1
60
0
100
AcDbLine
10
28.228695
20
-1.373879
30
0
11
26.65201
21
-4.39407
31
0
39
0
210
0
220
0
230
1
0
LINE
5
7F
100
AcDbEntity
8
1
62
256
6
ByLayer
370
18
48
1
60
0
100
AcDbLine
10
13.890963
20
5.147456
30
0
11
13.801685
21
4.931121
31
0
39
0
210
0
220
0
230
1
0
LINE
5
80
100
AcDbEntity
8
1
62
256
6
ByLayer
370
18
48
1
60
0
100
AcDbLine
10
0.332416
20
-18.642894
30
0
11
0.332425
21
-18.520517
31
0
39
0
210
0
220
0
230
1
0
LINE
5
81
100
AcDbEntity
8
SK1
62
256
6
ByLayer
370
18
48
1
60
0
100
AcDbLine
10
-3.82723
20
-2.647069
30
0
11
-3.227263
21
-2.993536
31
0
39
0
210
0
220
0
230
1
0
LINE
5
83
100
AcDbEntity
8
1
62
256
6
ByLayer
370
18
48
1
60
0
100
AcDbLine
10
6.051848
20
-9.024444
30
0
11
8.213385
21
-9.024649
31
0
39
0
210
0
220
0
230
1
0
LINE
5
84
100
AcDbEntity
8
1
62
256
6
ByLayer
370
18
48
1
60
0
100
AcDbLine
10
24.924383
20
-4.769667
30
0
11
17.45758
21
-1.91843
31
0
39
0
210
0
220
0
230
1
0
LINE
5
85
100
AcDbEntity
8
1
62
256
6
ByLayer
370
18
48
1
60
0
100
AcDbLine
10
25.541445
20
-1.76112
30
0
11
25.329224
21
-1.886073
31
0
39
0
210
0
220
0
230
1
0
LINE
5
86
100
AcDbEntity
8
1
62
256
6
ByLayer
370
18
48
1
60
0
100
AcDbLine
10
19.020356
20
-0.743593
30
0
11
19.136213
21
-0.883381
31
0
39
0
210
0
220
0
230
1
0
LINE
5
87
100
AcDbEntity
8
1
62
256
6
ByLayer
370
18
48
1
60
0
100
AcDbLine
10
-0.328619
20
-18.99327
30
0
11
-0.328617
21
-18.969724
31
0
39
0
210
0
220
0
230
1
0
LINE
5
88
100
AcDbEntity
8
1
62
256
6
ByLayer
370
18
48
1
60
0
100
AcDbLine
10
20.62696
20
2.101761
30
0
11
26.227062
21
-0.036666
31
0
39
0
210
0
220
0
230
1
0
LINE
5
89
100
AcDbEntity
8
1
62
256
6
ByLayer
370
18
48
1
60
0
100
AcDbLine
10
0.671122
20
-19.993907
30
0
11
7.301745
21
-19.994537
31
0
39
0
210
0
220
0
230
1
0
LINE
5
8A
100
AcDbEntity
8
1
62
256
6
ByLayer
370
18
48
1
60
0
100
AcDbLine
10
0.322649
20
-12.276346
30
0
11
0.322684
21
-11.811395
31
0
39
0
210
0
220
0
230
1
0
LINE
5
8B
100
AcDbEntity
8
1
62
256
6
ByLayer
370
18
48
1
60
0
100
AcDbLine
10
33.388439
20
0.031726
30
0
11
32.468691
21
-2.196971
31
0
39
0
210
0
220
0
230
1
0
LINE
5
8C
100
AcDbEntity
8
1
62
256
6
ByLayer
370
18
48
1
60
0
100
AcDbLine
10
18.204513
20
2.453906
30
0
11
28.228695
21
-1.373879
31
0
39
0
210
0
220
0
230
1
0
LINE
5
8D
100
AcDbEntity
8
1
62
256
6
ByLayer
370
18
48
1
60
0
100
AcDbLine
10
26.971522
20
1.79255
30
0
11
26.737209
21
1.343717
31
0
39
0
210
0
220
0
230
1
0
LINE
5
8E
100
AcDbEntity
8
1
62
256
6
ByLayer
370
18
48
1
60
0
100
AcDbLine
10
0.319646
20
-6.787331
30
0
11
0.319729
21
-5.675316
31
0
39
0
210
0
220
0
230
1
0
LINE
5
8F
100
AcDbEntity
8
1
62
256
6
ByLayer
370
18
48
1
60
0
100
AcDbLine
10
8.732226
20
-13.409163
30
0
11
8.651227
21
-14.311198
31
0
39
0
210
0
220
0
230
1
0
LINE
5
90
100
AcDbEntity
8
1
62
256
6
ByLayer
370
18
48
1
60
0
100
AcDbLine
10
9.857142
20
-0.881612
30
0
11
9.455115
21
-5.358753
31
0
39
0
210
0
220
0
230
1
0
LINE
5
91
100
AcDbEntity
8
1
62
256
6
ByLayer
370
18
48
1
60
0
100
AcDbLine
10
27.146757
20
2.177421
30
0
11
26.882498
21
1.671224
31
0
39
0
210
0
220
0
230
1
0
LINE
5
92
100
AcDbEntity
8
1
62
256
6
ByLayer
370
18
48
1
60
0
100
AcDbLine
10
18.204513
20
2.453906
30
0
11
16.627827
21
-0.566285
31
0
39
0
210
0
220
0
230
1
0
LINE
5
93
100
AcDbEntity
8
1
62
256
6
ByLayer
370
18
48
1
60
0
100
AcDbLine
10
31.075329
20
-2.548917
30
0
11
31.647143
21
-1.45359
31
0
39
0
210
0
220
0
230
1
0
LINE
5
94
100
AcDbEntity
8
1
62
256
6
ByLayer
370
18
48
1
60
0
100
AcDbLine
10
19.729122
20
0.252354
30
0
11
25.329224
21
-1.886073
31
0
39
0
210
0
220
0
230
1
0
LINE
5
95
100
AcDbEntity
8
1
62
256
6
ByLayer
370
18
48
1
60
0
100
AcDbLine
10
-0.346679
20
-9.367576
30
0
11
-0.346495
21
-6.919991
31
0
39
0
210
0
220
0
230
1
0
LINE
5
96
100
AcDbEntity
8
1
62
256
6
ByLayer
370
18
48
1
60
0
100
AcDbLine
10
0.325834
20
-15.335168
30
0
11
0.325856
21
-15.041374
31
0
39
0
210
0
220
0
230
1
0
LINE
5
97
100
AcDbEntity
8
1
62
256
6
ByLayer
370
18
48
1
60
0
100
AcDbLine
10
0.327459
20
-16.439223
30
0
11
0.327477
21
-16.199776
31
0
39
0
210
0
220
0
230
1
0
LINE
5
98
100
AcDbEntity
8
1
62
256
6
ByLayer
370
18
48
1
60
0
100
AcDbLine
10
0.334091
20
-19.082064
30
0
11
0.334097
21
-18.990875
31
0
39
0
210
0
220
0
230
1
0
LINE
5
99
100
AcDbEntity
8
1
62
256
6
ByLayer
370
18
48
1
60
0
100
AcDbLine
10
0.335775
20
-19.39414
30
0
11
0.335779
21
-19.332145
31
0
39
0
210
0
220
0
230
1
0
LINE
5
9A
100
AcDbEntity
8
SK1
62
256
6
ByLayer
370
18
48
1
60
0
100
AcDbLine
10
-3.227261
20
-2.993537
30
0
11
-0.347908
21
-2.99381
31
0
39
0
210
0
220
0
230
1
0
LINE
5
9B
100
AcDbEntity
8
1
62
256
6
ByLayer
370
18
48
1
60
0
100
AcDbLine
10
24.900463
20
-2.988941
30
0
11
24.736315
21
-3.021808
31
0
39
0
210
0
220
0
230
1
0
LINE
5
9C
100
AcDbEntity
8
1
62
256
6
ByLayer
370
18
48
1
60
0
100
AcDbLine
10
24.900463
20
-2.988941
30
0
11
25.541445
21
-1.76112
31
0
39
0
210
0
220
0
230
1
0
LINE
5
9D
100
AcDbEntity
8
1
62
256
6
ByLayer
370
18
48
1
60
0
100
AcDbLine
10
9.173881
20
1.552301
30
0
11
8.479222
21
-6.183722
31
0
39
0
210
0
220
0
230
1
0
LINE
5
9E
100
AcDbEntity
8
1
62
256
6
ByLayer
370
18
48
1
60
0
100
AcDbLine
10
-0.343568
20
-13.407962
30
0
11
-0.343473
21
-12.151985
31
0
39
0
210
0
220
0
230
1
0
LINE
5
9F
100
AcDbEntity
8
1
62
256
6
ByLayer
370
18
48
1
60
0
100
AcDbLine
10
26.737209
20
1.343717
30
0
11
26.227062
21
-0.036666
31
0
39
0
210
0
220
0
230
1
0
LINE
5
A0
100
AcDbEntity
8
1
62
256
6
ByLayer
370
18
48
1
60
0
100
AcDbLine
10
19.661338
20
0.484229
30
0
11
19.729122
21
0.252354
31
0
39
0
210
0
220
0
230
1
0
LINE
5
A1
100
AcDbEntity
8
1
62
256
6
ByLayer
370
18
48
1
60
0
100
AcDbLine
10
24.736315
20
-3.021808
30
0
11
25.329224
21
-1.886073
31
0
39
0
210
0
220
0
230
1
0
LINE
5
A2
100
AcDbEntity
8
1
62
256
6
ByLayer
370
18
48
1
60
0
100
AcDbLine
10
9.443737
20
4.557538
30
0
11
9.414813
21
4.23543
31
0
39
0
210
0
220
0
230
1
0
LINE
5
A3
100
AcDbEntity
8
1
62
256
6
ByLayer
370
18
48
1
60
0
100
AcDbLine
10
-0.341963
20
-14.780073
30
0
11
-0.341888
21
-13.782515
31
0
39
0
210
0
220
0
230
1
0
LINE
5
A4
100
AcDbEntity
8
1
62
256
6
ByLayer
370
18
48
1
60
0
100
AcDbLine
10
0.329099
20
-17.339198
30
0
11
0.329113
21
-17.144371
31
0
39
0
210
0
220
0
230
1
0
LINE
5
A5
100
AcDbEntity
8
1
62
256
6
ByLayer
370
18
48
1
60
0
100
AcDbLine
10
-0.333704
20
-18.485367
30
0
11
-0.333681
21
-18.182948
31
0
39
0
210
0
220
0
230
1
0
LINE
5
A6
100
AcDbEntity
8
1
62
256
6
ByLayer
370
18
48
1
60
0
100
AcDbLine
10
-0.332018
20
-18.777214
30
0
11
-0.332002
21
-18.571701
31
0
39
0
210
0
220
0
230
1
0
LINE
5
A7
100
AcDbEntity
8
SK1
62
256
6
ByLayer
370
18
48
1
60
0
100
AcDbLine
10
-0.347457
20
3.00619
30
0
11
-3.226691
21
3.006463
31
0
39
0
210
0
220
0
230
1
0
LINE
5
A8
100
AcDbEntity
8
1
62
256
6
ByLayer
370
18
48
1
60
0
100
AcDbLine
10
19.661338
20
0.484229
30
0
11
25.541445
21
-1.76112
31
0
39
0
210
0
220
0
230
1
0
LINE
5
A9
100
AcDbEntity
8
1
62
256
6
ByLayer
370
18
48
1
60
0
100
AcDbLine
10
-0.345145
20
-11.673284
30
0
11
-0.345021
21
-10.021702
31
0
39
0
210
0
220
0
230
1
0
LINE
5
AA
100
AcDbEntity
8
1
62
256
6
ByLayer
370
18
48
1
60
0
100
AcDbLine
10
32.367546
20
0.421559
30
0
11
33.388439
21
0.031726
31
0
39
0
210
0
220
0
230
1
0
LINE
5
AB
100
AcDbEntity
8
1
62
256
6
ByLayer
370
18
48
1
60
0
100
AcDbLine
10
0.330752
20
-18.066739
30
0
11
0.330763
21
-17.910257
31
0
39
0
210
0
220
0
230
1
0
LINE
5
AC
100
AcDbEntity
8
1
62
256
6
ByLayer
370
18
48
1
60
0
100
AcDbLine
10
-0.335379
20
-18.063134
30
0
11
-0.335349
21
-17.656645
31
0
39
0
210
0
220
0
230
1
0
LINE
5
AD
100
AcDbEntity
8
1
62
256
6
ByLayer
370
18
48
1
60
0
100
AcDbLine
10
0.337468
20
-19.585717
30
0
11
0.337471
21
-19.551628
31
0
39
0
210
0
220
0
230
1
0
LINE
5
AE
100
AcDbEntity
8
1
62
256
6
ByLayer
370
18
48
1
60
0
100
AcDbLine
10
26.65201
20
-4.39407
30
0
11
16.627827
21
-0.566285
31
0
39
0
210
0
220
0
230
1
0
LINE
5
AF
100
AcDbEntity
8
SK1
62
256
6
ByLayer
370
18
48
1
60
0
100
AcDbLine
10
-3.226694
20
3.006463
30
0
11
-3.826726
21
2.660109
31
0
39
0
210
0
220
0
230
1
0
LINE
5
B0
100
AcDbEntity
8
1
62
256
6
ByLayer
370
18
48
1
60
0
100
AcDbLine
10
34.20987
20
5.425071
30
0
11
32.467779
21
0.722665
31
0
39
0
210
0
220
0
230
1
0
LINE
5
B1
100
AcDbEntity
8
1
62
256
6
ByLayer
370
18
48
1
60
0
100
AcDbLine
10
19.136213
20
-0.883381
30
0
11
19.729122
21
0.252354
31
0
39
0
210
0
220
0
230
1
0
LINE
5
B2
100
AcDbEntity
8
1
62
256
6
ByLayer
370
18
48
1
60
0
100
AcDbLine
10
-0.033864
20
-19.288799
30
0
11
0.671096
21
-19.993894
31
0
39
0
210
0
220
0
230
1
0
LINE
5
B3
100
AcDbEntity
8
1
62
256
6
ByLayer
370
18
48
1
60
0
100
AcDbLine
10
-0.348119
20
-5.806596
30
0
11
-0.347294
21
5.185342
31
0
39
0
210
0
220
0
230
1
0
LINE
5
B4
100
AcDbEntity
8
1
62
256
6
ByLayer
370
18
48
1
60
0
100
AcDbLine
10
31.809771
20
-1.084038
30
0
11
32.468378
21
0.693733
31
0
39
0
210
0
220
0
230
1
0
LINE
5
B5
100
AcDbEntity
8
1
62
256
6
ByLayer
370
18
48
1
60
0
100
AcDbLine
10
19.136213
20
-0.883381
30
0
11
24.736315
21
-3.021808
31
0
39
0
210
0
220
0
230
1
0
LINE
5
B6
100
AcDbEntity
8
1
62
256
6
ByLayer
370
18
48
1
60
0
100
AcDbLine
10
0.333433
20
17.628897
30
0
11
0.333446
21
17.797723
31
0
39
0
210
0
220
0
230
1
0
LINE
5
B7
100
AcDbEntity
8
1
62
256
6
ByLayer
370
18
48
1
60
0
100
AcDbLine
10
-0.343557
20
9.465797
30
0
11
-0.34343
21
11.156546
31
0
39
0
210
0
220
0
230
1
0
LINE
5
B8
100
AcDbEntity
8
1
62
256
6
ByLayer
370
18
48
1
60
0
100
AcDbLine
10
-0.339851
20
13.331125
30
0
11
-0.339773
21
14.367851
31
0
39
0
210
0
220
0
230
1
0
LINE
5
B9
100
AcDbEntity
8
1
62
256
6
ByLayer
370
18
48
1
60
0
100
AcDbLine
10
-0.338042
20
14.682029
30
0
11
-0.337979
21
15.526783
31
0
39
0
210
0
220
0
230
1
0
LINE
5
BA
100
AcDbEntity
8
1
62
256
6
ByLayer
370
18
48
1
60
0
100
AcDbLine
10
0.331664
20
16.810743
30
0
11
0.33168
21
17.017924
31
0
39
0
210
0
220
0
230
1
0
LINE
5
BB
100
AcDbEntity
8
1
62
256
6
ByLayer
370
18
48
1
60
0
100
AcDbLine
10
-0.330963
20
17.992849
30
0
11
-0.330937
21
18.334436
31
0
39
0
210
0
220
0
230
1
0
LINE
5
BC
100
AcDbEntity
8
1
62
256
6
ByLayer
370
18
48
1
60
0
100
AcDbLine
10
-0.329222
20
18.43386
30
0
11
-0.329204
21
18.678541
31
0
39
0
210
0
220
0
230
1
0
LINE
5
BD
100
AcDbEntity
8
1
62
256
6
ByLayer
370
18
48
1
60
0
100
AcDbLine
10
0.322526
20
8.821346
30
0
11
0.322575
21
9.471587
31
0
39
0
210
0
220
0
230
1
0
LINE
5
BE
100
AcDbEntity
8
1
62
256
6
ByLayer
370
18
48
1
60
0
100
AcDbLine
10
0.326264
20
13.122131
30
0
11
0.326293
21
13.498707
31
0
39
0
210
0
220
0
230
1
0
LINE
5
BF
100
AcDbEntity
8
1
62
256
6
ByLayer
370
18
48
1
60
0
100
AcDbLine
10
-0.336252
20
15.783928
30
0
11
-0.3362
21
16.474614
31
0
39
0
210
0
220
0
230
1
0
LINE
5
C0
100
AcDbEntity
8
1
62
256
6
ByLayer
370
18
48
1
60
0
100
AcDbLine
10
17.674296
20
11.739264
30
0
11
15.932205
21
7.036859
31
0
39
0
210
0
220
0
230
1
0
LINE
5
C1
100
AcDbEntity
8
1
62
256
6
ByLayer
370
18
48
1
60
0
100
AcDbLine
10
-0.334477
20
16.684638
30
0
11
-0.334434
21
17.244977
31
0
39
0
210
0
220
0
230
1
0
LINE
5
C2
100
AcDbEntity
8
1
62
256
6
ByLayer
370
18
48
1
60
0
100
AcDbLine
10
10.680078
20
18.325973
30
0
11
10.365036
21
14.817525
31
0
39
0
210
0
220
0
230
1
0
LINE
5
C3
100
AcDbEntity
8
1
62
256
6
ByLayer
370
18
48
1
60
0
100
AcDbLine
10
0.335191
20
18.291431
30
0
11
0.335201
21
18.426136
31
0
39
0
210
0
220
0
230
1
0
LINE
5
C4
100
AcDbEntity
8
1
62
256
6
ByLayer
370
18
48
1
60
0
100
AcDbLine
10
9.767893
20
8.408154
30
0
11
6.053158
21
8.408506
31
0
39
0
210
0
220
0
230
1
0
LINE
5
C5
100
AcDbEntity
8
1
62
256
6
ByLayer
370
18
48
1
60
0
100
AcDbLine
10
0.324418
20
11.268728
30
0
11
0.324453
21
11.74604
31
0
39
0
210
0
220
0
230
1
0
LINE
5
C6
100
AcDbEntity
8
1
62
256
6
ByLayer
370
18
48
1
60
0
100
AcDbLine
10
15.910744
20
7.01635
30
0
11
15.932205
21
7.036859
31
0
39
0
210
0
220
0
230
1
0
LINE
5
C7
100
AcDbEntity
8
1
62
256
6
ByLayer
370
18
48
1
60
0
100
AcDbLine
10
18.63607
20
18.645444
30
0
11
18.651797
21
18.470198
31
0
39
0
210
0
220
0
230
1
0
LINE
5
C8
100
AcDbEntity
8
1
62
256
6
ByLayer
370
18
48
1
60
0
100
AcDbLine
10
-0.345501
20
6.311828
30
0
11
-0.345315
21
8.79858
31
0
39
0
210
0
220
0
230
1
0
LINE
5
C9
100
AcDbEntity
8
1
62
256
6
ByLayer
370
18
48
1
60
0
100
AcDbLine
10
-0.332714
20
17.414287
30
0
11
-0.332681
21
17.859945
31
0
39
0
210
0
220
0
230
1
0
LINE
5
CA
100
AcDbEntity
8
1
62
256
6
ByLayer
370
18
48
1
60
0
100
AcDbLine
10
-0.341685
20
11.648337
30
0
11
-0.341588
21
12.943482
31
0
39
0
210
0
220
0
230
1
0
LINE
5
CB
100
AcDbEntity
8
1
62
256
6
ByLayer
370
18
48
1
60
0
100
AcDbLine
10
0.328083
20
14.603216
30
0
11
0.328106
21
14.909377
31
0
39
0
210
0
220
0
230
1
0
LINE
5
CC
100
AcDbEntity
8
1
62
256
6
ByLayer
370
18
48
1
60
0
100
AcDbLine
10
0.329882
20
15.813881
30
0
11
0.329901
21
16.065691
31
0
39
0
210
0
220
0
230
1
0
LINE
5
CD
100
AcDbEntity
8
1
62
256
6
ByLayer
370
18
48
1
60
0
100
AcDbLine
10
10.716157
20
20.005139
30
0
11
0.67492
21
20.006093
31
0
39
0
210
0
220
0
230
1
0
LINE
5
CE
100
AcDbEntity
8
1
62
256
6
ByLayer
370
18
48
1
60
0
100
AcDbLine
10
0.340403
20
19.479334
30
0
11
0.340406
21
19.525734
31
0
39
0
210
0
220
0
230
1
0
LINE
5
CF
100
AcDbEntity
8
1
62
256
6
ByLayer
370
18
48
1
60
0
100
AcDbLine
10
0.342122
20
19.632774
30
0
11
0.342123
21
19.653075
31
0
39
0
210
0
220
0
230
1
0
LINE
5
D0
100
AcDbEntity
8
1
62
256
6
ByLayer
370
18
48
1
60
0
100
AcDbLine
10
0.674894
20
20.00608
30
0
11
-0.108431
21
19.222902
31
0
39
0
210
0
220
0
230
1
0
LINE
5
D1
100
AcDbEntity
8
1
62
256
6
ByLayer
370
18
48
1
60
0
100
AcDbLine
10
-0.325769
20
18.936399
30
0
11
-0.325765
21
18.999114
31
0
39
0
210
0
220
0
230
1
0
LINE
5
D2
100
AcDbEntity
8
1
62
256
6
ByLayer
370
18
48
1
60
0
100
AcDbLine
10
13.046021
20
28.69709
30
0
11
10.716109
21
20.004959
31
0
39
0
210
0
220
0
230
1
0
LINE
5
D3
100
AcDbEntity
8
1
62
256
6
ByLayer
370
18
48
1
60
0
100
AcDbLine
10
0.336938
20
18.81406
30
0
11
0.336945
21
18.917564
31
0
39
0
210
0
220
0
230
1
0
LINE
5
D4
100
AcDbEntity
8
1
62
256
6
ByLayer
370
18
48
1
60
0
100
AcDbLine
10
0.338675
20
19.207596
30
0
11
0.33868
21
19.281898
31
0
39
0
210
0
220
0
230
1
0
LINE
5
D5
100
AcDbEntity
8
1
62
256
6
ByLayer
370
18
48
1
60
0
100
AcDbLine
10
22.213662
20
11.631122
30
0
11
21.954592
21
11.205215
31
0
39
0
210
0
220
0
230
1
0
LINE
5
D6
100
AcDbEntity
8
1
62
256
6
ByLayer
370
18
48
1
60
0
100
AcDbLine
10
34.66595
20
5.728078
30
0
11
34.666327
21
6.884225
31
0
39
0
210
0
220
0
230
1
0
LINE
5
D7
100
AcDbEntity
8
1
62
256
6
ByLayer
370
18
48
1
60
0
100
AcDbLine
10
24.795175
20
9.071907
30
0
11
25.09056
21
9.557514
31
0
39
0
210
0
220
0
230
1
0
LINE
5
D8
100
AcDbEntity
8
1
62
256
6
ByLayer
370
18
48
1
60
0
100
AcDbLine
10
26.253337
20
10.213388
30
0
11
26.559898
21
10.717368
31
0
39
0
210
0
220
0
230
1
0
LINE
5
D9
100
AcDbEntity
8
1
62
256
6
ByLayer
370
18
48
1
60
0
100
AcDbLine
10
25.717973
20
10.301334
30
0
11
26.029726
21
10.813849
31
0
39
0
210
0
220
0
230
1
0
LINE
5
DA
100
AcDbEntity
8
1
62
256
6
ByLayer
370
18
48
1
60
0
100
AcDbLine
10
37.700169
20
16.102693
30
0
11
37.754126
21
16.191397
31
0
39
0
210
0
220
0
230
1
0
LINE
5
DB
100
AcDbEntity
8
1
62
256
6
ByLayer
370
18
48
1
60
0
100
AcDbLine
10
27.628141
20
8.229488
30
0
11
27.934702
21
8.733467
31
0
39
0
210
0
220
0
230
1
0
LINE
5
DC
100
AcDbEntity
8
1
62
256
6
ByLayer
370
18
48
1
60
0
100
AcDbLine
10
28.021361
20
8.967386
30
0
11
27.714801
21
8.463407
31
0
39
0
210
0
220
0
230
1
0
LINE
5
DD
100
AcDbEntity
8
1
62
256
6
ByLayer
370
18
48
1
60
0
100
AcDbLine
10
27.807274
20
9.503523
30
0
11
28.119027
21
10.016039
31
0
39
0
210
0
220
0
230
1
0
LINE
5
DE
100
AcDbEntity
8
1
62
256
6
ByLayer
370
18
48
1
60
0
100
AcDbLine
10
38.004691
20
16.122082
30
0
11
35.647835
21
15.972015
31
0
39
0
210
0
220
0
230
1
0
LINE
5
DF
100
AcDbEntity
8
1
62
256
6
ByLayer
370
18
48
1
60
0
100
AcDbLine
10
27.654083
20
10.299547
30
0
11
27.347523
21
9.795568
31
0
39
0
210
0
220
0
230
1
0
LINE
5
E0
100
AcDbEntity
8
1
62
256
6
ByLayer
370
18
48
1
60
0
100
AcDbLine
10
26.471405
20
10.403
30
0
11
26.783158
21
10.915515
31
0
39
0
210
0
220
0
230
1
0
LINE
5
E1
100
AcDbEntity
8
1
62
256
6
ByLayer
370
18
48
1
60
0
100
AcDbLine
10
21.129236
20
9.542811
30
0
11
21.871695
21
11.546922
31
0
39
0
210
0
220
0
230
1
0
LINE
5
E2
100
AcDbEntity
8
1
62
256
6
ByLayer
370
18
48
1
60
0
100
AcDbLine
10
27.309425
20
10.099657
30
0
11
27.621178
21
10.612172
31
0
39
0
210
0
220
0
230
1
0
LINE
5
E3
100
AcDbEntity
8
1
62
256
6
ByLayer
370
18
48
1
60
0
100
AcDbLine
10
38.004691
20
16.122082
30
0
11
38.061974
21
16.070136
31
0
39
0
210
0
220
0
230
1
0
LINE
5
E4
100
AcDbEntity
8
1
62
256
6
ByLayer
370
18
48
1
60
0
100
AcDbLine
10
38.029141
20
15.688892
30
0
11
38.667092
21
16.73767
31
0
39
0
210
0
220
0
230
1
0
LINE
5
E5
100
AcDbEntity
8
1
62
256
6
ByLayer
370
18
48
1
60
0
100
AcDbLine
10
31.485203
20
7.875955
30
0
11
30.742744
21
5.871844
31
0
39
0
210
0
220
0
230
1
0
LINE
5
E6
100
AcDbEntity
8
1
62
256
6
ByLayer
370
18
48
1
60
0
100
AcDbLine
10
25.332277
20
9.727216
30
0
11
25.025717
21
9.223237
31
0
39
0
210
0
220
0
230
1
0
LINE
5
E7
100
AcDbEntity
8
1
62
256
6
ByLayer
370
18
48
1
60
0
100
AcDbLine
10
30.498154
20
6.008337
30
0
11
30.757224
21
6.434243
31
0
39
0
210
0
220
0
230
1
0
LINE
5
E8
100
AcDbEntity
8
1
62
256
6
ByLayer
370
18
48
1
60
0
100
AcDbLine
10
35.649074
20
15.916501
30
0
11
38.061974
21
16.070136
31
0
39
0
210
0
220
0
230
1
0
LINE
5
E9
100
AcDbEntity
8
1
62
256
6
ByLayer
370
18
48
1
60
0
100
AcDbLine
10
26.580865
20
7.796159
30
0
11
26.55457
21
7.75293
31
0
39
0
210
0
220
0
230
1
0
LINE
5
EA
100
AcDbEntity
8
1
62
256
6
ByLayer
370
18
48
1
60
0
100
AcDbLine
10
27.698154
20
7.930231
30
0
11
28.009907
21
8.442746
31
0
39
0
210
0
220
0
230
1
0
LINE
5
EB
100
AcDbEntity
8
1
62
256
6
ByLayer
370
18
48
1
60
0
100
AcDbLine
10
26.309541
20
10.679462
30
0
11
26.002981
21
10.175483
31
0
39
0
210
0
220
0
230
1
0
LINE
5
EC
100
AcDbEntity
8
1
62
256
6
ByLayer
370
18
48
1
60
0
100
AcDbLine
10
35.645935
20
16.057163
30
0
11
37.754126
21
16.191397
31
0
39
0
210
0
220
0
230
1
0
LINE
5
ED
100
AcDbEntity
8
1
62
256
6
ByLayer
370
18
48
1
60
0
100
AcDbLine
10
31.485203
20
7.875955
30
0
11
31.334592
21
7.587454
31
0
39
0
210
0
220
0
230
1
0
LINE
5
EE
100
AcDbEntity
8
1
62
256
6
ByLayer
370
18
48
1
60
0
100
AcDbLine
10
26.558135
20
7.758285
30
0
11
26.572891
21
7.782544
31
0
39
0
210
0
220
0
230
1
0
LINE
5
EF
100
AcDbEntity
8
1
62
256
6
ByLayer
370
18
48
1
60
0
100
AcDbLine
10
27.51122
20
9.599554
30
0
11
27.817781
21
10.103534
31
0
39
0
210
0
220
0
230
1
0
LINE
5
F0
100
AcDbEntity
8
1
62
256
6
ByLayer
370
18
48
1
60
0
100
AcDbLine
10
23.348573
20
22.135365
30
0
11
23.246984
21
22.235719
31
0
39
0
210
0
220
0
230
1
0
LINE
5
F1
100
AcDbEntity
8
1
62
256
6
ByLayer
370
18
48
1
60
0
100
AcDbLine
10
22.667943
20
21.163744
30
0
11
22.535142
21
19.645828
31
0
39
0
210
0
220
0
230
1
0
LINE
5
F2
100
AcDbEntity
8
1
62
256
6
ByLayer
370
18
48
1
60
0
100
AcDbLine
10
23.246984
20
22.235719
30
0
11
23.984029
21
30.250364
31
0
39
0
210
0
220
0
230
1
0
LINE
5
F3
100
AcDbEntity
8
1
62
256
6
ByLayer
370
18
48
1
60
0
100
AcDbLine
10
20.119391
20
19.775503
30
0
11
21.814169
21
19.883414
31
0
39
0
210
0
220
0
230
1
0
LINE
5
F4
100
AcDbEntity
8
1
62
256
6
ByLayer
370
18
48
1
60
0
100
AcDbLine
10
38.71302
20
31.872589
30
0
11
25.164018
21
31.00989
31
0
39
0
210
0
220
0
230
1
0
LINE
5
F5
100
AcDbEntity
8
1
62
256
6
ByLayer
370
18
48
1
60
0
100
AcDbLine
10
24.251053
20
30.463617
30
0
11
24.067509
21
30.161875
31
0
39
0
210
0
220
0
230
1
0
LINE
5
F6
100
AcDbEntity
8
1
62
256
6
ByLayer
370
18
48
1
60
0
100
AcDbLine
10
24.090551
20
29.973155
30
0
11
23.256945
21
20.444986
31
0
39
0
210
0
220
0
230
1
0
LINE
5
F7
100
AcDbEntity
8
1
62
256
6
ByLayer
370
18
48
1
60
0
100
AcDbLine
10
22.329061
20
20.679978
30
0
11
23.348573
21
22.135365
31
0
39
0
210
0
220
0
230
1
0
LINE
5
F8
100
AcDbEntity
8
1
62
256
6
ByLayer
370
18
48
1
60
0
100
AcDbLine
10
20.114576
20
19.599181
30
0
11
21.925193
21
19.714468
31
0
39
0
210
0
220
0
230
1
0
LINE
5
F9
100
AcDbEntity
8
1
62
256
6
ByLayer
370
18
48
1
60
0
100
AcDbLine
10
21.655159
20
22.134364
30
0
11
23.246984
21
22.235719
31
0
39
0
210
0
220
0
230
1
0
LINE
5
FA
100
AcDbEntity
8
1
62
256
6
ByLayer
370
18
48
1
60
0
100
AcDbLine
10
24.085003
20
30.143331
30
0
11
23.984029
21
30.250364
31
0
39
0
210
0
220
0
230
1
0
LINE
5
FB
100
AcDbEntity
8
1
62
256
6
ByLayer
370
18
48
1
60
0
100
AcDbLine
10
22.364504
20
20.675114
30
0
11
22.329061
21
20.679978
31
0
39
0
210
0
220
0
230
1
0
LINE
5
FC
100
AcDbEntity
8
1
62
256
6
ByLayer
370
18
48
1
60
0
100
AcDbLine
10
20.114576
20
19.599181
30
0
11
20.119391
21
19.775503
31
0
39
0
210
0
220
0
230
1
0
LINE
5
FD
100
AcDbEntity
8
1
62
256
6
ByLayer
370
18
48
1
60
0
100
AcDbLine
10
29.483837
20
25.695058
30
0
11
28.679498
21
25.401955
31
0
39
0
210
0
220
0
230
1
0
LINE
5
FE
100
AcDbEntity
8
1
62
256
6
ByLayer
370
18
48
1
60
0
100
AcDbLine
10
20.119391
20
19.775503
30
0
11
21.655159
21
22.134364
31
0
39
0
210
0
220
0
230
1
0
LINE
5
FF
100
AcDbEntity
8
1
62
256
6
ByLayer
370
18
48
1
60
0
100
AcDbLine
10
23.348573
20
22.135365
30
0
11
24.085003
21
30.143331
31
0
39
0
210
0
220
0
230
1
0
LINE
5
100
100
AcDbEntity
8
1
62
256
6
ByLayer
370
18
48
1
60
0
100
AcDbLine
10
22.535142
20
19.645828
30
0
11
22.667943
21
21.163744
31
0
39
0
210
0
220
0
230
1
0
LINE
5
101
100
AcDbEntity
8
1
62
256
6
ByLayer
370
18
48
1
60
0
100
AcDbLine
10
22.364504
20
20.675114
30
0
11
22.370375
21
20.738956
31
0
39
0
210
0
220
0
230
1
0
LINE
5
102
100
AcDbEntity
8
1
62
256
6
ByLayer
370
18
48
1
60
0
100
AcDbLine
10
24.090551
20
29.973155
30
0
11
23.329155
21
28.721434
31
0
39
0
210
0
220
0
230
1
0
LINE
5
103
100
AcDbEntity
8
1
62
256
6
ByLayer
370
18
48
1
60
0
100
AcDbLine
10
31.730774
20
23.728915
30
0
11
32.542128
21
26.430928
31
0
39
0
210
0
220
0
230
1
0
LINE
5
104
100
AcDbEntity
8
1
62
256
6
ByLayer
370
18
48
1
60
0
100
AcDbLine
10
22.364504
20
20.675114
30
0
11
22.368961
21
20.675397
31
0
39
0
210
0
220
0
230
1
0
LINE
5
105
100
AcDbEntity
8
1
62
256
6
ByLayer
370
18
48
1
60
0
100
AcDbLine
10
21.926122
20
19.72509
30
0
11
21.814169
21
19.883414
31
0
39
0
210
0
220
0
230
1
0
LINE
5
106
100
AcDbEntity
8
1
62
256
6
ByLayer
370
18
48
1
60
0
100
AcDbLine
10
21.846677
20
18.817029
30
0
11
21.957929
21
20.088636
31
0
39
0
210
0
220
0
230
1
0
LINE
5
107
100
AcDbEntity
8
1
62
256
6
ByLayer
370
18
48
1
60
0
100
AcDbLine
10
22.375475
20
20.746237
30
0
11
22.368961
21
20.675397
31
0
39
0
210
0
220
0
230
1
0
LINE
5
108
100
AcDbEntity
8
1
62
256
6
ByLayer
370
18
48
1
60
0
100
AcDbLine
10
23.329155
20
28.721434
30
0
11
23.300792
21
28.39724
31
0
39
0
210
0
220
0
230
1
0
LINE
5
109
100
AcDbEntity
8
1
62
256
6
ByLayer
370
18
48
1
60
0
100
AcDbLine
10
21.814169
20
19.883414
30
0
11
22.368961
21
20.675397
31
0
39
0
210
0
220
0
230
1
0
LINE
5
10A
100
AcDbEntity
8
1
62
256
6
ByLayer
370
18
48
1
60
0
100
AcDbLine
10
34.727299
20
23.092353
30
0
11
34.312433
21
23.851234
31
0
39
0
210
0
220
0
230
1
0
LINE
5
10B
100
AcDbEntity
8
1
62
256
6
ByLayer
370
18
48
1
60
0
100
AcDbLine
10
12.163502
20
24.80301
30
0
11
11.235705
21
14.470664
31
0
39
0
210
0
220
0
230
1
0
LINE
5
10C
100
AcDbEntity
8
1
62
256
6
ByLayer
370
18
48
1
60
0
100
AcDbLine
10
13.363225
20
29.560016
30
0
11
23.984029
21
30.250364
31
0
39
0
210
0
220
0
230
1
0
LINE
5
10D
100
AcDbEntity
8
1
62
256
6
ByLayer
370
18
48
1
60
0
100
AcDbLine
10
-0.327491
20
18.746435
30
0
11
-0.32748
21
18.898834
31
0
39
0
210
0
220
0
230
1
0
LINE
5
10E
100
AcDbEntity
8
1
62
256
6
ByLayer
370
18
48
1
60
0
100
AcDbLine
10
38.827593
20
17.228132
30
0
11
39.995633
21
30.578883
31
0
39
0
210
0
220
0
230
1
0
LINE
5
10F
100
AcDbEntity
8
1
62
256
6
ByLayer
370
18
48
1
60
0
100
AcDbLine
10
30.742744
20
5.871844
30
0
11
30.598303
21
5.595163
31
0
39
0
210
0
220
0
230
1
0
LINE
5
110
100
AcDbEntity
8
1
62
256
6
ByLayer
370
18
48
1
60
0
100
AcDbLine
10
6.053158
20
8.408506
30
0
11
6.051848
21
-9.024444
31
0
39
0
210
0
220
0
230
1
0
LINE
5
111
100
AcDbEntity
8
1
62
256
6
ByLayer
370
18
48
1
60
0
100
AcDbLine
10
30.598303
20
5.595163
30
0
11
31.334592
21
7.587454
31
0
39
0
210
0
220
0
230
1
0
LINE
5
112
100
AcDbEntity
8
1
62
256
6
ByLayer
370
18
48
1
60
0
100
AcDbLine
10
9.767893
20
8.408154
30
0
11
8.213385
21
-9.024649
31
0
39
0
210
0
220
0
230
1
0
LINE
5
113
100
AcDbEntity
8
1
62
256
6
ByLayer
370
18
48
1
60
0
100
AcDbLine
10
15.910744
20
7.01635
30
0
11
14.841568
21
4.482423
31
0
39
0
210
0
220
0
230
1
0
LINE
5
114
100
AcDbEntity
8
1
62
256
6
ByLayer
370
18
48
1
60
0
100
AcDbLine
10
29.629486
20
-1.879831
30
0
11
32.92236
21
7.008582
31
0
39
0
210
0
220
0
230
1
0
LINE
5
115
100
AcDbEntity
8
1
62
256
6
ByLayer
370
18
48
1
60
0
100
AcDbLine
10
15.910744
20
7.01635
30
0
11
15.252136
21
5.238579
31
0
39
0
210
0
220
0
230
1
0
LINE
5
116
100
AcDbEntity
8
1
62
256
6
ByLayer
370
18
48
1
60
0
100
AcDbLine
10
5.651459
20
-8.152076
30
0
11
5.652636
21
7.522279
31
0
39
0
210
0
220
0
230
1
0
LINE
5
117
100
AcDbEntity
8
1
62
256
6
ByLayer
370
18
48
1
60
0
100
AcDbLine
10
0.320534
20
5.028421
30
0
11
0.320618
21
6.152508
31
0
39
0
210
0
220
0
230
1
0
LINE
5
118
100
AcDbEntity
8
1
62
256
6
ByLayer
370
18
48
1
60
0
100
AcDbLine
10
38.061974
20
16.070136
30
0
11
36.253162
21
-4.932705
31
0
39
0
210
0
220
0
230
1
0
LINE
5
119
100
AcDbEntity
8
1
62
256
6
ByLayer
370
18
48
1
60
0
100
AcDbLine
10
16.746877
20
3.039459
30
0
11
20.039751
21
11.927872
31
0
39
0
210
0
220
0
230
1
0
LINE
5
11A
100
AcDbEntity
8
4
62
256
6
ByLayer
370
18
48
0.05
60
0
100
AcDbLine
10
0
20
0
30
0
11
40
21
0
31
0
39
0
210
0
220
0
230
1
0
LINE
5
11C
100
AcDbEntity
8
SK4
62
256
6
ByLayer
370
18
48
0.05
60
0
100
AcDbLine
10
-5
20
0
30
0
11
45
21
0
31
0
39
0
210
0
220
0
230
1
0
LINE
5
11E
100
AcDbEntity
8
80
62
256
6
ByLayer
370
18
48
1
60
0
100
AcDbLine
10
0
20
0
30
0
11
-4
21
0
31
0
39
0
210
0
220
0
230
1
0
LINE
5
11F
100
AcDbEntity
8
81
62
256
6
ByLayer
370
18
48
1
60
0
100
AcDbLine
10
40
20
32
30
0
11
44
21
32
31
0
39
0
210
0
220
0
230
1
0
MTEXT
5
287
100
AcDbEntity
8
SK6
62
256
6
ByLayer
370
13
48
1
60
0
100
AcDbMText
10
-6.04526
20
-46.66677
30
0
210
0
220
0
230
1
1
\W1.0687;570-DCLNR-40-16-L
40
3.175
41
0
44
0.903614
50
0
71
7
72
5
7
blockfont
0
DIMENSION
5
295
100
AcDbEntity
8
2
62
256
6
ByLayer
370
13
48
1
60
0
100
AcDbDimension
2
DimnDraft3D1
10
32
20
-68.868668
30
0
11
12.361458
21
-68.868668
31
0
70
32
71
5
72
1
41
1
210
0
220
0
230
1
3
Standard
100
AcDbAlignedDimension
13
0
23
-46.5875
33
0
14
32
24
-45.5875
34
0
50
0
100
AcDbRotatedDimension
1001
ACAD
1000
DSTYLE
1002
{
1070
   279
1070
     0
1070
   173
1070
     1
1070
   340
1005
288
1070
   271
1070
     3
1070
   272
1070
     3
1070
    77
1070
     1
1070
    73
1070
     0
1070
   171
1070
     4
1070
   274
1070
     4
1070
   177
1070
     7
1070
   176
1070
     7
1070
   178
1070
     7
1070
    78
1070
     8
1070
    48
1040
-0.005
1070
    41
1041
3.175
1070
   147
1041
1.75
1070
    42
1041
1.5875
1070
    44
1041
3.175
1070
   140
1041
3.5
1070
   343
1005
0
1070
   344
1005
0
1002
}
0
DIMENSION
5
2A1
100
AcDbEntity
8
SK2
62
256
6
ByLayer
370
13
48
1
60
0
100
AcDbDimension
2
DimnDraft3D2
10
-10.477142
20
20.007152
30
0
11
-9.928798
21
2.568579
31
0
70
33
71
5
72
1
41
1
210
0
220
0
230
1
3
Standard
100
AcDbAlignedDimension
13
-0.916378
23
-19.993756
33
0
14
-0.91258
24
20.006244
34
0
1001
ACAD
1000
DSTYLE
1002
{
1070
   279
1070
     0
1070
    74
1070
     0
1070
   173
1070
     1
1070
   340
1005
288
1070
   271
1070
     3
1070
   272
1070
     3
1070
    77
1070
     1
1070
    73
1070
     0
1070
   171
1070
     4
1070
   274
1070
     4
1070
   177
1070
     7
1070
   176
1070
     7
1070
   178
1070
     7
1070
    78
1070
     8
1070
    48
1040
-0.005
1070
    41
1041
3.175
1070
   147
1041
1.75
1070
    42
1041
1.5875
1070
    44
1041
3.175
1070
   140
1041
3.5
1070
   343
1005
0
1070
   344
1005
0
1002
}
0
DIMENSION
5
2AB
100
AcDbEntity
8
SK2
62
256
6
ByLayer
370
13
48
1
60
0
100
AcDbDimension
2
DimnDraft3D3
10
44
20
32
30
0
11
21.705157
21
-49.55345
31
0
70
34
71
5
72
1
41
1
210
0
220
0
230
1
3
Standard
100
AcDb2LineAngularDimension
13
38.827593
23
17.228132
33
0
14
39.995633
24
30.578883
34
0
15
40
25
32
35
0
16
19.124687
26
-51.918015
36
0
40
0
0
DIMENSION
5
2B5
100
AcDbEntity
8
2
62
256
6
ByLayer
370
13
48
1
60
0
100
AcDbDimension
2
DimnDraft3D4
10
40
20
44.764051
30
0
11
16.361458
21
44.764051
31
0
70
32
71
5
72
1
41
1
210
0
220
0
230
1
3
Standard
100
AcDbAlignedDimension
13
0
23
1.5875
33
0
14
40
24
33.5875
34
0
50
0
100
AcDbRotatedDimension
1001
ACAD
1000
DSTYLE
1002
{
1070
   279
1070
     0
1070
   173
1070
     1
1070
   340
1005
288
1070
   271
1070
     3
1070
   272
1070
     3
1070
    77
1070
     1
1070
    73
1070
     0
1070
   171
1070
     4
1070
   274
1070
     4
1070
   177
1070
     7
1070
   176
1070
     7
1070
   178
1070
     7
1070
    78
1070
     8
1070
    48
1040
-0.005
1070
    41
1041
3.175
1070
   147
1041
1.75
1070
    42
1041
1.5875
1070
    44
1041
3.175
1070
   140
1041
3.5
1070
   343
1005
0
1070
   344
1005
0
1002
}
0
ENDSEC
0
SECTION
2
OBJECTS
0
DICTIONARY
5
320
330
0
100
AcDbDictionary
280
0
281
1
3
ACAD_GROUP
350
321
3
ACAD_MLINESTYLE
350
322
0
DICTIONARY
5
321
330
0
100
AcDbDictionary
280
0
281
1
0
DICTIONARY
5
322
330
0
100
AcDbDictionary
280
0
281
1
3
Standard
350
18
0
MLINESTYLE
5
18
330
322
100
AcDbMlineStyle
2
Standard
70
0
3

62
256
51
90
52
90
71
2
49
-0.5
62
256
6
ByLayer
49
0.5
62
256
6
ByLayer
0
RASTERVARIABLES
5
30e
330

100
AcDbRasterVariables
90
0
70
1
71
1
72
1
0
ENDSEC
0
EOF
