0
SECTION
2
HEADER
9
$ACADVER
1
AC1015
9
$DWGCODEPAGE
3
ANSI_1252
9
$HANDSEED
5
288
9
$ANGBASE
50
0
9
$ANGDIR
70
0
9
$ATTMODE
70
1
9
$AUNITS
70
0
9
$AUPREC
70
0
9
$CECOLOR
62
256
9
$CELTSCALE
40
1
9
$CELTYPE
6
ByLayer
9
$CELWEIGHT
370
18
9
$CLAYER
8
0
9
$CMLJUST
70
0
9
$CMLSCALE
40
1
9
$CMLSTYLE
2
Standard
9
$DIMSTYLE
2
Standard
9
$TEXTSIZE
40
0.2
9
$TEXTSTYLE
7
Standard
9
$LUNITS
70
2
9
$LUPREC
70
4
9
$EXTNAMES
290
1
9
$INSUNITS
70
4
9
$LTSCALE
40
1
9
$LWDISPLAY
290
1
9
$PDMODE
70
0
9
$PDSIZE
40
0
9
$PLINEGEN
70
0
0
ENDSEC
0
SECTION
2
CLASSES
0
CLASS
1
RASTERVARIABLES
2
AcDbRasterVariables
3
ISM
90
0
280
0
281
0
0
ENDSEC
0
SECTION
2
TABLES
0
TABLE
2
VPORT
5
27e
100
AcDbSymbolTable
0
VPORT
5
1
100
AcDbSymbolTableRecord
100
AcDbViewportTableRecord
2
*Active
70
0
10
0
20
0
11
1
21
1
12
-1
22
1
13
0
23
0
14
0.5
24
0.5
15
10
25
10
16
0
26
0
36
1
17
0
27
0
37
0
0
ENDTAB
0
TABLE
2
LTYPE
5
27f
100
AcDbSymbolTable
0
LTYPE
5
14
100
AcDbSymbolTableRecord
100
AcDbLinetypeTableRecord
70
0
2
ByBlock
3

72
65
73
0
40
0
0
LTYPE
5
15
100
AcDbSymbolTableRecord
100
AcDbLinetypeTableRecord
70
0
2
ByLayer
3

72
65
73
0
40
0
0
LTYPE
5
16
100
AcDbSymbolTableRecord
100
AcDbLinetypeTableRecord
70
0
2
CONTINUOUS
3
Solid line
72
65
73
0
40
0
0
LTYPE
5
6A
100
AcDbSymbolTableRecord
100
AcDbLinetypeTableRecord
70
0
2
CENTER
3
____ _ ____ _ ____ _ ____
72
65
73
4
40
47.5
49
22
74
0
49
-8.5
74
0
49
8.5
74
0
49
-8.5
74
0
0
LTYPE
5
6B
100
AcDbSymbolTableRecord
100
AcDbLinetypeTableRecord
70
0
2
DASHED
3
__ __ __ __ __ __ __ __ __
72
65
73
2
40
25.72
49
12.86
74
0
49
-12.86
74
0
0
ENDTAB
0
TABLE
2
LAYER
5
280
100
AcDbSymbolTable
0
LAYER
5
10
100
AcDbSymbolTableRecord
100
AcDbLayerTableRecord
2
0
70
0
62
7
6
CONTINUOUS
290
1
370
-3
390
0
0
LAYER
5
6D
100
AcDbSymbolTableRecord
100
AcDbLayerTableRecord
2
80
70
0
62
-6
6
CONTINUOUS
290
1
370
-3
390
0
0
LAYER
5
6F
100
AcDbSymbolTableRecord
100
AcDbLayerTableRecord
2
81
70
0
62
-3
6
CONTINUOUS
290
1
370
-3
390
0
0
LAYER
5
72
100
AcDbSymbolTableRecord
100
AcDbLayerTableRecord
2
4
70
0
62
-2
6
CENTER
290
1
370
-3
390
0
0
LAYER
5
7E
100
AcDbSymbolTableRecord
100
AcDbLayerTableRecord
2
1
70
0
62
4
6
CONTINUOUS
290
1
370
-3
390
0
0
LAYER
5
1DD
100
AcDbSymbolTableRecord
100
AcDbLayerTableRecord
2
2
70
0
62
7
6
CONTINUOUS
290
1
370
-3
390
0
0
LAYER
5
26a
100
AcDbSymbolTableRecord
100
AcDbLayerTableRecord
2
SK4
70
0
62
2
6
CENTER
290
1
370
-3
390
0
0
LAYER
5
26b
100
AcDbSymbolTableRecord
100
AcDbLayerTableRecord
2
SK1
70
0
62
4
6
CONTINUOUS
290
1
370
-3
390
0
0
LAYER
5
26c
100
AcDbSymbolTableRecord
100
AcDbLayerTableRecord
2
SK6
70
0
62
5
6
CONTINUOUS
290
1
370
-3
390
0
0
LAYER
5
26d
100
AcDbSymbolTableRecord
100
AcDbLayerTableRecord
2
SK2
70
0
62
7
6
CONTINUOUS
290
1
370
-3
390
0
0
ENDTAB
0
TABLE
2
STYLE
5
281
100
AcDbSymbolTable
0
STYLE
5
11
100
AcDbSymbolTableRecord
100
AcDbTextStyleTableRecord
2
Standard
3
txt
70
0
71
0
40
0
41
1
42
0
50
0
0
STYLE
5
1D8
100
AcDbSymbolTableRecord
100
AcDbTextStyleTableRecord
2
iso_b_vert
3
simplex.shx
70
0
71
0
40
0
41
1
42
0
50
0
0
STYLE
5
1D9
100
AcDbSymbolTableRecord
100
AcDbTextStyleTableRecord
2
DWGDirectTextStyle
3
simplex
70
0
71
0
40
0
41
1
42
0
50
0
0
ENDTAB
0
TABLE
2
DIMSTYLE
5
282
100
AcDbSymbolTable
100
AcDbDimStyleTable
0
DIMSTYLE
105
27
100
AcDbSymbolTableRecord
100
AcDbDimStyleTableRecord
2
Standard
70
0
3
<>
41
0.18
42
0.0625
44
0.18
140
0.18
147
0.09
73
0
74
0
77
1
271
2
275
0
278
52
280
0
340
11
0
ENDTAB
0
TABLE
2
VIEW
5
283
100
AcDbSymbolTable
0
ENDTAB
0
TABLE
2
UCS
5
284
100
AcDbSymbolTable
0
ENDTAB
0
TABLE
2
APPID
5
285
100
AcDbSymbolTable
0
APPID
5
12
100
AcDbSymbolTableRecord
100
AcDbRegAppTableRecord
2
ACAD
70
0
0
ENDTAB
0
TABLE
2
BLOCK_RECORD
5
286
100
AcDbSymbolTable
0
BLOCK_RECORD
5
1F
100
AcDbSymbolTableRecord
100
AcDbBlockTableRecord
2
*Model_Space
340
0
70
0
0
BLOCK_RECORD
5
1B
100
AcDbSymbolTableRecord
100
AcDbBlockTableRecord
2
*Paper_Space
340
0
70
0
0
BLOCK_RECORD
5
23
100
AcDbSymbolTableRecord
100
AcDbBlockTableRecord
2
*Paper_Space0
340
0
70
0
0
BLOCK_RECORD
5
1DB
100
AcDbSymbolTableRecord
100
AcDbBlockTableRecord
2
DimnDraft3D1
340
0
70
0
0
BLOCK_RECORD
5
1E6
100
AcDbSymbolTableRecord
100
AcDbBlockTableRecord
2
DimnDraft3D2
340
0
70
0
0
BLOCK_RECORD
5
1F1
100
AcDbSymbolTableRecord
100
AcDbBlockTableRecord
2
DimnDraft3D3
340
0
70
0
0
BLOCK_RECORD
5
1FD
100
AcDbSymbolTableRecord
100
AcDbBlockTableRecord
2
DimnDraft3D44
340
0
70
0
0
BLOCK_RECORD
5
207
100
AcDbSymbolTableRecord
100
AcDbBlockTableRecord
2
DimnDraft3D5
340
0
70
0
0
ENDTAB
0
ENDSEC
0
SECTION
2
BLOCKS
0
BLOCK
5
20
100
AcDbEntity
8
0
100
AcDbBlockBegin
2
*Model_Space
70
0
10
0
20
0
30
0
3
*Model_Space
0
ENDBLK
5
21
100
AcDbEntity
8
0
100
AcDbBlockEnd
0
BLOCK
5
1C
100
AcDbEntity
8
0
100
AcDbBlockBegin
2
*Paper_Space
70
0
10
0
20
0
30
0
3
*Paper_Space
0
ENDBLK
5
1D
100
AcDbEntity
8
0
100
AcDbBlockEnd
0
BLOCK
5
24
100
AcDbEntity
8
0
100
AcDbBlockBegin
2
*Paper_Space0
70
0
10
0
20
0
30
0
3
*Paper_Space0
0
ENDBLK
5
25
100
AcDbEntity
8
0
100
AcDbBlockEnd
0
BLOCK
5
1E3
100
AcDbEntity
8
0
100
AcDbBlockBegin
2
DimnDraft3D1
70
0
10
0
20
0
30
0
3
DimnDraft3D1
0
MTEXT
5
1DC
100
AcDbEntity
8
2
62
256
6
ByLayer
370
13
48
1
60
0
100
AcDbMText
10
7.79398
20
59.460561
30
0
210
0
220
0
230
1
1
\W0.5321;17
40
3.175
41
0
44
1.084337
50
0
71
7
72
5
7
iso_b_vert
0
LINE
5
1DE
100
AcDbEntity
8
2
62
256
6
ByLayer
370
13
48
1
60
0
100
AcDbLine
10
0
20
1.5875
30
0
11
0
21
61.841811
31
0
39
0
210
0
220
0
230
1
0
LINE
5
1DF
100
AcDbEntity
8
2
62
256
6
ByLayer
370
13
48
1
60
0
100
AcDbLine
10
17
20
1.5875
30
0
11
17
21
61.841811
31
0
39
0
210
0
220
0
230
1
0
LINE
5
1E0
100
AcDbEntity
8
2
62
256
6
ByLayer
370
13
48
1
60
0
100
AcDbLine
10
0
20
58.666811
30
0
11
17
21
58.666811
31
0
39
0
210
0
220
0
230
1
0
SOLID
5
1E1
100
AcDbEntity
8
2
62
256
6
ByLayer
370
13
48
1
60
0
100
AcDbTrace
10
0
20
58.666811
30
0
11
3.174998
21
59.084807
31
0
12
3.175002
22
58.248814
32
0
13
0
23
58.666811
33
0
39
0
210
0
220
0
230
1
0
SOLID
5
1E2
100
AcDbEntity
8
2
62
256
6
ByLayer
370
13
48
1
60
0
100
AcDbTrace
10
17
20
58.666811
30
0
11
13.825002
21
58.248814
31
0
12
13.824998
22
59.084807
32
0
13
17
23
58.666811
33
0
39
0
210
0
220
0
230
1
0
ENDBLK
5
1E4
100
AcDbEntity
8
0
100
AcDbBlockEnd
0
BLOCK
5
1EE
100
AcDbEntity
8
0
100
AcDbBlockBegin
2
DimnDraft3D2
70
0
10
0
20
0
30
0
3
DimnDraft3D2
0
MTEXT
5
1E7
100
AcDbEntity
8
2
62
256
6
ByLayer
370
13
48
1
60
0
100
AcDbMText
10
48.776821
20
3.26273
30
0
210
0
220
0
230
1
1
\W0.6740;80
40
3.175
41
0
44
1.084337
50
90
71
7
72
5
7
iso_b_vert
0
MTEXT
5
1E8
100
AcDbEntity
8
2
62
256
6
ByLayer
370
13
48
1
60
0
100
AcDbMText
10
48.776821
20
-3.856215
30
0
210
0
220
0
230
1
1
%%c
40
3.175
41
0
44
1.084337
50
90
71
7
72
5
7
iso_b_vert
0
LINE
5
1E9
100
AcDbEntity
8
2
62
256
6
ByLayer
370
13
48
1
60
0
100
AcDbLine
10
17.781593
20
40
30
0
11
53.539321
21
40
31
0
39
0
210
0
220
0
230
1
0
LINE
5
1EA
100
AcDbEntity
8
2
62
256
6
ByLayer
370
13
48
1
60
0
100
AcDbLine
10
14.9125
20
-40
30
0
11
53.539321
21
-40
31
0
39
0
210
0
220
0
230
1
0
LINE
5
1EB
100
AcDbEntity
8
2
62
256
6
ByLayer
370
13
48
1
60
0
100
AcDbLine
10
50.364321
20
40
30
0
11
50.364321
21
-40
31
0
39
0
210
0
220
0
230
1
0
SOLID
5
1EC
100
AcDbEntity
8
2
62
256
6
ByLayer
370
13
48
1
60
0
100
AcDbTrace
10
50.364321
20
40
30
0
11
50.782318
21
36.825002
31
0
12
49.946324
22
36.824998
32
0
13
50.364321
23
40
33
0
39
0
210
0
220
0
230
1
0
SOLID
5
1ED
100
AcDbEntity
8
2
62
256
6
ByLayer
370
13
48
1
60
0
100
AcDbTrace
10
50.364321
20
-40
30
0
11
49.946324
21
-36.825002
31
0
12
50.782318
22
-36.824998
32
0
13
50.364321
23
-40
33
0
39
0
210
0
220
0
230
1
0
ENDBLK
5
1EF
100
AcDbEntity
8
0
100
AcDbBlockEnd
0
BLOCK
5
1FA
100
AcDbEntity
8
0
100
AcDbBlockBegin
2
DimnDraft3D3
70
0
10
0
20
0
30
0
3
DimnDraft3D3
0
MTEXT
5
1F2
100
AcDbEntity
8
SK2
62
256
6
ByLayer
370
13
48
1
60
0
100
AcDbMText
10
-47.174137
20
3.266003
30
0
210
0
220
0
230
1
1
\W0.6740;65
40
3.175
41
0
44
1.084337
50
89.9938585102879
71
7
72
5
7
iso_b_vert
0
MTEXT
5
1F4
100
AcDbEntity
8
SK2
62
256
6
ByLayer
370
13
48
1
60
0
100
AcDbMText
10
-47.1749
20
-3.852943
30
0
210
0
220
0
230
1
1
%%c
40
3.175
41
0
44
1.084337
50
89.9938585102879
71
7
72
5
7
iso_b_vert
0
LINE
5
1F5
100
AcDbEntity
8
SK2
62
256
6
ByLayer
370
13
48
1
60
0
100
AcDbLine
10
-18.230076
20
32.50017
30
0
11
-48.758503
21
32.503442
31
0
39
0
210
0
220
0
230
1
0
LINE
5
1F6
100
AcDbEntity
8
SK2
62
256
6
ByLayer
370
13
48
1
60
0
100
AcDbLine
10
-18.237043
20
-32.49983
30
0
11
-48.76547
21
-32.496558
31
0
39
0
210
0
220
0
230
1
0
LINE
5
1F7
100
AcDbEntity
8
SK2
62
256
6
ByLayer
370
13
48
1
60
0
100
AcDbLine
10
-45.583503
20
32.503102
30
0
11
-45.59047
21
-32.496898
31
0
39
0
210
0
220
0
230
1
0
SOLID
5
1F8
100
AcDbEntity
8
SK2
62
256
6
ByLayer
370
13
48
1
60
0
100
AcDbTrace
10
-45.583503
20
32.503102
30
0
11
-45.165846
21
29.328059
31
0
12
-46.00184
22
29.328145
32
0
13
-45.583503
23
32.503102
33
0
39
0
210
0
220
0
230
1
0
SOLID
5
1F9
100
AcDbEntity
8
SK2
62
256
6
ByLayer
370
13
48
1
60
0
100
AcDbTrace
10
-45.59047
20
-32.496898
30
0
11
-46.008126
21
-29.321855
31
0
12
-45.172133
22
-29.321941
32
0
13
-45.59047
23
-32.496898
33
0
39
0
210
0
220
0
230
1
0
ENDBLK
5
1FB
100
AcDbEntity
8
0
100
AcDbBlockEnd
0
BLOCK
5
1FE
100
AcDbEntity
8
0
100
AcDbBlockBegin
2
DimnDraft3D44
70
0
10
0
20
0
30
0
3
DimnDraft3D44
0
LINE
5
200
100
AcDbEntity
8
SK2
62
256
6
ByLayer
370
25
48
1
60
0
100
AcDbLine
10
0
20
1.5875
30
0
11
0
21
53.029046
31
0
39
0
210
0
220
0
230
1
0
LINE
5
201
100
AcDbEntity
8
SK2
62
256
6
ByLayer
370
25
48
1
60
0
100
AcDbLine
10
-20
20
33.0875
30
0
11
-20
21
53.029046
31
0
39
0
210
0
220
0
230
1
0
LINE
5
202
100
AcDbEntity
8
SK2
62
256
6
ByLayer
370
25
48
1
60
0
100
AcDbLine
10
0
20
49.854046
30
0
11
-20
21
49.854046
31
0
39
0
210
0
220
0
230
1
0
SOLID
5
203
100
AcDbEntity
8
SK2
62
256
6
ByLayer
370
25
48
1
60
0
100
AcDbTrace
10
0
20
49.854046
30
0
11
-3.174998
21
49.43605
31
0
12
-3.175002
22
50.272043
32
0
13
0
23
49.854046
33
0
39
0
210
0
220
0
230
1
0
SOLID
5
204
100
AcDbEntity
8
SK2
62
256
6
ByLayer
370
25
48
1
60
0
100
AcDbTrace
10
-20
20
49.854046
30
0
11
-16.825002
21
50.272043
31
0
12
-16.824998
22
49.43605
32
0
13
-20
23
49.854046
33
0
39
0
210
0
220
0
230
1
0
MTEXT
5
205
100
AcDbEntity
8
SK2
62
256
6
ByLayer
370
13
48
1
60
0
100
AcDbMText
10
-11.102895
20
50.647796
30
0
210
0
220
0
230
1
1
\W0.6740;20
40
3.175
41
0
44
1.084337
50
0
71
7
72
5
7
iso_b_vert
0
ENDBLK
5
1FF
100
AcDbEntity
8
0
100
AcDbBlockEnd
0
BLOCK
5
20E
100
AcDbEntity
8
0
100
AcDbBlockBegin
2
DimnDraft3D5
70
0
10
0
20
0
30
0
3
DimnDraft3D5
0
MTEXT
5
208
100
AcDbEntity
8
SK2
62
256
6
ByLayer
370
13
48
1
60
0
100
AcDbMText
10
12.446694
20
75.500711
30
0
210
0
220
0
230
1
1
\W0.6740;32
40
3.175
41
0
44
1.084337
50
0
71
7
72
5
7
iso_b_vert
0
LINE
5
209
100
AcDbEntity
8
SK2
62
256
6
ByLayer
370
13
48
1
60
0
100
AcDbLine
10
0
20
1.5875
30
0
11
0
21
77.881961
31
0
39
0
210
0
220
0
230
1
0
LINE
5
20A
100
AcDbEntity
8
SK2
62
256
6
ByLayer
370
13
48
1
60
0
100
AcDbLine
10
32
20
22.887067
30
0
11
32
21
77.881961
31
0
39
0
210
0
220
0
230
1
0
LINE
5
20B
100
AcDbEntity
8
SK2
62
256
6
ByLayer
370
13
48
1
60
0
100
AcDbLine
10
0
20
74.706961
30
0
11
32
21
74.706961
31
0
39
0
210
0
220
0
230
1
0
SOLID
5
20C
100
AcDbEntity
8
SK2
62
256
6
ByLayer
370
13
48
1
60
0
100
AcDbTrace
10
0
20
74.706961
30
0
11
3.174998
21
75.124958
31
0
12
3.175002
22
74.288965
32
0
13
0
23
74.706961
33
0
39
0
210
0
220
0
230
1
0
SOLID
5
20D
100
AcDbEntity
8
SK2
62
256
6
ByLayer
370
13
48
1
60
0
100
AcDbTrace
10
32
20
74.706961
30
0
11
28.825002
21
74.288965
31
0
12
28.824998
22
75.124958
32
0
13
32
23
74.706961
33
0
39
0
210
0
220
0
230
1
0
ENDBLK
5
20F
100
AcDbEntity
8
0
100
AcDbBlockEnd
0
ENDSEC
0
SECTION
2
ENTITIES
0
ARC
5
157
100
AcDbEntity
8
1
62
256
6
ByLayer
370
18
48
1
60
0
100
AcDbCircle
39
0
10
24.784229
20
26.009394
30
0
40
5
210
0
220
0
230
1
100
AcDbArc
50
285.009485
51
310.172663
0
ARC
5
158
100
AcDbEntity
8
1
62
256
6
ByLayer
370
18
48
1
60
0
100
AcDbCircle
39
0
10
24.784229
20
26.009394
30
0
40
5
210
0
220
0
230
1
100
AcDbArc
50
10.172663
51
35.335841
0
ARC
5
159
100
AcDbEntity
8
1
62
256
6
ByLayer
370
18
48
1
60
0
100
AcDbCircle
39
0
10
15.45
20
23.15
30
0
40
0.8
210
0
220
0
230
1
100
AcDbArc
50
310.119378
51
0
0
ARC
5
15A
100
AcDbEntity
8
1
62
256
6
ByLayer
370
18
48
1
60
0
100
AcDbCircle
39
0
10
15.45
20
30.85
30
0
40
0.8
210
0
220
0
230
1
100
AcDbArc
50
0
51
37.959741
0
ARC
5
15B
100
AcDbEntity
8
SK1
62
256
6
ByLayer
370
18
48
1
60
0
100
AcDbCircle
39
0
10
1
20
33.5
30
0
40
1
210
0
220
0
230
-1
100
AcDbArc
50
180
51
270
0
ARC
5
15C
100
AcDbEntity
8
1
62
256
6
ByLayer
370
18
48
1
60
0
100
AcDbCircle
39
0
10
20
20
-21.05
30
0
40
1.19999999999998
210
0
220
0
230
1
100
AcDbArc
50
270
51
0
0
ARC
5
15D
100
AcDbEntity
8
1
62
256
6
ByLayer
370
18
48
1
60
0
100
AcDbCircle
39
0
10
26.825
20
-21.05
30
0
40
1.19999999999998
210
0
220
0
230
1
100
AcDbArc
50
180
51
270
0
ARC
5
15E
100
AcDbEntity
8
1
62
256
6
ByLayer
370
18
48
1
60
0
100
AcDbCircle
39
0
10
23.05
20
16.2
30
0
40
0.799999999999838
210
0
220
0
230
1
100
AcDbArc
50
0
51
90
0
ELLIPSE
5
15F
100
AcDbEntity
8
1
62
256
6
ByLayer
370
18
48
1
60
0
100
AcDbEllipse
10
31.74711
20
23.49885
30
0
11
0.847966976590144
21
2.3517976117459
31
0
210
0
220
0
230
1
40
0.646331
41
3.14159265358979
42
-2.13122517964472
0
ELLIPSE
5
160
100
AcDbEntity
8
1
62
256
6
ByLayer
370
18
48
1
60
0
100
AcDbEllipse
10
31.890675
20
23.447086
30
0
11
0.780129618462616
21
2.16365380281181
31
0
210
0
220
0
230
1
40
0.646331
41
-2.13122517964487
42
-1.45747981191133
0
ELLIPSE
5
161
100
AcDbEntity
8
1
62
256
6
ByLayer
370
18
48
1
60
0
100
AcDbEllipse
10
31.890675
20
23.447086
30
0
11
0.780129618462962
21
2.16365380280599
31
0
210
0
220
0
230
1
40
0.646331
41
-1.01036747394515
42
-2.13122517964464
0
ELLIPSE
5
162
100
AcDbEntity
8
1
62
256
6
ByLayer
370
18
48
1
60
0
100
AcDbEllipse
10
31.890675
20
23.447086
30
0
11
0.780129618453535
21
2.16365380279899
31
0
210
0
220
0
230
1
40
0.646331
41
-1.45747981191357
42
-1.01036747394747
0
ELLIPSE
5
163
100
AcDbEntity
8
1
62
256
6
ByLayer
370
18
48
1
60
0
100
AcDbEllipse
10
31.74711
20
23.49885
30
0
11
0.84796697658817
21
2.35179761174405
31
0
210
0
220
0
230
1
40
0.646331
41
-1.01036747394598
42
0
0
ELLIPSE
5
164
100
AcDbEntity
8
1
62
256
6
ByLayer
370
18
48
1
60
0
100
AcDbEllipse
10
31.74711
20
23.49885
30
0
11
0.847966976590171
21
2.35179761174565
31
0
210
0
220
0
230
1
40
0.646331
41
0
42
3.14159265358979
0
ELLIPSE
5
165
100
AcDbEntity
8
1
62
256
6
ByLayer
370
18
48
1
60
0
100
AcDbEllipse
10
27.763194
20
24.935295
30
0
11
0.847966976590139
21
2.35179761174572
31
0
210
0
220
0
230
1
40
0.646331
41
0
42
1.68411284168022
0
ELLIPSE
5
166
100
AcDbEntity
8
1
62
256
6
ByLayer
370
18
48
1
60
0
100
AcDbEllipse
10
27.763194
20
24.935295
30
0
11
0.847966976590185
21
2.35179761174565
31
0
210
0
220
0
230
1
40
0.646331
41
1.68411284168027
42
3.14159265358979
0
ELLIPSE
5
167
100
AcDbEntity
8
1
62
256
6
ByLayer
370
18
48
1
60
0
100
AcDbEllipse
10
31.890675
20
23.447086
30
0
11
0.66141424174034
21
1.8344021371616
31
0
210
0
220
0
230
1
40
0.646331
41
2.13122517964464
42
-1.45747981190952
0
ELLIPSE
5
168
100
AcDbEntity
8
1
62
256
6
ByLayer
370
18
48
1
60
0
100
AcDbEllipse
10
31.890675
20
23.447086
30
0
11
0.661414241740382
21
1.83440213716165
31
0
210
0
220
0
230
1
40
0.646331
41
-1.4574798119095
42
1.01036747394514
0
ELLIPSE
5
169
100
AcDbEntity
8
1
62
256
6
ByLayer
370
18
48
1
60
0
100
AcDbEllipse
10
31.890675
20
23.447086
30
0
11
0.66141424174016
21
1.83440213716136
31
0
210
0
220
0
230
1
40
0.646331
41
1.01036747394499
42
2.13122517964467
0
ELLIPSE
5
16A
100
AcDbEntity
8
1
62
256
6
ByLayer
370
18
48
1
60
0
100
AcDbEllipse
10
31.74711
20
23.49885
30
0
11
0.593576883613977
21
1.64625832822274
31
0
210
0
220
0
230
1
40
0.646331
41
2.16612191184933
42
3.14159265358979
0
ELLIPSE
5
16B
100
AcDbEntity
8
1
62
256
6
ByLayer
370
18
48
1
60
0
100
AcDbEllipse
10
31.74711
20
23.49885
30
0
11
0.593576883613084
21
1.64625832822197
31
0
210
0
220
0
230
1
40
0.646331
41
-1.45747981190954
42
0
0
ELLIPSE
5
16C
100
AcDbEntity
8
1
62
256
6
ByLayer
370
18
48
1
60
0
100
AcDbEllipse
10
31.74711
20
23.49885
30
0
11
0.593576883613136
21
1.64625832822196
31
0
210
0
220
0
230
1
40
0.646331
41
3.14159265358979
42
-1.45747981190953
0
ELLIPSE
5
16D
100
AcDbEntity
8
1
62
256
6
ByLayer
370
18
48
1
60
0
100
AcDbEllipse
10
31.74711
20
23.49885
30
0
11
0.593576883612934
21
1.64625832822298
31
0
210
0
220
0
230
1
40
0.646331
41
0
42
0.975470743726707
0
ELLIPSE
5
16E
100
AcDbEntity
8
1
62
256
6
ByLayer
370
18
48
1
60
0
100
AcDbEllipse
10
27.583738
20
25
30
0
11
1.06128072480482
21
2.94341353247518
31
0
210
0
220
0
230
1
40
0.646331
41
1.68411284168028
42
-2.49643248755852
0
ELLIPSE
5
16F
100
AcDbEntity
8
1
62
256
6
ByLayer
370
18
48
1
60
0
100
AcDbEllipse
10
27.583738
20
25
30
0
11
1.06128072480473
21
2.94341353247527
31
0
210
0
220
0
230
1
40
0.646331
41
-0.645160166031279
42
1.68411284168021
0
ELLIPSE
5
170
100
AcDbEntity
8
1
62
256
6
ByLayer
370
18
48
1
60
0
100
AcDbEllipse
10
27.583738
20
25
30
0
11
0.932763674249197
21
2.58697737292021
31
0
210
0
220
0
230
1
40
0.646331
41
-0.429699666151424
42
1.68411284168026
0
ELLIPSE
5
171
100
AcDbEntity
8
1
62
256
6
ByLayer
370
18
48
1
60
0
100
AcDbEllipse
10
27.583738
20
25
30
0
11
0.932763674249264
21
2.58697737292026
31
0
210
0
220
0
230
1
40
0.646331
41
1.6841128416803
42
-2.71189298743837
0
ELLIPSE
5
172
100
AcDbEntity
8
1
62
256
6
ByLayer
370
18
48
1
60
0
100
AcDbEllipse
10
27.763211
20
24.935342
30
0
11
0.847949944878732
21
2.35175138020157
31
0
210
0
220
0
230
1
40
0.646337
41
-0.0118078165095013
42
-8.81420647681271E-08
0
ELLIPSE
5
173
100
AcDbEntity
8
SK1
62
256
6
ByLayer
370
18
48
1
60
0
100
AcDbEllipse
10
-9.9
20
-20
30
0
11
6
21
0
31
0
210
0
220
0
230
1
40
0.866025
41
3.14159265358979
42
0
0
ELLIPSE
5
174
100
AcDbEntity
8
SK1
62
256
6
ByLayer
370
18
48
1
60
0
100
AcDbEllipse
10
-9.9
20
-20
30
0
11
6
21
0
31
0
210
0
220
0
230
1
40
0.866025
41
0
42
3.14159265358979
0
ELLIPSE
5
175
100
AcDbEntity
8
SK1
62
256
6
ByLayer
370
18
48
1
60
0
100
AcDbEllipse
10
-9.9
20
-19
30
0
11
6
21
0
31
0
210
0
220
0
230
1
40
0.866025
41
0
42
3.14159265358979
0
ELLIPSE
5
176
100
AcDbEntity
8
1
62
256
6
ByLayer
370
18
48
1
60
0
100
AcDbEllipse
10
27.583738
20
25
30
0
11
1.95032404615751
21
5.40913450701471
31
0
210
0
220
0
230
1
40
0.646331
41
0.217854639556938
42
1.57957471700878
0
ELLIPSE
5
177
100
AcDbEntity
8
1
62
256
6
ByLayer
370
18
48
1
60
0
100
AcDbEllipse
10
27.583738
20
25
30
0
11
1.63053184664362
21
4.52220547341338
31
0
210
0
220
0
230
1
40
0.646331
41
0.510978966706246
42
1.55897317563601
0
ELLIPSE
5
178
100
AcDbEntity
8
1
62
256
6
ByLayer
370
18
48
1
60
0
100
AcDbEllipse
10
27.40428
20
25.064698
30
0
11
2.03511848127504
21
5.64430784297108
31
0
210
0
220
0
230
1
40
0.646331
41
-3.14159264810332
42
-3.12844354691521
0
ELLIPSE
5
179
100
AcDbEntity
8
1
62
256
6
ByLayer
370
18
48
1
60
0
100
AcDbEllipse
10
27.583738
20
25
30
0
11
1.9503240461573
21
5.4091345070149
31
0
210
0
220
0
230
1
40
0.646331
41
1.78865096635179
42
-3.13281426337598
0
ELLIPSE
5
17A
100
AcDbEntity
8
1
62
256
6
ByLayer
370
18
48
1
60
0
100
AcDbEllipse
10
27.583738
20
25
30
0
11
1.63053184666471
21
4.5222054734448
31
0
210
0
220
0
230
1
40
0.646331
41
2.6306136868869
42
3.12976950243203
0
ELLIPSE
5
17B
100
AcDbEntity
8
1
62
256
6
ByLayer
370
18
48
1
60
0
100
AcDbEllipse
10
27.583738
20
25
30
0
11
1.63053184665139
21
4.52220547341428
31
0
210
0
220
0
230
1
40
0.646331
41
0.238456180930638
42
0.510978966706969
0
ELLIPSE
5
17C
100
AcDbEntity
8
1
62
256
6
ByLayer
370
18
48
1
60
0
100
AcDbEllipse
10
27.077489
20
25.182534
30
0
11
1.49242187874231
21
4.13916379980198
31
0
210
0
220
0
230
1
40
0.646331
41
0.250106341567179
42
0.430189046603702
0
ELLIPSE
5
17D
100
AcDbEntity
8
1
62
256
6
ByLayer
370
18
48
1
60
0
100
AcDbEllipse
10
26.794133
20
25.284701
30
0
11
1.49242187883
21
4.13916379671683
31
0
210
0
220
0
230
1
40
0.646331
41
1.58094009064632
42
1.82090266860661
0
ELLIPSE
5
17E
100
AcDbEntity
8
1
62
256
6
ByLayer
370
18
48
1
60
0
100
AcDbEllipse
10
27.077489
20
25.182534
30
0
11
1.49242187879481
21
4.13916379666518
31
0
210
0
220
0
230
1
40
0.646331
41
2.71140360664745
42
3.11811934155072
0
ELLIPSE
5
17F
100
AcDbEntity
8
1
62
256
6
ByLayer
370
18
48
1
60
0
100
AcDbEllipse
10
27.583738
20
25
30
0
11
1.63053184664303
21
4.52220547341425
31
0
210
0
220
0
230
1
40
0.646331
41
1.80925250772471
42
2.63061368688359
0
ELLIPSE
5
180
100
AcDbEntity
8
1
62
256
6
ByLayer
370
18
48
1
60
0
100
AcDbEllipse
10
26.794133
20
25.284701
30
0
11
1.492421879562
21
4.13916379991448
31
0
210
0
220
0
230
1
40
0.646331
41
0
42
0.103381390168931
0
ELLIPSE
5
181
100
AcDbEntity
8
1
62
256
6
ByLayer
370
18
48
1
60
0
100
AcDbEllipse
10
26.578786
20
25.362347
30
0
11
1.49242187879819
21
4.13916379667577
31
0
210
0
220
0
230
1
40
0.646331
41
-3.0482509642913
42
-2.3465553908957
0
ELLIPSE
5
182
100
AcDbEntity
8
1
62
256
6
ByLayer
370
18
48
1
60
0
100
AcDbEllipse
10
26.578786
20
25.362347
30
0
11
1.49242187880193
21
4.13916379667545
31
0
210
0
220
0
230
1
40
0.646331
41
-0.795037262693908
42
-0.0402585871631959
0
ELLIPSE
5
183
100
AcDbEntity
8
1
62
256
6
ByLayer
370
18
48
1
60
0
100
AcDbEllipse
10
26.794136
20
25.284708
30
0
11
1.49241927049968
21
4.13915680861172
31
0
210
0
220
0
230
1
40
0.646331
41
-0.0234733441885365
42
-1.22535554613036E-08
0
ELLIPSE
5
184
100
AcDbEntity
8
1
62
256
6
ByLayer
370
18
48
1
60
0
100
AcDbEllipse
10
27.077489
20
25.182534
30
0
11
1.49242187879961
21
4.13916379667319
31
0
210
0
220
0
230
1
40
0.646331
41
-0.966501634001996
42
-0.0234733120387946
0
ELLIPSE
5
185
100
AcDbEntity
8
1
62
256
6
ByLayer
370
18
48
1
60
0
100
AcDbEllipse
10
27.077489
20
25.182534
30
0
11
1.49242187879932
21
4.13916379667009
31
0
210
0
220
0
230
1
40
0.646331
41
-2.89148631177996
42
-2.17509101958717
0
ELLIPSE
5
186
100
AcDbEntity
8
1
62
256
6
ByLayer
370
18
48
1
60
0
100
AcDbEllipse
10
26.794133
20
25.284701
30
0
11
1.49242187883075
21
4.1391637969016
31
0
210
0
220
0
230
1
40
0.646331
41
-3.06069720142133
42
-2.89148631179362
0
ELLIPSE
5
187
100
AcDbEntity
8
1
62
256
6
ByLayer
370
18
48
1
60
0
100
AcDbEllipse
10
26.794133
20
25.284701
30
0
11
1.49242188952568
21
4.13916385737791
31
0
210
0
220
0
230
1
40
0.646331
41
-3.0886093770204
42
-3.06069720351074
0
ELLIPSE
5
188
100
AcDbEntity
8
1
62
256
6
ByLayer
370
18
48
1
60
0
100
AcDbEllipse
10
27.583738
20
25
30
0
11
1.9503240461559
21
5.40913450701361
31
0
210
0
220
0
230
1
40
0.646331
41
-1.01036747394543
42
0.008778390213724
0
ELLIPSE
5
189
100
AcDbEntity
8
1
62
256
6
ByLayer
370
18
48
1
60
0
100
AcDbEllipse
10
27.583738
20
25
30
0
11
1.95032403951218
21
5.40913450272606
31
0
210
0
220
0
230
1
40
0.646331
41
-1.12099946733523
42
-1.01036747481178
0
ELLIPSE
5
18A
100
AcDbEntity
8
1
62
256
6
ByLayer
370
18
48
1
60
0
100
AcDbEllipse
10
27.583738
20
25
30
0
11
1.63053184664315
21
4.52220547341436
31
0
210
0
220
0
230
1
40
0.646331
41
-1.02388045531035
42
-0.0118231511591295
0
ELLIPSE
5
18B
100
AcDbEntity
8
1
62
256
6
ByLayer
370
18
48
1
60
0
100
AcDbEllipse
10
27.583738
20
25
30
0
11
1.95032404654467
21
5.40913450577921
31
0
210
0
220
0
230
1
40
0.646331
41
-2.1312251795047
42
-2.02059318706313
0
ELLIPSE
5
18C
100
AcDbEntity
8
1
62
256
6
ByLayer
370
18
48
1
60
0
100
AcDbEllipse
10
27.583738
20
25
30
0
11
1.95032404615688
21
5.4091345070175
31
0
210
0
220
0
230
1
40
0.646331
41
-2.92373801403305
42
-2.13122517964499
0
ELLIPSE
5
18D
100
AcDbEntity
8
1
62
256
6
ByLayer
370
18
48
1
60
0
100
AcDbEllipse
10
27.583738
20
25
30
0
11
1.63053184664207
21
4.52220547341933
31
0
210
0
220
0
230
1
40
0.646331
41
-2.90313647266037
42
-2.11771219828031
0
ELLIPSE
5
18E
100
AcDbEntity
8
1
62
256
6
ByLayer
370
18
48
1
60
0
100
AcDbEllipse
10
26.348688
20
25.445311
30
0
11
1.52634055763225
21
4.23323570897701
31
0
210
0
220
0
230
1
40
0.646331
41
-2.83338159142247
42
-2.71888200925631
0
ELLIPSE
5
18F
100
AcDbEntity
8
1
62
256
6
ByLayer
370
18
48
1
60
0
100
AcDbEllipse
10
26.348688
20
25.445311
30
0
11
1.52634055764944
21
4.23323570096722
31
0
210
0
220
0
230
1
40
0.646331
41
-0.422710645115692
42
-0.308211062566746
0
ELLIPSE
5
190
100
AcDbEntity
8
1
62
256
6
ByLayer
370
18
48
1
60
0
100
AcDbEllipse
10
27.583738
20
25
30
0
11
2.03512074381638
21
5.64431426818947
31
0
210
0
220
0
230
1
40
0.646331
41
-1.14102089549037
42
1.01036747394505
0
ELLIPSE
5
191
100
AcDbEntity
8
1
62
256
6
ByLayer
370
18
48
1
60
0
100
AcDbEllipse
10
27.583738
20
25
30
0
11
2.03512074381641
21
5.64431426818951
31
0
210
0
220
0
230
1
40
0.646331
41
2.13122517964475
42
-2.00057175809942
0
ELLIPSE
5
192
100
AcDbEntity
8
1
62
256
6
ByLayer
370
18
48
1
60
0
100
AcDbEllipse
10
27.583738
20
25
30
0
11
2.03512074381663
21
5.64431426818969
31
0
210
0
220
0
230
1
40
0.646331
41
1.01036747394511
42
2.13122517964476
0
ELLIPSE
5
193
100
AcDbEntity
8
1
62
256
6
ByLayer
370
18
48
1
60
0
100
AcDbEllipse
10
27.404282
20
25.064705
30
0
11
1.95032404625976
21
5.40913450734075
31
0
210
0
220
0
230
1
40
0.646331
41
0
42
0.175316186322798
0
ELLIPSE
5
194
100
AcDbEntity
8
SK1
62
256
6
ByLayer
370
18
48
1
60
0
100
AcDbEllipse
10
-9.9
20
20
30
0
11
6
21
0
31
0
210
0
220
0
230
1
40
0.866025
41
0
42
3.14159265358979
0
ELLIPSE
5
195
100
AcDbEntity
8
SK1
62
256
6
ByLayer
370
18
48
1
60
0
100
AcDbEllipse
10
-9.9
20
20
30
0
11
6
21
0
31
0
210
0
220
0
230
1
40
0.866025
41
3.14159265358979
42
0
0
ELLIPSE
5
196
100
AcDbEntity
8
SK1
62
256
6
ByLayer
370
18
48
1
60
0
100
AcDbEllipse
10
-9.9
20
19
30
0
11
6
21
0
31
0
210
0
220
0
230
1
40
0.866025
41
3.14159265358979
42
0
0
ELLIPSE
5
197
100
AcDbEntity
8
1
62
256
6
ByLayer
370
18
48
1
60
0
100
AcDbEllipse
10
11
20
34.641016
30
0
11
2.5
21
0
31
0
210
0
220
0
230
1
40
0.5
41
2.5261129449194
42
-0.59814691454794
0
ELLIPSE
5
198
100
AcDbEntity
8
1
62
256
6
ByLayer
370
18
48
1
60
0
100
AcDbEllipse
10
11
20
34.641016
30
0
11
2.50000000000006
21
0
31
0
210
0
220
0
230
1
40
0.5
41
0.615479708670429
42
2.52611294491936
0
ELLIPSE
5
199
100
AcDbEntity
8
1
62
256
6
ByLayer
370
18
48
1
60
0
100
AcDbEllipse
10
11
20
34.641016
30
0
11
2.49999999999974
21
0
31
0
210
0
220
0
230
1
40
0.5
41
-0.59814691454797
42
0.615479708670422
0
ELLIPSE
5
19A
100
AcDbEntity
8
1
62
256
6
ByLayer
370
18
48
1
60
0
100
AcDbEllipse
10
37.392435
20
0
30
0
11
31.2796877835866
21
33.9559966553927
31
0
210
0
220
0
230
1
40
0.675907
41
1.10330771594204
42
1.2644802708447
0
ELLIPSE
5
19B
100
AcDbEntity
8
1
62
256
6
ByLayer
370
18
48
1
60
0
100
AcDbEllipse
10
-496.050698
20
-204.457246
30
0
11
548.186024789861
21
220.47987530634
31
0
210
0
220
0
230
1
40
0.20189
41
0.202381662800555
42
0.208813015833043
0
POINT
5
6C
100
AcDbEntity
8
80
62
256
6
ByLayer
370
18
48
1
60
0
100
AcDbPoint
10
0
20
0
30
0
39
0
210
0
220
0
230
1
50
360
0
POINT
5
6E
100
AcDbEntity
8
81
62
256
6
ByLayer
370
18
48
1
60
0
100
AcDbPoint
10
17
20
0
30
0
39
0
210
0
220
0
230
1
50
360
0
SPLINE
5
19C
100
AcDbEntity
8
1
62
256
6
ByLayer
370
18
48
1
60
0
100
AcDbSpline
70
4
71
3
72
10
73
6
40
0
40
0
40
0
40
0
40
0.390836521408303
40
0.974019656999951
40
1
40
1
40
1
40
1
41
1
10
15.9257826693698
20
18.6585637732884
30
0
41
1
10
15.9273010190822
20
18.6605936749578
30
0
41
1
10
15.9287604756283
20
18.6773965413098
30
0
41
1
10
15.9214857833479
20
18.7279290691484
30
0
41
1
10
15.9165863978423
20
18.7681023519696
30
0
41
1
10
15.9163740345228
20
18.7698357180718
30
0
0
SPLINE
5
19D
100
AcDbEntity
8
1
62
256
6
ByLayer
370
18
48
1
60
0
100
AcDbSpline
70
4
71
3
72
10
73
6
40
0
40
0
40
0
40
0
40
0.336043967308496
40
0.702884568771927
40
1
40
1
40
1
40
1
41
1
10
16.502227390795
20
29.8938109922782
30
0
41
1
10
16.4718993551609
20
29.9037061416511
30
0
41
1
10
16.4089983209436
20
29.9169876532021
30
0
41
1
10
16.3123654362531
20
29.9114396025488
30
0
41
1
10
16.2596979902322
20
29.8967713085322
30
0
41
1
10
16.2372927912076
20
29.8876979615791
30
0
0
SPLINE
5
19E
100
AcDbEntity
8
1
62
256
6
ByLayer
370
18
48
1
60
0
100
AcDbSpline
70
4
71
3
72
17
73
13
40
0
40
0
40
0
40
0
40
0.0793728902247754
40
0.197707748864638
40
0.29139565786352
40
0.389280336366682
40
0.491345646124867
40
0.597613434497685
40
0.70496147834346
40
0.809795343741322
40
0.912043588181762
40
1
40
1
40
1
40
1
41
1
10
16.2498048360348
20
26.7784582040075
30
0
41
1
10
16.2564137028964
20
26.6450001698156
30
0
41
1
10
16.2728805653122
20
26.3061822699005
30
0
41
1
10
16.2971845296739
20
25.779953115429
30
0
41
1
10
16.3230239182986
20
25.1999988224836
30
0
41
1
10
16.3475185090839
20
24.637685602133
30
0
41
1
10
16.3730701532527
20
24.043617901943
30
0
41
1
10
16.3994128670562
20
23.4298897279249
30
0
41
1
10
16.425951856226
20
22.8175738354655
30
0
41
1
10
16.4521472700201
20
22.227364729796
30
0
41
1
10
16.4767558261463
20
21.6925229297288
30
0
41
1
10
16.4926654623241
20
21.3640806589392
30
0
41
1
10
16.5000300973036
20
21.2153137379513
30
0
0
SPLINE
5
19F
100
AcDbEntity
8
1
62
256
6
ByLayer
370
18
48
1
60
0
100
AcDbSpline
70
4
71
3
72
13
73
9
40
0
40
0
40
0
40
0
40
0.0075081597542237
40
0.128798598993401
40
0.276535810321977
40
0.566042496156313
40
0.80074046190508
40
1
40
1
40
1
40
1
41
1
10
15.9109169492784
20
18.19330886681
30
0
41
1
10
15.9129194854663
20
18.1955138280987
30
0
41
1
10
15.9466078574221
20
18.2329319720502
30
0
41
1
10
15.9707675076058
20
18.2773347562351
30
0
41
1
10
16.0225969406999
20
18.3976643479533
30
0
41
1
10
16.0543231961263
20
18.5555670015531
30
0
41
1
10
16.0843433059345
20
18.7686754624751
30
0
41
1
10
16.1003856849342
20
18.9193342496173
30
0
41
1
10
16.1073309166277
20
18.993219539565
30
0
0
SPLINE
5
1A0
100
AcDbEntity
8
1
62
256
6
ByLayer
370
18
48
1
60
0
100
AcDbSpline
70
4
71
3
72
14
73
10
40
0
40
0
40
0
40
0
40
0.0740678518792633
40
0.226228608288818
40
0.395356343448275
40
0.578243806332442
40
0.771417197168282
40
0.974605935816082
40
1
40
1
40
1
40
1
41
1
10
16.4261887280264
20
-34.8477846962094
30
0
41
1
10
16.4277388771862
20
-34.8466624398615
30
0
41
1
10
16.4306505300555
20
-34.8352267737277
30
0
41
1
10
16.4227285497914
20
-34.7709720386056
30
0
41
1
10
16.4038330387935
20
-34.6157253108817
30
0
41
1
10
16.3804713962925
20
-34.381823674049
30
0
41
1
10
16.3553866668502
20
-34.0737436845813
30
0
41
1
10
16.3365337919104
20
-33.8045375244342
30
0
41
1
10
16.3262404025501
20
-33.6460452094898
30
0
41
1
10
16.3250953120379
20
-33.6282740015326
30
0
0
SPLINE
5
1A1
100
AcDbEntity
8
1
62
256
6
ByLayer
370
18
48
1
60
0
100
AcDbSpline
70
4
71
3
72
49
73
45
40
0
40
0
40
0
40
0
40
0.0169167524008161
40
0.038880859296794
40
0.0718835239757601
40
0.106221987199505
40
0.141887278195273
40
0.169501919069734
40
0.197842294405264
40
0.226914423572099
40
0.25671949892421
40
0.287230714918643
40
0.318271160221083
40
0.349136353513521
40
0.379761138202872
40
0.410190895577497
40
0.440435910198509
40
0.470478192790957
40
0.500285693545321
40
0.529824832273671
40
0.559071648806057
40
0.588021872088732
40
0.616700061908207
40
0.654608231293699
40
0.692292510615621
40
0.728146463645819
40
0.758914920116833
40
0.784428637976506
40
0.804626963981964
40
0.816265455038577
40
0.824889018978332
40
0.830517496206213
40
0.835928645280148
40
0.844925621469102
40
0.856906815215088
40
0.867611490005566
40
0.875129525251477
40
0.879427891012708
40
0.885586403288322
40
0.895440821591798
40
0.909003849762682
40
0.932845365686773
40
0.963255858620365
40
1
40
1
40
1
40
1
41
1
10
17.9197502585393
20
-34.832418922727
30
0
41
1
10
17.9211673903004
20
-34.8299823090253
30
0
41
1
10
17.9222927126978
20
-34.8136451311535
30
0
41
1
10
17.9112788009224
20
-34.73207271874
30
0
41
1
10
17.8942342230195
20
-34.5684571305389
30
0
41
1
10
17.8706555190618
20
-34.2962554639903
30
0
41
1
10
17.8459696446004
20
-33.9616069561699
30
0
41
1
10
17.8215492079539
20
-33.5884080819514
30
0
41
1
10
17.7981992591594
20
-33.1968953087443
30
0
41
1
10
17.7738137479471
20
-32.7515979976852
30
0
41
1
10
17.7485769546422
20
-32.2552651593388
30
0
41
1
10
17.7226405051168
20
-31.713402526371
30
0
41
1
10
17.6963141205325
20
-31.1366749840411
30
0
41
1
10
17.6699328704184
20
-30.5387504579869
30
0
41
1
10
17.643686084247
20
-29.9316882639239
30
0
41
1
10
17.6176098063272
20
-29.3240233530291
30
0
41
1
10
17.5916701699015
20
-28.7224744758118
30
0
41
1
10
17.5658314401444
20
-28.1334613446019
30
0
41
1
10
17.5400540802282
20
-27.5630987684577
30
0
41
1
10
17.5142960539826
20
-27.017247686213
30
0
41
1
10
17.4885132288421
20
-26.5015203983966
30
0
41
1
10
17.4626579213277
20
-26.0213330108585
30
0
41
1
10
17.4338389437119
20
-25.5336236723643
30
0
41
1
10
17.4018770697178
20
-25.0623487765946
30
0
41
1
10
17.3671090383332
20
-24.6395101407859
30
0
41
1
10
17.3337969802383
20
-24.3191158518471
30
0
41
1
10
17.3021005245637
20
-24.09407457884
30
0
41
1
10
17.2728980970258
20
-23.9469720426089
30
0
41
1
10
17.2466325595708
20
-23.8580538383013
30
0
41
1
10
17.2240570908243
20
-23.8036209808355
30
0
41
1
10
17.2032320749402
20
-23.7672907642156
30
0
41
1
10
17.1848610628769
20
-23.7394951878845
30
0
41
1
10
17.1291336244372
20
-23.6765025043796
30
0
41
1
10
17.0181459354739
20
-23.6025278514103
30
0
41
1
10
16.8529335818064
20
-23.5736817664945
30
0
41
1
10
16.7019579039932
20
-23.6145352538668
30
0
41
1
10
16.6055945915544
20
-23.6853403873007
30
0
41
1
10
16.5569742945988
20
-23.7414739342811
30
0
41
1
10
16.5410699668547
20
-23.765878179363
30
0
41
1
10
16.5181465580849
20
-23.8063783352771
30
0
41
1
10
16.4938608089047
20
-23.869900789256
30
0
41
1
10
16.4641691017378
20
-23.9841816473523
30
0
41
1
10
16.4310550772361
20
-24.1857530144837
30
0
41
1
10
16.4082673708553
20
-24.379912778192
30
0
41
1
10
16.396712426489
20
-24.4996153337666
30
0
0
SPLINE
5
1A2
100
AcDbEntity
8
1
62
256
6
ByLayer
370
18
48
1
60
0
100
AcDbSpline
70
4
71
3
72
50
73
46
40
0
40
0
40
0
40
0
40
0.0096952343636986
40
0.0294743452006409
40
0.0508386977109362
40
0.081269355737438
40
0.113888014847397
40
0.148645525700893
40
0.176110356859993
40
0.204782964768261
40
0.234718037928793
40
0.265971060079104
40
0.298551621974002
40
0.331472712724133
40
0.364102503585823
40
0.396397660432682
40
0.428320883195539
40
0.459851755437431
40
0.490995775529821
40
0.521788116814938
40
0.5623215126394
40
0.602252848926899
40
0.641538737770935
40
0.680157495432533
40
0.717932588685803
40
0.752428618382732
40
0.796717650329647
40
0.832141778093439
40
0.841986946716859
40
0.850907159266587
40
0.862073870784652
40
0.877413094324048
40
0.897019372559148
40
0.917099916425402
40
0.927219083627025
40
0.930687047620837
40
0.933274154050678
40
0.941699445009827
40
0.947862976790145
40
0.950019914256155
40
0.952530462284488
40
0.961562599464873
40
0.976179216700667
40
0.996401202961599
40
1
40
1
40
1
40
1
41
1
10
16.5820393454971
20
-24.1876699930786
30
0
41
1
10
16.5807253605129
20
-24.1889934746263
30
0
41
1
10
16.5779740778294
20
-24.1974459439796
30
0
41
1
10
16.5837153637293
20
-24.2412207940563
30
0
41
1
10
16.5929931809979
20
-24.3310031143288
30
0
41
1
10
16.6083339499815
20
-24.4828100244718
30
0
41
1
10
16.6290237962809
20
-24.7188003520657
30
0
41
1
10
16.6512069598667
20
-25.0078823996767
30
0
41
1
10
16.673479652777
20
-25.3351550987151
30
0
41
1
10
16.695201303435
20
-25.6866692827124
30
0
41
1
10
16.7182635519619
20
-26.095466544168
30
0
41
1
10
16.7425203339357
20
-26.5599351260066
30
0
41
1
10
16.7676362515894
20
-27.0728253162551
30
0
41
1
10
16.7930551681666
20
-27.6197963321026
30
0
41
1
10
16.8183459457688
20
-28.1853943139442
30
0
41
1
10
16.8433672617616
20
-28.7593951485558
30
0
41
1
10
16.868121829497
20
-29.3352381385464
30
0
41
1
10
16.8926134275118
20
-29.9067770237586
30
0
41
1
10
16.9168471823224
20
-30.4683053187642
30
0
41
1
10
16.9434112351463
20
-31.073337393838
30
0
41
1
10
16.9722424859706
20
-31.7092855218819
30
0
41
1
10
17.0032711871998
20
-32.3564079631036
30
0
41
1
10
17.033845483971
20
-32.9466687523185
30
0
41
1
10
17.0639739735319
20
-33.4708419408686
30
0
41
1
10
17.0928020437102
20
-33.9130398306414
30
0
41
1
10
17.1237244138678
20
-34.3200507048863
30
0
41
1
10
17.1560332447576
20
-34.6574422079732
30
0
41
1
10
17.1865524831205
20
-34.8757831926106
30
0
41
1
10
17.2129041869277
20
-34.9986592319641
30
0
41
1
10
17.2298921296499
20
-35.064429657521
30
0
41
1
10
17.2587953936402
20
-35.1474039172067
30
0
41
1
10
17.3089460205637
20
-35.2482652418844
30
0
41
1
10
17.3862358743064
20
-35.3449902383753
30
0
41
1
10
17.4668276451979
20
-35.4024236750058
30
0
41
1
10
17.5481198661744
20
-35.4272602866349
30
0
41
1
10
17.6004641125633
20
-35.4332941531596
30
0
41
1
10
17.6687122830484
20
-35.4343065750947
30
0
41
1
10
17.7566273092835
20
-35.4164046671842
30
0
41
1
10
17.8284539139753
20
-35.3785304775467
30
0
41
1
10
17.8693952391725
20
-35.3483586890362
30
0
41
1
10
17.9009185615737
20
-35.3210635417251
30
0
41
1
10
17.9290739122023
20
-35.2889547922863
30
0
41
1
10
17.9644927901445
20
-35.2339612712266
30
0
41
1
10
17.9857631451072
20
-35.1809170489285
30
0
41
1
10
17.9979138041585
20
-35.1437690852152
30
0
41
1
10
17.9996934222054
20
-35.1380824824286
30
0
0
SPLINE
5
1A3
100
AcDbEntity
8
1
62
256
6
ByLayer
370
18
48
1
60
0
100
AcDbSpline
70
4
71
3
72
15
73
11
40
0
40
0
40
0
40
0
40
0.0018268996950315
40
0.0316507966601895
40
0.11331392261398
40
0.20207263269591
40
0.29016636307063
40
0.495419258374574
40
0.862003667618832
40
1
40
1
40
1
40
1
41
1
10
16.3252404187142
20
-35.368652680177
30
0
41
1
10
16.3261986821121
20
-35.368089259947
30
0
41
1
10
16.3425865831145
20
-35.3584084127878
30
0
41
1
10
16.3825435308493
20
-35.3297048785589
30
0
41
1
10
16.4065615581634
20
-35.3035731606553
30
0
41
1
10
16.4425191597149
20
-35.2553594162233
30
0
41
1
10
16.4847785327178
20
-35.1742668397401
30
0
41
1
10
16.5419375169812
20
-35.0026806031338
30
0
41
1
10
16.5787768864381
20
-34.7647077744337
30
0
41
1
10
16.6011338168804
20
-34.5659337577853
30
0
41
1
10
16.6065957568801
20
-34.5092343404834
30
0
0
SPLINE
5
1A4
100
AcDbEntity
8
1
62
256
6
ByLayer
370
18
48
1
60
0
100
AcDbSpline
70
4
71
1
72
4
73
2
40
0
40
0
40
1
40
1
41
1
10
24.0706634225243
20
26.2130225294242
30
0
41
1
10
23.9211022419884
20
26.2536953255717
30
0
0
SPLINE
5
1A5
100
AcDbEntity
8
1
62
256
6
ByLayer
370
18
48
1
60
0
100
AcDbSpline
70
4
71
1
72
4
73
2
40
0
40
0
40
1
40
1
41
1
10
28.6202963109969
20
30.8595661069714
30
0
41
1
10
28.7323341873443
20
30.5537313019143
30
0
0
SPLINE
5
1A6
100
AcDbEntity
8
1
62
256
6
ByLayer
370
18
48
1
60
0
100
AcDbSpline
70
4
71
2
72
6
73
3
40
0
40
0
40
0
40
1
40
1
40
1
41
1
10
24.3584676638904
20
24.9558847246948
30
0
41
1
10
24.2371450016788
20
25.0242970785507
30
0
41
1
10
24.1160744579792
20
25.092647103428
30
0
0
SPLINE
5
1A7
100
AcDbEntity
8
1
62
256
6
ByLayer
370
18
48
1
60
0
100
AcDbSpline
70
4
71
1
72
4
73
2
40
0
40
0
40
1
40
1
41
1
10
23.5924875944711
20
25.104148322002
30
0
41
1
10
23.7487507058406
20
25.0616529192262
30
0
0
SPLINE
5
1A8
100
AcDbEntity
8
1
62
256
6
ByLayer
370
18
48
1
60
0
100
AcDbSpline
70
4
71
1
72
4
73
2
40
0
40
0
40
1
40
1
41
1
10
25.6641787349989
20
19.5800084133441
30
0
41
1
10
25.4173052215455
20
19.4035831308382
30
0
0
SPLINE
5
1A9
100
AcDbEntity
8
1
62
256
6
ByLayer
370
18
48
1
60
0
100
AcDbSpline
70
4
71
2
72
6
73
3
40
0
40
0
40
0
40
1
40
1
40
1
41
1
10
27.8613285529705
20
29.4316566611292
30
0
41
1
10
28.1695210598188
20
29.5375450129934
30
0
41
1
10
28.4777491766422
20
29.6431694342314
30
0
0
SPLINE
5
1AA
100
AcDbEntity
8
1
62
256
6
ByLayer
370
18
48
1
60
0
100
AcDbSpline
70
4
71
2
72
6
73
3
40
0
40
0
40
0
40
1
40
1
40
1
41
1
10
25.5226868851957
20
21.067150365268
30
0
41
1
10
25.7206457983923
20
20.7787666050467
30
0
41
1
10
25.918763745701
20
20.4905702810269
30
0
0
SPLINE
5
1AB
100
AcDbEntity
8
1
62
256
6
ByLayer
370
18
48
1
60
0
100
AcDbSpline
70
4
71
1
72
4
73
2
40
0
40
0
40
1
40
1
41
1
10
29.3017005441861
20
30.492679541456
30
0
41
1
10
29.3318616075575
20
30.4820401396025
30
0
0
SPLINE
5
1AC
100
AcDbEntity
8
1
62
256
6
ByLayer
370
18
48
1
60
0
100
AcDbSpline
70
4
71
1
72
4
73
2
40
0
40
0
40
1
40
1
41
1
10
29.5032972610642
20
30.4199915866559
30
0
41
1
10
29.4580330814393
20
30.5435743075481
30
0
0
SPLINE
5
1AD
100
AcDbEntity
8
1
62
256
6
ByLayer
370
18
48
1
60
0
100
AcDbSpline
70
4
71
3
72
14
73
10
40
0
40
0
40
0
40
0
40
0.155173804787648
40
0.321548805650007
40
0.487922035101037
40
0.654293213663243
40
0.820663405643785
40
0.984501637882512
40
1
40
1
40
1
40
1
41
1
10
29.4580330814393
20
30.5435743075481
30
0
41
1
10
29.6485146626031
20
30.4803533181315
30
0
41
1
10
30.0208729869204
20
30.3044207785901
30
0
41
1
10
30.5215203618417
20
29.8895183379464
30
0
41
1
10
30.9471416040145
20
29.3292065464996
30
0
41
1
10
31.2721413053343
20
28.6411081043615
30
0
41
1
10
31.491024580215
20
27.8533780210087
30
0
41
1
10
31.5607609445752
20
27.2459924871494
30
0
41
1
10
31.5770684063014
20
26.9220388500247
30
0
41
1
10
31.5783171391651
20
26.8939487320512
30
0
0
SPLINE
5
1AE
100
AcDbEntity
8
1
62
256
6
ByLayer
370
18
48
1
60
0
100
AcDbSpline
70
4
71
2
72
6
73
3
40
0
40
0
40
0
40
1
40
1
40
1
41
1
10
29.248712250362
20
29.5094297189731
30
0
41
1
10
28.9404841335387
20
29.403805297735
30
0
41
1
10
28.6322916266904
20
29.2979169458708
30
0
0
SPLINE
5
1AF
100
AcDbEntity
8
1
62
256
6
ByLayer
370
18
48
1
60
0
100
AcDbSpline
70
4
71
2
72
6
73
3
40
0
40
0
40
0
40
1
40
1
40
1
41
1
10
29.3888310767258
20
30.4612636518074
30
0
41
1
10
29.4234314312959
20
30.5024199122279
30
0
41
1
10
29.4580330814393
20
30.5435743075481
30
0
0
SPLINE
5
1B0
100
AcDbEntity
8
1
62
256
6
ByLayer
370
18
48
1
60
0
100
AcDbSpline
70
4
71
1
72
4
73
2
40
0
40
0
40
1
40
1
41
1
10
26.1890452601718
20
19.2703985315236
30
0
41
1
10
26.4351418087188
20
19.4462686980857
30
0
0
SPLINE
5
1B1
100
AcDbEntity
8
1
62
256
6
ByLayer
370
18
48
1
60
0
100
AcDbSpline
70
4
71
2
72
6
73
3
40
0
40
0
40
0
40
1
40
1
40
1
41
1
10
26.6897268194209
20
20.3568305657686
30
0
41
1
10
26.4916088721122
20
20.6450268897883
30
0
41
1
10
26.2936499589156
20
20.9334106500096
30
0
0
SPLINE
5
1B2
100
AcDbEntity
8
1
62
256
6
ByLayer
370
18
48
1
60
0
100
AcDbSpline
70
4
71
1
72
4
73
2
40
0
40
0
40
1
40
1
41
1
10
8.7498383055058
20
33.644261774539
30
0
41
1
10
8.58053432415686
20
33.7537605334717
30
0
0
SPLINE
5
1B3
100
AcDbEntity
8
1
62
256
6
ByLayer
370
18
48
1
60
0
100
AcDbSpline
70
4
71
3
72
13
73
9
40
0
40
0
40
0
40
0
40
0.158375624163073
40
0.316414311201523
40
0.483210686761571
40
0.658509756633787
40
0.835179735204728
40
1
40
1
40
1
40
1
41
1
10
16.6567214207425
20
14.823330817628
30
0
41
1
10
16.6360056033556
20
14.8357474015761
30
0
41
1
10
16.6008521168613
20
14.8647403952179
30
0
41
1
10
16.5648813127437
20
14.9248565988795
30
0
41
1
10
16.55064117668
20
14.9941244418458
30
0
41
1
10
16.5611082517421
20
15.0666556975542
30
0
41
1
10
16.5975074628512
20
15.1322551703835
30
0
41
1
10
16.6351465014658
20
15.1636747071417
30
0
41
1
10
16.6567214207425
20
15.176669182372
30
0
0
SPLINE
5
1B4
100
AcDbEntity
8
1
62
256
6
ByLayer
370
18
48
1
60
0
100
AcDbSpline
70
4
71
3
72
13
73
9
40
0
40
0
40
0
40
0
40
0.158898999076428
40
0.317527298847147
40
0.48308453857708
40
0.655420267459113
40
0.828888031215739
40
1
40
1
40
1
40
1
41
1
10
16.6567214207425
20
13.323330817628
30
0
41
1
10
16.636053886901
20
13.3356783636509
30
0
41
1
10
16.6009496519472
20
13.3646326707242
30
0
41
1
10
16.5649136560209
20
13.4247476020092
30
0
41
1
10
16.5507173629195
20
13.4937807447913
30
0
41
1
10
16.5608843181019
20
13.5655848290493
30
0
41
1
10
16.5968158672902
20
13.6314699087412
30
0
41
1
10
16.6344089266434
20
13.6632477864922
30
0
41
1
10
16.6567214207425
20
13.676669182372
30
0
0
SPLINE
5
1B5
100
AcDbEntity
8
1
62
256
6
ByLayer
370
18
48
1
60
0
100
AcDbSpline
70
4
71
3
72
13
73
9
40
0
40
0
40
0
40
0
40
0.159364284498548
40
0.318516421215429
40
0.483029167791507
40
0.652827474792635
40
0.823540618603672
40
1
40
1
40
1
40
1
41
1
10
16.6567214207425
20
11.823330817628
30
0
41
1
10
16.6360956824497
20
11.8356181439011
30
0
41
1
10
16.6010339242127
20
11.8645397862627
30
0
41
1
10
16.5649382345114
20
11.924658590883
30
0
41
1
10
16.55078133951
20
11.9935017654836
30
0
41
1
10
16.5607012209217
20
12.0646853893184
30
0
41
1
10
16.596239280193
20
12.1308137645662
30
0
41
1
10
16.6337871441038
20
12.1628925773585
30
0
41
1
10
16.6567214207425
20
12.176669182372
30
0
0
SPLINE
5
1B6
100
AcDbEntity
8
1
62
256
6
ByLayer
370
18
48
1
60
0
100
AcDbSpline
70
4
71
3
72
13
73
9
40
0
40
0
40
0
40
0
40
0.159772966013629
40
0.319384849241984
40
0.483023813326053
40
0.65066717690191
40
0.819031318094342
40
1
40
1
40
1
40
1
41
1
10
16.6567214207425
20
10.323330817628
30
0
41
1
10
16.6361314720794
20
10.3355661996053
30
0
41
1
10
16.6011059605984
20
10.3644605320653
30
0
41
1
10
16.564956654596
20
10.4245864298902
30
0
41
1
10
16.5508346330148
20
10.4932768430221
30
0
41
1
10
16.5605522103629
20
10.5639354099414
30
0
41
1
10
16.5957613865069
20
10.6302692124059
30
0
41
1
10
16.6332665306656
20
10.662598940792
30
0
41
1
10
16.6567214207425
20
10.676669182372
30
0
0
SPLINE
5
1B7
100
AcDbEntity
8
1
62
256
6
ByLayer
370
18
48
1
60
0
100
AcDbSpline
70
4
71
3
72
14
73
10
40
0
40
0
40
0
40
0
40
0.160069262737795
40
0.320021252513985
40
0.482880085696356
40
0.648657297989146
40
0.8149846138324
40
0.97904888268798
40
1
40
1
40
1
40
1
41
1
10
16.6567214207425
20
8.82333081762798
30
0
41
1
10
16.6361616421939
20
8.83552208910676
30
0
41
1
10
16.6011647747415
20
8.86439180938048
30
0
41
1
10
16.5649765090053
20
8.92453621671708
30
0
41
1
10
16.5508542075695
20
8.99306901204005
30
0
41
1
10
16.5605245330461
20
9.06342657566217
30
0
41
1
10
16.5936332615205
20
9.12676619122811
30
0
41
1
10
16.6314732592682
20
9.16142602999396
30
0
41
1
10
16.6541136021109
20
9.17516247040694
30
0
41
1
10
16.6567214207425
20
9.17666918237203
30
0
0
SPLINE
5
1B8
100
AcDbEntity
8
1
62
256
6
ByLayer
370
18
48
1
60
0
100
AcDbSpline
70
4
71
3
72
14
73
10
40
0
40
0
40
0
40
0
40
0.160357629192556
40
0.320634620946349
40
0.482897490785117
40
0.647177715929767
40
0.811861025561358
40
0.975028211390151
40
1
40
1
40
1
40
1
41
1
10
16.6567214207425
20
7.32333081762798
30
0
41
1
10
16.6361865008501
20
7.33548545537446
30
0
41
1
10
16.6012145783117
20
7.3643371166856
30
0
41
1
10
16.5649861691733
20
7.42449103749456
30
0
41
1
10
16.550889288117
20
7.49292959747793
30
0
41
1
10
16.5604299409922
20
7.56292437182764
30
0
41
1
10
16.5930583121921
20
7.62590028809837
30
0
41
1
10
16.630744149968
20
7.66086850781167
30
0
41
1
10
16.6536226929563
20
7.67487881938242
30
0
41
1
10
16.6567214207425
20
7.67666918237202
30
0
0
SPLINE
5
1B9
100
AcDbEntity
8
1
62
256
6
ByLayer
370
18
48
1
60
0
100
AcDbSpline
70
4
71
3
72
14
73
10
40
0
40
0
40
0
40
0
40
0.160595485887433
40
0.321139992787439
40
0.482934695948032
40
0.646019769769746
40
0.809383887032673
40
0.971812774593117
40
1
40
1
40
1
40
1
41
1
10
16.6567214207425
20
5.82333081762798
30
0
41
1
10
16.6362062904031
20
5.8354560138625
30
0
41
1
10
16.6012541222837
20
5.86429369536336
30
0
41
1
10
16.5649925586928
20
5.92445709435313
30
0
41
1
10
16.550916723699
20
5.99282431327071
30
0
41
1
10
16.5603572225513
20
6.06253045274691
30
0
41
1
10
16.5926060616217
20
6.12521244311288
30
0
41
1
10
16.6301680755649
20
6.16042489668035
30
0
41
1
10
16.6532322736988
20
6.17465329703719
30
0
41
1
10
16.6567214207425
20
6.17666918237202
30
0
0
SPLINE
5
1BA
100
AcDbEntity
8
1
62
256
6
ByLayer
370
18
48
1
60
0
100
AcDbSpline
70
4
71
3
72
14
73
10
40
0
40
0
40
0
40
0
40
0.160783752265078
40
0.321539334257446
40
0.48298480241777
40
0.645160067778143
40
0.807512683516714
40
0.969362047042841
40
1
40
1
40
1
40
1
41
1
10
16.6567214207425
20
4.32333081762798
30
0
41
1
10
16.6362211967292
20
4.33543354355005
30
0
41
1
10
16.6012837926949
20
4.36426107595194
30
0
41
1
10
16.5649962129785
20
4.42443336093604
30
0
41
1
10
16.5509371170679
20
4.49274938069723
30
0
41
1
10
16.5603041173218
20
4.56223668342294
30
0
41
1
10
16.5922668149724
20
4.62469208140577
30
0
41
1
10
16.6297336685691
20
4.66008847472147
30
0
41
1
10
16.6529359969153
20
4.67448221179841
30
0
41
1
10
16.6567214207425
20
4.67666918237203
30
0
0
SPLINE
5
1BB
100
AcDbEntity
8
1
62
256
6
ByLayer
370
18
48
1
60
0
100
AcDbSpline
70
4
71
3
72
14
73
10
40
0
40
0
40
0
40
0
40
0.160923189236048
40
0.321834266579473
40
0.483042977134197
40
0.644581632606894
40
0.80621761621764
40
0.967645658418193
40
1
40
1
40
1
40
1
41
1
10
16.6567214207425
20
2.82333081762798
30
0
41
1
10
16.6362313558708
20
2.83541788041072
30
0
41
1
10
16.6013038702476
20
2.86423891427262
30
0
41
1
10
16.5649975132835
20
2.92441911051799
30
0
41
1
10
16.550950911716
20
2.9927020641009
30
0
41
1
10
16.5602690059008
20
3.06203711278795
30
0
41
1
10
16.5920335224425
20
3.12433137958729
30
0
41
1
10
16.6294326129695
20
3.15985423359261
30
0
41
1
10
16.6527291601237
20
3.17436281235549
30
0
41
1
10
16.6567214207425
20
3.17666918237203
30
0
0
SPLINE
5
1BC
100
AcDbEntity
8
1
62
256
6
ByLayer
370
18
48
1
60
0
100
AcDbSpline
70
4
71
3
72
14
73
10
40
0
40
0
40
0
40
0
40
0.161014396960979
40
0.322026060213675
40
0.483106176297347
40
0.644273142765201
40
0.80547842085428
40
0.966642560754397
40
1
40
1
40
1
40
1
41
1
10
16.6567214207425
20
1.32333081762798
30
0
41
1
10
16.6362368586671
20
1.33540891280603
30
0
41
1
10
16.6013145407548
20
1.36422697997168
30
0
41
1
10
16.5649967074852
20
1.42441387412243
30
0
41
1
10
16.5509584083372
20
1.49268054275612
30
0
41
1
10
16.5602508175728
20
1.56192772628929
30
0
41
1
10
16.5919014380967
20
1.6241249917232
30
0
41
1
10
16.629259263697
20
1.65971872400541
30
0
41
1
10
16.6526085326441
20
1.67429319979514
30
0
41
1
10
16.6567214207425
20
1.67666918237203
30
0
0
SPLINE
5
1BD
100
AcDbEntity
8
1
62
256
6
ByLayer
370
18
48
1
60
0
100
AcDbSpline
70
4
71
3
72
14
73
10
40
0
40
0
40
0
40
0
40
0.161053728965825
40
0.322103569594027
40
0.483243457747672
40
0.644446266876777
40
0.805629918845209
40
0.966735459198037
40
1
40
1
40
1
40
1
41
1
10
16.6567214207425
20
-1.67666918237202
30
0
41
1
10
16.6362340490579
20
-1.66458913712841
30
0
41
1
10
16.6013079663678
20
-1.63576659956128
30
0
41
1
10
16.5649891758768
20
-1.57557029161979
30
0
41
1
10
16.5509550573836
20
-1.50728828184059
30
0
41
1
10
16.5602633439666
20
-1.43802776921866
30
0
41
1
10
16.5919321976365
20
-1.37583485298323
30
0
41
1
10
16.6292850697009
20
-1.34026268509168
30
0
41
1
10
16.6526196952913
20
-1.325700328705
30
0
41
1
10
16.6567214207425
20
-1.32333081762797
30
0
0
SPLINE
5
1BE
100
AcDbEntity
8
1
62
256
6
ByLayer
370
18
48
1
60
0
100
AcDbSpline
70
4
71
3
72
14
73
10
40
0
40
0
40
0
40
0
40
0.161002269266865
40
0.321990105534835
40
0.483319252532877
40
0.644930202439988
40
0.806522414059982
40
0.967831989242712
40
1
40
1
40
1
40
1
41
1
10
16.6567214207425
20
-3.17666918237202
30
0
41
1
10
16.6362257122134
20
-3.16457820113773
30
0
41
1
10
16.6012906630784
20
-3.13574818556356
30
0
41
1
10
16.5649823679932
20
-3.07554904861613
30
0
41
1
10
16.5509441723786
20
-3.00723521072012
30
0
41
1
10
16.5602942634436
20
-2.93787332477861
30
0
41
1
10
16.592095561033
20
-2.87558786299983
30
0
41
1
10
16.6294845795868
20
-2.84010840910244
30
0
41
1
10
16.6527515822902
20
-2.8256241900084
30
0
41
1
10
16.6567214207425
20
-2.82333081762797
30
0
0
SPLINE
5
1BF
100
AcDbEntity
8
1
62
256
6
ByLayer
370
18
48
1
60
0
100
AcDbSpline
70
4
71
3
72
14
73
10
40
0
40
0
40
0
40
0
40
0.160903425909324
40
0.321775170116871
40
0.483403556915645
40
0.645688809967248
40
0.807974438596182
40
0.969642872427237
40
1
40
1
40
1
40
1
41
1
10
16.6567214207425
20
-4.67666918237202
30
0
41
1
10
16.6362126694036
20
-4.66456053244239
30
0
41
1
10
16.60126383415
20
-4.63571942389478
30
0
41
1
10
16.564973286945
20
-4.57551844068418
30
0
41
1
10
16.5509269136146
20
-4.50715558194693
30
0
41
1
10
16.5603425247206
20
-4.4376275699354
30
0
41
1
10
16.5923611945448
20
-4.37518565224576
30
0
41
1
10
16.6298125175475
20
-4.33985504719192
30
0
41
1
10
16.6529698738304
20
-4.32549815447545
30
0
41
1
10
16.6567214207425
20
-4.32333081762797
30
0
0
SPLINE
5
1C0
100
AcDbEntity
8
1
62
256
6
ByLayer
370
18
48
1
60
0
100
AcDbSpline
70
4
71
3
72
14
73
10
40
0
40
0
40
0
40
0
40
0.160757056281424
40
0.321458395676658
40
0.483501311854682
40
0.646735988634018
40
0.810008222374047
40
0.972189671518972
40
1
40
1
40
1
40
1
41
1
10
16.6567214207425
20
-6.17666918237202
30
0
41
1
10
16.6361948030751
20
-6.16453599946141
30
0
41
1
10
16.6012272298415
20
-6.13568001934821
30
0
41
1
10
16.5649615938326
20
-6.07547780743035
30
0
41
1
10
16.5509029403273
20
-6.00704715846671
30
0
41
1
10
16.5604094316277
20
-5.93728587725161
30
0
41
1
10
16.592734434267
20
-5.87462238774996
30
0
41
1
10
16.6302749216484
20
-5.83949896438467
30
0
41
1
10
16.6532779018714
20
-5.82532026652864
30
0
41
1
10
16.6567214207425
20
-5.82333081762797
30
0
0
SPLINE
5
1C1
100
AcDbEntity
8
1
62
256
6
ByLayer
370
18
48
1
60
0
100
AcDbSpline
70
4
71
3
72
14
73
10
40
0
40
0
40
0
40
0
40
0.160562901323968
40
0.321039151935365
40
0.483619445306931
40
0.648091567712413
40
0.812655702146824
40
0.975503245952338
40
1
40
1
40
1
40
1
41
1
10
16.6567214207425
20
-7.67666918237202
30
0
41
1
10
16.6361719480411
20
-7.66450441649581
30
0
41
1
10
16.6011804996097
20
-7.63562955688273
30
0
41
1
10
16.5649468067893
20
-7.57542621023723
30
0
41
1
10
16.5508717662434
20
-7.50690674325743
30
0
41
1
10
16.5604968674565
20
-7.43684161919553
30
0
41
1
10
16.5932229968407
20
-7.37388971666643
30
0
41
1
10
16.630880541762
20
-7.33903495634576
30
0
41
1
10
16.6536804744106
20
-7.32508771621488
30
0
41
1
10
16.6567214207425
20
-7.32333081762797
30
0
0
SPLINE
5
1C2
100
AcDbEntity
8
1
62
256
6
ByLayer
370
18
48
1
60
0
100
AcDbSpline
70
4
71
3
72
14
73
10
40
0
40
0
40
0
40
0
40
0.160320607156184
40
0.320516590422895
40
0.483767236537052
40
0.649782186975093
40
0.815959774231952
40
0.979624564275664
40
1
40
1
40
1
40
1
41
1
10
16.6567214207425
20
-9.17666918237202
30
0
41
1
10
16.6361438857817
20
-9.16446553836415
30
0
41
1
10
16.6011231790534
20
-9.1355674875126
30
0
41
1
10
16.5649282759181
20
-9.07536238118419
30
0
41
1
10
16.5508327421137
20
-9.00673003100024
30
0
41
1
10
16.5606074016221
20
-8.93628589259072
30
0
41
1
10
16.5938373564447
20
-8.87297647449249
30
0
41
1
10
16.631641237832
20
-8.83845609132659
30
0
41
1
10
16.6541840496875
20
-8.82479675077186
30
0
41
1
10
16.6567214207425
20
-8.82333081762797
30
0
0
SPLINE
5
1C3
100
AcDbEntity
8
1
62
256
6
ByLayer
370
18
48
1
60
0
100
AcDbSpline
70
4
71
3
72
13
73
9
40
0
40
0
40
0
40
0
40
0.160071358450389
40
0.319972868969637
40
0.484082643126869
40
0.652011996859324
40
0.820189218519654
40
1
40
1
40
1
40
1
41
1
10
16.6567214207425
20
-10.676669182372
30
0
41
1
10
16.6361103364653
20
-10.6644190529299
30
0
41
1
10
16.6010564442667
20
-10.6354909594886
30
0
41
1
10
16.5648988805365
20
-10.5752922484041
30
0
41
1
10
16.5508092284693
20
-10.5064820643233
30
0
41
1
10
16.5606518524044
20
-10.435719379472
30
0
41
1
10
16.5959703917564
20
-10.3695099861467
30
0
41
1
10
16.6334016087807
20
-10.3373129116031
30
0
41
1
10
16.6567214207425
20
-10.323330817628
30
0
0
SPLINE
5
1C4
100
AcDbEntity
8
1
62
256
6
ByLayer
370
18
48
1
60
0
100
AcDbSpline
70
4
71
3
72
13
73
9
40
0
40
0
40
0
40
0
40
0.159715344716405
40
0.319208272503902
40
0.484281069742981
40
0.654421300820973
40
0.824906628012439
40
1
40
1
40
1
40
1
41
1
10
16.6567214207425
20
-12.176669182372
30
0
41
1
10
16.6360709480042
20
-12.1643645709278
30
0
41
1
10
16.6009759459632
20
-12.1354033668033
30
0
41
1
10
16.564870204905
20
-12.0751985416826
30
0
41
1
10
16.5507514705686
20
-12.0062135274852
30
0
41
1
10
16.5608203058908
20
-11.9349066176703
30
0
41
1
10
16.5964881830122
20
-11.8689247261883
30
0
41
1
10
16.6339471009433
20
-11.8370029689387
30
0
41
1
10
16.6567214207425
20
-11.823330817628
30
0
0
SPLINE
5
1C5
100
AcDbEntity
8
1
62
256
6
ByLayer
370
18
48
1
60
0
100
AcDbSpline
70
4
71
3
72
13
73
9
40
0
40
0
40
0
40
0
40
0.15930750661268
40
0.318332433689288
40
0.484549647227639
40
0.657290584236443
40
0.830482094687785
40
1
40
1
40
1
40
1
41
1
10
16.6567214207425
20
-13.676669182372
30
0
41
1
10
16.6360252811169
20
-13.6643016122103
30
0
41
1
10
16.6008825572302
20
-13.6353014795201
30
0
41
1
10
16.5648344075412
20
-13.5750859500418
30
0
41
1
10
16.550682657482
20
-13.5058864996045
30
0
41
1
10
16.5610254677038
20
-13.4339379333154
30
0
41
1
10
16.5971096568717
20
-13.3682235045496
30
0
41
1
10
16.6345964551975
20
-13.3366297067323
30
0
41
1
10
16.6567214207425
20
-13.323330817628
30
0
0
SPLINE
5
1C6
100
AcDbEntity
8
1
62
256
6
ByLayer
370
18
48
1
60
0
100
AcDbSpline
70
4
71
3
72
13
73
9
40
0
40
0
40
0
40
0
40
0.158847533779235
40
0.317344514606519
40
0.484914256982776
40
0.660691094175071
40
0.837026367277296
40
1
40
1
40
1
40
1
41
1
10
16.6567214207425
20
-15.176669182372
30
0
41
1
10
16.6359727888631
20
-15.1642295871043
30
0
41
1
10
16.6007750941041
20
-15.1351839284284
30
0
41
1
10
16.5647896378406
20
-15.0749508158747
30
0
41
1
10
16.5506011920139
20
-15.0054891801899
30
0
41
1
10
16.5612748395359
20
-14.9327897348276
30
0
41
1
10
16.59785251585
20
-14.8673877246738
30
0
41
1
10
16.6353649799808
20
-14.8361825778659
30
0
41
1
10
16.6567214207425
20
-14.823330817628
30
0
0
SPLINE
5
1C7
100
AcDbEntity
8
1
62
256
6
ByLayer
370
18
48
1
60
0
100
AcDbSpline
70
4
71
3
72
13
73
9
40
0
40
0
40
0
40
0
40
0.158335444184244
40
0.316244332382429
40
0.485408720814646
40
0.664714008184591
40
0.844678915416345
40
1
40
1
40
1
40
1
41
1
10
16.6567214207425
20
-16.676669182372
30
0
41
1
10
16.6359127883238
20
-16.6641477709001
30
0
41
1
10
16.6006520671024
20
-16.6350490049734
30
0
41
1
10
16.5647334938126
20
-16.5747883678536
30
0
41
1
10
16.5505051124284
20
-16.5050064366708
30
0
41
1
10
16.5615782678384
20
-16.4314321447063
30
0
41
1
10
16.598739728651
20
-16.3663938552838
30
0
41
1
10
16.6362722286576
20
-16.3356483092456
30
0
41
1
10
16.6567214207425
20
-16.323330817628
30
0
0
SPLINE
5
1C8
100
AcDbEntity
8
1
62
256
6
ByLayer
370
18
48
1
60
0
100
AcDbSpline
70
4
71
3
72
13
73
9
40
0
40
0
40
0
40
0
40
0.157771839063664
40
0.31503288379854
40
0.486077639052458
40
0.669476913083249
40
0.853616248749114
40
1
40
1
40
1
40
1
41
1
10
16.6567214207425
20
-18.176669182372
30
0
41
1
10
16.6358444208222
20
-18.1640552684253
30
0
41
1
10
16.6005115876777
20
-18.1348945617888
30
0
41
1
10
16.5646628327515
20
-18.0745923290364
30
0
41
1
10
16.5503920166655
20
-18.0044187146963
30
0
41
1
10
16.5619488036311
20
-17.9298270984834
30
0
41
1
10
16.5998013971998
20
-17.8652119619339
30
0
41
1
10
16.637343368805
20
-17.8350101292208
30
0
41
1
10
16.6567214207425
20
-17.823330817628
30
0
0
SPLINE
5
1C9
100
AcDbEntity
8
1
62
256
6
ByLayer
370
18
48
1
60
0
100
AcDbSpline
70
4
71
3
72
13
73
9
40
0
40
0
40
0
40
0
40
0.157158298265515
40
0.31371315762388
40
0.486980529233062
40
0.675133133747615
40
0.86406353282101
40
1
40
1
40
1
40
1
41
1
10
16.6567214207425
20
-19.676669182372
30
0
41
1
10
16.6357665949832
20
-19.6639509638934
30
0
41
1
10
16.6003512336476
20
-19.6347178699254
30
0
41
1
10
16.5645734979511
20
-19.5743543478913
30
0
41
1
10
16.5502589733907
20
-19.5037004709601
30
0
41
1
10
16.5624039672798
20
-19.4279256602777
30
0
41
1
10
16.6010775194905
20
-19.3638036490471
30
0
41
1
10
16.6386111587031
20
-19.3342467012971
30
0
41
1
10
16.6567214207425
20
-19.323330817628
30
0
0
SPLINE
5
1CA
100
AcDbEntity
8
1
62
256
6
ByLayer
370
18
48
1
60
0
100
AcDbSpline
70
4
71
3
72
13
73
9
40
0
40
0
40
0
40
0
40
0.156498004876983
40
0.312291415712047
40
0.488197998822884
40
0.681885463365116
40
0.876311084364892
40
1
40
1
40
1
40
1
41
1
10
16.6567214207425
20
-21.176669182372
30
0
41
1
10
16.6356779033467
20
-21.1638334482203
30
0
41
1
10
16.6001678513127
20
-21.1345154091597
30
0
41
1
10
16.5644599160135
20
-21.0740631544706
30
0
41
1
10
16.5501024263618
20
-21.002817871391
30
0
41
1
10
16.5629676450984
20
-20.9256641609289
30
0
41
1
10
16.6026221852588
20
-20.8621191265058
30
0
41
1
10
16.6401188655883
20
-20.8333306314725
30
0
41
1
10
16.6567214207425
20
-20.823330817628
30
0
0
SPLINE
5
1CB
100
AcDbEntity
8
1
62
256
6
ByLayer
370
18
48
1
60
0
100
AcDbSpline
70
4
71
3
72
14
73
10
40
0
40
0
40
0
40
0
40
0.161057815678163
40
0.322115635678033
40
0.483172970701111
40
0.644228440537495
40
0.805283586627006
40
0.966340455726371
40
1
40
1
40
1
40
1
41
1
10
16.6567214207425
20
-0.176669182372023
30
0
41
1
10
16.636237753739
20
-0.16459342153078
30
0
41
1
10
16.6013159018307
20
-0.135774850859959
30
0
41
1
10
16.5649939234132
20
-0.0755825862437686
30
0
41
1
10
16.5509597758129
20
-0.0073161720786999
30
0
41
1
10
16.5602489712705
20
0.0619062838403648
30
0
41
1
10
16.5918678978745
20
0.124069866962153
30
0
41
1
10
16.6292103968281
20
0.159679951191509
30
0
41
1
10
16.6525722395704
20
0.174272268352245
30
0
41
1
10
16.6567214207425
20
0.176669182372027
30
0
0
SPLINE
5
1CC
100
AcDbEntity
8
SK1
62
256
6
ByLayer
370
18
48
1
60
0
100
AcDbSpline
70
4
71
3
72
14
73
10
40
0
40
0
40
0
40
0
40
0.102447815365659
40
0.204574552759586
40
0.342918058776925
40
0.546678184696305
40
0.715590242630686
40
0.888823652147958
40
1
40
1
40
1
40
1
41
1
10
-1
20
-32.3463983050847
30
0
41
1
10
-0.912620317035887
20
-32.3481654254939
30
0
41
1
10
-0.748996013305208
20
-32.3697909468455
30
0
41
1
10
-0.502313836695859
20
-32.4779769775557
30
0
41
1
10
-0.264837987456525
20
-32.6757087862518
30
0
41
1
10
-0.108422857765703
20
-32.9273122188117
30
0
41
1
10
-0.0281601553945602
20
-33.1691980275547
30
0
41
1
10
-0.0036491135318616
20
-33.3416569441337
30
0
41
1
10
0.0006450927727366
20
-33.4321881504848
30
0
41
1
10
2.6E-15
20
-33.4650423728814
30
0
0
SPLINE
5
1CD
100
AcDbEntity
8
SK1
62
256
6
ByLayer
370
18
48
1
60
0
100
AcDbSpline
70
4
71
3
72
21
73
17
40
0
40
0
40
0
40
0
40
0.021508781993622
40
0.0938876041164899
40
0.162800648833067
40
0.233602820236957
40
0.30467324997233
40
0.377585821448542
40
0.452904488382658
40
0.530184054508492
40
0.609722876393345
40
0.691426107516406
40
0.773500438283841
40
0.857926982052364
40
0.928206656782676
40
1
40
1
40
1
40
1
41
1
10
-5.50000000000382
20
-32.4999999999996
30
0
41
1
10
-5.50000896996339
20
-32.4999962138102
30
0
41
1
10
-5.50747943045686
20
-32.4991141661314
30
0
41
1
10
-5.57758480849758
20
-32.4907389234931
30
0
41
1
10
-5.77689574679691
20
-32.4677331136608
30
0
41
1
10
-6.07376384074755
20
-32.435406231096
30
0
41
1
10
-6.46773090044977
20
-32.3961584995142
30
0
41
1
10
-6.95190133386085
20
-32.3536185280911
30
0
41
1
10
-7.52162446520613
20
-32.3116948313795
30
0
41
1
10
-8.16757498112299
20
-32.2748918004221
30
0
41
1
10
-8.87603407182548
20
-32.2477167696641
30
0
41
1
10
-9.62612437335999
20
-32.2341273741125
30
0
41
1
10
-10.3988257214252
20
-32.2364613657267
30
0
41
1
10
-11.1227965228787
20
-32.2540712669031
30
0
41
1
10
-11.7859281483382
20
-32.283049884971
30
0
41
1
10
-12.1729717155555
20
-32.3059541245997
30
0
41
1
10
-12.362184906147
20
-32.3189265490895
30
0
0
SPLINE
5
1CE
100
AcDbEntity
8
SK1
62
256
6
ByLayer
370
18
48
1
60
0
100
AcDbSpline
70
4
71
3
72
14
73
10
40
0
40
0
40
0
40
0
40
0.0969896989542473
40
0.253099760435569
40
0.413634901411744
40
0.571961176753543
40
0.734446107142565
40
0.866169370193689
40
1
40
1
40
1
40
1
41
1
10
-14.2999999999988
20
32.4999999999999
30
0
41
1
10
-14.2999287357229
20
32.4999744141343
30
0
41
1
10
-14.2822242112944
20
32.4978909243709
30
0
41
1
10
-14.1772058152442
20
32.4854295847409
30
0
41
1
10
-13.9524809909992
20
32.4598257122577
30
0
41
1
10
-13.6269799355514
20
32.4251268921637
30
0
41
1
10
-13.23899507012
20
32.3876483159746
30
0
41
1
10
-12.8108031324899
20
32.3510131609859
30
0
41
1
10
-12.5175487250683
20
32.3295705510061
30
0
41
1
10
-12.362184906147
20
32.3189265490895
30
0
0
SPLINE
5
1CF
100
AcDbEntity
8
SK1
62
256
6
ByLayer
370
18
48
1
60
0
100
AcDbSpline
70
4
71
3
72
12
73
8
40
0
40
0
40
0
40
0
40
0.166865682553931
40
0.339685520144228
40
0.513797172566599
40
0.756313924510233
40
1
40
1
40
1
40
1
41
1
10
-4.42607577378445
20
-32.5
30
0
41
1
10
-4.42553461190738
20
-32.4999722111481
30
0
41
1
10
-4.40777897307412
20
-32.4968949132024
30
0
41
1
10
-4.32579723071476
20
-32.4827439633738
30
0
41
1
10
-4.18051668579494
20
-32.4560607044633
30
0
41
1
10
-3.9629279381406
20
-32.4127920772306
30
0
41
1
10
-3.77666249320782
20
-32.3703829749162
30
0
41
1
10
-3.675
20
-32.3463983050847
30
0
0
SPLINE
5
1D0
100
AcDbEntity
8
SK1
62
256
6
ByLayer
370
18
48
1
60
0
100
AcDbSpline
70
4
71
3
72
14
73
10
40
0
40
0
40
0
40
0
40
0.150802230495262
40
0.304762367728403
40
0.480281632828494
40
0.66152260161248
40
0.826752518252211
40
0.997290039607413
40
1
40
1
40
1
40
1
41
1
10
-12.362184906147
20
-32.3189265490895
30
0
41
1
10
-12.5375085183743
20
-32.3309981044462
30
0
41
1
10
-12.8718617543024
20
-32.3556541196095
30
0
41
1
10
-13.3406385607444
20
-32.3969361661128
30
0
41
1
10
-13.7536245609843
20
-32.4381511853392
30
0
41
1
10
-14.066100028931
20
-32.4725715674016
30
0
41
1
10
-14.2561485657639
20
-32.4947349178546
30
0
41
1
10
-14.2996607748596
20
-32.4999598426195
30
0
41
1
10
-14.2999995193085
20
-32.4999998643602
30
0
41
1
10
-14.3000004405518
20
-32.5000002554227
30
0
0
SPLINE
5
1D1
100
AcDbEntity
8
SK1
62
256
6
ByLayer
370
18
48
1
60
0
100
AcDbSpline
70
4
71
3
72
20
73
16
40
0
40
0
40
0
40
0
40
0.0679519617810882
40
0.135915741701729
40
0.214414194033564
40
0.292922768057179
40
0.374734099139304
40
0.456546579942911
40
0.539783819326159
40
0.623011078452921
40
0.705479187435673
40
0.787923152239458
40
0.867146946873248
40
0.946341792932474
40
1
40
1
40
1
40
1
41
1
10
-13.2023046070335
20
13.8276899954256
30
0
41
1
10
-13.0561329818478
20
13.6865362803753
30
0
41
1
10
-12.7451968403696
20
13.4257742983304
30
0
41
1
10
-12.1908230305407
20
13.0785924582784
30
0
41
1
10
-11.5548252617879
20
12.8000389053042
30
0
41
1
10
-10.8370694127607
20
12.605081263868
30
0
41
1
10
-10.083722836367
20
12.5207618896295
30
0
41
1
10
-9.31071718010857
20
12.5504693042448
30
0
41
1
10
-8.54989203326453
20
12.7016413545026
30
0
41
1
10
-7.82483604877917
20
12.9670595518793
30
0
41
1
10
-7.16349147853931
20
13.3419252655967
30
0
41
1
10
-6.59106072335359
20
13.8044089240824
30
0
41
1
10
-6.12635635628518
20
14.3409188432386
30
0
41
1
10
-5.81462674303881
20
14.8672128035752
30
0
41
1
10
-5.68124414500084
20
15.2136682355881
30
0
41
1
10
-5.63681675292592
20
15.3570372641417
30
0
0
SPLINE
5
1D2
100
AcDbEntity
8
SK1
62
256
6
ByLayer
370
18
48
1
60
0
100
AcDbSpline
70
4
71
3
72
11
73
7
40
0
40
0
40
0
40
0
40
0.171747286388738
40
0.503254516011727
40
0.75161442461483
40
1
40
1
40
1
40
1
41
1
10
-14.1573143693692
20
15.3382201160614
30
0
41
1
10
-14.1269156697494
20
15.2426563447813
30
0
41
1
10
-14.0252747218658
20
14.9667538444148
30
0
41
1
10
-13.8168448178634
20
14.5683399869087
30
0
41
1
10
-13.5204829450819
20
14.1606244624096
30
0
41
1
10
-13.3135182097437
20
13.9356095516653
30
0
41
1
10
-13.2023046070335
20
13.8276899954256
30
0
0
SPLINE
5
1D3
100
AcDbEntity
8
SK1
62
256
6
ByLayer
370
18
48
1
60
0
100
AcDbSpline
70
4
71
3
72
20
73
16
40
0
40
0
40
0
40
0
40
0.0666060730092201
40
0.134511423386803
40
0.215234991635472
40
0.298202025720272
40
0.380619191476156
40
0.46543392586805
40
0.547601469871109
40
0.632299145743221
40
0.711835936378535
40
0.793967447465042
40
0.86878481634125
40
0.946054827353154
40
1
40
1
40
1
40
1
41
1
10
-12.362184906147
20
32.3189265490895
30
0
41
1
10
-12.1868634449271
20
32.3069281769529
30
0
41
1
10
-11.8214657978684
20
32.2850793138273
30
0
41
1
10
-11.1946110882457
20
32.2567514234523
30
0
41
1
10
-10.4896177830355
20
32.2379278202878
30
0
41
1
10
-9.72397249424492
20
32.2334637326501
30
0
41
1
10
-8.9506699003681
20
32.2454794337803
30
0
41
1
10
-8.20621461551815
20
32.2727741780959
30
0
41
1
10
-7.50417138244199
20
32.3125021692235
30
0
41
1
10
-6.88581961307705
20
32.3587708762018
30
0
41
1
10
-6.35718510596183
20
32.4065282639767
30
0
41
1
10
-5.95254487579439
20
32.4482342766601
30
0
41
1
10
-5.6677980937857
20
32.4801533652988
30
0
41
1
10
-5.52625413109051
20
32.4968869261029
30
0
41
1
10
-5.50016314361388
20
32.4999427524581
30
0
41
1
10
-5.50000000000515
20
32.4999999999994
30
0
0
SPLINE
5
1D4
100
AcDbEntity
8
SK1
62
256
6
ByLayer
370
18
48
1
60
0
100
AcDbSpline
70
4
71
3
72
23
73
19
40
0
40
0
40
0
40
0
40
0.0474270385306886
40
0.105394244217456
40
0.163376267384404
40
0.224266785881088
40
0.285171151842915
40
0.349828171114265
40
0.414493557920546
40
0.482057308937287
40
0.549622114732259
40
0.618384976262759
40
0.687139738196693
40
0.755292527314493
40
0.823425511664577
40
0.888925554885482
40
0.954401617600469
40
1
40
1
40
1
40
1
41
1
10
-5.63840959184743
20
-15.3518897312663
30
0
41
1
10
-5.68625357451701
20
-15.1984965983124
30
0
41
1
10
-5.81662022540399
20
-14.8663421072445
30
0
41
1
10
-6.10637159391748
20
-14.3760970461501
30
0
41
1
10
-6.50817871050303
20
-13.892926569735
30
0
41
1
10
-6.99943198841844
20
-13.4637375247808
30
0
41
1
10
-7.57844552171022
20
-13.0934578104455
30
0
41
1
10
-8.22846728685328
20
-12.8060624968063
30
0
41
1
10
-8.94374286148983
20
-12.6088326826025
30
0
41
1
10
-9.69577881516999
20
-12.5215630915756
30
0
41
1
10
-10.4687063661698
20
-12.5480971464318
30
0
41
1
10
-11.2301397765054
20
-12.6960941417089
30
0
41
1
10
-11.9565492810202
20
-12.9585114766558
30
0
41
1
10
-12.6199113078741
20
-13.3306926459647
30
0
41
1
10
-13.1949884932337
20
-13.7910183540781
30
0
41
1
10
-13.6628078637474
20
-14.3259614185356
30
0
41
1
10
-13.9798196163266
20
-14.8551656937975
30
0
41
1
10
-14.115986947256
20
-15.2054660092475
30
0
41
1
10
-14.1619174603966
20
-15.352944156438
30
0
0
SPLINE
5
1D5
100
AcDbEntity
8
1
62
256
6
ByLayer
370
18
48
1
60
0
100
AcDbSpline
70
4
71
3
72
18
73
14
40
0
40
0
40
0
40
0
40
0.0847059721208457
40
0.176705413805083
40
0.268717037588905
40
0.363888985513151
40
0.459067447407285
40
0.556529484240564
40
0.653990127875342
40
0.752129377291571
40
0.850258190117585
40
0.925132102898104
40
1
40
1
40
1
40
1
41
1
10
13.4196006868529
20
33.7538559934616
30
0
41
1
10
13.3279147234828
20
33.6891101214203
30
0
41
1
10
13.1206495153342
20
33.5629225818718
30
0
41
1
10
12.7495907206362
20
33.3971116545324
30
0
41
1
10
12.3197993495494
20
33.2596481170012
30
0
41
1
10
11.8491806105659
20
33.1614825710429
30
0
41
1
10
11.3470027619351
20
33.1054019117402
30
0
41
1
10
10.8309692651349
20
33.0974100096863
30
0
41
1
10
10.3143317807159
20
33.1371771719082
30
0
41
1
10
9.81621453511412
20
33.2259188275056
30
0
41
1
10
9.38729821952072
20
33.34850671123
30
0
41
1
10
9.03133316365025
20
33.4913955028458
30
0
41
1
10
8.83998509118654
20
33.5909428981428
30
0
41
1
10
8.7498383055058
20
33.644261774539
30
0
0
SPLINE
5
1D6
100
AcDbEntity
8
1
62
256
6
ByLayer
370
18
48
1
60
0
100
AcDbSpline
70
4
71
3
72
35
73
31
40
0
40
0
40
0
40
0
40
0.013513837509092
40
0.0474642304756929
40
0.0851669705572535
40
0.122865764885792
40
0.159508015067931
40
0.19615142962355
40
0.232484575342644
40
0.268822455633
40
0.305816606913239
40
0.342816441487568
40
0.381057370056754
40
0.419302707180737
40
0.458782183628826
40
0.498263380626333
40
0.538493603230784
40
0.578722097745562
40
0.618994663339415
40
0.659261815045194
40
0.698821058913233
40
0.738372826626954
40
0.776632418648366
40
0.814886567836682
40
0.851829443066858
40
0.888771896445508
40
0.925091878966877
40
0.961415742142681
40
0.998110929137737
40
1
40
1
40
1
40
1
41
1
10
8.58053432415686
20
33.7537605334717
30
0
41
1
10
8.54532800866299
20
33.7787302469829
30
0
41
1
10
8.42696504167347
20
33.8678308670289
30
0
41
1
10
8.24534819311205
20
34.0379379105075
30
0
41
1
10
8.08377977192761
20
34.2696471912264
30
0
41
1
10
7.99745263007882
20
34.5136250651286
30
0
41
1
10
7.99622743987021
20
34.7539136149007
30
0
41
1
10
8.07348820102017
20
34.9834154204305
30
0
41
1
10
8.22916661358494
20
35.197749573745
30
0
41
1
10
8.45550956058026
20
35.3940053185452
30
0
41
1
10
8.75004034646242
20
35.5674184000066
30
0
41
1
10
9.10655034785793
20
35.7170207770037
30
0
41
1
10
9.51725646125935
20
35.8374024595813
30
0
41
1
10
9.97535935038235
20
35.9278220504441
30
0
41
1
10
10.4664743740527
20
35.9835671337626
30
0
41
1
10
10.9802093021713
20
36.0040337538381
30
0
41
1
10
11.4978544358728
20
35.9864073023616
30
0
41
1
10
12.0051338821537
20
35.9312718650846
30
0
41
1
10
12.4833212351631
20
35.8379749052145
30
0
41
1
10
12.9170151135114
20
35.7097039328152
30
0
41
1
10
13.291246437618
20
35.5477422732393
30
0
41
1
10
13.5943898043452
20
35.3589601496413
30
0
41
1
10
13.8175563534398
20
35.1461814962231
30
0
41
1
10
13.9578075880346
20
34.9190115527606
30
0
41
1
10
14.0119440805264
20
34.6810083567022
30
0
41
1
10
13.9854192452486
20
34.4411917176872
30
0
41
1
10
13.8774854784254
20
34.203819070722
30
0
41
1
10
13.6974241411333
20
33.9748083851842
30
0
41
1
10
13.5229318030266
20
33.8290912580871
30
0
41
1
10
13.424449190816
20
33.7573602742752
30
0
41
1
10
13.4196006868529
20
33.7538559934616
30
0
0
INSERT
5
206
100
AcDbEntity
8
SK2
62
256
6
ByLayer
370
25
48
1
60
0
100
AcDbBlockReference
2
DimnDraft3D44
10
0
20
0
30
0
41
1
42
1
43
1
50
0
210
0
220
0
230
1
0
LINE
5
70
100
AcDbEntity
8
81
62
256
6
ByLayer
370
18
48
1
60
0
100
AcDbLine
10
17
20
0
30
0
11
18.7
21
0
31
0
39
0
210
0
220
0
230
1
0
LINE
5
71
100
AcDbEntity
8
4
62
256
6
ByLayer
370
18
48
0.05
60
0
100
AcDbLine
10
0
20
0
30
0
11
17
21
0
31
0
39
0
210
0
220
0
230
1
0
LINE
5
73
100
AcDbEntity
8
SK4
62
256
6
ByLayer
370
18
48
0.05
60
0
100
AcDbLine
10
-25
20
0
30
0
11
22
21
0
31
0
39
0
210
0
220
0
230
1
0
LINE
5
75
100
AcDbEntity
8
80
62
256
6
ByLayer
370
18
48
1
60
0
100
AcDbLine
10
0
20
0
30
0
11
-1.7
21
0
31
0
39
0
210
0
220
0
230
1
0
LINE
5
76
100
AcDbEntity
8
SK1
62
256
6
ByLayer
370
18
48
1
60
0
100
AcDbLine
10
-15.9
20
-38
30
0
11
-15.9
21
-40
31
0
39
0
210
0
220
0
230
1
0
LINE
5
78
100
AcDbEntity
8
SK1
62
256
6
ByLayer
370
18
48
1
60
0
100
AcDbLine
10
-3.9
20
-40
30
0
11
-3.9
21
-38
31
0
39
0
210
0
220
0
230
1
0
LINE
5
79
100
AcDbEntity
8
SK1
62
256
6
ByLayer
370
18
48
1
60
0
100
AcDbLine
10
-3.9
20
-38
30
0
11
-5.9
21
-36
31
0
39
0
210
0
220
0
230
1
0
LINE
5
7A
100
AcDbEntity
8
SK1
62
256
6
ByLayer
370
18
48
1
60
0
100
AcDbLine
10
-13.9
20
-36
30
0
11
-15.9
21
-38
31
0
39
0
210
0
220
0
230
1
0
LINE
5
7B
100
AcDbEntity
8
SK1
62
256
6
ByLayer
370
18
48
1
60
0
100
AcDbLine
10
-13.9
20
-32.45476
30
0
11
-13.9
21
-36
31
0
39
0
210
0
220
0
230
1
0
LINE
5
7C
100
AcDbEntity
8
SK1
62
256
6
ByLayer
370
18
48
1
60
0
100
AcDbLine
10
-5.9
20
-36
30
0
11
-5.9
21
-32.454688
31
0
39
0
210
0
220
0
230
1
0
LINE
5
7D
100
AcDbEntity
8
1
62
256
6
ByLayer
370
18
48
1
60
0
100
AcDbLine
10
32.583888
20
21.784525
30
0
11
32.66051
21
21.869907
31
0
39
0
210
0
220
0
230
1
0
LINE
5
7F
100
AcDbEntity
8
1
62
256
6
ByLayer
370
18
48
1
60
0
100
AcDbLine
10
33.489865
20
24.170085
30
0
11
33.485361
21
24.284719
31
0
39
0
210
0
220
0
230
1
0
LINE
5
80
100
AcDbEntity
8
1
62
256
6
ByLayer
370
18
48
1
60
0
100
AcDbLine
10
32.595077
20
25.850647
30
0
11
28.611161
21
27.287093
31
0
39
0
210
0
220
0
230
1
0
LINE
5
81
100
AcDbEntity
8
1
62
256
6
ByLayer
370
18
48
1
60
0
100
AcDbLine
10
26.915227
20
22.583498
30
0
11
30.899143
21
21.147052
31
0
39
0
210
0
220
0
230
1
0
LINE
5
82
100
AcDbEntity
8
1
62
256
6
ByLayer
370
18
48
1
60
0
100
AcDbLine
10
25.625
20
-19.845237
30
0
11
21.2
21
-19.845237
31
0
39
0
210
0
220
0
230
1
0
LINE
5
83
100
AcDbEntity
8
1
62
256
6
ByLayer
370
18
48
1
60
0
100
AcDbLine
10
21.2
20
-17
30
0
11
25.625
21
-17
31
0
39
0
210
0
220
0
230
1
0
LINE
5
84
100
AcDbEntity
8
1
62
256
6
ByLayer
370
18
48
1
60
0
100
AcDbLine
10
29.925
20
-22.25
30
0
11
29.925
21
-39.868076
31
0
39
0
210
0
220
0
230
1
0
LINE
5
85
100
AcDbEntity
8
1
62
256
6
ByLayer
370
18
48
1
60
0
100
AcDbLine
10
29.925
20
-39.868076
30
0
11
16.5
21
-39.868076
31
0
39
0
210
0
220
0
230
1
0
LINE
5
86
100
AcDbEntity
8
1
62
256
6
ByLayer
370
18
48
1
60
0
100
AcDbLine
10
16.5
20
-36.5
30
0
11
16.5
21
-39.868076
31
0
39
0
210
0
220
0
230
1
0
LINE
5
87
100
AcDbEntity
8
1
62
256
6
ByLayer
370
18
48
1
60
0
100
AcDbLine
10
16.5
20
-36.5
30
0
11
18
21
-36.5
31
0
39
0
210
0
220
0
230
1
0
LINE
5
88
100
AcDbEntity
8
1
62
256
6
ByLayer
370
18
48
1
60
0
100
AcDbLine
10
18
20
-36.5
30
0
11
18
21
-22.25
31
0
39
0
210
0
220
0
230
1
0
LINE
5
89
100
AcDbEntity
8
1
62
256
6
ByLayer
370
18
48
1
60
0
100
AcDbLine
10
18
20
-22.25
30
0
11
20
21
-22.25
31
0
39
0
210
0
220
0
230
1
0
LINE
5
8A
100
AcDbEntity
8
1
62
256
6
ByLayer
370
18
48
1
60
0
100
AcDbLine
10
26.825
20
-22.25
30
0
11
29.925
21
-22.25
31
0
39
0
210
0
220
0
230
1
0
LINE
5
8B
100
AcDbEntity
8
1
62
256
6
ByLayer
370
18
48
1
60
0
100
AcDbLine
10
25.625
20
-19.845237
30
0
11
25.625
21
-21.05
31
0
39
0
210
0
220
0
230
1
0
LINE
5
8C
100
AcDbEntity
8
1
62
256
6
ByLayer
370
18
48
1
60
0
100
AcDbLine
10
21.2
20
-19.845237
30
0
11
21.2
21
-21.05
31
0
39
0
210
0
220
0
230
1
0
LINE
5
8D
100
AcDbEntity
8
1
62
256
6
ByLayer
370
18
48
1
60
0
100
AcDbLine
10
16.5
20
-39.868076
30
0
11
16.325
21
-39.868076
31
0
39
0
210
0
220
0
230
1
0
LINE
5
8E
100
AcDbEntity
8
1
62
256
6
ByLayer
370
18
48
1
60
0
100
AcDbLine
10
16.5
20
-36.5
30
0
11
16.325
21
-36.5
31
0
39
0
210
0
220
0
230
1
0
LINE
5
8F
100
AcDbEntity
8
1
62
256
6
ByLayer
370
18
48
1
60
0
100
AcDbLine
10
15.919188
20
19
30
0
11
16.5
21
19
31
0
39
0
210
0
220
0
230
1
0
LINE
5
90
100
AcDbEntity
8
1
62
256
6
ByLayer
370
18
48
1
60
0
100
AcDbLine
10
22.5751
20
-1.65
30
0
11
22.8251
21
-1.4
31
0
39
0
210
0
220
0
230
1
0
LINE
5
91
100
AcDbEntity
8
1
62
256
6
ByLayer
370
18
48
1
60
0
100
AcDbLine
10
22.8251
20
1.4
30
0
11
22.5751
21
1.65
31
0
39
0
210
0
220
0
230
1
0
LINE
5
92
100
AcDbEntity
8
1
62
256
6
ByLayer
370
18
48
1
60
0
100
AcDbLine
10
16.62456
20
-1.65
30
0
11
22.5751
21
-1.65
31
0
39
0
210
0
220
0
230
1
0
LINE
5
93
100
AcDbEntity
8
1
62
256
6
ByLayer
370
18
48
1
60
0
100
AcDbLine
10
22.5751
20
1.65
30
0
11
16.624617
21
1.65
31
0
39
0
210
0
220
0
230
1
0
LINE
5
94
100
AcDbEntity
8
SK1
62
256
6
ByLayer
370
18
48
1
60
0
100
AcDbLine
10
-15.9
20
-19
30
0
11
-15.9
21
-20
31
0
39
0
210
0
220
0
230
1
0
LINE
5
95
100
AcDbEntity
8
SK1
62
256
6
ByLayer
370
18
48
1
60
0
100
AcDbLine
10
-3.9
20
-20
30
0
11
-3.9
21
-19
31
0
39
0
210
0
220
0
230
1
0
LINE
5
96
100
AcDbEntity
8
SK1
62
256
6
ByLayer
370
18
48
1
60
0
100
AcDbLine
10
-6.435898
20
-20
30
0
11
-8.167949
21
-22.598076
31
0
39
0
210
0
220
0
230
1
0
LINE
5
97
100
AcDbEntity
8
SK1
62
256
6
ByLayer
370
18
48
1
60
0
100
AcDbLine
10
-8.167949
20
-17.401924
30
0
11
-6.435898
21
-20
31
0
39
0
210
0
220
0
230
1
0
LINE
5
98
100
AcDbEntity
8
SK1
62
256
6
ByLayer
370
18
48
1
60
0
100
AcDbLine
10
-11.632051
20
-17.401924
30
0
11
-8.167949
21
-17.401924
31
0
39
0
210
0
220
0
230
1
0
LINE
5
99
100
AcDbEntity
8
SK1
62
256
6
ByLayer
370
18
48
1
60
0
100
AcDbLine
10
-13.364102
20
-20
30
0
11
-11.632051
21
-17.401924
31
0
39
0
210
0
220
0
230
1
0
LINE
5
9A
100
AcDbEntity
8
SK1
62
256
6
ByLayer
370
18
48
1
60
0
100
AcDbLine
10
-11.632051
20
-22.598076
30
0
11
-13.364102
21
-20
31
0
39
0
210
0
220
0
230
1
0
LINE
5
9B
100
AcDbEntity
8
SK1
62
256
6
ByLayer
370
18
48
1
60
0
100
AcDbLine
10
-8.167949
20
-22.598076
30
0
11
-11.632051
21
-22.598076
31
0
39
0
210
0
220
0
230
1
0
LINE
5
9C
100
AcDbEntity
8
SK1
62
256
6
ByLayer
370
18
48
1
60
0
100
AcDbLine
10
-11.632051
20
-20.598076
30
0
11
-12.697435
21
-19
31
0
39
0
210
0
220
0
230
1
0
LINE
5
9D
100
AcDbEntity
8
SK1
62
256
6
ByLayer
370
18
48
1
60
0
100
AcDbLine
10
-11.632051
20
-20.598076
30
0
11
-11.632051
21
-22.598076
31
0
39
0
210
0
220
0
230
1
0
LINE
5
9E
100
AcDbEntity
8
SK1
62
256
6
ByLayer
370
18
48
1
60
0
100
AcDbLine
10
-7.102565
20
-19
30
0
11
-8.167949
21
-20.598076
31
0
39
0
210
0
220
0
230
1
0
LINE
5
9F
100
AcDbEntity
8
SK1
62
256
6
ByLayer
370
18
48
1
60
0
100
AcDbLine
10
-8.167949
20
-20.598076
30
0
11
-8.167949
21
-22.598076
31
0
39
0
210
0
220
0
230
1
0
LINE
5
A0
100
AcDbEntity
8
SK1
62
256
6
ByLayer
370
18
48
1
60
0
100
AcDbLine
10
-8.167949
20
-20.598076
30
0
11
-11.632051
21
-20.598076
31
0
39
0
210
0
220
0
230
1
0
LINE
5
A1
100
AcDbEntity
8
1
62
256
6
ByLayer
370
18
48
1
60
0
100
AcDbLine
10
16.109003
20
33.5
30
0
11
16.5
21
33.5
31
0
39
0
210
0
220
0
230
1
0
LINE
5
A2
100
AcDbEntity
8
1
62
256
6
ByLayer
370
18
48
1
60
0
100
AcDbLine
10
16.5
20
38.5
30
0
11
16.174457
21
38.5
31
0
39
0
210
0
220
0
230
1
0
LINE
5
A3
100
AcDbEntity
8
1
62
256
6
ByLayer
370
18
48
1
60
0
100
AcDbLine
10
24.070663
20
26.213023
30
0
11
24.68038
21
26.107254
31
0
39
0
210
0
220
0
230
1
0
LINE
5
A4
100
AcDbEntity
8
1
62
256
6
ByLayer
370
18
48
1
60
0
100
AcDbLine
10
28.732334
20
30.553731
30
0
11
28.477749
21
29.643169
31
0
39
0
210
0
220
0
230
1
0
LINE
5
A5
100
AcDbEntity
8
1
62
256
6
ByLayer
370
18
48
1
60
0
100
AcDbLine
10
23.618369
20
25.231998
30
0
11
23.832718
21
25.194814
31
0
39
0
210
0
220
0
230
1
0
LINE
5
A6
100
AcDbEntity
8
1
62
256
6
ByLayer
370
18
48
1
60
0
100
AcDbLine
10
24.116074
20
25.092647
30
0
11
23.832718
21
25.194814
31
0
39
0
210
0
220
0
230
1
0
LINE
5
A7
100
AcDbEntity
8
1
62
256
6
ByLayer
370
18
48
1
60
0
100
AcDbLine
10
24.358468
20
24.955885
30
0
11
23.748751
21
25.061653
31
0
39
0
210
0
220
0
230
1
0
LINE
5
A8
100
AcDbEntity
8
1
62
256
6
ByLayer
370
18
48
1
60
0
100
AcDbLine
10
25.664179
20
19.580008
30
0
11
25.918764
21
20.49057
31
0
39
0
210
0
220
0
230
1
0
LINE
5
A9
100
AcDbEntity
8
1
62
256
6
ByLayer
370
18
48
1
60
0
100
AcDbLine
10
28.632292
20
29.297917
30
0
11
28.348935
21
29.400084
31
0
39
0
210
0
220
0
230
1
0
LINE
5
AA
100
AcDbEntity
8
1
62
256
6
ByLayer
370
18
48
1
60
0
100
AcDbLine
10
26.29365
20
20.933411
30
0
11
26.010294
21
21.035578
31
0
39
0
210
0
220
0
230
1
0
LINE
5
AB
100
AcDbEntity
8
1
62
256
6
ByLayer
370
18
48
1
60
0
100
AcDbLine
10
29.388983
20
30.461444
30
0
11
29.354606
21
30.473839
31
0
39
0
210
0
220
0
230
1
0
LINE
5
AC
100
AcDbEntity
8
1
62
256
6
ByLayer
370
18
48
1
60
0
100
AcDbLine
10
29.354606
20
30.473839
30
0
11
29.331878
21
30.482034
31
0
39
0
210
0
220
0
230
1
0
LINE
5
AD
100
AcDbEntity
8
1
62
256
6
ByLayer
370
18
48
1
60
0
100
AcDbLine
10
29.388831
20
30.461264
30
0
11
29.323842
21
30.484696
31
0
39
0
210
0
220
0
230
1
0
LINE
5
AE
100
AcDbEntity
8
1
62
256
6
ByLayer
370
18
48
1
60
0
100
AcDbLine
10
29.323842
20
30.484696
30
0
11
29.301701
21
30.49268
31
0
39
0
210
0
220
0
230
1
0
LINE
5
AF
100
AcDbEntity
8
1
62
256
6
ByLayer
370
18
48
1
60
0
100
AcDbLine
10
31.581714
20
26.807499
30
0
11
31.578409
21
26.891603
31
0
39
0
210
0
220
0
230
1
0
LINE
5
B0
100
AcDbEntity
8
1
62
256
6
ByLayer
370
18
48
1
60
0
100
AcDbLine
10
28.410446
20
29.620087
30
0
11
28.348935
21
29.400084
31
0
39
0
210
0
220
0
230
1
0
LINE
5
B1
100
AcDbEntity
8
1
62
256
6
ByLayer
370
18
48
1
60
0
100
AcDbLine
10
29.248712
20
29.50943
30
0
11
29.503297
21
30.419992
31
0
39
0
210
0
220
0
230
1
0
LINE
5
B2
100
AcDbEntity
8
1
62
256
6
ByLayer
370
18
48
1
60
0
100
AcDbLine
10
29.432689
20
20.972768
30
0
11
29.508327
21
21.057054
31
0
39
0
210
0
220
0
230
1
0
LINE
5
B3
100
AcDbEntity
8
1
62
256
6
ByLayer
370
18
48
1
60
0
100
AcDbLine
10
26.689727
20
20.356831
30
0
11
26.435142
21
19.446269
31
0
39
0
210
0
220
0
230
1
0
LINE
5
B4
100
AcDbEntity
8
1
62
256
6
ByLayer
370
18
48
1
60
0
100
AcDbLine
10
25.87551
20
20.553506
30
0
11
26.010294
21
21.035578
31
0
39
0
210
0
220
0
230
1
0
LINE
5
B5
100
AcDbEntity
8
1
62
256
6
ByLayer
370
18
48
1
60
0
100
AcDbLine
10
25.794325
20
19.677323
30
0
11
25.707078
21
19.70878
31
0
39
0
210
0
220
0
230
1
0
LINE
5
B6
100
AcDbEntity
8
1
62
256
6
ByLayer
370
18
48
1
60
0
100
AcDbLine
10
26.153236
20
19.547913
30
0
11
26.065989
21
19.579371
31
0
39
0
210
0
220
0
230
1
0
LINE
5
B7
100
AcDbEntity
8
1
62
256
6
ByLayer
370
18
48
1
60
0
100
AcDbLine
10
0
20
-40
30
0
11
13.325
21
-40
31
0
39
0
210
0
220
0
230
1
0
LINE
5
B8
100
AcDbEntity
8
1
62
256
6
ByLayer
370
18
48
1
60
0
100
AcDbLine
10
16.194093
20
40
30
0
11
0
21
40
31
0
39
0
210
0
220
0
230
1
0
LINE
5
B9
100
AcDbEntity
8
1
62
256
6
ByLayer
370
18
48
1
60
0
100
AcDbLine
10
16.325
20
-39.887341
30
0
11
13.325
21
-39.887341
31
0
39
0
210
0
220
0
230
1
0
LINE
5
BA
100
AcDbEntity
8
SK1
62
256
6
ByLayer
370
18
48
1
60
0
100
AcDbLine
10
-5.511713
20
-32.5
30
0
11
-4.425879
21
-32.5
31
0
39
0
210
0
220
0
230
1
0
LINE
5
BB
100
AcDbEntity
8
SK1
62
256
6
ByLayer
370
18
48
1
60
0
100
AcDbLine
10
-19
20
-32.5
30
0
11
-14.299087
21
-32.5
31
0
39
0
210
0
220
0
230
1
0
LINE
5
BC
100
AcDbEntity
8
SK1
62
256
6
ByLayer
370
18
48
1
60
0
100
AcDbLine
10
-14.285152
20
32.5
30
0
11
-19
21
32.5
31
0
39
0
210
0
220
0
230
1
0
LINE
5
BD
100
AcDbEntity
8
SK1
62
256
6
ByLayer
370
18
48
1
60
0
100
AcDbLine
10
-1
20
32.5
30
0
11
-5.509918
21
32.5
31
0
39
0
210
0
220
0
230
1
0
LINE
5
BE
100
AcDbEntity
8
SK1
62
256
6
ByLayer
370
18
48
1
60
0
100
AcDbLine
10
-3.675
20
-32.346398
30
0
11
-1
21
-32.346398
31
0
39
0
210
0
220
0
230
1
0
LINE
5
BF
100
AcDbEntity
8
SK1
62
256
6
ByLayer
370
18
48
1
60
0
100
AcDbLine
10
-19
20
32.5
30
0
11
-20
21
31.5
31
0
39
0
210
0
220
0
230
1
0
LINE
5
C0
100
AcDbEntity
8
SK1
62
256
6
ByLayer
370
18
48
1
60
0
100
AcDbLine
10
-20
20
-31.5
30
0
11
-19
21
-32.5
31
0
39
0
210
0
220
0
230
1
0
LINE
5
C1
100
AcDbEntity
8
SK1
62
256
6
ByLayer
370
18
48
1
60
0
100
AcDbLine
10
-15.9
20
38
30
0
11
-13.9
21
36
31
0
39
0
210
0
220
0
230
1
0
LINE
5
C2
100
AcDbEntity
8
SK1
62
256
6
ByLayer
370
18
48
1
60
0
100
AcDbLine
10
-5.9
20
36
30
0
11
-3.9
21
38
31
0
39
0
210
0
220
0
230
1
0
LINE
5
C3
100
AcDbEntity
8
SK1
62
256
6
ByLayer
370
18
48
1
60
0
100
AcDbLine
10
-3.9
20
38
30
0
11
-3.9
21
40
31
0
39
0
210
0
220
0
230
1
0
LINE
5
C4
100
AcDbEntity
8
SK1
62
256
6
ByLayer
370
18
48
1
60
0
100
AcDbLine
10
-15.9
20
40
30
0
11
-15.9
21
38
31
0
39
0
210
0
220
0
230
1
0
LINE
5
C5
100
AcDbEntity
8
SK1
62
256
6
ByLayer
370
18
48
1
60
0
100
AcDbLine
10
-5.9
20
32.454586
30
0
11
-5.9
21
36
31
0
39
0
210
0
220
0
230
1
0
LINE
5
C6
100
AcDbEntity
8
SK1
62
256
6
ByLayer
370
18
48
1
60
0
100
AcDbLine
10
-13.9
20
36
30
0
11
-13.9
21
32.454548
31
0
39
0
210
0
220
0
230
1
0
LINE
5
C7
100
AcDbEntity
8
1
62
256
6
ByLayer
370
18
48
1
60
0
100
AcDbLine
10
31
20
40
30
0
11
16.5
21
40
31
0
39
0
210
0
220
0
230
1
0
LINE
5
C8
100
AcDbEntity
8
1
62
256
6
ByLayer
370
18
48
1
60
0
100
AcDbLine
10
24.942041
20
30.397368
30
0
11
16.5
21
30.397368
31
0
39
0
210
0
220
0
230
1
0
LINE
5
C9
100
AcDbEntity
8
1
62
256
6
ByLayer
370
18
48
1
60
0
100
AcDbLine
10
24.942041
20
30.397368
30
0
11
20.11147
21
17
31
0
39
0
210
0
220
0
230
1
0
LINE
5
CA
100
AcDbEntity
8
1
62
256
6
ByLayer
370
18
48
1
60
0
100
AcDbLine
10
16.5
20
17
30
0
11
16.5
21
30.397368
31
0
39
0
210
0
220
0
230
1
0
LINE
5
CB
100
AcDbEntity
8
1
62
256
6
ByLayer
370
18
48
1
60
0
100
AcDbLine
10
16.5
20
17
30
0
11
20.11147
21
17
31
0
39
0
210
0
220
0
230
1
0
LINE
5
CC
100
AcDbEntity
8
1
62
256
6
ByLayer
370
18
48
1
60
0
100
AcDbLine
10
32
20
10
30
0
11
32
21
21.299567
31
0
39
0
210
0
220
0
230
1
0
LINE
5
CD
100
AcDbEntity
8
1
62
256
6
ByLayer
370
18
48
1
60
0
100
AcDbLine
10
32
20
26.065209
30
0
11
32
21
33.768475
31
0
39
0
210
0
220
0
230
1
0
LINE
5
CE
100
AcDbEntity
8
1
62
256
6
ByLayer
370
18
48
1
60
0
100
AcDbLine
10
23.85
20
10
30
0
11
32
21
10
31
0
39
0
210
0
220
0
230
1
0
LINE
5
CF
100
AcDbEntity
8
1
62
256
6
ByLayer
370
18
48
1
60
0
100
AcDbLine
10
23.85
20
16.2
30
0
11
23.85
21
10
31
0
39
0
210
0
220
0
230
1
0
LINE
5
D0
100
AcDbEntity
8
1
62
256
6
ByLayer
370
18
48
1
60
0
100
AcDbLine
10
23.05
20
17
30
0
11
20.11147
21
17
31
0
39
0
210
0
220
0
230
1
0
LINE
5
D1
100
AcDbEntity
8
1
62
256
6
ByLayer
370
18
48
1
60
0
100
AcDbLine
10
32
20
39
30
0
11
31
21
40
31
0
39
0
210
0
220
0
230
1
0
LINE
5
D2
100
AcDbEntity
8
SK1
62
256
6
ByLayer
370
18
48
1
60
0
100
AcDbLine
10
-6.435898
20
20
30
0
11
-8.167949
21
17.401924
31
0
39
0
210
0
220
0
230
1
0
LINE
5
D3
100
AcDbEntity
8
SK1
62
256
6
ByLayer
370
18
48
1
60
0
100
AcDbLine
10
-8.167949
20
22.598076
30
0
11
-6.435898
21
20
31
0
39
0
210
0
220
0
230
1
0
LINE
5
D4
100
AcDbEntity
8
SK1
62
256
6
ByLayer
370
18
48
1
60
0
100
AcDbLine
10
-11.632051
20
22.598076
30
0
11
-8.167949
21
22.598076
31
0
39
0
210
0
220
0
230
1
0
LINE
5
D5
100
AcDbEntity
8
SK1
62
256
6
ByLayer
370
18
48
1
60
0
100
AcDbLine
10
-13.364102
20
20
30
0
11
-11.632051
21
22.598076
31
0
39
0
210
0
220
0
230
1
0
LINE
5
D6
100
AcDbEntity
8
SK1
62
256
6
ByLayer
370
18
48
1
60
0
100
AcDbLine
10
-11.632051
20
17.401924
30
0
11
-13.364102
21
20
31
0
39
0
210
0
220
0
230
1
0
LINE
5
D7
100
AcDbEntity
8
SK1
62
256
6
ByLayer
370
18
48
1
60
0
100
AcDbLine
10
-8.167949
20
17.401924
30
0
11
-11.632051
21
17.401924
31
0
39
0
210
0
220
0
230
1
0
LINE
5
D8
100
AcDbEntity
8
SK1
62
256
6
ByLayer
370
18
48
1
60
0
100
AcDbLine
10
-3.9
20
19
30
0
11
-3.9
21
20
31
0
39
0
210
0
220
0
230
1
0
LINE
5
D9
100
AcDbEntity
8
SK1
62
256
6
ByLayer
370
18
48
1
60
0
100
AcDbLine
10
-15.9
20
20
30
0
11
-15.9
21
19
31
0
39
0
210
0
220
0
230
1
0
LINE
5
DA
100
AcDbEntity
8
SK1
62
256
6
ByLayer
370
18
48
1
60
0
100
AcDbLine
10
-8.167949
20
20.598076
30
0
11
-7.102565
21
19
31
0
39
0
210
0
220
0
230
1
0
LINE
5
DB
100
AcDbEntity
8
SK1
62
256
6
ByLayer
370
18
48
1
60
0
100
AcDbLine
10
-8.167949
20
20.598076
30
0
11
-8.167949
21
22.598076
31
0
39
0
210
0
220
0
230
1
0
LINE
5
DC
100
AcDbEntity
8
SK1
62
256
6
ByLayer
370
18
48
1
60
0
100
AcDbLine
10
-12.697435
20
19
30
0
11
-11.632051
21
20.598076
31
0
39
0
210
0
220
0
230
1
0
LINE
5
DD
100
AcDbEntity
8
SK1
62
256
6
ByLayer
370
18
48
1
60
0
100
AcDbLine
10
-11.632051
20
20.598076
30
0
11
-11.632051
21
22.598076
31
0
39
0
210
0
220
0
230
1
0
LINE
5
DE
100
AcDbEntity
8
SK1
62
256
6
ByLayer
370
18
48
1
60
0
100
AcDbLine
10
-11.632051
20
20.598076
30
0
11
-8.167949
21
20.598076
31
0
39
0
210
0
220
0
230
1
0
LINE
5
DF
100
AcDbEntity
8
1
62
256
6
ByLayer
370
18
48
1
60
0
100
AcDbLine
10
13.44949
20
35.074029
30
0
11
13.041241
21
35.362704
31
0
39
0
210
0
220
0
230
1
0
LINE
5
E0
100
AcDbEntity
8
1
62
256
6
ByLayer
370
18
48
1
60
0
100
AcDbLine
10
8.958759
20
35.362704
30
0
11
8.55051
21
35.074029
31
0
39
0
210
0
220
0
230
1
0
LINE
5
E1
100
AcDbEntity
8
1
62
256
6
ByLayer
370
18
48
1
60
0
100
AcDbLine
10
9.439665
20
34.265065
30
0
11
9.568667
21
35.128686
31
0
39
0
210
0
220
0
230
1
0
LINE
5
E2
100
AcDbEntity
8
1
62
256
6
ByLayer
370
18
48
1
60
0
100
AcDbLine
10
10.870998
20
33.777396
30
0
11
9.439665
21
34.265065
31
0
39
0
210
0
220
0
230
1
0
LINE
5
E3
100
AcDbEntity
8
1
62
256
6
ByLayer
370
18
48
1
60
0
100
AcDbLine
10
12.431333
20
34.153347
30
0
11
10.870998
21
33.777396
31
0
39
0
210
0
220
0
230
1
0
LINE
5
E4
100
AcDbEntity
8
1
62
256
6
ByLayer
370
18
48
1
60
0
100
AcDbLine
10
12.560335
20
35.016967
30
0
11
12.431333
21
34.153347
31
0
39
0
210
0
220
0
230
1
0
LINE
5
E5
100
AcDbEntity
8
1
62
256
6
ByLayer
370
18
48
1
60
0
100
AcDbLine
10
11.129002
20
35.504636
30
0
11
12.560335
21
35.016967
31
0
39
0
210
0
220
0
230
1
0
LINE
5
E6
100
AcDbEntity
8
1
62
256
6
ByLayer
370
18
48
1
60
0
100
AcDbLine
10
9.568667
20
35.128686
30
0
11
11.129002
21
35.504636
31
0
39
0
210
0
220
0
230
1
0
LINE
5
E7
100
AcDbEntity
8
1
62
256
6
ByLayer
370
18
48
1
60
0
100
AcDbLine
10
9.568667
20
34.221113
30
0
11
9.568667
21
35.128686
31
0
39
0
210
0
220
0
230
1
0
LINE
5
E8
100
AcDbEntity
8
1
62
256
6
ByLayer
370
18
48
1
60
0
100
AcDbLine
10
11.129002
20
33.83956
30
0
11
11.129002
21
35.504636
31
0
39
0
210
0
220
0
230
1
0
LINE
5
E9
100
AcDbEntity
8
1
62
256
6
ByLayer
370
18
48
1
60
0
100
AcDbLine
10
30.925
20
-21.5
30
0
11
25.71257
21
-21.5
31
0
39
0
210
0
220
0
230
1
0
LINE
5
EA
100
AcDbEntity
8
1
62
256
6
ByLayer
370
18
48
1
60
0
100
AcDbLine
10
29.925
20
-37.5
30
0
11
30.925
21
-37.5
31
0
39
0
210
0
220
0
230
1
0
LINE
5
EB
100
AcDbEntity
8
1
62
256
6
ByLayer
370
18
48
1
60
0
100
AcDbLine
10
30.925
20
-37.5
30
0
11
31.425
21
-37
31
0
39
0
210
0
220
0
230
1
0
LINE
5
EC
100
AcDbEntity
8
1
62
256
6
ByLayer
370
18
48
1
60
0
100
AcDbLine
10
31.425
20
-22
30
0
11
30.925
21
-21.5
31
0
39
0
210
0
220
0
230
1
0
LINE
5
ED
100
AcDbEntity
8
1
62
256
6
ByLayer
370
18
48
1
60
0
100
AcDbLine
10
18
20
-24.5
30
0
11
17.351031
21
-24.5
31
0
39
0
210
0
220
0
230
1
0
LINE
5
EE
100
AcDbEntity
8
1
62
256
6
ByLayer
370
18
48
1
60
0
100
AcDbLine
10
16.609429
20
-24.5
30
0
11
16.325
21
-24.5
31
0
39
0
210
0
220
0
230
1
0
LINE
5
EF
100
AcDbEntity
8
1
62
256
6
ByLayer
370
18
48
1
60
0
100
AcDbLine
10
16.393024
20
-34.5
30
0
11
17.143197
21
-34.5
31
0
39
0
210
0
220
0
230
1
0
LINE
5
F0
100
AcDbEntity
8
1
62
256
6
ByLayer
370
18
48
1
60
0
100
AcDbLine
10
17.888906
20
-34.5
30
0
11
18
21
-34.5
31
0
39
0
210
0
220
0
230
1
0
LINE
5
F1
100
AcDbEntity
8
SK1
62
256
6
ByLayer
370
18
48
1
60
0
100
AcDbLine
10
-15.9
20
-38
30
0
11
-3.9
21
-38
31
0
39
0
210
0
220
0
230
1
0
LINE
5
F2
100
AcDbEntity
8
SK1
62
256
6
ByLayer
370
18
48
1
60
0
100
AcDbLine
10
-15.9
20
-40
30
0
11
-3.9
21
-40
31
0
39
0
210
0
220
0
230
1
0
LINE
5
F3
100
AcDbEntity
8
SK1
62
256
6
ByLayer
370
18
48
1
60
0
100
AcDbLine
10
-13.9
20
-36
30
0
11
-5.9
21
-36
31
0
39
0
210
0
220
0
230
1
0
LINE
5
F4
100
AcDbEntity
8
1
62
256
6
ByLayer
370
18
48
1
60
0
100
AcDbLine
10
25.625
20
-17
30
0
11
25.625
21
-19.845237
31
0
39
0
210
0
220
0
230
1
0
LINE
5
F5
100
AcDbEntity
8
1
62
256
6
ByLayer
370
18
48
1
60
0
100
AcDbLine
10
21.2
20
-17
30
0
11
21.2
21
-19.845237
31
0
39
0
210
0
220
0
230
1
0
LINE
5
F6
100
AcDbEntity
8
1
62
256
6
ByLayer
370
18
48
1
60
0
100
AcDbLine
10
22.5751
20
-1.65
30
0
11
22.5751
21
1.65
31
0
39
0
210
0
220
0
230
1
0
LINE
5
F7
100
AcDbEntity
8
1
62
256
6
ByLayer
370
18
48
1
60
0
100
AcDbLine
10
22.8251
20
1.4
30
0
11
22.8251
21
-1.4
31
0
39
0
210
0
220
0
230
1
0
LINE
5
F8
100
AcDbEntity
8
1
62
256
6
ByLayer
370
18
48
1
60
0
100
AcDbLine
10
16.25
20
23.15
30
0
11
16.25
21
30.85
31
0
39
0
210
0
220
0
230
1
0
LINE
5
F9
100
AcDbEntity
8
1
62
256
6
ByLayer
370
18
48
1
60
0
100
AcDbLine
10
0
20
-40
30
0
11
0
21
0
31
0
39
0
210
0
220
0
230
1
0
LINE
5
FA
100
AcDbEntity
8
1
62
256
6
ByLayer
370
18
48
1
60
0
100
AcDbLine
10
13.325
20
-40
30
0
11
13.325
21
-39.887341
31
0
39
0
210
0
220
0
230
1
0
LINE
5
FB
100
AcDbEntity
8
1
62
256
6
ByLayer
370
18
48
1
60
0
100
AcDbLine
10
17.325
20
14.4375
30
0
11
17.325
21
14.0625
31
0
39
0
210
0
220
0
230
1
0
LINE
5
FC
100
AcDbEntity
8
1
62
256
6
ByLayer
370
18
48
1
60
0
100
AcDbLine
10
17.325
20
12.9375
30
0
11
17.325
21
12.5625
31
0
39
0
210
0
220
0
230
1
0
LINE
5
FD
100
AcDbEntity
8
1
62
256
6
ByLayer
370
18
48
1
60
0
100
AcDbLine
10
17.325
20
11.4375
30
0
11
17.325
21
11.0625
31
0
39
0
210
0
220
0
230
1
0
LINE
5
FE
100
AcDbEntity
8
1
62
256
6
ByLayer
370
18
48
1
60
0
100
AcDbLine
10
17.325
20
9.9375
30
0
11
17.325
21
9.5625
31
0
39
0
210
0
220
0
230
1
0
LINE
5
FF
100
AcDbEntity
8
1
62
256
6
ByLayer
370
18
48
1
60
0
100
AcDbLine
10
17.325
20
8.4375
30
0
11
17.325
21
8.0625
31
0
39
0
210
0
220
0
230
1
0
LINE
5
100
100
AcDbEntity
8
1
62
256
6
ByLayer
370
18
48
1
60
0
100
AcDbLine
10
17.325
20
6.9375
30
0
11
17.325
21
6.5625
31
0
39
0
210
0
220
0
230
1
0
LINE
5
101
100
AcDbEntity
8
1
62
256
6
ByLayer
370
18
48
1
60
0
100
AcDbLine
10
17.325
20
5.4375
30
0
11
17.325
21
5.0625
31
0
39
0
210
0
220
0
230
1
0
LINE
5
102
100
AcDbEntity
8
1
62
256
6
ByLayer
370
18
48
1
60
0
100
AcDbLine
10
17.325
20
3.9375
30
0
11
17.325
21
3.5625
31
0
39
0
210
0
220
0
230
1
0
LINE
5
103
100
AcDbEntity
8
1
62
256
6
ByLayer
370
18
48
1
60
0
100
AcDbLine
10
17.325
20
2.4375
30
0
11
17.325
21
2.0625
31
0
39
0
210
0
220
0
230
1
0
LINE
5
104
100
AcDbEntity
8
1
62
256
6
ByLayer
370
18
48
1
60
0
100
AcDbLine
10
17.325
20
0.9375
30
0
11
17.325
21
0.5625
31
0
39
0
210
0
220
0
230
1
0
LINE
5
105
100
AcDbEntity
8
1
62
256
6
ByLayer
370
18
48
1
60
0
100
AcDbLine
10
17.325
20
-0.5625
30
0
11
17.325
21
-0.9375
31
0
39
0
210
0
220
0
230
1
0
LINE
5
106
100
AcDbEntity
8
1
62
256
6
ByLayer
370
18
48
1
60
0
100
AcDbLine
10
17.325
20
-2.0625
30
0
11
17.325
21
-2.4375
31
0
39
0
210
0
220
0
230
1
0
LINE
5
107
100
AcDbEntity
8
1
62
256
6
ByLayer
370
18
48
1
60
0
100
AcDbLine
10
17.325
20
-3.5625
30
0
11
17.325
21
-3.9375
31
0
39
0
210
0
220
0
230
1
0
LINE
5
108
100
AcDbEntity
8
1
62
256
6
ByLayer
370
18
48
1
60
0
100
AcDbLine
10
17.325
20
-5.0625
30
0
11
17.325
21
-5.4375
31
0
39
0
210
0
220
0
230
1
0
LINE
5
109
100
AcDbEntity
8
1
62
256
6
ByLayer
370
18
48
1
60
0
100
AcDbLine
10
17.325
20
-6.5625
30
0
11
17.325
21
-6.9375
31
0
39
0
210
0
220
0
230
1
0
LINE
5
10A
100
AcDbEntity
8
1
62
256
6
ByLayer
370
18
48
1
60
0
100
AcDbLine
10
17.325
20
-8.0625
30
0
11
17.325
21
-8.4375
31
0
39
0
210
0
220
0
230
1
0
LINE
5
10B
100
AcDbEntity
8
1
62
256
6
ByLayer
370
18
48
1
60
0
100
AcDbLine
10
17.325
20
-9.5625
30
0
11
17.325
21
-9.9375
31
0
39
0
210
0
220
0
230
1
0
LINE
5
10C
100
AcDbEntity
8
1
62
256
6
ByLayer
370
18
48
1
60
0
100
AcDbLine
10
17.325
20
-11.0625
30
0
11
17.325
21
-11.4375
31
0
39
0
210
0
220
0
230
1
0
LINE
5
10D
100
AcDbEntity
8
1
62
256
6
ByLayer
370
18
48
1
60
0
100
AcDbLine
10
17.325
20
-12.5625
30
0
11
17.325
21
-12.9375
31
0
39
0
210
0
220
0
230
1
0
LINE
5
10E
100
AcDbEntity
8
1
62
256
6
ByLayer
370
18
48
1
60
0
100
AcDbLine
10
17.325
20
-14.0625
30
0
11
17.325
21
-14.4375
31
0
39
0
210
0
220
0
230
1
0
LINE
5
10F
100
AcDbEntity
8
1
62
256
6
ByLayer
370
18
48
1
60
0
100
AcDbLine
10
17.325
20
-15.5625
30
0
11
17.325
21
-15.9375
31
0
39
0
210
0
220
0
230
1
0
LINE
5
110
100
AcDbEntity
8
1
62
256
6
ByLayer
370
18
48
1
60
0
100
AcDbLine
10
17.325
20
-17.0625
30
0
11
17.325
21
-17.4375
31
0
39
0
210
0
220
0
230
1
0
LINE
5
111
100
AcDbEntity
8
1
62
256
6
ByLayer
370
18
48
1
60
0
100
AcDbLine
10
17.325
20
-18.5625
30
0
11
17.325
21
-18.9375
31
0
39
0
210
0
220
0
230
1
0
LINE
5
112
100
AcDbEntity
8
1
62
256
6
ByLayer
370
18
48
1
60
0
100
AcDbLine
10
17.325
20
-20.0625
30
0
11
17.325
21
-20.4375
31
0
39
0
210
0
220
0
230
1
0
LINE
5
113
100
AcDbEntity
8
1
62
256
6
ByLayer
370
18
48
1
60
0
100
AcDbLine
10
16.325
20
-22
30
0
11
16.325
21
-39.887341
31
0
39
0
210
0
220
0
230
1
0
LINE
5
114
100
AcDbEntity
8
1
62
256
6
ByLayer
370
18
48
1
60
0
100
AcDbLine
10
0
20
0
30
0
11
0
21
40
31
0
39
0
210
0
220
0
230
1
0
LINE
5
115
100
AcDbEntity
8
SK1
62
256
6
ByLayer
370
18
48
1
60
0
100
AcDbLine
10
-1
20
-32.346398
30
0
11
-1
21
32.5
31
0
39
0
210
0
220
0
230
1
0
LINE
5
116
100
AcDbEntity
8
SK1
62
256
6
ByLayer
370
18
48
1
60
0
100
AcDbLine
10
-19
20
-32.5
30
0
11
-19
21
0
31
0
39
0
210
0
220
0
230
1
0
LINE
5
117
100
AcDbEntity
8
SK1
62
256
6
ByLayer
370
18
48
1
60
0
100
AcDbLine
10
-19
20
0
30
0
11
-19
21
32.5
31
0
39
0
210
0
220
0
230
1
0
LINE
5
118
100
AcDbEntity
8
SK1
62
256
6
ByLayer
370
18
48
1
60
0
100
AcDbLine
10
-20
20
-31.5
30
0
11
-20
21
0
31
0
39
0
210
0
220
0
230
1
0
LINE
5
119
100
AcDbEntity
8
SK1
62
256
6
ByLayer
370
18
48
1
60
0
100
AcDbLine
10
-20
20
0
30
0
11
-20
21
31.5
31
0
39
0
210
0
220
0
230
1
0
LINE
5
11A
100
AcDbEntity
8
SK1
62
256
6
ByLayer
370
18
48
1
60
0
100
AcDbLine
10
-5.9
20
36
30
0
11
-13.9
21
36
31
0
39
0
210
0
220
0
230
1
0
LINE
5
11B
100
AcDbEntity
8
SK1
62
256
6
ByLayer
370
18
48
1
60
0
100
AcDbLine
10
-3.9
20
38
30
0
11
-15.9
21
38
31
0
39
0
210
0
220
0
230
1
0
LINE
5
11C
100
AcDbEntity
8
SK1
62
256
6
ByLayer
370
18
48
1
60
0
100
AcDbLine
10
-3.9
20
40
30
0
11
-15.9
21
40
31
0
39
0
210
0
220
0
230
1
0
LINE
5
11D
100
AcDbEntity
8
1
62
256
6
ByLayer
370
18
48
1
60
0
100
AcDbLine
10
31
20
34.17578
30
0
11
31
21
40
31
0
39
0
210
0
220
0
230
1
0
LINE
5
11E
100
AcDbEntity
8
1
62
256
6
ByLayer
370
18
48
1
60
0
100
AcDbLine
10
16.5
20
30.397368
30
0
11
16.5
21
40
31
0
39
0
210
0
220
0
230
1
0
LINE
5
11F
100
AcDbEntity
8
1
62
256
6
ByLayer
370
18
48
1
60
0
100
AcDbLine
10
32
20
33.768475
30
0
11
32
21
39
31
0
39
0
210
0
220
0
230
1
0
LINE
5
120
100
AcDbEntity
8
1
62
256
6
ByLayer
370
18
48
1
60
0
100
AcDbLine
10
31.425
20
-22
30
0
11
31.425
21
-37
31
0
39
0
210
0
220
0
230
1
0
LINE
5
121
100
AcDbEntity
8
1
62
256
6
ByLayer
370
18
48
1
60
0
100
AcDbLine
10
30.925
20
-37.5
30
0
11
30.925
21
-21.5
31
0
39
0
210
0
220
0
230
1
0
LINE
5
122
100
AcDbEntity
8
1
62
256
6
ByLayer
370
18
48
1
60
0
100
AcDbLine
10
16.194093
20
40
30
0
11
15.885667
21
16.439333
31
0
39
0
210
0
220
0
230
1
0
LINE
5
123
100
AcDbEntity
8
1
62
256
6
ByLayer
370
18
48
1
60
0
100
AcDbLine
10
16.656721
20
15.176669
30
0
11
16.968389
21
15.356611
31
0
39
0
210
0
220
0
230
1
0
LINE
5
124
100
AcDbEntity
8
1
62
256
6
ByLayer
370
18
48
1
60
0
100
AcDbLine
10
16.656721
20
14.823331
30
0
11
17.325
21
14.4375
31
0
39
0
210
0
220
0
230
1
0
LINE
5
125
100
AcDbEntity
8
1
62
256
6
ByLayer
370
18
48
1
60
0
100
AcDbLine
10
16.656721
20
13.676669
30
0
11
17.325
21
14.0625
31
0
39
0
210
0
220
0
230
1
0
LINE
5
126
100
AcDbEntity
8
1
62
256
6
ByLayer
370
18
48
1
60
0
100
AcDbLine
10
16.656721
20
13.323331
30
0
11
17.325
21
12.9375
31
0
39
0
210
0
220
0
230
1
0
LINE
5
127
100
AcDbEntity
8
1
62
256
6
ByLayer
370
18
48
1
60
0
100
AcDbLine
10
16.656721
20
12.176669
30
0
11
17.325
21
12.5625
31
0
39
0
210
0
220
0
230
1
0
LINE
5
128
100
AcDbEntity
8
1
62
256
6
ByLayer
370
18
48
1
60
0
100
AcDbLine
10
16.656721
20
11.823331
30
0
11
17.325
21
11.4375
31
0
39
0
210
0
220
0
230
1
0
LINE
5
129
100
AcDbEntity
8
1
62
256
6
ByLayer
370
18
48
1
60
0
100
AcDbLine
10
16.656721
20
10.676669
30
0
11
17.325
21
11.0625
31
0
39
0
210
0
220
0
230
1
0
LINE
5
12A
100
AcDbEntity
8
1
62
256
6
ByLayer
370
18
48
1
60
0
100
AcDbLine
10
16.656721
20
10.323331
30
0
11
17.325
21
9.9375
31
0
39
0
210
0
220
0
230
1
0
LINE
5
12B
100
AcDbEntity
8
1
62
256
6
ByLayer
370
18
48
1
60
0
100
AcDbLine
10
16.656721
20
9.176669
30
0
11
17.325
21
9.5625
31
0
39
0
210
0
220
0
230
1
0
LINE
5
12C
100
AcDbEntity
8
1
62
256
6
ByLayer
370
18
48
1
60
0
100
AcDbLine
10
16.656721
20
8.823331
30
0
11
17.325
21
8.4375
31
0
39
0
210
0
220
0
230
1
0
LINE
5
12D
100
AcDbEntity
8
1
62
256
6
ByLayer
370
18
48
1
60
0
100
AcDbLine
10
16.656721
20
7.676669
30
0
11
17.325
21
8.0625
31
0
39
0
210
0
220
0
230
1
0
LINE
5
12E
100
AcDbEntity
8
1
62
256
6
ByLayer
370
18
48
1
60
0
100
AcDbLine
10
16.656721
20
7.323331
30
0
11
17.325
21
6.9375
31
0
39
0
210
0
220
0
230
1
0
LINE
5
12F
100
AcDbEntity
8
1
62
256
6
ByLayer
370
18
48
1
60
0
100
AcDbLine
10
16.656721
20
6.176669
30
0
11
17.325
21
6.5625
31
0
39
0
210
0
220
0
230
1
0
LINE
5
130
100
AcDbEntity
8
1
62
256
6
ByLayer
370
18
48
1
60
0
100
AcDbLine
10
16.656721
20
5.823331
30
0
11
17.325
21
5.4375
31
0
39
0
210
0
220
0
230
1
0
LINE
5
131
100
AcDbEntity
8
1
62
256
6
ByLayer
370
18
48
1
60
0
100
AcDbLine
10
16.656721
20
4.676669
30
0
11
17.325
21
5.0625
31
0
39
0
210
0
220
0
230
1
0
LINE
5
132
100
AcDbEntity
8
1
62
256
6
ByLayer
370
18
48
1
60
0
100
AcDbLine
10
16.656721
20
4.323331
30
0
11
17.325
21
3.9375
31
0
39
0
210
0
220
0
230
1
0
LINE
5
133
100
AcDbEntity
8
1
62
256
6
ByLayer
370
18
48
1
60
0
100
AcDbLine
10
16.656721
20
3.176669
30
0
11
17.325
21
3.5625
31
0
39
0
210
0
220
0
230
1
0
LINE
5
134
100
AcDbEntity
8
1
62
256
6
ByLayer
370
18
48
1
60
0
100
AcDbLine
10
16.656721
20
2.823331
30
0
11
17.325
21
2.4375
31
0
39
0
210
0
220
0
230
1
0
LINE
5
135
100
AcDbEntity
8
1
62
256
6
ByLayer
370
18
48
1
60
0
100
AcDbLine
10
16.656721
20
1.676669
30
0
11
17.325
21
2.0625
31
0
39
0
210
0
220
0
230
1
0
LINE
5
136
100
AcDbEntity
8
1
62
256
6
ByLayer
370
18
48
1
60
0
100
AcDbLine
10
16.656721
20
1.323331
30
0
11
17.325
21
0.9375
31
0
39
0
210
0
220
0
230
1
0
LINE
5
137
100
AcDbEntity
8
1
62
256
6
ByLayer
370
18
48
1
60
0
100
AcDbLine
10
16.656721
20
0.176669
30
0
11
17.325
21
0.5625
31
0
39
0
210
0
220
0
230
1
0
LINE
5
138
100
AcDbEntity
8
1
62
256
6
ByLayer
370
18
48
1
60
0
100
AcDbLine
10
16.656721
20
-0.176669
30
0
11
17.325
21
-0.5625
31
0
39
0
210
0
220
0
230
1
0
LINE
5
139
100
AcDbEntity
8
1
62
256
6
ByLayer
370
18
48
1
60
0
100
AcDbLine
10
16.656721
20
-1.323331
30
0
11
17.325
21
-0.9375
31
0
39
0
210
0
220
0
230
1
0
LINE
5
13A
100
AcDbEntity
8
1
62
256
6
ByLayer
370
18
48
1
60
0
100
AcDbLine
10
16.656721
20
-1.676669
30
0
11
17.325
21
-2.0625
31
0
39
0
210
0
220
0
230
1
0
LINE
5
13B
100
AcDbEntity
8
1
62
256
6
ByLayer
370
18
48
1
60
0
100
AcDbLine
10
16.656721
20
-2.823331
30
0
11
17.325
21
-2.4375
31
0
39
0
210
0
220
0
230
1
0
LINE
5
13C
100
AcDbEntity
8
1
62
256
6
ByLayer
370
18
48
1
60
0
100
AcDbLine
10
16.656721
20
-3.176669
30
0
11
17.325
21
-3.5625
31
0
39
0
210
0
220
0
230
1
0
LINE
5
13D
100
AcDbEntity
8
1
62
256
6
ByLayer
370
18
48
1
60
0
100
AcDbLine
10
16.656721
20
-4.323331
30
0
11
17.325
21
-3.9375
31
0
39
0
210
0
220
0
230
1
0
LINE
5
13E
100
AcDbEntity
8
1
62
256
6
ByLayer
370
18
48
1
60
0
100
AcDbLine
10
16.656721
20
-4.676669
30
0
11
17.325
21
-5.0625
31
0
39
0
210
0
220
0
230
1
0
LINE
5
13F
100
AcDbEntity
8
1
62
256
6
ByLayer
370
18
48
1
60
0
100
AcDbLine
10
16.656721
20
-5.823331
30
0
11
17.325
21
-5.4375
31
0
39
0
210
0
220
0
230
1
0
LINE
5
140
100
AcDbEntity
8
1
62
256
6
ByLayer
370
18
48
1
60
0
100
AcDbLine
10
16.656721
20
-6.176669
30
0
11
17.325
21
-6.5625
31
0
39
0
210
0
220
0
230
1
0
LINE
5
141
100
AcDbEntity
8
1
62
256
6
ByLayer
370
18
48
1
60
0
100
AcDbLine
10
16.656721
20
-7.323331
30
0
11
17.325
21
-6.9375
31
0
39
0
210
0
220
0
230
1
0
LINE
5
142
100
AcDbEntity
8
1
62
256
6
ByLayer
370
18
48
1
60
0
100
AcDbLine
10
16.656721
20
-7.676669
30
0
11
17.325
21
-8.0625
31
0
39
0
210
0
220
0
230
1
0
LINE
5
143
100
AcDbEntity
8
1
62
256
6
ByLayer
370
18
48
1
60
0
100
AcDbLine
10
16.656721
20
-8.823331
30
0
11
17.325
21
-8.4375
31
0
39
0
210
0
220
0
230
1
0
LINE
5
144
100
AcDbEntity
8
1
62
256
6
ByLayer
370
18
48
1
60
0
100
AcDbLine
10
16.656721
20
-9.176669
30
0
11
17.325
21
-9.5625
31
0
39
0
210
0
220
0
230
1
0
LINE
5
145
100
AcDbEntity
8
1
62
256
6
ByLayer
370
18
48
1
60
0
100
AcDbLine
10
16.656721
20
-10.323331
30
0
11
17.325
21
-9.9375
31
0
39
0
210
0
220
0
230
1
0
LINE
5
146
100
AcDbEntity
8
1
62
256
6
ByLayer
370
18
48
1
60
0
100
AcDbLine
10
16.656721
20
-10.676669
30
0
11
17.325
21
-11.0625
31
0
39
0
210
0
220
0
230
1
0
LINE
5
147
100
AcDbEntity
8
1
62
256
6
ByLayer
370
18
48
1
60
0
100
AcDbLine
10
16.656721
20
-11.823331
30
0
11
17.325
21
-11.4375
31
0
39
0
210
0
220
0
230
1
0
LINE
5
148
100
AcDbEntity
8
1
62
256
6
ByLayer
370
18
48
1
60
0
100
AcDbLine
10
16.656721
20
-12.176669
30
0
11
17.325
21
-12.5625
31
0
39
0
210
0
220
0
230
1
0
LINE
5
149
100
AcDbEntity
8
1
62
256
6
ByLayer
370
18
48
1
60
0
100
AcDbLine
10
16.656721
20
-13.323331
30
0
11
17.325
21
-12.9375
31
0
39
0
210
0
220
0
230
1
0
LINE
5
14A
100
AcDbEntity
8
1
62
256
6
ByLayer
370
18
48
1
60
0
100
AcDbLine
10
16.656721
20
-13.676669
30
0
11
17.325
21
-14.0625
31
0
39
0
210
0
220
0
230
1
0
LINE
5
14B
100
AcDbEntity
8
1
62
256
6
ByLayer
370
18
48
1
60
0
100
AcDbLine
10
16.656721
20
-14.823331
30
0
11
17.325
21
-14.4375
31
0
39
0
210
0
220
0
230
1
0
LINE
5
14C
100
AcDbEntity
8
1
62
256
6
ByLayer
370
18
48
1
60
0
100
AcDbLine
10
16.656721
20
-15.176669
30
0
11
17.325
21
-15.5625
31
0
39
0
210
0
220
0
230
1
0
LINE
5
14D
100
AcDbEntity
8
1
62
256
6
ByLayer
370
18
48
1
60
0
100
AcDbLine
10
16.656721
20
-16.323331
30
0
11
17.325
21
-15.9375
31
0
39
0
210
0
220
0
230
1
0
LINE
5
14E
100
AcDbEntity
8
1
62
256
6
ByLayer
370
18
48
1
60
0
100
AcDbLine
10
16.656721
20
-16.676669
30
0
11
17.325
21
-17.0625
31
0
39
0
210
0
220
0
230
1
0
LINE
5
14F
100
AcDbEntity
8
1
62
256
6
ByLayer
370
18
48
1
60
0
100
AcDbLine
10
16.656721
20
-17.823331
30
0
11
17.325
21
-17.4375
31
0
39
0
210
0
220
0
230
1
0
LINE
5
150
100
AcDbEntity
8
1
62
256
6
ByLayer
370
18
48
1
60
0
100
AcDbLine
10
16.656721
20
-18.176669
30
0
11
17.325
21
-18.5625
31
0
39
0
210
0
220
0
230
1
0
LINE
5
151
100
AcDbEntity
8
1
62
256
6
ByLayer
370
18
48
1
60
0
100
AcDbLine
10
16.656721
20
-19.323331
30
0
11
17.325
21
-18.9375
31
0
39
0
210
0
220
0
230
1
0
LINE
5
152
100
AcDbEntity
8
1
62
256
6
ByLayer
370
18
48
1
60
0
100
AcDbLine
10
16.656721
20
-19.676669
30
0
11
17.325
21
-20.0625
31
0
39
0
210
0
220
0
230
1
0
LINE
5
153
100
AcDbEntity
8
1
62
256
6
ByLayer
370
18
48
1
60
0
100
AcDbLine
10
16.656721
20
-20.823331
30
0
11
17.325
21
-20.4375
31
0
39
0
210
0
220
0
230
1
0
LINE
5
154
100
AcDbEntity
8
1
62
256
6
ByLayer
370
18
48
1
60
0
100
AcDbLine
10
16.656721
20
-21.176669
30
0
11
16.968389
21
-21.356611
31
0
39
0
210
0
220
0
230
1
0
LINE
5
155
100
AcDbEntity
8
1
62
256
6
ByLayer
370
18
48
1
60
0
100
AcDbLine
10
16.968389
20
-21.356611
30
0
11
16.325
21
-22
31
0
39
0
210
0
220
0
230
1
0
LINE
5
156
100
AcDbEntity
8
1
62
256
6
ByLayer
370
18
48
1
60
0
100
AcDbLine
10
15.885667
20
16.439333
30
0
11
16.968389
21
15.356611
31
0
39
0
210
0
220
0
230
1
0
MTEXT
5
1D7
100
AcDbEntity
8
SK6
62
256
6
ByLayer
370
13
48
1
60
0
100
AcDbMText
10
51.702065
20
57.247078
30
0
210
0
220
0
230
1
1
\W0.7031;570-80 17-580-80
40
3.5
41
0
44
1.084337
50
0
71
7
72
5
7
iso_b_vert
0
DIMENSION
5
1E5
100
AcDbEntity
8
2
62
256
6
ByLayer
370
13
48
1
60
0
100
AcDbDimension
2
DimnDraft3D1
10
17
20
58.666811
30
0
11
7.00023
21
58.666811
31
0
70
32
71
5
72
1
41
1
210
0
220
0
230
1
3
Standard
100
AcDbAlignedDimension
13
0
23
1.5875
33
0
14
17
24
1.5875
34
0
50
0
100
AcDbRotatedDimension
1001
ACAD
1000
DSTYLE
1002
{
1070
   279
1070
     0
1070
   173
1070
     1
1070
   340
1005
1D8
1070
   271
1070
     1
1070
   272
1070
     2
1070
    77
1070
     1
1070
    73
1070
     0
1070
   171
1070
     3
1070
   274
1070
     4
1070
   177
1070
     7
1070
   176
1070
     7
1070
   178
1070
     7
1070
    78
1070
     8
1070
    48
1040
-0.005
1070
    41
1041
3.175
1070
   147
1041
1.5875
1070
    42
1041
1.5875
1070
    44
1041
3.175
1070
   140
1041
3.175
1070
   343
1005
0
1070
   344
1005
0
1002
}
0
DIMENSION
5
1F0
100
AcDbEntity
8
2
62
256
6
ByLayer
370
13
48
1
60
0
100
AcDbDimension
2
DimnDraft3D2
10
53.539321
20
-40
30
0
11
47.983071
21
2.46898
31
0
70
33
71
5
72
1
41
1
210
0
220
0
230
1
3
Standard
100
AcDbAlignedDimension
13
17.781593
23
40
33
0
14
14.9125
24
-40
34
0
1001
ACAD
1000
DSTYLE
1002
{
1070
   279
1070
     0
1070
    74
1070
     0
1070
   173
1070
     1
1070
   340
1005
1D8
1070
   271
1070
     1
1070
   272
1070
     2
1070
    77
1070
     1
1070
    73
1070
     0
1070
   171
1070
     3
1070
   274
1070
     4
1070
   177
1070
     7
1070
   176
1070
     7
1070
   178
1070
     7
1070
    78
1070
     8
1070
    48
1040
-0.005
1070
    41
1041
3.175
1070
   147
1041
1.5875
1070
    42
1041
1.5875
1070
    44
1041
3.175
1070
   140
1041
3.175
1070
   343
1005
0
1070
   344
1005
0
1002
}
0
DIMENSION
5
1FC
100
AcDbEntity
8
SK2
62
256
6
ByLayer
370
13
48
1
60
0
100
AcDbDimension
2
DimnDraft3D3
10
-48.76547
20
-32.496558
30
0
11
-47.967972
21
2.472338
31
0
70
33
71
5
72
1
41
1
210
0
220
0
230
1
3
Standard
100
AcDbAlignedDimension
13
-18.230076
23
32.50017
33
0
14
-18.237043
24
-32.49983
34
0
1001
ACAD
1000
DSTYLE
1002
{
1070
   279
1070
     0
1070
    74
1070
     0
1070
   173
1070
     1
1070
   340
1005
1D8
1070
   271
1070
     1
1070
   272
1070
     2
1070
    77
1070
     1
1070
    73
1070
     0
1070
   171
1070
     3
1070
   274
1070
     4
1070
   177
1070
     7
1070
   176
1070
     7
1070
   178
1070
     7
1070
    78
1070
     8
1070
    48
1040
-0.005
1070
    41
1041
3.175
1070
   147
1041
1.5875
1070
    42
1041
1.5875
1070
    44
1041
3.175
1070
   140
1041
3.175
1070
   343
1005
0
1070
   344
1005
0
1002
}
0
DIMENSION
5
210
100
AcDbEntity
8
SK2
62
256
6
ByLayer
370
13
48
1
60
0
100
AcDbDimension
2
DimnDraft3D5
10
32
20
74.706961
30
0
11
11.652944
21
74.706961
31
0
70
32
71
5
72
1
41
1
210
0
220
0
230
1
3
Standard
100
AcDbAlignedDimension
13
0
23
1.5875
33
0
14
32
24
22.887067
34
0
50
0
100
AcDbRotatedDimension
1001
ACAD
1000
DSTYLE
1002
{
1070
   279
1070
     0
1070
   173
1070
     1
1070
   340
1005
1D8
1070
   271
1070
     1
1070
   272
1070
     2
1070
    77
1070
     1
1070
    73
1070
     0
1070
   171
1070
     3
1070
   274
1070
     4
1070
   177
1070
     7
1070
   176
1070
     7
1070
   178
1070
     7
1070
    78
1070
     8
1070
    48
1040
-0.005
1070
    41
1041
3.175
1070
   147
1041
1.5875
1070
    42
1041
1.5875
1070
    44
1041
3.175
1070
   140
1041
3.175
1070
   343
1005
0
1070
   344
1005
0
1002
}
0
ENDSEC
0
SECTION
2
OBJECTS
0
DICTIONARY
5
27b
330
0
100
AcDbDictionary
280
0
281
1
3
ACAD_GROUP
350
27c
3
ACAD_MLINESTYLE
350
27d
0
DICTIONARY
5
27c
330
0
100
AcDbDictionary
280
0
281
1
0
DICTIONARY
5
27d
330
0
100
AcDbDictionary
280
0
281
1
3
Standard
350
18
0
MLINESTYLE
5
18
330
27d
100
AcDbMlineStyle
2
Standard
70
0
3

62
256
51
90
52
90
71
2
49
-0.5
62
256
6
ByLayer
49
0.5
62
256
6
ByLayer
0
RASTERVARIABLES
5
269
330

100
AcDbRasterVariables
90
0
70
1
71
1
72
1
0
ENDSEC
0
EOF
