0
SECTION
2
HEADER
9
$ACADVER
1
AC1015
9
$DWGCODEPAGE
3
ANSI_1252
9
$HANDSEED
5
533
9
$ANGBASE
50
0
9
$ANGDIR
70
0
9
$ATTMODE
70
1
9
$AUNITS
70
0
9
$AUPREC
70
0
9
$CECOLOR
62
256
9
$CELTSCALE
40
1
9
$CELTYPE
6
ByLayer
9
$CELWEIGHT
370
18
9
$CLAYER
8
0
9
$CMLJUST
70
0
9
$CMLSCALE
40
1
9
$CMLSTYLE
2
Standard
9
$DIMSTYLE
2
Standard
9
$TEXTSIZE
40
0.2
9
$TEXTSTYLE
7
Standard
9
$LUNITS
70
2
9
$LUPREC
70
4
9
$EXTNAMES
290
1
9
$INSUNITS
70
4
9
$LTSCALE
40
1
9
$LWDISPLAY
290
1
9
$PDMODE
70
0
9
$PDSIZE
40
0
9
$PLINEGEN
70
0
0
ENDSEC
0
SECTION
2
CLASSES
0
CLASS
1
RASTERVARIABLES
2
AcDbRasterVariables
3
ISM
90
0
280
0
281
0
0
ENDSEC
0
SECTION
2
TABLES
0
TABLE
2
VPORT
5
529
100
AcDbSymbolTable
0
VPORT
5
1
100
AcDbSymbolTableRecord
100
AcDbViewportTableRecord
2
*Active
70
0
10
0
20
0
11
1
21
1
12
-1
22
1
13
0
23
0
14
0.5
24
0.5
15
10
25
10
16
0
26
0
36
1
17
0
27
0
37
0
0
ENDTAB
0
TABLE
2
LTYPE
5
52a
100
AcDbSymbolTable
0
LTYPE
5
14
100
AcDbSymbolTableRecord
100
AcDbLinetypeTableRecord
70
0
2
ByBlock
3

72
65
73
0
40
0
0
LTYPE
5
15
100
AcDbSymbolTableRecord
100
AcDbLinetypeTableRecord
70
0
2
ByLayer
3

72
65
73
0
40
0
0
LTYPE
5
16
100
AcDbSymbolTableRecord
100
AcDbLinetypeTableRecord
70
0
2
CONTINUOUS
3
Solid line
72
65
73
0
40
0
0
LTYPE
5
6A
100
AcDbSymbolTableRecord
100
AcDbLinetypeTableRecord
70
0
2
CENTER
3
____ _ ____ _ ____ _ ____
72
65
73
4
40
47.5
49
22
74
0
49
-8.5
74
0
49
8.5
74
0
49
-8.5
74
0
0
LTYPE
5
6B
100
AcDbSymbolTableRecord
100
AcDbLinetypeTableRecord
70
0
2
DASHED
3
__ __ __ __ __ __ __ __ __
72
65
73
2
40
25.72
49
12.86
74
0
49
-12.86
74
0
0
ENDTAB
0
TABLE
2
LAYER
5
52b
100
AcDbSymbolTable
0
LAYER
5
10
100
AcDbSymbolTableRecord
100
AcDbLayerTableRecord
2
0
70
0
62
7
6
CONTINUOUS
290
1
370
-3
390
0
0
LAYER
5
6D
100
AcDbSymbolTableRecord
100
AcDbLayerTableRecord
2
80
70
0
62
-6
6
CONTINUOUS
290
1
370
-3
390
0
0
LAYER
5
6F
100
AcDbSymbolTableRecord
100
AcDbLayerTableRecord
2
81
70
0
62
-3
6
CONTINUOUS
290
1
370
-3
390
0
0
LAYER
5
71
100
AcDbSymbolTableRecord
100
AcDbLayerTableRecord
2
82
70
0
62
-3
6
DASHED
290
1
370
-3
390
0
0
LAYER
5
74
100
AcDbSymbolTableRecord
100
AcDbLayerTableRecord
2
4
70
0
62
-2
6
CENTER
290
1
370
-3
390
0
0
LAYER
5
82
100
AcDbSymbolTableRecord
100
AcDbLayerTableRecord
2
1
70
0
62
4
6
CONTINUOUS
290
1
370
-3
390
0
0
LAYER
5
487
100
AcDbSymbolTableRecord
100
AcDbLayerTableRecord
2
2
70
0
62
7
6
CONTINUOUS
290
1
370
-3
390
0
0
LAYER
5
515
100
AcDbSymbolTableRecord
100
AcDbLayerTableRecord
2
SK4
70
0
62
2
6
CENTER
290
1
370
-3
390
0
0
LAYER
5
516
100
AcDbSymbolTableRecord
100
AcDbLayerTableRecord
2
SK1
70
0
62
4
6
CONTINUOUS
290
1
370
-3
390
0
0
LAYER
5
517
100
AcDbSymbolTableRecord
100
AcDbLayerTableRecord
2
SK6
70
0
62
5
6
CONTINUOUS
290
1
370
-3
390
0
0
LAYER
5
518
100
AcDbSymbolTableRecord
100
AcDbLayerTableRecord
2
SK2
70
0
62
7
6
CONTINUOUS
290
1
370
-3
390
0
0
ENDTAB
0
TABLE
2
STYLE
5
52c
100
AcDbSymbolTable
0
STYLE
5
11
100
AcDbSymbolTableRecord
100
AcDbTextStyleTableRecord
2
Standard
3
txt
70
0
71
0
40
0
41
1
42
0
50
0
0
STYLE
5
482
100
AcDbSymbolTableRecord
100
AcDbTextStyleTableRecord
2
iso_b_vert
3
simplex.shx
70
0
71
0
40
0
41
1
42
0
50
0
0
STYLE
5
483
100
AcDbSymbolTableRecord
100
AcDbTextStyleTableRecord
2
DWGDirectTextStyle
3
simplex
70
0
71
0
40
0
41
1
42
0
50
0
0
ENDTAB
0
TABLE
2
DIMSTYLE
5
52d
100
AcDbSymbolTable
100
AcDbDimStyleTable
0
DIMSTYLE
105
27
100
AcDbSymbolTableRecord
100
AcDbDimStyleTableRecord
2
Standard
70
0
3
<>
41
0.18
42
0.0625
44
0.18
140
0.18
147
0.09
73
0
74
0
77
1
271
2
275
0
278
52
280
0
340
11
0
ENDTAB
0
TABLE
2
VIEW
5
52e
100
AcDbSymbolTable
0
ENDTAB
0
TABLE
2
UCS
5
52f
100
AcDbSymbolTable
0
ENDTAB
0
TABLE
2
APPID
5
530
100
AcDbSymbolTable
0
APPID
5
12
100
AcDbSymbolTableRecord
100
AcDbRegAppTableRecord
2
ACAD
70
0
0
ENDTAB
0
TABLE
2
BLOCK_RECORD
5
531
100
AcDbSymbolTable
0
BLOCK_RECORD
5
1F
100
AcDbSymbolTableRecord
100
AcDbBlockTableRecord
2
*Model_Space
340
0
70
0
0
BLOCK_RECORD
5
1B
100
AcDbSymbolTableRecord
100
AcDbBlockTableRecord
2
*Paper_Space
340
0
70
0
0
BLOCK_RECORD
5
23
100
AcDbSymbolTableRecord
100
AcDbBlockTableRecord
2
*Paper_Space0
340
0
70
0
0
BLOCK_RECORD
5
485
100
AcDbSymbolTableRecord
100
AcDbBlockTableRecord
2
DimnDraft3D1
340
0
70
0
0
BLOCK_RECORD
5
490
100
AcDbSymbolTableRecord
100
AcDbBlockTableRecord
2
DimnDraft3D2
340
0
70
0
0
BLOCK_RECORD
5
49C
100
AcDbSymbolTableRecord
100
AcDbBlockTableRecord
2
DimnDraft3D3
340
0
70
0
0
BLOCK_RECORD
5
4A7
100
AcDbSymbolTableRecord
100
AcDbBlockTableRecord
2
DimnDraft3D4
340
0
70
0
0
BLOCK_RECORD
5
4B1
100
AcDbSymbolTableRecord
100
AcDbBlockTableRecord
2
DimnDraft3D5
340
0
70
0
0
ENDTAB
0
ENDSEC
0
SECTION
2
BLOCKS
0
BLOCK
5
20
100
AcDbEntity
8
0
100
AcDbBlockBegin
2
*Model_Space
70
0
10
0
20
0
30
0
3
*Model_Space
0
ENDBLK
5
21
100
AcDbEntity
8
0
100
AcDbBlockEnd
0
BLOCK
5
1C
100
AcDbEntity
8
0
100
AcDbBlockBegin
2
*Paper_Space
70
0
10
0
20
0
30
0
3
*Paper_Space
0
ENDBLK
5
1D
100
AcDbEntity
8
0
100
AcDbBlockEnd
0
BLOCK
5
24
100
AcDbEntity
8
0
100
AcDbBlockBegin
2
*Paper_Space0
70
0
10
0
20
0
30
0
3
*Paper_Space0
0
ENDBLK
5
25
100
AcDbEntity
8
0
100
AcDbBlockEnd
0
BLOCK
5
48D
100
AcDbEntity
8
0
100
AcDbBlockBegin
2
DimnDraft3D1
70
0
10
0
20
0
30
0
3
DimnDraft3D1
0
MTEXT
5
486
100
AcDbEntity
8
2
62
256
6
ByLayer
370
13
48
1
60
0
100
AcDbMText
10
7.559436
20
46.400166
30
0
210
0
220
0
230
1
1
\W0.5321;18
40
3.175
41
0
44
1.084337
50
0
71
7
72
5
7
iso_b_vert
0
LINE
5
488
100
AcDbEntity
8
2
62
256
6
ByLayer
370
13
48
1
60
0
100
AcDbLine
10
0
20
1.5875
30
0
11
0
21
48.781416
31
0
39
0
210
0
220
0
230
1
0
LINE
5
489
100
AcDbEntity
8
2
62
256
6
ByLayer
370
13
48
1
60
0
100
AcDbLine
10
18
20
24.5875
30
0
11
18
21
48.781416
31
0
39
0
210
0
220
0
230
1
0
LINE
5
48A
100
AcDbEntity
8
2
62
256
6
ByLayer
370
13
48
1
60
0
100
AcDbLine
10
0
20
45.606416
30
0
11
18
21
45.606416
31
0
39
0
210
0
220
0
230
1
0
SOLID
5
48B
100
AcDbEntity
8
2
62
256
6
ByLayer
370
13
48
1
60
0
100
AcDbTrace
10
0
20
45.606416
30
0
11
3.174998
21
46.024413
31
0
12
3.175002
22
45.188419
32
0
13
0
23
45.606416
33
0
39
0
210
0
220
0
230
1
0
SOLID
5
48C
100
AcDbEntity
8
2
62
256
6
ByLayer
370
13
48
1
60
0
100
AcDbTrace
10
18
20
45.606416
30
0
11
14.825002
21
45.188419
31
0
12
14.824998
22
46.024413
32
0
13
18
23
45.606416
33
0
39
0
210
0
220
0
230
1
0
ENDBLK
5
48E
100
AcDbEntity
8
0
100
AcDbBlockEnd
0
BLOCK
5
499
100
AcDbEntity
8
0
100
AcDbBlockBegin
2
DimnDraft3D2
70
0
10
0
20
0
30
0
3
DimnDraft3D2
0
MTEXT
5
491
100
AcDbEntity
8
SK2
62
256
6
ByLayer
370
13
48
1
60
0
100
AcDbMText
10
-19.333246
20
3.095625
30
0
210
0
220
0
230
1
1
\W0.7361;40
40
3.175
41
0
44
1.084337
50
90
71
7
72
5
7
iso_b_vert
0
MTEXT
5
493
100
AcDbEntity
8
SK2
62
256
6
ByLayer
370
13
48
1
60
0
100
AcDbMText
10
-19.333246
20
-4.02332
30
0
210
0
220
0
230
1
1
%%c
40
3.175
41
0
44
1.084337
50
90
71
7
72
5
7
iso_b_vert
0
LINE
5
494
100
AcDbEntity
8
SK2
62
256
6
ByLayer
370
13
48
1
60
0
100
AcDbLine
10
-0.9125
20
-20
30
0
11
-20.920746
21
-20
31
0
39
0
210
0
220
0
230
1
0
LINE
5
495
100
AcDbEntity
8
SK2
62
256
6
ByLayer
370
13
48
1
60
0
100
AcDbLine
10
-0.9125
20
20
30
0
11
-20.920746
21
20
31
0
39
0
210
0
220
0
230
1
0
LINE
5
496
100
AcDbEntity
8
SK2
62
256
6
ByLayer
370
13
48
1
60
0
100
AcDbLine
10
-17.745746
20
-20
30
0
11
-17.745746
21
20
31
0
39
0
210
0
220
0
230
1
0
SOLID
5
497
100
AcDbEntity
8
SK2
62
256
6
ByLayer
370
13
48
1
60
0
100
AcDbTrace
10
-17.745746
20
-20
30
0
11
-18.163743
21
-16.825002
31
0
12
-17.32775
22
-16.824998
32
0
13
-17.745746
23
-20
33
0
39
0
210
0
220
0
230
1
0
SOLID
5
498
100
AcDbEntity
8
SK2
62
256
6
ByLayer
370
13
48
1
60
0
100
AcDbTrace
10
-17.745746
20
20
30
0
11
-17.32775
21
16.825002
31
0
12
-18.163743
22
16.824998
32
0
13
-17.745746
23
20
33
0
39
0
210
0
220
0
230
1
0
ENDBLK
5
49A
100
AcDbEntity
8
0
100
AcDbBlockEnd
0
BLOCK
5
4A4
100
AcDbEntity
8
0
100
AcDbBlockBegin
2
DimnDraft3D3
70
0
10
0
20
0
30
0
3
DimnDraft3D3
0
MTEXT
5
49D
100
AcDbEntity
8
SK2
62
256
6
ByLayer
370
13
48
1
60
0
100
AcDbMText
10
31.520374
20
41.954086
30
0
210
0
220
0
230
1
1
\W0.6740;32
40
3.175
41
0
44
1.084337
50
5.00000000000005
71
7
72
5
7
iso_b_vert
0
MTEXT
5
49E
100
AcDbEntity
8
SK2
62
256
6
ByLayer
370
13
48
1
60
0
100
AcDbMText
10
24.428518
20
41.333629
30
0
210
0
220
0
230
1
1
%%c
40
3.175
41
0
44
1.084337
50
5.00000000000005
71
7
72
5
7
iso_b_vert
0
LINE
5
49F
100
AcDbEntity
8
SK2
62
256
6
ByLayer
370
13
48
1
60
0
100
AcDbLine
10
1.981355
20
22.514536
30
0
11
0.379556
21
40.823182
31
0
39
0
210
0
220
0
230
1
0
LINE
5
4A0
100
AcDbEntity
8
SK2
62
256
6
ByLayer
370
13
48
1
60
0
100
AcDbLine
10
33.859586
20
25.30352
30
0
11
32.257787
21
43.612165
31
0
39
0
210
0
220
0
230
1
0
LINE
5
4A1
100
AcDbEntity
8
SK2
62
256
6
ByLayer
370
13
48
1
60
0
100
AcDbLine
10
0.656276
20
37.660263
30
0
11
34.646859
21
40.634054
31
0
39
0
210
0
220
0
230
1
0
SOLID
5
4A2
100
AcDbEntity
8
SK2
62
256
6
ByLayer
370
13
48
1
60
0
100
AcDbTrace
10
0.656276
20
37.660263
30
0
11
3.782762
21
38.353389
31
0
12
3.855626
22
37.520577
32
0
13
0.656276
23
37.660263
33
0
39
0
210
0
220
0
230
1
0
SOLID
5
4A3
100
AcDbEntity
8
SK2
62
256
6
ByLayer
370
13
48
1
60
0
100
AcDbTrace
10
32.534506
20
40.449247
30
0
11
29.40802
21
39.756122
31
0
12
29.335156
22
40.588934
32
0
13
32.534506
23
40.449247
33
0
39
0
210
0
220
0
230
1
0
ENDBLK
5
4A5
100
AcDbEntity
8
0
100
AcDbBlockEnd
0
BLOCK
5
4AE
100
AcDbEntity
8
0
100
AcDbBlockBegin
2
DimnDraft3D4
70
0
10
0
20
0
30
0
3
DimnDraft3D4
0
MTEXT
5
4A8
100
AcDbEntity
8
SK2
62
256
6
ByLayer
370
13
48
1
60
0
100
AcDbMText
10
-7.054683
20
10.397105
30
0
210
0
220
0
230
1
1
\W0.6740;23
40
3.175
41
0
44
1.084337
50
90
71
7
72
5
7
iso_b_vert
0
LINE
5
4A9
100
AcDbEntity
8
SK2
62
256
6
ByLayer
370
13
48
1
60
0
100
AcDbLine
10
-1.5875
20
0
30
0
11
-9.435933
21
0
31
0
39
0
210
0
220
0
230
1
0
LINE
5
4AA
100
AcDbEntity
8
SK2
62
256
6
ByLayer
370
13
48
1
60
0
100
AcDbLine
10
16.4125
20
23
30
0
11
-9.435933
21
23
31
0
39
0
210
0
220
0
230
1
0
LINE
5
4AB
100
AcDbEntity
8
SK2
62
256
6
ByLayer
370
13
48
1
60
0
100
AcDbLine
10
-6.260933
20
0
30
0
11
-6.260933
21
23
31
0
39
0
210
0
220
0
230
1
0
SOLID
5
4AC
100
AcDbEntity
8
SK2
62
256
6
ByLayer
370
13
48
1
60
0
100
AcDbTrace
10
-6.260933
20
0
30
0
11
-6.67893
21
3.174998
31
0
12
-5.842936
22
3.175002
32
0
13
-6.260933
23
0
33
0
39
0
210
0
220
0
230
1
0
SOLID
5
4AD
100
AcDbEntity
8
SK2
62
256
6
ByLayer
370
13
48
1
60
0
100
AcDbTrace
10
-6.260933
20
23
30
0
11
-5.842936
21
19.825002
31
0
12
-6.67893
22
19.824998
32
0
13
-6.260933
23
23
33
0
39
0
210
0
220
0
230
1
0
ENDBLK
5
4AF
100
AcDbEntity
8
0
100
AcDbBlockEnd
0
BLOCK
5
4B9
100
AcDbEntity
8
0
100
AcDbBlockBegin
2
DimnDraft3D5
70
0
10
0
20
0
30
0
3
DimnDraft3D5
0
MTEXT
5
4B2
100
AcDbEntity
8
SK2
62
256
6
ByLayer
370
13
48
1
60
0
100
AcDbMText
10
10.05088
20
31.417874
30
0
210
0
220
0
230
1
1
\W0.9056;5%%d
40
3.175
41
0
44
1.084337
50
38.7753446496974
71
7
72
5
7
iso_b_vert
0
LINE
5
4B3
100
AcDbEntity
8
SK2
62
256
6
ByLayer
370
13
48
1
60
0
100
AcDbLine
10
18
20
24.5875
30
0
11
18
21
36.92217
31
0
39
0
210
0
220
0
230
1
0
LINE
5
4B4
100
AcDbEntity
8
SK2
62
256
6
ByLayer
370
13
48
1
60
0
100
AcDbLine
10
17.70476
20
26.37461
30
0
11
16.786603
21
36.869192
31
0
39
0
210
0
220
0
230
1
0
ARC
5
4B5
100
AcDbEntity
8
SK2
62
256
6
ByLayer
370
13
48
1
60
0
100
AcDbCircle
39
0
10
18
20
23
30
0
40
10.7471704752117
210
0
220
0
230
1
100
AcDbArc
50
95
51
137.863273
0
ARC
5
4B6
100
AcDbEntity
8
SK2
62
256
6
ByLayer
370
13
48
1
60
0
100
AcDbCircle
39
0
10
18
20
23
30
0
40
10.7471704752117
210
0
220
0
230
1
100
AcDbArc
50
53.551667
51
90
0
SOLID
5
4B7
100
AcDbEntity
8
SK2
62
256
6
ByLayer
370
13
48
1
60
0
100
AcDbTrace
10
18
20
33.74717
30
0
11
21.197089
21
33.931441
31
0
12
21.135847
22
33.097694
32
0
13
18
23
33.74717
33
0
39
0
210
0
220
0
230
1
0
SOLID
5
4B8
100
AcDbEntity
8
SK2
62
256
6
ByLayer
370
13
48
1
60
0
100
AcDbTrace
10
17.063322
20
33.706274
30
0
11
13.996017
21
32.785963
31
0
12
13.862336
22
33.611199
32
0
13
17.063322
23
33.706274
33
0
39
0
210
0
220
0
230
1
0
ENDBLK
5
4BA
100
AcDbEntity
8
0
100
AcDbBlockEnd
0
ENDSEC
0
SECTION
2
ENTITIES
0
ARC
5
25A
100
AcDbEntity
8
1
62
256
6
ByLayer
370
18
48
1
60
0
100
AcDbCircle
39
0
10
-0.875
20
-20.8
30
0
40
0.8
210
0
220
0
230
-1
100
AcDbArc
50
90
51
172.438058
0
ARC
5
25B
100
AcDbEntity
8
1
62
256
6
ByLayer
370
18
48
1
60
0
100
AcDbCircle
39
0
10
-0.875
20
20.8
30
0
40
0.8
210
0
220
0
230
-1
100
AcDbArc
50
187.531884
51
270
0
ELLIPSE
5
25C
100
AcDbEntity
8
1
62
256
6
ByLayer
370
18
48
1
60
0
100
AcDbEllipse
10
24.95328
20
-7.778175
30
0
11
4.97867670484417E-15
21
4.25
31
0
210
0
220
0
230
1
40
0.996195
41
0
42
3.14159265358979
0
ELLIPSE
5
25D
100
AcDbEntity
8
1
62
256
6
ByLayer
370
18
48
1
60
0
100
AcDbEllipse
10
24.95328
20
-7.778175
30
0
11
4.97867670484417E-15
21
4.25
31
0
210
0
220
0
230
1
40
0.996195
41
3.14159265358979
42
-2.09781375711081E-16
0
ELLIPSE
5
25E
100
AcDbEntity
8
1
62
256
6
ByLayer
370
18
48
1
60
0
100
AcDbEllipse
10
25.389059
20
-7.778175
30
0
11
4.97867670484417E-15
21
4.25
31
0
210
0
220
0
230
1
40
0.996195
41
3.14159265358979
42
-2.09781375711081E-16
0
ELLIPSE
5
25F
100
AcDbEntity
8
1
62
256
6
ByLayer
370
18
48
1
60
0
100
AcDbEllipse
10
9.456128
20
7.778175
30
0
11
4.97867670484417E-15
21
4.25
31
0
210
0
220
0
230
1
40
0.996195
41
0
42
3.14159265358979
0
ELLIPSE
5
260
100
AcDbEntity
8
1
62
256
6
ByLayer
370
18
48
1
60
0
100
AcDbEllipse
10
9.456128
20
7.778175
30
0
11
4.97867670484417E-15
21
4.25
31
0
210
0
220
0
230
1
40
0.996195
41
3.14159265358979
42
-2.09781375711081E-16
0
ELLIPSE
5
261
100
AcDbEntity
8
1
62
256
6
ByLayer
370
18
48
1
60
0
100
AcDbEllipse
10
9.891906
20
7.778175
30
0
11
4.97867670484417E-15
21
4.25
31
0
210
0
220
0
230
1
40
0.996195
41
3.14159265358979
42
-2.09781375711081E-16
0
ELLIPSE
5
262
100
AcDbEntity
8
1
62
256
6
ByLayer
370
18
48
1
60
0
100
AcDbEllipse
10
9.456128
20
-7.778175
30
0
11
4.97867670484417E-15
21
4.25
31
0
210
0
220
0
230
1
40
0.996195
41
0
42
3.14159265358979
0
ELLIPSE
5
263
100
AcDbEntity
8
1
62
256
6
ByLayer
370
18
48
1
60
0
100
AcDbEllipse
10
9.456128
20
-7.778175
30
0
11
4.97867670484417E-15
21
4.25
31
0
210
0
220
0
230
1
40
0.996195
41
3.14159265358979
42
-2.09781375711081E-16
0
ELLIPSE
5
264
100
AcDbEntity
8
1
62
256
6
ByLayer
370
18
48
1
60
0
100
AcDbEllipse
10
9.891906
20
-7.778175
30
0
11
4.97867670484417E-15
21
4.25
31
0
210
0
220
0
230
1
40
0.996195
41
3.14159265358979
42
-2.09781375711081E-16
0
ELLIPSE
5
265
100
AcDbEntity
8
1
62
256
6
ByLayer
370
18
48
1
60
0
100
AcDbEllipse
10
18.076261
20
0
30
0
11
1.87432534770601E-14
21
15.9999999999997
31
0
210
0
220
0
230
1
40
0.996195
41
3.14159265358979
42
-1.5707963267949
0
ELLIPSE
5
266
100
AcDbEntity
8
1
62
256
6
ByLayer
370
18
48
1
60
0
100
AcDbEllipse
10
17.97166
20
1E-06
30
0
11
-9.84415809970987E-05
21
15.0000074857371
31
0
210
0
220
0
230
1
40
0.996195
41
-1.63334364533199
42
-1.6083116906263
0
ELLIPSE
5
267
100
AcDbEntity
8
1
62
256
6
ByLayer
370
18
48
1
60
0
100
AcDbEllipse
10
17.971674
20
0
30
0
11
7.02872005682549E-15
21
6.00000000249932
31
0
210
0
220
0
230
1
40
0.996195
41
-1.72768919775188
42
-1.66468420186558
0
ELLIPSE
5
268
100
AcDbEntity
8
1
62
256
6
ByLayer
370
18
48
1
60
0
100
AcDbEllipse
10
18.05883
20
0
30
0
11
1.87432534770602E-14
21
15.9999999999998
31
0
210
0
220
0
230
1
40
0.996195
41
3.14159265358979
42
-1.5707963267949
0
ELLIPSE
5
269
100
AcDbEntity
8
1
62
256
6
ByLayer
370
18
48
1
60
0
100
AcDbEllipse
10
17.971674
20
0
30
0
11
1.75718001285665E-14
21
14.9999999947265
31
0
210
0
220
0
230
1
40
0.996195
41
0.274724397874657
42
0.355421201747081
0
ELLIPSE
5
26A
100
AcDbEntity
8
1
62
256
6
ByLayer
370
18
48
1
60
0
100
AcDbEllipse
10
17.971674
20
0
30
0
11
-7.85833461253858E-06
21
15.000000115248
31
0
210
0
220
0
230
1
40
0.996195
41
0.530606580640571
42
0.578103840569453
0
ELLIPSE
5
26B
100
AcDbEntity
8
1
62
256
6
ByLayer
370
18
48
1
60
0
100
AcDbEllipse
10
17.971676
20
-1E-06
30
0
11
-6.76139205948478E-05
21
15.0000007705803
31
0
210
0
220
0
230
1
40
0.996195
41
1.08997898859815
42
1.11797522378762
0
ELLIPSE
5
26C
100
AcDbEntity
8
1
62
256
6
ByLayer
370
18
48
1
60
0
100
AcDbEllipse
10
17.971674
20
0
30
0
11
1.75718001489443E-14
21
15.0000000121218
31
0
210
0
220
0
230
1
40
0.996195
41
1.19984737815178
42
1.22653652765445
0
ELLIPSE
5
26D
100
AcDbEntity
8
1
62
256
6
ByLayer
370
18
48
1
60
0
100
AcDbEllipse
10
17.971673
20
0
30
0
11
4.06166210376442E-05
21
14.9999993186075
31
0
210
0
220
0
230
1
40
0.996195
41
1.30518688443271
42
1.33100763526715
0
ELLIPSE
5
26E
100
AcDbEntity
8
1
62
256
6
ByLayer
370
18
48
1
60
0
100
AcDbEllipse
10
17.971673
20
0
30
0
11
3.56037120541412E-05
21
14.999999061766
31
0
210
0
220
0
230
1
40
0.996195
41
1.40757489607728
42
1.43286170472236
0
ELLIPSE
5
26F
100
AcDbEntity
8
1
62
256
6
ByLayer
370
18
48
1
60
0
100
AcDbEllipse
10
17.971676
20
0
30
0
11
-1.10526912311212E-05
21
15.0000008449842
31
0
210
0
220
0
230
1
40
0.996195
41
1.50825482884764
42
1.53328679460848
0
ELLIPSE
5
270
100
AcDbEntity
8
1
62
256
6
ByLayer
370
18
48
1
60
0
100
AcDbEllipse
10
17.971676
20
0
30
0
11
1.19736180335198E-05
21
15.0000009165304
31
0
210
0
220
0
230
1
40
0.996195
41
1.60830592043284
42
1.63333788607456
0
ELLIPSE
5
271
100
AcDbEntity
8
1
62
256
6
ByLayer
370
18
48
1
60
0
100
AcDbEllipse
10
17.971672
20
0
30
0
11
-4.47442565597576E-05
21
14.9999988177796
31
0
210
0
220
0
230
1
40
0.996195
41
1.70873033933131
42
1.73401714837892
0
ELLIPSE
5
272
100
AcDbEntity
8
1
62
256
6
ByLayer
370
18
48
1
60
0
100
AcDbEllipse
10
17.971674
20
0
30
0
11
-2.29546326131123E-05
21
14.9999996143145
31
0
210
0
220
0
230
1
40
0.996195
41
1.81058619603373
42
1.83640694638909
0
ELLIPSE
5
273
100
AcDbEntity
8
1
62
256
6
ByLayer
370
18
48
1
60
0
100
AcDbEllipse
10
17.971674
20
0
30
0
11
-2.59361016933601E-05
21
14.9999996617052
31
0
210
0
220
0
230
1
40
0.996195
41
1.91505439678244
42
1.94174354684497
0
ELLIPSE
5
274
100
AcDbEntity
8
1
62
256
6
ByLayer
370
18
48
1
60
0
100
AcDbEllipse
10
17.971674
20
0
30
0
11
-4.08291073096295E-05
21
14.9999995345445
31
0
210
0
220
0
230
1
40
0.996195
41
2.02361019919717
42
2.05160643630418
0
ELLIPSE
5
275
100
AcDbEntity
8
1
62
256
6
ByLayer
370
18
48
1
60
0
100
AcDbEllipse
10
17.971674
20
0
30
0
11
-6.5681433592417E-06
21
14.999999903313
31
0
210
0
220
0
230
1
40
0.996195
41
2.56348785104745
42
2.61098511136573
0
ELLIPSE
5
276
100
AcDbEntity
8
1
62
256
6
ByLayer
370
18
48
1
60
0
100
AcDbEllipse
10
17.971674
20
0
30
0
11
1.75718001448854E-14
21
15.000000008657
31
0
210
0
220
0
230
1
40
0.996195
41
2.78617145199281
42
2.86686825582207
0
ELLIPSE
5
277
100
AcDbEntity
8
1
62
256
6
ByLayer
370
18
48
1
60
0
100
AcDbEllipse
10
17.971674
20
0
30
0
11
1.75718001440643E-14
21
15.0000000079561
31
0
210
0
220
0
230
1
40
0.996195
41
-2.86686825581664
42
-2.78617145198522
0
ELLIPSE
5
278
100
AcDbEntity
8
1
62
256
6
ByLayer
370
18
48
1
60
0
100
AcDbEllipse
10
17.971674
20
0
30
0
11
8.18350224790659E-06
21
14.9999998799835
31
0
210
0
220
0
230
1
40
0.996195
41
-2.61098500370551
42
-2.56348774334412
0
ELLIPSE
5
279
100
AcDbEntity
8
1
62
256
6
ByLayer
370
18
48
1
60
0
100
AcDbEllipse
10
17.971674
20
0
30
0
11
1.06457907691738E-05
21
14.999999872343
31
0
210
0
220
0
230
1
40
0.996195
41
-2.43796404123713
42
-2.40833191473519
0
ELLIPSE
5
27A
100
AcDbEntity
8
1
62
256
6
ByLayer
370
18
48
1
60
0
100
AcDbEllipse
10
17.971676
20
-2E-06
30
0
11
0.000172381782934038
21
14.9999981063782
31
0
210
0
220
0
230
1
40
0.996195
41
-2.29493619951222
42
-2.26203386979442
0
ELLIPSE
5
27B
100
AcDbEntity
8
1
62
256
6
ByLayer
370
18
48
1
60
0
100
AcDbEllipse
10
17.971678
20
-2E-06
30
0
11
0.000245641055989979
21
14.9999973426269
31
0
210
0
220
0
230
1
40
0.996195
41
-2.16818636928351
42
-2.1382495756437
0
ELLIPSE
5
27C
100
AcDbEntity
8
1
62
256
6
ByLayer
370
18
48
1
60
0
100
AcDbEllipse
10
17.971675
20
0
30
0
11
1.1569416447003E-05
21
14.999999867708
31
0
210
0
220
0
230
1
40
0.996195
41
-2.05160838674434
42
-2.02361215015363
0
ELLIPSE
5
27D
100
AcDbEntity
8
1
62
256
6
ByLayer
370
18
48
1
60
0
100
AcDbEllipse
10
17.971679
20
-2E-06
30
0
11
0.00019900739903267
21
14.999997395159
31
0
210
0
220
0
230
1
40
0.996195
41
-1.94173201069164
42
-1.91504285703489
0
ELLIPSE
5
27E
100
AcDbEntity
8
1
62
256
6
ByLayer
370
18
48
1
60
0
100
AcDbEllipse
10
17.971669
20
1E-06
30
0
11
-0.000164254158409532
21
15.0000027471356
31
0
210
0
220
0
230
1
40
0.996195
41
-1.83641942449654
42
-1.81059867921869
0
ELLIPSE
5
27F
100
AcDbEntity
8
1
62
256
6
ByLayer
370
18
48
1
60
0
100
AcDbEllipse
10
17.971678
20
0
30
0
11
6.13419951639465E-05
21
14.9999983823291
31
0
210
0
220
0
230
1
40
0.996195
41
-1.73401604220447
42
-1.70872923243907
0
ELLIPSE
5
280
100
AcDbEntity
8
1
62
256
6
ByLayer
370
18
48
1
60
0
100
AcDbEllipse
10
17.97166
20
-1E-06
30
0
11
9.8488302975406E-05
21
15.0000074893152
31
0
210
0
220
0
230
1
40
0.996195
41
-1.53328095984571
42
-1.50824900514598
0
ELLIPSE
5
281
100
AcDbEntity
8
1
62
256
6
ByLayer
370
18
48
1
60
0
100
AcDbEllipse
10
17.971678
20
1E-06
30
0
11
-7.18377466040374E-05
21
14.9999981020408
31
0
210
0
220
0
230
1
40
0.996195
41
-1.43286412105769
42
-1.40757731082989
0
ELLIPSE
5
282
100
AcDbEntity
8
1
62
256
6
ByLayer
370
18
48
1
60
0
100
AcDbEllipse
10
17.971663
20
-3E-06
30
0
11
0.000380226769933078
21
15.0000063637957
31
0
210
0
220
0
230
1
40
0.996195
41
-1.33097957331136
42
-1.30515883390119
0
ELLIPSE
5
283
100
AcDbEntity
8
1
62
256
6
ByLayer
370
18
48
1
60
0
100
AcDbEllipse
10
17.971676
20
1E-06
30
0
11
-6.58595240922759E-05
21
14.9999991378938
31
0
210
0
220
0
230
1
40
0.996195
41
-1.22654091871268
42
-1.1998517678186
0
ELLIPSE
5
284
100
AcDbEntity
8
1
62
256
6
ByLayer
370
18
48
1
60
0
100
AcDbEllipse
10
17.971676
20
1E-06
30
0
11
-9.48748909878299E-05
21
14.9999989142813
31
0
210
0
220
0
230
1
40
0.996195
41
-1.11798605771628
42
-1.08998981964244
0
ELLIPSE
5
285
100
AcDbEntity
8
1
62
256
6
ByLayer
370
18
48
1
60
0
100
AcDbEllipse
10
17.971676
20
1E-06
30
0
11
-8.56430870530261E-05
21
14.9999990737859
31
0
210
0
220
0
230
1
40
0.996195
41
-1.00333240994242
42
-0.973395618951101
0
ELLIPSE
5
286
100
AcDbEntity
8
1
62
256
6
ByLayer
370
18
48
1
60
0
100
AcDbEllipse
10
17.971675
20
1E-06
30
0
11
-7.73694845283271E-05
21
14.9999991501149
31
0
210
0
220
0
230
1
40
0.996195
41
-0.879552448813699
42
-0.846650120704601
0
ELLIPSE
5
287
100
AcDbEntity
8
1
62
256
6
ByLayer
370
18
48
1
60
0
100
AcDbEllipse
10
17.971675
20
0
30
0
11
-1.84079332916536E-05
21
14.999999778723
31
0
210
0
220
0
230
1
40
0.996195
41
-0.74143651697996
42
-0.703629129776768
0
ELLIPSE
5
288
100
AcDbEntity
8
1
62
256
6
ByLayer
370
18
48
1
60
0
100
AcDbEllipse
10
17.971674
20
0
30
0
11
-1.23127602418773E-05
21
14.9999998191251
31
0
210
0
220
0
230
1
40
0.996195
41
-0.578105185593899
42
-0.530607925120803
0
ELLIPSE
5
289
100
AcDbEntity
8
1
62
256
6
ByLayer
370
18
48
1
60
0
100
AcDbEllipse
10
17.971674
20
0
30
0
11
1.75718001394705E-14
21
15.0000000040346
31
0
210
0
220
0
230
1
40
0.996195
41
-0.35542120164669
42
-0.27472439780307
0
ELLIPSE
5
28A
100
AcDbEntity
8
1
62
256
6
ByLayer
370
18
48
1
60
0
100
AcDbEllipse
10
17.971674
20
0
30
0
11
7.02872005672956E-15
21
6.00000000241743
31
0
210
0
220
0
230
1
40
0.996195
41
-1.47690845172298
42
-1.41390345583581
0
ELLIPSE
5
28B
100
AcDbEntity
8
1
62
256
6
ByLayer
370
18
48
1
60
0
100
AcDbEllipse
10
17.971674
20
0
30
0
11
1.47021538929967E-06
21
5.99999998164973
31
0
210
0
220
0
230
1
40
0.996195
41
-1.98914246828846
42
-1.92170342525533
0
ELLIPSE
5
28C
100
AcDbEntity
8
1
62
256
6
ByLayer
370
18
48
1
60
0
100
AcDbEllipse
10
17.971674
20
0
30
0
11
-1.26453327169754E-06
21
5.99999998405859
31
0
210
0
220
0
230
1
40
0.996195
41
-1.21988919402591
42
-1.15245015101584
0
ELLIPSE
5
28D
100
AcDbEntity
8
1
62
256
6
ByLayer
370
18
48
1
60
0
100
AcDbEllipse
10
17.971674
20
0
30
0
11
1.08505309520782E-06
21
6.00000001178789
31
0
210
0
220
0
230
1
40
0.996195
41
-0.935084860492634
42
-0.85495808578196
0
ELLIPSE
5
28E
100
AcDbEntity
8
1
62
256
6
ByLayer
370
18
48
1
60
0
100
AcDbEllipse
10
17.971674
20
0
30
0
11
-2.04117727704533E-06
21
6.00000002216074
31
0
210
0
220
0
230
1
40
0.996195
41
-2.28663472710816
42
-2.20650795249736
0
ELLIPSE
5
28F
100
AcDbEntity
8
1
62
256
6
ByLayer
370
18
48
1
60
0
100
AcDbEllipse
10
25.720251
20
7.778175
30
0
11
3.63150536122826E-15
21
3.10000000004081
31
0
210
0
220
0
230
1
40
0.996195
41
2.42653634075834
42
2.63835149792977
0
ELLIPSE
5
290
100
AcDbEntity
8
1
62
256
6
ByLayer
370
18
48
1
60
0
100
AcDbEllipse
10
25.720251
20
7.778175
30
0
11
-1.65092071748658E-07
21
3.09999999776488
31
0
210
0
220
0
230
1
40
0.996195
41
1.84542059214131
42
1.97376727651996
0
ELLIPSE
5
291
100
AcDbEntity
8
1
62
256
6
ByLayer
370
18
48
1
60
0
100
AcDbEllipse
10
25.720251
20
7.778175
30
0
11
3.6315053633067E-15
21
3.10000000181505
31
0
210
0
220
0
230
1
40
0.996195
41
1.35647368644013
42
1.4789493733757
0
ELLIPSE
5
292
100
AcDbEntity
8
1
62
256
6
ByLayer
370
18
48
1
60
0
100
AcDbEllipse
10
25.720251
20
7.778175
30
0
11
3.63150536221506E-15
21
3.10000000088318
31
0
210
0
220
0
230
1
40
0.996195
41
0.800209256250504
42
0.957472277085445
0
ELLIPSE
5
293
100
AcDbEntity
8
1
62
256
6
ByLayer
370
18
48
1
60
0
100
AcDbEllipse
10
25.720251
20
7.778175
30
0
11
3.6315053610964E-15
21
3.09999999992825
31
0
210
0
220
0
230
1
40
0.996195
41
-0.957472277082345
42
-0.800209256195219
0
ELLIPSE
5
294
100
AcDbEntity
8
1
62
256
6
ByLayer
370
18
48
1
60
0
100
AcDbEllipse
10
25.720251
20
7.778175
30
0
11
3.63150536441221E-15
21
3.10000000275876
31
0
210
0
220
0
230
1
40
0.996195
41
-1.47894937340178
42
-1.35647368650438
0
ELLIPSE
5
295
100
AcDbEntity
8
1
62
256
6
ByLayer
370
18
48
1
60
0
100
AcDbEllipse
10
25.720251
20
7.778175
30
0
11
1.55618944658846E-07
21
3.09999999788801
31
0
210
0
220
0
230
1
40
0.996195
41
-1.97376727957426
42
-1.84542059520015
0
ELLIPSE
5
296
100
AcDbEntity
8
1
62
256
6
ByLayer
370
18
48
1
60
0
100
AcDbEllipse
10
25.720251
20
7.778175
30
0
11
3.63150536133099E-15
21
3.1000000001285
31
0
210
0
220
0
230
1
40
0.996195
41
-2.63835149793046
42
-2.42653634076404
0
ELLIPSE
5
297
100
AcDbEntity
8
1
62
256
6
ByLayer
370
18
48
1
60
0
100
AcDbEllipse
10
25.807406
20
7.778175
30
0
11
2.46005201886418E-15
21
2.1
31
0
210
0
220
0
230
1
40
0.996195
41
3.14159265358979
42
-4.24557546081949E-16
0
ELLIPSE
5
298
100
AcDbEntity
8
1
62
256
6
ByLayer
370
18
48
1
60
0
100
AcDbEllipse
10
17.971674
20
0
30
0
11
7.02872005110663E-15
21
5.99999999761747
31
0
210
0
220
0
230
1
40
0.996195
41
2.57502832288559
42
2.70512362480801
0
ELLIPSE
5
299
100
AcDbEntity
8
1
62
256
6
ByLayer
370
18
48
1
60
0
100
AcDbEllipse
10
17.971674
20
0
30
0
11
-1.05769772434378E-06
21
5.99999998851224
31
0
210
0
220
0
230
1
40
0.996195
41
2.20650743585754
42
2.2866342107917
0
ELLIPSE
5
29A
100
AcDbEntity
8
1
62
256
6
ByLayer
370
18
48
1
60
0
100
AcDbEllipse
10
17.971674
20
0
30
0
11
1.75072808523562E-06
21
6.00000002179403
31
0
210
0
220
0
230
1
40
0.996195
41
1.92170396229192
42
1.98914300492986
0
ELLIPSE
5
29B
100
AcDbEntity
8
1
62
256
6
ByLayer
370
18
48
1
60
0
100
AcDbEllipse
10
17.971674
20
0
30
0
11
7.08929042453413E-07
21
6.00000002212041
31
0
210
0
220
0
230
1
40
0.996195
41
1.66468432017229
42
1.72768931585645
0
ELLIPSE
5
29C
100
AcDbEntity
8
1
62
256
6
ByLayer
370
18
48
1
60
0
100
AcDbEllipse
10
17.971674
20
0
30
0
11
-7.10895346185175E-07
21
6.00000002217681
31
0
210
0
220
0
230
1
40
0.996195
41
1.41390333740581
42
1.47690833308939
0
ELLIPSE
5
29D
100
AcDbEntity
8
1
62
256
6
ByLayer
370
18
48
1
60
0
100
AcDbEllipse
10
17.971674
20
0
30
0
11
7.02872005143779E-15
21
5.99999999790016
31
0
210
0
220
0
230
1
40
0.996195
41
1.15244994023649
42
1.21988898311526
0
ELLIPSE
5
29E
100
AcDbEntity
8
1
62
256
6
ByLayer
370
18
48
1
60
0
100
AcDbEllipse
10
17.971674
20
0
30
0
11
7.02872005255586E-15
21
5.99999999885459
31
0
210
0
220
0
230
1
40
0.996195
41
0.854958266538307
42
0.93508504137889
0
ELLIPSE
5
29F
100
AcDbEntity
8
1
62
256
6
ByLayer
370
18
48
1
60
0
100
AcDbEllipse
10
17.971674
20
0
30
0
11
7.02872005279815E-15
21
5.99999999906142
31
0
210
0
220
0
230
1
40
0.996195
41
0.436469028753727
42
0.5665643306541
0
ELLIPSE
5
2A0
100
AcDbEntity
8
1
62
256
6
ByLayer
370
18
48
1
60
0
100
AcDbEllipse
10
17.971674
20
0
30
0
11
7.02872005430484E-15
21
6.00000000034759
31
0
210
0
220
0
230
1
40
0.996195
41
-0.566564330609299
42
-0.436469028728525
0
ELLIPSE
5
2A1
100
AcDbEntity
8
1
62
256
6
ByLayer
370
18
48
1
60
0
100
AcDbEllipse
10
17.971674
20
0
30
0
11
7.02872005522196E-15
21
6.00000000113048
31
0
210
0
220
0
230
1
40
0.996195
41
-2.70512362487714
42
-2.57502832300818
0
ELLIPSE
5
2A2
100
AcDbEntity
8
1
62
256
6
ByLayer
370
18
48
1
60
0
100
AcDbEllipse
10
18.050115
20
0
30
0
11
5.974412045813E-15
21
5.1
31
0
210
0
220
0
230
1
40
0.996195
41
0
42
6.28318530717959
0
ELLIPSE
5
2A3
100
AcDbEntity
8
1
62
256
6
ByLayer
370
18
48
1
60
0
100
AcDbEllipse
10
18.076261
20
0
30
0
11
1.87432534770603E-14
21
15.9999999999999
31
0
210
0
220
0
230
1
40
0.996195
41
-1.5707963267949
42
-2.4585675571999E-16
0
ELLIPSE
5
2A4
100
AcDbEntity
8
1
62
256
6
ByLayer
370
18
48
1
60
0
100
AcDbEllipse
10
18.05883
20
0
30
0
11
1.87432534770602E-14
21
15.9999999999998
31
0
210
0
220
0
230
1
40
0.996195
41
-1.5707963267949
42
-2.4585675571999E-16
0
ELLIPSE
5
2A5
100
AcDbEntity
8
1
62
256
6
ByLayer
370
18
48
1
60
0
100
AcDbEllipse
10
18.05883
20
0
30
0
11
1.87432534770604E-14
21
16
31
0
210
0
220
0
230
1
40
0.996195
41
0
42
3.14159265358979
0
ELLIPSE
5
2A6
100
AcDbEntity
8
1
62
256
6
ByLayer
370
18
48
1
60
0
100
AcDbEllipse
10
25.807406
20
7.778175
30
0
11
2.46005201886418E-15
21
2.1
31
0
210
0
220
0
230
1
40
0.996195
41
0
42
3.14159265358979
0
ELLIPSE
5
2A7
100
AcDbEntity
8
1
62
256
6
ByLayer
370
18
48
1
60
0
100
AcDbEllipse
10
18.050115
20
0
30
0
11
3.85252947821352E-15
21
3.28867513459481
31
0
210
0
220
0
230
1
40
0.996195
41
0
42
6.28318530717959
0
ELLIPSE
5
2A8
100
AcDbEntity
8
1
62
256
6
ByLayer
370
18
48
1
60
0
100
AcDbEllipse
10
18.093692
20
0
30
0
11
3.51436002694883E-15
21
3
31
0
210
0
220
0
230
1
40
0.996195
41
3.14159265358979
42
-2.4585675571999E-16
0
ELLIPSE
5
2A9
100
AcDbEntity
8
1
62
256
6
ByLayer
370
18
48
1
60
0
100
AcDbEllipse
10
18.145986
20
0
30
0
11
3.51436002694883E-15
21
3
31
0
210
0
220
0
230
1
40
0.996195
41
0.00874897795873971
42
3.13284367563105
0
ELLIPSE
5
2AA
100
AcDbEntity
8
1
62
256
6
ByLayer
370
18
48
1
60
0
100
AcDbEllipse
10
18.093692
20
0
30
0
11
3.51436002694883E-15
21
3
31
0
210
0
220
0
230
1
40
0.996195
41
0
42
3.14159265358979
0
ELLIPSE
5
2AB
100
AcDbEntity
8
1
62
256
6
ByLayer
370
18
48
1
60
0
100
AcDbEllipse
10
18.520756
20
0
30
0
11
3.51436002694883E-15
21
3
31
0
210
0
220
0
230
1
40
0.996195
41
0.0715100061913775
42
3.07008264739842
0
ELLIPSE
5
2AC
100
AcDbEntity
8
1
62
256
6
ByLayer
370
18
48
1
60
0
100
AcDbEllipse
10
18.311582
20
0
30
0
11
3.51436002694883E-15
21
3
31
0
210
0
220
0
230
1
40
0.996195
41
0.0364616882927117
42
3.10513096529708
0
ELLIPSE
5
2AD
100
AcDbEntity
8
1
62
256
6
ByLayer
370
18
48
1
60
0
100
AcDbEllipse
10
18.551269
20
0
30
0
11
2.92863335579069E-15
21
2.5
31
0
210
0
220
0
230
1
40
0.996195
41
0
42
1.5707963267949
0
ELLIPSE
5
2AE
100
AcDbEntity
8
1
62
256
6
ByLayer
370
18
48
1
60
0
100
AcDbEllipse
10
18.551269
20
0
30
0
11
2.92863335579069E-15
21
2.5
31
0
210
0
220
0
230
1
40
0.996195
41
1.5707963267949
42
3.14159265358979
0
ELLIPSE
5
2AF
100
AcDbEntity
8
1
62
256
6
ByLayer
370
18
48
1
60
0
100
AcDbEllipse
10
18.551269
20
0
30
0
11
2.92863335579068E-15
21
2.49999999999999
31
0
210
0
220
0
230
1
40
0.996195
41
3.14159265358979
42
-2.4585675571999E-16
0
ELLIPSE
5
2B0
100
AcDbEntity
8
1
62
256
6
ByLayer
370
18
48
1
60
0
100
AcDbEllipse
10
-234.851704
20
0
30
0
11
325.75649062397
21
0
31
0
210
0
220
0
230
1
40
0.087489
41
-0.701912996728894
42
-0.638801182898444
0
ELLIPSE
5
2B1
100
AcDbEntity
8
1
62
256
6
ByLayer
370
18
48
1
60
0
100
AcDbEllipse
10
-234.851704
20
0
30
0
11
325.756490775858
21
0
31
0
210
0
220
0
230
1
40
0.087489
41
0.638801182868253
42
0.70191299667272
0
POINT
5
6C
100
AcDbEntity
8
80
62
256
6
ByLayer
370
18
48
1
60
0
100
AcDbPoint
10
0
20
0
30
0
39
0
210
0
220
0
230
1
50
360
0
POINT
5
6E
100
AcDbEntity
8
81
62
256
6
ByLayer
370
18
48
1
60
0
100
AcDbPoint
10
18
20
23
30
0
39
0
210
0
220
0
230
1
50
360
0
POINT
5
70
100
AcDbEntity
8
82
62
256
6
ByLayer
370
18
48
1
60
0
100
AcDbPoint
10
18
20
-23
30
0
39
0
210
0
220
0
230
1
50
360
0
SPLINE
5
2B2
100
AcDbEntity
8
1
62
256
6
ByLayer
370
18
48
1
60
0
100
AcDbSpline
70
4
71
3
72
13
73
9
40
0
40
0
40
0
40
0
40
0.123031092166944
40
0.246077245746851
40
0.370177473927228
40
0.494286237676487
40
0.74674800147262
40
1
40
1
40
1
40
1
41
1
10
34.175
20
-8.42731679262048
30
0
41
1
10
33.9283436026932
20
-8.82657970645535
30
0
41
1
10
33.4159544709385
20
-9.61170698418282
30
0
41
1
10
32.5832109657008
20
-10.7508944688049
30
0
41
1
10
31.699673346105
20
-11.855523666815
30
0
41
1
10
30.4515830100688
20
-13.2977026117826
30
0
41
1
10
28.7888270418695
20
-15.0287717118704
30
0
41
1
10
27.3892445267701
20
-16.3499933001216
30
0
41
1
10
26.6692257782166
20
-16.9926532209564
30
0
0
SPLINE
5
2B3
100
AcDbEntity
8
1
62
256
6
ByLayer
370
18
48
1
60
0
100
AcDbSpline
70
4
71
3
72
13
73
9
40
0
40
0
40
0
40
0
40
0.124075475580411
40
0.248166140175504
40
0.372817909305155
40
0.497475070712067
40
0.748610516965538
40
1
40
1
40
1
40
1
41
1
10
1.675
20
-9.57198938628052
30
0
41
1
10
2.13602857943133
20
-9.99419025694638
30
0
41
1
10
3.07328610637993
20
-10.8204229575931
30
0
41
1
10
4.53271987467001
20
-12.0015400824243
30
0
41
1
10
6.02827508982386
20
-13.1403319423472
30
0
41
1
10
8.07085123241135
20
-14.6147120844887
30
0
41
1
10
10.6878960863268
20
-16.3809406406208
30
0
41
1
10
12.8206675198625
20
-17.7391879041536
30
0
41
1
10
13.8986894469045
20
-18.4018699729393
30
0
0
SPLINE
5
2B4
100
AcDbEntity
8
1
62
256
6
ByLayer
370
18
48
1
60
0
100
AcDbSpline
70
4
71
1
72
4
73
2
40
0
40
0
40
1
40
1
41
1
10
1.675
20
-2.10308839832677
30
0
41
1
10
1.67495466839064
20
-2.01716052421201
30
0
0
SPLINE
5
2B5
100
AcDbEntity
8
1
62
256
6
ByLayer
370
18
48
1
60
0
100
AcDbSpline
70
4
71
3
72
13
73
9
40
0
40
0
40
0
40
0
40
0.249040734696194
40
0.49827984855185
40
0.623483300102635
40
0.748681341723867
40
0.874348606250412
40
1
40
1
40
1
40
1
41
1
10
13.8986894469045
20
18.4018699729393
30
0
41
1
10
12.8307876453395
20
17.7453198218402
30
0
41
1
10
10.7158308711735
20
16.3988500590541
30
0
41
1
10
8.11351741622068
20
14.644126195451
30
0
41
1
10
6.07315374777986
20
13.1736053520298
30
0
41
1
10
4.56604210833403
20
12.0278244349451
30
0
41
1
10
3.09128846131747
20
10.8360166184531
30
0
41
1
10
2.1419187557564
20
9.99952576095025
30
0
41
1
10
1.675
20
9.57198938628052
30
0
0
SPLINE
5
2B6
100
AcDbEntity
8
1
62
256
6
ByLayer
370
18
48
1
60
0
100
AcDbSpline
70
4
71
3
72
13
73
9
40
0
40
0
40
0
40
0
40
0.247503802133548
40
0.495631744621644
40
0.621248033468216
40
0.746855550064299
40
0.873436140244785
40
1
40
1
40
1
40
1
41
1
10
26.6692257782166
20
16.9926532209564
30
0
41
1
10
27.3727428298557
20
16.3644797058782
30
0
41
1
10
28.7452437607545
20
15.0704150020511
30
0
41
1
10
30.3882698178096
20
13.3658696489404
30
0
41
1
10
31.6369664617597
20
11.9308836547581
30
0
41
1
10
32.5389998505188
20
10.8091204987845
30
0
41
1
10
33.3935032886466
20
9.64531495210471
30
0
41
1
10
33.9211932380129
20
8.83803075614514
30
0
41
1
10
34.175
20
8.42731679262048
30
0
0
SPLINE
5
2B7
100
AcDbEntity
8
1
62
256
6
ByLayer
370
18
48
1
60
0
100
AcDbSpline
70
4
71
1
72
4
73
2
40
0
40
0
40
1
40
1
41
1
10
32.9040844176512
20
0.5625
30
0
41
1
10
33.6375824818814
20
0.176669182372028
30
0
0
SPLINE
5
2B8
100
AcDbEntity
8
1
62
256
6
ByLayer
370
18
48
1
60
0
100
AcDbSpline
70
4
71
1
72
4
73
2
40
0
40
0
40
1
40
1
41
1
10
23.9225177494812
20
0.5625
30
0
41
1
10
23.3384346382875
20
0.176669182372021
30
0
0
SPLINE
5
2B9
100
AcDbEntity
8
1
62
256
6
ByLayer
370
18
48
1
60
0
100
AcDbSpline
70
4
71
3
72
17
73
13
40
0
40
0
40
0
40
0
40
0.384016876858147
40
0.675735662300606
40
0.821741532300471
40
0.895031265239975
40
0.919978213256189
40
0.934733796405876
40
0.946901086529827
40
0.959097391721873
40
0.974597433737154
40
1
40
1
40
1
40
1
41
1
10
21.9091558778105
20
15.176669182372
30
0
41
1
10
22.0841397636116
20
15.1627729184394
30
0
41
1
10
22.388645404286
20
15.1211082925908
30
0
41
1
10
22.7571265732762
20
15.0442652450007
30
0
41
1
10
22.9782365036086
20
14.9716995911018
30
0
41
1
10
23.0774154428733
20
14.9225373119173
30
0
41
1
10
23.1136634887162
20
14.8911858484648
30
0
41
1
10
23.1246657668107
20
14.8742973938949
30
0
41
1
10
23.127406426513
20
14.8607630934542
30
0
41
1
10
23.1235660448016
20
14.8478487872259
30
0
41
1
10
23.1101667740476
20
14.8342208341678
30
0
41
1
10
23.0966752262447
20
14.8267199914977
30
0
41
1
10
23.0864107614454
20
14.823330817628
30
0
0
SPLINE
5
2BA
100
AcDbEntity
8
1
62
256
6
ByLayer
370
18
48
1
60
0
100
AcDbSpline
70
4
71
3
72
11
73
7
40
0
40
0
40
0
40
0
40
0.244801369453909
40
0.491551346693876
40
0.744667229135496
40
1
40
1
40
1
40
1
41
1
10
14.1506815212786
20
15.176669182372
30
0
41
1
10
14.76954595846
20
15.2350431718084
30
0
41
1
10
16.0211471258768
20
15.3235722473052
30
0
41
1
10
17.9509060636487
20
15.372006644803
30
0
41
1
10
19.9227626871812
20
15.3279124729026
30
0
41
1
10
21.2451224843487
20
15.2375881043368
30
0
41
1
10
21.9091558778105
20
15.176669182372
30
0
0
SPLINE
5
2BB
100
AcDbEntity
8
1
62
256
6
ByLayer
370
18
48
1
60
0
100
AcDbSpline
70
4
71
3
72
17
73
13
40
0
40
0
40
0
40
0
40
0.0269348129000751
40
0.0403839950517738
40
0.0539504984435631
40
0.0659851115535812
40
0.0828774776507198
40
0.113772415875545
40
0.213037313629569
40
0.423869985701405
40
0.635575437172518
40
1
40
1
40
1
40
1
41
1
10
12.9734266376552
20
14.823330817628
30
0
41
1
10
12.963659085182
20
14.8269189174868
30
0
41
1
10
12.9523617806445
20
14.8344431485843
30
0
41
1
10
12.9420983054947
20
14.8484074850029
30
0
41
1
10
12.940643417497
20
14.8611519212545
30
0
41
1
10
12.9462300099977
20
14.8758354870804
30
0
41
1
10
12.962229583057
20
14.8950970825115
30
0
41
1
10
13.0158628333943
20
14.9339880245301
30
0
41
1
10
13.1612226345758
20
14.9954183208892
30
0
41
1
10
13.3886160098266
20
15.0615930260375
30
0
41
1
10
13.7356698274101
20
15.1277178874433
30
0
41
1
10
13.9896324863224
20
15.1623803880892
30
0
41
1
10
14.1506815212786
20
15.176669182372
30
0
0
SPLINE
5
2BC
100
AcDbEntity
8
1
62
256
6
ByLayer
370
18
48
1
60
0
100
AcDbSpline
70
4
71
1
72
4
73
2
40
0
40
0
40
1
40
1
41
1
10
12.9734266376552
20
14.823330817628
30
0
41
1
10
13.9179338113714
20
14.4375
30
0
0
SPLINE
5
2BD
100
AcDbEntity
8
1
62
256
6
ByLayer
370
18
48
1
60
0
100
AcDbSpline
70
4
71
2
72
6
73
3
40
0
40
0
40
0
40
1
40
1
40
1
41
1
10
10.4141634283839
20
13.676669182372
30
0
41
1
10
11.5683443984455
20
13.9009424489135
30
0
41
1
10
12.7717581287863
20
14.0625
30
0
0
SPLINE
5
2BE
100
AcDbEntity
8
1
62
256
6
ByLayer
370
18
48
1
60
0
100
AcDbSpline
70
4
71
3
72
16
73
12
40
0
40
0
40
0
40
0
40
0.0052276317150539
40
0.0448410467753367
40
0.0848338095043571
40
0.111415024115017
40
0.152183833537117
40
0.209458338652559
40
0.321160516440458
40
0.655965055151084
40
1
40
1
40
1
40
1
41
1
10
9.81606478385732
20
13.323330817628
30
0
41
1
10
9.81522712993287
20
13.3238786031833
30
0
41
1
10
9.80819842800567
20
13.3287113129742
30
0
41
1
10
9.79661176090323
20
13.3396960044566
30
0
41
1
10
9.78983260435086
20
13.3591126073771
30
0
41
1
10
9.79283257476926
20
13.3821932849389
30
0
41
1
10
9.80709793320174
20
13.4100342600446
30
0
41
1
10
9.84578644665306
20
13.4519311341338
30
0
41
1
10
9.96023154436328
20
13.5324380917356
30
0
41
1
10
10.1592971541606
20
13.6140860780622
30
0
41
1
10
10.3273402585559
20
13.6614958546747
30
0
41
1
10
10.4141634283839
20
13.676669182372
30
0
0
SPLINE
5
2BF
100
AcDbEntity
8
1
62
256
6
ByLayer
370
18
48
1
60
0
100
AcDbSpline
70
4
71
1
72
4
73
2
40
0
40
0
40
1
40
1
41
1
10
9.81606478385732
20
13.323330817628
30
0
41
1
10
10.4097039521639
20
12.9375
30
0
0
SPLINE
5
2C0
100
AcDbEntity
8
1
62
256
6
ByLayer
370
18
48
1
60
0
100
AcDbSpline
70
4
71
1
72
4
73
2
40
0
40
0
40
1
40
1
41
1
10
8.20723280560976
20
12.176669182372
30
0
41
1
10
9.80630489563461
20
12.5625
30
0
0
SPLINE
5
2C1
100
AcDbEntity
8
1
62
256
6
ByLayer
370
18
48
1
60
0
100
AcDbSpline
70
4
71
3
72
16
73
12
40
0
40
0
40
0
40
0
40
0.002022748106267
40
0.0665348690113937
40
0.09956741480341
40
0.147276395747783
40
0.194931270880211
40
0.26294066754771
40
0.376447212595614
40
0.603257575817965
40
1
40
1
40
1
40
1
41
1
10
7.78780647206563
20
11.823330817628
30
0
41
1
10
7.78756272827407
20
11.8235133176752
30
0
41
1
10
7.77959705430797
20
11.8295641198444
30
0
41
1
10
7.76938148602714
20
11.840825637772
30
0
41
1
10
7.76180966925349
20
11.8626034610949
30
0
41
1
10
7.76190956643893
20
11.8856591105409
30
0
41
1
10
7.77284996131835
20
11.9172476378913
30
0
41
1
10
7.80128437750991
20
11.9597777634861
30
0
41
1
10
7.8688042289744
20
12.0241738094945
30
0
41
1
10
8.00869193393739
20
12.1101366831044
30
0
41
1
10
8.12801114851555
20
12.1583431314552
30
0
41
1
10
8.20723280560976
20
12.176669182372
30
0
0
SPLINE
5
2C2
100
AcDbEntity
8
1
62
256
6
ByLayer
370
18
48
1
60
0
100
AcDbSpline
70
4
71
1
72
4
73
2
40
0
40
0
40
1
40
1
41
1
10
7.78780647206563
20
11.823330817628
30
0
41
1
10
7.9134796424954
20
11.7291220523197
30
0
0
SPLINE
5
2C3
100
AcDbEntity
8
1
62
256
6
ByLayer
370
18
48
1
60
0
100
AcDbSpline
70
4
71
1
72
4
73
2
40
0
40
0
40
1
40
1
41
1
10
5.37849326683298
20
9.17666918237203
30
0
41
1
10
5.47219013207062
20
9.21129333034704
30
0
0
SPLINE
5
2C4
100
AcDbEntity
8
1
62
256
6
ByLayer
370
18
48
1
60
0
100
AcDbSpline
70
4
71
3
72
15
73
11
40
0
40
0
40
0
40
0
40
0.0912648154970045
40
0.167964910992098
40
0.245023542039198
40
0.316870015903214
40
0.419139256510155
40
0.577448176137244
40
0.843033223121258
40
1
40
1
40
1
40
1
41
1
10
5.13145584494491
20
8.82333081762798
30
0
41
1
10
5.12215553792821
20
8.83018220478652
30
0
41
1
10
5.10878089364105
20
8.84619438476478
30
0
41
1
10
5.09747512280735
20
8.87900799930449
30
0
41
1
10
5.09893040366809
20
8.9163312029853
30
0
41
1
10
5.11289838606396
20
8.95989529810639
30
0
41
1
10
5.14507275756582
20
9.01415012786849
30
0
41
1
10
5.21162179420625
20
9.08517072040038
30
0
41
1
10
5.29501895868321
20
9.1407966034286
30
0
41
1
10
5.35560884756018
20
9.16838956077925
30
0
41
1
10
5.37849326683298
20
9.17666918237203
30
0
0
SPLINE
5
2C5
100
AcDbEntity
8
1
62
256
6
ByLayer
370
18
48
1
60
0
100
AcDbSpline
70
4
71
1
72
4
73
2
40
0
40
0
40
1
40
1
41
1
10
5.13145584494491
20
8.82333081762798
30
0
41
1
10
5.33923828210752
20
8.65818719657641
30
0
0
SPLINE
5
2C6
100
AcDbEntity
8
1
62
256
6
ByLayer
370
18
48
1
60
0
100
AcDbSpline
70
4
71
1
72
4
73
2
40
0
40
0
40
1
40
1
41
1
10
4.42306223056824
20
7.67666918237203
30
0
41
1
10
5.24827227491523
20
8.0138623573446
30
0
0
SPLINE
5
2C7
100
AcDbEntity
8
1
62
256
6
ByLayer
370
18
48
1
60
0
100
AcDbSpline
70
4
71
3
72
15
73
11
40
0
40
0
40
0
40
0
40
0.110290039597667
40
0.200160830345536
40
0.29050266212284
40
0.329876772864187
40
0.446349497695565
40
0.594934254594433
40
0.826181195444234
40
1
40
1
40
1
40
1
41
1
10
4.23113765154335
20
7.32333081762798
30
0
41
1
10
4.2203589435518
20
7.33115853154901
30
0
41
1
10
4.20500317048431
20
7.34956310290612
30
0
41
1
10
4.19163290603
20
7.38771326616424
30
0
41
1
10
4.19234383226555
20
7.4234998940125
30
0
41
1
10
4.20158121246549
20
7.4646204908392
30
0
41
1
10
4.22429085104868
20
7.51507466295285
30
0
41
1
10
4.2775881688669
20
7.58359249030086
30
0
41
1
10
4.34781851752991
20
7.63950824596821
30
0
41
1
10
4.4000092244265
20
7.66733387443368
30
0
41
1
10
4.42306223056824
20
7.67666918237203
30
0
0
SPLINE
5
2C8
100
AcDbEntity
8
1
62
256
6
ByLayer
370
18
48
1
60
0
100
AcDbSpline
70
4
71
1
72
4
73
2
40
0
40
0
40
1
40
1
41
1
10
4.23113765154335
20
7.32333081762798
30
0
41
1
10
4.72299297452429
20
6.9375
30
0
0
SPLINE
5
2C9
100
AcDbEntity
8
1
62
256
6
ByLayer
370
18
48
1
60
0
100
AcDbSpline
70
4
71
1
72
4
73
2
40
0
40
0
40
1
40
1
41
1
10
3.68527848060192
20
6.17666918237203
30
0
41
1
10
4.53472518729813
20
6.5625
30
0
0
SPLINE
5
2CA
100
AcDbEntity
8
1
62
256
6
ByLayer
370
18
48
1
60
0
100
AcDbSpline
70
4
71
3
72
16
73
12
40
0
40
0
40
0
40
0
40
0.0306203500742374
40
0.152350902354469
40
0.247872986810048
40
0.284170715878673
40
0.383125960068802
40
0.481605908563634
40
0.622798085713007
40
0.833959808897162
40
1
40
1
40
1
40
1
41
1
10
3.53935089267134
20
5.82333081762798
30
0
41
1
10
3.53657431772515
20
5.82542245037534
30
0
41
1
10
3.52330966340143
20
5.83662070538136
30
0
41
1
10
3.50475216599935
20
5.86087674643028
30
0
41
1
10
3.49487514448494
20
5.89570773224275
30
0
41
1
10
3.49269331355961
20
5.93121092473956
30
0
41
1
10
3.49799093915309
20
5.97044325353186
30
0
41
1
10
3.51928569527515
20
6.0250570887579
30
0
41
1
10
3.56133935593445
20
6.08784870781279
30
0
41
1
10
3.6205047364659
20
6.14109781105446
30
0
41
1
10
3.66495343596103
20
6.16756855998832
30
0
41
1
10
3.68527848060192
20
6.17666918237203
30
0
0
SPLINE
5
2CB
100
AcDbEntity
8
1
62
256
6
ByLayer
370
18
48
1
60
0
100
AcDbSpline
70
4
71
1
72
4
73
2
40
0
40
0
40
1
40
1
41
1
10
3.53935089267134
20
5.82333081762798
30
0
41
1
10
4.04511500818989
20
5.4375
30
0
0
SPLINE
5
2CC
100
AcDbEntity
8
1
62
256
6
ByLayer
370
18
48
1
60
0
100
AcDbSpline
70
4
71
1
72
4
73
2
40
0
40
0
40
1
40
1
41
1
10
3.13276979076965
20
4.67666918237203
30
0
41
1
10
3.90552187836376
20
5.0625
30
0
0
SPLINE
5
2CD
100
AcDbEntity
8
1
62
256
6
ByLayer
370
18
48
1
60
0
100
AcDbSpline
70
4
71
3
72
16
73
12
40
0
40
0
40
0
40
0
40
0.082576308520138
40
0.205424625133782
40
0.305281032685593
40
0.405480388975461
40
0.498957656670377
40
0.525428438171952
40
0.683342197625662
40
0.895220638068779
40
1
40
1
40
1
40
1
41
1
10
3.0272211129028
20
4.32333081762798
30
0
41
1
10
3.01961171046004
20
4.32871798616058
30
0
41
1
10
3.00248113839557
20
4.34472800505458
30
0
41
1
10
2.98177835242554
20
4.3779757730799
30
0
41
1
10
2.97114571678895
20
4.42456068896079
30
0
41
1
10
2.97353444770816
20
4.47284159416845
30
0
41
1
10
2.98375351330221
20
4.5085711697453
30
0
41
1
10
3.00126300365993
20
4.55072132242814
30
0
41
1
10
3.03545480234498
20
4.60451371067428
30
0
41
1
10
3.08602872100458
20
4.64970522603415
30
0
41
1
10
3.1209114164563
20
4.67077540826515
30
0
41
1
10
3.13276979076965
20
4.67666918237203
30
0
0
SPLINE
5
2CE
100
AcDbEntity
8
1
62
256
6
ByLayer
370
18
48
1
60
0
100
AcDbSpline
70
4
71
1
72
4
73
2
40
0
40
0
40
1
40
1
41
1
10
3.0272211129028
20
4.32333081762798
30
0
41
1
10
3.55277236055457
20
3.9375
30
0
0
SPLINE
5
2CF
100
AcDbEntity
8
1
62
256
6
ByLayer
370
18
48
1
60
0
100
AcDbSpline
70
4
71
1
72
4
73
2
40
0
40
0
40
1
40
1
41
1
10
2.74543078645952
20
3.17666918237203
30
0
41
1
10
3.45630764855486
20
3.5625
30
0
0
SPLINE
5
2D0
100
AcDbEntity
8
1
62
256
6
ByLayer
370
18
48
1
60
0
100
AcDbSpline
70
4
71
3
72
16
73
12
40
0
40
0
40
0
40
0
40
0.113047985378925
40
0.242432309018565
40
0.346936365022592
40
0.375618283872526
40
0.481998278771122
40
0.587971497690221
40
0.73378499564752
40
0.940438351553472
40
1
40
1
40
1
40
1
41
1
10
2.67675951511009
20
2.82333081762798
30
0
41
1
10
2.66612466225649
20
2.8304516409586
30
0
41
1
10
2.6458253078713
20
2.84958981584252
30
0
41
1
10
2.62222048837179
20
2.8886149410609
30
0
41
1
10
2.61305132882925
20
2.92713379160711
30
0
41
1
10
2.61055494559805
20
2.96468494456437
30
0
41
1
10
2.61431027547203
20
3.00467322801002
30
0
41
1
10
2.63296514651686
20
3.06012762769645
30
0
41
1
10
2.66992164997403
20
3.11927642769107
30
0
41
1
10
2.71138351993449
20
3.15624552505692
30
0
41
1
10
2.73911234569934
20
3.17323519812702
30
0
41
1
10
2.74543078645952
20
3.17666918237203
30
0
0
SPLINE
5
2D1
100
AcDbEntity
8
1
62
256
6
ByLayer
370
18
48
1
60
0
100
AcDbSpline
70
4
71
1
72
4
73
2
40
0
40
0
40
1
40
1
41
1
10
2.67675951511009
20
2.82333081762798
30
0
41
1
10
3.22736708826501
20
2.4375
30
0
0
SPLINE
5
2D2
100
AcDbEntity
8
1
62
256
6
ByLayer
370
18
48
1
60
0
100
AcDbSpline
70
4
71
1
72
4
73
2
40
0
40
0
40
1
40
1
41
1
10
2.51088913980745
20
1.67666918237203
30
0
41
1
10
3.17068525581292
20
2.0625
30
0
0
SPLINE
5
2D3
100
AcDbEntity
8
1
62
256
6
ByLayer
370
18
48
1
60
0
100
AcDbSpline
70
4
71
3
72
15
73
11
40
0
40
0
40
0
40
0
40
0.144676909248811
40
0.279237766786303
40
0.387702152353573
40
0.496611321859678
40
0.594491139850112
40
0.741943469536579
40
0.929866565375528
40
1
40
1
40
1
40
1
41
1
10
2.47703338637308
20
1.32333081762798
30
0
41
1
10
2.46299782874054
20
1.33217064282604
30
0
41
1
10
2.43911884769406
20
1.35447819867973
30
0
41
1
10
2.41200505980308
20
1.39942492261512
30
0
41
1
10
2.3983929492781
20
1.45146884373152
30
0
41
1
10
2.39816602537374
20
1.50331919552351
30
0
41
1
10
2.41096222790518
20
1.55924471449061
30
0
41
1
10
2.4408800499933
20
1.61741679153126
30
0
41
1
10
2.47844683718496
20
1.65536483623121
30
0
41
1
10
2.50379329052524
20
1.67254828856453
30
0
41
1
10
2.51088913980745
20
1.67666918237203
30
0
0
SPLINE
5
2D4
100
AcDbEntity
8
1
62
256
6
ByLayer
370
18
48
1
60
0
100
AcDbSpline
70
4
71
1
72
4
73
2
40
0
40
0
40
1
40
1
41
1
10
2.47703338637308
20
1.32333081762798
30
0
41
1
10
3.05796786093842
20
0.9375
30
0
0
SPLINE
5
2D5
100
AcDbEntity
8
1
62
256
6
ByLayer
370
18
48
1
60
0
100
AcDbSpline
70
4
71
1
72
4
73
2
40
0
40
0
40
1
40
1
41
1
10
2.42225491720774
20
0.176669182372028
30
0
41
1
10
3.03926434956289
20
0.5625
30
0
0
SPLINE
5
2D6
100
AcDbEntity
8
1
62
256
6
ByLayer
370
18
48
1
60
0
100
AcDbSpline
70
4
71
3
72
16
73
12
40
0
40
0
40
0
40
0
40
0.0820140402542642
40
0.240920332698957
40
0.366408325039318
40
0.471181989818251
40
0.576202023049957
40
0.67682095519646
40
0.718095325028594
40
0.889364752190766
40
1
40
1
40
1
40
1
41
1
10
2.42225491720774
20
-0.17666918237202
30
0
41
1
10
2.41425779238542
20
-0.171744688792464
30
0
41
1
10
2.39181744809996
20
-0.154914690459908
30
0
41
1
10
2.36056341770929
20
-0.119247542663975
30
0
41
1
10
2.33672454092107
20
-0.0671899892712396
30
0
41
1
10
2.32699867613167
20
-0.0142388962047579
30
0
41
1
10
2.32971536532996
20
0.0366628199991274
30
0
41
1
10
2.34034579381043
20
0.0735841124022805
30
0
41
1
10
2.35901373729643
20
0.114994629461977
30
0
41
1
10
2.38551415355446
20
0.149486667279402
30
0
41
1
10
2.41136183053198
20
0.170061139053717
30
0
41
1
10
2.42225491720774
20
0.176669182372028
30
0
0
SPLINE
5
2D7
100
AcDbEntity
8
1
62
256
6
ByLayer
370
18
48
1
60
0
100
AcDbSpline
70
4
71
1
72
4
73
2
40
0
40
0
40
1
40
1
41
1
10
2.42225491720774
20
-0.17666918237202
30
0
41
1
10
3.03926434956286
20
-0.5625
30
0
0
SPLINE
5
2D8
100
AcDbEntity
8
1
62
256
6
ByLayer
370
18
48
1
60
0
100
AcDbSpline
70
4
71
1
72
4
73
2
40
0
40
0
40
1
40
1
41
1
10
2.47703338637307
20
-1.32333081762797
30
0
41
1
10
3.05796786093844
20
-0.9375
30
0
0
SPLINE
5
2D9
100
AcDbEntity
8
1
62
256
6
ByLayer
370
18
48
1
60
0
100
AcDbSpline
70
4
71
3
72
15
73
11
40
0
40
0
40
0
40
0
40
0.186055316906107
40
0.335076307664328
40
0.451457258517458
40
0.568571131585622
40
0.66660403039176
40
0.804180952473937
40
0.974811616276882
40
1
40
1
40
1
40
1
41
1
10
2.51088913980745
20
-1.67666918237202
30
0
41
1
10
2.4914150999187
20
-1.66586629059788
30
0
41
1
10
2.45992631850523
20
-1.63937231008466
30
0
41
1
10
2.42313428829961
20
-1.58687630820048
30
0
41
1
10
2.40241343691907
20
-1.53051454409324
30
0
41
1
10
2.39664416949705
20
-1.47582963600193
30
0
41
1
10
2.40457431330191
20
-1.42043746428957
30
0
41
1
10
2.42823435929036
20
-1.367170470748
30
0
41
1
10
2.45668282945616
20
-1.33765781812423
30
0
41
1
10
2.47468091530252
20
-1.32489171138059
30
0
41
1
10
2.47703338637307
20
-1.32333081762797
30
0
0
SPLINE
5
2DA
100
AcDbEntity
8
1
62
256
6
ByLayer
370
18
48
1
60
0
100
AcDbSpline
70
4
71
1
72
4
73
2
40
0
40
0
40
1
40
1
41
1
10
2.51088913980745
20
-1.67666918237202
30
0
41
1
10
3.17068525581289
20
-2.0625
30
0
0
SPLINE
5
2DB
100
AcDbEntity
8
1
62
256
6
ByLayer
370
18
48
1
60
0
100
AcDbSpline
70
4
71
1
72
4
73
2
40
0
40
0
40
1
40
1
41
1
10
2.67675951511009
20
-2.82333081762797
30
0
41
1
10
3.22736708826503
20
-2.4375
30
0
0
SPLINE
5
2DC
100
AcDbEntity
8
1
62
256
6
ByLayer
370
18
48
1
60
0
100
AcDbSpline
70
4
71
3
72
16
73
12
40
0
40
0
40
0
40
0
40
0.0180636510384024
40
0.231697142651184
40
0.381531141473113
40
0.497335586957081
40
0.596754898916144
40
0.624645298375431
40
0.73789663521657
40
0.850451825340726
40
1
40
1
40
1
40
1
41
1
10
2.74543078645953
20
-3.17666918237202
30
0
41
1
10
2.74352382579559
20
-3.17562311761958
30
0
41
1
10
2.71918142183326
20
-3.16177882084726
30
0
41
1
10
2.67997031510071
20
-3.13047875716283
30
0
41
1
10
2.63905325439484
20
-3.07230830462399
30
0
41
1
10
2.61739482787653
20
-3.01738430924869
30
0
41
1
10
2.61140349903262
20
-2.97733706452526
30
0
41
1
10
2.61135862388787
20
-2.93887720568535
30
0
41
1
10
2.61814308230379
20
-2.90004154265139
30
0
41
1
10
2.64118222077052
20
-2.85477737667239
30
0
41
1
10
2.66243021623051
20
-2.83275028238879
30
0
41
1
10
2.67675951511009
20
-2.82333081762797
30
0
0
SPLINE
5
2DD
100
AcDbEntity
8
1
62
256
6
ByLayer
370
18
48
1
60
0
100
AcDbSpline
70
4
71
1
72
4
73
2
40
0
40
0
40
1
40
1
41
1
10
2.74543078645953
20
-3.17666918237202
30
0
41
1
10
3.45630764855483
20
-3.5625
30
0
0
SPLINE
5
2DE
100
AcDbEntity
8
1
62
256
6
ByLayer
370
18
48
1
60
0
100
AcDbSpline
70
4
71
1
72
4
73
2
40
0
40
0
40
1
40
1
41
1
10
3.0272211129028
20
-4.32333081762797
30
0
41
1
10
3.55277236055459
20
-3.9375
30
0
0
SPLINE
5
2DF
100
AcDbEntity
8
1
62
256
6
ByLayer
370
18
48
1
60
0
100
AcDbSpline
70
4
71
3
72
15
73
11
40
0
40
0
40
0
40
0
40
0.230389841419106
40
0.388588807934781
40
0.512676593197374
40
0.612418473825368
40
0.723481932960535
40
0.845282992121899
40
0.966032134727581
40
1
40
1
40
1
40
1
41
1
10
3.13276979076965
20
-4.67666918237202
30
0
41
1
10
3.10587390336451
20
-4.66387412583069
30
0
41
1
10
3.06420181146287
20
-4.63337172779935
30
0
41
1
10
3.01402796857336
20
-4.57406715314444
30
0
41
1
10
2.98562222775427
20
-4.51807736028899
30
0
41
1
10
2.9717514040106
20
-4.46320841976586
30
0
41
1
10
2.97237583182775
20
-4.40914901022108
30
0
41
1
10
2.98919561811428
20
-4.36221011451752
30
0
41
1
10
3.01063396893547
20
-4.33653698719861
30
0
41
1
10
3.02415002773391
20
-4.3255647275427
30
0
41
1
10
3.0272211129028
20
-4.32333081762797
30
0
0
SPLINE
5
2E0
100
AcDbEntity
8
1
62
256
6
ByLayer
370
18
48
1
60
0
100
AcDbSpline
70
4
71
1
72
4
73
2
40
0
40
0
40
1
40
1
41
1
10
3.13276979076965
20
-4.67666918237202
30
0
41
1
10
3.90552187836372
20
-5.0625
30
0
0
SPLINE
5
2E1
100
AcDbEntity
8
1
62
256
6
ByLayer
370
18
48
1
60
0
100
AcDbSpline
70
4
71
1
72
4
73
2
40
0
40
0
40
1
40
1
41
1
10
3.53935089267133
20
-5.82333081762797
30
0
41
1
10
4.0451150081899
20
-5.4375
30
0
0
SPLINE
5
2E2
100
AcDbEntity
8
1
62
256
6
ByLayer
370
18
48
1
60
0
100
AcDbSpline
70
4
71
3
72
16
73
12
40
0
40
0
40
0
40
0
40
0.081306371680215
40
0.314111971121269
40
0.465903407132881
40
0.579488298879481
40
0.672296142398725
40
0.715996149777323
40
0.820321862354484
40
0.923934331178584
40
1
40
1
40
1
40
1
41
1
10
3.68527848060192
20
-6.17666918237202
30
0
41
1
10
3.67545756980942
20
-6.17216736617761
30
0
41
1
10
3.63803077263942
20
-6.15247356638689
30
0
41
1
10
3.58309221395096
20
-6.11088171892478
30
0
41
1
10
3.53239979930189
20
-6.04771023386917
30
0
41
1
10
3.50494454164492
20
-5.99247872075801
30
0
41
1
10
3.4947898963253
20
-5.95060701235661
30
0
41
1
10
3.49259608592684
20
-5.91176433281379
30
0
41
1
10
3.49908596250541
20
-5.87440970097399
30
0
41
1
10
3.51750442975097
20
-5.84301911154776
30
0
41
1
10
3.53232112909435
20
-5.82848988514302
30
0
41
1
10
3.53935089267133
20
-5.82333081762797
30
0
0
SPLINE
5
2E3
100
AcDbEntity
8
1
62
256
6
ByLayer
370
18
48
1
60
0
100
AcDbSpline
70
4
71
1
72
4
73
2
40
0
40
0
40
1
40
1
41
1
10
3.68527848060192
20
-6.17666918237202
30
0
41
1
10
4.53472518729809
20
-6.5625
30
0
0
SPLINE
5
2E4
100
AcDbEntity
8
1
62
256
6
ByLayer
370
18
48
1
60
0
100
AcDbSpline
70
4
71
1
72
4
73
2
40
0
40
0
40
1
40
1
41
1
10
4.23113765154334
20
-7.32333081762797
30
0
41
1
10
4.72299297452431
20
-6.9375
30
0
0
SPLINE
5
2E5
100
AcDbEntity
8
1
62
256
6
ByLayer
370
18
48
1
60
0
100
AcDbSpline
70
4
71
3
72
16
73
12
40
0
40
0
40
0
40
0
40
0.150120960526101
40
0.377104889923852
40
0.523852864614454
40
0.630728155644114
40
0.716728968488841
40
0.775160127193634
40
0.8768423997162
40
0.977639197581252
40
1
40
1
40
1
40
1
41
1
10
4.42306223056824
20
-7.67666918237202
30
0
41
1
10
4.40322778038772
20
-7.66856905132922
30
0
41
1
10
4.35448175784013
20
-7.64339501110329
30
0
41
1
10
4.28754744232381
20
-7.59281434561609
30
0
41
1
10
4.23406398769527
20
-7.52923501143808
30
0
41
1
10
4.20517362355508
20
-7.47545170354999
30
0
41
1
10
4.19340364875167
20
-7.43271887834643
30
0
41
1
10
4.19148135668257
20
-7.39284061016363
30
0
41
1
10
4.20096937928236
20
-7.35623349117488
30
0
41
1
10
4.21811412619169
20
-7.33427934994373
30
0
41
1
10
4.22907481573838
20
-7.32493198298441
30
0
41
1
10
4.23113765154334
20
-7.32333081762797
30
0
0
SPLINE
5
2E6
100
AcDbEntity
8
1
62
256
6
ByLayer
370
18
48
1
60
0
100
AcDbSpline
70
4
71
1
72
4
73
2
40
0
40
0
40
1
40
1
41
1
10
4.42306223056824
20
-7.67666918237202
30
0
41
1
10
5.24409670845575
20
-8.01219883630204
30
0
0
SPLINE
5
2E7
100
AcDbEntity
8
1
62
256
6
ByLayer
370
18
48
1
60
0
100
AcDbSpline
70
4
71
1
72
4
73
2
40
0
40
0
40
1
40
1
41
1
10
5.1314558449449
20
-8.82333081762797
30
0
41
1
10
5.33982387563451
20
-8.65772177425355
30
0
0
SPLINE
5
2E8
100
AcDbEntity
8
1
62
256
6
ByLayer
370
18
48
1
60
0
100
AcDbSpline
70
4
71
3
72
15
73
11
40
0
40
0
40
0
40
0
40
0.197646231816239
40
0.424856620002995
40
0.571240409838409
40
0.672264580351447
40
0.751074620263736
40
0.830268133148651
40
0.908759756628026
40
1
40
1
40
1
40
1
41
1
10
5.37849326683299
20
-9.17666918237202
30
0
41
1
10
5.34953898157493
20
-9.16627539540646
30
0
41
1
10
5.28867588590985
20
-9.1372105646483
30
0
41
1
10
5.20751064872799
20
-9.08043220935224
30
0
41
1
10
5.14750288028535
20
-9.01669832223462
30
0
41
1
10
5.11489308731337
20
-8.96420913620333
30
0
41
1
10
5.09926597662689
20
-8.91920647671443
30
0
41
1
10
5.09724522792957
20
-8.87983210671882
30
0
41
1
10
5.1086361678274
20
-8.84636201551179
30
0
41
1
10
5.12214960967948
20
-8.83018162039179
30
0
41
1
10
5.1314558449449
20
-8.82333081762797
30
0
0
SPLINE
5
2E9
100
AcDbEntity
8
1
62
256
6
ByLayer
370
18
48
1
60
0
100
AcDbSpline
70
4
71
1
72
4
73
2
40
0
40
0
40
1
40
1
41
1
10
5.37849326683299
20
-9.17666918237202
30
0
41
1
10
5.48129674612626
20
-9.21464694005318
30
0
0
SPLINE
5
2EA
100
AcDbEntity
8
1
62
256
6
ByLayer
370
18
48
1
60
0
100
AcDbSpline
70
4
71
1
72
4
73
2
40
0
40
0
40
1
40
1
41
1
10
7.78780647206562
20
-11.823330817628
30
0
41
1
10
7.90837791542121
20
-11.7329436545115
30
0
0
SPLINE
5
2EB
100
AcDbEntity
8
1
62
256
6
ByLayer
370
18
48
1
60
0
100
AcDbSpline
70
4
71
3
72
15
73
11
40
0
40
0
40
0
40
0
40
0.385092595202408
40
0.61978582915792
40
0.700370106079098
40
0.781465377706287
40
0.833823817152688
40
0.882716855425016
40
0.93696150482318
40
1
40
1
40
1
40
1
41
1
10
8.20723280560975
20
-12.176669182372
30
0
41
1
10
8.13049088636811
20
-12.1587799541583
30
0
41
1
10
8.01198366512703
20
-12.1114548160955
30
0
41
1
10
7.87823167929619
20
-12.0305532346347
30
0
41
1
10
7.81195135431981
20
-11.9702861265674
30
0
41
1
10
7.78142665365944
20
-11.9324615266049
30
0
41
1
10
7.7647563548213
20
-11.8973379317889
30
0
41
1
10
7.7603738488748
20
-11.8680602008924
30
0
41
1
10
7.76821165554656
20
-11.8420121261613
30
0
41
1
10
7.77960596953591
20
-11.8289304303577
30
0
41
1
10
7.78780647206562
20
-11.823330817628
30
0
0
SPLINE
5
2EC
100
AcDbEntity
8
1
62
256
6
ByLayer
370
18
48
1
60
0
100
AcDbSpline
70
4
71
1
72
4
73
2
40
0
40
0
40
1
40
1
41
1
10
8.20723280560975
20
-12.176669182372
30
0
41
1
10
9.80630489563454
20
-12.5625
30
0
0
SPLINE
5
2ED
100
AcDbEntity
8
1
62
256
6
ByLayer
370
18
48
1
60
0
100
AcDbSpline
70
4
71
1
72
4
73
2
40
0
40
0
40
1
40
1
41
1
10
9.81606478385732
20
-13.323330817628
30
0
41
1
10
10.4097039521638
20
-12.9375
30
0
0
SPLINE
5
2EE
100
AcDbEntity
8
1
62
256
6
ByLayer
370
18
48
1
60
0
100
AcDbSpline
70
4
71
3
72
16
73
12
40
0
40
0
40
0
40
0
40
0.337460162153027
40
0.511222784750466
40
0.700414898490269
40
0.772742056892802
40
0.845717274675663
40
0.888696339486907
40
0.920518178862953
40
0.952267574738217
40
1
40
1
40
1
40
1
41
1
10
10.4141634283839
20
-13.676669182372
30
0
41
1
10
10.3293375307066
20
-13.6609725643444
30
0
41
1
10
10.2016217949985
20
-13.6265667331733
30
0
41
1
10
10.0274894241086
20
-13.5595841850186
30
0
41
1
10
9.92101684547845
20
-13.5053530162542
30
0
41
1
10
9.84656079286424
20
-13.4512807480819
30
0
41
1
10
9.80967520982763
20
-13.4145571925618
30
0
41
1
10
9.79227030897633
20
-13.3815141114439
30
0
41
1
10
9.79002222902282
20
-13.3586008150658
30
0
41
1
10
9.79751215235426
20
-13.3386313414873
30
0
41
1
10
9.80775119714049
20
-13.3282237092856
30
0
41
1
10
9.81606478385733
20
-13.323330817628
30
0
0
SPLINE
5
2EF
100
AcDbEntity
8
1
62
256
6
ByLayer
370
18
48
1
60
0
100
AcDbSpline
70
4
71
2
72
6
73
3
40
0
40
0
40
0
40
1
40
1
40
1
41
1
10
10.4141634283839
20
-13.676669182372
30
0
41
1
10
11.5683443984455
20
-13.9009424489135
30
0
41
1
10
12.7717581287862
20
-14.0625
30
0
0
SPLINE
5
2F0
100
AcDbEntity
8
1
62
256
6
ByLayer
370
18
48
1
60
0
100
AcDbSpline
70
4
71
1
72
4
73
2
40
0
40
0
40
1
40
1
41
1
10
12.9734266376552
20
-14.823330817628
30
0
41
1
10
13.9179338113714
20
-14.4375
30
0
0
SPLINE
5
2F1
100
AcDbEntity
8
1
62
256
6
ByLayer
370
18
48
1
60
0
100
AcDbSpline
70
4
71
3
72
18
73
14
40
0
40
0
40
0
40
0
40
0.311830770271107
40
0.625863025158541
40
0.782938730551358
40
0.861562114533895
40
0.890061697537279
40
0.918722171178133
40
0.932810376990875
40
0.947032858935462
40
0.959626431614753
40
0.975370298124341
40
1
40
1
40
1
40
1
41
1
10
14.1506815212786
20
-15.176669182372
30
0
41
1
10
14.012908451945
20
-15.1647815100912
30
0
41
1
10
13.7370360862038
20
-15.1289455334918
30
0
41
1
10
13.3913443840882
20
-15.0618549966965
30
0
41
1
10
13.1518018650968
20
-14.9906281516073
30
0
41
1
10
13.0397955678423
20
-14.9438254216416
30
0
41
1
10
12.9864701106417
20
-14.9130587672541
30
0
41
1
10
12.9610194497622
20
-14.89368770499
30
0
41
1
10
12.9460485562391
20
-14.8754112356338
30
0
41
1
10
12.9405334504151
20
-14.8611601945901
30
0
41
1
10
12.9424000557612
20
-14.8474094864222
30
0
41
1
10
12.9531259154299
20
-14.8339809158575
30
0
41
1
10
12.9645952141672
20
-14.8266273437255
30
0
41
1
10
12.9734266376552
20
-14.823330817628
30
0
0
SPLINE
5
2F2
100
AcDbEntity
8
1
62
256
6
ByLayer
370
18
48
1
60
0
100
AcDbSpline
70
4
71
3
72
11
73
7
40
0
40
0
40
0
40
0
40
0.244801369453909
40
0.491551346693876
40
0.744667229135496
40
1
40
1
40
1
40
1
41
1
10
14.1506815212786
20
-15.176669182372
30
0
41
1
10
14.76954595846
20
-15.2350431718084
30
0
41
1
10
16.0211471258768
20
-15.3235722473052
30
0
41
1
10
17.9509060636488
20
-15.372006644803
30
0
41
1
10
19.9227626871812
20
-15.3279124729026
30
0
41
1
10
21.2451224843487
20
-15.2375881043368
30
0
41
1
10
21.9091558778105
20
-15.176669182372
30
0
0
SPLINE
5
2F3
100
AcDbEntity
8
1
62
256
6
ByLayer
370
18
48
1
60
0
100
AcDbSpline
70
4
71
3
72
18
73
14
40
0
40
0
40
0
40
0
40
0.0057018682912174
40
0.0338411624068103
40
0.0464421759254176
40
0.0591160628940618
40
0.0707722361791041
40
0.0907954402710972
40
0.131297730334458
40
0.277753215758529
40
0.615296478392966
40
0.954127891820157
40
1
40
1
40
1
40
1
41
1
10
23.086410761434
20
-14.823330817628
30
0
41
1
10
23.0885565285283
20
-14.8241447543278
30
0
41
1
10
23.1008736680441
20
-14.8293194633848
30
0
41
1
10
23.1167028313241
20
-14.8384963789308
30
0
41
1
10
23.1263088848094
20
-14.8541381100734
30
0
41
1
10
23.1269214648708
20
-14.8667524221111
30
0
41
1
10
23.1207639284901
20
-14.8818201100958
30
0
41
1
10
23.101249962276
20
-14.903912291989
30
0
41
1
10
23.0249194599457
20
-14.9537703502059
30
0
41
1
10
22.7977673100946
20
-15.0345519316431
30
0
41
1
10
22.4315951871331
20
-15.118530653673
30
0
41
1
10
22.1042401519277
20
-15.1579885238838
30
0
41
1
10
21.929949721846
20
-15.1747693585454
30
0
41
1
10
21.9091558778105
20
-15.176669182372
30
0
0
SPLINE
5
2F4
100
AcDbEntity
8
1
62
256
6
ByLayer
370
18
48
1
60
0
100
AcDbSpline
70
4
71
1
72
4
73
2
40
0
40
0
40
1
40
1
41
1
10
22.0254149558428
20
-14.4375
30
0
41
1
10
23.086410761434
20
-14.823330817628
30
0
0
SPLINE
5
2F5
100
AcDbEntity
8
1
62
256
6
ByLayer
370
18
48
1
60
0
100
AcDbSpline
70
4
71
2
72
6
73
3
40
0
40
0
40
0
40
1
40
1
40
1
41
1
10
23.1715906384278
20
-14.0625
30
0
41
1
10
24.423777863045
20
-13.9009453225382
30
0
41
1
10
25.6456739707053
20
-13.676669182372
30
0
0
SPLINE
5
2F6
100
AcDbEntity
8
1
62
256
6
ByLayer
370
18
48
1
60
0
100
AcDbSpline
70
4
71
3
72
15
73
11
40
0
40
0
40
0
40
0
40
0.0284297092077153
40
0.0747369543974973
40
0.106302477454411
40
0.137814569759603
40
0.185279143821464
40
0.270390250507717
40
0.509818012402343
40
1
40
1
40
1
40
1
41
1
10
26.2437726152318
20
-13.323330817628
30
0
41
1
10
26.2494260294528
20
-13.3262481350457
30
0
41
1
10
26.2624336764956
20
-13.3351862890656
30
0
41
1
10
26.2764607256443
20
-13.3526473324406
30
0
41
1
10
26.2792061769383
20
-13.3756972975258
30
0
41
1
10
26.2720354980816
20
-13.4003018713325
30
0
41
1
10
26.2480932825373
20
-13.434816474104
30
0
41
1
10
26.1708935217865
20
-13.5001651094768
30
0
41
1
10
25.9660034268121
20
-13.599040060464
30
0
41
1
10
25.779769349043
20
-13.6575259207903
30
0
41
1
10
25.6456739707053
20
-13.676669182372
30
0
0
SPLINE
5
2F7
100
AcDbEntity
8
1
62
256
6
ByLayer
370
18
48
1
60
0
100
AcDbSpline
70
4
71
1
72
4
73
2
40
0
40
0
40
1
40
1
41
1
10
25.5336448150503
20
-12.9375
30
0
41
1
10
26.2437726152318
20
-13.323330817628
30
0
0
SPLINE
5
2F8
100
AcDbEntity
8
1
62
256
6
ByLayer
370
18
48
1
60
0
100
AcDbSpline
70
4
71
1
72
4
73
2
40
0
40
0
40
1
40
1
41
1
10
26.1370438715795
20
-12.5625
30
0
41
1
10
27.8526045934794
20
-12.176669182372
30
0
0
SPLINE
5
2F9
100
AcDbEntity
8
1
62
256
6
ByLayer
370
18
48
1
60
0
100
AcDbSpline
70
4
71
3
72
15
73
11
40
0
40
0
40
0
40
0
40
0.0504516270734534
40
0.102246543224154
40
0.143324124540111
40
0.196798633414232
40
0.266058782971137
40
0.382179373222791
40
0.615298103454942
40
1
40
1
40
1
40
1
41
1
10
28.2720309270235
20
-11.823330817628
30
0
41
1
10
28.2798388854203
20
-11.8278069681301
30
0
41
1
10
28.293119229015
20
-11.8387697240515
30
0
41
1
10
28.3061513274657
20
-11.8596139577212
30
0
41
1
10
28.3097506316101
20
-11.8856897916937
30
0
41
1
10
28.3020458829655
20
-11.9175276657724
30
0
41
1
10
28.2744786640926
20
-11.9616628724813
30
0
41
1
10
28.2055742327767
20
-12.0271314051051
30
0
41
1
10
28.0611102049654
20
-12.1115542048929
30
0
41
1
10
27.9355957965374
20
-12.1587806811614
30
0
41
1
10
27.8526045934794
20
-12.176669182372
30
0
0
SPLINE
5
2FA
100
AcDbEntity
8
1
62
256
6
ByLayer
370
18
48
1
60
0
100
AcDbSpline
70
4
71
1
72
4
73
2
40
0
40
0
40
1
40
1
41
1
10
27.6395678222407
20
-11.4375
30
0
41
1
10
28.2720309270235
20
-11.823330817628
30
0
0
SPLINE
5
2FB
100
AcDbEntity
8
1
62
256
6
ByLayer
370
18
48
1
60
0
100
AcDbSpline
70
4
71
1
72
4
73
2
40
0
40
0
40
1
40
1
41
1
10
28.0633328820302
20
-11.0625
30
0
41
1
10
29.4537871576162
20
-10.676669182372
30
0
0
SPLINE
5
2FC
100
AcDbEntity
8
1
62
256
6
ByLayer
370
18
48
1
60
0
100
AcDbSpline
70
4
71
3
72
15
73
11
40
0
40
0
40
0
40
0
40
0.0522740327933515
40
0.12313741168935
40
0.194515143943296
40
0.255698669305156
40
0.342610206659853
40
0.48210286898598
40
0.735911221525522
40
1
40
1
40
1
40
1
41
1
10
29.7716609964961
20
-10.323330817628
30
0
41
1
10
29.7786142288176
20
-10.3275439097621
30
0
41
1
10
29.7929240036821
20
-10.3392470401928
30
0
41
1
10
29.8098164714333
20
-10.3642958138176
30
0
41
1
10
29.8140070338871
20
-10.3986070931046
30
0
41
1
10
29.8038376076074
20
-10.4382220515238
30
0
41
1
10
29.774681754824
20
-10.4877001249788
30
0
41
1
10
29.7056863928173
20
-10.5572115590299
30
0
41
1
10
29.5931956103821
20
-10.6265919960925
30
0
41
1
10
29.5022016841107
20
-10.6633416675869
30
0
41
1
10
29.4537871576162
20
-10.676669182372
30
0
0
SPLINE
5
2FD
100
AcDbEntity
8
1
62
256
6
ByLayer
370
18
48
1
60
0
100
AcDbSpline
70
4
71
1
72
4
73
2
40
0
40
0
40
1
40
1
41
1
10
29.1648469826181
20
-9.9375
30
0
41
1
10
29.7716609964961
20
-10.323330817628
30
0
0
SPLINE
5
2FE
100
AcDbEntity
8
1
62
256
6
ByLayer
370
18
48
1
60
0
100
AcDbSpline
70
4
71
1
72
4
73
2
40
0
40
0
40
1
40
1
41
1
10
29.484452770174
20
-9.5625
30
0
41
1
10
30.6813441322562
20
-9.17666918237202
30
0
0
SPLINE
5
2FF
100
AcDbEntity
8
1
62
256
6
ByLayer
370
18
48
1
60
0
100
AcDbSpline
70
4
71
3
72
16
73
12
40
0
40
0
40
0
40
0
40
0.0128979686218636
40
0.107443706728074
40
0.184226256374282
40
0.261287374580749
40
0.333258755658916
40
0.443006594467989
40
0.616999707198111
40
0.907083332411635
40
1
40
1
40
1
40
1
41
1
10
30.9283815541442
20
-8.82333081762797
30
0
41
1
10
30.929918472509
20
-8.82430874907589
30
0
41
1
10
30.9424476565382
20
-8.83276286384714
30
0
41
1
10
30.9613209320161
20
-8.85138357020716
30
0
41
1
10
30.975181882732
20
-8.88659628442452
30
0
41
1
10
30.9746060986571
20
-8.92483276713356
30
0
41
1
10
30.9600157070939
20
-8.9694669827017
30
0
41
1
10
30.9236347280093
20
-9.02607893917418
30
0
41
1
10
30.8451441362881
20
-9.09971009441195
30
0
41
1
10
30.7572529036812
20
-9.14860789762117
30
0
41
1
10
30.6963134857133
20
-9.17173496452817
30
0
41
1
10
30.6813441322562
20
-9.17666918237202
30
0
0
SPLINE
5
300
100
AcDbEntity
8
1
62
256
6
ByLayer
370
18
48
1
60
0
100
AcDbSpline
70
4
71
1
72
4
73
2
40
0
40
0
40
1
40
1
41
1
10
30.3264404549437
20
-8.4375
30
0
41
1
10
30.9283815541442
20
-8.82333081762797
30
0
0
SPLINE
5
301
100
AcDbEntity
8
1
62
256
6
ByLayer
370
18
48
1
60
0
100
AcDbSpline
70
4
71
1
72
4
73
2
40
0
40
0
40
1
40
1
41
1
10
30.5724975179635
20
-8.0625
30
0
41
1
10
31.6367751685209
20
-7.67666918237202
30
0
0
SPLINE
5
302
100
AcDbEntity
8
1
62
256
6
ByLayer
370
18
48
1
60
0
100
AcDbSpline
70
4
71
3
72
15
73
11
40
0
40
0
40
0
40
0
40
0.114912703539685
40
0.204075236519801
40
0.293677407125386
40
0.374625867972019
40
0.487683390224956
40
0.656432074589381
40
0.921386674045346
40
1
40
1
40
1
40
1
41
1
10
31.8286997475458
20
-7.32333081762797
30
0
41
1
10
31.8425896234388
20
-7.3314947343049
30
0
41
1
10
31.8623746108507
20
-7.3504285740582
30
0
41
1
10
31.880933014771
20
-7.38952192157549
30
0
41
1
10
31.8831333568704
20
-7.43196929858762
30
0
41
1
10
31.8707302274166
20
-7.47990065167103
30
0
41
1
10
31.8387424424317
20
-7.53684328792244
30
0
41
1
10
31.7719610697212
20
-7.60657085302701
30
0
41
1
10
31.6984188229487
20
-7.65148485854646
30
0
41
1
10
31.6483791183614
20
-7.67240230118914
30
0
41
1
10
31.6367751685209
20
-7.67666918237202
30
0
0
SPLINE
5
303
100
AcDbEntity
8
1
62
256
6
ByLayer
370
18
48
1
60
0
100
AcDbSpline
70
4
71
1
72
4
73
2
40
0
40
0
40
1
40
1
41
1
10
31.2203557926898
20
-6.9375
30
0
41
1
10
31.8286997475458
20
-7.32333081762797
30
0
0
SPLINE
5
304
100
AcDbEntity
8
1
62
256
6
ByLayer
370
18
48
1
60
0
100
AcDbSpline
70
4
71
1
72
4
73
2
40
0
40
0
40
1
40
1
41
1
10
31.4086235799159
20
-6.5625
30
0
41
1
10
32.3745589184873
20
-6.17666918237202
30
0
0
SPLINE
5
305
100
AcDbEntity
8
1
62
256
6
ByLayer
370
18
48
1
60
0
100
AcDbSpline
70
4
71
3
72
16
73
12
40
0
40
0
40
0
40
0
40
0.0846353781588987
40
0.193186370209543
40
0.284316931217778
40
0.375623293204984
40
0.464442155455786
40
0.598337543641776
40
0.796875769753318
40
0.974845352440862
40
1
40
1
40
1
40
1
41
1
10
32.5204865064178
20
-5.82333081762797
30
0
41
1
10
32.5301511800685
20
-5.82906256550077
30
0
41
1
10
32.5497935604719
20
-5.84493427228363
30
0
41
1
10
32.5727964230326
20
-5.87760946248981
30
0
41
1
10
32.5835718138087
20
-5.92105772787192
30
0
41
1
10
32.5801451465566
20
-5.96627693586575
30
0
41
1
10
32.5623031431447
20
-6.01735878752003
30
0
41
1
10
32.5223811365535
20
-6.07788568876812
30
0
41
1
10
32.4596986614031
20
-6.13348037989399
30
0
41
1
10
32.4057320797789
20
-6.16351660739214
30
0
41
1
10
32.3780052031427
20
-6.17526871186195
30
0
41
1
10
32.3745589184873
20
-6.17666918237202
30
0
0
SPLINE
5
306
100
AcDbEntity
8
1
62
256
6
ByLayer
370
18
48
1
60
0
100
AcDbSpline
70
4
71
1
72
4
73
2
40
0
40
0
40
1
40
1
41
1
10
31.8982337590242
20
-5.4375
30
0
41
1
10
32.5204865064178
20
-5.82333081762797
30
0
0
SPLINE
5
307
100
AcDbEntity
8
1
62
256
6
ByLayer
370
18
48
1
60
0
100
AcDbSpline
70
4
71
1
72
4
73
2
40
0
40
0
40
1
40
1
41
1
10
32.0378268888503
20
-5.0625
30
0
41
1
10
32.9270676083195
20
-4.67666918237202
30
0
0
SPLINE
5
308
100
AcDbEntity
8
1
62
256
6
ByLayer
370
18
48
1
60
0
100
AcDbSpline
70
4
71
3
72
16
73
12
40
0
40
0
40
0
40
0
40
0.0803379079601984
40
0.204461344928301
40
0.304339509388536
40
0.404565149172888
40
0.498007704749542
40
0.62804129265735
40
0.813167703652059
40
0.862677584495314
40
1
40
1
40
1
40
1
41
1
10
33.0326162861863
20
-4.32333081762797
30
0
41
1
10
33.0416481088931
20
-4.32857460227784
30
0
41
1
10
33.0627140199629
20
-4.34444683083107
30
0
41
1
10
33.0890326401325
20
-4.37745402694626
30
0
41
1
10
33.1042810444797
20
-4.4241558449571
30
0
41
1
10
33.1041584751557
20
-4.4724505954002
30
0
41
1
10
33.0893670842004
20
-4.52495699337979
30
0
41
1
10
33.0550529278576
20
-4.58372453504275
30
0
41
1
10
33.0137357280542
20
-4.62379559873643
30
0
41
1
10
32.9686064417793
20
-4.65592392898887
30
0
41
1
10
32.9449788684176
20
-4.66888971093155
30
0
41
1
10
32.9270676083195
20
-4.67666918237202
30
0
0
SPLINE
5
309
100
AcDbEntity
8
1
62
256
6
ByLayer
370
18
48
1
60
0
100
AcDbSpline
70
4
71
1
72
4
73
2
40
0
40
0
40
1
40
1
41
1
10
32.3905764066595
20
-3.9375
30
0
41
1
10
33.0326162861863
20
-4.32333081762797
30
0
0
SPLINE
5
30A
100
AcDbEntity
8
1
62
256
6
ByLayer
370
18
48
1
60
0
100
AcDbSpline
70
4
71
1
72
4
73
2
40
0
40
0
40
1
40
1
41
1
10
32.4870411186592
20
-3.5625
30
0
41
1
10
33.3144066126296
20
-3.17666918237202
30
0
0
SPLINE
5
30B
100
AcDbEntity
8
1
62
256
6
ByLayer
370
18
48
1
60
0
100
AcDbSpline
70
4
71
3
72
15
73
11
40
0
40
0
40
0
40
0
40
0.104343806405768
40
0.235630972754948
40
0.341173902546991
40
0.447139044413802
40
0.54445454208504
40
0.674924024057464
40
0.856300661654324
40
1
40
1
40
1
40
1
41
1
10
33.3830778839791
20
-2.82333081762797
30
0
41
1
10
33.3949202208363
20
-2.82990882179469
30
0
41
1
10
33.4191772979121
20
-2.84822231487002
30
0
41
1
10
33.448693271418
20
-2.88586712537939
30
0
41
1
10
33.4655739782219
20
-2.93544069529639
30
0
41
1
10
33.4666537339515
20
-2.98612310387265
30
0
41
1
10
33.4528212352196
20
-3.03966369734526
30
0
41
1
10
33.4204764538441
20
-3.09717872440643
30
0
41
1
10
33.3709455133273
20
-3.14498502417302
30
0
41
1
10
33.3324961991598
20
-3.1684672668293
30
0
41
1
10
33.3144066126296
20
-3.17666918237202
30
0
0
SPLINE
5
30C
100
AcDbEntity
8
1
62
256
6
ByLayer
370
18
48
1
60
0
100
AcDbSpline
70
4
71
1
72
4
73
2
40
0
40
0
40
1
40
1
41
1
10
32.7159816789491
20
-2.4375
30
0
41
1
10
33.3830778839791
20
-2.82333081762797
30
0
0
SPLINE
5
30D
100
AcDbEntity
8
1
62
256
6
ByLayer
370
18
48
1
60
0
100
AcDbSpline
70
4
71
1
72
4
73
2
40
0
40
0
40
1
40
1
41
1
10
32.7726635114011
20
-2.0625
30
0
41
1
10
33.5489482592817
20
-1.67666918237202
30
0
0
SPLINE
5
30E
100
AcDbEntity
8
1
62
256
6
ByLayer
370
18
48
1
60
0
100
AcDbSpline
70
4
71
3
72
15
73
11
40
0
40
0
40
0
40
0
40
0.0935402133636709
40
0.239663225230535
40
0.354382248470411
40
0.469778208312735
40
0.570724230035936
40
0.67433411872223
40
0.833912377730695
40
1
40
1
40
1
40
1
41
1
10
33.5828040127161
20
-1.32333081762797
30
0
41
1
10
33.5934791659313
20
-1.32907448875463
30
0
41
1
10
33.6190328882229
20
-1.34669227218666
30
0
41
1
10
33.6523894086088
20
-1.38339227594345
30
0
41
1
10
33.6754216070401
20
-1.43571025413023
30
0
41
1
10
33.6811268352334
20
-1.48952736810396
30
0
41
1
10
33.6714254054509
20
-1.54114173719852
30
0
41
1
10
33.6474305517619
20
-1.593473452585
30
0
41
1
10
33.6055424024581
20
-1.64197963686889
30
0
41
1
10
33.5693017946583
20
-1.66701415423463
30
0
41
1
10
33.5489482592817
20
-1.67666918237202
30
0
0
SPLINE
5
30F
100
AcDbEntity
8
1
62
256
6
ByLayer
370
18
48
1
60
0
100
AcDbSpline
70
4
71
1
72
4
73
2
40
0
40
0
40
1
40
1
41
1
10
32.8853809062756
20
-0.9375
30
0
41
1
10
33.5828040127161
20
-1.32333081762797
30
0
0
SPLINE
5
310
100
AcDbEntity
8
1
62
256
6
ByLayer
370
18
48
1
60
0
100
AcDbSpline
70
4
71
1
72
4
73
2
40
0
40
0
40
1
40
1
41
1
10
32.9040844176512
20
-0.5625
30
0
41
1
10
33.6375824818814
20
-0.176669182372023
30
0
0
SPLINE
5
311
100
AcDbEntity
8
1
62
256
6
ByLayer
370
18
48
1
60
0
100
AcDbSpline
70
4
71
3
72
15
73
11
40
0
40
0
40
0
40
0
40
0.168501646897782
40
0.309582417233842
40
0.421827951352002
40
0.534634793584725
40
0.635515182823722
40
0.741426084785578
40
0.906689835377121
40
1
40
1
40
1
40
1
41
1
10
33.6375824818814
20
0.176669182372028
30
0
41
1
10
33.6577510469081
20
0.16664076085875
30
0
41
1
10
33.6905673417411
20
0.141910323378878
30
0
41
1
10
33.7280507916635
20
0.0925657270701896
30
0
41
1
10
33.7477804924865
20
0.0383100688402697
30
0
41
1
10
33.7509152489173
20
-0.0153578969321874
30
0
41
1
10
33.7393964953921
20
-0.0655373988337933
30
0
41
1
10
33.7133526247969
20
-0.115846992447602
30
0
41
1
10
33.6769382594988
20
-0.152698411557837
30
0
41
1
10
33.648448773458
20
-0.171079763975242
30
0
41
1
10
33.6375824818814
20
-0.176669182372023
30
0
0
SPLINE
5
312
100
AcDbEntity
8
1
62
256
6
ByLayer
370
18
48
1
60
0
100
AcDbSpline
70
4
71
1
72
4
73
2
40
0
40
0
40
1
40
1
41
1
10
32.8853809062756
20
0.9375
30
0
41
1
10
33.5828040127161
20
1.32333081762798
30
0
0
SPLINE
5
313
100
AcDbEntity
8
1
62
256
6
ByLayer
370
18
48
1
60
0
100
AcDbSpline
70
4
71
3
72
15
73
11
40
0
40
0
40
0
40
0
40
0.147530460247522
40
0.305847881344001
40
0.427801646677858
40
0.531030645315762
40
0.634462469704646
40
0.734622108870304
40
0.877558045927089
40
1
40
1
40
1
40
1
41
1
10
33.5489482592817
20
1.67666918237203
30
0
41
1
10
33.5668952402157
20
1.66807187582034
30
0
41
1
10
33.6012456825431
20
1.64516016297841
30
0
41
1
10
33.644109246774
20
1.59885154926329
30
0
41
1
10
33.6708162227579
20
1.54443285780535
30
0
41
1
10
33.6808105922205
20
1.49136527929943
30
0
41
1
10
33.6762557371213
20
1.44158535751098
30
0
41
1
10
33.6573346987838
20
1.39191462091942
30
0
41
1
10
33.6247217713979
20
1.35128056976362
30
0
41
1
10
33.5969384184347
20
1.33082358611985
30
0
41
1
10
33.5828040127161
20
1.32333081762798
30
0
0
SPLINE
5
314
100
AcDbEntity
8
1
62
256
6
ByLayer
370
18
48
1
60
0
100
AcDbSpline
70
4
71
1
72
4
73
2
40
0
40
0
40
1
40
1
41
1
10
32.7726635114012
20
2.0625
30
0
41
1
10
33.5489482592817
20
1.67666918237203
30
0
0
SPLINE
5
315
100
AcDbEntity
8
1
62
256
6
ByLayer
370
18
48
1
60
0
100
AcDbSpline
70
4
71
1
72
4
73
2
40
0
40
0
40
1
40
1
41
1
10
32.715981678949
20
2.4375
30
0
41
1
10
33.3830778839791
20
2.82333081762798
30
0
0
SPLINE
5
316
100
AcDbEntity
8
1
62
256
6
ByLayer
370
18
48
1
60
0
100
AcDbSpline
70
4
71
3
72
15
73
11
40
0
40
0
40
0
40
0
40
0.176197525760765
40
0.340044150928751
40
0.464529916797546
40
0.567298752988989
40
0.670365450322324
40
0.767760097548097
40
0.903586516390156
40
1
40
1
40
1
40
1
41
1
10
33.3144066126296
20
3.17666918237203
30
0
41
1
10
33.3367941316637
20
3.16663777868023
30
0
41
1
10
33.3766035257616
20
3.1409414315894
30
0
41
1
10
33.4255289702898
20
3.08975561070469
30
0
41
1
10
33.4551479181314
20
3.03381006311443
30
0
41
1
10
33.467334378999
20
2.98025249060746
30
0
41
1
10
33.4644229216749
20
2.93092955696514
30
0
41
1
10
33.4470269268603
20
2.88307237720982
30
0
41
1
10
33.4180339307166
20
2.84720826946621
30
0
41
1
10
33.3939872509256
20
2.82941298699736
30
0
41
1
10
33.3830778839791
20
2.82333081762798
30
0
0
SPLINE
5
317
100
AcDbEntity
8
1
62
256
6
ByLayer
370
18
48
1
60
0
100
AcDbSpline
70
4
71
1
72
4
73
2
40
0
40
0
40
1
40
1
41
1
10
32.4870411186592
20
3.5625
30
0
41
1
10
33.3144066126296
20
3.17666918237203
30
0
0
SPLINE
5
318
100
AcDbEntity
8
1
62
256
6
ByLayer
370
18
48
1
60
0
100
AcDbSpline
70
4
71
1
72
4
73
2
40
0
40
0
40
1
40
1
41
1
10
32.3905764066595
20
3.9375
30
0
41
1
10
33.0326162861863
20
4.32333081762798
30
0
0
SPLINE
5
319
100
AcDbEntity
8
1
62
256
6
ByLayer
370
18
48
1
60
0
100
AcDbSpline
70
4
71
3
72
16
73
12
40
0
40
0
40
0
40
0
40
0.091094280281817
40
0.137463827492232
40
0.344791385054909
40
0.47370438850363
40
0.579806108894618
40
0.686497628687461
40
0.780532815660935
40
0.902165501953472
40
1
40
1
40
1
40
1
41
1
10
32.9270676083195
20
4.67666918237203
30
0
41
1
10
32.9388783951997
20
4.6714992601443
30
0
41
1
10
32.9564031341472
20
4.66255239033854
30
0
41
1
10
32.9992476456565
20
4.63586858072216
30
0
41
1
10
33.0443804804381
20
4.59682117484359
30
0
41
1
10
33.0843409645274
20
4.53596178575797
30
0
41
1
10
33.1031065945664
20
4.48131111257134
30
0
41
1
10
33.1051359639331
20
4.43037882483123
30
0
41
1
10
33.0917066704561
20
4.38297207587029
30
0
41
1
10
33.06594499307
20
4.34729359195951
30
0
41
1
10
33.0437077746781
20
4.32970217436511
30
0
41
1
10
33.0326162861863
20
4.32333081762798
30
0
0
SPLINE
5
31A
100
AcDbEntity
8
1
62
256
6
ByLayer
370
18
48
1
60
0
100
AcDbSpline
70
4
71
1
72
4
73
2
40
0
40
0
40
1
40
1
41
1
10
32.0378268888503
20
5.0625
30
0
41
1
10
32.9270676083195
20
4.67666918237203
30
0
0
SPLINE
5
31B
100
AcDbEntity
8
1
62
256
6
ByLayer
370
18
48
1
60
0
100
AcDbSpline
70
4
71
1
72
4
73
2
40
0
40
0
40
1
40
1
41
1
10
31.8982337590241
20
5.4375
30
0
41
1
10
32.5204865064178
20
5.82333081762798
30
0
0
SPLINE
5
31C
100
AcDbEntity
8
1
62
256
6
ByLayer
370
18
48
1
60
0
100
AcDbSpline
70
4
71
3
72
16
73
12
40
0
40
0
40
0
40
0
40
0.0251740108874806
40
0.304954467455815
40
0.452934592631814
40
0.571186455976067
40
0.664942556936702
40
0.759018001213587
40
0.847129752119442
40
0.972758808299834
40
1
40
1
40
1
40
1
41
1
10
32.3745589184872
20
6.17666918237203
30
0
41
1
10
32.3780073791874
20
6.17527026742817
30
0
41
1
10
32.4195648539696
20
6.15763622210802
30
0
41
1
10
32.4807048178094
20
6.11975822413275
30
0
41
1
10
32.5417054253721
20
6.0519036087604
30
0
41
1
10
32.571345396758
20
5.99708145533994
30
0
41
1
10
32.5835082318951
20
5.94607846951518
30
0
41
1
10
32.5805111047497
20
5.90152258941504
30
0
41
1
10
32.5630275325681
20
5.85985451993068
30
0
41
1
10
32.5400177593635
20
5.83633471504615
30
0
41
1
10
32.5235200837953
20
5.82519153092556
30
0
41
1
10
32.5204865064178
20
5.82333081762798
30
0
0
SPLINE
5
31D
100
AcDbEntity
8
1
62
256
6
ByLayer
370
18
48
1
60
0
100
AcDbSpline
70
4
71
1
72
4
73
2
40
0
40
0
40
1
40
1
41
1
10
31.408623579916
20
6.5625
30
0
41
1
10
32.3745589184872
20
6.17666918237203
30
0
0
SPLINE
5
31E
100
AcDbEntity
8
1
62
256
6
ByLayer
370
18
48
1
60
0
100
AcDbSpline
70
4
71
1
72
4
73
2
40
0
40
0
40
1
40
1
41
1
10
31.2203557926897
20
6.9375
30
0
41
1
10
31.8286997475458
20
7.32333081762798
30
0
0
SPLINE
5
31F
100
AcDbEntity
8
1
62
256
6
ByLayer
370
18
48
1
60
0
100
AcDbSpline
70
4
71
3
72
15
73
11
40
0
40
0
40
0
40
0
40
0.22604590949707
40
0.417865667429679
40
0.555731113021809
40
0.654493016251516
40
0.737881703141179
40
0.821411706175326
40
0.903362207645591
40
1
40
1
40
1
40
1
41
1
10
31.6367751685209
20
7.67666918237203
30
0
41
1
10
31.6709158637381
20
7.66458315236048
30
0
41
1
10
31.7306334804138
20
7.63402542661241
30
0
41
1
10
31.8057586068793
20
7.57465921458585
30
0
41
1
10
31.8532341990126
20
7.51465462007447
30
0
41
1
10
31.8769022543313
20
7.46244746668192
30
0
41
1
10
31.8838541173402
20
7.41736005629449
30
0
41
1
10
31.8771633637841
20
7.37867601063223
30
0
41
1
10
31.8580577877437
20
7.34616949422188
30
0
41
1
10
31.8401719606539
20
7.3301853119386
30
0
41
1
10
31.8286997475458
20
7.32333081762798
30
0
0
SPLINE
5
320
100
AcDbEntity
8
1
62
256
6
ByLayer
370
18
48
1
60
0
100
AcDbSpline
70
4
71
1
72
4
73
2
40
0
40
0
40
1
40
1
41
1
10
30.5724975179635
20
8.0625
30
0
41
1
10
31.6367751685209
20
7.67666918237203
30
0
0
SPLINE
5
321
100
AcDbEntity
8
1
62
256
6
ByLayer
370
18
48
1
60
0
100
AcDbSpline
70
4
71
1
72
4
73
2
40
0
40
0
40
1
40
1
41
1
10
30.3264404549437
20
8.4375
30
0
41
1
10
30.9283815541442
20
8.82333081762798
30
0
0
SPLINE
5
322
100
AcDbEntity
8
1
62
256
6
ByLayer
370
18
48
1
60
0
100
AcDbSpline
70
4
71
3
72
16
73
12
40
0
40
0
40
0
40
0
40
0.0928383302087104
40
0.381063410104173
40
0.529802422515331
40
0.647493044639823
40
0.729934248690343
40
0.812930434751596
40
0.885457360754928
40
0.983124442760685
40
1
40
1
40
1
40
1
41
1
10
30.6813441322562
20
9.17666918237203
30
0
41
1
10
30.6963018741912
20
9.17173817535389
30
0
41
1
10
30.756927507776
20
9.14873646988726
30
0
41
1
10
30.8406769875332
20
9.10221608498984
30
0
41
1
10
30.9169659681837
20
9.03265383414465
30
0
41
1
10
30.9554158896295
20
8.97889025905822
30
0
41
1
10
30.9739829294249
20
8.93026115952448
30
0
41
1
10
30.9757094217605
20
8.88952910417991
30
0
41
1
10
30.9624892853842
20
8.85313048921251
30
0
41
1
10
30.9436770426631
20
8.83371418210058
30
0
41
1
10
30.9303961124901
20
8.82460890727275
30
0
41
1
10
30.9283815541442
20
8.82333081762798
30
0
0
SPLINE
5
323
100
AcDbEntity
8
1
62
256
6
ByLayer
370
18
48
1
60
0
100
AcDbSpline
70
4
71
1
72
4
73
2
40
0
40
0
40
1
40
1
41
1
10
29.484452770174
20
9.5625
30
0
41
1
10
30.6813441322562
20
9.17666918237203
30
0
0
SPLINE
5
324
100
AcDbEntity
8
1
62
256
6
ByLayer
370
18
48
1
60
0
100
AcDbSpline
70
4
71
1
72
4
73
2
40
0
40
0
40
1
40
1
41
1
10
29.1648469826181
20
9.9375
30
0
41
1
10
29.7716609964961
20
10.323330817628
30
0
0
SPLINE
5
325
100
AcDbEntity
8
1
62
256
6
ByLayer
370
18
48
1
60
0
100
AcDbSpline
70
4
71
3
72
15
73
11
40
0
40
0
40
0
40
0
40
0.351148004879881
40
0.503572356945123
40
0.657021487110627
40
0.734227076328633
40
0.812149900319228
40
0.87969432268391
40
0.940890891666507
40
1
40
1
40
1
40
1
41
1
10
29.4537871576162
20
10.676669182372
30
0
41
1
10
29.5189602876056
20
10.6591106971995
30
0
41
1
10
29.6071791376993
20
10.620259149126
30
0
41
1
10
29.7157697827168
20
10.5465400403696
30
0
41
1
10
29.7717454803522
20
10.4915134086113
30
0
41
1
10
29.8035900637333
20
10.4390702907339
30
0
41
1
10
29.814507904433
20
10.3984111092244
30
0
41
1
10
29.8091918330812
20
10.3641122293407
30
0
41
1
10
29.7933451817778
20
10.3397512061497
30
0
41
1
10
29.7795553837976
20
10.3280947033373
30
0
41
1
10
29.7716609964961
20
10.323330817628
30
0
0
SPLINE
5
326
100
AcDbEntity
8
1
62
256
6
ByLayer
370
18
48
1
60
0
100
AcDbSpline
70
4
71
1
72
4
73
2
40
0
40
0
40
1
40
1
41
1
10
28.0633328820302
20
11.0625
30
0
41
1
10
29.4537871576162
20
10.676669182372
30
0
0
SPLINE
5
327
100
AcDbEntity
8
1
62
256
6
ByLayer
370
18
48
1
60
0
100
AcDbSpline
70
4
71
1
72
4
73
2
40
0
40
0
40
1
40
1
41
1
10
27.6395678222407
20
11.4375
30
0
41
1
10
28.2720309270235
20
11.823330817628
30
0
0
SPLINE
5
328
100
AcDbEntity
8
1
62
256
6
ByLayer
370
18
48
1
60
0
100
AcDbSpline
70
4
71
3
72
15
73
11
40
0
40
0
40
0
40
0
40
0.380452815367957
40
0.615570108825538
40
0.697773367331435
40
0.780508776919177
40
0.833598610311538
40
0.887046025556307
40
0.934715644347276
40
1
40
1
40
1
40
1
41
1
10
27.8526045934794
20
12.176669182372
30
0
41
1
10
27.9346109396905
20
12.1589361858009
30
0
41
1
10
28.0595746893948
20
12.1121555957499
30
0
41
1
10
28.1975347834984
20
12.0320674335738
30
0
41
1
10
28.264343566031
20
11.9716133562079
30
0
41
1
10
28.294064378756
20
11.9331960423861
30
0
41
1
10
28.3085451867757
20
11.8967474347779
30
0
41
1
10
28.3088714422308
20
11.867693172752
30
0
41
1
10
28.2963583837815
20
11.841856971103
30
0
41
1
10
28.2823720323857
20
11.8291365754141
30
0
41
1
10
28.2720309270235
20
11.823330817628
30
0
0
SPLINE
5
329
100
AcDbEntity
8
1
62
256
6
ByLayer
370
18
48
1
60
0
100
AcDbSpline
70
4
71
1
72
4
73
2
40
0
40
0
40
1
40
1
41
1
10
26.1370438715795
20
12.5625
30
0
41
1
10
27.8526045934794
20
12.176669182372
30
0
0
SPLINE
5
32A
100
AcDbEntity
8
1
62
256
6
ByLayer
370
18
48
1
60
0
100
AcDbSpline
70
4
71
1
72
4
73
2
40
0
40
0
40
1
40
1
41
1
10
25.5336448150502
20
12.9375
30
0
41
1
10
26.2437726152318
20
13.323330817628
30
0
0
SPLINE
5
32B
100
AcDbEntity
8
1
62
256
6
ByLayer
370
18
48
1
60
0
100
AcDbSpline
70
4
71
3
72
16
73
12
40
0
40
0
40
0
40
0
40
0.143953657016738
40
0.565954894404494
40
0.777864162079812
40
0.830127390921662
40
0.872057618871593
40
0.90436619489194
40
0.936733238837463
40
0.977742326731154
40
1
40
1
40
1
40
1
41
1
10
25.6456739707053
20
13.676669182372
30
0
41
1
10
25.6836886634384
20
13.6698355584557
30
0
41
1
10
25.8321936736502
20
13.6377826744908
30
0
41
1
10
26.0348311527867
20
13.5725020332095
30
0
41
1
10
26.2036585188892
20
13.4782167468048
30
0
41
1
10
26.2597444646479
20
13.4196840436706
30
0
41
1
10
26.2755018855026
20
13.3923026507699
30
0
41
1
10
26.2794848117321
20
13.3686164895066
30
0
41
1
10
26.2733486878142
20
13.3475144504896
30
0
41
1
10
26.2594293636359
20
13.3330038816838
30
0
41
1
10
26.2481349943154
20
13.325630407175
30
0
41
1
10
26.2437726152318
20
13.323330817628
30
0
0
SPLINE
5
32C
100
AcDbEntity
8
1
62
256
6
ByLayer
370
18
48
1
60
0
100
AcDbSpline
70
4
71
2
72
6
73
3
40
0
40
0
40
0
40
1
40
1
40
1
41
1
10
23.1715906384278
20
14.0625
30
0
41
1
10
24.4237778630449
20
13.9009453225382
30
0
41
1
10
25.6456739707053
20
13.676669182372
30
0
0
SPLINE
5
32D
100
AcDbEntity
8
1
62
256
6
ByLayer
370
18
48
1
60
0
100
AcDbSpline
70
4
71
1
72
4
73
2
40
0
40
0
40
1
40
1
41
1
10
22.0254149558426
20
14.4375
30
0
41
1
10
23.0864107614454
20
14.823330817628
30
0
0
SPLINE
5
32E
100
AcDbEntity
8
1
62
256
6
ByLayer
370
18
48
1
60
0
100
AcDbSpline
70
4
71
1
72
4
73
2
40
0
40
0
40
1
40
1
41
1
10
23.9225177494812
20
-0.5625
30
0
41
1
10
23.3384346382913
20
-0.17666918238648
30
0
0
SPLINE
5
32F
100
AcDbEntity
8
1
62
256
6
ByLayer
370
18
48
1
60
0
100
AcDbSpline
70
4
71
1
72
4
73
2
40
0
40
0
40
1
40
1
41
1
10
23.8754282389633
20
0.937499999999999
30
0
41
1
10
23.1751508900375
20
1.32333081762796
30
0
0
SPLINE
5
330
100
AcDbEntity
8
1
62
256
6
ByLayer
370
18
48
1
60
0
100
AcDbSpline
70
4
71
1
72
4
73
2
40
0
40
0
40
1
40
1
41
1
10
23.8754282389633
20
-0.9375
30
0
41
1
10
23.1751508900375
20
-1.32333081762798
30
0
0
SPLINE
5
331
100
AcDbEntity
8
1
62
256
6
ByLayer
370
18
48
1
60
0
100
AcDbSpline
70
4
71
1
72
4
73
2
40
0
40
0
40
1
40
1
41
1
10
23.5846011158409
20
2.0625
30
0
41
1
10
23.0718876805493
20
1.67666918237202
30
0
0
SPLINE
5
332
100
AcDbEntity
8
1
62
256
6
ByLayer
370
18
48
1
60
0
100
AcDbSpline
70
4
71
1
72
4
73
2
40
0
40
0
40
1
40
1
41
1
10
23.5846011158409
20
-2.0625
30
0
41
1
10
23.0718876805493
20
-1.67666918237203
30
0
0
SPLINE
5
333
100
AcDbEntity
8
1
62
256
6
ByLayer
370
18
48
1
60
0
100
AcDbSpline
70
4
71
1
72
4
73
2
40
0
40
0
40
1
40
1
41
1
10
23.4333833615572
20
-2.4375
30
0
41
1
10
22.5355451456677
20
-2.82333081762798
30
0
0
SPLINE
5
334
100
AcDbEntity
8
1
62
256
6
ByLayer
370
18
48
1
60
0
100
AcDbSpline
70
4
71
1
72
4
73
2
40
0
40
0
40
1
40
1
41
1
10
23.4333833615572
20
2.4375
30
0
41
1
10
22.5355451456678
20
2.82333081762702
30
0
0
SPLINE
5
335
100
AcDbEntity
8
1
62
256
6
ByLayer
370
18
48
1
60
0
100
AcDbSpline
70
4
71
1
72
4
73
2
40
0
40
0
40
1
40
1
41
1
10
22.7812002223364
20
3.5625
30
0
41
1
10
22.295682815698
20
3.17666918237202
30
0
0
SPLINE
5
336
100
AcDbEntity
8
1
62
256
6
ByLayer
370
18
48
1
60
0
100
AcDbSpline
70
4
71
1
72
4
73
2
40
0
40
0
40
1
40
1
41
1
10
22.7812002223364
20
-3.5625
30
0
41
1
10
22.295682815698
20
-3.17666918237202
30
0
0
SPLINE
5
337
100
AcDbEntity
8
1
62
256
6
ByLayer
370
18
48
1
60
0
100
AcDbSpline
70
4
71
3
72
11
73
7
40
0
40
0
40
0
40
0
40
0.249163969506897
40
0.506175215428542
40
0.749069497000682
40
1
40
1
40
1
40
1
41
1
10
27.2095905686349
20
5.0625
30
0
41
1
10
26.9774182676194
20
5.01687201661774
30
0
41
1
10
26.4951273071614
20
4.94729711377286
30
0
41
1
10
25.7387642697602
20
4.90871073005972
30
0
41
1
10
24.9697698223879
20
4.94882851337591
30
0
41
1
10
24.4785795807036
20
5.01656547364089
30
0
41
1
10
24.2309107794398
20
5.0625
30
0
0
SPLINE
5
338
100
AcDbEntity
8
1
62
256
6
ByLayer
370
18
48
1
60
0
100
AcDbSpline
70
4
71
1
72
4
73
2
40
0
40
0
40
1
40
1
41
1
10
24.3376740802948
20
5.82333081762733
30
0
41
1
10
23.6954393194634
20
5.4375
30
0
0
SPLINE
5
339
100
AcDbEntity
8
1
62
256
6
ByLayer
370
18
48
1
60
0
100
AcDbSpline
70
4
71
3
72
16
73
12
40
0
40
0
40
0
40
0
40
0.0166385991350988
40
0.0775410699105743
40
0.125151473255312
40
0.172834035619336
40
0.234074875777406
40
0.333692223030473
40
0.527629321342013
40
0.876796659299184
40
1
40
1
40
1
40
1
41
1
10
24.3376740802948
20
5.82333081762733
30
0
41
1
10
24.3400811092499
20
5.82471566084615
30
0
41
1
10
24.3507750918295
20
5.831606638689
30
0
41
1
10
24.3654972293415
20
5.84576043373412
30
0
41
1
10
24.3738807385243
20
5.86973891743753
30
0
41
1
10
24.3709858150011
20
5.8973125200107
30
0
41
1
10
24.3529986487039
20
5.93414278329568
30
0
41
1
10
24.3037944596949
20
5.99045231699643
30
0
41
1
10
24.1933473942015
20
6.07404480140349
30
0
41
1
10
24.0675197784344
20
6.13864989568958
30
0
41
1
10
23.9788801151451
20
6.16957759004901
30
0
41
1
10
23.9555813189967
20
6.17666918237203
30
0
0
SPLINE
5
33A
100
AcDbEntity
8
1
62
256
6
ByLayer
370
18
48
1
60
0
100
AcDbSpline
70
4
71
2
72
6
73
3
40
0
40
0
40
0
40
1
40
1
40
1
41
1
10
23.9555813189967
20
6.17666918237203
30
0
41
1
10
23.3915483957894
20
6.35041036822271
30
0
41
1
10
22.8794123153969
20
6.5625
30
0
0
SPLINE
5
33B
100
AcDbEntity
8
1
62
256
6
ByLayer
370
18
48
1
60
0
100
AcDbSpline
70
4
71
1
72
4
73
2
40
0
40
0
40
1
40
1
41
1
10
23.3987807647537
20
7.32333081762014
30
0
41
1
10
22.7477709148421
20
6.9375
30
0
0
SPLINE
5
33C
100
AcDbEntity
8
1
62
256
6
ByLayer
370
18
48
1
60
0
100
AcDbSpline
70
4
71
3
72
15
73
11
40
0
40
0
40
0
40
0
40
0.0588376979507982
40
0.208160992719024
40
0.327428930223716
40
0.447306275363759
40
0.553885278125365
40
0.662911353413003
40
0.821328461498077
40
1
40
1
40
1
40
1
41
1
10
23.3987807647537
20
7.32333081762014
30
0
41
1
10
23.4051788991557
20
7.32698538178061
30
0
41
1
10
23.4268129400929
20
7.34152857137662
30
0
41
1
10
23.4571374960568
20
7.37312512995685
30
0
41
1
10
23.4805895957197
20
7.42491417340195
30
0
41
1
10
23.4870621337791
20
7.47968166776641
30
0
41
1
10
23.4784505648974
20
7.53344072527214
30
0
41
1
10
23.4559860175827
20
7.58772057422888
30
0
41
1
10
23.415356762082
20
7.63964485883084
30
0
41
1
10
23.3793914119126
20
7.66614982872112
30
0
41
1
10
23.3581383916379
20
7.67666918237203
30
0
0
SPLINE
5
33D
100
AcDbEntity
8
1
62
256
6
ByLayer
370
18
48
1
60
0
100
AcDbSpline
70
4
71
1
72
4
73
2
40
0
40
0
40
1
40
1
41
1
10
23.3581383916379
20
7.67666918237203
30
0
41
1
10
22.6450637863948
20
8.0625
30
0
0
SPLINE
5
33E
100
AcDbEntity
8
1
62
256
6
ByLayer
370
18
48
1
60
0
100
AcDbSpline
70
4
71
1
72
4
73
2
40
0
40
0
40
1
40
1
41
1
10
23.5911913417853
20
8.82333081762798
30
0
41
1
10
22.7027030983127
20
8.4375
30
0
0
SPLINE
5
33F
100
AcDbEntity
8
1
62
256
6
ByLayer
370
18
48
1
60
0
100
AcDbSpline
70
4
71
3
72
15
73
11
40
0
40
0
40
0
40
0
40
0.0616231062965019
40
0.370979135519812
40
0.524086629948388
40
0.643027030427346
40
0.731153887696876
40
0.819791734300047
40
0.898486701878987
40
1
40
1
40
1
40
1
41
1
10
23.5911913417853
20
8.82333081762798
30
0
41
1
10
23.6000568634546
20
8.82681127930169
30
0
41
1
10
23.6528958082368
20
8.84964767610759
30
0
41
1
10
23.7272212298404
20
8.8981017420999
30
0
41
1
10
23.7964298347496
20
8.97372056356611
30
0
41
1
10
23.8293348669445
20
9.02916945551078
30
0
41
1
10
23.8437674784686
20
9.07799338054341
30
0
41
1
10
23.842354666091
20
9.11846007407228
30
0
41
1
10
23.8260421665639
20
9.15299434945914
30
0
41
1
10
23.8088342476362
20
9.16944352441008
30
0
41
1
10
23.7967229470521
20
9.17666918237203
30
0
0
SPLINE
5
340
100
AcDbEntity
8
1
62
256
6
ByLayer
370
18
48
1
60
0
100
AcDbSpline
70
4
71
1
72
4
73
2
40
0
40
0
40
1
40
1
41
1
10
23.7967229470521
20
9.17666918237203
30
0
41
1
10
23.1949053979104
20
9.5625
30
0
0
SPLINE
5
341
100
AcDbEntity
8
1
62
256
6
ByLayer
370
18
48
1
60
0
100
AcDbSpline
70
4
71
3
72
14
73
10
40
0
40
0
40
0
40
0
40
0.193282472463048
40
0.293414231656367
40
0.393480440001132
40
0.522953551073207
40
0.652457557278921
40
0.825976918022828
40
1
40
1
40
1
40
1
41
1
10
27.9360424919707
20
9.9375
30
0
41
1
10
27.6877110122512
20
10.017461352903
30
0
41
1
10
27.2922164421035
20
10.1191437223896
30
0
41
1
10
26.7235664366428
20
10.2191788691842
30
0
41
1
10
26.2265727868937
20
10.2737168947876
30
0
41
1
10
25.665281321603
20
10.2892134952415
30
0
41
1
10
24.9843962667581
20
10.2493675770822
30
0
41
1
10
24.2524703213519
20
10.1311214264783
30
0
41
1
10
23.7497494513022
20
10.0095088110297
30
0
41
1
10
23.504458856104
20
9.9375
30
0
0
SPLINE
5
342
100
AcDbEntity
8
1
62
256
6
ByLayer
370
18
48
1
60
0
100
AcDbSpline
70
4
71
1
72
4
73
2
40
0
40
0
40
1
40
1
41
1
10
28.2455959501643
20
9.5625
30
0
41
1
10
27.7602670328977
20
9.17666918237203
30
0
0
SPLINE
5
343
100
AcDbEntity
8
1
62
256
6
ByLayer
370
18
48
1
60
0
100
AcDbSpline
70
4
71
3
72
16
73
12
40
0
40
0
40
0
40
0
40
0.0034390578034673
40
0.106874529453902
40
0.18974092421892
40
0.235160878913155
40
0.334016677593103
40
0.431992677920189
40
0.590724482391184
40
0.830337215394597
40
1
40
1
40
1
40
1
41
1
10
27.7602670328977
20
9.17666918237203
30
0
41
1
10
27.7599551622131
20
9.17642172081223
30
0
41
1
10
27.7503258404731
20
9.16865810574807
30
0
41
1
10
27.7355711473126
20
9.1511395796448
30
0
41
1
10
27.7273494767377
20
9.12044929996999
30
0
41
1
10
27.7277800253737
20
9.08584550904326
30
0
41
1
10
27.7384335140387
20
9.04539901181661
30
0
41
1
10
27.7677817874894
20
8.98912845811309
30
0
41
1
10
27.8219099891276
20
8.9207179357725
30
0
41
1
10
27.8926944789933
20
8.86182177506605
30
0
41
1
10
27.9440540337652
20
8.83292892545153
30
0
41
1
10
27.9657986381645
20
8.82333081762798
30
0
0
SPLINE
5
344
100
AcDbEntity
8
1
62
256
6
ByLayer
370
18
48
1
60
0
100
AcDbSpline
70
4
71
1
72
4
73
2
40
0
40
0
40
1
40
1
41
1
10
28.737798249762
20
8.4375
30
0
41
1
10
27.9657986381645
20
8.82333081762798
30
0
0
SPLINE
5
345
100
AcDbEntity
8
1
62
256
6
ByLayer
370
18
48
1
60
0
100
AcDbSpline
70
4
71
1
72
4
73
2
40
0
40
0
40
1
40
1
41
1
10
28.7954375616799
20
8.0625
30
0
41
1
10
28.1988515883119
20
7.67666918237203
30
0
0
SPLINE
5
346
100
AcDbEntity
8
1
62
256
6
ByLayer
370
18
48
1
60
0
100
AcDbSpline
70
4
71
3
72
16
73
12
40
0
40
0
40
0
40
0
40
0.0164761074103772
40
0.210710749019266
40
0.358416753285492
40
0.407933316071605
40
0.517494931320687
40
0.627379952050116
40
0.732727546470833
40
0.845177137729673
40
1
40
1
40
1
40
1
41
1
10
28.1988515883119
20
7.67666918237203
30
0
41
1
10
28.1972608844915
20
7.67568869394725
30
0
41
1
10
28.1770439751158
20
7.66276742151076
30
0
41
1
10
28.1441326929462
20
7.63288968543441
30
0
41
1
10
28.1155063501342
20
7.58474385640654
30
0
41
1
10
28.0990832463136
20
7.54110735532229
30
0
41
1
10
28.0896056573739
20
7.49889516478128
30
0
41
1
10
28.0892560783686
20
7.44648935854967
30
0
41
1
10
28.0999928969115
20
7.39876318709043
30
0
41
1
10
28.1226195029504
20
7.35489990684295
30
0
41
1
10
28.1438327704732
20
7.33291625174831
30
0
41
1
10
28.1582092151952
20
7.32333081762798
30
0
0
SPLINE
5
347
100
AcDbEntity
8
1
62
256
6
ByLayer
370
18
48
1
60
0
100
AcDbSpline
70
4
71
1
72
4
73
2
40
0
40
0
40
1
40
1
41
1
10
28.6927304332326
20
6.9375
30
0
41
1
10
28.1582092151952
20
7.32333081762798
30
0
0
SPLINE
5
348
100
AcDbEntity
8
1
62
256
6
ByLayer
370
18
48
1
60
0
100
AcDbSpline
70
4
71
2
72
6
73
3
40
0
40
0
40
0
40
1
40
1
40
1
41
1
10
28.5610890326778
20
6.5625
30
0
41
1
10
28.1129724414812
20
6.35042647542474
30
0
41
1
10
27.6014086609531
20
6.17666918237203
30
0
0
SPLINE
5
349
100
AcDbEntity
8
1
62
256
6
ByLayer
370
18
48
1
60
0
100
AcDbSpline
70
4
71
3
72
16
73
12
40
0
40
0
40
0
40
0
40
0.323531520305343
40
0.55882729948131
40
0.683463485359682
40
0.772039677815418
40
0.828483132311807
40
0.875956611269966
40
0.923484134982785
40
0.985805790712122
40
1
40
1
40
1
40
1
41
1
10
27.6014086609531
20
6.17666918237203
30
0
41
1
10
27.5446974299614
20
6.1577246898555
30
0
41
1
10
27.4480757749598
20
6.11340206367003
30
0
41
1
10
27.3281242783163
20
6.03587787066068
30
0
41
1
10
27.2552160654513
20
5.97345240563953
30
0
41
1
10
27.2173996364438
20
5.92987923206844
30
0
41
1
10
27.1986955795569
20
5.89583676699674
30
0
41
1
10
27.1928652391466
20
5.86919153041554
30
0
41
1
10
27.1974750598853
20
5.84514455481444
30
0
41
1
10
27.2089580241683
20
5.83125988981491
30
0
41
1
10
27.217625822169
20
5.82451403604566
30
0
41
1
10
27.2193158996547
20
5.8233308176278
30
0
0
SPLINE
5
34A
100
AcDbEntity
8
1
62
256
6
ByLayer
370
18
48
1
60
0
100
AcDbSpline
70
4
71
1
72
4
73
2
40
0
40
0
40
1
40
1
41
1
10
27.7450620286113
20
5.4375
30
0
41
1
10
27.2193158996547
20
5.8233308176278
30
0
0
SPLINE
5
34B
100
AcDbEntity
8
1
62
256
6
ByLayer
370
18
48
1
60
0
100
AcDbSpline
70
4
71
2
72
6
73
3
40
0
40
0
40
0
40
1
40
1
40
1
41
1
10
22.4817079633858
20
-3.9375
30
0
41
1
10
21.8388470390398
20
-4.15359916661281
30
0
41
1
10
21.1383117901375
20
-4.32333081762798
30
0
0
SPLINE
5
34C
100
AcDbEntity
8
1
62
256
6
ByLayer
370
18
48
1
60
0
100
AcDbSpline
70
4
71
2
72
6
73
3
40
0
40
0
40
0
40
1
40
1
40
1
41
1
10
22.4817079633858
20
3.9375
30
0
41
1
10
21.8388470390397
20
4.15359916661281
30
0
41
1
10
21.1383117901375
20
4.32333081762798
30
0
0
SPLINE
5
34D
100
AcDbEntity
8
1
62
256
6
ByLayer
370
18
48
1
60
0
100
AcDbSpline
70
4
71
1
72
4
73
2
40
0
40
0
40
1
40
1
41
1
10
21.1798379768653
20
5.0625
30
0
41
1
10
20.5806476815481
20
4.67666918237202
30
0
0
SPLINE
5
34E
100
AcDbEntity
8
1
62
256
6
ByLayer
370
18
48
1
60
0
100
AcDbSpline
70
4
71
1
72
4
73
2
40
0
40
0
40
1
40
1
41
1
10
21.1798379768653
20
-5.0625
30
0
41
1
10
20.5806476815481
20
-4.67666918237202
30
0
0
SPLINE
5
34F
100
AcDbEntity
8
1
62
256
6
ByLayer
370
18
48
1
60
0
100
AcDbSpline
70
4
71
3
72
13
73
9
40
0
40
0
40
0
40
0
40
0.138503429267401
40
0.276979714594085
40
0.419761610422198
40
0.562533970970031
40
0.77920580944632
40
1
40
1
40
1
40
1
41
1
10
20.4984754001822
20
5.4375
30
0
41
1
10
20.2777129308801
20
5.47416670091035
30
0
41
1
10
19.8305480378917
20
5.53787977812949
30
0
41
1
10
19.1341568677772
20
5.60687504674456
30
0
41
1
10
18.4160736179497
20
5.64345949570751
30
0
41
1
10
17.5553423727425
20
5.64647694265611
30
0
41
1
10
16.5549178300067
20
5.58850401805125
30
0
41
1
10
15.8157993008285
20
5.49675157724447
30
0
41
1
10
15.4448733670318
20
5.4375
30
0
0
SPLINE
5
350
100
AcDbEntity
8
1
62
256
6
ByLayer
370
18
48
1
60
0
100
AcDbSpline
70
4
71
3
72
13
73
9
40
0
40
0
40
0
40
0
40
0.1385034292674
40
0.276979714594086
40
0.419761610422197
40
0.56253397097003
40
0.77920580944632
40
1
40
1
40
1
40
1
41
1
10
20.4984754001822
20
-5.4375
30
0
41
1
10
20.27771293088
20
-5.47416670091035
30
0
41
1
10
19.8305480378917
20
-5.53787977812949
30
0
41
1
10
19.1341568677772
20
-5.60687504674456
30
0
41
1
10
18.4160736179497
20
-5.64345949570751
30
0
41
1
10
17.5553423727425
20
-5.64647694265611
30
0
41
1
10
16.5549178300067
20
-5.58850401805125
30
0
41
1
10
15.8157993008285
20
-5.49675157724447
30
0
41
1
10
15.4448733670318
20
-5.4375
30
0
0
SPLINE
5
351
100
AcDbEntity
8
1
62
256
6
ByLayer
370
18
48
1
60
0
100
AcDbSpline
70
4
71
1
72
4
73
2
40
0
40
0
40
1
40
1
41
1
10
15.4791897175409
20
-4.67666918237202
30
0
41
1
10
14.7635107903487
20
-5.0625
30
0
0
SPLINE
5
352
100
AcDbEntity
8
1
62
256
6
ByLayer
370
18
48
1
60
0
100
AcDbSpline
70
4
71
3
72
16
73
12
40
0
40
0
40
0
40
0
40
0.0036872880108772
40
0.0541392891605897
40
0.0859241501032208
40
0.11783428302831
40
0.15526597157527
40
0.215248917242416
40
0.34084876242439
40
0.714162969146271
40
1
40
1
40
1
40
1
41
1
10
15.4791897175409
20
-4.67666918237202
30
0
41
1
10
15.4798831386524
20
-4.67631100124214
30
0
41
1
10
15.4899350858498
20
-4.67094517497852
30
0
41
1
10
15.5043290530413
20
-4.66030611208258
30
0
41
1
10
15.5142195377499
20
-4.64036182433387
30
0
41
1
10
15.5136873882257
20
-4.61965494962379
30
0
41
1
10
15.5012511287095
20
-4.59300666381071
30
0
41
1
10
15.4639626730524
20
-4.55190206750419
30
0
41
1
10
15.3439175770071
20
-4.46905579631697
30
0
41
1
10
15.1522097776615
20
-4.38707179089046
30
0
41
1
10
14.9924174853079
20
-4.3390577495985
30
0
41
1
10
14.9215256089516
20
-4.32333081762797
30
0
0
SPLINE
5
353
100
AcDbEntity
8
1
62
256
6
ByLayer
370
18
48
1
60
0
100
AcDbSpline
70
4
71
2
72
6
73
3
40
0
40
0
40
0
40
1
40
1
40
1
41
1
10
14.9215256089516
20
-4.32333081762797
30
0
41
1
10
14.1697464288332
20
-4.15360745153181
30
0
41
1
10
13.4616408038282
20
-3.9375
30
0
0
SPLINE
5
354
100
AcDbEntity
8
1
62
256
6
ByLayer
370
18
48
1
60
0
100
AcDbSpline
70
4
71
1
72
4
73
2
40
0
40
0
40
1
40
1
41
1
10
13.7641545833907
20
-3.17666918237377
30
0
41
1
10
13.1621485448776
20
-3.5625
30
0
0
SPLINE
5
355
100
AcDbEntity
8
1
62
256
6
ByLayer
370
18
48
1
60
0
100
AcDbSpline
70
4
71
3
72
16
73
12
40
0
40
0
40
0
40
0
40
0.0282811756148241
40
0.116950804979401
40
0.192129557537355
40
0.267460506212701
40
0.340906789726745
40
0.459329757407729
40
0.647298532162664
40
0.942234581305889
40
1
40
1
40
1
40
1
41
1
10
13.7641545833907
20
-3.17666918237377
30
0
41
1
10
13.7674962423335
20
-3.17456613875201
30
0
41
1
10
13.7806118794655
20
-3.16513994975688
30
0
41
1
10
13.7988116974203
20
-3.14491873406811
30
0
41
1
10
13.8098493004473
20
-3.11059552635101
30
0
41
1
10
13.8073725522326
20
-3.07322392350691
30
0
41
1
10
13.79114788616
20
-3.02827974523447
30
0
41
1
10
13.7517615726927
20
-2.96943058815639
30
0
41
1
10
13.6705150492549
20
-2.89414990441245
30
0
41
1
10
13.5875577976359
20
-2.8475091503001
30
0
41
1
10
13.5332476512662
20
-2.82650988061668
30
0
41
1
10
13.5242922534214
20
-2.82333081762797
30
0
0
SPLINE
5
356
100
AcDbEntity
8
1
62
256
6
ByLayer
370
18
48
1
60
0
100
AcDbSpline
70
4
71
1
72
4
73
2
40
0
40
0
40
1
40
1
41
1
10
13.5242922534214
20
-2.82333081762797
30
0
41
1
10
12.5099654056568
20
-2.4375
30
0
0
SPLINE
5
357
100
AcDbEntity
8
1
62
256
6
ByLayer
370
18
48
1
60
0
100
AcDbSpline
70
4
71
1
72
4
73
2
40
0
40
0
40
1
40
1
41
1
10
12.987949718529
20
-1.67666918240465
30
0
41
1
10
12.3587476513731
20
-2.0625
30
0
0
SPLINE
5
358
100
AcDbEntity
8
1
62
256
6
ByLayer
370
18
48
1
60
0
100
AcDbSpline
70
4
71
3
72
15
73
11
40
0
40
0
40
0
40
0
40
0.0914641776030131
40
0.212370023069685
40
0.312362243117637
40
0.412580845548293
40
0.508969735830361
40
0.645842985397264
40
0.837084243041863
40
1
40
1
40
1
40
1
41
1
10
12.987949718529
20
-1.67666918240465
30
0
41
1
10
12.9981150722439
20
-1.6707278466205
30
0
41
1
10
13.0193117647841
20
-1.6539565090046
30
0
41
1
10
13.0445549356162
20
-1.61916228083624
30
0
41
1
10
13.0574294898387
20
-1.5724533294344
30
0
41
1
10
13.0556189409693
20
-1.52404825575817
30
0
41
1
10
13.0394999465536
20
-1.47077778046859
30
0
41
1
10
13.0037555099347
20
-1.41082139709315
30
0
41
1
10
12.9486421435931
20
-1.35840213933028
30
0
41
1
10
12.9056837947006
20
-1.33258263495202
30
0
41
1
10
12.8846865090516
20
-1.32333081762797
30
0
0
SPLINE
5
359
100
AcDbEntity
8
1
62
256
6
ByLayer
370
18
48
1
60
0
100
AcDbSpline
70
4
71
1
72
4
73
2
40
0
40
0
40
1
40
1
41
1
10
12.8846865090516
20
-1.32333081762797
30
0
41
1
10
12.0679205282507
20
-0.9375
30
0
0
SPLINE
5
35A
100
AcDbEntity
8
1
62
256
6
ByLayer
370
18
48
1
60
0
100
AcDbSpline
70
4
71
1
72
4
73
2
40
0
40
0
40
1
40
1
41
1
10
12.7214027608016
20
-0.176669182372024
30
0
41
1
10
12.0208310177328
20
-0.5625
30
0
0
SPLINE
5
35B
100
AcDbEntity
8
1
62
256
6
ByLayer
370
18
48
1
60
0
100
AcDbSpline
70
4
71
3
72
16
73
12
40
0
40
0
40
0
40
0
40
0.0196347939311266
40
0.194957565998123
40
0.330739429471276
40
0.442263980794451
40
0.554179188633043
40
0.657902620171105
40
0.769432770174133
40
0.942665497208705
40
1
40
1
40
1
40
1
41
1
10
12.7214027608016
20
-0.176669182372024
30
0
41
1
10
12.7236108878791
20
-0.175477231935354
30
0
41
1
10
12.7453212053075
20
-0.163188799090044
30
0
41
1
10
12.7801012337642
20
-0.135102649809933
30
0
41
1
10
12.813627456074
20
-0.0827421532063752
30
0
41
1
10
12.8294626106967
20
-0.0281833934519273
30
0
41
1
10
12.8296825803285
20
0.0253114505556592
30
0
41
1
10
12.8161460887257
20
0.0753097672898034
30
0
41
1
10
12.7877342372682
20
0.125571180064102
30
0
41
1
10
12.7531463915461
20
0.157700991612235
30
0
41
1
10
12.7278902989679
20
0.173206258291658
30
0
41
1
10
12.7214027608016
20
0.176669182372027
30
0
0
SPLINE
5
35C
100
AcDbEntity
8
1
62
256
6
ByLayer
370
18
48
1
60
0
100
AcDbSpline
70
4
71
1
72
4
73
2
40
0
40
0
40
1
40
1
41
1
10
12.7214027608016
20
0.176669182372027
30
0
41
1
10
12.0208310177328
20
0.5625
30
0
0
SPLINE
5
35D
100
AcDbEntity
8
1
62
256
6
ByLayer
370
18
48
1
60
0
100
AcDbSpline
70
4
71
1
72
4
73
2
40
0
40
0
40
1
40
1
41
1
10
12.8846865090514
20
1.32333081762732
30
0
41
1
10
12.0679205282507
20
0.937499999999999
30
0
0
SPLINE
5
35E
100
AcDbEntity
8
1
62
256
6
ByLayer
370
18
48
1
60
0
100
AcDbSpline
70
4
71
3
72
16
73
12
40
0
40
0
40
0
40
0
40
0.070478851354381
40
0.279413562919615
40
0.428342795711295
40
0.545942351574598
40
0.645251473649722
40
0.744744990694726
40
0.841436565890404
40
0.982287509244991
40
1
40
1
40
1
40
1
41
1
10
12.8846865090514
20
1.32333081762732
30
0
41
1
10
12.8936084875099
20
1.32736331608352
30
0
41
1
10
12.9282821766364
20
1.34526299576638
30
0
41
1
10
12.9794410905191
20
1.38389650491495
30
0
41
1
10
13.0259363951195
20
1.44412920219197
30
0
41
1
10
13.0503395625425
20
1.50011121425432
30
0
41
1
10
13.0583787714871
20
1.55200229842205
30
0
41
1
10
13.052136220054
20
1.59793182756296
30
0
41
1
10
13.0313499179335
20
1.64136977643446
30
0
41
1
10
13.006758075778
20
1.66466674825895
30
0
41
1
10
12.9898685769402
20
1.67550577428041
30
0
41
1
10
12.9879497185398
20
1.67666918237203
30
0
0
SPLINE
5
35F
100
AcDbEntity
8
1
62
256
6
ByLayer
370
18
48
1
60
0
100
AcDbSpline
70
4
71
1
72
4
73
2
40
0
40
0
40
1
40
1
41
1
10
12.9879497185398
20
1.67666918237203
30
0
41
1
10
12.3587476513731
20
2.0625
30
0
0
SPLINE
5
360
100
AcDbEntity
8
1
62
256
6
ByLayer
370
18
48
1
60
0
100
AcDbSpline
70
4
71
1
72
4
73
2
40
0
40
0
40
1
40
1
41
1
10
13.5242922534214
20
2.82333081762798
30
0
41
1
10
12.5099654056568
20
2.4375
30
0
0
SPLINE
5
361
100
AcDbEntity
8
1
62
256
6
ByLayer
370
18
48
1
60
0
100
AcDbSpline
70
4
71
3
72
15
73
11
40
0
40
0
40
0
40
0
40
0.299682592916401
40
0.483620350082236
40
0.617555281496033
40
0.708790558890593
40
0.784475526947055
40
0.860347160003644
40
0.933456875059291
40
1
40
1
40
1
40
1
41
1
10
13.5242922534214
20
2.82333081762798
30
0
41
1
10
13.5724520412698
20
2.83965342583375
30
0
41
1
10
13.645118616183
20
2.87771425148749
30
0
41
1
10
13.7322737133074
20
2.9490242189734
30
0
41
1
10
13.7800098658198
20
3.00843177596428
30
0
41
1
10
13.8036090212189
20
3.05815679342828
30
0
41
1
10
13.8105096165079
20
3.09930126284625
30
0
41
1
10
13.803945873635
20
3.13365908525065
30
0
41
1
10
13.7868928493808
20
3.15937124986466
30
0
41
1
10
13.772205039047
20
3.17175147091818
30
0
41
1
10
13.7641545833911
20
3.17666918237203
30
0
0
SPLINE
5
362
100
AcDbEntity
8
1
62
256
6
ByLayer
370
18
48
1
60
0
100
AcDbSpline
70
4
71
1
72
4
73
2
40
0
40
0
40
1
40
1
41
1
10
13.7641545833911
20
3.17666918237203
30
0
41
1
10
13.1621485448776
20
3.5625
30
0
0
SPLINE
5
363
100
AcDbEntity
8
1
62
256
6
ByLayer
370
18
48
1
60
0
100
AcDbSpline
70
4
71
2
72
6
73
3
40
0
40
0
40
0
40
1
40
1
40
1
41
1
10
14.9215256089516
20
4.32333081762798
30
0
41
1
10
14.1697464288332
20
4.15360745153182
30
0
41
1
10
13.4616408038282
20
3.9375
30
0
0
SPLINE
5
364
100
AcDbEntity
8
1
62
256
6
ByLayer
370
18
48
1
60
0
100
AcDbSpline
70
4
71
3
72
16
73
12
40
0
40
0
40
0
40
0
40
0.164220066210389
40
0.60415356131969
40
0.737462949623175
40
0.80473876999607
40
0.855104961766693
40
0.888717339325822
40
0.922553218647883
40
0.952703388141876
40
1
40
1
40
1
40
1
41
1
10
14.9215256089516
20
4.32333081762798
30
0
41
1
10
14.9619100022314
20
4.33241419007759
30
0
41
1
10
15.1090701369176
20
4.37172592132113
30
0
41
1
10
15.291529344418
20
4.44241374044381
30
0
41
1
10
15.4344095288379
20
4.52989023845196
30
0
41
1
10
15.4829750598397
20
4.57148525141732
30
0
41
1
10
15.5057027015809
20
4.60049958010512
30
0
41
1
10
15.5147365409286
20
4.62496941071951
30
0
41
1
10
15.5130713382176
20
4.64458077779607
30
0
41
1
10
15.5011759961747
20
4.66285099362646
30
0
41
1
10
15.4887615173108
20
4.67221250353507
30
0
41
1
10
15.479189717541
20
4.67666918237203
30
0
0
SPLINE
5
365
100
AcDbEntity
8
1
62
256
6
ByLayer
370
18
48
1
60
0
100
AcDbSpline
70
4
71
1
72
4
73
2
40
0
40
0
40
1
40
1
41
1
10
15.479189717541
20
4.67666918237203
30
0
41
1
10
14.7635107903487
20
5.0625
30
0
0
SPLINE
5
366
100
AcDbEntity
8
1
62
256
6
ByLayer
370
18
48
1
60
0
100
AcDbSpline
70
4
71
3
72
16
73
12
40
0
40
0
40
0
40
0
40
0.019218315926954
40
0.0551939825783648
40
0.09149616057753
40
0.124033459791216
40
0.164040125766862
40
0.231519493700831
40
0.412598107936325
40
0.800852403066912
40
1
40
1
40
1
40
1
41
1
10
20.5806476815481
20
4.67666918237202
30
0
41
1
10
20.5775461656128
20
4.67482361649984
30
0
41
1
10
20.5693836463092
20
4.66894421382056
30
0
41
1
10
20.5583222334277
20
4.6567810223982
30
0
41
1
10
20.5534480694502
20
4.63792939187181
30
0
41
1
10
20.5590358001717
20
4.61537285989028
30
0
41
1
10
20.5774930692195
20
4.58686677202156
30
0
41
1
10
20.632191809914
20
4.53542653764659
30
0
41
1
10
20.7765073876276
20
4.44861168463549
30
0
41
1
10
20.9576755750031
20
4.37376551962547
30
0
41
1
10
21.0925724403621
20
4.33437362649118
30
0
41
1
10
21.1383117901375
20
4.32333081762798
30
0
0
SPLINE
5
367
100
AcDbEntity
8
1
62
256
6
ByLayer
370
18
48
1
60
0
100
AcDbSpline
70
4
71
3
72
15
73
11
40
0
40
0
40
0
40
0
40
0.0928064737756368
40
0.133357701644474
40
0.211619976531279
40
0.289906627177245
40
0.385556047750247
40
0.52803144012827
40
0.759305024293059
40
1
40
1
40
1
40
1
41
1
10
22.295682815698
20
3.17666918237202
30
0
41
1
10
22.2864515114722
20
3.16978631569045
30
0
41
1
10
22.2760401775168
20
3.15716585632695
30
0
41
1
10
22.2653965750354
20
3.13103108244994
30
0
41
1
10
22.2625990292715
20
3.10120286913673
30
0
41
1
10
22.2725451830645
20
3.05845219210287
30
0
41
1
10
22.2992267976677
20
3.00612852998186
30
0
41
1
10
22.3537415500997
20
2.93868027703597
30
0
41
1
10
22.4369115356519
20
2.87137342515931
30
0
41
1
10
22.5015021489038
20
2.8364630165685
30
0
41
1
10
22.5355451456678
20
2.82333081762702
30
0
0
SPLINE
5
368
100
AcDbEntity
8
1
62
256
6
ByLayer
370
18
48
1
60
0
100
AcDbSpline
70
4
71
3
72
16
73
12
40
0
40
0
40
0
40
0
40
0.116668842303301
40
0.231238195878075
40
0.268311428895906
40
0.36859562364684
40
0.468795580432899
40
0.570273823256913
40
0.730501667472926
40
0.956336975438755
40
1
40
1
40
1
40
1
41
1
10
23.0718876805493
20
1.67666918237202
30
0
41
1
10
23.0611465451212
20
1.66909660461764
30
0
41
1
10
23.0430758434672
20
1.65000639995393
30
0
41
1
10
23.0277781959225
20
1.61808867816614
30
0
41
1
10
23.020123281304
20
1.58281388036378
30
0
41
1
10
23.018916122058
20
1.54525415728771
30
0
41
1
10
23.029299023392
20
1.49587429121425
30
0
41
1
10
23.0525633487519
20
1.44112260449894
30
0
41
1
10
23.095953992927
20
1.37963913844184
30
0
41
1
10
23.1413632151311
20
1.34242619723259
30
0
41
1
10
23.1704008095326
20
1.32583376337337
30
0
41
1
10
23.1751508900375
20
1.32333081762796
30
0
0
SPLINE
5
369
100
AcDbEntity
8
1
62
256
6
ByLayer
370
18
48
1
60
0
100
AcDbSpline
70
4
71
3
72
15
73
11
40
0
40
0
40
0
40
0
40
0.0645635365713763
40
0.262374368786694
40
0.378942750998467
40
0.496146948579335
40
0.603118069952118
40
0.708463578455112
40
0.859826296852324
40
1
40
1
40
1
40
1
41
1
10
23.3384346382875
20
0.176669182372021
30
0
41
1
10
23.332310622146
20
0.172779653664333
30
0
41
1
10
23.308399856634
20
0.154934695228074
30
0
41
1
10
23.276881498753
20
0.117406910751153
30
0
41
1
10
23.2537147501212
20
0.0579560479064384
30
0
41
1
10
23.2465173690095
20
0.0033919653985978
30
0
41
1
10
23.2521105286154
20
-0.0495552471351118
30
0
41
1
10
23.2694915262448
20
-0.101515917212
30
0
41
1
10
23.2992686790923
20
-0.145893294282243
30
0
41
1
10
23.3248550134846
20
-0.168274975368288
30
0
41
1
10
23.3384346382913
20
-0.17666918238648
30
0
0
SPLINE
5
36A
100
AcDbEntity
8
1
62
256
6
ByLayer
370
18
48
1
60
0
100
AcDbSpline
70
4
71
3
72
16
73
12
40
0
40
0
40
0
40
0
40
0.225923098626179
40
0.26865657799987
40
0.425340595489102
40
0.542700923886189
40
0.642359048121447
40
0.742218508195452
40
0.838790754833409
40
0.978663341536184
40
1
40
1
40
1
40
1
41
1
10
23.1751508900375
20
-1.32333081762798
30
0
41
1
10
23.1499386819375
20
-1.33627951734636
30
0
41
1
10
23.1217570498883
20
-1.35751118861795
30
0
41
1
10
23.0803359650734
20
-1.40192077135959
30
0
41
1
10
23.0520251505333
20
-1.44171932100528
30
0
41
1
10
23.0281137504442
20
-1.49866301853711
30
0
41
1
10
23.0185058800838
20
-1.55061478557322
30
0
41
1
10
23.0212538807649
20
-1.5967890117079
30
0
41
1
10
23.0363877188342
20
-1.64039634733449
30
0
41
1
10
23.0560673071237
20
-1.66416852279949
30
0
41
1
10
23.0700003094904
20
-1.67526883461261
30
0
41
1
10
23.0718876805493
20
-1.67666918237203
30
0
0
SPLINE
5
36B
100
AcDbEntity
8
1
62
256
6
ByLayer
370
18
48
1
60
0
100
AcDbSpline
70
4
71
3
72
15
73
11
40
0
40
0
40
0
40
0
40
0.226230210090836
40
0.446614426257561
40
0.587950806829752
40
0.702796412420692
40
0.779893548941615
40
0.857223822674989
40
0.930101066523387
40
1
40
1
40
1
40
1
41
1
10
22.5355451456677
20
-2.82333081762798
30
0
41
1
10
22.5036563128522
20
-2.83571140922007
30
0
41
1
10
22.4424027085158
20
-2.8682013157133
30
0
41
1
10
22.3625395551012
20
-2.93080799527276
30
0
41
1
10
22.3055535879775
20
-2.99672661530696
30
0
41
1
10
22.2749924415153
20
-3.05127029222758
30
0
41
1
10
22.263071821326
20
-3.09701781151823
30
0
41
1
10
22.2648709608635
20
-3.13214016613635
30
0
41
1
10
22.2770900190895
20
-3.15874072063488
30
0
41
1
10
22.2888159608722
20
-3.17150366593307
30
0
41
1
10
22.295682815698
20
-3.17666918237202
30
0
0
SPLINE
5
36C
100
AcDbEntity
8
1
62
256
6
ByLayer
370
18
48
1
60
0
100
AcDbSpline
70
4
71
3
72
17
73
13
40
0
40
0
40
0
40
0
40
0.0498069594642393
40
0.570963046723939
40
0.732919003711584
40
0.79057943761713
40
0.848614225497234
40
0.882577077129497
40
0.916799326770275
40
0.94720393703883
40
0.993652697179003
40
1
40
1
40
1
40
1
41
1
10
21.1383117901375
20
-4.32333081762798
30
0
41
1
10
21.1269541965959
20
-4.3260613836306
30
0
41
1
10
20.9967216114875
20
-4.35903317981434
30
0
41
1
10
20.8217069501446
20
-4.42422410217885
30
0
41
1
10
20.6539150094
20
-4.52208870838629
30
0
41
1
10
20.5974446954047
20
-4.56719643224855
30
0
41
1
10
20.5710938814633
20
-4.5951860804361
30
0
41
1
10
20.5567810118943
20
-4.62117386853684
30
0
41
1
10
20.5538014447873
20
-4.64133353625773
30
0
41
1
10
20.5603549759684
20
-4.66040121574337
30
0
41
1
10
20.5714734995414
20
-4.67076185036743
30
0
41
1
10
20.5796391360257
20
-4.67605432723175
30
0
41
1
10
20.5806476815481
20
-4.67666918237202
30
0
0
SPLINE
5
36D
100
AcDbEntity
8
1
62
256
6
ByLayer
370
18
48
1
60
0
100
AcDbSpline
70
4
71
3
72
24
73
20
40
0
40
0
40
0
40
0
40
0.0465117104524424
40
0.0990090313536047
40
0.177190701670575
40
0.257551149754822
40
0.338027212903526
40
0.42083621406379
40
0.48188867233149
40
0.544543301540705
40
0.60568085128627
40
0.669156129771894
40
0.722435060922255
40
0.777403700160962
40
0.828584387654546
40
0.881133947361228
40
0.934524283638722
40
0.989342788127986
40
1
40
1
40
1
40
1
41
1
10
26.1829196509081
20
5.73600806083548
30
0
41
1
10
26.0920897933018
20
5.75767796167646
30
0
41
1
10
25.9059184458637
20
5.81256824857221
30
0
41
1
10
25.6002935486233
20
5.94691510800338
30
0
41
1
10
25.2786376493807
20
6.15129188372792
30
0
41
1
10
24.969626368906
20
6.43642868858103
30
0
41
1
10
24.7136817149682
20
6.77933513867895
30
0
41
1
10
24.5409280763996
20
7.14238953816256
30
0
41
1
10
24.4443123090985
20
7.51014285556889
30
0
41
1
10
24.4136852347863
20
7.8601779678754
30
0
41
1
10
24.4473435585698
20
8.22608016066251
30
0
41
1
10
24.5463737406237
20
8.57150745735684
30
0
41
1
10
24.7026007145869
20
8.88760247168885
30
0
41
1
10
24.8966017130792
20
9.15594271015678
30
0
41
1
10
25.131515974081
20
9.38924767060702
30
0
41
1
10
25.398123112596
20
9.58141809452331
30
0
41
1
10
25.6987120442797
20
9.73244420198608
30
0
41
1
10
25.9363710930062
20
9.80709786534517
30
0
41
1
10
26.0698655416401
20
9.83519545538266
30
0
41
1
10
26.0916931049615
20
9.83943202398179
30
0
0
SPLINE
5
36E
100
AcDbEntity
8
1
62
256
6
ByLayer
370
18
48
1
60
0
100
AcDbSpline
70
4
71
1
72
4
73
2
40
0
40
0
40
1
40
1
41
1
10
1.66778150516502
20
-20.6927736736231
30
0
41
1
10
1.675
20
-20.6934052100889
30
0
0
SPLINE
5
36F
100
AcDbEntity
8
1
62
256
6
ByLayer
370
18
48
1
60
0
100
AcDbSpline
70
4
71
1
72
4
73
2
40
0
40
0
40
1
40
1
41
1
10
1.67486952899847
20
20.6933937953553
30
0
41
1
10
1.66778150516502
20
20.6927736736231
30
0
0
SPLINE
5
370
100
AcDbEntity
8
1
62
256
6
ByLayer
370
18
48
1
60
0
100
AcDbSpline
70
4
71
1
72
4
73
2
40
0
40
0
40
1
40
1
41
1
10
1.67489730897252
20
1.9723838154346
30
0
41
1
10
1.675
20
2.1030883983262
30
0
0
SPLINE
5
371
100
AcDbEntity
8
1
62
256
6
ByLayer
370
18
48
1
60
0
100
AcDbSpline
70
4
71
1
72
4
73
2
40
0
40
0
40
1
40
1
41
1
10
1.67495466839064
20
-2.01716052421201
30
0
41
1
10
1.67489730897252
20
1.9723838154346
30
0
0
SPLINE
5
372
100
AcDbEntity
8
1
62
256
6
ByLayer
370
18
48
1
60
0
100
AcDbSpline
70
4
71
1
72
4
73
2
40
0
40
0
40
1
40
1
41
1
10
1.675
20
20.6934052100889
30
0
41
1
10
1.67486952899847
20
20.6933937953553
30
0
0
SPLINE
5
373
100
AcDbEntity
8
1
62
256
6
ByLayer
370
18
48
1
60
0
100
AcDbSpline
70
4
71
2
72
6
73
3
40
0
40
0
40
0
40
1
40
1
40
1
41
1
10
0.343278579257489
20
9.1187928740291
30
0
41
1
10
-0.0372097028531991
20
7.88173052791111
30
0
41
1
10
-0.325000000000001
20
6.61172018086064
30
0
0
SPLINE
5
374
100
AcDbEntity
8
1
62
256
6
ByLayer
370
18
48
1
60
0
100
AcDbSpline
70
4
71
3
72
14
73
10
40
0
40
0
40
0
40
0
40
0.0623103518216198
40
0.18165621253532
40
0.267605111190378
40
0.353625913065656
40
0.468506553391068
40
0.663555228058957
40
1
40
1
40
1
40
1
41
1
10
0.34327857924075
20
9.76435133856303
30
0
41
1
10
0.347214695927328
20
9.76839913165587
30
0
41
1
10
0.358845891290919
20
9.77903269873495
30
0
41
1
10
0.377322319569324
20
9.79145668898983
30
0
41
1
10
0.397002275760511
20
9.79549683499389
30
0
41
1
10
0.413544611736596
20
9.79012741167564
30
0
41
1
10
0.429836972413398
20
9.77106934944366
30
0
41
1
10
0.443054992244436
20
9.72507283744321
30
0
41
1
10
0.446902707930008
20
9.6831731578063
30
0
41
1
10
0.445250819439455
20
9.65319653452221
30
0
0
SPLINE
5
375
100
AcDbEntity
8
1
62
256
6
ByLayer
370
18
48
1
60
0
100
AcDbSpline
70
4
71
1
72
4
73
2
40
0
40
0
40
1
40
1
41
1
10
0.34327857925749
20
9.76435133857409
30
0
41
1
10
-0.325000000000001
20
9.08445616148815
30
0
0
SPLINE
5
376
100
AcDbEntity
8
1
62
256
6
ByLayer
370
18
48
1
60
0
100
AcDbSpline
70
4
71
1
72
4
73
2
40
0
40
0
40
1
40
1
41
1
10
0.343278579257489
20
11.54046753934
30
0
41
1
10
-0.325000000000001
20
9.74178339679137
30
0
0
SPLINE
5
377
100
AcDbEntity
8
1
62
256
6
ByLayer
370
18
48
1
60
0
100
AcDbSpline
70
4
71
3
72
14
73
10
40
0
40
0
40
0
40
0
40
0.0951138196713952
40
0.251234824831263
40
0.368749334776952
40
0.486114072412527
40
0.656465668093017
40
0.947867871263961
40
1
40
1
40
1
40
1
41
1
10
0.343278579251496
20
12.0130158376624
30
0
41
1
10
0.348910212672857
20
12.018144316371
30
0
41
1
10
0.363738829287909
20
12.0299280809997
30
0
41
1
10
0.386556132654234
20
12.0424010202522
30
0
41
1
10
0.408246643388888
20
12.0439969399758
30
0
41
1
10
0.425734644034438
20
12.0348859932231
30
0
41
1
10
0.441054078202897
20
12.0082505162581
30
0
41
1
10
0.444963169803966
20
11.975439764124
30
0
41
1
10
0.445304168214723
20
11.9523608855338
30
0
41
1
10
0.445276696077769
20
11.9487961174387
30
0
0
SPLINE
5
378
100
AcDbEntity
8
1
62
256
6
ByLayer
370
18
48
1
60
0
100
AcDbSpline
70
4
71
1
72
4
73
2
40
0
40
0
40
1
40
1
41
1
10
0.34327857925749
20
12.0130158376653
30
0
41
1
10
-0.325000000000001
20
11.416647658135
30
0
0
SPLINE
5
379
100
AcDbEntity
8
1
62
256
6
ByLayer
370
18
48
1
60
0
100
AcDbSpline
70
4
71
1
72
4
73
2
40
0
40
0
40
1
40
1
41
1
10
0.343278579257489
20
13.3683356695468
30
0
41
1
10
-0.325000000000001
20
11.8991530686011
30
0
0
SPLINE
5
37A
100
AcDbEntity
8
1
62
256
6
ByLayer
370
18
48
1
60
0
100
AcDbSpline
70
4
71
3
72
13
73
9
40
0
40
0
40
0
40
0
40
0.124381710383837
40
0.311548082376559
40
0.452310637303421
40
0.592791007258041
40
0.80077320198298
40
1
40
1
40
1
40
1
41
1
10
0.343278579255026
20
13.7398159364983
30
0
41
1
10
0.350473078317273
20
13.7460060781993
30
0
41
1
10
0.368162409076174
20
13.7591996526113
30
0
41
1
10
0.39439313431874
20
13.7722142789085
30
0
41
1
10
0.417062404234513
20
13.772420394954
30
0
41
1
10
0.43406851196546
20
13.761076935972
30
0
41
1
10
0.443571553924188
20
13.7365702700504
30
0
41
1
10
0.445689947594559
20
13.7145628294118
30
0
41
1
10
0.445272100753337
20
13.7023655376355
30
0
0
SPLINE
5
37B
100
AcDbEntity
8
1
62
256
6
ByLayer
370
18
48
1
60
0
100
AcDbSpline
70
4
71
1
72
4
73
2
40
0
40
0
40
1
40
1
41
1
10
0.34327857925749
20
13.7398159364993
30
0
41
1
10
-0.325000000000001
20
13.177721493111
30
0
0
SPLINE
5
37C
100
AcDbEntity
8
1
62
256
6
ByLayer
370
18
48
1
60
0
100
AcDbSpline
70
4
71
1
72
4
73
2
40
0
40
0
40
1
40
1
41
1
10
0.343278579257489
20
14.8237109429722
30
0
41
1
10
-0.325000000000001
20
13.5564502636199
30
0
0
SPLINE
5
37D
100
AcDbEntity
8
1
62
256
6
ByLayer
370
18
48
1
60
0
100
AcDbSpline
70
4
71
3
72
13
73
9
40
0
40
0
40
0
40
0
40
0.153120007309552
40
0.371061266991185
40
0.55807007877184
40
0.718402876742603
40
0.96676047993229
40
1
40
1
40
1
40
1
41
1
10
0.343278579256339
20
15.1245672474207
30
0
41
1
10
0.351911344989991
20
15.1318115299512
30
0
41
1
10
0.37215872600577
20
15.1465643542531
30
0
41
1
10
0.402494540970256
20
15.1612418176068
30
0
41
1
10
0.426115765692782
20
15.1597293885332
30
0
41
1
10
0.441314685066625
20
15.1444854055131
30
0
41
1
10
0.445053568677735
20
15.1249309807666
30
0
41
1
10
0.445287961447448
20
15.11096384431
30
0
41
1
10
0.445278119583137
20
15.1092803777227
30
0
0
SPLINE
5
37E
100
AcDbEntity
8
1
62
256
6
ByLayer
370
18
48
1
60
0
100
AcDbSpline
70
4
71
1
72
4
73
2
40
0
40
0
40
1
40
1
41
1
10
0.34327857925749
20
15.1245672474212
30
0
41
1
10
-0.325000000000001
20
14.576173837808
30
0
0
SPLINE
5
37F
100
AcDbEntity
8
1
62
256
6
ByLayer
370
18
48
1
60
0
100
AcDbSpline
70
4
71
1
72
4
73
2
40
0
40
0
40
1
40
1
41
1
10
0.343278579257489
20
16.008510663641
30
0
41
1
10
-0.325000000000001
20
14.8816949219503
30
0
0
SPLINE
5
380
100
AcDbEntity
8
1
62
256
6
ByLayer
370
18
48
1
60
0
100
AcDbSpline
70
4
71
3
72
12
73
8
40
0
40
0
40
0
40
0
40
0.17936542584483
40
0.381815697063585
40
0.585600282111694
40
0.761575933387307
40
1
40
1
40
1
40
1
41
1
10
0.343278579256898
20
16.2549231580664
30
0
41
1
10
0.353231057005815
20
16.2632052906845
30
0
41
1
10
0.373586207190958
20
16.278058524467
30
0
41
1
10
0.403838683001078
20
16.2938265615468
30
0
41
1
10
0.42756501698274
20
16.2958160296083
30
0
41
1
10
0.442289253486505
20
16.2832966139005
30
0
41
1
10
0.445629561941432
20
16.2684065496649
30
0
41
1
10
0.445278549848732
20
16.2572737352011
30
0
0
SPLINE
5
381
100
AcDbEntity
8
1
62
256
6
ByLayer
370
18
48
1
60
0
100
AcDbSpline
70
4
71
1
72
4
73
2
40
0
40
0
40
1
40
1
41
1
10
0.34327857925749
20
16.2549231580666
30
0
41
1
10
-0.325000000000001
20
15.709148409446
30
0
0
SPLINE
5
382
100
AcDbEntity
8
1
62
256
6
ByLayer
370
18
48
1
60
0
100
AcDbSpline
70
4
71
1
72
4
73
2
40
0
40
0
40
1
40
1
41
1
10
0.343278579257489
20
16.9794705811172
30
0
41
1
10
-0.325000000000001
20
15.9578301704837
30
0
0
SPLINE
5
383
100
AcDbEntity
8
1
62
256
6
ByLayer
370
18
48
1
60
0
100
AcDbSpline
70
4
71
3
72
12
73
8
40
0
40
0
40
0
40
0
40
0.203270758909799
40
0.419252926883059
40
0.636673320998202
40
0.824123027314483
40
1
40
1
40
1
40
1
41
1
10
0.343278579257166
20
17.1811675775405
30
0
41
1
10
0.354505630456393
20
17.1905634675508
30
0
41
1
10
0.37649895991165
20
17.2068924790929
30
0
41
1
10
0.408207329374479
20
17.2243244689357
30
0
41
1
10
0.431637050371851
20
17.2274087455663
30
0
41
1
10
0.443280547572827
20
17.2169363102184
30
0
41
1
10
0.44546687641801
20
17.2054051693497
30
0
41
1
10
0.445277225885606
20
17.1984554799941
30
0
0
SPLINE
5
384
100
AcDbEntity
8
1
62
256
6
ByLayer
370
18
48
1
60
0
100
AcDbSpline
70
4
71
1
72
4
73
2
40
0
40
0
40
1
40
1
41
1
10
0.34327857925749
20
17.1811675775406
30
0
41
1
10
-0.325000000000001
20
16.6309904620861
30
0
0
SPLINE
5
385
100
AcDbEntity
8
1
62
256
6
ByLayer
370
18
48
1
60
0
100
AcDbSpline
70
4
71
1
72
4
73
2
40
0
40
0
40
1
40
1
41
1
10
0.343278579257489
20
17.7716749003053
30
0
41
1
10
-0.325000000000001
20
16.8327016176845
30
0
0
SPLINE
5
386
100
AcDbEntity
8
1
62
256
6
ByLayer
370
18
48
1
60
0
100
AcDbSpline
70
4
71
3
72
12
73
8
40
0
40
0
40
0
40
0
40
0.226789456522486
40
0.455218713672527
40
0.685221605130315
40
0.8824694613653
40
1
40
1
40
1
40
1
41
1
10
0.343278579257303
20
17.9349522380299
30
0
41
1
10
0.355737109710145
20
17.9455282908492
30
0
41
1
10
0.379222619078097
20
17.9634728317158
30
0
41
1
10
0.412125534517435
20
17.982898249373
30
0
41
1
10
0.435053464964195
20
17.9874373627686
30
0
41
1
10
0.444055192580697
20
17.9789034438424
30
0
41
1
10
0.445355813670376
20
17.9702071332822
30
0
41
1
10
0.445277405909412
20
17.9663561103936
30
0
0
SPLINE
5
387
100
AcDbEntity
8
1
62
256
6
ByLayer
370
18
48
1
60
0
100
AcDbSpline
70
4
71
1
72
4
73
2
40
0
40
0
40
1
40
1
41
1
10
0.34327857925749
20
17.93495223803
30
0
41
1
10
-0.325000000000001
20
17.3753372269432
30
0
0
SPLINE
5
388
100
AcDbEntity
8
1
62
256
6
ByLayer
370
18
48
1
60
0
100
AcDbSpline
70
4
71
1
72
4
73
2
40
0
40
0
40
1
40
1
41
1
10
0.343278579257489
20
18.408216543415
30
0
41
1
10
-0.325000000000001
20
17.536457559895
30
0
0
SPLINE
5
389
100
AcDbEntity
8
1
62
256
6
ByLayer
370
18
48
1
60
0
100
AcDbSpline
70
4
71
3
72
12
73
8
40
0
40
0
40
0
40
0
40
0.249911022237579
40
0.489614640952238
40
0.731048898773425
40
0.936573073655159
40
1
40
1
40
1
40
1
41
1
10
0.34327857925738
20
18.5373273217392
30
0
41
1
10
0.356942052465505
20
18.5491687676408
30
0
41
1
10
0.381802671138943
20
18.568884063502
30
0
41
1
10
0.415680000592183
20
18.590622099859
30
0
41
1
10
0.437936738137032
20
18.5969346372919
30
0
41
1
10
0.444665341769791
20
18.5901966797518
30
0
41
1
10
0.445296386196715
20
18.5838485956857
30
0
41
1
10
0.445278348722839
20
18.5821760187423
30
0
0
SPLINE
5
38A
100
AcDbEntity
8
1
62
256
6
ByLayer
370
18
48
1
60
0
100
AcDbSpline
70
4
71
1
72
4
73
2
40
0
40
0
40
1
40
1
41
1
10
0.34327857925749
20
18.5373273217393
30
0
41
1
10
-0.325000000000001
20
17.9642657448057
30
0
0
SPLINE
5
38B
100
AcDbEntity
8
1
62
256
6
ByLayer
370
18
48
1
60
0
100
AcDbSpline
70
4
71
1
72
4
73
2
40
0
40
0
40
1
40
1
41
1
10
0.343278579257489
20
18.9048259409171
30
0
41
1
10
-0.325000000000001
20
18.0890807878676
30
0
0
SPLINE
5
38C
100
AcDbEntity
8
1
62
256
6
ByLayer
370
18
48
1
60
0
100
AcDbSpline
70
4
71
3
72
12
73
8
40
0
40
0
40
0
40
0
40
0.271961273739257
40
0.521123041612951
40
0.732677904114335
40
0.944638079734942
40
1
40
1
40
1
40
1
41
1
10
0.343278579257425
20
19.0026970897866
30
0
41
1
10
0.358134580847596
20
19.0159093491319
30
0
41
1
10
0.384274922351619
20
19.0375752584702
30
0
41
1
10
0.417167558444369
20
19.0606857942675
30
0
41
1
10
0.438192886420745
20
19.0697013257015
30
0
41
1
10
0.444711556004375
20
19.0663953413087
30
0
41
1
10
0.445288662275368
20
19.0615488120661
30
0
41
1
10
0.445278467199842
20
19.0604083246194
30
0
0
SPLINE
5
38D
100
AcDbEntity
8
1
62
256
6
ByLayer
370
18
48
1
60
0
100
AcDbSpline
70
4
71
1
72
4
73
2
40
0
40
0
40
1
40
1
41
1
10
0.34327857925749
20
19.0026970897866
30
0
41
1
10
-0.325000000000001
20
18.4126951788705
30
0
0
SPLINE
5
38E
100
AcDbEntity
8
1
62
256
6
ByLayer
370
18
48
1
60
0
100
AcDbSpline
70
4
71
1
72
4
73
2
40
0
40
0
40
1
40
1
41
1
10
0.343278579257489
20
19.2723234562802
30
0
41
1
10
-0.325000000000001
20
18.5041169405622
30
0
0
SPLINE
5
38F
100
AcDbEntity
8
1
62
256
6
ByLayer
370
18
48
1
60
0
100
AcDbSpline
70
4
71
3
72
12
73
8
40
0
40
0
40
0
40
0
40
0.293885513933782
40
0.551583630342013
40
0.768298095454844
40
0.98559803129687
40
1
40
1
40
1
40
1
41
1
10
0.34327857925745
20
19.340953677083
30
0
41
1
10
0.359327636723327
20
19.3556655023031
30
0
41
1
10
0.386672782147688
20
19.3794794312371
30
0
41
1
10
0.420081069610366
20
19.4053624667613
30
0
41
1
10
0.440263916400307
20
19.4165970325708
30
0
41
1
10
0.445141600358904
20
19.4148321413421
30
0
41
1
10
0.445279018769173
20
19.4115786999383
30
0
41
1
10
0.44527857673154
20
19.4113671396395
30
0
0
SPLINE
5
390
100
AcDbEntity
8
1
62
256
6
ByLayer
370
18
48
1
60
0
100
AcDbSpline
70
4
71
1
72
4
73
2
40
0
40
0
40
1
40
1
41
1
10
0.34327857925749
20
19.340953677083
30
0
41
1
10
-0.325000000000001
20
18.7307192534083
30
0
0
SPLINE
5
391
100
AcDbEntity
8
1
62
256
6
ByLayer
370
18
48
1
60
0
100
AcDbSpline
70
4
71
1
72
4
73
2
40
0
40
0
40
1
40
1
41
1
10
0.343278579257489
20
19.5180034570805
30
0
41
1
10
-0.325000000000001
20
18.7906850260974
30
0
0
SPLINE
5
392
100
AcDbEntity
8
1
62
256
6
ByLayer
370
18
48
1
60
0
100
AcDbSpline
70
4
71
3
72
11
73
7
40
0
40
0
40
0
40
0
40
0.377049768979812
40
0.626146412392412
40
0.877055085418204
40
1
40
1
40
1
40
1
41
1
10
0.343278579257468
20
19.5586932485775
30
0
41
1
10
0.364260206963798
20
19.5786182731757
30
0
41
1
10
0.394481893089506
20
19.6062236296444
30
0
41
1
10
0.429220654131094
20
19.6353726879472
30
0
41
1
10
0.443297367683247
20
19.6442291198121
30
0
41
1
10
0.445259480947445
20
19.642901832403
30
0
41
1
10
0.445278476027662
20
19.6418045876656
30
0
0
SPLINE
5
393
100
AcDbEntity
8
1
62
256
6
ByLayer
370
18
48
1
60
0
100
AcDbSpline
70
4
71
1
72
4
73
2
40
0
40
0
40
1
40
1
41
1
10
0.34327857925749
20
19.5586932485776
30
0
41
1
10
-0.325000000000001
20
18.9249133089164
30
0
0
SPLINE
5
394
100
AcDbEntity
8
1
62
256
6
ByLayer
370
18
48
1
60
0
100
AcDbSpline
70
4
71
1
72
4
73
2
40
0
40
0
40
1
40
1
41
1
10
0.343278579257489
20
19.6464364834369
30
0
41
1
10
-0.325000000000001
20
18.9546127301509
30
0
0
SPLINE
5
395
100
AcDbEntity
8
1
62
256
6
ByLayer
370
18
48
1
60
0
100
AcDbSpline
70
4
71
3
72
11
73
7
40
0
40
0
40
0
40
0
40
0.3683557451731
40
0.630619954408362
40
0.851044226944055
40
1
40
1
40
1
40
1
41
1
10
0.343278579257478
20
19.6599204994536
30
0
41
1
10
0.363674819027274
20
19.6800229202904
30
0
41
1
10
0.394095702266303
20
19.709666784556
30
0
41
1
10
0.427775911233605
20
19.7417247196223
30
0
41
1
10
0.442750307096171
20
19.7550542914909
30
0
41
1
10
0.445203738322435
20
19.756427522086
30
0
41
1
10
0.445278539535508
20
19.7560426846343
30
0
0
SPLINE
5
396
100
AcDbEntity
8
1
62
256
6
ByLayer
370
18
48
1
60
0
100
AcDbSpline
70
4
71
1
72
4
73
2
40
0
40
0
40
1
40
1
41
1
10
0.34327857925749
20
19.6599204994536
30
0
41
1
10
-0.325000000000001
20
18.9990748130008
30
0
0
SPLINE
5
397
100
AcDbEntity
8
1
62
256
6
ByLayer
370
18
48
1
60
0
100
AcDbSpline
70
4
71
1
72
4
73
2
40
0
40
0
40
1
40
1
41
1
10
-0.325
20
-18.9990748130008
30
0
41
1
10
0.34327857925749
20
-19.6599204994536
30
0
0
SPLINE
5
398
100
AcDbEntity
8
1
62
256
6
ByLayer
370
18
48
1
60
0
100
AcDbSpline
70
4
71
3
72
11
73
7
40
0
40
0
40
0
40
0
40
0.358759991097726
40
0.635283454213918
40
0.861255451520059
40
1
40
1
40
1
40
1
41
1
10
0.343278579257482
20
-19.6464364834369
30
0
41
1
10
0.363063141795487
20
-19.6667641633906
30
0
41
1
10
0.39371578918449
20
-19.6986286683902
30
0
41
1
10
0.427776069172767
20
-19.7349699059508
30
0
41
1
10
0.44285165651341
20
-19.7520465092696
30
0
41
1
10
0.445184076096929
20
-19.7555139734217
30
0
41
1
10
0.445278578549439
20
-19.7560469117246
30
0
0
SPLINE
5
399
100
AcDbEntity
8
1
62
256
6
ByLayer
370
18
48
1
60
0
100
AcDbSpline
70
4
71
1
72
4
73
2
40
0
40
0
40
1
40
1
41
1
10
-0.325000000000001
20
-18.9546127301509
30
0
41
1
10
0.343278579257489
20
-19.6464364834369
30
0
0
SPLINE
5
39A
100
AcDbEntity
8
1
62
256
6
ByLayer
370
18
48
1
60
0
100
AcDbSpline
70
4
71
1
72
4
73
2
40
0
40
0
40
1
40
1
41
1
10
-0.325
20
-18.9249133089164
30
0
41
1
10
0.34327857925749
20
-19.5586932485776
30
0
0
SPLINE
5
39B
100
AcDbEntity
8
1
62
256
6
ByLayer
370
18
48
1
60
0
100
AcDbSpline
70
4
71
3
72
11
73
7
40
0
40
0
40
0
40
0
40
0.348035506515007
40
0.640076464216794
40
0.871815324061527
40
1
40
1
40
1
40
1
41
1
10
0.343278579257485
20
-19.5180034570805
30
0
41
1
10
0.362416222255312
20
-19.5385967369063
30
0
41
1
10
0.393343170400356
20
-19.5729181572726
30
0
41
1
10
0.427810772268244
20
-19.6138083693232
30
0
41
1
10
0.442967164178411
20
-19.6348645808948
30
0
41
1
10
0.445169801744637
20
-19.6404569289245
30
0
41
1
10
0.445278468411714
20
-19.6418037281452
30
0
0
SPLINE
5
39C
100
AcDbEntity
8
1
62
256
6
ByLayer
370
18
48
1
60
0
100
AcDbSpline
70
4
71
1
72
4
73
2
40
0
40
0
40
1
40
1
41
1
10
-0.325000000000001
20
-18.7906850260974
30
0
41
1
10
0.343278579257489
20
-19.5180034570805
30
0
0
SPLINE
5
39D
100
AcDbEntity
8
1
62
256
6
ByLayer
370
18
48
1
60
0
100
AcDbSpline
70
4
71
1
72
4
73
2
40
0
40
0
40
1
40
1
41
1
10
-0.325
20
-18.7307192534083
30
0
41
1
10
0.34327857925749
20
-19.340953677083
30
0
0
SPLINE
5
39E
100
AcDbEntity
8
1
62
256
6
ByLayer
370
18
48
1
60
0
100
AcDbSpline
70
4
71
3
72
11
73
7
40
0
40
0
40
0
40
0
40
0.335803928316639
40
0.644688862436801
40
0.882105351003152
40
1
40
1
40
1
40
1
41
1
10
0.343278579257487
20
-19.2723234562802
30
0
41
1
10
0.361724512446023
20
-19.2932157893378
30
0
41
1
10
0.392979421002152
20
-19.3302981334022
30
0
41
1
10
0.427886283965294
20
-19.3761074374814
30
0
41
1
10
0.443118682626496
20
-19.4014992680017
30
0
41
1
10
0.445169825212164
20
-19.4092708404394
30
0
41
1
10
0.445278434846708
20
-19.4113263027233
30
0
0
SPLINE
5
39F
100
AcDbEntity
8
1
62
256
6
ByLayer
370
18
48
1
60
0
100
AcDbSpline
70
4
71
1
72
4
73
2
40
0
40
0
40
1
40
1
41
1
10
-0.325000000000001
20
-18.5041169405622
30
0
41
1
10
0.343278579257489
20
-19.2723234562802
30
0
0
SPLINE
5
3A0
100
AcDbEntity
8
1
62
256
6
ByLayer
370
18
48
1
60
0
100
AcDbSpline
70
4
71
1
72
4
73
2
40
0
40
0
40
1
40
1
41
1
10
-0.325
20
-18.4126951788705
30
0
41
1
10
0.34327857925749
20
-19.0026970897866
30
0
0
SPLINE
5
3A1
100
AcDbEntity
8
1
62
256
6
ByLayer
370
18
48
1
60
0
100
AcDbSpline
70
4
71
3
72
11
73
7
40
0
40
0
40
0
40
0
40
0.428889305017771
40
0.719916196301752
40
0.948052780218
40
1
40
1
40
1
40
1
41
1
10
0.343278579257489
20
-18.9048259409171
30
0
41
1
10
0.367334862436478
20
-18.9335752321486
30
0
41
1
10
0.40109296436565
20
-18.9773880302465
30
0
41
1
10
0.434633759248646
20
-19.0289537733588
30
0
41
1
10
0.444479936763294
20
-19.0517797976306
30
0
41
1
10
0.445253882006702
20
-19.0591109236254
30
0
41
1
10
0.445278234941447
20
-19.0603637387078
30
0
0
SPLINE
5
3A2
100
AcDbEntity
8
1
62
256
6
ByLayer
370
18
48
1
60
0
100
AcDbSpline
70
4
71
1
72
4
73
2
40
0
40
0
40
1
40
1
41
1
10
-0.325000000000001
20
-18.0890807878676
30
0
41
1
10
0.343278579257489
20
-18.9048259409171
30
0
0
SPLINE
5
3A3
100
AcDbEntity
8
1
62
256
6
ByLayer
370
18
48
1
60
0
100
AcDbSpline
70
4
71
1
72
4
73
2
40
0
40
0
40
1
40
1
41
1
10
-0.325
20
-17.9642657448057
30
0
41
1
10
0.34327857925749
20
-18.5373273217393
30
0
0
SPLINE
5
3A4
100
AcDbEntity
8
1
62
256
6
ByLayer
370
18
48
1
60
0
100
AcDbSpline
70
4
71
3
72
11
73
7
40
0
40
0
40
0
40
0
40
0.455277467965064
40
0.748092018745117
40
0.975425944721886
40
1
40
1
40
1
40
1
41
1
10
0.343278579257489
20
-18.408216543415
30
0
41
1
10
0.369026073613002
20
-18.4409191423207
30
0
41
1
10
0.403746503369584
20
-18.4900822569192
30
0
41
1
10
0.436759025524846
20
-18.5483177102067
30
0
41
1
10
0.444919717714681
20
-18.5731380551661
30
0
41
1
10
0.445271557367966
20
-18.5814001836208
30
0
41
1
10
0.44527837386164
20
-18.582182295171
30
0
0
SPLINE
5
3A5
100
AcDbEntity
8
1
62
256
6
ByLayer
370
18
48
1
60
0
100
AcDbSpline
70
4
71
1
72
4
73
2
40
0
40
0
40
1
40
1
41
1
10
-0.325000000000001
20
-17.536457559895
30
0
41
1
10
0.343278579257489
20
-18.408216543415
30
0
0
SPLINE
5
3A6
100
AcDbEntity
8
1
62
256
6
ByLayer
370
18
48
1
60
0
100
AcDbSpline
70
4
71
1
72
4
73
2
40
0
40
0
40
1
40
1
41
1
10
-0.325
20
-17.3753372269432
30
0
41
1
10
0.34327857925749
20
-17.93495223803
30
0
0
SPLINE
5
3A7
100
AcDbEntity
8
1
62
256
6
ByLayer
370
18
48
1
60
0
100
AcDbSpline
70
4
71
3
72
10
73
6
40
0
40
0
40
0
40
0
40
0.484210272283988
40
0.775759891235522
40
1
40
1
40
1
40
1
41
1
10
0.343278579257489
20
-17.7716749003053
30
0
41
1
10
0.370934683219426
20
-17.8092687365537
30
0
41
1
10
0.406316377930558
20
-17.8644963146343
30
0
41
1
10
0.439142429592592
20
-17.9312355204878
30
0
41
1
10
0.444593960116143
20
-17.9567526878107
30
0
41
1
10
0.445278578418583
20
-17.9666666294272
30
0
0
SPLINE
5
3A8
100
AcDbEntity
8
1
62
256
6
ByLayer
370
18
48
1
60
0
100
AcDbSpline
70
4
71
1
72
4
73
2
40
0
40
0
40
1
40
1
41
1
10
-0.325000000000001
20
-16.8327016176845
30
0
41
1
10
0.343278579257489
20
-17.7716749003053
30
0
0
SPLINE
5
3A9
100
AcDbEntity
8
1
62
256
6
ByLayer
370
18
48
1
60
0
100
AcDbSpline
70
4
71
1
72
4
73
2
40
0
40
0
40
1
40
1
41
1
10
-0.325
20
-16.6309904620861
30
0
41
1
10
0.34327857925749
20
-17.1811675775406
30
0
0
SPLINE
5
3AA
100
AcDbEntity
8
1
62
256
6
ByLayer
370
18
48
1
60
0
100
AcDbSpline
70
4
71
3
72
10
73
6
40
0
40
0
40
0
40
0
40
0.518472063503967
40
0.804388165633822
40
1
40
1
40
1
40
1
41
1
10
0.343278579257489
20
-16.9794705811172
30
0
41
1
10
0.373154006176408
20
-17.0233146114617
30
0
41
1
10
0.409283392479334
20
-17.0861615294962
30
0
41
1
10
0.440133018209671
20
-17.1601050191044
30
0
41
1
10
0.444724835053298
20
-17.1881338076274
30
0
41
1
10
0.445278221262944
20
-17.1986612353246
30
0
0
SPLINE
5
3AB
100
AcDbEntity
8
1
62
256
6
ByLayer
370
18
48
1
60
0
100
AcDbSpline
70
4
71
1
72
4
73
2
40
0
40
0
40
1
40
1
41
1
10
-0.325000000000001
20
-15.9578301704837
30
0
41
1
10
0.343278579257489
20
-16.9794705811172
30
0
0
SPLINE
5
3AC
100
AcDbEntity
8
1
62
256
6
ByLayer
370
18
48
1
60
0
100
AcDbSpline
70
4
71
1
72
4
73
2
40
0
40
0
40
1
40
1
41
1
10
-0.325
20
-15.709148409446
30
0
41
1
10
0.34327857925749
20
-16.2549231580666
30
0
0
SPLINE
5
3AD
100
AcDbEntity
8
1
62
256
6
ByLayer
370
18
48
1
60
0
100
AcDbSpline
70
4
71
3
72
10
73
6
40
0
40
0
40
0
40
0
40
0.55975853548785
40
0.830946843984524
40
1
40
1
40
1
40
1
41
1
10
0.343278579257488
20
-16.008510663641
30
0
41
1
10
0.3758350009622
20
-16.060685868099
30
0
41
1
10
0.412443345063804
20
-16.1327878433732
30
0
41
1
10
0.441035997145791
20
-16.2154682416438
30
0
41
1
10
0.444826546848865
20
-16.2457297423429
30
0
41
1
10
0.445276670197078
20
-16.2567364954148
30
0
0
SPLINE
5
3AE
100
AcDbEntity
8
1
62
256
6
ByLayer
370
18
48
1
60
0
100
AcDbSpline
70
4
71
1
72
4
73
2
40
0
40
0
40
1
40
1
41
1
10
-0.325000000000001
20
-14.8816949219503
30
0
41
1
10
0.343278579257489
20
-16.008510663641
30
0
0
SPLINE
5
3AF
100
AcDbEntity
8
1
62
256
6
ByLayer
370
18
48
1
60
0
100
AcDbSpline
70
4
71
1
72
4
73
2
40
0
40
0
40
1
40
1
41
1
10
-0.325
20
-14.576173837808
30
0
41
1
10
0.34327857925749
20
-15.1245672474212
30
0
0
SPLINE
5
3B0
100
AcDbEntity
8
1
62
256
6
ByLayer
370
18
48
1
60
0
100
AcDbSpline
70
4
71
3
72
10
73
6
40
0
40
0
40
0
40
0
40
0.519972815659762
40
0.811096427693653
40
1
40
1
40
1
40
1
41
1
10
0.343278579257489
20
-14.8237109429722
30
0
41
1
10
0.373158401212093
20
-14.8772801513825
30
0
41
1
10
0.409492882502973
20
-14.9569864428823
30
0
41
1
10
0.439827846720282
20
-15.0528272249789
30
0
41
1
10
0.444582505623642
20
-15.0927809032537
30
0
41
1
10
0.445268008465126
20
-15.107879944568
30
0
0
SPLINE
5
3B1
100
AcDbEntity
8
1
62
256
6
ByLayer
370
18
48
1
60
0
100
AcDbSpline
70
4
71
1
72
4
73
2
40
0
40
0
40
1
40
1
41
1
10
-0.325000000000001
20
-13.5564502636199
30
0
41
1
10
0.343278579257489
20
-14.8237109429722
30
0
0
SPLINE
5
3B2
100
AcDbEntity
8
1
62
256
6
ByLayer
370
18
48
1
60
0
100
AcDbSpline
70
4
71
1
72
4
73
2
40
0
40
0
40
1
40
1
41
1
10
-0.325
20
-13.177721493111
30
0
41
1
10
0.34327857925749
20
-13.7398159364993
30
0
0
SPLINE
5
3B3
100
AcDbEntity
8
1
62
256
6
ByLayer
370
18
48
1
60
0
100
AcDbSpline
70
4
71
3
72
10
73
6
40
0
40
0
40
0
40
0
40
0.656803858759664
40
0.992209999913076
40
1
40
1
40
1
40
1
41
1
10
0.343278579257486
20
-13.3683356695468
30
0
41
1
10
0.383346644876839
20
-13.4481664582863
30
0
41
1
10
0.424160423914363
20
-13.560394755081
30
0
41
1
10
0.44510344037874
20
-13.6702822609787
30
0
41
1
10
0.44527700277448
20
-13.7031393535352
30
0
41
1
10
0.445278504389572
20
-13.7038837939876
30
0
0
SPLINE
5
3B4
100
AcDbEntity
8
1
62
256
6
ByLayer
370
18
48
1
60
0
100
AcDbSpline
70
4
71
1
72
4
73
2
40
0
40
0
40
1
40
1
41
1
10
-0.325000000000001
20
-11.8991530686011
30
0
41
1
10
0.343278579257489
20
-13.3683356695468
30
0
0
SPLINE
5
3B5
100
AcDbEntity
8
1
62
256
6
ByLayer
370
18
48
1
60
0
100
AcDbSpline
70
4
71
1
72
4
73
2
40
0
40
0
40
1
40
1
41
1
10
-0.325
20
-11.416647658135
30
0
41
1
10
0.34327857925749
20
-12.0130158376653
30
0
0
SPLINE
5
3B6
100
AcDbEntity
8
1
62
256
6
ByLayer
370
18
48
1
60
0
100
AcDbSpline
70
4
71
2
72
6
73
3
40
0
40
0
40
0
40
1
40
1
40
1
41
1
10
0.34327857925749
20
-11.54046753934
30
0
41
1
10
0.437514128700349
20
-11.7594541353348
30
0
41
1
10
0.445276896732479
20
-11.9488597401226
30
0
0
SPLINE
5
3B7
100
AcDbEntity
8
1
62
256
6
ByLayer
370
18
48
1
60
0
100
AcDbSpline
70
4
71
1
72
4
73
2
40
0
40
0
40
1
40
1
41
1
10
-0.325000000000001
20
-9.74178339679136
30
0
41
1
10
0.343278579257489
20
-11.54046753934
30
0
0
SPLINE
5
3B8
100
AcDbEntity
8
1
62
256
6
ByLayer
370
18
48
1
60
0
100
AcDbSpline
70
4
71
1
72
4
73
2
40
0
40
0
40
1
40
1
41
1
10
-0.325
20
-9.08445616148815
30
0
41
1
10
0.34327857925749
20
-9.76435133857409
30
0
0
SPLINE
5
3B9
100
AcDbEntity
8
1
62
256
6
ByLayer
370
18
48
1
60
0
100
AcDbSpline
70
4
71
3
72
10
73
6
40
0
40
0
40
0
40
0
40
0.6510182376344
40
0.941688302691968
40
1
40
1
40
1
40
1
41
1
10
0.343278579257487
20
-9.1187928740291
30
0
41
1
10
0.382101841517202
20
-9.23907725816403
30
0
41
1
10
0.421163780593166
20
-9.40863650215754
30
0
41
1
10
0.443767068358767
20
-9.58683530372368
30
0
41
1
10
0.445166123407123
20
-9.64607128163212
30
0
41
1
10
0.445270074839046
20
-9.65592105805464
30
0
0
SPLINE
5
3BA
100
AcDbEntity
8
1
62
256
6
ByLayer
370
18
48
1
60
0
100
AcDbSpline
70
4
71
2
72
6
73
3
40
0
40
0
40
0
40
1
40
1
40
1
41
1
10
-0.325000000000001
20
-6.61172018086064
30
0
41
1
10
-0.0372120069985987
20
-7.88172906724864
30
0
41
1
10
0.343278579257489
20
-9.1187928740291
30
0
0
SPLINE
5
3BB
100
AcDbEntity
8
1
62
256
6
ByLayer
370
18
48
1
60
0
100
AcDbSpline
70
4
71
1
72
4
73
2
40
0
40
0
40
1
40
1
41
1
10
-0.325
20
-5.49680304813625
30
0
41
1
10
0.34327857925749
20
-6.47090137541811
30
0
0
SPLINE
5
3BC
100
AcDbEntity
8
1
62
256
6
ByLayer
370
18
48
1
60
0
100
AcDbSpline
70
4
71
3
72
10
73
6
40
0
40
0
40
0
40
0
40
0.373562299847963
40
0.900072767599858
40
1
40
1
40
1
40
1
41
1
10
0.343278579257489
20
-5.3499884048779
30
0
41
1
10
0.363838197270979
20
-5.46424197604525
30
0
41
1
10
0.405239346638609
20
-5.73819331918352
30
0
41
1
10
0.4404944130617
20
-6.04371842445934
30
0
41
1
10
0.444858120752446
20
-6.2300256963309
30
0
41
1
10
0.445254773774899
20
-6.25968037350797
30
0
0
SPLINE
5
3BD
100
AcDbEntity
8
1
62
256
6
ByLayer
370
18
48
1
60
0
100
AcDbSpline
70
4
71
3
72
15
73
11
40
0
40
0
40
0
40
0
40
0.085601181857028
40
0.136793106851708
40
0.188458482577163
40
0.234430364548952
40
0.293389902841343
40
0.397106801703139
40
0.715174581256626
40
1
40
1
40
1
40
1
41
1
10
0.343278579257492
20
6.47090137540589
30
0
41
1
10
0.349212575622309
20
6.47972344933496
30
0
41
1
10
0.359500312310951
20
6.49139548765132
30
0
41
1
10
0.375569672796212
20
6.50376564919146
30
0
41
1
10
0.38911614519839
20
6.50777601075662
30
0
41
1
10
0.402040526512327
20
6.5042587447118
30
0
41
1
10
0.415407148990417
20
6.49096630455028
30
0
41
1
10
0.434793971546974
20
6.44576157210661
30
0
41
1
10
0.443247497466641
20
6.36400233288701
30
0
41
1
10
0.44630248279761
20
6.29406876068537
30
0
41
1
10
0.44525418900982
20
6.25956455740028
30
0
0
SPLINE
5
3BE
100
AcDbEntity
8
1
62
256
6
ByLayer
370
18
48
1
60
0
100
AcDbSpline
70
4
71
1
72
4
73
2
40
0
40
0
40
1
40
1
41
1
10
0.34327857925749
20
6.47090137540589
30
0
41
1
10
-0.325000000000001
20
5.49680304813625
30
0
0
SPLINE
5
3BF
100
AcDbEntity
8
1
62
256
6
ByLayer
370
18
48
1
60
0
100
AcDbSpline
70
4
71
3
72
13
73
9
40
0
40
0
40
0
40
0
40
0.20743803946052
40
0.416274474974627
40
0.629718048959347
40
0.73728355374276
40
0.844850323786198
40
1
40
1
40
1
40
1
41
1
10
0.343278579257489
20
5.3499884048779
30
0
41
1
10
0.214505649867317
20
4.61831987097271
30
0
41
1
10
0.0093632726892002
20
3.14355578497429
30
0
41
1
10
-0.142590593077832
20
0.886004580706242
30
0
41
1
10
-0.126728631207391
20
-1.0186070786091
30
0
41
1
10
-0.0266272122474269
20
-2.55327635307179
30
0
41
1
10
0.109554434618216
20
-3.87392140567373
30
0
41
1
10
0.247350709853288
20
-4.80340082885364
30
0
41
1
10
0.343278579257489
20
-5.3499884048779
30
0
0
SPLINE
5
3C0
100
AcDbEntity
8
1
62
256
6
ByLayer
370
18
48
1
60
0
100
AcDbSpline
70
4
71
3
72
10
73
6
40
0
40
0
40
0
40
0
40
0.144664166532291
40
0.40492722509327
40
1
40
1
40
1
40
1
41
1
10
0.44525418900982
20
6.25956455740028
30
0
41
1
10
0.445175073921615
20
6.21673330372417
30
0
41
1
10
0.442535017866242
20
6.09628248965113
30
0
41
1
10
0.411839385009458
20
5.79256913480845
30
0
41
1
10
0.376339534954015
20
5.53240657584607
30
0
41
1
10
0.34327857925749
20
5.3499884048779
30
0
0
SPLINE
5
3C1
100
AcDbEntity
8
1
62
256
6
ByLayer
370
18
48
1
60
0
100
AcDbSpline
70
4
71
3
72
15
73
11
40
0
40
0
40
0
40
0
40
0.323714811219362
40
0.610562841441959
40
0.702362206154609
40
0.758778713710446
40
0.804108471046911
40
0.849574306356198
40
0.905778779701486
40
1
40
1
40
1
40
1
41
1
10
0.445254773774899
20
-6.25968037350797
30
0
41
1
10
0.446667218177818
20
-6.29907080580899
30
0
41
1
10
0.443037668976162
20
-6.36955049877395
30
0
41
1
10
0.433262501928638
20
-6.45005417221279
30
0
41
1
10
0.415375424285041
20
-6.49044068862491
30
0
41
1
10
0.403344579663192
20
-6.50326430263803
30
0
41
1
10
0.391539766456011
20
-6.50754502100804
30
0
41
1
10
0.378301546330516
20
-6.50516162456154
30
0
41
1
10
0.361198151050862
20
-6.49336664085047
30
0
41
1
10
0.349829838982854
20
-6.48081043754453
30
0
41
1
10
0.343278579262561
20
-6.47090137541304
30
0
0
SPLINE
5
3C2
100
AcDbEntity
8
1
62
256
6
ByLayer
370
18
48
1
60
0
100
AcDbSpline
70
4
71
3
72
14
73
10
40
0
40
0
40
0
40
0
40
0.299554993682606
40
0.447283097936964
40
0.596044430847638
40
0.68895277289302
40
0.782416656876102
40
0.867545661811707
40
1
40
1
40
1
40
1
41
1
10
0.445270074839046
20
-9.65592105805464
30
0
41
1
10
0.446192164981629
20
-9.68175594106618
30
0
41
1
10
0.443491801190857
20
-9.71727095479035
30
0
41
1
10
0.433535456889534
20
-9.76042813944188
30
0
41
1
10
0.421216896446769
20
-9.78346809508258
30
0
41
1
10
0.40447357175094
20
-9.79444121536335
30
0
41
1
10
0.387118592193603
20
-9.79454649011399
30
0
41
1
10
0.365809949670602
20
-9.78467054375276
30
0
41
1
10
0.351744098655154
20
-9.77332644485801
30
0
41
1
10
0.343278579257473
20
-9.76435133857411
30
0
0
SPLINE
5
3C3
100
AcDbEntity
8
1
62
256
6
ByLayer
370
18
48
1
60
0
100
AcDbSpline
70
4
71
3
72
10
73
6
40
0
40
0
40
0
40
0
40
0.097368723980773
40
0.869350211749116
40
1
40
1
40
1
40
1
41
1
10
0.445250819439455
20
9.65319653452221
30
0
41
1
10
0.444879249571743
20
9.63674055698608
30
0
41
1
10
0.439277210114548
20
9.48925615197939
30
0
41
1
10
0.397746041576939
20
9.30463469041955
30
0
41
1
10
0.350538851777683
20
9.14236623599241
30
0
41
1
10
0.343278579257551
20
9.11879287402919
30
0
0
SPLINE
5
3C4
100
AcDbEntity
8
1
62
256
6
ByLayer
370
18
48
1
60
0
100
AcDbSpline
70
4
71
3
72
25
73
21
40
0
40
0
40
0
40
0
40
0.010824466764343
40
0.0649125808180297
40
0.120219249921053
40
0.181811772129407
40
0.244927385938078
40
0.311202697032817
40
0.379754417544803
40
0.440156529691396
40
0.502842869207907
40
0.555888280538538
40
0.610503022871584
40
0.663367652223986
40
0.717488681781955
40
0.776183149880159
40
0.836242675698653
40
0.90169079100909
40
0.969097643031384
40
1
40
1
40
1
40
1
41
1
10
19.058388585058
20
-2.43425238823224
30
0
41
1
10
19.0342261344126
20
-2.42867721959797
30
0
41
1
10
18.8900984987369
20
-2.39330289753579
30
0
41
1
10
18.6300876163038
20
-2.30522829842273
30
0
41
1
10
18.285518961645
20
-2.13117921730968
30
0
41
1
10
17.9561876815699
20
-1.8975556812632
30
0
41
1
10
17.6512615127963
20
-1.59765071377621
30
0
41
1
10
17.3906289572084
20
-1.23576758004937
30
0
41
1
10
17.2005134885115
20
-0.833156488726911
30
0
41
1
10
17.0872752379003
20
-0.406528631344858
30
0
41
1
10
17.0539257716481
20
0.0010084058108246
30
0
41
1
10
17.0881851647215
20
0.394000612584115
30
0
41
1
10
17.1769222763173
20
0.752982410358989
30
0
41
1
10
17.3185637851967
20
1.09338289155044
30
0
41
1
10
17.5115413809851
20
1.41429274932001
30
0
41
1
10
17.7591210933006
20
1.71301063432948
30
0
41
1
10
18.0679049390972
20
1.98622183479557
30
0
41
1
10
18.4343469782786
20
2.21799518811781
30
0
41
1
10
18.7787088216289
20
2.36115349127825
30
0
41
1
10
18.9951569324515
20
2.41975841794452
30
0
41
1
10
19.064359009448
20
2.43562100141297
30
0
0
SPLINE
5
3C5
100
AcDbEntity
8
1
62
256
6
ByLayer
370
18
48
1
60
0
100
AcDbSpline
70
4
71
3
72
12
73
8
40
0
40
0
40
0
40
0
40
0.0699182700610201
40
0.271538429125075
40
0.483212601491493
40
0.81350973786404
40
1
40
1
40
1
40
1
41
1
10
33.749076493391
20
23.9308861830825
30
0
41
1
10
33.7490652549192
20
23.9308954098828
30
0
41
1
10
33.7481071519061
20
23.9316891316091
30
0
41
1
10
33.7393977411177
20
23.9389022984941
30
0
41
1
10
33.7133520578385
20
23.9604948435452
30
0
41
1
10
33.676938364438
20
23.9907381434656
30
0
41
1
10
33.648448773458
20
24.0144660166001
30
0
41
1
10
33.6375824818814
20
24.0235213444539
30
0
0
SPLINE
5
3C6
100
AcDbEntity
8
1
62
256
6
ByLayer
370
18
48
1
60
0
100
AcDbSpline
70
4
71
3
72
12
73
8
40
0
40
0
40
0
40
0
40
0.126504747934767
40
0.455150884723793
40
0.711531987247913
40
0.923303701070799
40
1
40
1
40
1
40
1
41
1
10
2.42225491720772
20
21.2925340542966
30
0
41
1
10
2.41611136918185
20
21.2852619027577
30
0
41
1
10
2.39473721020478
20
21.2599721369439
30
0
41
1
10
2.36374701452468
20
21.2233941768697
30
0
41
1
10
2.33830024008218
20
21.193426098043
30
0
41
1
10
2.3294892534946
20
21.1830615245165
30
0
41
1
10
2.3285535749006
20
21.1819605388085
30
0
41
1
10
2.32854067719244
20
21.1819454972263
30
0
0
SPLINE
5
3C7
100
AcDbEntity
8
1
62
256
6
ByLayer
370
18
48
1
60
0
100
AcDbSpline
70
4
71
1
72
4
73
2
40
0
40
0
40
1
40
1
41
1
10
2.42225491720774
20
21.2925340542966
30
0
41
1
10
3.03926434956286
20
22.0173466797802
30
0
0
SPLINE
5
3C8
100
AcDbEntity
8
1
62
256
6
ByLayer
370
18
48
1
60
0
100
AcDbSpline
70
4
71
1
72
4
73
2
40
0
40
0
40
1
40
1
41
1
10
2.47703338637307
20
21.2973265493539
30
0
41
1
10
3.05796786093844
20
22.0189830249937
30
0
0
SPLINE
5
3C9
100
AcDbEntity
8
1
62
256
6
ByLayer
370
18
48
1
60
0
100
AcDbSpline
70
4
71
3
72
11
73
7
40
0
40
0
40
0
40
0
40
0.362502491947671
40
0.652848833028711
40
0.879600668993618
40
1
40
1
40
1
40
1
41
1
10
2.51088913980745
20
21.3002885439745
30
0
41
1
10
2.4914150999187
20
21.2785113875552
30
0
41
1
10
2.45991592345211
20
21.2442484277154
30
0
41
1
10
2.42316033423972
20
21.2065942627274
30
0
41
1
10
2.40535034666114
20
21.1907489935746
30
0
41
1
10
2.4008243945516
20
21.1883559933264
30
0
41
1
10
2.39978444771745
20
21.1881785977248
30
0
0
SPLINE
5
3CA
100
AcDbEntity
8
1
62
256
6
ByLayer
370
18
48
1
60
0
100
AcDbSpline
70
4
71
1
72
4
73
2
40
0
40
0
40
1
40
1
41
1
10
2.51088913980745
20
21.3002885439745
30
0
41
1
10
3.17068525581289
20
22.0288445192274
30
0
0
SPLINE
5
3CB
100
AcDbEntity
8
1
62
256
6
ByLayer
370
18
48
1
60
0
100
AcDbSpline
70
4
71
1
72
4
73
2
40
0
40
0
40
1
40
1
41
1
10
2.67675951511009
20
21.3148003214283
30
0
41
1
10
3.22736708826503
20
22.0338035369948
30
0
0
SPLINE
5
3CC
100
AcDbEntity
8
1
62
256
6
ByLayer
370
18
48
1
60
0
100
AcDbSpline
70
4
71
3
72
12
73
8
40
0
40
0
40
0
40
0
40
0.0343303256613848
40
0.440344996986165
40
0.725107471847609
40
0.945196108306997
40
1
40
1
40
1
40
1
41
1
10
2.7454307864595
20
21.3208082791813
30
0
41
1
10
2.74352382579558
20
21.3188164600964
30
0
41
1
10
2.71918164476692
20
21.2934947396708
30
0
41
1
10
2.6799614877559
20
21.2546453010754
30
0
41
1
10
2.63907252762454
20
21.2194321825909
30
0
41
1
10
2.62154486572448
20
21.2083746496202
30
0
41
1
10
2.61639192641098
20
21.207150538888
30
0
41
1
10
2.61547680535332
20
21.2070493594297
30
0
0
SPLINE
5
3CD
100
AcDbEntity
8
1
62
256
6
ByLayer
370
18
48
1
60
0
100
AcDbSpline
70
4
71
1
72
4
73
2
40
0
40
0
40
1
40
1
41
1
10
2.74543078645952
20
21.3208082791813
30
0
41
1
10
3.45630764855483
20
22.0538332406414
30
0
0
SPLINE
5
3CE
100
AcDbEntity
8
1
62
256
6
ByLayer
370
18
48
1
60
0
100
AcDbSpline
70
4
71
1
72
4
73
2
40
0
40
0
40
1
40
1
41
1
10
3.0272211129028
20
21.3454617382363
30
0
41
1
10
3.55277236055459
20
22.0622728093717
30
0
0
SPLINE
5
3CF
100
AcDbEntity
8
1
62
256
6
ByLayer
370
18
48
1
60
0
100
AcDbSpline
70
4
71
3
72
11
73
7
40
0
40
0
40
0
40
0
40
0.330265336614431
40
0.65532939851082
40
0.899758565240922
40
1
40
1
40
1
40
1
41
1
10
3.13276979076965
20
21.3546960509998
30
0
41
1
10
3.11227601877502
20
21.3346757038544
30
0
41
1
10
3.07380827999183
20
21.2993676092016
30
0
41
1
10
3.02425913771406
20
21.2595860698089
30
0
41
1
10
2.99479475398416
20
21.2421124260998
30
0
41
1
10
2.98450442858176
20
21.2394351349823
30
0
41
1
10
2.98183391223682
20
21.239101703999
30
0
0
SPLINE
5
3D0
100
AcDbEntity
8
1
62
256
6
ByLayer
370
18
48
1
60
0
100
AcDbSpline
70
4
71
1
72
4
73
2
40
0
40
0
40
1
40
1
41
1
10
3.13276979076965
20
21.3546960509998
30
0
41
1
10
3.90552187836372
20
22.0931343932443
30
0
0
SPLINE
5
3D1
100
AcDbEntity
8
1
62
256
6
ByLayer
370
18
48
1
60
0
100
AcDbSpline
70
4
71
1
72
4
73
2
40
0
40
0
40
1
40
1
41
1
10
3.53935089267133
20
21.3902672882201
30
0
41
1
10
4.0451150081899
20
22.1053472096102
30
0
0
SPLINE
5
3D2
100
AcDbEntity
8
1
62
256
6
ByLayer
370
18
48
1
60
0
100
AcDbSpline
70
4
71
3
72
11
73
7
40
0
40
0
40
0
40
0
40
0.146551486113682
40
0.566174276660404
40
0.839772274789356
40
1
40
1
40
1
40
1
41
1
10
3.68527848060192
20
21.4030342978597
30
0
41
1
10
3.67545756980942
20
21.3942261056105
30
0
41
1
10
3.63801285426231
20
21.3616837833013
30
0
41
1
10
3.58325307081223
20
21.3193635707621
30
0
41
1
10
3.53460985193464
20
21.291268056249
30
0
41
1
10
3.51627834005178
20
21.2861827579896
30
0
41
1
10
3.51016040745219
20
21.2853241566404
30
0
0
SPLINE
5
3D3
100
AcDbEntity
8
1
62
256
6
ByLayer
370
18
48
1
60
0
100
AcDbSpline
70
4
71
1
72
4
73
2
40
0
40
0
40
1
40
1
41
1
10
3.68527848060192
20
21.4030342978597
30
0
41
1
10
4.53472518729809
20
22.148182549829
30
0
0
SPLINE
5
3D4
100
AcDbEntity
8
1
62
256
6
ByLayer
370
18
48
1
60
0
100
AcDbSpline
70
4
71
1
72
4
73
2
40
0
40
0
40
1
40
1
41
1
10
4.23113765154334
20
21.4507907871987
30
0
41
1
10
4.7229929745243
20
22.1646538469184
30
0
0
SPLINE
5
3D5
100
AcDbEntity
8
1
62
256
6
ByLayer
370
18
48
1
60
0
100
AcDbSpline
70
4
71
3
72
11
73
7
40
0
40
0
40
0
40
0
40
0.225287490920997
40
0.642093825407544
40
0.903201264265054
40
1
40
1
40
1
40
1
41
1
10
4.42306223056824
20
21.4675820121154
30
0
41
1
10
4.40614247251402
20
21.4537196605204
30
0
41
1
10
4.35873304964513
20
21.4170694882504
30
0
41
1
10
4.29267361730548
20
21.373678708534
30
0
41
1
10
4.24263968514586
20
21.3514430360914
30
0
41
1
10
4.22409794355613
20
21.3479230129531
30
0
41
1
10
4.21932646903852
20
21.3473693311902
30
0
0
SPLINE
5
3D6
100
AcDbEntity
8
1
62
256
6
ByLayer
370
18
48
1
60
0
100
AcDbSpline
70
4
71
1
72
4
73
2
40
0
40
0
40
1
40
1
41
1
10
4.42306223056824
20
21.4675820121154
30
0
41
1
10
5.3708512492505
20
22.2213341015284
30
0
0
SPLINE
5
3D7
100
AcDbEntity
8
1
62
256
6
ByLayer
370
18
48
1
60
0
100
AcDbSpline
70
4
71
1
72
4
73
2
40
0
40
0
40
1
40
1
41
1
10
5.1314558449449
20
21.5295584226875
30
0
41
1
10
5.61690831227034
20
22.2428613051231
30
0
0
SPLINE
5
3D8
100
AcDbEntity
8
1
62
256
6
ByLayer
370
18
48
1
60
0
100
AcDbSpline
70
4
71
3
72
11
73
7
40
0
40
0
40
0
40
0
40
0.335930104997063
40
0.722109031144125
40
0.970910748420874
40
1
40
1
40
1
40
1
41
1
10
5.37849326683316
20
21.5511713965688
30
0
41
1
10
5.34953898157506
20
21.5297890082911
30
0
41
1
10
5.28865670221278
20
21.4891507819005
30
0
41
1
10
5.207576561694
20
21.4457975741763
30
0
41
1
10
5.15801555865484
20
21.4300165494448
30
0
41
1
10
5.14032309398242
20
21.4279610280821
30
0
41
1
10
5.13849427571196
20
21.4277853036367
30
0
0
SPLINE
5
3D9
100
AcDbEntity
8
1
62
256
6
ByLayer
370
18
48
1
60
0
100
AcDbSpline
70
4
71
1
72
4
73
2
40
0
40
0
40
1
40
1
41
1
10
5.37849326683298
20
21.5511713965694
30
0
41
1
10
6.45889599704001
20
22.3165256823689
30
0
0
SPLINE
5
3DA
100
AcDbEntity
8
1
62
256
6
ByLayer
370
18
48
1
60
0
100
AcDbSpline
70
4
71
1
72
4
73
2
40
0
40
0
40
1
40
1
41
1
10
6.28817640259309
20
21.6307583583491
30
0
41
1
10
6.77850178459594
20
22.3444875655774
30
0
0
SPLINE
5
3DB
100
AcDbEntity
8
1
62
256
6
ByLayer
370
18
48
1
60
0
100
AcDbSpline
70
4
71
3
72
11
73
7
40
0
40
0
40
0
40
0
40
0.0664676056426566
40
0.685127545757208
40
0.88838815378505
40
1
40
1
40
1
40
1
41
1
10
6.606050241473
20
21.6585687156826
30
0
41
1
10
6.59945348262038
20
21.6543275803764
30
0
41
1
10
6.53158331965442
20
21.6115483547711
30
0
41
1
10
6.44126854235099
20
21.5641702280427
30
0
41
1
10
6.35410442393145
20
21.5363612755676
30
0
41
1
10
6.32737898290099
20
21.5320129722211
30
0
41
1
10
6.31815919391633
20
21.5309957935023
30
0
0
SPLINE
5
3DC
100
AcDbEntity
8
1
62
256
6
ByLayer
370
18
48
1
60
0
100
AcDbSpline
70
4
71
1
72
4
73
2
40
0
40
0
40
1
40
1
41
1
10
6.606050241473
20
21.6585687156826
30
0
41
1
10
7.88001588518384
20
22.4408575620928
30
0
0
SPLINE
5
3DD
100
AcDbEntity
8
1
62
256
6
ByLayer
370
18
48
1
60
0
100
AcDbSpline
70
4
71
1
72
4
73
2
40
0
40
0
40
1
40
1
41
1
10
7.78780647206562
20
21.7619589889106
30
0
41
1
10
8.30378094497337
20
22.4779322008227
30
0
0
SPLINE
5
3DE
100
AcDbEntity
8
1
62
256
6
ByLayer
370
18
48
1
60
0
100
AcDbSpline
70
4
71
3
72
10
73
6
40
0
40
0
40
0
40
0
40
0.0249302044577915
40
0.670034611092541
40
1
40
1
40
1
40
1
41
1
10
8.20723280560975
20
21.7986540382799
30
0
41
1
10
8.20418986960635
20
21.7970028781399
30
0
41
1
10
8.12244591568602
20
21.7529983793254
30
0
41
1
10
7.99603756558257
20
21.6947780703442
30
0
41
1
10
7.88383472435421
20
21.6702771948957
30
0
41
1
10
7.84634167045026
20
21.6646922538415
30
0
0
SPLINE
5
3DF
100
AcDbEntity
8
1
62
256
6
ByLayer
370
18
48
1
60
0
100
AcDbSpline
70
4
71
1
72
4
73
2
40
0
40
0
40
1
40
1
41
1
10
8.20723280560975
20
21.7986540382799
30
0
41
1
10
9.80630489563455
20
22.6093860131818
30
0
0
SPLINE
5
3E0
100
AcDbEntity
8
1
62
256
6
ByLayer
370
18
48
1
60
0
100
AcDbSpline
70
4
71
1
72
4
73
2
40
0
40
0
40
1
40
1
41
1
10
9.81606478385732
20
21.9394085978946
30
0
41
1
10
10.4097039521638
20
22.6621765902103
30
0
0
SPLINE
5
3E1
100
AcDbEntity
8
1
62
256
6
ByLayer
370
18
48
1
60
0
100
AcDbSpline
70
4
71
3
72
10
73
6
40
0
40
0
40
0
40
0
40
0.508021564117088
40
0.769608468939893
40
1
40
1
40
1
40
1
41
1
10
10.4141634283839
20
21.9917354489609
30
0
41
1
10
10.3293375307076
20
21.9551795338851
30
0
41
1
10
10.2018909445425
20
21.9091117557232
30
0
41
1
10
10.0360364212076
20
21.8631784404991
30
0
41
1
10
9.95725595437714
20
21.8504186480408
30
0
41
1
10
9.92076050003832
20
21.8461852990744
30
0
0
SPLINE
5
3E2
100
AcDbEntity
8
1
62
256
6
ByLayer
370
18
48
1
60
0
100
AcDbSpline
70
4
71
2
72
6
73
3
40
0
40
0
40
0
40
1
40
1
40
1
41
1
10
10.4141634283839
20
21.9917354489609
30
0
41
1
10
11.5683443984455
20
22.4826497181062
30
0
41
1
10
12.7717581287862
20
22.8688295532988
30
0
0
SPLINE
5
3E3
100
AcDbEntity
8
1
62
256
6
ByLayer
370
18
48
1
60
0
100
AcDbSpline
70
4
71
1
72
4
73
2
40
0
40
0
40
1
40
1
41
1
10
12.9734266376552
20
22.2156419667511
30
0
41
1
10
13.9179338113714
20
22.9691069319341
30
0
0
SPLINE
5
3E4
100
AcDbEntity
8
1
62
256
6
ByLayer
370
18
48
1
60
0
100
AcDbSpline
70
4
71
3
72
10
73
6
40
0
40
0
40
0
40
0
40
0.43142291184902
40
0.865891613255561
40
1
40
1
40
1
40
1
41
1
10
14.1506815212791
20
22.3186384231487
30
0
41
1
10
14.012908451946
20
22.2831720357642
30
0
41
1
10
13.7371561281511
20
22.220541683552
30
0
41
1
10
13.4176014297155
20
22.1577478273523
30
0
41
1
10
13.2387093303913
20
22.1371013301328
30
0
41
1
10
13.1965930824416
20
22.1327921294065
30
0
0
SPLINE
5
3E5
100
AcDbEntity
8
1
62
256
6
ByLayer
370
18
48
1
60
0
100
AcDbSpline
70
4
71
3
72
15
73
11
40
0
40
0
40
0
40
0
40
0.0209242872420951
40
0.124187751753379
40
0.170430003180928
40
0.21693968011402
40
0.259714627926262
40
0.333194275841202
40
0.481826532591953
40
1
40
1
40
1
40
1
41
1
10
23.0864107614339
20
23.1004134319994
30
0
41
1
10
23.0885565285225
20
23.0991682240925
30
0
41
1
10
23.1008736579018
20
23.0915560055929
30
0
41
1
10
23.1167029722011
20
23.07942750801
30
0
41
1
10
23.1263086732945
20
23.0627695029591
30
0
41
1
10
23.1269222502251
20
23.0509849544667
30
0
41
1
10
23.1207604504344
20
23.0385020010866
30
0
41
1
10
23.1012845467907
20
23.0225517696153
30
0
41
1
10
23.0262733498875
20
22.9952179384236
30
0
41
1
10
22.9528849250051
20
22.981152026892
30
0
41
1
10
22.8868535912051
20
22.9805657253702
30
0
0
SPLINE
5
3E6
100
AcDbEntity
8
1
62
256
6
ByLayer
370
18
48
1
60
0
100
AcDbSpline
70
4
71
1
72
4
73
2
40
0
40
0
40
1
40
1
41
1
10
22.0254149558428
20
23.6784196218256
30
0
41
1
10
23.086410761434
20
23.1004134319994
30
0
0
SPLINE
5
3E7
100
AcDbEntity
8
1
62
256
6
ByLayer
370
18
48
1
60
0
100
AcDbSpline
70
4
71
2
72
6
73
3
40
0
40
0
40
0
40
1
40
1
40
1
41
1
10
23.1715906384278
20
23.7786970004608
30
0
41
1
10
24.423777863045
20
23.6073594072468
30
0
41
1
10
25.6456739707053
20
23.3243199497896
30
0
0
SPLINE
5
3E8
100
AcDbEntity
8
1
62
256
6
ByLayer
370
18
48
1
60
0
100
AcDbSpline
70
4
71
3
72
14
73
10
40
0
40
0
40
0
40
0
40
0.0832729998310603
40
0.218910800111235
40
0.311368861362211
40
0.403670419465545
40
0.542698132960187
40
0.791995694130117
40
1
40
1
40
1
40
1
41
1
10
26.2437726152278
20
23.3766468008615
30
0
41
1
10
26.2494260294503
20
23.3718944063455
30
0
41
1
10
26.2624337537251
20
23.3591438646994
30
0
41
1
10
26.2764603351681
20
23.3390111540968
30
0
41
1
10
26.2792071139385
20
23.3190539487416
30
0
41
1
10
26.2720312148873
20
23.3019766419018
30
0
41
1
10
26.2481273162925
20
23.2837503215646
30
0
41
1
10
26.205622741073
20
23.2721555308519
30
0
41
1
10
26.1705284398584
20
23.2673156629221
30
0
41
1
10
26.1533843171765
20
23.266383123514
30
0
0
SPLINE
5
3E9
100
AcDbEntity
8
1
62
256
6
ByLayer
370
18
48
1
60
0
100
AcDbSpline
70
4
71
1
72
4
73
2
40
0
40
0
40
1
40
1
41
1
10
25.5336448150503
20
23.9853499635494
30
0
41
1
10
26.2437726152318
20
23.3766468008559
30
0
0
SPLINE
5
3EA
100
AcDbEntity
8
1
62
256
6
ByLayer
370
18
48
1
60
0
100
AcDbSpline
70
4
71
1
72
4
73
2
40
0
40
0
40
1
40
1
41
1
10
26.1370438715795
20
24.0381405405779
30
0
41
1
10
27.8526045934794
20
23.5174013604705
30
0
0
SPLINE
5
3EB
100
AcDbEntity
8
1
62
256
6
ByLayer
370
18
48
1
60
0
100
AcDbSpline
70
4
71
3
72
13
73
9
40
0
40
0
40
0
40
0
40
0.137362898969568
40
0.278383124620307
40
0.390223633629107
40
0.535816828259454
40
0.724389040456875
40
1
40
1
40
1
40
1
41
1
10
28.2720309270235
20
23.5540964098399
30
0
41
1
10
28.2798388854203
20
23.5466905121081
30
0
41
1
10
28.2931182188133
20
23.5316947927078
30
0
41
1
10
28.3061546408212
20
23.5097532264341
30
0
41
1
10
28.3097399350671
20
23.4891396229123
30
0
41
1
10
28.302106797295
20
23.4703935099226
30
0
41
1
10
28.2758370326159
20
23.4547067607671
30
0
41
1
10
28.2499396658833
20
23.4489491463017
30
0
41
1
10
28.2313786900906
20
23.4481515550514
30
0
0
SPLINE
5
3EC
100
AcDbEntity
8
1
62
256
6
ByLayer
370
18
48
1
60
0
100
AcDbSpline
70
4
71
1
72
4
73
2
40
0
40
0
40
1
40
1
41
1
10
27.6395678222407
20
24.1695943529369
30
0
41
1
10
28.2720309270235
20
23.5540964098399
30
0
0
SPLINE
5
3ED
100
AcDbEntity
8
1
62
256
6
ByLayer
370
18
48
1
60
0
100
AcDbSpline
70
4
71
1
72
4
73
2
40
0
40
0
40
1
40
1
41
1
10
28.0633328820302
20
24.2066689916669
30
0
41
1
10
29.4537871576162
20
23.6574866830679
30
0
0
SPLINE
5
3EE
100
AcDbEntity
8
1
62
256
6
ByLayer
370
18
48
1
60
0
100
AcDbSpline
70
4
71
3
72
13
73
9
40
0
40
0
40
0
40
0
40
0.0911012775287835
40
0.275453169561151
40
0.461336739013266
40
0.619620272335946
40
0.82731027598102
40
1
40
1
40
1
40
1
41
1
10
29.7716609964961
20
23.6852970404013
30
0
41
1
10
29.7763598407266
20
23.6805669160703
30
0
41
1
10
29.7894070874345
20
23.6663207082612
30
0
41
1
10
29.8070717913357
20
23.6418511839239
30
0
41
1
10
29.8143792706786
20
23.6163052753188
30
0
41
1
10
29.8068617688691
20
23.5966249589028
30
0
41
1
10
29.786971426435
20
23.5857850558816
30
0
41
1
10
29.7687906872739
20
23.5823701558298
30
0
41
1
10
29.7593148482835
20
23.5818322178073
30
0
0
SPLINE
5
3EF
100
AcDbEntity
8
1
62
256
6
ByLayer
370
18
48
1
60
0
100
AcDbSpline
70
4
71
1
72
4
73
2
40
0
40
0
40
1
40
1
41
1
10
29.1648469826181
20
24.3030389881823
30
0
41
1
10
29.7716609964961
20
23.6852970404013
30
0
0
SPLINE
5
3F0
100
AcDbEntity
8
1
62
256
6
ByLayer
370
18
48
1
60
0
100
AcDbSpline
70
4
71
1
72
4
73
2
40
0
40
0
40
1
40
1
41
1
10
29.484452770174
20
24.3310008713907
30
0
41
1
10
30.6813441322562
20
23.764884002181
30
0
0
SPLINE
5
3F1
100
AcDbEntity
8
1
62
256
6
ByLayer
370
18
48
1
60
0
100
AcDbSpline
70
4
71
3
72
13
73
9
40
0
40
0
40
0
40
0
40
0.131188899886397
40
0.336559588246703
40
0.543486720270037
40
0.721731463985348
40
0.950867277219938
40
1
40
1
40
1
40
1
41
1
10
30.9283815541442
20
23.7864969760629
30
0
41
1
10
30.9349617887949
20
23.7798237812636
30
0
41
1
10
30.9501316177748
20
23.7629882536636
30
0
41
1
10
30.9694429677794
20
23.7357771733466
30
0
41
1
10
30.9768329389422
20
23.7104002738819
30
0
41
1
10
30.9688437287209
20
23.6926217521732
30
0
41
1
10
30.953050264427
20
23.6866349649201
30
0
41
1
10
30.941293743164
20
23.6852176328856
30
0
41
1
10
30.93912375738
20
23.6850478913378
30
0
0
SPLINE
5
3F2
100
AcDbEntity
8
1
62
256
6
ByLayer
370
18
48
1
60
0
100
AcDbSpline
70
4
71
1
72
4
73
2
40
0
40
0
40
1
40
1
41
1
10
30.3264404549437
20
24.4046652486365
30
0
41
1
10
30.9283815541442
20
23.7864969760629
30
0
0
SPLINE
5
3F3
100
AcDbEntity
8
1
62
256
6
ByLayer
370
18
48
1
60
0
100
AcDbSpline
70
4
71
1
72
4
73
2
40
0
40
0
40
1
40
1
41
1
10
30.5724975179635
20
24.4261924522312
30
0
41
1
10
31.6367751685209
20
23.848473386635
30
0
0
SPLINE
5
3F4
100
AcDbEntity
8
1
62
256
6
ByLayer
370
18
48
1
60
0
100
AcDbSpline
70
4
71
3
72
12
73
8
40
0
40
0
40
0
40
0
40
0.26695735961654
40
0.47409367829987
40
0.682251333145925
40
0.870305279376825
40
1
40
1
40
1
40
1
41
1
10
31.828699747546
20
23.8652646115516
30
0
41
1
10
31.8425896234389
20
23.8514459019289
30
0
41
1
10
31.8623783871368
20
23.8285628293402
30
0
41
1
10
31.8809229235949
20
23.7977925350361
30
0
41
1
10
31.8831698129988
20
23.7775452340943
30
0
41
1
10
31.8731273399736
20
23.7680408108701
30
0
41
1
10
31.8631207664815
20
23.7657781466487
30
0
41
1
10
31.8582639678126
20
23.7654632279531
30
0
0
SPLINE
5
3F5
100
AcDbEntity
8
1
62
256
6
ByLayer
370
18
48
1
60
0
100
AcDbSpline
70
4
71
1
72
4
73
2
40
0
40
0
40
1
40
1
41
1
10
31.2203557926898
20
24.4828727068412
30
0
41
1
10
31.8286997475458
20
23.8652646115517
30
0
0
SPLINE
5
3F6
100
AcDbEntity
8
1
62
256
6
ByLayer
370
18
48
1
60
0
100
AcDbSpline
70
4
71
1
72
4
73
2
40
0
40
0
40
1
40
1
41
1
10
31.4086235799159
20
24.4993440039306
30
0
41
1
10
32.3745589184873
20
23.9130211008907
30
0
0
SPLINE
5
3F7
100
AcDbEntity
8
1
62
256
6
ByLayer
370
18
48
1
60
0
100
AcDbSpline
70
4
71
3
72
12
73
8
40
0
40
0
40
0
40
0
40
0.248520798924951
40
0.479857233771374
40
0.712757822354605
40
0.913605956246688
40
1
40
1
40
1
40
1
41
1
10
32.5204865064178
20
23.9257881105304
30
0
41
1
10
32.5333444962786
20
23.9132083266108
30
0
41
1
10
32.5543959920895
20
23.8904470538547
30
0
41
1
10
32.5774619094608
20
23.8589645886059
30
0
41
1
10
32.5842952179315
20
23.8373978185514
30
0
41
1
10
32.5772516368662
20
23.8292161836344
30
0
41
1
10
32.5699387794015
20
23.8276856224002
30
0
41
1
10
32.5673884044784
20
23.8275025650629
30
0
0
SPLINE
5
3F8
100
AcDbEntity
8
1
62
256
6
ByLayer
370
18
48
1
60
0
100
AcDbSpline
70
4
71
1
72
4
73
2
40
0
40
0
40
1
40
1
41
1
10
31.8982337590242
20
24.5421793441495
30
0
41
1
10
32.5204865064178
20
23.9257881105303
30
0
0
SPLINE
5
3F9
100
AcDbEntity
8
1
62
256
6
ByLayer
370
18
48
1
60
0
100
AcDbSpline
70
4
71
1
72
4
73
2
40
0
40
0
40
1
40
1
41
1
10
32.0378268888503
20
24.5543921605154
30
0
41
1
10
32.9270676083195
20
23.9613593477506
30
0
0
SPLINE
5
3FA
100
AcDbEntity
8
1
62
256
6
ByLayer
370
18
48
1
60
0
100
AcDbSpline
70
4
71
3
72
12
73
8
40
0
40
0
40
0
40
0
40
0.182765435601593
40
0.44887883003099
40
0.665503198801131
40
0.882857633386196
40
1
40
1
40
1
40
1
41
1
10
33.0326162861864
20
23.9705936605141
30
0
41
1
10
33.0420859587268
20
23.9615626545519
30
0
41
1
10
33.0632975235764
20
23.9403363915481
30
0
41
1
10
33.0895237994905
20
23.9106088151214
30
0
41
1
10
33.1044289368318
20
23.8865730090784
30
0
41
1
10
33.1040125176198
20
23.8759454722553
30
0
41
1
10
33.0984271455002
20
23.8739236721656
30
0
41
1
10
33.0958001447091
20
23.8737322509407
30
0
0
SPLINE
5
3FB
100
AcDbEntity
8
1
62
256
6
ByLayer
370
18
48
1
60
0
100
AcDbSpline
70
4
71
1
72
4
73
2
40
0
40
0
40
1
40
1
41
1
10
32.3905764066595
20
24.5852537443879
30
0
41
1
10
33.0326162861863
20
23.9705936605141
30
0
0
SPLINE
5
3FC
100
AcDbEntity
8
1
62
256
6
ByLayer
370
18
48
1
60
0
100
AcDbSpline
70
4
71
1
72
4
73
2
40
0
40
0
40
1
40
1
41
1
10
32.4870411186592
20
24.5936933131182
30
0
41
1
10
33.3144066126296
20
23.9952471195692
30
0
0
SPLINE
5
3FD
100
AcDbEntity
8
1
62
256
6
ByLayer
370
18
48
1
60
0
100
AcDbSpline
70
4
71
3
72
12
73
8
40
0
40
0
40
0
40
0
40
0.220289343669683
40
0.497461172808513
40
0.720282090622543
40
0.943994377306043
40
1
40
1
40
1
40
1
41
1
10
33.3830778839613
20
24.0012550773445
30
0
41
1
10
33.3949202208241
20
23.9903927773587
30
0
41
1
10
33.4191779538995
20
23.9673158822984
30
0
41
1
10
33.4486905873929
20
23.936639724811
30
0
41
1
10
33.465581767324
20
23.9142609473338
30
0
41
1
10
33.4663861514086
20
23.9067933008936
30
0
41
1
10
33.4629988222372
20
23.9058517135303
30
0
41
1
10
33.4621673234682
20
23.9057849377528
30
0
0
SPLINE
5
3FE
100
AcDbEntity
8
1
62
256
6
ByLayer
370
18
48
1
60
0
100
AcDbSpline
70
4
71
1
72
4
73
2
40
0
40
0
40
1
40
1
41
1
10
32.7159816789491
20
24.6137230167648
30
0
41
1
10
33.3830778839791
20
24.0012550773222
30
0
0
SPLINE
5
3FF
100
AcDbEntity
8
1
62
256
6
ByLayer
370
18
48
1
60
0
100
AcDbSpline
70
4
71
1
72
4
73
2
40
0
40
0
40
1
40
1
41
1
10
32.7726635114011
20
24.6186820345323
30
0
41
1
10
33.5489482592817
20
24.0157668547759
30
0
0
SPLINE
5
400
100
AcDbEntity
8
1
62
256
6
ByLayer
370
18
48
1
60
0
100
AcDbSpline
70
4
71
3
72
12
73
8
40
0
40
0
40
0
40
0
40
0.192160044427819
40
0.492341147747489
40
0.728008908272963
40
0.965067302440624
40
1
40
1
40
1
40
1
41
1
10
33.5828040127161
20
24.0187288493966
30
0
41
1
10
33.5934791659313
20
24.0093595799302
30
0
41
1
10
33.6190329648274
20
23.986609753797
30
0
41
1
10
33.6523890180454
20
23.9558010273411
30
0
41
1
10
33.6754227058998
20
23.9322388961281
30
0
41
1
10
33.6796776002792
20
23.9252315495354
30
0
41
1
10
33.6781094418102
20
23.9246774379976
30
0
41
1
10
33.6778483757475
20
23.9246545307881
30
0
0
SPLINE
5
401
100
AcDbEntity
8
1
62
256
6
ByLayer
370
18
48
1
60
0
100
AcDbSpline
70
4
71
1
72
4
73
2
40
0
40
0
40
1
40
1
41
1
10
32.8853809062756
20
24.628543528766
30
0
41
1
10
33.5828040127161
20
24.0187288493966
30
0
0
SPLINE
5
402
100
AcDbEntity
8
1
62
256
6
ByLayer
370
18
48
1
60
0
100
AcDbSpline
70
4
71
1
72
4
73
2
40
0
40
0
40
1
40
1
41
1
10
32.9040844176512
20
24.6301798739795
30
0
41
1
10
33.6375824818814
20
24.0235213444539
30
0
0
SPLINE
5
403
100
AcDbEntity
8
1
62
256
6
ByLayer
370
18
48
1
60
0
100
AcDbSpline
70
4
71
3
72
11
73
7
40
0
40
0
40
0
40
0
40
0.244801369453909
40
0.491551346693876
40
0.744667229135496
40
1
40
1
40
1
40
1
41
1
10
14.1506815212786
20
22.3186384231487
30
0
41
1
10
14.76954595846
20
22.4742749724336
30
0
41
1
10
16.0211471258768
20
22.737698464428
30
0
41
1
10
17.9509060636488
20
22.990741781491
30
0
41
1
10
19.9227626871812
20
23.0865918023247
30
0
41
1
10
21.2451224843487
20
23.0452392983467
30
0
41
1
10
21.9091558778105
20
22.9974169756018
30
0
0
SPLINE
5
404
100
AcDbEntity
8
1
62
256
6
ByLayer
370
18
48
1
60
0
100
AcDbSpline
70
4
71
3
72
12
73
8
40
0
40
0
40
0
40
0
40
0.0109361826279404
40
0.216366133945675
40
0.421704770000027
40
0.728544896327752
40
1
40
1
40
1
40
1
41
1
10
2.32854040096529
20
-21.1819451758963
30
0
41
1
10
2.32854105110891
20
-21.1819459358298
30
0
41
1
10
2.32864178306596
20
-21.1820644532924
30
0
41
1
10
2.33300256295434
20
-21.1871932611161
30
0
41
1
10
2.35158737640895
20
-21.209069409565
30
0
41
1
10
2.38256878521427
20
-21.2455933424761
30
0
41
1
10
2.40878564074129
20
-21.2765948552357
30
0
41
1
10
2.42225491720774
20
-21.2925340542966
30
0
0
SPLINE
5
405
100
AcDbEntity
8
1
62
256
6
ByLayer
370
18
48
1
60
0
100
AcDbSpline
70
4
71
2
72
6
73
3
40
0
40
0
40
0
40
1
40
1
40
1
41
1
10
10.4141634283839
20
-21.9917354489609
30
0
41
1
10
11.5683443984455
20
-22.4826497181062
30
0
41
1
10
12.7717581287863
20
-22.8688295532988
30
0
0
SPLINE
5
406
100
AcDbEntity
8
1
62
256
6
ByLayer
370
18
48
1
60
0
100
AcDbSpline
70
4
71
3
72
15
73
11
40
0
40
0
40
0
40
0
40
0.015640310250296
40
0.134157859946801
40
0.253810362439315
40
0.333337472607141
40
0.455311793411825
40
0.626668743980382
40
0.960865338416629
40
1
40
1
40
1
40
1
41
1
10
9.81606478385725
20
-21.9394085978952
30
0
41
1
10
9.81522712993292
20
-21.938379534199
30
0
41
1
10
9.80819842989817
20
-21.9295332949378
30
0
41
1
10
9.79661170499181
20
-21.912246869357
30
0
41
1
10
9.78983277588055
20
-21.8905144776123
30
0
41
1
10
9.79283208146957
20
-21.871794635824
30
0
41
1
10
9.80710148425418
20
-21.8560385213577
30
0
41
1
10
9.84575949658237
20
-21.8432663406465
30
0
41
1
10
9.88726984736867
20
-21.8434619554557
30
0
41
1
10
9.91632145794476
20
-21.8457756959075
30
0
41
1
10
9.91939118955456
20
-21.8460605105598
30
0
0
SPLINE
5
407
100
AcDbEntity
8
1
62
256
6
ByLayer
370
18
48
1
60
0
100
AcDbSpline
70
4
71
1
72
4
73
2
40
0
40
0
40
1
40
1
41
1
10
9.81606478385732
20
-21.9394085978946
30
0
41
1
10
10.4097039521639
20
-22.6621765902103
30
0
0
SPLINE
5
408
100
AcDbEntity
8
1
62
256
6
ByLayer
370
18
48
1
60
0
100
AcDbSpline
70
4
71
1
72
4
73
2
40
0
40
0
40
1
40
1
41
1
10
8.20723280560976
20
-21.7986540382799
30
0
41
1
10
9.80630489563461
20
-22.6093860131818
30
0
0
SPLINE
5
409
100
AcDbEntity
8
1
62
256
6
ByLayer
370
18
48
1
60
0
100
AcDbSpline
70
4
71
3
72
14
73
10
40
0
40
0
40
0
40
0
40
0.142107004387041
40
0.28664175868733
40
0.317323705390759
40
0.448391142917963
40
0.578975260941066
40
0.791432628208798
40
1
40
1
40
1
40
1
41
1
10
7.78780647206564
20
-21.7619589889106
30
0
41
1
10
7.78110144697385
20
-21.7529209027096
30
0
41
1
10
7.77033624430174
20
-21.7352388051359
30
0
41
1
10
7.76329439940485
20
-21.71568466464
30
0
41
1
10
7.76163780858662
20
-21.6989423632524
30
0
41
1
10
7.76459613828471
20
-21.684888382241
30
0
41
1
10
7.78008810882187
20
-21.6699002073141
30
0
41
1
10
7.80884299002475
20
-21.663086942036
30
0
41
1
10
7.83386418616
20
-21.6631195574677
30
0
41
1
10
7.84758780615296
20
-21.6648083823405
30
0
0
SPLINE
5
40A
100
AcDbEntity
8
1
62
256
6
ByLayer
370
18
48
1
60
0
100
AcDbSpline
70
4
71
1
72
4
73
2
40
0
40
0
40
1
40
1
41
1
10
7.78780647206562
20
-21.7619589889106
30
0
41
1
10
8.30378094497338
20
-22.4779322008227
30
0
0
SPLINE
5
40B
100
AcDbEntity
8
1
62
256
6
ByLayer
370
18
48
1
60
0
100
AcDbSpline
70
4
71
1
72
4
73
2
40
0
40
0
40
1
40
1
41
1
10
6.606050241473
20
-21.6585687156826
30
0
41
1
10
7.88001588518389
20
-22.4408575620927
30
0
0
SPLINE
5
40C
100
AcDbEntity
8
1
62
256
6
ByLayer
370
18
48
1
60
0
100
AcDbSpline
70
4
71
3
72
13
73
9
40
0
40
0
40
0
40
0
40
0.158333256671151
40
0.334419485295592
40
0.434784563223718
40
0.597899120332613
40
0.797343768015704
40
1
40
1
40
1
40
1
41
1
10
6.28817640259323
20
-21.6307583583496
30
0
41
1
10
6.28138161676905
20
-21.6211019178528
30
0
41
1
10
6.26966793537463
20
-21.601495119036
30
0
41
1
10
6.26018914586104
20
-21.5766624281398
30
0
41
1
10
6.25902931512617
20
-21.5557598779311
30
0
41
1
10
6.26649622337108
20
-21.5392528131126
30
0
41
1
10
6.28777582680343
20
-21.5303012521796
30
0
41
1
10
6.30696074726446
20
-21.5296235246457
30
0
41
1
10
6.31812504968244
20
-21.5309925738148
30
0
0
SPLINE
5
40D
100
AcDbEntity
8
1
62
256
6
ByLayer
370
18
48
1
60
0
100
AcDbSpline
70
4
71
1
72
4
73
2
40
0
40
0
40
1
40
1
41
1
10
6.28817640259309
20
-21.6307583583491
30
0
41
1
10
6.77850178459594
20
-22.3444875655773
30
0
0
SPLINE
5
40E
100
AcDbEntity
8
1
62
256
6
ByLayer
370
18
48
1
60
0
100
AcDbSpline
70
4
71
1
72
4
73
2
40
0
40
0
40
1
40
1
41
1
10
5.37849326683298
20
-21.5511713965694
30
0
41
1
10
6.45889599704006
20
-22.3165256823689
30
0
0
SPLINE
5
40F
100
AcDbEntity
8
1
62
256
6
ByLayer
370
18
48
1
60
0
100
AcDbSpline
70
4
71
3
72
12
73
8
40
0
40
0
40
0
40
0
40
0.221842823011734
40
0.408282313600094
40
0.595593317910078
40
0.770234821304728
40
1
40
1
40
1
40
1
41
1
10
5.13145584494491
20
-21.5295584226875
30
0
41
1
10
5.12215553792821
20
-21.5162257094161
30
0
41
1
10
5.1087757709497
20
-21.4932867619299
30
0
41
1
10
5.09749003357389
20
-21.4621561351574
30
0
41
1
10
5.09887601118052
20
-21.4407282776885
30
0
41
1
10
5.11268030278373
20
-21.4283000108409
30
0
41
1
10
5.12765377196557
20
-21.4264936632148
30
0
41
1
10
5.13832479121595
20
-21.4277699720176
30
0
0
SPLINE
5
410
100
AcDbEntity
8
1
62
256
6
ByLayer
370
18
48
1
60
0
100
AcDbSpline
70
4
71
1
72
4
73
2
40
0
40
0
40
1
40
1
41
1
10
5.13145584494491
20
-21.5295584226875
30
0
41
1
10
5.61690831227034
20
-22.2428613051231
30
0
0
SPLINE
5
411
100
AcDbEntity
8
1
62
256
6
ByLayer
370
18
48
1
60
0
100
AcDbSpline
70
4
71
1
72
4
73
2
40
0
40
0
40
1
40
1
41
1
10
4.42306223056824
20
-21.4675820121154
30
0
41
1
10
5.37085124925054
20
-22.2213341015284
30
0
0
SPLINE
5
412
100
AcDbEntity
8
1
62
256
6
ByLayer
370
18
48
1
60
0
100
AcDbSpline
70
4
71
3
72
13
73
9
40
0
40
0
40
0
40
0
40
0.149166388754129
40
0.378267263738812
40
0.524066317505195
40
0.734243414178641
40
0.943571075017915
40
1
40
1
40
1
40
1
41
1
10
4.23113765154335
20
-21.4507907871987
30
0
41
1
10
4.2250971260739
20
-21.4421177029976
30
0
41
1
10
4.21152026742421
20
-21.4209342893615
30
0
41
1
10
4.19730849422532
20
-21.3928389260235
30
0
41
1
10
4.19098596713491
20
-21.3675359882745
30
0
41
1
10
4.1950963083879
20
-21.3510298495716
30
0
41
1
10
4.20795626631615
20
-21.3468356028266
30
0
41
1
10
4.21710861537297
20
-21.3471520949389
30
0
41
1
10
4.21916773405078
20
-21.347354524839
30
0
0
SPLINE
5
413
100
AcDbEntity
8
1
62
256
6
ByLayer
370
18
48
1
60
0
100
AcDbSpline
70
4
71
1
72
4
73
2
40
0
40
0
40
1
40
1
41
1
10
4.23113765154334
20
-21.4507907871987
30
0
41
1
10
4.72299297452429
20
-22.1646538469184
30
0
0
SPLINE
5
414
100
AcDbEntity
8
1
62
256
6
ByLayer
370
18
48
1
60
0
100
AcDbSpline
70
4
71
1
72
4
73
2
40
0
40
0
40
1
40
1
41
1
10
3.68527848060192
20
-21.4030342978597
30
0
41
1
10
4.53472518729813
20
-22.148182549829
30
0
0
SPLINE
5
415
100
AcDbEntity
8
1
62
256
6
ByLayer
370
18
48
1
60
0
100
AcDbSpline
70
4
71
3
72
13
73
9
40
0
40
0
40
0
40
0
40
0.0686858024485462
40
0.341744753296917
40
0.556014381387033
40
0.637435352803023
40
0.859406046711456
40
1
40
1
40
1
40
1
41
1
10
3.53935089267134
20
-21.3902672882201
30
0
41
1
10
3.53657431772515
20
-21.3863482560442
30
0
41
1
10
3.52330985178778
20
-21.3671336840407
30
0
41
1
10
3.50474961089756
20
-21.336760802419
30
0
41
1
10
3.49488035950665
20
-21.3116327968972
30
0
41
1
10
3.49268216302743
20
-21.2946580217025
30
0
41
1
10
3.49729055475166
20
-21.2859810139311
30
0
41
1
10
3.50601968257791
20
-21.2848743144891
30
0
41
1
10
3.51022965022775
20
-21.2853305861593
30
0
0
SPLINE
5
416
100
AcDbEntity
8
1
62
256
6
ByLayer
370
18
48
1
60
0
100
AcDbSpline
70
4
71
1
72
4
73
2
40
0
40
0
40
1
40
1
41
1
10
3.53935089267133
20
-21.3902672882201
30
0
41
1
10
4.04511500818989
20
-22.1053472096102
30
0
0
SPLINE
5
417
100
AcDbEntity
8
1
62
256
6
ByLayer
370
18
48
1
60
0
100
AcDbSpline
70
4
71
1
72
4
73
2
40
0
40
0
40
1
40
1
41
1
10
3.13276979076965
20
-21.3546960509998
30
0
41
1
10
3.90552187836376
20
-22.0931343932443
30
0
0
SPLINE
5
418
100
AcDbEntity
8
1
62
256
6
ByLayer
370
18
48
1
60
0
100
AcDbSpline
70
4
71
3
72
12
73
8
40
0
40
0
40
0
40
0
40
0.232100397086181
40
0.483667894977694
40
0.601431303457078
40
0.814271802349159
40
1
40
1
40
1
40
1
41
1
10
3.02722111290429
20
-21.3454617382397
30
0
41
1
10
3.01725808075401
20
-21.3319580580281
30
0
41
1
10
2.9991727908676
20
-21.3057638382853
30
0
41
1
10
2.98183400757521
20
-21.2761567890665
30
0
41
1
10
2.97271384537598
20
-21.2541762036045
30
0
41
1
10
2.97167214121395
20
-21.2411379695663
30
0
41
1
10
2.97757870678962
20
-21.2386991893953
30
0
41
1
10
2.98177674761764
20
-21.2390963876114
30
0
0
SPLINE
5
419
100
AcDbEntity
8
1
62
256
6
ByLayer
370
18
48
1
60
0
100
AcDbSpline
70
4
71
1
72
4
73
2
40
0
40
0
40
1
40
1
41
1
10
3.0272211129028
20
-21.3454617382363
30
0
41
1
10
3.55277236055457
20
-22.0622728093717
30
0
0
SPLINE
5
41A
100
AcDbEntity
8
1
62
256
6
ByLayer
370
18
48
1
60
0
100
AcDbSpline
70
4
71
1
72
4
73
2
40
0
40
0
40
1
40
1
41
1
10
2.74543078645952
20
-21.3208082791813
30
0
41
1
10
3.45630764855486
20
-22.0538332406415
30
0
0
SPLINE
5
41B
100
AcDbEntity
8
1
62
256
6
ByLayer
370
18
48
1
60
0
100
AcDbSpline
70
4
71
3
72
12
73
8
40
0
40
0
40
0
40
0
40
0.238613116607628
40
0.511707737404663
40
0.732286975625645
40
0.792826595354829
40
1
40
1
40
1
40
1
41
1
10
2.67675951511258
20
-21.3148003214329
30
0
41
1
10
2.66612466225822
20
-21.3009342265386
30
0
41
1
10
2.6458246371202
20
-21.2733403309433
30
0
41
1
10
2.62222297471584
20
-21.2378837842009
30
0
41
1
10
2.61304625275609
20
-21.2193266135806
30
0
41
1
10
2.61064941988662
20
-21.2090624120175
30
0
41
1
10
2.61234238295774
20
-21.2068013658336
30
0
41
1
10
2.61544923558071
20
-21.2070467958305
30
0
0
SPLINE
5
41C
100
AcDbEntity
8
1
62
256
6
ByLayer
370
18
48
1
60
0
100
AcDbSpline
70
4
71
1
72
4
73
2
40
0
40
0
40
1
40
1
41
1
10
2.67675951511009
20
-21.3148003214283
30
0
41
1
10
3.22736708826501
20
-22.0338035369948
30
0
0
SPLINE
5
41D
100
AcDbEntity
8
1
62
256
6
ByLayer
370
18
48
1
60
0
100
AcDbSpline
70
4
71
1
72
4
73
2
40
0
40
0
40
1
40
1
41
1
10
2.51088913980745
20
-21.3002885439745
30
0
41
1
10
3.17068525581292
20
-22.0288445192274
30
0
0
SPLINE
5
41E
100
AcDbEntity
8
1
62
256
6
ByLayer
370
18
48
1
60
0
100
AcDbSpline
70
4
71
3
72
12
73
8
40
0
40
0
40
0
40
0
40
0.328285505251244
40
0.597497088703807
40
0.684562926673686
40
0.894907426179368
40
1
40
1
40
1
40
1
41
1
10
2.47703338637308
20
-21.2973265493539
30
0
41
1
10
2.46138282890559
20
-21.2778521331035
30
0
41
1
10
2.43677486691619
20
-21.2463868518354
30
0
41
1
10
2.41427516959585
20
-21.2158221957578
30
0
41
1
10
2.40226021275509
20
-21.1976990391612
30
0
41
1
10
2.39798236916654
20
-21.1894760372404
30
0
41
1
10
2.39899585460025
20
-21.1881197034086
30
0
41
1
10
2.39978138244072
20
-21.1881783040262
30
0
0
SPLINE
5
41F
100
AcDbEntity
8
1
62
256
6
ByLayer
370
18
48
1
60
0
100
AcDbSpline
70
4
71
1
72
4
73
2
40
0
40
0
40
1
40
1
41
1
10
2.47703338637308
20
-21.2973265493539
30
0
41
1
10
3.05796786093842
20
-22.0189830249937
30
0
0
SPLINE
5
420
100
AcDbEntity
8
1
62
256
6
ByLayer
370
18
48
1
60
0
100
AcDbSpline
70
4
71
1
72
4
73
2
40
0
40
0
40
1
40
1
41
1
10
2.42225491720774
20
-21.2925340542966
30
0
41
1
10
3.03926434956289
20
-22.0173466797802
30
0
0
SPLINE
5
421
100
AcDbEntity
8
1
62
256
6
ByLayer
370
18
48
1
60
0
100
AcDbSpline
70
4
71
3
72
12
73
8
40
0
40
0
40
0
40
0
40
0.0672255836410468
40
0.413782603524366
40
0.678940834103407
40
0.894703555242509
40
1
40
1
40
1
40
1
41
1
10
33.6375824818816
20
-24.0235213444537
30
0
41
1
10
33.6414484383881
20
-24.0202991302729
30
0
41
1
10
33.6648541655898
20
-24.0007955902439
30
0
41
1
10
33.7010727998275
20
-23.9706830923849
30
0
41
1
10
33.7343569257569
20
-23.9430783405681
30
0
41
1
10
33.7473468331333
20
-23.9323189282448
30
0
41
1
10
33.7490380778065
20
-23.9309177379299
30
0
41
1
10
33.749076493391
20
-23.9308861830825
30
0
0
SPLINE
5
422
100
AcDbEntity
8
1
62
256
6
ByLayer
370
18
48
1
60
0
100
AcDbSpline
70
4
71
1
72
4
73
2
40
0
40
0
40
1
40
1
41
1
10
32.9040844176512
20
-24.6301798739795
30
0
41
1
10
33.6375824818814
20
-24.0235213444539
30
0
0
SPLINE
5
423
100
AcDbEntity
8
1
62
256
6
ByLayer
370
18
48
1
60
0
100
AcDbSpline
70
4
71
1
72
4
73
2
40
0
40
0
40
1
40
1
41
1
10
32.8853809062756
20
-24.6285435287659
30
0
41
1
10
33.5828040127161
20
-24.0187288493966
30
0
0
SPLINE
5
424
100
AcDbEntity
8
1
62
256
6
ByLayer
370
18
48
1
60
0
100
AcDbSpline
70
4
71
3
72
11
73
7
40
0
40
0
40
0
40
0
40
0.244935456615725
40
0.554888390375039
40
0.798340750458897
40
1
40
1
40
1
40
1
41
1
10
33.5489482592817
20
-24.015766854776
30
0
41
1
10
33.5642981751672
20
-24.0037031098151
30
0
41
1
10
33.5969264427945
20
-23.9785259643889
30
0
41
1
10
33.63936874065
20
-23.947216350026
30
0
41
1
10
33.6687007778137
20
-23.9277725784531
30
0
41
1
10
33.6762964931106
20
-23.9246498007155
30
0
41
1
10
33.6780793452652
20
-23.9246914237777
30
0
0
SPLINE
5
425
100
AcDbEntity
8
1
62
256
6
ByLayer
370
18
48
1
60
0
100
AcDbSpline
70
4
71
1
72
4
73
2
40
0
40
0
40
1
40
1
41
1
10
32.7726635114012
20
-24.6186820345323
30
0
41
1
10
33.5489482592817
20
-24.0157668547759
30
0
0
SPLINE
5
426
100
AcDbEntity
8
1
62
256
6
ByLayer
370
18
48
1
60
0
100
AcDbSpline
70
4
71
1
72
4
73
2
40
0
40
0
40
1
40
1
41
1
10
32.7159816789491
20
-24.6137230167648
30
0
41
1
10
33.3830778839791
20
-24.0012550773222
30
0
0
SPLINE
5
427
100
AcDbEntity
8
1
62
256
6
ByLayer
370
18
48
1
60
0
100
AcDbSpline
70
4
71
3
72
11
73
7
40
0
40
0
40
0
40
0
40
0.2943420357246
40
0.612229614070838
40
0.85715318073916
40
1
40
1
40
1
40
1
41
1
10
33.3144066126296
20
-23.9952471195692
30
0
41
1
10
33.3339644046701
20
-23.9808539433945
30
0
41
1
10
33.3720174394864
20
-23.9539913155294
30
0
41
1
10
33.4205438006334
20
-23.9228582640365
30
0
41
1
10
33.4504763064036
20
-23.9076181051796
30
0
41
1
10
33.4596069282732
20
-23.9057327056988
30
0
41
1
10
33.4621626026005
20
-23.9057845440188
30
0
0
SPLINE
5
428
100
AcDbEntity
8
1
62
256
6
ByLayer
370
18
48
1
60
0
100
AcDbSpline
70
4
71
1
72
4
73
2
40
0
40
0
40
1
40
1
41
1
10
32.4870411186592
20
-24.5936933131182
30
0
41
1
10
33.3144066126296
20
-23.9952471195692
30
0
0
SPLINE
5
429
100
AcDbEntity
8
1
62
256
6
ByLayer
370
18
48
1
60
0
100
AcDbSpline
70
4
71
1
72
4
73
2
40
0
40
0
40
1
40
1
41
1
10
32.3905764066595
20
-24.5852537443879
30
0
41
1
10
33.0326162861863
20
-23.9705936605141
30
0
0
SPLINE
5
42A
100
AcDbEntity
8
1
62
256
6
ByLayer
370
18
48
1
60
0
100
AcDbSpline
70
4
71
3
72
12
73
8
40
0
40
0
40
0
40
0
40
0.168637507280004
40
0.254478734973325
40
0.63829210272371
40
0.876941197818146
40
1
40
1
40
1
40
1
41
1
10
32.9270676083195
20
-23.9613593477506
30
0
41
1
10
32.9388783951997
20
-23.9533406548293
30
0
41
1
10
32.9564015409978
20
-23.9417828710775
30
0
41
1
10
32.9992541166409
20
-23.914801847036
30
0
41
1
10
33.0442737193882
20
-23.889342990783
30
0
41
1
10
33.0809445063244
20
-23.8748317465197
30
0
41
1
10
33.0924575817675
20
-23.8735905442067
30
0
41
1
10
33.0957976796601
20
-23.8737320506332
30
0
0
SPLINE
5
42B
100
AcDbEntity
8
1
62
256
6
ByLayer
370
18
48
1
60
0
100
AcDbSpline
70
4
71
1
72
4
73
2
40
0
40
0
40
1
40
1
41
1
10
32.0378268888503
20
-24.5543921605154
30
0
41
1
10
32.9270676083195
20
-23.9613593477506
30
0
0
SPLINE
5
42C
100
AcDbEntity
8
1
62
256
6
ByLayer
370
18
48
1
60
0
100
AcDbSpline
70
4
71
1
72
4
73
2
40
0
40
0
40
1
40
1
41
1
10
31.8982337590242
20
-24.5421793441495
30
0
41
1
10
32.5204865064178
20
-23.9257881105303
30
0
0
SPLINE
5
42D
100
AcDbEntity
8
1
62
256
6
ByLayer
370
18
48
1
60
0
100
AcDbSpline
70
4
71
3
72
11
73
7
40
0
40
0
40
0
40
0
40
0.0453675690335205
40
0.549576422931538
40
0.816260129970383
40
1
40
1
40
1
40
1
41
1
10
32.3745589184873
20
-23.9130211008907
30
0
41
1
10
32.3780073791874
20
-23.9108796662432
30
0
41
1
10
32.4195720893465
20
-23.8853401176588
30
0
41
1
10
32.4804624395733
20
-23.8521709870696
30
0
41
1
10
32.5402623594113
20
-23.8296284657299
30
0
41
1
10
32.5603523537774
20
-23.8273108425682
30
0
41
1
10
32.5675036321487
20
-23.8275121080136
30
0
0
SPLINE
5
42E
100
AcDbEntity
8
1
62
256
6
ByLayer
370
18
48
1
60
0
100
AcDbSpline
70
4
71
1
72
4
73
2
40
0
40
0
40
1
40
1
41
1
10
31.408623579916
20
-24.4993440039306
30
0
41
1
10
32.3745589184872
20
-23.9130211008907
30
0
0
SPLINE
5
42F
100
AcDbEntity
8
1
62
256
6
ByLayer
370
18
48
1
60
0
100
AcDbSpline
70
4
71
1
72
4
73
2
40
0
40
0
40
1
40
1
41
1
10
31.2203557926898
20
-24.4828727068412
30
0
41
1
10
31.8286997475458
20
-23.8652646115517
30
0
0
SPLINE
5
430
100
AcDbEntity
8
1
62
256
6
ByLayer
370
18
48
1
60
0
100
AcDbSpline
70
4
71
3
72
11
73
7
40
0
40
0
40
0
40
0
40
0.39610340937865
40
0.732231854578975
40
0.973815403495847
40
1
40
1
40
1
40
1
41
1
10
31.6367751685208
20
-23.8484733866349
30
0
41
1
10
31.6709158637381
20
-23.8291500954946
30
0
41
1
10
31.7306502627316
20
-23.7994402893071
30
0
41
1
10
31.805715190218
20
-23.7711925276203
30
0
41
1
10
31.8440177009208
20
-23.7646506870274
30
0
41
1
10
31.8572267749454
20
-23.765381883747
30
0
41
1
10
31.8584918065711
20
-23.7654818742784
30
0
0
SPLINE
5
431
100
AcDbEntity
8
1
62
256
6
ByLayer
370
18
48
1
60
0
100
AcDbSpline
70
4
71
1
72
4
73
2
40
0
40
0
40
1
40
1
41
1
10
30.5724975179635
20
-24.4261924522312
30
0
41
1
10
31.6367751685209
20
-23.848473386635
30
0
0
SPLINE
5
432
100
AcDbEntity
8
1
62
256
6
ByLayer
370
18
48
1
60
0
100
AcDbSpline
70
4
71
1
72
4
73
2
40
0
40
0
40
1
40
1
41
1
10
30.3264404549437
20
-24.4046652486365
30
0
41
1
10
30.9283815541442
20
-23.7864969760629
30
0
0
SPLINE
5
433
100
AcDbEntity
8
1
62
256
6
ByLayer
370
18
48
1
60
0
100
AcDbSpline
70
4
71
3
72
11
73
7
40
0
40
0
40
0
40
0
40
0.15808574698229
40
0.648877394697937
40
0.902151207675446
40
1
40
1
40
1
40
1
41
1
10
30.6813441322562
20
-23.7648840021811
30
0
41
1
10
30.6963018741912
20
-23.7574966890421
30
0
41
1
10
30.7569482747231
20
-23.7291135427724
30
0
41
1
10
30.840489604976
20
-23.6977466199015
30
0
41
1
10
30.9089303071706
20
-23.684514595882
30
0
41
1
10
30.9324804091378
20
-23.6846290976851
30
0
41
1
10
30.9387569479242
20
-23.6850178775727
30
0
0
SPLINE
5
434
100
AcDbEntity
8
1
62
256
6
ByLayer
370
18
48
1
60
0
100
AcDbSpline
70
4
71
1
72
4
73
2
40
0
40
0
40
1
40
1
41
1
10
29.484452770174
20
-24.3310008713907
30
0
41
1
10
30.6813441322562
20
-23.764884002181
30
0
0
SPLINE
5
435
100
AcDbEntity
8
1
62
256
6
ByLayer
370
18
48
1
60
0
100
AcDbSpline
70
4
71
1
72
4
73
2
40
0
40
0
40
1
40
1
41
1
10
29.1648469826181
20
-24.3030389881823
30
0
41
1
10
29.7716609964961
20
-23.6852970404013
30
0
0
SPLINE
5
436
100
AcDbEntity
8
1
62
256
6
ByLayer
370
18
48
1
60
0
100
AcDbSpline
70
4
71
3
72
10
73
6
40
0
40
0
40
0
40
0
40
0.578849145836876
40
0.830112729202334
40
1
40
1
40
1
40
1
41
1
10
29.4537871576162
20
-23.6574866830679
30
0
41
1
10
29.5189602876055
20
-23.6293814874372
30
0
41
1
10
29.6068138982689
20
-23.6006775190009
30
0
41
1
10
29.7078981574498
20
-23.581650719314
30
0
41
1
10
29.7449109069702
20
-23.5810891708455
30
0
41
1
10
29.759213157547
20
-23.581824141477
30
0
0
SPLINE
5
437
100
AcDbEntity
8
1
62
256
6
ByLayer
370
18
48
1
60
0
100
AcDbSpline
70
4
71
1
72
4
73
2
40
0
40
0
40
1
40
1
41
1
10
28.0633328820302
20
-24.2066689916669
30
0
41
1
10
29.4537871576162
20
-23.6574866830679
30
0
0
SPLINE
5
438
100
AcDbEntity
8
1
62
256
6
ByLayer
370
18
48
1
60
0
100
AcDbSpline
70
4
71
1
72
4
73
2
40
0
40
0
40
1
40
1
41
1
10
27.6395678222407
20
-24.1695943529369
30
0
41
1
10
28.2720309270235
20
-23.5540964098399
30
0
0
SPLINE
5
439
100
AcDbEntity
8
1
62
256
6
ByLayer
370
18
48
1
60
0
100
AcDbSpline
70
4
71
3
72
10
73
6
40
0
40
0
40
0
40
0
40
0.368697976287454
40
0.763674159534996
40
1
40
1
40
1
40
1
41
1
10
27.8526045934794
20
-23.5174013604705
30
0
41
1
10
27.9018097845784
20
-23.5007336552457
30
0
41
1
10
28.0014770548774
20
-23.4726586943985
30
0
41
1
10
28.1314548513229
20
-23.4478471025509
30
0
41
1
10
28.2047044197766
20
-23.446899168827
30
0
41
1
10
28.2313510981518
20
-23.4481492289567
30
0
0
SPLINE
5
43A
100
AcDbEntity
8
1
62
256
6
ByLayer
370
18
48
1
60
0
100
AcDbSpline
70
4
71
1
72
4
73
2
40
0
40
0
40
1
40
1
41
1
10
26.1370438715795
20
-24.0381405405779
30
0
41
1
10
27.8526045934794
20
-23.5174013604705
30
0
0
SPLINE
5
43B
100
AcDbEntity
8
1
62
256
6
ByLayer
370
18
48
1
60
0
100
AcDbSpline
70
4
71
1
72
4
73
2
40
0
40
0
40
1
40
1
41
1
10
25.5336448150502
20
-23.9853499635493
30
0
41
1
10
26.2437726152318
20
-23.3766468008559
30
0
0
SPLINE
5
43C
100
AcDbEntity
8
1
62
256
6
ByLayer
370
18
48
1
60
0
100
AcDbSpline
70
4
71
3
72
10
73
6
40
0
40
0
40
0
40
0
40
0.219205294419696
40
0.861807277615391
40
1
40
1
40
1
40
1
41
1
10
25.6456739707053
20
-23.3243199497896
30
0
41
1
10
25.6836886634384
20
-23.3154763521959
30
0
41
1
10
25.8318155896631
20
-23.2851184699445
30
0
41
1
10
26.0059019104046
20
-23.2610993195661
30
0
41
1
10
26.1296998358838
20
-23.2650371053765
30
0
41
1
10
26.1514244925038
20
-23.2662360868452
30
0
0
SPLINE
5
43D
100
AcDbEntity
8
1
62
256
6
ByLayer
370
18
48
1
60
0
100
AcDbSpline
70
4
71
2
72
6
73
3
40
0
40
0
40
0
40
1
40
1
40
1
41
1
10
23.1715906384278
20
-23.7786970004608
30
0
41
1
10
24.4237778630449
20
-23.6073594072468
30
0
41
1
10
25.6456739707053
20
-23.3243199497896
30
0
0
SPLINE
5
43E
100
AcDbEntity
8
1
62
256
6
ByLayer
370
18
48
1
60
0
100
AcDbSpline
70
4
71
1
72
4
73
2
40
0
40
0
40
1
40
1
41
1
10
22.0254149558426
20
-23.6784196218255
30
0
41
1
10
23.0864107614454
20
-23.1004134320004
30
0
0
SPLINE
5
43F
100
AcDbEntity
8
1
62
256
6
ByLayer
370
18
48
1
60
0
100
AcDbSpline
70
4
71
3
72
10
73
6
40
0
40
0
40
0
40
0
40
0.531414862986824
40
0.935104668665989
40
1
40
1
40
1
40
1
41
1
10
21.9091558778106
20
-22.9974169756018
30
0
41
1
10
22.084139763611
20
-22.9831254762776
30
0
41
1
10
22.3885096533585
20
-22.9701533255422
30
0
41
1
10
22.7129139315343
20
-22.9679916107308
30
0
41
1
10
22.8603286299197
20
-22.9784513468989
30
0
41
1
10
22.8806947712676
20
-22.9800425550366
30
0
0
SPLINE
5
440
100
AcDbEntity
8
1
62
256
6
ByLayer
370
18
48
1
60
0
100
AcDbSpline
70
4
71
3
72
15
73
11
40
0
40
0
40
0
40
0
40
0.0964340735935382
40
0.144585862365959
40
0.193157693599513
40
0.236244934287841
40
0.296724273105713
40
0.407336689738898
40
0.762732455463251
40
1
40
1
40
1
40
1
41
1
10
12.9734266376552
20
-22.2156419667511
30
0
41
1
10
12.963659085182
20
-22.2079950144011
30
0
41
1
10
12.9523617946444
20
-22.1958523143765
30
0
41
1
10
12.9420982821139
20
-22.1778465767116
30
0
41
1
10
12.940643502952
20
-22.1647773984039
30
0
41
1
10
12.9462296835428
20
-22.1528032307068
30
0
41
1
10
12.9622320146191
20
-22.1407658292079
30
0
41
1
10
13.0158280618863
20
-22.1253599731694
30
0
41
1
10
13.0999817369197
20
-22.1259626376848
30
0
41
1
10
13.1704767908951
20
-22.1298153276098
30
0
41
1
10
13.1994653202378
20
-22.133056776528
30
0
0
SPLINE
5
441
100
AcDbEntity
8
1
62
256
6
ByLayer
370
18
48
1
60
0
100
AcDbSpline
70
4
71
1
72
4
73
2
40
0
40
0
40
1
40
1
41
1
10
12.9734266376552
20
-22.2156419667511
30
0
41
1
10
13.9179338113714
20
-22.9691069319341
30
0
0
SPLINE
5
442
100
AcDbEntity
8
1
62
256
6
ByLayer
370
18
48
1
60
0
100
AcDbSpline
70
4
71
3
72
11
73
7
40
0
40
0
40
0
40
0
40
0.244801369453909
40
0.491551346693876
40
0.744667229135496
40
1
40
1
40
1
40
1
41
1
10
14.1506815212786
20
-22.3186384231487
30
0
41
1
10
14.76954595846
20
-22.4742749724336
30
0
41
1
10
16.0211471258768
20
-22.737698464428
30
0
41
1
10
17.9509060636488
20
-22.990741781491
30
0
41
1
10
19.9227626871812
20
-23.0865918023247
30
0
41
1
10
21.2451224843487
20
-23.0452392983467
30
0
41
1
10
21.9091558778105
20
-22.9974169756018
30
0
0
SPLINE
5
443
100
AcDbEntity
8
1
62
256
6
ByLayer
370
18
48
1
60
0
100
AcDbSpline
70
4
71
3
72
14
73
10
40
0
40
0
40
0
40
0
40
0.060563223641315
40
0.307519264854609
40
0.484474450975071
40
0.612939291301882
40
0.742116713754728
40
0.858868455403266
40
1
40
1
40
1
40
1
41
1
10
0.445276896732479
20
-11.9488597401226
30
0
41
1
10
0.445308180126558
20
-11.9530012942194
30
0
41
1
10
0.444949509029533
20
-11.9736364097296
30
0
41
1
10
0.441407325024668
20
-12.0044481419012
30
0
41
1
10
0.428586448334315
20
-12.0317704696501
30
0
41
1
10
0.411080162647436
20
-12.0436672363703
30
0
41
1
10
0.390593562774662
20
-12.0432369588891
30
0
41
1
10
0.367046751533775
20
-12.0322192974105
30
0
41
1
10
0.351734972464637
20
-12.0207974910253
30
0
41
1
10
0.343278579257489
20
-12.0130158376653
30
0
0
SPLINE
5
444
100
AcDbEntity
8
1
62
256
6
ByLayer
370
18
48
1
60
0
100
AcDbSpline
70
4
71
2
72
6
73
3
40
0
40
0
40
0
40
1
40
1
40
1
41
1
10
0.445276696077769
20
11.9487961174387
30
0
41
1
10
0.435256087330962
20
11.7572184002966
30
0
41
1
10
0.343278579257498
20
11.54046753934
30
0
0
SPLINE
5
445
100
AcDbEntity
8
1
62
256
6
ByLayer
370
18
48
1
60
0
100
AcDbSpline
70
4
71
3
72
16
73
12
40
0
40
0
40
0
40
0
40
0.217222464918035
40
0.500758163706331
40
0.603534828525392
40
0.706891705452133
40
0.757697319219859
40
0.808987166493476
40
0.854402757236918
40
0.911179099927808
40
1
40
1
40
1
40
1
41
1
10
13.1965930824416
20
22.1327921294065
30
0
41
1
10
13.170350249976
20
22.1300690079654
30
0
41
1
10
13.1108916458222
20
22.1263784194175
30
0
41
1
10
13.0397813537447
20
22.1257257137523
30
0
41
1
10
12.9864723546605
20
22.1334449453731
30
0
41
1
10
12.9610191758085
20
22.1416272895697
30
0
41
1
10
12.9460486080379
20
22.1531412074139
30
0
41
1
10
12.9405334383519
20
22.1647224611608
30
0
41
1
10
12.9424000596616
20
22.1789498930573
30
0
41
1
10
12.9531259134697
20
22.1966286887808
30
0
41
1
10
12.9645952141675
20
22.2086771077605
30
0
41
1
10
12.9734266376552
20
22.2156419667511
30
0
0
SPLINE
5
446
100
AcDbEntity
8
1
62
256
6
ByLayer
370
18
48
1
60
0
100
AcDbSpline
70
4
71
3
72
11
73
7
40
0
40
0
40
0
40
0
40
0.0072597922126725
40
0.471218614455015
40
0.936948021364121
40
1
40
1
40
1
40
1
41
1
10
22.8868535912051
20
22.9805657253702
30
0
41
1
10
22.8845683451545
20
22.9803697566922
30
0
41
1
10
22.7361916884098
20
22.9677772212514
30
0
41
1
10
22.4309849488999
20
22.9644763734863
30
0
41
1
10
22.1042614818518
20
22.9841076503887
30
0
41
1
10
21.9299497230506
20
22.9959480124987
30
0
41
1
10
21.9091558778105
20
22.9974169756018
30
0
0
SPLINE
5
447
100
AcDbEntity
8
1
62
256
6
ByLayer
370
18
48
1
60
0
100
AcDbSpline
70
4
71
3
72
10
73
6
40
0
40
0
40
0
40
0
40
0.20074663103746
40
0.494441267867115
40
1
40
1
40
1
40
1
41
1
10
13.1994653202378
20
-22.133056776528
30
0
41
1
10
13.2623365502725
20
-22.1390451809366
30
0
41
1
10
13.4176644875922
20
-22.1574473120942
30
0
41
1
10
13.7357366894965
20
-22.2210671479787
30
0
41
1
10
13.9896324863225
20
-22.2775732890708
30
0
41
1
10
14.1506815212786
20
-22.3186384231487
30
0
0
SPLINE
5
448
100
AcDbEntity
8
1
62
256
6
ByLayer
370
18
48
1
60
0
100
AcDbSpline
70
4
71
3
72
15
73
11
40
0
40
0
40
0
40
0
40
0.357555853377326
40
0.621692309508341
40
0.711601198200383
40
0.7647803719392
40
0.8086313284814
40
0.852586855431405
40
0.90844906154851
40
1
40
1
40
1
40
1
41
1
10
22.8806947712676
20
-22.9800425550366
30
0
41
1
10
22.9249402215382
20
-22.9821272972905
30
0
41
1
10
22.9967565200625
20
-22.9926443367428
30
0
41
1
10
23.0774502095891
20
-23.0108003101642
30
0
41
1
10
23.1136606714897
20
-23.0314893617987
30
0
41
1
10
23.1246662358523
20
-23.0445422616666
30
0
41
1
10
23.1274063118877
20
-23.0564014300984
30
0
41
1
10
23.1235660845505
20
-23.0692081477466
30
0
41
1
10
23.1101667529332
20
-23.0848859974073
30
0
41
1
10
23.0966752262434
20
-23.0949198466783
30
0
41
1
10
23.0864107614411
20
-23.1004134319952
30
0
0
SPLINE
5
449
100
AcDbEntity
8
1
62
256
6
ByLayer
370
18
48
1
60
0
100
AcDbSpline
70
4
71
3
72
13
73
9
40
0
40
0
40
0
40
0
40
0.211239836146808
40
0.437215282717622
40
0.583955171835618
40
0.731074820089226
40
0.873919040341086
40
1
40
1
40
1
40
1
41
1
10
0.445278504389573
20
-13.7038837939876
30
0
41
1
10
0.445688851265102
20
-13.7167474564222
30
0
41
1
10
0.443068049652192
20
-13.739811111766
30
0
41
1
10
0.431765630142755
20
-13.7646456286708
30
0
41
1
10
0.411795084235746
20
-13.7735944024665
30
0
41
1
10
0.3894027009434
20
-13.7700321534603
30
0
41
1
10
0.365680656375293
20
-13.7573277574272
30
0
41
1
10
0.350489469226699
20
-13.7459997836923
30
0
41
1
10
0.343278579257491
20
-13.7398159364993
30
0
0
SPLINE
5
44A
100
AcDbEntity
8
1
62
256
6
ByLayer
370
18
48
1
60
0
100
AcDbSpline
70
4
71
3
72
10
73
6
40
0
40
0
40
0
40
0
40
0.0915222333176837
40
0.503585151909477
40
1
40
1
40
1
40
1
41
1
10
0.445272100753337
20
13.7023655376355
30
0
41
1
10
0.445064628163654
20
13.6934816835138
30
0
41
1
10
0.442357728494379
20
13.6438456537832
30
0
41
1
10
0.41284040210632
20
13.5304557976483
30
0
41
1
10
0.372092470306812
20
13.4271263072337
30
0
41
1
10
0.343278579257487
20
13.3683356695468
30
0
0
SPLINE
5
44B
100
AcDbEntity
8
1
62
256
6
ByLayer
370
18
48
1
60
0
100
AcDbSpline
70
4
71
3
72
14
73
10
40
0
40
0
40
0
40
0
40
0.108273557825167
40
0.323558094038514
40
0.540771603630781
40
0.668700423720531
40
0.76341933820292
40
0.857922621851577
40
1
40
1
40
1
40
1
41
1
10
9.92076050003832
20
21.8461852990744
30
0
41
1
10
9.91217801879866
20
21.8453353335147
30
0
41
1
10
9.88701436716607
20
21.8436999564907
30
0
41
1
10
9.84655613203368
20
21.8443285777724
30
0
41
1
10
9.80967591539196
20
21.8536459753879
30
0
41
1
10
9.7922702052489
20
21.8720415200022
30
0
41
1
10
9.7900222529615
20
21.891093921361
30
0
41
1
10
9.7975121417773
20
21.9137793740156
30
0
41
1
10
9.80775119714046
20
21.929680441687
30
0
41
1
10
9.81606478385732
20
21.9394085978946
30
0
0
SPLINE
5
44C
100
AcDbEntity
8
1
62
256
6
ByLayer
370
18
48
1
60
0
100
AcDbSpline
70
4
71
2
72
6
73
3
40
0
40
0
40
0
40
1
40
1
40
1
41
1
10
26.1533843171765
20
23.266383123514
30
0
41
1
10
25.9141663051867
20
23.2560315674838
30
0
41
1
10
25.6456739707053
20
23.3243199497896
30
0
0
SPLINE
5
44D
100
AcDbEntity
8
1
62
256
6
ByLayer
370
18
48
1
60
0
100
AcDbSpline
70
4
71
2
72
6
73
3
40
0
40
0
40
0
40
1
40
1
40
1
41
1
10
9.91939118955456
20
-21.8460605105598
30
0
41
1
10
10.1621832115331
20
-21.8810800276873
30
0
41
1
10
10.4141634283839
20
-21.9917354489609
30
0
0
SPLINE
5
44E
100
AcDbEntity
8
1
62
256
6
ByLayer
370
18
48
1
60
0
100
AcDbSpline
70
4
71
3
72
14
73
10
40
0
40
0
40
0
40
0
40
0.35442245102034
40
0.506311346991871
40
0.628170179144074
40
0.722066290251346
40
0.816132322521194
40
0.935314110999134
40
1
40
1
40
1
40
1
41
1
10
26.1514244925038
20
-23.2662360868452
30
0
41
1
10
26.1821626656961
20
-23.2670144041428
30
0
41
1
10
26.2199149982669
20
-23.2741160396624
30
0
41
1
10
26.2597748057193
20
-23.291254762761
30
0
41
1
10
26.2754963933892
20
-23.3070583775954
30
0
41
1
10
26.2794861136297
20
-23.3247139798158
30
0
41
1
10
26.2733482244265
20
-23.3445044090943
30
0
41
1
10
26.2594294398291
20
-23.362185407594
30
0
41
1
10
26.2481349943154
20
-23.372940234749
30
0
41
1
10
26.2437726152318
20
-23.3766468008559
30
0
0
SPLINE
5
44F
100
AcDbEntity
8
1
62
256
6
ByLayer
370
18
48
1
60
0
100
AcDbSpline
70
4
71
3
72
13
73
9
40
0
40
0
40
0
40
0
40
0.159607261867417
40
0.349187474989669
40
0.54033568664596
40
0.708570849644256
40
0.90624594330998
40
1
40
1
40
1
40
1
41
1
10
0.445268008465126
20
-15.107879944568
30
0
41
1
10
0.445533112871723
20
-15.1163304117451
30
0
41
1
10
0.444034984519166
20
-15.1327570849862
30
0
41
1
10
0.435734230516096
20
-15.1531534626684
30
0
41
1
10
0.417359714532144
20
-15.1621557382585
30
0
41
1
10
0.390388826186602
20
-15.1565162597864
30
0
41
1
10
0.364703298214653
20
-15.1413052454818
30
0
41
1
10
0.348542417143026
20
-15.1289371124836
30
0
41
1
10
0.343278579223906
20
-15.1245672474115
30
0
0
SPLINE
5
450
100
AcDbEntity
8
1
62
256
6
ByLayer
370
18
48
1
60
0
100
AcDbSpline
70
4
71
3
72
10
73
6
40
0
40
0
40
0
40
0
40
0.246284594069556
40
0.724455311353357
40
1
40
1
40
1
40
1
41
1
10
0.445278119583137
20
15.1092803777227
30
0
41
1
10
0.444127074641213
20
15.0891805624017
30
0
41
1
10
0.435659770605643
20
15.0277798493013
30
0
41
1
10
0.396094936570758
20
14.9267678139017
30
0
41
1
10
0.358702007898454
20
14.8517197144237
30
0
41
1
10
0.343278579257488
20
14.8237109429722
30
0
0
SPLINE
5
451
100
AcDbEntity
8
1
62
256
6
ByLayer
370
18
48
1
60
0
100
AcDbSpline
70
4
71
3
72
14
73
10
40
0
40
0
40
0
40
0
40
0.0486100573095416
40
0.357525331187703
40
0.505763396067778
40
0.655161938543328
40
0.691896288561134
40
0.843182833168627
40
1
40
1
40
1
40
1
41
1
10
7.84634167045026
20
21.6646922538415
30
0
41
1
10
7.84327210738962
20
21.664397452454
30
0
41
1
10
7.82112156468737
20
21.6628175166338
30
0
41
1
10
7.79138896173244
20
21.6646005928137
30
0
41
1
10
7.76755081417997
20
21.6798580984449
30
0
41
1
10
7.76198107512656
20
21.6945480710484
30
0
41
1
10
7.76240838895342
20
21.7122441576031
30
0
41
1
10
7.76914086403859
20
21.7331753710787
30
0
41
1
10
7.78038715483831
20
21.7520004951619
30
0
41
1
10
7.78780647206563
20
21.7619589889106
30
0
0
SPLINE
5
452
100
AcDbEntity
8
1
62
256
6
ByLayer
370
18
48
1
60
0
100
AcDbSpline
70
4
71
3
72
10
73
6
40
0
40
0
40
0
40
0
40
0.0237255721748487
40
0.392097628899296
40
1
40
1
40
1
40
1
41
1
10
28.2313786900906
20
23.4481515550514
30
0
41
1
10
28.2288001139199
20
23.4479433597171
30
0
41
1
10
28.1859764061718
20
23.4448412638109
30
0
41
1
10
28.060870623796
20
23.457738091678
30
0
41
1
10
27.9355957965374
20
23.4881107175571
30
0
41
1
10
27.8526045934794
20
23.5174013604705
30
0
0
SPLINE
5
453
100
AcDbEntity
8
1
62
256
6
ByLayer
370
18
48
1
60
0
100
AcDbSpline
70
4
71
3
72
10
73
6
40
0
40
0
40
0
40
0
40
0.100358575380031
40
0.558258763248493
40
1
40
1
40
1
40
1
41
1
10
7.84758780615296
20
-21.6648083823405
30
0
41
1
10
7.85859667240287
20
-21.6660431531539
30
0
41
1
10
7.9204583026108
20
-21.6747924617694
30
0
41
1
10
8.04361725489711
20
-21.7174290404242
30
0
41
1
10
8.15257250505013
20
-21.7684193276612
30
0
41
1
10
8.20723280560976
20
-21.7986540382799
30
0
0
SPLINE
5
454
100
AcDbEntity
8
1
62
256
6
ByLayer
370
18
48
1
60
0
100
AcDbSpline
70
4
71
3
72
14
73
10
40
0
40
0
40
0
40
0
40
0.0538479043430596
40
0.268404945275474
40
0.485020046273338
40
0.609943676235246
40
0.74278256405883
40
0.875081248362052
40
1
40
1
40
1
40
1
41
1
10
28.2313510981518
20
-23.4481492289567
30
0
41
1
10
28.2347521976233
20
-23.448422684806
30
0
41
1
10
28.2513479030197
20
-23.4501687575444
30
0
41
1
10
28.2792191623157
20
-23.4559669575077
30
0
41
1
10
28.3027201725512
20
-23.470828843866
30
0
41
1
10
28.3098886074016
20
-23.4910891062301
30
0
41
1
10
28.3054648294398
20
-23.5116536740419
30
0
41
1
10
28.2915301972649
20
-23.5335286807746
30
0
41
1
10
28.2790755994142
20
-23.5473871063645
30
0
41
1
10
28.2720309270235
20
-23.5540964098399
30
0
0
SPLINE
5
455
100
AcDbEntity
8
1
62
256
6
ByLayer
370
18
48
1
60
0
100
AcDbSpline
70
4
71
3
72
13
73
9
40
0
40
0
40
0
40
0
40
0.0873567378933789
40
0.296858699425236
40
0.508074974959289
40
0.688110787978947
40
0.912198191365237
40
1
40
1
40
1
40
1
41
1
10
0.445276670197078
20
-16.2567364954148
30
0
41
1
10
0.445339899564482
20
-16.2606390439808
30
0
41
1
10
0.44458091220713
20
-16.2729312134249
30
0
41
1
10
0.438424514079117
20
-16.2898822237654
30
0
41
1
10
0.419738195308065
20
-16.2967894116173
30
0
41
1
10
0.391459944511397
20
-16.2886249735707
30
0
41
1
10
0.364940634042526
20
-16.2719559799631
30
0
41
1
10
0.348088072645901
20
-16.2588832613755
30
0
41
1
10
0.343278579249778
20
-16.2549231580643
30
0
0
SPLINE
5
456
100
AcDbEntity
8
1
62
256
6
ByLayer
370
18
48
1
60
0
100
AcDbSpline
70
4
71
3
72
11
73
7
40
0
40
0
40
0
40
0
40
0.004614497120567
40
0.2678046783436
40
0.708008732143594
40
1
40
1
40
1
40
1
41
1
10
0.445278549848732
20
16.2572737352011
30
0
41
1
10
0.445278113165041
20
16.256985905268
30
0
41
1
10
0.445197089814696
20
16.2402412678275
30
0
41
1
10
0.434050163267921
20
16.1869489268442
30
0
41
1
10
0.395811157439269
20
16.099886710878
30
0
41
1
10
0.35956917657751
20
16.035017127777
30
0
41
1
10
0.343278579257488
20
16.008510663641
30
0
0
SPLINE
5
457
100
AcDbEntity
8
1
62
256
6
ByLayer
370
18
48
1
60
0
100
AcDbSpline
70
4
71
3
72
14
73
10
40
0
40
0
40
0
40
0
40
0.143823312775125
40
0.33632593501591
40
0.530557939773407
40
0.565588860509854
40
0.727991708020143
40
0.925445442873447
40
1
40
1
40
1
40
1
41
1
10
6.31815919391632
20
21.5309957935023
30
0
41
1
10
6.31040287901022
20
21.5301323312763
30
0
41
1
10
6.29378957998845
20
21.529998425007
30
0
41
1
10
6.2714418068893
20
21.5354584039735
30
0
41
1
10
6.26163499154822
20
21.5482057727721
30
0
41
1
10
6.25895198190899
20
21.5644095614503
30
0
41
1
10
6.26183223439947
20
21.5844650796459
30
0
41
1
10
6.27467611332127
20
21.6101937244312
30
0
41
1
10
6.28507796479598
20
21.6262917620096
30
0
41
1
10
6.28817640259461
20
21.6307583583562
30
0
0
SPLINE
5
458
100
AcDbEntity
8
1
62
256
6
ByLayer
370
18
48
1
60
0
100
AcDbSpline
70
4
71
3
72
10
73
6
40
0
40
0
40
0
40
0
40
0.0985449521239683
40
0.476261565985866
40
1
40
1
40
1
40
1
41
1
10
29.7593148482835
20
23.5818322178073
30
0
41
1
10
29.7511186434155
20
23.5813313934591
30
0
41
1
10
29.7104863072781
20
23.5804568592452
30
0
41
1
10
29.6078138019115
20
23.6003140519174
30
0
41
1
10
29.5126495434277
20
23.632059789238
30
0
41
1
10
29.4537871576162
20
23.6574866830679
30
0
0
SPLINE
5
459
100
AcDbEntity
8
1
62
256
6
ByLayer
370
18
48
1
60
0
100
AcDbSpline
70
4
71
3
72
10
73
6
40
0
40
0
40
0
40
0
40
0.0655223305807087
40
0.414615377211655
40
1
40
1
40
1
40
1
41
1
10
6.31812504968244
20
-21.5309925738149
30
0
41
1
10
6.32350972390157
20
-21.5315632797108
30
0
41
1
10
6.35806368114399
20
-21.5362205481425
30
0
41
1
10
6.454469730127
20
-21.5703114671591
30
0
41
1
10
6.54566751340599
20
-21.6185409113729
30
0
41
1
10
6.60605024147301
20
-21.6585687156826
30
0
0
SPLINE
5
45A
100
AcDbEntity
8
1
62
256
6
ByLayer
370
18
48
1
60
0
100
AcDbSpline
70
4
71
3
72
13
73
9
40
0
40
0
40
0
40
0
40
0.129163714751064
40
0.325191821435251
40
0.523041016151306
40
0.694539030315011
40
0.849919588571672
40
1
40
1
40
1
40
1
41
1
10
29.759213157547
20
-23.581824141477
30
0
41
1
10
29.766197325791
20
-23.5822749601152
30
0
41
1
10
29.782234067818
20
-23.5847749022055
30
0
41
1
10
29.8036209842183
20
-23.5934153499471
30
0
41
1
10
29.8145007812201
20
-23.6119630346698
30
0
41
1
10
29.809193447964
20
-23.6365807431558
30
0
41
1
10
29.7933447562045
20
-23.6615825768563
30
0
41
1
10
29.7795553837976
20
-23.6774174518403
30
0
41
1
10
29.7716609964961
20
-23.6852970404013
30
0
0
SPLINE
5
45B
100
AcDbEntity
8
1
62
256
6
ByLayer
370
18
48
1
60
0
100
AcDbSpline
70
4
71
3
72
13
73
9
40
0
40
0
40
0
40
0
40
0.0414554286394455
40
0.257288121419037
40
0.474594288463926
40
0.663371611005831
40
0.908281117885496
40
1
40
1
40
1
40
1
41
1
10
0.445278221262944
20
-17.1986612353246
30
0
41
1
10
0.445290471540198
20
-17.2002303990524
30
0
41
1
10
0.444956682976829
20
-17.2095582320094
30
0
41
1
10
0.440223987855058
20
-17.2232262883632
30
0
41
1
10
0.422160539089438
20
-17.2276881015108
30
0
41
1
10
0.393668585324253
20
-17.2175459167364
30
0
41
1
10
0.366115692588833
20
-17.1993747953103
30
0
41
1
10
0.348231995837728
20
-17.1852712862034
30
0
41
1
10
0.343278579252597
20
-17.1811675775391
30
0
0
SPLINE
5
45C
100
AcDbEntity
8
1
62
256
6
ByLayer
370
18
48
1
60
0
100
AcDbSpline
70
4
71
3
72
11
73
7
40
0
40
0
40
0
40
0
40
0.0558574186571564
40
0.331669256416673
40
0.76992610651832
40
1
40
1
40
1
40
1
41
1
10
0.445277225885605
20
17.1984554799941
30
0
41
1
10
0.445226417107377
20
17.1955864416562
30
0
41
1
10
0.444154887660011
20
17.1779799549074
30
0
41
1
10
0.428319243696314
20
17.1260459000451
30
0
41
1
10
0.389574627313916
20
17.0517358080499
30
0
41
1
10
0.355913629967234
20
16.9982689250171
30
0
41
1
10
0.343278579260319
20
16.9794705811172
30
0
0
SPLINE
5
45D
100
AcDbEntity
8
1
62
256
6
ByLayer
370
18
48
1
60
0
100
AcDbSpline
70
4
71
3
72
10
73
6
40
0
40
0
40
0
40
0
40
0.206010723500891
40
0.606963425550267
40
1
40
1
40
1
40
1
41
1
10
30.93912375738
20
23.6850478913378
30
0
41
1
10
30.9253711997176
20
23.6845981760636
30
0
41
1
10
30.8823557565711
20
23.6869570784814
30
0
41
1
10
30.7922132229464
20
23.7147078510851
30
0
41
1
10
30.7193008824496
20
23.7459086219908
30
0
41
1
10
30.6813441322562
20
23.7648840021811
30
0
0
SPLINE
5
45E
100
AcDbEntity
8
1
62
256
6
ByLayer
370
18
48
1
60
0
100
AcDbSpline
70
4
71
3
72
13
73
9
40
0
40
0
40
0
40
0
40
0.146664578078322
40
0.346235107318782
40
0.547149115889474
40
0.722719538148228
40
0.959148293280372
40
1
40
1
40
1
40
1
41
1
10
30.9387569479242
20
-23.6850178775727
30
0
41
1
10
30.9454481239557
20
-23.6854280830971
30
0
41
1
10
30.9590140936646
20
-23.6881838236038
30
0
41
1
10
30.9740276817155
20
-23.6985692719341
30
0
41
1
10
30.9756991446758
20
-23.7189700828433
30
0
41
1
10
30.9624930458799
20
-23.7472848665947
30
0
41
1
10
30.9436768501852
20
-23.7704835681832
30
0
41
1
10
30.9303961124901
20
-23.7844350856137
30
0
41
1
10
30.9283815541442
20
-23.7864969760629
30
0
0
SPLINE
5
45F
100
AcDbEntity
8
1
62
256
6
ByLayer
370
18
48
1
60
0
100
AcDbSpline
70
4
71
3
72
11
73
7
40
0
40
0
40
0
40
0
40
0.0132986357505404
40
0.282216149491331
40
0.733362368478286
40
1
40
1
40
1
40
1
41
1
10
5.13832479121595
20
-21.4277699720176
30
0
41
1
10
5.13915770190711
20
-21.4278464627326
30
0
41
1
10
5.15693751117253
20
-21.4296455136714
30
0
41
1
10
5.21168444603979
20
-21.4468621670889
30
0
41
1
10
5.29500649416993
20
-21.4930528107576
30
0
41
1
10
5.35560884756018
20
-21.5343082674175
30
0
41
1
10
5.37849326683299
20
-21.5511713965694
30
0
0
SPLINE
5
460
100
AcDbEntity
8
1
62
256
6
ByLayer
370
18
48
1
60
0
100
AcDbSpline
70
4
71
3
72
12
73
8
40
0
40
0
40
0
40
0
40
0.204132228181701
40
0.395513345697686
40
0.587825683222195
40
0.778433563053724
40
1
40
1
40
1
40
1
41
1
10
5.13849427571196
20
21.4277853036367
30
0
41
1
10
5.12907642982501
20
21.4266674606337
30
0
41
1
10
5.11407165033785
20
21.428004945175
30
0
41
1
10
5.09921304445715
20
21.4392998505748
30
0
41
1
10
5.09725929686826
20
21.4614268441138
30
0
41
1
10
5.10863146234257
20
21.4930421939721
30
0
41
1
10
5.12214960967947
20
21.5162202984894
30
0
41
1
10
5.13145584494491
20
21.5295584226875
30
0
0
SPLINE
5
461
100
AcDbEntity
8
1
62
256
6
ByLayer
370
18
48
1
60
0
100
AcDbSpline
70
4
71
3
72
13
73
9
40
0
40
0
40
0
40
0
40
0.0024029464344294
40
0.220422091102897
40
0.439620029841718
40
0.635378278972709
40
0.897417111562255
40
1
40
1
40
1
40
1
41
1
10
0.445278578418583
20
-17.9666666294272
30
0
41
1
10
0.445278612290263
20
-17.9667425564784
30
0
41
1
10
0.445260830136235
20
-17.9736863103222
30
0
41
1
10
0.441798294547958
20
-17.9845261716881
30
0
41
1
10
0.424758854576671
20
-17.9867261735205
30
0
41
1
10
0.396546020232474
20
-17.9748097612443
30
0
41
1
10
0.367884158535976
20
-17.9549767034546
30
0
41
1
10
0.348768969724565
20
-17.9395722557813
30
0
41
1
10
0.343278579251768
20
-17.934952238028
30
0
0
SPLINE
5
462
100
AcDbEntity
8
1
62
256
6
ByLayer
370
18
48
1
60
0
100
AcDbSpline
70
4
71
3
72
11
73
7
40
0
40
0
40
0
40
0
40
0.106198987855081
40
0.389067987887675
40
0.820910985054654
40
1
40
1
40
1
40
1
41
1
10
0.445277405909412
20
17.9663561103936
30
0
41
1
10
0.445123306617705
20
17.9618896801901
30
0
41
1
10
0.442940411932281
20
17.9442877136092
30
0
41
1
10
0.42278232210314
20
17.8940836374508
30
0
41
1
10
0.38418418761699
20
17.8298654793235
30
0
41
1
10
0.35300585016107
20
17.7850553634903
30
0
41
1
10
0.34327857925749
20
17.7716749003053
30
0
0
SPLINE
5
463
100
AcDbEntity
8
1
62
256
6
ByLayer
370
18
48
1
60
0
100
AcDbSpline
70
4
71
3
72
11
73
7
40
0
40
0
40
0
40
0
40
0.101070460711133
40
0.397163099905274
40
0.862062171059734
40
1
40
1
40
1
40
1
41
1
10
31.8582639678126
20
23.7654632279531
30
0
41
1
10
31.8532420008234
20
23.7651820609961
30
0
41
1
10
31.8322490845057
20
23.7655263227842
30
0
41
1
10
31.7717870984539
20
23.7817405151571
30
0
41
1
10
31.69843532458
20
23.815017103639
30
0
41
1
10
31.6483791183615
20
23.8419706896821
30
0
41
1
10
31.6367751685209
20
23.8484733866351
30
0
0
SPLINE
5
464
100
AcDbEntity
8
1
62
256
6
ByLayer
370
18
48
1
60
0
100
AcDbSpline
70
4
71
3
72
10
73
6
40
0
40
0
40
0
40
0
40
0.179031448956436
40
0.519383216699582
40
1
40
1
40
1
40
1
41
1
10
4.21916773405078
20
-21.347354524839
30
0
41
1
10
4.22827298750758
20
-21.3486490849109
30
0
41
1
10
4.25648702759641
20
-21.3556958550578
30
0
41
1
10
4.32651978352602
20
-21.3940870707941
30
0
41
1
10
4.38584249409281
20
-21.4367063480832
30
0
41
1
10
4.42306223056824
20
-21.4675820121154
30
0
0
SPLINE
5
465
100
AcDbEntity
8
1
62
256
6
ByLayer
370
18
48
1
60
0
100
AcDbSpline
70
4
71
3
72
13
73
9
40
0
40
0
40
0
40
0
40
0.126969173279624
40
0.328814012587482
40
0.531434910697702
40
0.719405199855118
40
0.991964162609706
40
1
40
1
40
1
40
1
41
1
10
4.21932646903852
20
21.3473693311902
30
0
41
1
10
4.21459200483306
20
21.3468486006434
30
0
41
1
10
4.20397305082588
20
21.3473274513635
30
0
41
1
10
4.19243385782401
20
21.3552203958726
30
0
41
1
10
4.19178459988068
20
21.375690778441
30
0
41
1
10
4.2036853931509
20
21.4076632678771
30
0
41
1
10
4.21980665874842
20
21.4342809839098
30
0
41
1
10
4.23082052700261
20
21.4503305120193
30
0
41
1
10
4.23113765154334
20
21.4507907871987
30
0
0
SPLINE
5
466
100
AcDbEntity
8
1
62
256
6
ByLayer
370
18
48
1
60
0
100
AcDbSpline
70
4
71
3
72
12
73
8
40
0
40
0
40
0
40
0
40
0.195512567008574
40
0.389676950977217
40
0.58417037912633
40
0.774986054818032
40
1
40
1
40
1
40
1
41
1
10
31.8584918065711
20
-23.7654818742784
30
0
41
1
10
31.8659582691729
20
-23.7659395754332
30
0
41
1
10
31.8771065409548
20
-23.7696236382363
30
0
41
1
10
31.8839030818461
20
-23.7834220361051
30
0
41
1
10
31.8771505195998
20
-23.8053158577872
30
0
41
1
10
31.858062131348
20
-23.8336094223147
30
0
41
1
10
31.8401719606539
20
-23.8538007334749
30
0
41
1
10
31.8286997475458
20
-23.8652646115517
30
0
0
SPLINE
5
467
100
AcDbEntity
8
1
62
256
6
ByLayer
370
18
48
1
60
0
100
AcDbSpline
70
4
71
3
72
11
73
7
40
0
40
0
40
0
40
0
40
0.119043251223613
40
0.389913838451928
40
0.789509952301268
40
1
40
1
40
1
40
1
41
1
10
0.445278348722839
20
18.5821760187423
30
0
41
1
10
0.445121977203637
20
18.578225165663
30
0
41
1
10
0.442778322425681
20
18.5637923962997
30
0
41
1
10
0.423159807674388
20
18.5215044891386
30
0
41
1
10
0.385493562221757
20
18.4640799323162
30
0
41
1
10
0.354706973961001
20
18.4228504719757
30
0
41
1
10
0.343278579257568
20
18.4082165434148
30
0
0
SPLINE
5
468
100
AcDbEntity
8
1
62
256
6
ByLayer
370
18
48
1
60
0
100
AcDbSpline
70
4
71
3
72
12
73
8
40
0
40
0
40
0
40
0
40
0.187849722396707
40
0.406096222995466
40
0.606677343088099
40
0.882425202251442
40
1
40
1
40
1
40
1
41
1
10
0.44527837386164
20
-18.582182295171
30
0
41
1
10
0.445354275577667
20
-18.5873012849739
30
0
41
1
10
0.44241878895186
20
-18.5948579492662
30
0
41
1
10
0.427384545505846
20
-18.5950746114102
30
0
41
1
10
0.399754942026279
20
-18.581362677502
30
0
41
1
10
0.370009658106184
20
-18.5596731755941
30
0
41
1
10
0.349555716539086
20
-18.5427287095626
30
0
41
1
10
0.343278579248929
20
-18.5373273217359
30
0
0
SPLINE
5
469
100
AcDbEntity
8
1
62
256
6
ByLayer
370
18
48
1
60
0
100
AcDbSpline
70
4
71
3
72
11
73
7
40
0
40
0
40
0
40
0
40
0.0650608887061164
40
0.319705165726945
40
0.700541593214087
40
1
40
1
40
1
40
1
41
1
10
3.51022965022775
20
-21.2853305861594
30
0
41
1
10
3.5126170923685
20
-21.2855913833527
30
0
41
1
10
3.52499222944827
20
-21.287812964436
30
0
41
1
10
3.5614089346931
20
-21.3051170280691
30
0
41
1
10
3.62048675692676
20
-21.3473542875967
30
0
41
1
10
3.66495343596103
20
-21.3847234663304
30
0
41
1
10
3.68527848060192
20
-21.4030342978597
30
0
0
SPLINE
5
46A
100
AcDbEntity
8
1
62
256
6
ByLayer
370
18
48
1
60
0
100
AcDbSpline
70
4
71
3
72
11
73
7
40
0
40
0
40
0
40
0
40
0.134122575581064
40
0.420585355303443
40
0.851642267591965
40
1
40
1
40
1
40
1
41
1
10
32.5673884044784
20
23.8275025650629
30
0
41
1
10
32.5622789894853
20
23.827288416643
30
0
41
1
10
32.5444033247414
20
23.8286079498317
30
0
41
1
10
32.4924701920745
20
23.8468506002166
30
0
41
1
10
32.4293610866917
20
23.8798707151206
30
0
41
1
10
32.3858915518947
20
23.9059693999416
30
0
41
1
10
32.3745589184872
20
23.9130211008907
30
0
0
SPLINE
5
46B
100
AcDbEntity
8
1
62
256
6
ByLayer
370
18
48
1
60
0
100
AcDbSpline
70
4
71
3
72
13
73
9
40
0
40
0
40
0
40
0
40
0.0560160831402633
40
0.264355378829668
40
0.362455155892046
40
0.596650291307643
40
0.829244304495509
40
1
40
1
40
1
40
1
41
1
10
3.51016040745219
20
21.2853241566404
30
0
41
1
10
3.5085258155822
20
21.2851638369518
30
0
41
1
10
3.50138871154909
20
21.2850619294843
30
0
41
1
10
3.49478278984018
20
21.2889908907962
30
0
41
1
10
3.49259955694272
20
21.3025432788607
30
0
41
1
10
3.49908471926679
20
21.3249856873876
30
0
41
1
10
3.51750468416328
20
21.3581155276625
30
0
41
1
10
3.53232112909435
20
21.3804020760695
30
0
41
1
10
3.53935089267133
20
21.3902672882201
30
0
0
SPLINE
5
46C
100
AcDbEntity
8
1
62
256
6
ByLayer
370
18
48
1
60
0
100
AcDbSpline
70
4
71
3
72
13
73
9
40
0
40
0
40
0
40
0
40
0.0370428405118365
40
0.247584484832299
40
0.458843256531322
40
0.656709771132479
40
0.938826324526201
40
1
40
1
40
1
40
1
41
1
10
32.5675036321487
20
-23.8275121080136
30
0
41
1
10
32.5685792066855
20
-23.827598602582
30
0
41
1
10
32.5753505089846
20
-23.8285147002708
30
0
41
1
10
32.5835240961619
20
-23.8341813574759
30
0
41
1
10
32.5805071823928
20
-23.8520559323115
30
0
41
1
10
32.56302910228
20
-23.8800969293152
30
0
41
1
10
32.5400176555195
20
-23.9061105834113
30
0
41
1
10
32.5235200837953
20
-23.922786978008
30
0
41
1
10
32.5204865064178
20
-23.9257881105304
30
0
0
SPLINE
5
46D
100
AcDbEntity
8
1
62
256
6
ByLayer
370
18
48
1
60
0
100
AcDbSpline
70
4
71
3
72
12
73
8
40
0
40
0
40
0
40
0
40
0.155910042952653
40
0.37203498149214
40
0.576306221690005
40
0.86409891427144
40
1
40
1
40
1
40
1
41
1
10
0.445278234941447
20
-19.0603637387078
30
0
41
1
10
0.445314636505354
20
-19.0636520292092
30
0
41
1
10
0.443008492725858
20
-19.0688639700201
30
0
41
1
10
0.429942636236084
20
-19.067136464836
30
0
41
1
10
0.403152930296956
20
-19.0516401102048
30
0
41
1
10
0.372384899069929
20
-19.0278297392994
30
0
41
1
10
0.350526580265168
20
-19.009108260593
30
0
41
1
10
0.34327857924402
20
-19.0026970897805
30
0
0
SPLINE
5
46E
100
AcDbEntity
8
1
62
256
6
ByLayer
370
18
48
1
60
0
100
AcDbSpline
70
4
71
3
72
11
73
7
40
0
40
0
40
0
40
0
40
0.129986378109061
40
0.389616123972229
40
0.76136535032211
40
1
40
1
40
1
40
1
41
1
10
0.445278467199842
20
19.0604083246195
30
0
41
1
10
0.445116242918296
20
19.0571365934628
30
0
41
1
10
0.442621235730301
20
19.045598795222
30
0
41
1
10
0.423556894287482
20
19.0100938973368
30
0
41
1
10
0.386717274614251
20
18.9585759137435
30
0
41
1
10
0.356229650754084
20
18.9203822968807
30
0
41
1
10
0.343278579257761
20
18.9048259409158
30
0
0
SPLINE
5
46F
100
AcDbEntity
8
1
62
256
6
ByLayer
370
18
48
1
60
0
100
AcDbSpline
70
4
71
3
72
11
73
7
40
0
40
0
40
0
40
0
40
0.0737544750263464
40
0.315743630347287
40
0.660626701377665
40
1
40
1
40
1
40
1
41
1
10
33.0958001447091
20
23.8737322509407
30
0
41
1
10
33.0938526542399
20
23.8736132030336
30
0
41
1
10
33.0845602889855
20
23.8740173683549
30
0
41
1
10
33.0543078629681
20
23.8845688164811
30
0
41
1
10
32.9972636208002
20
23.9155223810796
30
0
41
1
10
32.9514375313286
20
23.9447050781051
30
0
41
1
10
32.9270676083195
20
23.9613593477506
30
0
0
SPLINE
5
470
100
AcDbEntity
8
1
62
256
6
ByLayer
370
18
48
1
60
0
100
AcDbSpline
70
4
71
3
72
11
73
7
40
0
40
0
40
0
40
0
40
0.023250523328242
40
0.247854741750448
40
0.561415057816971
40
1
40
1
40
1
40
1
41
1
10
2.98177674761764
20
-21.2390963876114
30
0
41
1
10
2.98237476550392
20
-21.2391539805465
30
0
41
1
10
2.98896352439172
20
-21.2400511822837
30
0
41
1
10
3.0103901712334
20
-21.2501233972177
30
0
41
1
10
3.06158055395416
20
-21.2884794037194
30
0
41
1
10
3.10499641936006
20
-21.32745808434
30
0
41
1
10
3.13276979076965
20
-21.3546960509998
30
0
0
SPLINE
5
471
100
AcDbEntity
8
1
62
256
6
ByLayer
370
18
48
1
60
0
100
AcDbSpline
70
4
71
3
72
12
73
8
40
0
40
0
40
0
40
0
40
0.0868688517548327
40
0.318722174800965
40
0.52307178595465
40
0.787394035395945
40
1
40
1
40
1
40
1
41
1
10
33.0957976796601
20
-23.8737320506332
30
0
41
1
10
33.0977334615257
20
-23.8738741411238
30
0
41
1
10
33.1034893491834
20
-23.8754418085986
30
0
41
1
10
33.1051531669269
20
-23.8846030816635
30
0
41
1
10
33.0917007995846
20
-23.9076944967094
30
0
41
1
10
33.0659464680298
20
-23.9376064691322
30
0
41
1
10
33.0437077746781
20
-23.9600310296013
30
0
41
1
10
33.0326162861863
20
-23.9705936605141
30
0
0
SPLINE
5
472
100
AcDbEntity
8
1
62
256
6
ByLayer
370
18
48
1
60
0
100
AcDbSpline
70
4
71
3
72
12
73
8
40
0
40
0
40
0
40
0
40
0.107925134712976
40
0.333773187513166
40
0.537311408404998
40
0.806093403694736
40
1
40
1
40
1
40
1
41
1
10
2.98183391223682
20
21.239101703999
30
0
41
1
10
2.97942138389306
20
21.2388531399117
30
0
41
1
10
2.97345725941339
20
21.2397260051548
30
0
41
1
10
2.97100749262638
20
21.2496211085837
30
0
41
1
10
2.98102645224475
20
21.2753563024985
30
0
41
1
10
3.00132912390754
20
21.3089722004145
30
0
41
1
10
3.01896544763966
20
21.3342538022946
30
0
41
1
10
3.02722111290281
20
21.3454617382363
30
0
0
SPLINE
5
473
100
AcDbEntity
8
1
62
256
6
ByLayer
370
18
48
1
60
0
100
AcDbSpline
70
4
71
3
72
11
73
7
40
0
40
0
40
0
40
0
40
0.172631841068132
40
0.433288647058148
40
0.798977060677778
40
1
40
1
40
1
40
1
41
1
10
0.44527857673154
20
19.4113671396395
30
0
41
1
10
0.445008376110246
20
19.4082162591868
30
0
41
1
10
0.441472922893594
20
19.3977468991208
30
0
41
1
10
0.419088150177289
20
19.363625065103
30
0
41
1
10
0.382685056579654
20
19.3179230670645
30
0
41
1
10
0.354101261463678
20
19.2846106626576
30
0
41
1
10
0.343278579257142
20
19.2723234562772
30
0
0
SPLINE
5
474
100
AcDbEntity
8
1
62
256
6
ByLayer
370
18
48
1
60
0
100
AcDbSpline
70
4
71
3
72
12
73
8
40
0
40
0
40
0
40
0
40
0.0869922293587047
40
0.30472335584847
40
0.510492641011332
40
0.797151079008105
40
1
40
1
40
1
40
1
41
1
10
0.445278434846708
20
-19.4113263027233
30
0
41
1
10
0.445289858870734
20
-19.412627364029
30
0
41
1
10
0.444201243109248
20
-19.4159873014852
30
0
41
1
10
0.435311474222773
20
-19.4144768570077
30
0
41
1
10
0.411338334381411
20
-19.3990917995989
30
0
41
1
10
0.378978064464339
20
-19.3728484657292
30
0
41
1
10
0.354171820152453
20
-19.35091397486
30
0
41
1
10
0.343278579257491
20
-19.340953677083
30
0
0
SPLINE
5
475
100
AcDbEntity
8
1
62
256
6
ByLayer
370
18
48
1
60
0
100
AcDbSpline
70
4
71
3
72
12
73
8
40
0
40
0
40
0
40
0
40
0.0158700152016493
40
0.217204138332332
40
0.494229155136448
40
0.886841294578031
40
1
40
1
40
1
40
1
41
1
10
2.61544923558071
20
-21.2070467958305
30
0
41
1
10
2.61570942541426
20
-21.2070713841034
30
0
41
1
10
2.61940818270021
20
-21.2075804986318
30
0
41
1
10
2.63296986141019
20
-21.2149018607899
30
0
41
1
10
2.66991948784745
20
-21.2453647424694
30
0
41
1
10
2.71138371148283
20
-21.2856182353312
30
0
41
1
10
2.7391123456994
20
-21.31420284528
30
0
41
1
10
2.74543078645961
20
-21.3208082791813
30
0
0
SPLINE
5
476
100
AcDbEntity
8
1
62
256
6
ByLayer
370
18
48
1
60
0
100
AcDbSpline
70
4
71
3
72
12
73
8
40
0
40
0
40
0
40
0
40
0.149473592386354
40
0.208300150217483
40
0.447170386761048
40
0.684572307471944
40
1
40
1
40
1
40
1
41
1
10
2.61547680535332
20
21.2070493594297
30
0
41
1
10
2.61323274595108
20
21.2068355164822
30
0
41
1
10
2.61140752745694
20
21.2080117541044
30
0
41
1
10
2.61135121525507
20
21.2149434322766
30
0
41
1
10
2.61814596145722
20
21.2308037957588
30
0
41
1
10
2.6411811081675
20
21.2668695686354
30
0
41
1
10
2.66243021623052
20
21.2961567137252
30
0
41
1
10
2.67675951511009
20
21.3148003214283
30
0
0
SPLINE
5
477
100
AcDbEntity
8
1
62
256
6
ByLayer
370
18
48
1
60
0
100
AcDbSpline
70
4
71
3
72
12
73
8
40
0
40
0
40
0
40
0
40
0.0620968992786896
40
0.283127757022872
40
0.488452140838819
40
0.76788398411865
40
1
40
1
40
1
40
1
41
1
10
33.4621626026005
20
-23.9057845440188
30
0
41
1
10
33.4630861870312
20
-23.9058581059421
30
0
41
1
10
33.4664381312156
20
-23.9068749551596
30
0
41
1
10
33.4654155006967
20
-23.914321041985
30
0
41
1
10
33.4493671664955
20
-23.9358194622821
30
0
41
1
10
33.4204278376043
20
-23.9661094655638
30
0
41
1
10
33.3955949884635
20
-23.989778551673
30
0
41
1
10
33.3830778839791
20
-24.0012550773222
30
0
0
SPLINE
5
478
100
AcDbEntity
8
1
62
256
6
ByLayer
370
18
48
1
60
0
100
AcDbSpline
70
4
71
3
72
11
73
7
40
0
40
0
40
0
40
0
40
0.134882545368068
40
0.382654582565797
40
0.727103401692238
40
1
40
1
40
1
40
1
41
1
10
33.4621673234682
20
23.9057849377528
30
0
41
1
10
33.4597714156532
20
23.905724350221
30
0
41
1
10
33.4509137645069
20
23.9074520660893
30
0
41
1
10
33.4203944921191
20
23.9228402335901
30
0
41
1
10
33.3709663215605
20
23.9547013225046
30
0
41
1
10
33.3324961991556
20
23.9819374936752
30
0
41
1
10
33.3144066126239
20
23.9952471195698
30
0
0
SPLINE
5
479
100
AcDbEntity
8
1
62
256
6
ByLayer
370
18
48
1
60
0
100
AcDbSpline
70
4
71
3
72
12
73
8
40
0
40
0
40
0
40
0
40
0.0879679718621793
40
0.283055728612349
40
0.567672363101577
40
0.965694066278988
40
1
40
1
40
1
40
1
41
1
10
0.445278476027662
20
19.6418045876656
30
0
41
1
10
0.445238962358768
20
19.6409223299726
30
0
41
1
10
0.44402708776686
20
19.6370365604352
30
0
41
1
10
0.433684521778392
20
19.6214298034136
30
0
41
1
10
0.402818572871547
20
19.5836177147108
30
0
41
1
10
0.367715215504643
20
19.5444411610657
30
0
41
1
10
0.345090099933315
20
19.5199585642933
30
0
41
1
10
0.34327857925749
20
19.5180034570805
30
0
0
SPLINE
5
47A
100
AcDbEntity
8
1
62
256
6
ByLayer
370
18
48
1
60
0
100
AcDbSpline
70
4
71
3
72
12
73
8
40
0
40
0
40
0
40
0
40
0.113059226439828
40
0.323831645084142
40
0.534188431318793
40
0.85086493446728
40
1
40
1
40
1
40
1
41
1
10
0.445278468411714
20
-19.6418037281452
30
0
41
1
10
0.445271165196065
20
-19.6428210297956
30
0
41
1
10
0.443697816345614
20
-19.6441064822079
30
0
41
1
10
0.433045219822578
20
-19.637989340363
30
0
41
1
10
0.407150383625199
20
-19.6172219236943
30
0
41
1
10
0.375020908959499
20
-19.5884258899265
30
0
41
1
10
0.351214610342897
20
-19.566201069071
30
0
41
1
10
0.343278579250219
20
-19.5586932485726
30
0
0
SPLINE
5
47B
100
AcDbEntity
8
1
62
256
6
ByLayer
370
18
48
1
60
0
100
AcDbSpline
70
4
71
3
72
12
73
8
40
0
40
0
40
0
40
0
40
0.114675039007529
40
0.31584602840028
40
0.59816437122124
40
0.948311514435525
40
1
40
1
40
1
40
1
41
1
10
2.39978444771745
20
21.1881785977248
30
0
41
1
10
2.39892817225811
20
21.1881166404383
30
0
41
1
10
2.39804056107872
20
21.1896225891209
30
0
41
1
10
2.40456498389041
20
21.2020088560627
30
0
41
1
10
2.42823812879069
20
21.2352861790838
30
0
41
1
10
2.45668267087141
20
21.2718284746147
30
0
41
1
10
2.47468091530253
20
21.2943884040431
30
0
41
1
10
2.47703338637308
20
21.2973265493539
30
0
0
SPLINE
5
47C
100
AcDbEntity
8
1
62
256
6
ByLayer
370
18
48
1
60
0
100
AcDbSpline
70
4
71
3
72
11
73
7
40
0
40
0
40
0
40
0
40
0.16387649386671
40
0.36568304680986
40
0.676502204937446
40
1
40
1
40
1
40
1
41
1
10
33.6778483757475
20
23.9246545307881
30
0
41
1
10
33.6763463436811
20
23.9246908779133
30
0
41
1
10
33.6704387359468
20
23.926998531694
30
0
41
1
10
33.6473737032624
20
23.9416541909875
30
0
41
1
10
33.6055623414585
20
23.9719408166059
30
0
41
1
10
33.5693017946583
20
23.9997579304597
30
0
41
1
10
33.5489482592817
20
24.0157668547759
30
0
0
SPLINE
5
47D
100
AcDbEntity
8
1
62
256
6
ByLayer
370
18
48
1
60
0
100
AcDbSpline
70
4
71
3
72
11
73
7
40
0
40
0
40
0
40
0
40
0.21786847574167
40
0.425071736689621
40
0.713826081377802
40
1
40
1
40
1
40
1
41
1
10
33.6780793452652
20
-23.9246914237777
30
0
41
1
10
33.6792670090671
20
-23.9252360640678
30
0
41
1
10
33.6775409863939
20
-23.9294849062696
30
0
41
1
10
33.6600017324073
20
-23.948351701016
30
0
41
1
10
33.6275034886518
20
-23.9789803716535
30
0
41
1
10
33.5988137322073
20
-24.0046972095217
30
0
41
1
10
33.5828040127161
20
-24.0187288493966
30
0
0
SPLINE
5
47E
100
AcDbEntity
8
1
62
256
6
ByLayer
370
18
48
1
60
0
100
AcDbSpline
70
4
71
3
72
12
73
8
40
0
40
0
40
0
40
0
40
0.101036491771677
40
0.297268292439125
40
0.582504123479726
40
0.980976390585134
40
1
40
1
40
1
40
1
41
1
10
2.39978138244072
20
-21.1881783040262
30
0
41
1
10
2.4006298687567
20
-21.1883023307081
30
0
41
1
10
2.40426852927629
20
-21.1900660548453
30
0
41
1
10
2.41900114796358
20
-21.2026519476835
30
0
41
1
10
2.45359874690742
20
-21.2374472721497
30
0
41
1
10
2.48848947261323
20
-21.2753345831066
30
0
41
1
10
2.50990970078639
20
-21.2991961180299
30
0
41
1
10
2.51088913980745
20
-21.3002885439745
30
0
0
SPLINE
5
47F
100
AcDbEntity
8
1
62
256
6
ByLayer
370
18
48
1
60
0
100
AcDbSpline
70
4
71
3
72
12
73
8
40
0
40
0
40
0
40
0
40
0.0717048724516769
40
0.270487942903313
40
0.534181099728697
40
0.895170451611539
40
1
40
1
40
1
40
1
41
1
10
0.445278539535508
20
19.7560426846343
30
0
41
1
10
0.445261270165031
20
19.7558022216784
30
0
41
1
10
0.444342779956786
20
19.7540443795163
30
0
41
1
10
0.435455451976626
20
19.7434589349704
30
0
41
1
10
0.407568226532943
20
19.7132191731861
30
0
41
1
10
0.372806344085129
20
19.6768709992717
30
0
41
1
10
0.348830765414624
20
19.6521448533471
30
0
41
1
10
0.343278579257357
20
19.6464364834368
30
0
0
SPLINE
5
480
100
AcDbEntity
8
1
62
256
6
ByLayer
370
18
48
1
60
0
100
AcDbSpline
70
4
71
3
72
12
73
8
40
0
40
0
40
0
40
0
40
0.0913045395127645
40
0.295810713087309
40
0.508386110195939
40
0.837322015377666
40
1
40
1
40
1
40
1
41
1
10
0.445278578549439
20
-19.7560469117246
30
0
41
1
10
0.445262417292103
20
-19.756309718114
30
0
41
1
10
0.444044050287317
20
-19.7559688236375
30
0
41
1
10
0.434766909727234
20
-19.7480947933914
30
0
41
1
10
0.409788268894753
20
-19.7247469505845
30
0
41
1
10
0.376945690909009
20
-19.6929519463732
30
0
41
1
10
0.351945112403601
20
-19.6684507021674
30
0
41
1
10
0.343278579251097
20
-19.659920499448
30
0
0
LINE
5
72
100
AcDbEntity
8
81
62
256
6
ByLayer
370
18
48
1
60
0
100
AcDbLine
10
18
20
23
30
0
11
17.84312
21
24.79315
31
0
39
0
210
0
220
0
230
1
0
LINE
5
73
100
AcDbEntity
8
4
62
256
6
ByLayer
370
18
48
0.05
60
0
100
AcDbLine
10
0
20
0
30
0
11
18
21
0
31
0
39
0
210
0
220
0
230
1
0
LINE
5
75
100
AcDbEntity
8
SK4
62
256
6
ByLayer
370
18
48
0.05
60
0
100
AcDbLine
10
-5
20
0
30
0
11
23
21
0
31
0
39
0
210
0
220
0
230
1
0
LINE
5
77
100
AcDbEntity
8
80
62
256
6
ByLayer
370
18
48
1
60
0
100
AcDbLine
10
0
20
0
30
0
11
-1.8
21
0
31
0
39
0
210
0
220
0
230
1
0
LINE
5
78
100
AcDbEntity
8
SK1
62
256
6
ByLayer
370
18
48
1
60
0
100
AcDbLine
10
20.719453
20
32.397777
30
0
11
21.155231
21
27.416804
31
0
39
0
210
0
220
0
230
1
0
LINE
5
7A
100
AcDbEntity
8
SK1
62
256
6
ByLayer
370
18
48
1
60
0
100
AcDbLine
10
29.622886
20
28.157628
30
0
11
29.187108
21
33.138601
31
0
39
0
210
0
220
0
230
1
0
LINE
5
7B
100
AcDbEntity
8
SK1
62
256
6
ByLayer
370
18
48
1
60
0
100
AcDbLine
10
22.898572
20
27.569326
30
0
11
23.229764
21
23.783787
31
0
39
0
210
0
220
0
230
1
0
LINE
5
7C
100
AcDbEntity
8
SK1
62
256
6
ByLayer
370
18
48
1
60
0
100
AcDbLine
10
28.210737
20
24.219565
30
0
11
27.879546
21
28.005105
31
0
39
0
210
0
220
0
230
1
0
LINE
5
7D
100
AcDbEntity
8
SK1
62
256
6
ByLayer
370
18
48
1
60
0
100
AcDbLine
10
13.689955
20
-31.782776
30
0
11
14.125734
21
-26.801802
31
0
39
0
210
0
220
0
230
1
0
LINE
5
7E
100
AcDbEntity
8
SK1
62
256
6
ByLayer
370
18
48
1
60
0
100
AcDbLine
10
5.658079
20
-26.060979
30
0
11
5.2223
21
-31.041952
31
0
39
0
210
0
220
0
230
1
0
LINE
5
7F
100
AcDbEntity
8
SK1
62
256
6
ByLayer
370
18
48
1
60
0
100
AcDbLine
10
12.382393
20
-26.64928
30
0
11
12.713585
21
-22.86374
31
0
39
0
210
0
220
0
230
1
0
LINE
5
80
100
AcDbEntity
8
SK1
62
256
6
ByLayer
370
18
48
1
60
0
100
AcDbLine
10
7.732611
20
-22.427961
30
0
11
7.40142
21
-26.213501
31
0
39
0
210
0
220
0
230
1
0
LINE
5
81
100
AcDbEntity
8
1
62
256
6
ByLayer
370
18
48
1
60
0
100
AcDbLine
10
24.95328
20
-12.028175
30
0
11
25.389059
21
-12.028175
31
0
39
0
210
0
220
0
230
1
0
LINE
5
83
100
AcDbEntity
8
1
62
256
6
ByLayer
370
18
48
1
60
0
100
AcDbLine
10
25.389059
20
-3.528175
30
0
11
24.95328
21
-3.528175
31
0
39
0
210
0
220
0
230
1
0
LINE
5
84
100
AcDbEntity
8
1
62
256
6
ByLayer
370
18
48
1
60
0
100
AcDbLine
10
22.960891
20
-6.623474
30
0
11
24.95328
21
-5.468774
31
0
39
0
210
0
220
0
230
1
0
LINE
5
85
100
AcDbEntity
8
1
62
256
6
ByLayer
370
18
48
1
60
0
100
AcDbLine
10
22.960891
20
-8.932875
30
0
11
22.960891
21
-6.623474
31
0
39
0
210
0
220
0
230
1
0
LINE
5
86
100
AcDbEntity
8
1
62
256
6
ByLayer
370
18
48
1
60
0
100
AcDbLine
10
24.95328
20
-10.087576
30
0
11
22.960891
21
-8.932875
31
0
39
0
210
0
220
0
230
1
0
LINE
5
87
100
AcDbEntity
8
1
62
256
6
ByLayer
370
18
48
1
60
0
100
AcDbLine
10
26.94567
20
-8.932875
30
0
11
24.95328
21
-10.087576
31
0
39
0
210
0
220
0
230
1
0
LINE
5
88
100
AcDbEntity
8
1
62
256
6
ByLayer
370
18
48
1
60
0
100
AcDbLine
10
26.94567
20
-6.623474
30
0
11
26.94567
21
-8.932875
31
0
39
0
210
0
220
0
230
1
0
LINE
5
89
100
AcDbEntity
8
1
62
256
6
ByLayer
370
18
48
1
60
0
100
AcDbLine
10
24.95328
20
-5.468774
30
0
11
26.94567
21
-6.623474
31
0
39
0
210
0
220
0
230
1
0
LINE
5
8A
100
AcDbEntity
8
1
62
256
6
ByLayer
370
18
48
1
60
0
100
AcDbLine
10
23.222358
20
-8.932875
30
0
11
22.960891
21
-8.932875
31
0
39
0
210
0
220
0
230
1
0
LINE
5
8B
100
AcDbEntity
8
1
62
256
6
ByLayer
370
18
48
1
60
0
100
AcDbLine
10
25.084014
20
-10.011808
30
0
11
23.222358
21
-8.932875
31
0
39
0
210
0
220
0
230
1
0
LINE
5
8C
100
AcDbEntity
8
1
62
256
6
ByLayer
370
18
48
1
60
0
100
AcDbLine
10
23.222358
20
-6.623474
30
0
11
25.084014
21
-5.544541
31
0
39
0
210
0
220
0
230
1
0
LINE
5
8D
100
AcDbEntity
8
1
62
256
6
ByLayer
370
18
48
1
60
0
100
AcDbLine
10
23.222358
20
-6.623474
30
0
11
22.960891
21
-6.623474
31
0
39
0
210
0
220
0
230
1
0
LINE
5
8E
100
AcDbEntity
8
1
62
256
6
ByLayer
370
18
48
1
60
0
100
AcDbLine
10
23.222358
20
-8.932875
30
0
11
23.222358
21
-6.623474
31
0
39
0
210
0
220
0
230
1
0
LINE
5
8F
100
AcDbEntity
8
SK1
62
256
6
ByLayer
370
18
48
1
60
0
100
AcDbLine
10
29.187108
20
-33.138601
30
0
11
29.622886
21
-28.157628
31
0
39
0
210
0
220
0
230
1
0
LINE
5
90
100
AcDbEntity
8
SK1
62
256
6
ByLayer
370
18
48
1
60
0
100
AcDbLine
10
21.155231
20
-27.416804
30
0
11
20.719453
21
-32.397777
31
0
39
0
210
0
220
0
230
1
0
LINE
5
91
100
AcDbEntity
8
SK1
62
256
6
ByLayer
370
18
48
1
60
0
100
AcDbLine
10
27.879546
20
-28.005105
30
0
11
28.210737
21
-24.219565
31
0
39
0
210
0
220
0
230
1
0
LINE
5
92
100
AcDbEntity
8
SK1
62
256
6
ByLayer
370
18
48
1
60
0
100
AcDbLine
10
23.229764
20
-23.783787
30
0
11
22.898572
21
-27.569326
31
0
39
0
210
0
220
0
230
1
0
LINE
5
93
100
AcDbEntity
8
1
62
256
6
ByLayer
370
18
48
1
60
0
100
AcDbLine
10
7.463738
20
8.932875
30
0
11
9.456128
21
10.087576
31
0
39
0
210
0
220
0
230
1
0
LINE
5
94
100
AcDbEntity
8
1
62
256
6
ByLayer
370
18
48
1
60
0
100
AcDbLine
10
7.463738
20
6.623474
30
0
11
7.463738
21
8.932875
31
0
39
0
210
0
220
0
230
1
0
LINE
5
95
100
AcDbEntity
8
1
62
256
6
ByLayer
370
18
48
1
60
0
100
AcDbLine
10
9.456128
20
5.468774
30
0
11
7.463738
21
6.623474
31
0
39
0
210
0
220
0
230
1
0
LINE
5
96
100
AcDbEntity
8
1
62
256
6
ByLayer
370
18
48
1
60
0
100
AcDbLine
10
11.448517
20
6.623474
30
0
11
9.456128
21
5.468774
31
0
39
0
210
0
220
0
230
1
0
LINE
5
97
100
AcDbEntity
8
1
62
256
6
ByLayer
370
18
48
1
60
0
100
AcDbLine
10
11.448517
20
8.932875
30
0
11
11.448517
21
6.623474
31
0
39
0
210
0
220
0
230
1
0
LINE
5
98
100
AcDbEntity
8
1
62
256
6
ByLayer
370
18
48
1
60
0
100
AcDbLine
10
9.456128
20
10.087576
30
0
11
11.448517
21
8.932875
31
0
39
0
210
0
220
0
230
1
0
LINE
5
99
100
AcDbEntity
8
1
62
256
6
ByLayer
370
18
48
1
60
0
100
AcDbLine
10
9.456128
20
3.528175
30
0
11
9.891906
21
3.528175
31
0
39
0
210
0
220
0
230
1
0
LINE
5
9A
100
AcDbEntity
8
1
62
256
6
ByLayer
370
18
48
1
60
0
100
AcDbLine
10
9.891906
20
12.028175
30
0
11
9.456128
21
12.028175
31
0
39
0
210
0
220
0
230
1
0
LINE
5
9B
100
AcDbEntity
8
1
62
256
6
ByLayer
370
18
48
1
60
0
100
AcDbLine
10
7.725205
20
6.623474
30
0
11
7.463738
21
6.623474
31
0
39
0
210
0
220
0
230
1
0
LINE
5
9C
100
AcDbEntity
8
1
62
256
6
ByLayer
370
18
48
1
60
0
100
AcDbLine
10
9.586861
20
5.544541
30
0
11
7.725205
21
6.623474
31
0
39
0
210
0
220
0
230
1
0
LINE
5
9D
100
AcDbEntity
8
1
62
256
6
ByLayer
370
18
48
1
60
0
100
AcDbLine
10
7.725205
20
8.932875
30
0
11
9.586861
21
10.011808
31
0
39
0
210
0
220
0
230
1
0
LINE
5
9E
100
AcDbEntity
8
1
62
256
6
ByLayer
370
18
48
1
60
0
100
AcDbLine
10
7.725205
20
8.932875
30
0
11
7.463738
21
8.932875
31
0
39
0
210
0
220
0
230
1
0
LINE
5
9F
100
AcDbEntity
8
1
62
256
6
ByLayer
370
18
48
1
60
0
100
AcDbLine
10
7.725205
20
6.623474
30
0
11
7.725205
21
8.932875
31
0
39
0
210
0
220
0
230
1
0
LINE
5
A0
100
AcDbEntity
8
1
62
256
6
ByLayer
370
18
48
1
60
0
100
AcDbLine
10
7.463738
20
-6.623474
30
0
11
9.456128
21
-5.468774
31
0
39
0
210
0
220
0
230
1
0
LINE
5
A1
100
AcDbEntity
8
1
62
256
6
ByLayer
370
18
48
1
60
0
100
AcDbLine
10
7.463738
20
-8.932875
30
0
11
7.463738
21
-6.623474
31
0
39
0
210
0
220
0
230
1
0
LINE
5
A2
100
AcDbEntity
8
1
62
256
6
ByLayer
370
18
48
1
60
0
100
AcDbLine
10
9.456128
20
-10.087576
30
0
11
7.463738
21
-8.932875
31
0
39
0
210
0
220
0
230
1
0
LINE
5
A3
100
AcDbEntity
8
1
62
256
6
ByLayer
370
18
48
1
60
0
100
AcDbLine
10
11.448517
20
-8.932875
30
0
11
9.456128
21
-10.087576
31
0
39
0
210
0
220
0
230
1
0
LINE
5
A4
100
AcDbEntity
8
1
62
256
6
ByLayer
370
18
48
1
60
0
100
AcDbLine
10
11.448517
20
-6.623474
30
0
11
11.448517
21
-8.932875
31
0
39
0
210
0
220
0
230
1
0
LINE
5
A5
100
AcDbEntity
8
1
62
256
6
ByLayer
370
18
48
1
60
0
100
AcDbLine
10
9.456128
20
-5.468774
30
0
11
11.448517
21
-6.623474
31
0
39
0
210
0
220
0
230
1
0
LINE
5
A6
100
AcDbEntity
8
1
62
256
6
ByLayer
370
18
48
1
60
0
100
AcDbLine
10
9.456128
20
-12.028175
30
0
11
9.891906
21
-12.028175
31
0
39
0
210
0
220
0
230
1
0
LINE
5
A7
100
AcDbEntity
8
1
62
256
6
ByLayer
370
18
48
1
60
0
100
AcDbLine
10
9.891906
20
-3.528175
30
0
11
9.456128
21
-3.528175
31
0
39
0
210
0
220
0
230
1
0
LINE
5
A8
100
AcDbEntity
8
1
62
256
6
ByLayer
370
18
48
1
60
0
100
AcDbLine
10
7.725205
20
-8.932875
30
0
11
7.463738
21
-8.932875
31
0
39
0
210
0
220
0
230
1
0
LINE
5
A9
100
AcDbEntity
8
1
62
256
6
ByLayer
370
18
48
1
60
0
100
AcDbLine
10
9.586861
20
-10.011808
30
0
11
7.725205
21
-8.932875
31
0
39
0
210
0
220
0
230
1
0
LINE
5
AA
100
AcDbEntity
8
1
62
256
6
ByLayer
370
18
48
1
60
0
100
AcDbLine
10
7.725205
20
-6.623474
30
0
11
9.586861
21
-5.544541
31
0
39
0
210
0
220
0
230
1
0
LINE
5
AB
100
AcDbEntity
8
1
62
256
6
ByLayer
370
18
48
1
60
0
100
AcDbLine
10
7.725205
20
-6.623474
30
0
11
7.463738
21
-6.623474
31
0
39
0
210
0
220
0
230
1
0
LINE
5
AC
100
AcDbEntity
8
1
62
256
6
ByLayer
370
18
48
1
60
0
100
AcDbLine
10
7.725205
20
-8.932875
30
0
11
7.725205
21
-6.623474
31
0
39
0
210
0
220
0
230
1
0
LINE
5
AD
100
AcDbEntity
8
SK1
62
256
6
ByLayer
370
18
48
1
60
0
100
AcDbLine
10
-3.225
20
3
30
0
11
-3.825
21
2.65359
31
0
39
0
210
0
220
0
230
1
0
LINE
5
AE
100
AcDbEntity
8
SK1
62
256
6
ByLayer
370
18
48
1
60
0
100
AcDbLine
10
-3.825
20
-2.65359
30
0
11
-3.225
21
-3
31
0
39
0
210
0
220
0
230
1
0
LINE
5
AF
100
AcDbEntity
8
SK1
62
256
6
ByLayer
370
18
48
1
60
0
100
AcDbLine
10
-0.325
20
3
30
0
11
-3.225
21
3
31
0
39
0
210
0
220
0
230
1
0
LINE
5
B0
100
AcDbEntity
8
SK1
62
256
6
ByLayer
370
18
48
1
60
0
100
AcDbLine
10
-3.225
20
-3
30
0
11
-0.325
21
-3
31
0
39
0
210
0
220
0
230
1
0
LINE
5
B1
100
AcDbEntity
8
SK1
62
256
6
ByLayer
370
18
48
1
60
0
100
AcDbLine
10
5.2223
20
31.041952
30
0
11
5.658079
21
26.060979
31
0
39
0
210
0
220
0
230
1
0
LINE
5
B2
100
AcDbEntity
8
SK1
62
256
6
ByLayer
370
18
48
1
60
0
100
AcDbLine
10
14.125734
20
26.801802
30
0
11
13.689955
21
31.782776
31
0
39
0
210
0
220
0
230
1
0
LINE
5
B3
100
AcDbEntity
8
SK1
62
256
6
ByLayer
370
18
48
1
60
0
100
AcDbLine
10
7.40142
20
26.213501
30
0
11
7.732611
21
22.427961
31
0
39
0
210
0
220
0
230
1
0
LINE
5
B4
100
AcDbEntity
8
SK1
62
256
6
ByLayer
370
18
48
1
60
0
100
AcDbLine
10
12.713585
20
22.86374
30
0
11
12.382393
21
26.64928
31
0
39
0
210
0
220
0
230
1
0
LINE
5
B5
100
AcDbEntity
8
1
62
256
6
ByLayer
370
18
48
1
60
0
100
AcDbLine
10
1.675
20
-2.103088
30
0
11
1.675
21
-9.571989
31
0
39
0
210
0
220
0
230
1
0
LINE
5
B6
100
AcDbEntity
8
1
62
256
6
ByLayer
370
18
48
1
60
0
100
AcDbLine
10
1.675
20
9.571989
30
0
11
1.675
21
2.103088
31
0
39
0
210
0
220
0
230
1
0
LINE
5
B7
100
AcDbEntity
8
1
62
256
6
ByLayer
370
18
48
1
60
0
100
AcDbLine
10
34.175
20
-8.427317
30
0
11
34.175
21
8.427317
31
0
39
0
210
0
220
0
230
1
0
LINE
5
B8
100
AcDbEntity
8
1
62
256
6
ByLayer
370
18
48
1
60
0
100
AcDbLine
10
23.922518
20
-0.5625
30
0
11
32.904084
21
-0.5625
31
0
39
0
210
0
220
0
230
1
0
LINE
5
B9
100
AcDbEntity
8
1
62
256
6
ByLayer
370
18
48
1
60
0
100
AcDbLine
10
23.875428
20
-0.9375
30
0
11
32.885381
21
-0.9375
31
0
39
0
210
0
220
0
230
1
0
LINE
5
BA
100
AcDbEntity
8
1
62
256
6
ByLayer
370
18
48
1
60
0
100
AcDbLine
10
23.338435
20
0.176669
30
0
11
33.637582
21
0.176669
31
0
39
0
210
0
220
0
230
1
0
LINE
5
BB
100
AcDbEntity
8
1
62
256
6
ByLayer
370
18
48
1
60
0
100
AcDbLine
10
23.922518
20
0.5625
30
0
11
32.904084
21
0.5625
31
0
39
0
210
0
220
0
230
1
0
LINE
5
BC
100
AcDbEntity
8
1
62
256
6
ByLayer
370
18
48
1
60
0
100
AcDbLine
10
23.875428
20
0.9375
30
0
11
32.885381
21
0.9375
31
0
39
0
210
0
220
0
230
1
0
LINE
5
BD
100
AcDbEntity
8
1
62
256
6
ByLayer
370
18
48
1
60
0
100
AcDbLine
10
23.338435
20
-0.176669
30
0
11
33.637582
21
-0.176669
31
0
39
0
210
0
220
0
230
1
0
LINE
5
BE
100
AcDbEntity
8
1
62
256
6
ByLayer
370
18
48
1
60
0
100
AcDbLine
10
23.175151
20
1.323331
30
0
11
33.582804
21
1.323331
31
0
39
0
210
0
220
0
230
1
0
LINE
5
BF
100
AcDbEntity
8
1
62
256
6
ByLayer
370
18
48
1
60
0
100
AcDbLine
10
23.175151
20
-1.323331
30
0
11
33.582804
21
-1.323331
31
0
39
0
210
0
220
0
230
1
0
LINE
5
C0
100
AcDbEntity
8
1
62
256
6
ByLayer
370
18
48
1
60
0
100
AcDbLine
10
23.071888
20
1.676669
30
0
11
33.548948
21
1.676669
31
0
39
0
210
0
220
0
230
1
0
LINE
5
C1
100
AcDbEntity
8
1
62
256
6
ByLayer
370
18
48
1
60
0
100
AcDbLine
10
23.584601
20
2.0625
30
0
11
32.772664
21
2.0625
31
0
39
0
210
0
220
0
230
1
0
LINE
5
C2
100
AcDbEntity
8
1
62
256
6
ByLayer
370
18
48
1
60
0
100
AcDbLine
10
23.584601
20
-2.0625
30
0
11
32.772664
21
-2.0625
31
0
39
0
210
0
220
0
230
1
0
LINE
5
C3
100
AcDbEntity
8
1
62
256
6
ByLayer
370
18
48
1
60
0
100
AcDbLine
10
23.433383
20
-2.4375
30
0
11
32.715982
21
-2.4375
31
0
39
0
210
0
220
0
230
1
0
LINE
5
C4
100
AcDbEntity
8
1
62
256
6
ByLayer
370
18
48
1
60
0
100
AcDbLine
10
23.433383
20
2.4375
30
0
11
32.715982
21
2.4375
31
0
39
0
210
0
220
0
230
1
0
LINE
5
C5
100
AcDbEntity
8
1
62
256
6
ByLayer
370
18
48
1
60
0
100
AcDbLine
10
23.071888
20
-1.676669
30
0
11
33.548948
21
-1.676669
31
0
39
0
210
0
220
0
230
1
0
LINE
5
C6
100
AcDbEntity
8
1
62
256
6
ByLayer
370
18
48
1
60
0
100
AcDbLine
10
22.535545
20
-2.823331
30
0
11
33.383078
21
-2.823331
31
0
39
0
210
0
220
0
230
1
0
LINE
5
C7
100
AcDbEntity
8
1
62
256
6
ByLayer
370
18
48
1
60
0
100
AcDbLine
10
22.535545
20
2.823331
30
0
11
33.383078
21
2.823331
31
0
39
0
210
0
220
0
230
1
0
LINE
5
C8
100
AcDbEntity
8
1
62
256
6
ByLayer
370
18
48
1
60
0
100
AcDbLine
10
22.481708
20
3.9375
30
0
11
32.390576
21
3.9375
31
0
39
0
210
0
220
0
230
1
0
LINE
5
C9
100
AcDbEntity
8
1
62
256
6
ByLayer
370
18
48
1
60
0
100
AcDbLine
10
22.7812
20
3.5625
30
0
11
32.487041
21
3.5625
31
0
39
0
210
0
220
0
230
1
0
LINE
5
CA
100
AcDbEntity
8
1
62
256
6
ByLayer
370
18
48
1
60
0
100
AcDbLine
10
22.295683
20
3.176669
30
0
11
33.314407
21
3.176669
31
0
39
0
210
0
220
0
230
1
0
LINE
5
CB
100
AcDbEntity
8
1
62
256
6
ByLayer
370
18
48
1
60
0
100
AcDbLine
10
22.7812
20
-3.5625
30
0
11
24.41627
21
-3.5625
31
0
39
0
210
0
220
0
230
1
0
LINE
5
CC
100
AcDbEntity
8
1
62
256
6
ByLayer
370
18
48
1
60
0
100
AcDbLine
10
25.926069
20
-3.5625
30
0
11
32.487041
21
-3.5625
31
0
39
0
210
0
220
0
230
1
0
LINE
5
CD
100
AcDbEntity
8
1
62
256
6
ByLayer
370
18
48
1
60
0
100
AcDbLine
10
22.481708
20
-3.9375
30
0
11
23.140392
21
-3.9375
31
0
39
0
210
0
220
0
230
1
0
LINE
5
CE
100
AcDbEntity
8
1
62
256
6
ByLayer
370
18
48
1
60
0
100
AcDbLine
10
27.201947
20
-3.9375
30
0
11
32.390576
21
-3.9375
31
0
39
0
210
0
220
0
230
1
0
LINE
5
CF
100
AcDbEntity
8
1
62
256
6
ByLayer
370
18
48
1
60
0
100
AcDbLine
10
22.295683
20
-3.176669
30
0
11
33.314407
21
-3.176669
31
0
39
0
210
0
220
0
230
1
0
LINE
5
D0
100
AcDbEntity
8
1
62
256
6
ByLayer
370
18
48
1
60
0
100
AcDbLine
10
13.538552
20
9.9375
30
0
11
23.504459
21
9.9375
31
0
39
0
210
0
220
0
230
1
0
LINE
5
D1
100
AcDbEntity
8
1
62
256
6
ByLayer
370
18
48
1
60
0
100
AcDbLine
10
13.282582
20
10.323331
30
0
11
29.771661
21
10.323331
31
0
39
0
210
0
220
0
230
1
0
LINE
5
D2
100
AcDbEntity
8
1
62
256
6
ByLayer
370
18
48
1
60
0
100
AcDbLine
10
27.936042
20
9.9375
30
0
11
29.164847
21
9.9375
31
0
39
0
210
0
220
0
230
1
0
LINE
5
D3
100
AcDbEntity
8
1
62
256
6
ByLayer
370
18
48
1
60
0
100
AcDbLine
10
13.282582
20
-10.323331
30
0
11
21.562605
21
-10.323331
31
0
39
0
210
0
220
0
230
1
0
LINE
5
D4
100
AcDbEntity
8
1
62
256
6
ByLayer
370
18
48
1
60
0
100
AcDbLine
10
28.779734
20
-10.323331
30
0
11
29.771661
21
-10.323331
31
0
39
0
210
0
220
0
230
1
0
LINE
5
D5
100
AcDbEntity
8
1
62
256
6
ByLayer
370
18
48
1
60
0
100
AcDbLine
10
13.538552
20
-9.9375
30
0
11
21.306634
21
-9.9375
31
0
39
0
210
0
220
0
230
1
0
LINE
5
D6
100
AcDbEntity
8
1
62
256
6
ByLayer
370
18
48
1
60
0
100
AcDbLine
10
29.035705
20
-9.9375
30
0
11
29.164847
21
-9.9375
31
0
39
0
210
0
220
0
230
1
0
LINE
5
D7
100
AcDbEntity
8
1
62
256
6
ByLayer
370
18
48
1
60
0
100
AcDbLine
10
21.138312
20
-4.323331
30
0
11
22.487511
21
-4.323331
31
0
39
0
210
0
220
0
230
1
0
LINE
5
D8
100
AcDbEntity
8
1
62
256
6
ByLayer
370
18
48
1
60
0
100
AcDbLine
10
27.854828
20
-4.323331
30
0
11
33.032616
21
-4.323331
31
0
39
0
210
0
220
0
230
1
0
LINE
5
D9
100
AcDbEntity
8
1
62
256
6
ByLayer
370
18
48
1
60
0
100
AcDbLine
10
21.138312
20
4.323331
30
0
11
33.032616
21
4.323331
31
0
39
0
210
0
220
0
230
1
0
LINE
5
DA
100
AcDbEntity
8
1
62
256
6
ByLayer
370
18
48
1
60
0
100
AcDbLine
10
27.209591
20
5.0625
30
0
11
32.037827
21
5.0625
31
0
39
0
210
0
220
0
230
1
0
LINE
5
DB
100
AcDbEntity
8
1
62
256
6
ByLayer
370
18
48
1
60
0
100
AcDbLine
10
20.580648
20
4.676669
30
0
11
32.927068
21
4.676669
31
0
39
0
210
0
220
0
230
1
0
LINE
5
DC
100
AcDbEntity
8
1
62
256
6
ByLayer
370
18
48
1
60
0
100
AcDbLine
10
21.179838
20
5.0625
30
0
11
24.230911
21
5.0625
31
0
39
0
210
0
220
0
230
1
0
LINE
5
DD
100
AcDbEntity
8
1
62
256
6
ByLayer
370
18
48
1
60
0
100
AcDbLine
10
27.745062
20
5.4375
30
0
11
31.898234
21
5.4375
31
0
39
0
210
0
220
0
230
1
0
LINE
5
DE
100
AcDbEntity
8
1
62
256
6
ByLayer
370
18
48
1
60
0
100
AcDbLine
10
28.64581
20
-5.0625
30
0
11
32.037827
21
-5.0625
31
0
39
0
210
0
220
0
230
1
0
LINE
5
DF
100
AcDbEntity
8
1
62
256
6
ByLayer
370
18
48
1
60
0
100
AcDbLine
10
28.922917
20
-5.4375
30
0
11
31.898234
21
-5.4375
31
0
39
0
210
0
220
0
230
1
0
LINE
5
E0
100
AcDbEntity
8
1
62
256
6
ByLayer
370
18
48
1
60
0
100
AcDbLine
10
20.580648
20
-4.676669
30
0
11
22.058625
21
-4.676669
31
0
39
0
210
0
220
0
230
1
0
LINE
5
E1
100
AcDbEntity
8
1
62
256
6
ByLayer
370
18
48
1
60
0
100
AcDbLine
10
28.283714
20
-4.676669
30
0
11
32.927068
21
-4.676669
31
0
39
0
210
0
220
0
230
1
0
LINE
5
E2
100
AcDbEntity
8
1
62
256
6
ByLayer
370
18
48
1
60
0
100
AcDbLine
10
21.179838
20
-5.0625
30
0
11
21.696529
21
-5.0625
31
0
39
0
210
0
220
0
230
1
0
LINE
5
E3
100
AcDbEntity
8
1
62
256
6
ByLayer
370
18
48
1
60
0
100
AcDbLine
10
29.148435
20
-5.823331
30
0
11
32.520487
21
-5.823331
31
0
39
0
210
0
220
0
230
1
0
LINE
5
E4
100
AcDbEntity
8
1
62
256
6
ByLayer
370
18
48
1
60
0
100
AcDbLine
10
27.219316
20
5.823331
30
0
11
32.520487
21
5.823331
31
0
39
0
210
0
220
0
230
1
0
LINE
5
E5
100
AcDbEntity
8
1
62
256
6
ByLayer
370
18
48
1
60
0
100
AcDbLine
10
28.69273
20
6.9375
30
0
11
31.220356
21
6.9375
31
0
39
0
210
0
220
0
230
1
0
LINE
5
E6
100
AcDbEntity
8
1
62
256
6
ByLayer
370
18
48
1
60
0
100
AcDbLine
10
28.561089
20
6.5625
30
0
11
31.408624
21
6.5625
31
0
39
0
210
0
220
0
230
1
0
LINE
5
E7
100
AcDbEntity
8
1
62
256
6
ByLayer
370
18
48
1
60
0
100
AcDbLine
10
29.445986
20
-6.5625
30
0
11
31.408624
21
-6.5625
31
0
39
0
210
0
220
0
230
1
0
LINE
5
E8
100
AcDbEntity
8
1
62
256
6
ByLayer
370
18
48
1
60
0
100
AcDbLine
10
29.539231
20
-6.9375
30
0
11
31.220356
21
-6.9375
31
0
39
0
210
0
220
0
230
1
0
LINE
5
E9
100
AcDbEntity
8
1
62
256
6
ByLayer
370
18
48
1
60
0
100
AcDbLine
10
27.601409
20
6.176669
30
0
11
32.374559
21
6.176669
31
0
39
0
210
0
220
0
230
1
0
LINE
5
EA
100
AcDbEntity
8
1
62
256
6
ByLayer
370
18
48
1
60
0
100
AcDbLine
10
29.310788
20
-6.176669
30
0
11
32.374559
21
-6.176669
31
0
39
0
210
0
220
0
230
1
0
LINE
5
EB
100
AcDbEntity
8
1
62
256
6
ByLayer
370
18
48
1
60
0
100
AcDbLine
10
29.59857
20
-7.323331
30
0
11
31.8287
21
-7.323331
31
0
39
0
210
0
220
0
230
1
0
LINE
5
EC
100
AcDbEntity
8
1
62
256
6
ByLayer
370
18
48
1
60
0
100
AcDbLine
10
28.158209
20
7.323331
30
0
11
31.8287
21
7.323331
31
0
39
0
210
0
220
0
230
1
0
LINE
5
ED
100
AcDbEntity
8
1
62
256
6
ByLayer
370
18
48
1
60
0
100
AcDbLine
10
28.737798
20
8.4375
30
0
11
30.32644
21
8.4375
31
0
39
0
210
0
220
0
230
1
0
LINE
5
EE
100
AcDbEntity
8
1
62
256
6
ByLayer
370
18
48
1
60
0
100
AcDbLine
10
28.795438
20
8.0625
30
0
11
30.572498
21
8.0625
31
0
39
0
210
0
220
0
230
1
0
LINE
5
EF
100
AcDbEntity
8
1
62
256
6
ByLayer
370
18
48
1
60
0
100
AcDbLine
10
28.198852
20
7.676669
30
0
11
31.636775
21
7.676669
31
0
39
0
210
0
220
0
230
1
0
LINE
5
F0
100
AcDbEntity
8
1
62
256
6
ByLayer
370
18
48
1
60
0
100
AcDbLine
10
29.613401
20
-8.0625
30
0
11
30.572498
21
-8.0625
31
0
39
0
210
0
220
0
230
1
0
LINE
5
F1
100
AcDbEntity
8
1
62
256
6
ByLayer
370
18
48
1
60
0
100
AcDbLine
10
29.571628
20
-8.4375
30
0
11
30.32644
21
-8.4375
31
0
39
0
210
0
220
0
230
1
0
LINE
5
F2
100
AcDbEntity
8
1
62
256
6
ByLayer
370
18
48
1
60
0
100
AcDbLine
10
29.621679
20
-7.676669
30
0
11
31.636775
21
-7.676669
31
0
39
0
210
0
220
0
230
1
0
LINE
5
F3
100
AcDbEntity
8
1
62
256
6
ByLayer
370
18
48
1
60
0
100
AcDbLine
10
14.150682
20
-15.176669
30
0
11
21.909156
21
-15.176669
31
0
39
0
210
0
220
0
230
1
0
LINE
5
F4
100
AcDbEntity
8
1
62
256
6
ByLayer
370
18
48
1
60
0
100
AcDbLine
10
14.150682
20
15.176669
30
0
11
21.909156
21
15.176669
31
0
39
0
210
0
220
0
230
1
0
LINE
5
F5
100
AcDbEntity
8
1
62
256
6
ByLayer
370
18
48
1
60
0
100
AcDbLine
10
29.492867
20
-8.823331
30
0
11
30.928382
21
-8.823331
31
0
39
0
210
0
220
0
230
1
0
LINE
5
F6
100
AcDbEntity
8
1
62
256
6
ByLayer
370
18
48
1
60
0
100
AcDbLine
10
27.965799
20
8.823331
30
0
11
30.928382
21
8.823331
31
0
39
0
210
0
220
0
230
1
0
LINE
5
F7
100
AcDbEntity
8
1
62
256
6
ByLayer
370
18
48
1
60
0
100
AcDbLine
10
27.760267
20
9.176669
30
0
11
30.681344
21
9.176669
31
0
39
0
210
0
220
0
230
1
0
LINE
5
F8
100
AcDbEntity
8
1
62
256
6
ByLayer
370
18
48
1
60
0
100
AcDbLine
10
28.245596
20
9.5625
30
0
11
29.484453
21
9.5625
31
0
39
0
210
0
220
0
230
1
0
LINE
5
F9
100
AcDbEntity
8
1
62
256
6
ByLayer
370
18
48
1
60
0
100
AcDbLine
10
29.387104
20
-9.176669
30
0
11
30.681344
21
-9.176669
31
0
39
0
210
0
220
0
230
1
0
LINE
5
FA
100
AcDbEntity
8
1
62
256
6
ByLayer
370
18
48
1
60
0
100
AcDbLine
10
29.23167
20
-9.5625
30
0
11
29.484453
21
-9.5625
31
0
39
0
210
0
220
0
230
1
0
LINE
5
FB
100
AcDbEntity
8
1
62
256
6
ByLayer
370
18
48
1
60
0
100
AcDbLine
10
12.578994
20
-11.0625
30
0
11
22.266193
21
-11.0625
31
0
39
0
210
0
220
0
230
1
0
LINE
5
FC
100
AcDbEntity
8
1
62
256
6
ByLayer
370
18
48
1
60
0
100
AcDbLine
10
12.98833
20
-10.676669
30
0
11
21.856856
21
-10.676669
31
0
39
0
210
0
220
0
230
1
0
LINE
5
FD
100
AcDbEntity
8
1
62
256
6
ByLayer
370
18
48
1
60
0
100
AcDbLine
10
28.485483
20
-10.676669
30
0
11
29.453787
21
-10.676669
31
0
39
0
210
0
220
0
230
1
0
LINE
5
FE
100
AcDbEntity
8
1
62
256
6
ByLayer
370
18
48
1
60
0
100
AcDbLine
10
12.578994
20
11.0625
30
0
11
28.063333
21
11.0625
31
0
39
0
210
0
220
0
230
1
0
LINE
5
FF
100
AcDbEntity
8
1
62
256
6
ByLayer
370
18
48
1
60
0
100
AcDbLine
10
12.045125
20
11.4375
30
0
11
27.639568
21
11.4375
31
0
39
0
210
0
220
0
230
1
0
LINE
5
100
100
AcDbEntity
8
1
62
256
6
ByLayer
370
18
48
1
60
0
100
AcDbLine
10
12.045125
20
-11.4375
30
0
11
22.800062
21
-11.4375
31
0
39
0
210
0
220
0
230
1
0
LINE
5
101
100
AcDbEntity
8
1
62
256
6
ByLayer
370
18
48
1
60
0
100
AcDbLine
10
27.542277
20
-11.4375
30
0
11
27.639568
21
-11.4375
31
0
39
0
210
0
220
0
230
1
0
LINE
5
102
100
AcDbEntity
8
1
62
256
6
ByLayer
370
18
48
1
60
0
100
AcDbLine
10
12.98833
20
10.676669
30
0
11
29.453787
21
10.676669
31
0
39
0
210
0
220
0
230
1
0
LINE
5
103
100
AcDbEntity
8
1
62
256
6
ByLayer
370
18
48
1
60
0
100
AcDbLine
10
7.787806
20
-11.823331
30
0
11
8.15755
21
-11.823331
31
0
39
0
210
0
220
0
230
1
0
LINE
5
104
100
AcDbEntity
8
1
62
256
6
ByLayer
370
18
48
1
60
0
100
AcDbLine
10
11.190484
20
-11.823331
30
0
11
23.654703
21
-11.823331
31
0
39
0
210
0
220
0
230
1
0
LINE
5
105
100
AcDbEntity
8
1
62
256
6
ByLayer
370
18
48
1
60
0
100
AcDbLine
10
26.687636
20
-11.823331
30
0
11
28.272031
21
-11.823331
31
0
39
0
210
0
220
0
230
1
0
LINE
5
106
100
AcDbEntity
8
1
62
256
6
ByLayer
370
18
48
1
60
0
100
AcDbLine
10
7.787806
20
11.823331
30
0
11
8.15755
21
11.823331
31
0
39
0
210
0
220
0
230
1
0
LINE
5
107
100
AcDbEntity
8
1
62
256
6
ByLayer
370
18
48
1
60
0
100
AcDbLine
10
11.190484
20
11.823331
30
0
11
28.272031
21
11.823331
31
0
39
0
210
0
220
0
230
1
0
LINE
5
108
100
AcDbEntity
8
1
62
256
6
ByLayer
370
18
48
1
60
0
100
AcDbLine
10
13.425765
20
5.4375
30
0
11
15.444873
21
5.4375
31
0
39
0
210
0
220
0
230
1
0
LINE
5
109
100
AcDbEntity
8
1
62
256
6
ByLayer
370
18
48
1
60
0
100
AcDbLine
10
13.651282
20
5.823331
30
0
11
24.337674
21
5.823331
31
0
39
0
210
0
220
0
230
1
0
LINE
5
10A
100
AcDbEntity
8
1
62
256
6
ByLayer
370
18
48
1
60
0
100
AcDbLine
10
20.498475
20
5.4375
30
0
11
23.695439
21
5.4375
31
0
39
0
210
0
220
0
230
1
0
LINE
5
10B
100
AcDbEntity
8
1
62
256
6
ByLayer
370
18
48
1
60
0
100
AcDbLine
10
13.651282
20
-5.823331
30
0
11
21.193904
21
-5.823331
31
0
39
0
210
0
220
0
230
1
0
LINE
5
10C
100
AcDbEntity
8
1
62
256
6
ByLayer
370
18
48
1
60
0
100
AcDbLine
10
13.425765
20
-5.4375
30
0
11
15.444873
21
-5.4375
31
0
39
0
210
0
220
0
230
1
0
LINE
5
10D
100
AcDbEntity
8
1
62
256
6
ByLayer
370
18
48
1
60
0
100
AcDbLine
10
20.498475
20
-5.4375
30
0
11
21.419422
21
-5.4375
31
0
39
0
210
0
220
0
230
1
0
LINE
5
10E
100
AcDbEntity
8
1
62
256
6
ByLayer
370
18
48
1
60
0
100
AcDbLine
10
10.409704
20
-12.9375
30
0
11
25.533645
21
-12.9375
31
0
39
0
210
0
220
0
230
1
0
LINE
5
10F
100
AcDbEntity
8
1
62
256
6
ByLayer
370
18
48
1
60
0
100
AcDbLine
10
9.806305
20
-12.5625
30
0
11
26.137044
21
-12.5625
31
0
39
0
210
0
220
0
230
1
0
LINE
5
110
100
AcDbEntity
8
1
62
256
6
ByLayer
370
18
48
1
60
0
100
AcDbLine
10
8.207233
20
-12.176669
30
0
11
27.852605
21
-12.176669
31
0
39
0
210
0
220
0
230
1
0
LINE
5
111
100
AcDbEntity
8
1
62
256
6
ByLayer
370
18
48
1
60
0
100
AcDbLine
10
9.806305
20
12.5625
30
0
11
26.137044
21
12.5625
31
0
39
0
210
0
220
0
230
1
0
LINE
5
112
100
AcDbEntity
8
1
62
256
6
ByLayer
370
18
48
1
60
0
100
AcDbLine
10
10.409704
20
12.9375
30
0
11
25.533645
21
12.9375
31
0
39
0
210
0
220
0
230
1
0
LINE
5
113
100
AcDbEntity
8
1
62
256
6
ByLayer
370
18
48
1
60
0
100
AcDbLine
10
8.207233
20
12.176669
30
0
11
27.852605
21
12.176669
31
0
39
0
210
0
220
0
230
1
0
LINE
5
114
100
AcDbEntity
8
1
62
256
6
ByLayer
370
18
48
1
60
0
100
AcDbLine
10
9.816065
20
-13.323331
30
0
11
26.243773
21
-13.323331
31
0
39
0
210
0
220
0
230
1
0
LINE
5
115
100
AcDbEntity
8
1
62
256
6
ByLayer
370
18
48
1
60
0
100
AcDbLine
10
9.816065
20
13.323331
30
0
11
26.243773
21
13.323331
31
0
39
0
210
0
220
0
230
1
0
LINE
5
116
100
AcDbEntity
8
1
62
256
6
ByLayer
370
18
48
1
60
0
100
AcDbLine
10
13.734518
20
9.5625
30
0
11
23.194905
21
9.5625
31
0
39
0
210
0
220
0
230
1
0
LINE
5
117
100
AcDbEntity
8
1
62
256
6
ByLayer
370
18
48
1
60
0
100
AcDbLine
10
13.734518
20
-9.5625
30
0
11
21.110669
21
-9.5625
31
0
39
0
210
0
220
0
230
1
0
LINE
5
118
100
AcDbEntity
8
1
62
256
6
ByLayer
370
18
48
1
60
0
100
AcDbLine
10
13.889951
20
9.176669
30
0
11
23.796723
21
9.176669
31
0
39
0
210
0
220
0
230
1
0
LINE
5
119
100
AcDbEntity
8
1
62
256
6
ByLayer
370
18
48
1
60
0
100
AcDbLine
10
13.889951
20
-9.176669
30
0
11
20.955235
21
-9.176669
31
0
39
0
210
0
220
0
230
1
0
LINE
5
11A
100
AcDbEntity
8
1
62
256
6
ByLayer
370
18
48
1
60
0
100
AcDbLine
10
12.771758
20
-14.0625
30
0
11
23.171591
21
-14.0625
31
0
39
0
210
0
220
0
230
1
0
LINE
5
11B
100
AcDbEntity
8
1
62
256
6
ByLayer
370
18
48
1
60
0
100
AcDbLine
10
10.414163
20
-13.676669
30
0
11
25.645674
21
-13.676669
31
0
39
0
210
0
220
0
230
1
0
LINE
5
11C
100
AcDbEntity
8
1
62
256
6
ByLayer
370
18
48
1
60
0
100
AcDbLine
10
13.917934
20
-14.4375
30
0
11
22.025415
21
-14.4375
31
0
39
0
210
0
220
0
230
1
0
LINE
5
11D
100
AcDbEntity
8
1
62
256
6
ByLayer
370
18
48
1
60
0
100
AcDbLine
10
12.771758
20
14.0625
30
0
11
23.171591
21
14.0625
31
0
39
0
210
0
220
0
230
1
0
LINE
5
11E
100
AcDbEntity
8
1
62
256
6
ByLayer
370
18
48
1
60
0
100
AcDbLine
10
10.414163
20
13.676669
30
0
11
25.645674
21
13.676669
31
0
39
0
210
0
220
0
230
1
0
LINE
5
11F
100
AcDbEntity
8
1
62
256
6
ByLayer
370
18
48
1
60
0
100
AcDbLine
10
13.917934
20
14.4375
30
0
11
22.025415
21
14.4375
31
0
39
0
210
0
220
0
230
1
0
LINE
5
120
100
AcDbEntity
8
1
62
256
6
ByLayer
370
18
48
1
60
0
100
AcDbLine
10
13.948833
20
-6.5625
30
0
11
20.896353
21
-6.5625
31
0
39
0
210
0
220
0
230
1
0
LINE
5
121
100
AcDbEntity
8
1
62
256
6
ByLayer
370
18
48
1
60
0
100
AcDbLine
10
14.042079
20
-6.9375
30
0
11
20.803108
21
-6.9375
31
0
39
0
210
0
220
0
230
1
0
LINE
5
122
100
AcDbEntity
8
1
62
256
6
ByLayer
370
18
48
1
60
0
100
AcDbLine
10
13.948833
20
6.5625
30
0
11
22.879412
21
6.5625
31
0
39
0
210
0
220
0
230
1
0
LINE
5
123
100
AcDbEntity
8
1
62
256
6
ByLayer
370
18
48
1
60
0
100
AcDbLine
10
13.813635
20
6.176669
30
0
11
23.955581
21
6.176669
31
0
39
0
210
0
220
0
230
1
0
LINE
5
124
100
AcDbEntity
8
1
62
256
6
ByLayer
370
18
48
1
60
0
100
AcDbLine
10
14.042079
20
6.9375
30
0
11
22.747771
21
6.9375
31
0
39
0
210
0
220
0
230
1
0
LINE
5
125
100
AcDbEntity
8
1
62
256
6
ByLayer
370
18
48
1
60
0
100
AcDbLine
10
13.813635
20
-6.176669
30
0
11
21.031551
21
-6.176669
31
0
39
0
210
0
220
0
230
1
0
LINE
5
126
100
AcDbEntity
8
1
62
256
6
ByLayer
370
18
48
1
60
0
100
AcDbLine
10
14.101417
20
7.323331
30
0
11
23.398781
21
7.323331
31
0
39
0
210
0
220
0
230
1
0
LINE
5
127
100
AcDbEntity
8
1
62
256
6
ByLayer
370
18
48
1
60
0
100
AcDbLine
10
14.101417
20
-7.323331
30
0
11
20.743769
21
-7.323331
31
0
39
0
210
0
220
0
230
1
0
LINE
5
128
100
AcDbEntity
8
1
62
256
6
ByLayer
370
18
48
1
60
0
100
AcDbLine
10
14.116249
20
8.0625
30
0
11
22.645064
21
8.0625
31
0
39
0
210
0
220
0
230
1
0
LINE
5
129
100
AcDbEntity
8
1
62
256
6
ByLayer
370
18
48
1
60
0
100
AcDbLine
10
14.074476
20
8.4375
30
0
11
22.702703
21
8.4375
31
0
39
0
210
0
220
0
230
1
0
LINE
5
12A
100
AcDbEntity
8
1
62
256
6
ByLayer
370
18
48
1
60
0
100
AcDbLine
10
13.995714
20
8.823331
30
0
11
23.591191
21
8.823331
31
0
39
0
210
0
220
0
230
1
0
LINE
5
12B
100
AcDbEntity
8
1
62
256
6
ByLayer
370
18
48
1
60
0
100
AcDbLine
10
14.074476
20
-8.4375
30
0
11
20.770711
21
-8.4375
31
0
39
0
210
0
220
0
230
1
0
LINE
5
12C
100
AcDbEntity
8
1
62
256
6
ByLayer
370
18
48
1
60
0
100
AcDbLine
10
13.995714
20
-8.823331
30
0
11
20.849472
21
-8.823331
31
0
39
0
210
0
220
0
230
1
0
LINE
5
12D
100
AcDbEntity
8
1
62
256
6
ByLayer
370
18
48
1
60
0
100
AcDbLine
10
14.116249
20
-8.0625
30
0
11
20.728938
21
-8.0625
31
0
39
0
210
0
220
0
230
1
0
LINE
5
12E
100
AcDbEntity
8
1
62
256
6
ByLayer
370
18
48
1
60
0
100
AcDbLine
10
14.124526
20
7.676669
30
0
11
23.358138
21
7.676669
31
0
39
0
210
0
220
0
230
1
0
LINE
5
12F
100
AcDbEntity
8
1
62
256
6
ByLayer
370
18
48
1
60
0
100
AcDbLine
10
14.124526
20
-7.676669
30
0
11
20.72066
21
-7.676669
31
0
39
0
210
0
220
0
230
1
0
LINE
5
130
100
AcDbEntity
8
1
62
256
6
ByLayer
370
18
48
1
60
0
100
AcDbLine
10
18.076261
20
16
30
0
11
18.05883
21
16
31
0
39
0
210
0
220
0
230
1
0
LINE
5
131
100
AcDbEntity
8
1
62
256
6
ByLayer
370
18
48
1
60
0
100
AcDbLine
10
18.05883
20
-16
30
0
11
18.076261
21
-16
31
0
39
0
210
0
220
0
230
1
0
LINE
5
132
100
AcDbEntity
8
1
62
256
6
ByLayer
370
18
48
1
60
0
100
AcDbLine
10
12.973427
20
-14.823331
30
0
11
23.086411
21
-14.823331
31
0
39
0
210
0
220
0
230
1
0
LINE
5
133
100
AcDbEntity
8
1
62
256
6
ByLayer
370
18
48
1
60
0
100
AcDbLine
10
12.973427
20
14.823331
30
0
11
23.086411
21
14.823331
31
0
39
0
210
0
220
0
230
1
0
LINE
5
134
100
AcDbEntity
8
1
62
256
6
ByLayer
370
18
48
1
60
0
100
AcDbLine
10
13.148657
20
-5.0625
30
0
11
14.763511
21
-5.0625
31
0
39
0
210
0
220
0
230
1
0
LINE
5
135
100
AcDbEntity
8
1
62
256
6
ByLayer
370
18
48
1
60
0
100
AcDbLine
10
13.148657
20
5.0625
30
0
11
14.763511
21
5.0625
31
0
39
0
210
0
220
0
230
1
0
LINE
5
136
100
AcDbEntity
8
1
62
256
6
ByLayer
370
18
48
1
60
0
100
AcDbLine
10
3.905522
20
5.0625
30
0
11
6.199377
21
5.0625
31
0
39
0
210
0
220
0
230
1
0
LINE
5
137
100
AcDbEntity
8
1
62
256
6
ByLayer
370
18
48
1
60
0
100
AcDbLine
10
3.13277
20
4.676669
30
0
11
6.561472
21
4.676669
31
0
39
0
210
0
220
0
230
1
0
LINE
5
138
100
AcDbEntity
8
1
62
256
6
ByLayer
370
18
48
1
60
0
100
AcDbLine
10
12.786561
20
4.676669
30
0
11
15.47919
21
4.676669
31
0
39
0
210
0
220
0
230
1
0
LINE
5
139
100
AcDbEntity
8
1
62
256
6
ByLayer
370
18
48
1
60
0
100
AcDbLine
10
3.905522
20
-5.0625
30
0
11
6.199377
21
-5.0625
31
0
39
0
210
0
220
0
230
1
0
LINE
5
13A
100
AcDbEntity
8
1
62
256
6
ByLayer
370
18
48
1
60
0
100
AcDbLine
10
3.13277
20
-4.676669
30
0
11
6.561472
21
-4.676669
31
0
39
0
210
0
220
0
230
1
0
LINE
5
13B
100
AcDbEntity
8
1
62
256
6
ByLayer
370
18
48
1
60
0
100
AcDbLine
10
12.786561
20
-4.676669
30
0
11
15.47919
21
-4.676669
31
0
39
0
210
0
220
0
230
1
0
LINE
5
13C
100
AcDbEntity
8
1
62
256
6
ByLayer
370
18
48
1
60
0
100
AcDbLine
10
3.552772
20
-3.9375
30
0
11
7.64324
21
-3.9375
31
0
39
0
210
0
220
0
230
1
0
LINE
5
13D
100
AcDbEntity
8
1
62
256
6
ByLayer
370
18
48
1
60
0
100
AcDbLine
10
11.704794
20
-3.9375
30
0
11
13.461641
21
-3.9375
31
0
39
0
210
0
220
0
230
1
0
LINE
5
13E
100
AcDbEntity
8
1
62
256
6
ByLayer
370
18
48
1
60
0
100
AcDbLine
10
3.456308
20
-3.5625
30
0
11
8.919117
21
-3.5625
31
0
39
0
210
0
220
0
230
1
0
LINE
5
13F
100
AcDbEntity
8
1
62
256
6
ByLayer
370
18
48
1
60
0
100
AcDbLine
10
10.428917
20
-3.5625
30
0
11
13.162149
21
-3.5625
31
0
39
0
210
0
220
0
230
1
0
LINE
5
140
100
AcDbEntity
8
1
62
256
6
ByLayer
370
18
48
1
60
0
100
AcDbLine
10
3.027221
20
-4.323331
30
0
11
6.990359
21
-4.323331
31
0
39
0
210
0
220
0
230
1
0
LINE
5
141
100
AcDbEntity
8
1
62
256
6
ByLayer
370
18
48
1
60
0
100
AcDbLine
10
12.357675
20
-4.323331
30
0
11
14.921526
21
-4.323331
31
0
39
0
210
0
220
0
230
1
0
LINE
5
142
100
AcDbEntity
8
1
62
256
6
ByLayer
370
18
48
1
60
0
100
AcDbLine
10
3.456308
20
3.5625
30
0
11
8.919117
21
3.5625
31
0
39
0
210
0
220
0
230
1
0
LINE
5
143
100
AcDbEntity
8
1
62
256
6
ByLayer
370
18
48
1
60
0
100
AcDbLine
10
10.428917
20
3.5625
30
0
11
13.162149
21
3.5625
31
0
39
0
210
0
220
0
230
1
0
LINE
5
144
100
AcDbEntity
8
1
62
256
6
ByLayer
370
18
48
1
60
0
100
AcDbLine
10
3.552772
20
3.9375
30
0
11
7.64324
21
3.9375
31
0
39
0
210
0
220
0
230
1
0
LINE
5
145
100
AcDbEntity
8
1
62
256
6
ByLayer
370
18
48
1
60
0
100
AcDbLine
10
11.704794
20
3.9375
30
0
11
13.461641
21
3.9375
31
0
39
0
210
0
220
0
230
1
0
LINE
5
146
100
AcDbEntity
8
1
62
256
6
ByLayer
370
18
48
1
60
0
100
AcDbLine
10
3.027221
20
4.323331
30
0
11
6.990359
21
4.323331
31
0
39
0
210
0
220
0
230
1
0
LINE
5
147
100
AcDbEntity
8
1
62
256
6
ByLayer
370
18
48
1
60
0
100
AcDbLine
10
12.357675
20
4.323331
30
0
11
14.921526
21
4.323331
31
0
39
0
210
0
220
0
230
1
0
LINE
5
148
100
AcDbEntity
8
1
62
256
6
ByLayer
370
18
48
1
60
0
100
AcDbLine
10
2.745431
20
-3.176669
30
0
11
13.764155
21
-3.176669
31
0
39
0
210
0
220
0
230
1
0
LINE
5
149
100
AcDbEntity
8
1
62
256
6
ByLayer
370
18
48
1
60
0
100
AcDbLine
10
2.745431
20
3.176669
30
0
11
13.764155
21
3.176669
31
0
39
0
210
0
220
0
230
1
0
LINE
5
14A
100
AcDbEntity
8
1
62
256
6
ByLayer
370
18
48
1
60
0
100
AcDbLine
10
3.227367
20
-2.4375
30
0
11
12.509965
21
-2.4375
31
0
39
0
210
0
220
0
230
1
0
LINE
5
14B
100
AcDbEntity
8
1
62
256
6
ByLayer
370
18
48
1
60
0
100
AcDbLine
10
2.67676
20
-2.823331
30
0
11
13.524292
21
-2.823331
31
0
39
0
210
0
220
0
230
1
0
LINE
5
14C
100
AcDbEntity
8
1
62
256
6
ByLayer
370
18
48
1
60
0
100
AcDbLine
10
3.227367
20
2.4375
30
0
11
12.509965
21
2.4375
31
0
39
0
210
0
220
0
230
1
0
LINE
5
14D
100
AcDbEntity
8
1
62
256
6
ByLayer
370
18
48
1
60
0
100
AcDbLine
10
2.67676
20
2.823331
30
0
11
13.524292
21
2.823331
31
0
39
0
210
0
220
0
230
1
0
LINE
5
14E
100
AcDbEntity
8
1
62
256
6
ByLayer
370
18
48
1
60
0
100
AcDbLine
10
3.170685
20
2.0625
30
0
11
12.358748
21
2.0625
31
0
39
0
210
0
220
0
230
1
0
LINE
5
14F
100
AcDbEntity
8
1
62
256
6
ByLayer
370
18
48
1
60
0
100
AcDbLine
10
3.170685
20
-2.0625
30
0
11
12.358748
21
-2.0625
31
0
39
0
210
0
220
0
230
1
0
LINE
5
150
100
AcDbEntity
8
1
62
256
6
ByLayer
370
18
48
1
60
0
100
AcDbLine
10
2.510889
20
1.676669
30
0
11
12.98795
21
1.676669
31
0
39
0
210
0
220
0
230
1
0
LINE
5
151
100
AcDbEntity
8
1
62
256
6
ByLayer
370
18
48
1
60
0
100
AcDbLine
10
2.510889
20
-1.676669
30
0
11
12.98795
21
-1.676669
31
0
39
0
210
0
220
0
230
1
0
LINE
5
152
100
AcDbEntity
8
1
62
256
6
ByLayer
370
18
48
1
60
0
100
AcDbLine
10
3.057968
20
-0.9375
30
0
11
12.067921
21
-0.9375
31
0
39
0
210
0
220
0
230
1
0
LINE
5
153
100
AcDbEntity
8
1
62
256
6
ByLayer
370
18
48
1
60
0
100
AcDbLine
10
2.477033
20
-1.323331
30
0
11
12.884687
21
-1.323331
31
0
39
0
210
0
220
0
230
1
0
LINE
5
154
100
AcDbEntity
8
1
62
256
6
ByLayer
370
18
48
1
60
0
100
AcDbLine
10
3.039264
20
0.5625
30
0
11
12.020831
21
0.5625
31
0
39
0
210
0
220
0
230
1
0
LINE
5
155
100
AcDbEntity
8
1
62
256
6
ByLayer
370
18
48
1
60
0
100
AcDbLine
10
3.057968
20
0.9375
30
0
11
12.067921
21
0.9375
31
0
39
0
210
0
220
0
230
1
0
LINE
5
156
100
AcDbEntity
8
1
62
256
6
ByLayer
370
18
48
1
60
0
100
AcDbLine
10
2.477033
20
1.323331
30
0
11
12.884687
21
1.323331
31
0
39
0
210
0
220
0
230
1
0
LINE
5
157
100
AcDbEntity
8
1
62
256
6
ByLayer
370
18
48
1
60
0
100
AcDbLine
10
3.039264
20
-0.5625
30
0
11
12.020831
21
-0.5625
31
0
39
0
210
0
220
0
230
1
0
LINE
5
158
100
AcDbEntity
8
1
62
256
6
ByLayer
370
18
48
1
60
0
100
AcDbLine
10
2.422255
20
-0.176669
30
0
11
12.721403
21
-0.176669
31
0
39
0
210
0
220
0
230
1
0
LINE
5
159
100
AcDbEntity
8
1
62
256
6
ByLayer
370
18
48
1
60
0
100
AcDbLine
10
2.422255
20
0.176669
30
0
11
12.721403
21
0.176669
31
0
39
0
210
0
220
0
230
1
0
LINE
5
15A
100
AcDbEntity
8
1
62
256
6
ByLayer
370
18
48
1
60
0
100
AcDbLine
10
4.045115
20
5.4375
30
0
11
5.922269
21
5.4375
31
0
39
0
210
0
220
0
230
1
0
LINE
5
15B
100
AcDbEntity
8
1
62
256
6
ByLayer
370
18
48
1
60
0
100
AcDbLine
10
4.045115
20
-5.4375
30
0
11
5.922269
21
-5.4375
31
0
39
0
210
0
220
0
230
1
0
LINE
5
15C
100
AcDbEntity
8
1
62
256
6
ByLayer
370
18
48
1
60
0
100
AcDbLine
10
3.539351
20
5.823331
30
0
11
5.696751
21
5.823331
31
0
39
0
210
0
220
0
230
1
0
LINE
5
15D
100
AcDbEntity
8
1
62
256
6
ByLayer
370
18
48
1
60
0
100
AcDbLine
10
3.539351
20
-5.823331
30
0
11
5.696751
21
-5.823331
31
0
39
0
210
0
220
0
230
1
0
LINE
5
15E
100
AcDbEntity
8
1
62
256
6
ByLayer
370
18
48
1
60
0
100
AcDbLine
10
5.378493
20
9.176669
30
0
11
5.458082
21
9.176669
31
0
39
0
210
0
220
0
230
1
0
LINE
5
15F
100
AcDbEntity
8
1
62
256
6
ByLayer
370
18
48
1
60
0
100
AcDbLine
10
5.378493
20
-9.176669
30
0
11
5.458082
21
-9.176669
31
0
39
0
210
0
220
0
230
1
0
LINE
5
160
100
AcDbEntity
8
1
62
256
6
ByLayer
370
18
48
1
60
0
100
AcDbLine
10
4.534725
20
6.5625
30
0
11
5.399201
21
6.5625
31
0
39
0
210
0
220
0
230
1
0
LINE
5
161
100
AcDbEntity
8
1
62
256
6
ByLayer
370
18
48
1
60
0
100
AcDbLine
10
3.685278
20
6.176669
30
0
11
5.534399
21
6.176669
31
0
39
0
210
0
220
0
230
1
0
LINE
5
162
100
AcDbEntity
8
1
62
256
6
ByLayer
370
18
48
1
60
0
100
AcDbLine
10
4.722993
20
6.9375
30
0
11
5.305955
21
6.9375
31
0
39
0
210
0
220
0
230
1
0
LINE
5
163
100
AcDbEntity
8
1
62
256
6
ByLayer
370
18
48
1
60
0
100
AcDbLine
10
4.722993
20
-6.9375
30
0
11
5.305955
21
-6.9375
31
0
39
0
210
0
220
0
230
1
0
LINE
5
164
100
AcDbEntity
8
1
62
256
6
ByLayer
370
18
48
1
60
0
100
AcDbLine
10
4.534725
20
-6.5625
30
0
11
5.399201
21
-6.5625
31
0
39
0
210
0
220
0
230
1
0
LINE
5
165
100
AcDbEntity
8
1
62
256
6
ByLayer
370
18
48
1
60
0
100
AcDbLine
10
3.685278
20
-6.176669
30
0
11
5.534399
21
-6.176669
31
0
39
0
210
0
220
0
230
1
0
LINE
5
166
100
AcDbEntity
8
1
62
256
6
ByLayer
370
18
48
1
60
0
100
AcDbLine
10
4.231138
20
-7.323331
30
0
11
5.246616
21
-7.323331
31
0
39
0
210
0
220
0
230
1
0
LINE
5
167
100
AcDbEntity
8
1
62
256
6
ByLayer
370
18
48
1
60
0
100
AcDbLine
10
4.231138
20
7.323331
30
0
11
5.246616
21
7.323331
31
0
39
0
210
0
220
0
230
1
0
LINE
5
168
100
AcDbEntity
8
1
62
256
6
ByLayer
370
18
48
1
60
0
100
AcDbLine
10
5.131456
20
-8.823331
30
0
11
5.352319
21
-8.823331
31
0
39
0
210
0
220
0
230
1
0
LINE
5
169
100
AcDbEntity
8
1
62
256
6
ByLayer
370
18
48
1
60
0
100
AcDbLine
10
5.131456
20
8.823331
30
0
11
5.352319
21
8.823331
31
0
39
0
210
0
220
0
230
1
0
LINE
5
16A
100
AcDbEntity
8
1
62
256
6
ByLayer
370
18
48
1
60
0
100
AcDbLine
10
4.423062
20
7.676669
30
0
11
5.223508
21
7.676669
31
0
39
0
210
0
220
0
230
1
0
LINE
5
16B
100
AcDbEntity
8
1
62
256
6
ByLayer
370
18
48
1
60
0
100
AcDbLine
10
4.423062
20
-7.676669
30
0
11
5.223508
21
-7.676669
31
0
39
0
210
0
220
0
230
1
0
LINE
5
16C
100
AcDbEntity
8
1
62
256
6
ByLayer
370
18
48
1
60
0
100
AcDbLine
10
0.675
20
20
30
0
11
-0.325
21
19
31
0
39
0
210
0
220
0
230
1
0
LINE
5
16D
100
AcDbEntity
8
1
62
256
6
ByLayer
370
18
48
1
60
0
100
AcDbLine
10
-0.325
20
-19
30
0
11
0.675
21
-20
31
0
39
0
210
0
220
0
230
1
0
LINE
5
16E
100
AcDbEntity
8
1
62
256
6
ByLayer
370
18
48
1
60
0
100
AcDbLine
10
0.675
20
-20
30
0
11
0.875
21
-20
31
0
39
0
210
0
220
0
230
1
0
LINE
5
16F
100
AcDbEntity
8
1
62
256
6
ByLayer
370
18
48
1
60
0
100
AcDbLine
10
0.875
20
20
30
0
11
0.675
21
20
31
0
39
0
210
0
220
0
230
1
0
LINE
5
170
100
AcDbEntity
8
1
62
256
6
ByLayer
370
18
48
1
60
0
100
AcDbLine
10
0.343279
20
6.470901
30
0
11
0.343279
21
5.349988
31
0
39
0
210
0
220
0
230
1
0
LINE
5
171
100
AcDbEntity
8
1
62
256
6
ByLayer
370
18
48
1
60
0
100
AcDbLine
10
0.343279
20
-5.349988
30
0
11
0.343279
21
-6.470901
31
0
39
0
210
0
220
0
230
1
0
LINE
5
172
100
AcDbEntity
8
1
62
256
6
ByLayer
370
18
48
1
60
0
100
AcDbLine
10
-0.325
20
5.496803
30
0
11
-0.325
21
-5.496803
31
0
39
0
210
0
220
0
230
1
0
LINE
5
173
100
AcDbEntity
8
1
62
256
6
ByLayer
370
18
48
1
60
0
100
AcDbLine
10
0.343279
20
9.764351
30
0
11
0.343279
21
9.118793
31
0
39
0
210
0
220
0
230
1
0
LINE
5
174
100
AcDbEntity
8
1
62
256
6
ByLayer
370
18
48
1
60
0
100
AcDbLine
10
0.343279
20
-9.118793
30
0
11
0.343279
21
-9.764351
31
0
39
0
210
0
220
0
230
1
0
LINE
5
175
100
AcDbEntity
8
1
62
256
6
ByLayer
370
18
48
1
60
0
100
AcDbLine
10
-0.325
20
9.084456
30
0
11
-0.325
21
6.61172
31
0
39
0
210
0
220
0
230
1
0
LINE
5
176
100
AcDbEntity
8
1
62
256
6
ByLayer
370
18
48
1
60
0
100
AcDbLine
10
-0.325
20
-6.61172
30
0
11
-0.325
21
-9.084456
31
0
39
0
210
0
220
0
230
1
0
LINE
5
177
100
AcDbEntity
8
1
62
256
6
ByLayer
370
18
48
1
60
0
100
AcDbLine
10
33.997945
20
23.72206
30
0
11
33.747377
21
23.932312
31
0
39
0
210
0
220
0
230
1
0
LINE
5
178
100
AcDbEntity
8
1
62
256
6
ByLayer
370
18
48
1
60
0
100
AcDbLine
10
2.329905
20
21.183572
30
0
11
2.119715
21
20.933077
31
0
39
0
210
0
220
0
230
1
0
LINE
5
179
100
AcDbEntity
8
1
62
256
6
ByLayer
370
18
48
1
60
0
100
AcDbLine
10
2.119715
20
-20.933077
30
0
11
2.328845
21
-21.182309
31
0
39
0
210
0
220
0
230
1
0
LINE
5
17A
100
AcDbEntity
8
1
62
256
6
ByLayer
370
18
48
1
60
0
100
AcDbLine
10
33.747243
20
-23.932425
30
0
11
33.997945
21
-23.72206
31
0
39
0
210
0
220
0
230
1
0
LINE
5
17B
100
AcDbEntity
8
1
62
256
6
ByLayer
370
18
48
1
60
0
100
AcDbLine
10
2.137146
20
-20.733838
30
0
11
2.119715
21
-20.933077
31
0
39
0
210
0
220
0
230
1
0
LINE
5
17C
100
AcDbEntity
8
1
62
256
6
ByLayer
370
18
48
1
60
0
100
AcDbLine
10
33.997945
20
-23.72206
30
0
11
34.015376
21
-23.522822
31
0
39
0
210
0
220
0
230
1
0
LINE
5
17D
100
AcDbEntity
8
1
62
256
6
ByLayer
370
18
48
1
60
0
100
AcDbLine
10
34.015376
20
23.522822
30
0
11
33.997945
21
23.72206
31
0
39
0
210
0
220
0
230
1
0
LINE
5
17E
100
AcDbEntity
8
1
62
256
6
ByLayer
370
18
48
1
60
0
100
AcDbLine
10
2.119715
20
20.933077
30
0
11
2.137146
21
20.733838
31
0
39
0
210
0
220
0
230
1
0
LINE
5
17F
100
AcDbEntity
8
1
62
256
6
ByLayer
370
18
48
1
60
0
100
AcDbLine
10
0.343279
20
12.013016
30
0
11
0.343279
21
11.540468
31
0
39
0
210
0
220
0
230
1
0
LINE
5
180
100
AcDbEntity
8
1
62
256
6
ByLayer
370
18
48
1
60
0
100
AcDbLine
10
0.343279
20
-11.540468
30
0
11
0.343279
21
-12.013016
31
0
39
0
210
0
220
0
230
1
0
LINE
5
181
100
AcDbEntity
8
1
62
256
6
ByLayer
370
18
48
1
60
0
100
AcDbLine
10
-0.325
20
11.416648
30
0
11
-0.325
21
9.741783
31
0
39
0
210
0
220
0
230
1
0
LINE
5
182
100
AcDbEntity
8
1
62
256
6
ByLayer
370
18
48
1
60
0
100
AcDbLine
10
-0.325
20
-9.741783
30
0
11
-0.325
21
-11.416648
31
0
39
0
210
0
220
0
230
1
0
LINE
5
183
100
AcDbEntity
8
1
62
256
6
ByLayer
370
18
48
1
60
0
100
AcDbLine
10
12.973427
20
22.215642
30
0
11
14.150682
21
22.318638
31
0
39
0
210
0
220
0
230
1
0
LINE
5
184
100
AcDbEntity
8
1
62
256
6
ByLayer
370
18
48
1
60
0
100
AcDbLine
10
21.909156
20
22.997417
30
0
11
23.086411
21
23.100413
31
0
39
0
210
0
220
0
230
1
0
LINE
5
185
100
AcDbEntity
8
1
62
256
6
ByLayer
370
18
48
1
60
0
100
AcDbLine
10
12.973427
20
-22.215642
30
0
11
14.150682
21
-22.318638
31
0
39
0
210
0
220
0
230
1
0
LINE
5
186
100
AcDbEntity
8
1
62
256
6
ByLayer
370
18
48
1
60
0
100
AcDbLine
10
21.909156
20
-22.997417
30
0
11
23.086411
21
-23.100413
31
0
39
0
210
0
220
0
230
1
0
LINE
5
187
100
AcDbEntity
8
1
62
256
6
ByLayer
370
18
48
1
60
0
100
AcDbLine
10
13.917934
20
-22.969107
30
0
11
22.025415
21
-23.67842
31
0
39
0
210
0
220
0
230
1
0
LINE
5
188
100
AcDbEntity
8
1
62
256
6
ByLayer
370
18
48
1
60
0
100
AcDbLine
10
13.917934
20
22.969107
30
0
11
22.025415
21
23.67842
31
0
39
0
210
0
220
0
230
1
0
LINE
5
189
100
AcDbEntity
8
1
62
256
6
ByLayer
370
18
48
1
60
0
100
AcDbLine
10
0.343279
20
13.739816
30
0
11
0.343279
21
13.368336
31
0
39
0
210
0
220
0
230
1
0
LINE
5
18A
100
AcDbEntity
8
1
62
256
6
ByLayer
370
18
48
1
60
0
100
AcDbLine
10
0.343279
20
-13.368336
30
0
11
0.343279
21
-13.739816
31
0
39
0
210
0
220
0
230
1
0
LINE
5
18B
100
AcDbEntity
8
1
62
256
6
ByLayer
370
18
48
1
60
0
100
AcDbLine
10
-0.325
20
-11.899153
30
0
11
-0.325
21
-13.177721
31
0
39
0
210
0
220
0
230
1
0
LINE
5
18C
100
AcDbEntity
8
1
62
256
6
ByLayer
370
18
48
1
60
0
100
AcDbLine
10
-0.325
20
13.177721
30
0
11
-0.325
21
11.899153
31
0
39
0
210
0
220
0
230
1
0
LINE
5
18D
100
AcDbEntity
8
1
62
256
6
ByLayer
370
18
48
1
60
0
100
AcDbLine
10
9.816065
20
21.939409
30
0
11
10.414163
21
21.991735
31
0
39
0
210
0
220
0
230
1
0
LINE
5
18E
100
AcDbEntity
8
1
62
256
6
ByLayer
370
18
48
1
60
0
100
AcDbLine
10
25.645674
20
23.32432
30
0
11
26.243773
21
23.376647
31
0
39
0
210
0
220
0
230
1
0
LINE
5
18F
100
AcDbEntity
8
1
62
256
6
ByLayer
370
18
48
1
60
0
100
AcDbLine
10
9.816065
20
-21.939409
30
0
11
10.414163
21
-21.991735
31
0
39
0
210
0
220
0
230
1
0
LINE
5
190
100
AcDbEntity
8
1
62
256
6
ByLayer
370
18
48
1
60
0
100
AcDbLine
10
25.645674
20
-23.32432
30
0
11
26.243773
21
-23.376647
31
0
39
0
210
0
220
0
230
1
0
LINE
5
191
100
AcDbEntity
8
1
62
256
6
ByLayer
370
18
48
1
60
0
100
AcDbLine
10
10.409704
20
-22.662177
30
0
11
12.771758
21
-22.86883
31
0
39
0
210
0
220
0
230
1
0
LINE
5
192
100
AcDbEntity
8
1
62
256
6
ByLayer
370
18
48
1
60
0
100
AcDbLine
10
23.171591
20
-23.778697
30
0
11
25.533645
21
-23.98535
31
0
39
0
210
0
220
0
230
1
0
LINE
5
193
100
AcDbEntity
8
1
62
256
6
ByLayer
370
18
48
1
60
0
100
AcDbLine
10
10.409704
20
22.662177
30
0
11
12.771758
21
22.86883
31
0
39
0
210
0
220
0
230
1
0
LINE
5
194
100
AcDbEntity
8
1
62
256
6
ByLayer
370
18
48
1
60
0
100
AcDbLine
10
23.171591
20
23.778697
30
0
11
25.533645
21
23.98535
31
0
39
0
210
0
220
0
230
1
0
LINE
5
195
100
AcDbEntity
8
1
62
256
6
ByLayer
370
18
48
1
60
0
100
AcDbLine
10
0.343279
20
-14.823711
30
0
11
0.343279
21
-15.124567
31
0
39
0
210
0
220
0
230
1
0
LINE
5
196
100
AcDbEntity
8
1
62
256
6
ByLayer
370
18
48
1
60
0
100
AcDbLine
10
0.343279
20
15.124567
30
0
11
0.343279
21
14.823711
31
0
39
0
210
0
220
0
230
1
0
LINE
5
197
100
AcDbEntity
8
1
62
256
6
ByLayer
370
18
48
1
60
0
100
AcDbLine
10
-0.325
20
-13.55645
30
0
11
-0.325
21
-14.576174
31
0
39
0
210
0
220
0
230
1
0
LINE
5
198
100
AcDbEntity
8
1
62
256
6
ByLayer
370
18
48
1
60
0
100
AcDbLine
10
-0.325
20
14.576174
30
0
11
-0.325
21
13.55645
31
0
39
0
210
0
220
0
230
1
0
LINE
5
199
100
AcDbEntity
8
1
62
256
6
ByLayer
370
18
48
1
60
0
100
AcDbLine
10
7.787806
20
21.761959
30
0
11
8.207233
21
21.798654
31
0
39
0
210
0
220
0
230
1
0
LINE
5
19A
100
AcDbEntity
8
1
62
256
6
ByLayer
370
18
48
1
60
0
100
AcDbLine
10
27.852605
20
23.517401
30
0
11
28.272031
21
23.554096
31
0
39
0
210
0
220
0
230
1
0
LINE
5
19B
100
AcDbEntity
8
1
62
256
6
ByLayer
370
18
48
1
60
0
100
AcDbLine
10
7.787806
20
-21.761959
30
0
11
8.207233
21
-21.798654
31
0
39
0
210
0
220
0
230
1
0
LINE
5
19C
100
AcDbEntity
8
1
62
256
6
ByLayer
370
18
48
1
60
0
100
AcDbLine
10
27.852605
20
-23.517401
30
0
11
28.272031
21
-23.554096
31
0
39
0
210
0
220
0
230
1
0
LINE
5
19D
100
AcDbEntity
8
1
62
256
6
ByLayer
370
18
48
1
60
0
100
AcDbLine
10
8.303781
20
-22.477932
30
0
11
9.806305
21
-22.609386
31
0
39
0
210
0
220
0
230
1
0
LINE
5
19E
100
AcDbEntity
8
1
62
256
6
ByLayer
370
18
48
1
60
0
100
AcDbLine
10
26.137044
20
-24.038141
30
0
11
27.639568
21
-24.169594
31
0
39
0
210
0
220
0
230
1
0
LINE
5
19F
100
AcDbEntity
8
1
62
256
6
ByLayer
370
18
48
1
60
0
100
AcDbLine
10
8.303781
20
22.477932
30
0
11
9.806305
21
22.609386
31
0
39
0
210
0
220
0
230
1
0
LINE
5
1A0
100
AcDbEntity
8
1
62
256
6
ByLayer
370
18
48
1
60
0
100
AcDbLine
10
26.137044
20
24.038141
30
0
11
27.639568
21
24.169594
31
0
39
0
210
0
220
0
230
1
0
LINE
5
1A1
100
AcDbEntity
8
1
62
256
6
ByLayer
370
18
48
1
60
0
100
AcDbLine
10
0.343279
20
-16.008511
30
0
11
0.343279
21
-16.254923
31
0
39
0
210
0
220
0
230
1
0
LINE
5
1A2
100
AcDbEntity
8
1
62
256
6
ByLayer
370
18
48
1
60
0
100
AcDbLine
10
0.343279
20
16.254923
30
0
11
0.343279
21
16.008511
31
0
39
0
210
0
220
0
230
1
0
LINE
5
1A3
100
AcDbEntity
8
1
62
256
6
ByLayer
370
18
48
1
60
0
100
AcDbLine
10
-0.325
20
15.709148
30
0
11
-0.325
21
14.881695
31
0
39
0
210
0
220
0
230
1
0
LINE
5
1A4
100
AcDbEntity
8
1
62
256
6
ByLayer
370
18
48
1
60
0
100
AcDbLine
10
-0.325
20
-14.881695
30
0
11
-0.325
21
-15.709148
31
0
39
0
210
0
220
0
230
1
0
LINE
5
1A5
100
AcDbEntity
8
1
62
256
6
ByLayer
370
18
48
1
60
0
100
AcDbLine
10
6.288176
20
21.630758
30
0
11
6.60605
21
21.658569
31
0
39
0
210
0
220
0
230
1
0
LINE
5
1A6
100
AcDbEntity
8
1
62
256
6
ByLayer
370
18
48
1
60
0
100
AcDbLine
10
29.453787
20
23.657487
30
0
11
29.771661
21
23.685297
31
0
39
0
210
0
220
0
230
1
0
LINE
5
1A7
100
AcDbEntity
8
1
62
256
6
ByLayer
370
18
48
1
60
0
100
AcDbLine
10
6.288176
20
-21.630758
30
0
11
6.60605
21
-21.658569
31
0
39
0
210
0
220
0
230
1
0
LINE
5
1A8
100
AcDbEntity
8
1
62
256
6
ByLayer
370
18
48
1
60
0
100
AcDbLine
10
29.453787
20
-23.657487
30
0
11
29.771661
21
-23.685297
31
0
39
0
210
0
220
0
230
1
0
LINE
5
1A9
100
AcDbEntity
8
1
62
256
6
ByLayer
370
18
48
1
60
0
100
AcDbLine
10
6.778502
20
-22.344488
30
0
11
7.880016
21
-22.440858
31
0
39
0
210
0
220
0
230
1
0
LINE
5
1AA
100
AcDbEntity
8
1
62
256
6
ByLayer
370
18
48
1
60
0
100
AcDbLine
10
28.063333
20
-24.206669
30
0
11
29.164847
21
-24.303039
31
0
39
0
210
0
220
0
230
1
0
LINE
5
1AB
100
AcDbEntity
8
1
62
256
6
ByLayer
370
18
48
1
60
0
100
AcDbLine
10
6.778502
20
22.344488
30
0
11
7.880016
21
22.440858
31
0
39
0
210
0
220
0
230
1
0
LINE
5
1AC
100
AcDbEntity
8
1
62
256
6
ByLayer
370
18
48
1
60
0
100
AcDbLine
10
28.063333
20
24.206669
30
0
11
29.164847
21
24.303039
31
0
39
0
210
0
220
0
230
1
0
LINE
5
1AD
100
AcDbEntity
8
1
62
256
6
ByLayer
370
18
48
1
60
0
100
AcDbLine
10
0.343279
20
-16.979471
30
0
11
0.343279
21
-17.181168
31
0
39
0
210
0
220
0
230
1
0
LINE
5
1AE
100
AcDbEntity
8
1
62
256
6
ByLayer
370
18
48
1
60
0
100
AcDbLine
10
0.343279
20
17.181168
30
0
11
0.343279
21
16.979471
31
0
39
0
210
0
220
0
230
1
0
LINE
5
1AF
100
AcDbEntity
8
1
62
256
6
ByLayer
370
18
48
1
60
0
100
AcDbLine
10
-0.325
20
16.63099
30
0
11
-0.325
21
15.95783
31
0
39
0
210
0
220
0
230
1
0
LINE
5
1B0
100
AcDbEntity
8
1
62
256
6
ByLayer
370
18
48
1
60
0
100
AcDbLine
10
-0.325
20
-15.95783
30
0
11
-0.325
21
-16.63099
31
0
39
0
210
0
220
0
230
1
0
LINE
5
1B1
100
AcDbEntity
8
1
62
256
6
ByLayer
370
18
48
1
60
0
100
AcDbLine
10
30.681344
20
23.764884
30
0
11
30.928382
21
23.786497
31
0
39
0
210
0
220
0
230
1
0
LINE
5
1B2
100
AcDbEntity
8
1
62
256
6
ByLayer
370
18
48
1
60
0
100
AcDbLine
10
30.681344
20
-23.764884
30
0
11
30.928382
21
-23.786497
31
0
39
0
210
0
220
0
230
1
0
LINE
5
1B3
100
AcDbEntity
8
1
62
256
6
ByLayer
370
18
48
1
60
0
100
AcDbLine
10
5.131456
20
-21.529558
30
0
11
5.378493
21
-21.551171
31
0
39
0
210
0
220
0
230
1
0
LINE
5
1B4
100
AcDbEntity
8
1
62
256
6
ByLayer
370
18
48
1
60
0
100
AcDbLine
10
5.131456
20
21.529558
30
0
11
5.378493
21
21.551171
31
0
39
0
210
0
220
0
230
1
0
LINE
5
1B5
100
AcDbEntity
8
1
62
256
6
ByLayer
370
18
48
1
60
0
100
AcDbLine
10
5.616908
20
-22.242861
30
0
11
6.458896
21
-22.316526
31
0
39
0
210
0
220
0
230
1
0
LINE
5
1B6
100
AcDbEntity
8
1
62
256
6
ByLayer
370
18
48
1
60
0
100
AcDbLine
10
29.484453
20
-24.331001
30
0
11
30.32644
21
-24.404665
31
0
39
0
210
0
220
0
230
1
0
LINE
5
1B7
100
AcDbEntity
8
1
62
256
6
ByLayer
370
18
48
1
60
0
100
AcDbLine
10
5.616908
20
22.242861
30
0
11
6.458896
21
22.316526
31
0
39
0
210
0
220
0
230
1
0
LINE
5
1B8
100
AcDbEntity
8
1
62
256
6
ByLayer
370
18
48
1
60
0
100
AcDbLine
10
29.484453
20
24.331001
30
0
11
30.32644
21
24.404665
31
0
39
0
210
0
220
0
230
1
0
LINE
5
1B9
100
AcDbEntity
8
1
62
256
6
ByLayer
370
18
48
1
60
0
100
AcDbLine
10
0.343279
20
-17.771675
30
0
11
0.343279
21
-17.934952
31
0
39
0
210
0
220
0
230
1
0
LINE
5
1BA
100
AcDbEntity
8
1
62
256
6
ByLayer
370
18
48
1
60
0
100
AcDbLine
10
0.343279
20
17.934952
30
0
11
0.343279
21
17.771675
31
0
39
0
210
0
220
0
230
1
0
LINE
5
1BB
100
AcDbEntity
8
1
62
256
6
ByLayer
370
18
48
1
60
0
100
AcDbLine
10
-0.325
20
-16.832702
30
0
11
-0.325
21
-17.375337
31
0
39
0
210
0
220
0
230
1
0
LINE
5
1BC
100
AcDbEntity
8
1
62
256
6
ByLayer
370
18
48
1
60
0
100
AcDbLine
10
-0.325
20
17.375337
30
0
11
-0.325
21
16.832702
31
0
39
0
210
0
220
0
230
1
0
LINE
5
1BD
100
AcDbEntity
8
1
62
256
6
ByLayer
370
18
48
1
60
0
100
AcDbLine
10
31.636775
20
23.848473
30
0
11
31.8287
21
23.865265
31
0
39
0
210
0
220
0
230
1
0
LINE
5
1BE
100
AcDbEntity
8
1
62
256
6
ByLayer
370
18
48
1
60
0
100
AcDbLine
10
4.231138
20
-21.450791
30
0
11
4.423062
21
-21.467582
31
0
39
0
210
0
220
0
230
1
0
LINE
5
1BF
100
AcDbEntity
8
1
62
256
6
ByLayer
370
18
48
1
60
0
100
AcDbLine
10
4.231138
20
21.450791
30
0
11
4.423062
21
21.467582
31
0
39
0
210
0
220
0
230
1
0
LINE
5
1C0
100
AcDbEntity
8
1
62
256
6
ByLayer
370
18
48
1
60
0
100
AcDbLine
10
31.636775
20
-23.848473
30
0
11
31.8287
21
-23.865265
31
0
39
0
210
0
220
0
230
1
0
LINE
5
1C1
100
AcDbEntity
8
1
62
256
6
ByLayer
370
18
48
1
60
0
100
AcDbLine
10
4.722993
20
-22.164654
30
0
11
5.370851
21
-22.221334
31
0
39
0
210
0
220
0
230
1
0
LINE
5
1C2
100
AcDbEntity
8
1
62
256
6
ByLayer
370
18
48
1
60
0
100
AcDbLine
10
30.572498
20
-24.426192
30
0
11
31.220356
21
-24.482873
31
0
39
0
210
0
220
0
230
1
0
LINE
5
1C3
100
AcDbEntity
8
1
62
256
6
ByLayer
370
18
48
1
60
0
100
AcDbLine
10
4.722993
20
22.164654
30
0
11
5.370851
21
22.221334
31
0
39
0
210
0
220
0
230
1
0
LINE
5
1C4
100
AcDbEntity
8
1
62
256
6
ByLayer
370
18
48
1
60
0
100
AcDbLine
10
30.572498
20
24.426192
30
0
11
31.220356
21
24.482873
31
0
39
0
210
0
220
0
230
1
0
LINE
5
1C5
100
AcDbEntity
8
1
62
256
6
ByLayer
370
18
48
1
60
0
100
AcDbLine
10
0.343279
20
18.537327
30
0
11
0.343279
21
18.408217
31
0
39
0
210
0
220
0
230
1
0
LINE
5
1C6
100
AcDbEntity
8
1
62
256
6
ByLayer
370
18
48
1
60
0
100
AcDbLine
10
0.343279
20
-18.408217
30
0
11
0.343279
21
-18.537327
31
0
39
0
210
0
220
0
230
1
0
LINE
5
1C7
100
AcDbEntity
8
1
62
256
6
ByLayer
370
18
48
1
60
0
100
AcDbLine
10
-0.325
20
17.964266
30
0
11
-0.325
21
17.536458
31
0
39
0
210
0
220
0
230
1
0
LINE
5
1C8
100
AcDbEntity
8
1
62
256
6
ByLayer
370
18
48
1
60
0
100
AcDbLine
10
-0.325
20
-17.536458
30
0
11
-0.325
21
-17.964266
31
0
39
0
210
0
220
0
230
1
0
LINE
5
1C9
100
AcDbEntity
8
1
62
256
6
ByLayer
370
18
48
1
60
0
100
AcDbLine
10
3.539351
20
-21.390267
30
0
11
3.685278
21
-21.403034
31
0
39
0
210
0
220
0
230
1
0
LINE
5
1CA
100
AcDbEntity
8
1
62
256
6
ByLayer
370
18
48
1
60
0
100
AcDbLine
10
32.374559
20
23.913021
30
0
11
32.520487
21
23.925788
31
0
39
0
210
0
220
0
230
1
0
LINE
5
1CB
100
AcDbEntity
8
1
62
256
6
ByLayer
370
18
48
1
60
0
100
AcDbLine
10
3.539351
20
21.390267
30
0
11
3.685278
21
21.403034
31
0
39
0
210
0
220
0
230
1
0
LINE
5
1CC
100
AcDbEntity
8
1
62
256
6
ByLayer
370
18
48
1
60
0
100
AcDbLine
10
32.374559
20
-23.913021
30
0
11
32.520487
21
-23.925788
31
0
39
0
210
0
220
0
230
1
0
LINE
5
1CD
100
AcDbEntity
8
1
62
256
6
ByLayer
370
18
48
1
60
0
100
AcDbLine
10
4.045115
20
-22.105347
30
0
11
4.534725
21
-22.148183
31
0
39
0
210
0
220
0
230
1
0
LINE
5
1CE
100
AcDbEntity
8
1
62
256
6
ByLayer
370
18
48
1
60
0
100
AcDbLine
10
31.408624
20
-24.499344
30
0
11
31.898234
21
-24.542179
31
0
39
0
210
0
220
0
230
1
0
LINE
5
1CF
100
AcDbEntity
8
1
62
256
6
ByLayer
370
18
48
1
60
0
100
AcDbLine
10
4.045115
20
22.105347
30
0
11
4.534725
21
22.148183
31
0
39
0
210
0
220
0
230
1
0
LINE
5
1D0
100
AcDbEntity
8
1
62
256
6
ByLayer
370
18
48
1
60
0
100
AcDbLine
10
31.408624
20
24.499344
30
0
11
31.898234
21
24.542179
31
0
39
0
210
0
220
0
230
1
0
LINE
5
1D1
100
AcDbEntity
8
1
62
256
6
ByLayer
370
18
48
1
60
0
100
AcDbLine
10
0.343279
20
-18.904826
30
0
11
0.343279
21
-19.002697
31
0
39
0
210
0
220
0
230
1
0
LINE
5
1D2
100
AcDbEntity
8
1
62
256
6
ByLayer
370
18
48
1
60
0
100
AcDbLine
10
0.343279
20
19.002697
30
0
11
0.343279
21
18.904826
31
0
39
0
210
0
220
0
230
1
0
LINE
5
1D3
100
AcDbEntity
8
1
62
256
6
ByLayer
370
18
48
1
60
0
100
AcDbLine
10
-0.325
20
18.412695
30
0
11
-0.325
21
18.089081
31
0
39
0
210
0
220
0
230
1
0
LINE
5
1D4
100
AcDbEntity
8
1
62
256
6
ByLayer
370
18
48
1
60
0
100
AcDbLine
10
-0.325
20
-18.089081
30
0
11
-0.325
21
-18.412695
31
0
39
0
210
0
220
0
230
1
0
LINE
5
1D5
100
AcDbEntity
8
1
62
256
6
ByLayer
370
18
48
1
60
0
100
AcDbLine
10
32.927068
20
23.961359
30
0
11
33.032616
21
23.970594
31
0
39
0
210
0
220
0
230
1
0
LINE
5
1D6
100
AcDbEntity
8
1
62
256
6
ByLayer
370
18
48
1
60
0
100
AcDbLine
10
3.027221
20
-21.345462
30
0
11
3.13277
21
-21.354696
31
0
39
0
210
0
220
0
230
1
0
LINE
5
1D7
100
AcDbEntity
8
1
62
256
6
ByLayer
370
18
48
1
60
0
100
AcDbLine
10
32.927068
20
-23.961359
30
0
11
33.032616
21
-23.970594
31
0
39
0
210
0
220
0
230
1
0
LINE
5
1D8
100
AcDbEntity
8
1
62
256
6
ByLayer
370
18
48
1
60
0
100
AcDbLine
10
3.027221
20
21.345462
30
0
11
3.13277
21
21.354696
31
0
39
0
210
0
220
0
230
1
0
LINE
5
1D9
100
AcDbEntity
8
1
62
256
6
ByLayer
370
18
48
1
60
0
100
AcDbLine
10
3.552772
20
-22.062273
30
0
11
3.905522
21
-22.093134
31
0
39
0
210
0
220
0
230
1
0
LINE
5
1DA
100
AcDbEntity
8
1
62
256
6
ByLayer
370
18
48
1
60
0
100
AcDbLine
10
32.037827
20
-24.554392
30
0
11
32.390576
21
-24.585254
31
0
39
0
210
0
220
0
230
1
0
LINE
5
1DB
100
AcDbEntity
8
1
62
256
6
ByLayer
370
18
48
1
60
0
100
AcDbLine
10
32.037827
20
24.554392
30
0
11
32.390576
21
24.585254
31
0
39
0
210
0
220
0
230
1
0
LINE
5
1DC
100
AcDbEntity
8
1
62
256
6
ByLayer
370
18
48
1
60
0
100
AcDbLine
10
3.552772
20
22.062273
30
0
11
3.905522
21
22.093134
31
0
39
0
210
0
220
0
230
1
0
LINE
5
1DD
100
AcDbEntity
8
1
62
256
6
ByLayer
370
18
48
1
60
0
100
AcDbLine
10
0.343279
20
19.340954
30
0
11
0.343279
21
19.272323
31
0
39
0
210
0
220
0
230
1
0
LINE
5
1DE
100
AcDbEntity
8
1
62
256
6
ByLayer
370
18
48
1
60
0
100
AcDbLine
10
0.343279
20
-19.272323
30
0
11
0.343279
21
-19.340954
31
0
39
0
210
0
220
0
230
1
0
LINE
5
1DF
100
AcDbEntity
8
1
62
256
6
ByLayer
370
18
48
1
60
0
100
AcDbLine
10
-0.325
20
18.730719
30
0
11
-0.325
21
18.504117
31
0
39
0
210
0
220
0
230
1
0
LINE
5
1E0
100
AcDbEntity
8
1
62
256
6
ByLayer
370
18
48
1
60
0
100
AcDbLine
10
-0.325
20
-18.504117
30
0
11
-0.325
21
-18.730719
31
0
39
0
210
0
220
0
230
1
0
LINE
5
1E1
100
AcDbEntity
8
1
62
256
6
ByLayer
370
18
48
1
60
0
100
AcDbLine
10
2.67676
20
-21.3148
30
0
11
2.745431
21
-21.320808
31
0
39
0
210
0
220
0
230
1
0
LINE
5
1E2
100
AcDbEntity
8
1
62
256
6
ByLayer
370
18
48
1
60
0
100
AcDbLine
10
2.67676
20
21.3148
30
0
11
2.745431
21
21.320808
31
0
39
0
210
0
220
0
230
1
0
LINE
5
1E3
100
AcDbEntity
8
1
62
256
6
ByLayer
370
18
48
1
60
0
100
AcDbLine
10
33.314407
20
-23.995247
30
0
11
33.383078
21
-24.001255
31
0
39
0
210
0
220
0
230
1
0
LINE
5
1E4
100
AcDbEntity
8
1
62
256
6
ByLayer
370
18
48
1
60
0
100
AcDbLine
10
33.314407
20
23.995247
30
0
11
33.383078
21
24.001255
31
0
39
0
210
0
220
0
230
1
0
LINE
5
1E5
100
AcDbEntity
8
1
62
256
6
ByLayer
370
18
48
1
60
0
100
AcDbLine
10
32.487041
20
-24.593693
30
0
11
32.715982
21
-24.613723
31
0
39
0
210
0
220
0
230
1
0
LINE
5
1E6
100
AcDbEntity
8
1
62
256
6
ByLayer
370
18
48
1
60
0
100
AcDbLine
10
3.227367
20
-22.033804
30
0
11
3.456308
21
-22.053833
31
0
39
0
210
0
220
0
230
1
0
LINE
5
1E7
100
AcDbEntity
8
1
62
256
6
ByLayer
370
18
48
1
60
0
100
AcDbLine
10
32.487041
20
24.593693
30
0
11
32.715982
21
24.613723
31
0
39
0
210
0
220
0
230
1
0
LINE
5
1E8
100
AcDbEntity
8
1
62
256
6
ByLayer
370
18
48
1
60
0
100
AcDbLine
10
3.227367
20
22.033804
30
0
11
3.456308
21
22.053833
31
0
39
0
210
0
220
0
230
1
0
LINE
5
1E9
100
AcDbEntity
8
1
62
256
6
ByLayer
370
18
48
1
60
0
100
AcDbLine
10
0.343279
20
19.558693
30
0
11
0.343279
21
19.518003
31
0
39
0
210
0
220
0
230
1
0
LINE
5
1EA
100
AcDbEntity
8
1
62
256
6
ByLayer
370
18
48
1
60
0
100
AcDbLine
10
0.343279
20
-19.518003
30
0
11
0.343279
21
-19.558693
31
0
39
0
210
0
220
0
230
1
0
LINE
5
1EB
100
AcDbEntity
8
1
62
256
6
ByLayer
370
18
48
1
60
0
100
AcDbLine
10
-0.325
20
-18.790685
30
0
11
-0.325
21
-18.924913
31
0
39
0
210
0
220
0
230
1
0
LINE
5
1EC
100
AcDbEntity
8
1
62
256
6
ByLayer
370
18
48
1
60
0
100
AcDbLine
10
-0.325
20
18.924913
30
0
11
-0.325
21
18.790685
31
0
39
0
210
0
220
0
230
1
0
LINE
5
1ED
100
AcDbEntity
8
1
62
256
6
ByLayer
370
18
48
1
60
0
100
AcDbLine
10
2.477033
20
21.297327
30
0
11
2.510889
21
21.300289
31
0
39
0
210
0
220
0
230
1
0
LINE
5
1EE
100
AcDbEntity
8
1
62
256
6
ByLayer
370
18
48
1
60
0
100
AcDbLine
10
33.548948
20
24.015767
30
0
11
33.582804
21
24.018729
31
0
39
0
210
0
220
0
230
1
0
LINE
5
1EF
100
AcDbEntity
8
1
62
256
6
ByLayer
370
18
48
1
60
0
100
AcDbLine
10
33.548948
20
-24.015767
30
0
11
33.582804
21
-24.018729
31
0
39
0
210
0
220
0
230
1
0
LINE
5
1F0
100
AcDbEntity
8
1
62
256
6
ByLayer
370
18
48
1
60
0
100
AcDbLine
10
2.477033
20
-21.297327
30
0
11
2.510889
21
-21.300289
31
0
39
0
210
0
220
0
230
1
0
LINE
5
1F1
100
AcDbEntity
8
1
62
256
6
ByLayer
370
18
48
1
60
0
100
AcDbLine
10
32.772664
20
-24.618682
30
0
11
32.885381
21
-24.628544
31
0
39
0
210
0
220
0
230
1
0
LINE
5
1F2
100
AcDbEntity
8
1
62
256
6
ByLayer
370
18
48
1
60
0
100
AcDbLine
10
3.057968
20
-22.018983
30
0
11
3.170685
21
-22.028845
31
0
39
0
210
0
220
0
230
1
0
LINE
5
1F3
100
AcDbEntity
8
1
62
256
6
ByLayer
370
18
48
1
60
0
100
AcDbLine
10
32.772664
20
24.618682
30
0
11
32.885381
21
24.628544
31
0
39
0
210
0
220
0
230
1
0
LINE
5
1F4
100
AcDbEntity
8
1
62
256
6
ByLayer
370
18
48
1
60
0
100
AcDbLine
10
3.057968
20
22.018983
30
0
11
3.170685
21
22.028845
31
0
39
0
210
0
220
0
230
1
0
LINE
5
1F5
100
AcDbEntity
8
1
62
256
6
ByLayer
370
18
48
1
60
0
100
AcDbLine
10
0.343279
20
19.65992
30
0
11
0.343279
21
19.646436
31
0
39
0
210
0
220
0
230
1
0
LINE
5
1F6
100
AcDbEntity
8
1
62
256
6
ByLayer
370
18
48
1
60
0
100
AcDbLine
10
0.343279
20
-19.646436
30
0
11
0.343279
21
-19.65992
31
0
39
0
210
0
220
0
230
1
0
LINE
5
1F7
100
AcDbEntity
8
1
62
256
6
ByLayer
370
18
48
1
60
0
100
AcDbLine
10
-0.325
20
-18.954613
30
0
11
-0.325
21
-18.999075
31
0
39
0
210
0
220
0
230
1
0
LINE
5
1F8
100
AcDbEntity
8
1
62
256
6
ByLayer
370
18
48
1
60
0
100
AcDbLine
10
-0.325
20
18.999075
30
0
11
-0.325
21
18.954613
31
0
39
0
210
0
220
0
230
1
0
LINE
5
1F9
100
AcDbEntity
8
SK1
62
256
6
ByLayer
370
18
48
1
60
0
100
AcDbLine
10
20.719453
20
32.397777
30
0
11
29.187108
21
33.138601
31
0
39
0
210
0
220
0
230
1
0
LINE
5
1FA
100
AcDbEntity
8
SK1
62
256
6
ByLayer
370
18
48
1
60
0
100
AcDbLine
10
21.155231
20
27.416804
30
0
11
29.622886
21
28.157628
31
0
39
0
210
0
220
0
230
1
0
LINE
5
1FB
100
AcDbEntity
8
SK1
62
256
6
ByLayer
370
18
48
1
60
0
100
AcDbLine
10
13.689955
20
-31.782776
30
0
11
5.2223
21
-31.041952
31
0
39
0
210
0
220
0
230
1
0
LINE
5
1FC
100
AcDbEntity
8
SK1
62
256
6
ByLayer
370
18
48
1
60
0
100
AcDbLine
10
14.125734
20
-26.801802
30
0
11
5.658079
21
-26.060979
31
0
39
0
210
0
220
0
230
1
0
LINE
5
1FD
100
AcDbEntity
8
SK1
62
256
6
ByLayer
370
18
48
1
60
0
100
AcDbLine
10
29.187108
20
-33.138601
30
0
11
20.719453
21
-32.397777
31
0
39
0
210
0
220
0
230
1
0
LINE
5
1FE
100
AcDbEntity
8
SK1
62
256
6
ByLayer
370
18
48
1
60
0
100
AcDbLine
10
29.622886
20
-28.157628
30
0
11
21.155231
21
-27.416804
31
0
39
0
210
0
220
0
230
1
0
LINE
5
1FF
100
AcDbEntity
8
SK1
62
256
6
ByLayer
370
18
48
1
60
0
100
AcDbLine
10
-3.225
20
3
30
0
11
-3.225
21
1.640832
31
0
39
0
210
0
220
0
230
1
0
LINE
5
200
100
AcDbEntity
8
SK1
62
256
6
ByLayer
370
18
48
1
60
0
100
AcDbLine
10
-3.825
20
-2.65359
30
0
11
-3.825
21
1.451365
31
0
39
0
210
0
220
0
230
1
0
LINE
5
201
100
AcDbEntity
8
SK1
62
256
6
ByLayer
370
18
48
1
60
0
100
AcDbLine
10
-3.225
20
1.640832
30
0
11
-3.225
21
-3
31
0
39
0
210
0
220
0
230
1
0
LINE
5
202
100
AcDbEntity
8
SK1
62
256
6
ByLayer
370
18
48
1
60
0
100
AcDbLine
10
-3.825
20
1.451365
30
0
11
-3.825
21
2.65359
31
0
39
0
210
0
220
0
230
1
0
LINE
5
203
100
AcDbEntity
8
SK1
62
256
6
ByLayer
370
18
48
1
60
0
100
AcDbLine
10
5.2223
20
31.041952
30
0
11
13.689955
21
31.782776
31
0
39
0
210
0
220
0
230
1
0
LINE
5
204
100
AcDbEntity
8
SK1
62
256
6
ByLayer
370
18
48
1
60
0
100
AcDbLine
10
5.658079
20
26.060979
30
0
11
14.125734
21
26.801802
31
0
39
0
210
0
220
0
230
1
0
LINE
5
205
100
AcDbEntity
8
1
62
256
6
ByLayer
370
18
48
1
60
0
100
AcDbLine
10
26.669226
20
22.880117
30
0
11
26.669226
21
16.992653
31
0
39
0
210
0
220
0
230
1
0
LINE
5
206
100
AcDbEntity
8
1
62
256
6
ByLayer
370
18
48
1
60
0
100
AcDbLine
10
34.175
20
8.427317
30
0
11
34.175
21
23.536787
31
0
39
0
210
0
220
0
230
1
0
LINE
5
207
100
AcDbEntity
8
1
62
256
6
ByLayer
370
18
48
1
60
0
100
AcDbLine
10
34.175
20
-23.536787
30
0
11
34.175
21
-8.427317
31
0
39
0
210
0
220
0
230
1
0
LINE
5
208
100
AcDbEntity
8
1
62
256
6
ByLayer
370
18
48
1
60
0
100
AcDbLine
10
26.669226
20
-16.992653
30
0
11
26.669226
21
-22.880117
31
0
39
0
210
0
220
0
230
1
0
LINE
5
209
100
AcDbEntity
8
1
62
256
6
ByLayer
370
18
48
1
60
0
100
AcDbLine
10
13.898689
20
21.762839
30
0
11
13.898689
21
18.40187
31
0
39
0
210
0
220
0
230
1
0
LINE
5
20A
100
AcDbEntity
8
1
62
256
6
ByLayer
370
18
48
1
60
0
100
AcDbLine
10
1.675
20
9.571989
30
0
11
1.675
21
20.693405
31
0
39
0
210
0
220
0
230
1
0
LINE
5
20B
100
AcDbEntity
8
1
62
256
6
ByLayer
370
18
48
1
60
0
100
AcDbLine
10
1.675
20
-20.693405
30
0
11
1.675
21
-9.571989
31
0
39
0
210
0
220
0
230
1
0
LINE
5
20C
100
AcDbEntity
8
1
62
256
6
ByLayer
370
18
48
1
60
0
100
AcDbLine
10
13.898689
20
-18.40187
30
0
11
13.898689
21
-21.762839
31
0
39
0
210
0
220
0
230
1
0
LINE
5
20D
100
AcDbEntity
8
1
62
256
6
ByLayer
370
18
48
1
60
0
100
AcDbLine
10
0.875
20
-20
30
0
11
0.875
21
20
31
0
39
0
210
0
220
0
230
1
0
LINE
5
20E
100
AcDbEntity
8
1
62
256
6
ByLayer
370
18
48
1
60
0
100
AcDbLine
10
0.675
20
20
30
0
11
0.675
21
-20
31
0
39
0
210
0
220
0
230
1
0
LINE
5
20F
100
AcDbEntity
8
1
62
256
6
ByLayer
370
18
48
1
60
0
100
AcDbLine
10
-0.325
20
-19
30
0
11
-0.325
21
-18.999075
31
0
39
0
210
0
220
0
230
1
0
LINE
5
210
100
AcDbEntity
8
1
62
256
6
ByLayer
370
18
48
1
60
0
100
AcDbLine
10
-0.325
20
5.496803
30
0
11
-0.325
21
6.61172
31
0
39
0
210
0
220
0
230
1
0
LINE
5
211
100
AcDbEntity
8
1
62
256
6
ByLayer
370
18
48
1
60
0
100
AcDbLine
10
-0.325
20
9.084456
30
0
11
-0.325
21
9.741783
31
0
39
0
210
0
220
0
230
1
0
LINE
5
212
100
AcDbEntity
8
1
62
256
6
ByLayer
370
18
48
1
60
0
100
AcDbLine
10
-0.325
20
11.416648
30
0
11
-0.325
21
11.899153
31
0
39
0
210
0
220
0
230
1
0
LINE
5
213
100
AcDbEntity
8
1
62
256
6
ByLayer
370
18
48
1
60
0
100
AcDbLine
10
-0.325
20
13.177721
30
0
11
-0.325
21
13.55645
31
0
39
0
210
0
220
0
230
1
0
LINE
5
214
100
AcDbEntity
8
1
62
256
6
ByLayer
370
18
48
1
60
0
100
AcDbLine
10
-0.325
20
14.576174
30
0
11
-0.325
21
14.881695
31
0
39
0
210
0
220
0
230
1
0
LINE
5
215
100
AcDbEntity
8
1
62
256
6
ByLayer
370
18
48
1
60
0
100
AcDbLine
10
-0.325
20
15.709148
30
0
11
-0.325
21
15.95783
31
0
39
0
210
0
220
0
230
1
0
LINE
5
216
100
AcDbEntity
8
1
62
256
6
ByLayer
370
18
48
1
60
0
100
AcDbLine
10
-0.325
20
16.63099
30
0
11
-0.325
21
16.832702
31
0
39
0
210
0
220
0
230
1
0
LINE
5
217
100
AcDbEntity
8
1
62
256
6
ByLayer
370
18
48
1
60
0
100
AcDbLine
10
-0.325
20
17.375337
30
0
11
-0.325
21
17.536458
31
0
39
0
210
0
220
0
230
1
0
LINE
5
218
100
AcDbEntity
8
1
62
256
6
ByLayer
370
18
48
1
60
0
100
AcDbLine
10
-0.325
20
17.964266
30
0
11
-0.325
21
18.089081
31
0
39
0
210
0
220
0
230
1
0
LINE
5
219
100
AcDbEntity
8
1
62
256
6
ByLayer
370
18
48
1
60
0
100
AcDbLine
10
-0.325
20
18.412695
30
0
11
-0.325
21
18.504117
31
0
39
0
210
0
220
0
230
1
0
LINE
5
21A
100
AcDbEntity
8
1
62
256
6
ByLayer
370
18
48
1
60
0
100
AcDbLine
10
-0.325
20
18.730719
30
0
11
-0.325
21
18.790685
31
0
39
0
210
0
220
0
230
1
0
LINE
5
21B
100
AcDbEntity
8
1
62
256
6
ByLayer
370
18
48
1
60
0
100
AcDbLine
10
-0.325
20
18.924913
30
0
11
-0.325
21
18.954613
31
0
39
0
210
0
220
0
230
1
0
LINE
5
21C
100
AcDbEntity
8
1
62
256
6
ByLayer
370
18
48
1
60
0
100
AcDbLine
10
-0.325
20
18.999075
30
0
11
-0.325
21
19
31
0
39
0
210
0
220
0
230
1
0
LINE
5
21D
100
AcDbEntity
8
1
62
256
6
ByLayer
370
18
48
1
60
0
100
AcDbLine
10
-0.325
20
-18.954613
30
0
11
-0.325
21
-18.924913
31
0
39
0
210
0
220
0
230
1
0
LINE
5
21E
100
AcDbEntity
8
1
62
256
6
ByLayer
370
18
48
1
60
0
100
AcDbLine
10
-0.325
20
-18.790685
30
0
11
-0.325
21
-18.730719
31
0
39
0
210
0
220
0
230
1
0
LINE
5
21F
100
AcDbEntity
8
1
62
256
6
ByLayer
370
18
48
1
60
0
100
AcDbLine
10
-0.325
20
-18.504117
30
0
11
-0.325
21
-18.412695
31
0
39
0
210
0
220
0
230
1
0
LINE
5
220
100
AcDbEntity
8
1
62
256
6
ByLayer
370
18
48
1
60
0
100
AcDbLine
10
-0.325
20
-18.089081
30
0
11
-0.325
21
-17.964266
31
0
39
0
210
0
220
0
230
1
0
LINE
5
221
100
AcDbEntity
8
1
62
256
6
ByLayer
370
18
48
1
60
0
100
AcDbLine
10
-0.325
20
-17.536458
30
0
11
-0.325
21
-17.375337
31
0
39
0
210
0
220
0
230
1
0
LINE
5
222
100
AcDbEntity
8
1
62
256
6
ByLayer
370
18
48
1
60
0
100
AcDbLine
10
-0.325
20
-16.832702
30
0
11
-0.325
21
-16.63099
31
0
39
0
210
0
220
0
230
1
0
LINE
5
223
100
AcDbEntity
8
1
62
256
6
ByLayer
370
18
48
1
60
0
100
AcDbLine
10
-0.325
20
-15.95783
30
0
11
-0.325
21
-15.709148
31
0
39
0
210
0
220
0
230
1
0
LINE
5
224
100
AcDbEntity
8
1
62
256
6
ByLayer
370
18
48
1
60
0
100
AcDbLine
10
-0.325
20
-14.881695
30
0
11
-0.325
21
-14.576174
31
0
39
0
210
0
220
0
230
1
0
LINE
5
225
100
AcDbEntity
8
1
62
256
6
ByLayer
370
18
48
1
60
0
100
AcDbLine
10
-0.325
20
-13.55645
30
0
11
-0.325
21
-13.177721
31
0
39
0
210
0
220
0
230
1
0
LINE
5
226
100
AcDbEntity
8
1
62
256
6
ByLayer
370
18
48
1
60
0
100
AcDbLine
10
-0.325
20
-11.899153
30
0
11
-0.325
21
-11.416648
31
0
39
0
210
0
220
0
230
1
0
LINE
5
227
100
AcDbEntity
8
1
62
256
6
ByLayer
370
18
48
1
60
0
100
AcDbLine
10
-0.325
20
-9.741783
30
0
11
-0.325
21
-9.084456
31
0
39
0
210
0
220
0
230
1
0
LINE
5
228
100
AcDbEntity
8
1
62
256
6
ByLayer
370
18
48
1
60
0
100
AcDbLine
10
-0.325
20
-6.61172
30
0
11
-0.325
21
-5.496803
31
0
39
0
210
0
220
0
230
1
0
LINE
5
229
100
AcDbEntity
8
1
62
256
6
ByLayer
370
18
48
1
60
0
100
AcDbLine
10
33.997945
20
23.72206
30
0
11
2.119715
21
20.933077
31
0
39
0
210
0
220
0
230
1
0
LINE
5
22A
100
AcDbEntity
8
1
62
256
6
ByLayer
370
18
48
1
60
0
100
AcDbLine
10
3.039264
20
22.017347
30
0
11
3.057968
21
22.018983
31
0
39
0
210
0
220
0
230
1
0
LINE
5
22B
100
AcDbEntity
8
1
62
256
6
ByLayer
370
18
48
1
60
0
100
AcDbLine
10
3.170685
20
22.028845
30
0
11
3.227367
21
22.033804
31
0
39
0
210
0
220
0
230
1
0
LINE
5
22C
100
AcDbEntity
8
1
62
256
6
ByLayer
370
18
48
1
60
0
100
AcDbLine
10
3.456308
20
22.053833
30
0
11
3.552772
21
22.062273
31
0
39
0
210
0
220
0
230
1
0
LINE
5
22D
100
AcDbEntity
8
1
62
256
6
ByLayer
370
18
48
1
60
0
100
AcDbLine
10
3.905522
20
22.093134
30
0
11
4.045115
21
22.105347
31
0
39
0
210
0
220
0
230
1
0
LINE
5
22E
100
AcDbEntity
8
1
62
256
6
ByLayer
370
18
48
1
60
0
100
AcDbLine
10
4.534725
20
22.148183
30
0
11
4.722993
21
22.164654
31
0
39
0
210
0
220
0
230
1
0
LINE
5
22F
100
AcDbEntity
8
1
62
256
6
ByLayer
370
18
48
1
60
0
100
AcDbLine
10
5.370851
20
22.221334
30
0
11
5.616908
21
22.242861
31
0
39
0
210
0
220
0
230
1
0
LINE
5
230
100
AcDbEntity
8
1
62
256
6
ByLayer
370
18
48
1
60
0
100
AcDbLine
10
6.458896
20
22.316526
30
0
11
6.778502
21
22.344488
31
0
39
0
210
0
220
0
230
1
0
LINE
5
231
100
AcDbEntity
8
1
62
256
6
ByLayer
370
18
48
1
60
0
100
AcDbLine
10
7.880016
20
22.440858
30
0
11
8.303781
21
22.477932
31
0
39
0
210
0
220
0
230
1
0
LINE
5
232
100
AcDbEntity
8
1
62
256
6
ByLayer
370
18
48
1
60
0
100
AcDbLine
10
9.806305
20
22.609386
30
0
11
10.409704
21
22.662177
31
0
39
0
210
0
220
0
230
1
0
LINE
5
233
100
AcDbEntity
8
1
62
256
6
ByLayer
370
18
48
1
60
0
100
AcDbLine
10
12.771758
20
22.86883
30
0
11
13.917934
21
22.969107
31
0
39
0
210
0
220
0
230
1
0
LINE
5
234
100
AcDbEntity
8
1
62
256
6
ByLayer
370
18
48
1
60
0
100
AcDbLine
10
22.025415
20
23.67842
30
0
11
23.171591
21
23.778697
31
0
39
0
210
0
220
0
230
1
0
LINE
5
235
100
AcDbEntity
8
1
62
256
6
ByLayer
370
18
48
1
60
0
100
AcDbLine
10
25.533645
20
23.98535
30
0
11
26.137044
21
24.038141
31
0
39
0
210
0
220
0
230
1
0
LINE
5
236
100
AcDbEntity
8
1
62
256
6
ByLayer
370
18
48
1
60
0
100
AcDbLine
10
27.639568
20
24.169594
30
0
11
28.063333
21
24.206669
31
0
39
0
210
0
220
0
230
1
0
LINE
5
237
100
AcDbEntity
8
1
62
256
6
ByLayer
370
18
48
1
60
0
100
AcDbLine
10
29.164847
20
24.303039
30
0
11
29.484453
21
24.331001
31
0
39
0
210
0
220
0
230
1
0
LINE
5
238
100
AcDbEntity
8
1
62
256
6
ByLayer
370
18
48
1
60
0
100
AcDbLine
10
30.32644
20
24.404665
30
0
11
30.572498
21
24.426192
31
0
39
0
210
0
220
0
230
1
0
LINE
5
239
100
AcDbEntity
8
1
62
256
6
ByLayer
370
18
48
1
60
0
100
AcDbLine
10
31.220356
20
24.482873
30
0
11
31.408624
21
24.499344
31
0
39
0
210
0
220
0
230
1
0
LINE
5
23A
100
AcDbEntity
8
1
62
256
6
ByLayer
370
18
48
1
60
0
100
AcDbLine
10
31.898234
20
24.542179
30
0
11
32.037827
21
24.554392
31
0
39
0
210
0
220
0
230
1
0
LINE
5
23B
100
AcDbEntity
8
1
62
256
6
ByLayer
370
18
48
1
60
0
100
AcDbLine
10
32.390576
20
24.585254
30
0
11
32.487041
21
24.593693
31
0
39
0
210
0
220
0
230
1
0
LINE
5
23C
100
AcDbEntity
8
1
62
256
6
ByLayer
370
18
48
1
60
0
100
AcDbLine
10
32.715982
20
24.613723
30
0
11
32.772664
21
24.618682
31
0
39
0
210
0
220
0
230
1
0
LINE
5
23D
100
AcDbEntity
8
1
62
256
6
ByLayer
370
18
48
1
60
0
100
AcDbLine
10
32.885381
20
24.628544
30
0
11
32.904084
21
24.63018
31
0
39
0
210
0
220
0
230
1
0
LINE
5
23E
100
AcDbEntity
8
1
62
256
6
ByLayer
370
18
48
1
60
0
100
AcDbLine
10
2.119715
20
-20.933077
30
0
11
33.997945
21
-23.72206
31
0
39
0
210
0
220
0
230
1
0
LINE
5
23F
100
AcDbEntity
8
1
62
256
6
ByLayer
370
18
48
1
60
0
100
AcDbLine
10
13.917934
20
-22.969107
30
0
11
12.771758
21
-22.86883
31
0
39
0
210
0
220
0
230
1
0
LINE
5
240
100
AcDbEntity
8
1
62
256
6
ByLayer
370
18
48
1
60
0
100
AcDbLine
10
10.409704
20
-22.662177
30
0
11
9.806305
21
-22.609386
31
0
39
0
210
0
220
0
230
1
0
LINE
5
241
100
AcDbEntity
8
1
62
256
6
ByLayer
370
18
48
1
60
0
100
AcDbLine
10
8.303781
20
-22.477932
30
0
11
7.880016
21
-22.440858
31
0
39
0
210
0
220
0
230
1
0
LINE
5
242
100
AcDbEntity
8
1
62
256
6
ByLayer
370
18
48
1
60
0
100
AcDbLine
10
6.778502
20
-22.344488
30
0
11
6.458896
21
-22.316526
31
0
39
0
210
0
220
0
230
1
0
LINE
5
243
100
AcDbEntity
8
1
62
256
6
ByLayer
370
18
48
1
60
0
100
AcDbLine
10
5.616908
20
-22.242861
30
0
11
5.370851
21
-22.221334
31
0
39
0
210
0
220
0
230
1
0
LINE
5
244
100
AcDbEntity
8
1
62
256
6
ByLayer
370
18
48
1
60
0
100
AcDbLine
10
4.722993
20
-22.164654
30
0
11
4.534725
21
-22.148183
31
0
39
0
210
0
220
0
230
1
0
LINE
5
245
100
AcDbEntity
8
1
62
256
6
ByLayer
370
18
48
1
60
0
100
AcDbLine
10
4.045115
20
-22.105347
30
0
11
3.905522
21
-22.093134
31
0
39
0
210
0
220
0
230
1
0
LINE
5
246
100
AcDbEntity
8
1
62
256
6
ByLayer
370
18
48
1
60
0
100
AcDbLine
10
3.552772
20
-22.062273
30
0
11
3.456308
21
-22.053833
31
0
39
0
210
0
220
0
230
1
0
LINE
5
247
100
AcDbEntity
8
1
62
256
6
ByLayer
370
18
48
1
60
0
100
AcDbLine
10
3.227367
20
-22.033804
30
0
11
3.170685
21
-22.028845
31
0
39
0
210
0
220
0
230
1
0
LINE
5
248
100
AcDbEntity
8
1
62
256
6
ByLayer
370
18
48
1
60
0
100
AcDbLine
10
3.057968
20
-22.018983
30
0
11
3.039264
21
-22.017347
31
0
39
0
210
0
220
0
230
1
0
LINE
5
249
100
AcDbEntity
8
1
62
256
6
ByLayer
370
18
48
1
60
0
100
AcDbLine
10
32.904084
20
-24.63018
30
0
11
32.885381
21
-24.628544
31
0
39
0
210
0
220
0
230
1
0
LINE
5
24A
100
AcDbEntity
8
1
62
256
6
ByLayer
370
18
48
1
60
0
100
AcDbLine
10
32.772664
20
-24.618682
30
0
11
32.715982
21
-24.613723
31
0
39
0
210
0
220
0
230
1
0
LINE
5
24B
100
AcDbEntity
8
1
62
256
6
ByLayer
370
18
48
1
60
0
100
AcDbLine
10
32.487041
20
-24.593693
30
0
11
32.390576
21
-24.585254
31
0
39
0
210
0
220
0
230
1
0
LINE
5
24C
100
AcDbEntity
8
1
62
256
6
ByLayer
370
18
48
1
60
0
100
AcDbLine
10
32.037827
20
-24.554392
30
0
11
31.898234
21
-24.542179
31
0
39
0
210
0
220
0
230
1
0
LINE
5
24D
100
AcDbEntity
8
1
62
256
6
ByLayer
370
18
48
1
60
0
100
AcDbLine
10
31.408624
20
-24.499344
30
0
11
31.220356
21
-24.482873
31
0
39
0
210
0
220
0
230
1
0
LINE
5
24E
100
AcDbEntity
8
1
62
256
6
ByLayer
370
18
48
1
60
0
100
AcDbLine
10
30.572498
20
-24.426192
30
0
11
30.32644
21
-24.404665
31
0
39
0
210
0
220
0
230
1
0
LINE
5
24F
100
AcDbEntity
8
1
62
256
6
ByLayer
370
18
48
1
60
0
100
AcDbLine
10
29.484453
20
-24.331001
30
0
11
29.164847
21
-24.303039
31
0
39
0
210
0
220
0
230
1
0
LINE
5
250
100
AcDbEntity
8
1
62
256
6
ByLayer
370
18
48
1
60
0
100
AcDbLine
10
28.063333
20
-24.206669
30
0
11
27.639568
21
-24.169594
31
0
39
0
210
0
220
0
230
1
0
LINE
5
251
100
AcDbEntity
8
1
62
256
6
ByLayer
370
18
48
1
60
0
100
AcDbLine
10
26.137044
20
-24.038141
30
0
11
25.533645
21
-23.98535
31
0
39
0
210
0
220
0
230
1
0
LINE
5
252
100
AcDbEntity
8
1
62
256
6
ByLayer
370
18
48
1
60
0
100
AcDbLine
10
23.171591
20
-23.778697
30
0
11
22.025415
21
-23.67842
31
0
39
0
210
0
220
0
230
1
0
LINE
5
253
100
AcDbEntity
8
1
62
256
6
ByLayer
370
18
48
1
60
0
100
AcDbLine
10
13.898689
20
21.762839
30
0
11
26.669226
21
22.880117
31
0
39
0
210
0
220
0
230
1
0
LINE
5
254
100
AcDbEntity
8
1
62
256
6
ByLayer
370
18
48
1
60
0
100
AcDbLine
10
26.669226
20
-22.880117
30
0
11
13.898689
21
-21.762839
31
0
39
0
210
0
220
0
230
1
0
LINE
5
255
100
AcDbEntity
8
1
62
256
6
ByLayer
370
18
48
1
60
0
100
AcDbLine
10
34.175
20
23.536787
30
0
11
26.669226
21
22.880117
31
0
39
0
210
0
220
0
230
1
0
LINE
5
256
100
AcDbEntity
8
1
62
256
6
ByLayer
370
18
48
1
60
0
100
AcDbLine
10
26.669226
20
-22.880117
30
0
11
34.175
21
-23.536787
31
0
39
0
210
0
220
0
230
1
0
LINE
5
257
100
AcDbEntity
8
1
62
256
6
ByLayer
370
18
48
1
60
0
100
AcDbLine
10
1.675
20
20.693405
30
0
11
13.898689
21
21.762839
31
0
39
0
210
0
220
0
230
1
0
LINE
5
258
100
AcDbEntity
8
1
62
256
6
ByLayer
370
18
48
1
60
0
100
AcDbLine
10
13.898689
20
-21.762839
30
0
11
1.675
21
-20.693405
31
0
39
0
210
0
220
0
230
1
0
LINE
5
259
100
AcDbEntity
8
82
62
256
6
ByLayer
370
18
48
0.05
60
0
100
AcDbLine
10
18
20
-23
30
0
11
17.84312
21
-24.79315
31
0
39
0
210
0
220
0
230
1
0
MTEXT
5
481
100
AcDbEntity
8
SK6
62
256
6
ByLayer
370
13
48
1
60
0
100
AcDbMText
10
5.050893
20
62.378048
30
0
210
0
220
0
230
1
1
\W0.7408;570-4-32-40-050-RA
40
3.175
41
0
44
1.084337
50
0
71
7
72
5
7
iso_b_vert
0
DIMENSION
5
48F
100
AcDbEntity
8
2
62
256
6
ByLayer
370
13
48
1
60
0
100
AcDbDimension
2
DimnDraft3D1
10
18
20
45.606416
30
0
11
6.765686
21
45.606416
31
0
70
32
71
5
72
1
41
1
210
0
220
0
230
1
3
Standard
100
AcDbAlignedDimension
13
0
23
1.5875
33
0
14
18
24
24.5875
34
0
50
0
100
AcDbRotatedDimension
1001
ACAD
1000
DSTYLE
1002
{
1070
   279
1070
     0
1070
   173
1070
     1
1070
   340
1005
482
1070
   271
1070
     1
1070
   272
1070
     2
1070
    77
1070
     1
1070
    73
1070
     0
1070
   171
1070
     3
1070
   274
1070
     4
1070
   177
1070
     7
1070
   176
1070
     7
1070
   178
1070
     7
1070
    78
1070
     8
1070
    48
1040
-0.005
1070
    41
1041
3.175
1070
   147
1041
1.5875
1070
    42
1041
1.5875
1070
    44
1041
3.175
1070
   140
1041
3.175
1070
   343
1005
0
1070
   344
1005
0
1002
}
0
DIMENSION
5
49B
100
AcDbEntity
8
SK2
62
256
6
ByLayer
370
13
48
1
60
0
100
AcDbDimension
2
DimnDraft3D2
10
-20.920746
20
20
30
0
11
-20.126996
21
2.301875
31
0
70
33
71
5
72
1
41
1
210
0
220
0
230
1
3
Standard
100
AcDbAlignedDimension
13
-0.9125
23
-20
33
0
14
-0.9125
24
20
34
0
1001
ACAD
1000
DSTYLE
1002
{
1070
   279
1070
     0
1070
    74
1070
     0
1070
   173
1070
     1
1070
   340
1005
482
1070
   271
1070
     1
1070
   272
1070
     2
1070
    77
1070
     1
1070
    73
1070
     0
1070
   171
1070
     3
1070
   274
1070
     4
1070
   177
1070
     7
1070
   176
1070
     7
1070
   178
1070
     7
1070
    78
1070
     8
1070
    48
1040
-0.005
1070
    41
1041
3.175
1070
   147
1041
1.5875
1070
    42
1041
1.5875
1070
    44
1041
3.175
1070
   140
1041
3.175
1070
   343
1005
0
1070
   344
1005
0
1002
}
0
DIMENSION
5
4A6
100
AcDbEntity
8
SK2
62
256
6
ByLayer
370
13
48
1
60
0
100
AcDbDimension
2
DimnDraft3D3
10
32.257787
20
43.612165
30
0
11
30.660464
21
42.675636
31
0
70
33
71
5
72
1
41
1
210
0
220
0
230
1
3
Standard
100
AcDbAlignedDimension
13
1.981355
23
22.514536
33
0
14
33.859586
24
25.30352
34
0
1001
ACAD
1000
DSTYLE
1002
{
1070
   279
1070
     0
1070
    74
1070
     0
1070
   173
1070
     1
1070
   340
1005
482
1070
   271
1070
     1
1070
   272
1070
     2
1070
    77
1070
     1
1070
    73
1070
     0
1070
   171
1070
     3
1070
   274
1070
     4
1070
   177
1070
     7
1070
   176
1070
     7
1070
   178
1070
     7
1070
    78
1070
     8
1070
    48
1040
-0.005
1070
    41
1041
3.175
1070
   147
1041
1.5875
1070
    42
1041
1.5875
1070
    44
1041
3.175
1070
   140
1041
3.175
1070
   343
1005
0
1070
   344
1005
0
1002
}
0
DIMENSION
5
4B0
100
AcDbEntity
8
SK2
62
256
6
ByLayer
370
13
48
1
60
0
100
AcDbDimension
2
DimnDraft3D4
10
-6.260933
20
23
30
0
11
-6.260933
21
9.603355
31
0
70
32
71
5
72
1
41
1
210
0
220
0
230
1
3
Standard
100
AcDbAlignedDimension
13
-1.5875
23
0
33
0
14
16.4125
24
23
34
0
50
90
100
AcDbRotatedDimension
1001
ACAD
1000
DSTYLE
1002
{
1070
    74
1070
     0
1070
   279
1070
     0
1070
   173
1070
     1
1070
   340
1005
482
1070
   271
1070
     1
1070
   272
1070
     2
1070
    77
1070
     1
1070
    73
1070
     0
1070
   171
1070
     3
1070
   274
1070
     4
1070
   177
1070
     7
1070
   176
1070
     7
1070
   178
1070
     7
1070
    78
1070
     8
1070
    48
1040
-0.005
1070
    41
1041
3.175
1070
   147
1041
1.5875
1070
    42
1041
1.5875
1070
    44
1041
3.175
1070
   140
1041
3.175
1070
   343
1005
0
1070
   344
1005
0
1002
}
0
DIMENSION
5
4BB
100
AcDbEntity
8
SK2
62
256
6
ByLayer
370
13
48
1
60
0
100
AcDbDimension
2
DimnDraft3D5
10
17.84312
20
24.79315
30
0
11
9.280985
21
33.853829
31
0
70
34
71
5
72
1
41
1
210
0
220
0
230
1
3
Standard
100
AcDb2LineAngularDimension
13
18
23
23
33
0
14
18
24
24
34
0
15
18
25
23
35
0
16
17.531215
26
33.736942
36
0
40
0
0
ENDSEC
0
SECTION
2
OBJECTS
0
DICTIONARY
5
526
330
0
100
AcDbDictionary
280
0
281
1
3
ACAD_GROUP
350
527
3
ACAD_MLINESTYLE
350
528
0
DICTIONARY
5
527
330
0
100
AcDbDictionary
280
0
281
1
0
DICTIONARY
5
528
330
0
100
AcDbDictionary
280
0
281
1
3
Standard
350
18
0
MLINESTYLE
5
18
330
528
100
AcDbMlineStyle
2
Standard
70
0
3

62
256
51
90
52
90
71
2
49
-0.5
62
256
6
ByLayer
49
0.5
62
256
6
ByLayer
0
RASTERVARIABLES
5
514
330

100
AcDbRasterVariables
90
0
70
1
71
1
72
1
0
ENDSEC
0
EOF
