0
SECTION
2
HEADER
9
$ACADVER
1
AC1015
9
$DWGCODEPAGE
3
ANSI_1252
9
$HANDSEED
5
255
9
$ANGBASE
50
0
9
$ANGDIR
70
0
9
$ATTMODE
70
1
9
$AUNITS
70
0
9
$AUPREC
70
0
9
$CECOLOR
62
256
9
$CELTSCALE
40
1
9
$CELTYPE
6
ByLayer
9
$CELWEIGHT
370
18
9
$CLAYER
8
0
9
$CMLJUST
70
0
9
$CMLSCALE
40
1
9
$CMLSTYLE
2
Standard
9
$DIMSTYLE
2
Standard
9
$TEXTSIZE
40
0.2
9
$TEXTSTYLE
7
Standard
9
$LUNITS
70
2
9
$LUPREC
70
4
9
$EXTNAMES
290
1
9
$INSUNITS
70
4
9
$LTSCALE
40
1
9
$LWDISPLAY
290
1
9
$PDMODE
70
0
9
$PDSIZE
40
0
9
$PLINEGEN
70
0
0
ENDSEC
0
SECTION
2
CLASSES
0
CLASS
1
RASTERVARIABLES
2
AcDbRasterVariables
3
ISM
90
0
280
0
281
0
0
ENDSEC
0
SECTION
2
TABLES
0
TABLE
2
VPORT
5
24b
100
AcDbSymbolTable
0
VPORT
5
1
100
AcDbSymbolTableRecord
100
AcDbViewportTableRecord
2
*Active
70
0
10
0
20
0
11
1
21
1
12
-1
22
1
13
0
23
0
14
0.5
24
0.5
15
10
25
10
16
0
26
0
36
1
17
0
27
0
37
0
0
ENDTAB
0
TABLE
2
LTYPE
5
24c
100
AcDbSymbolTable
0
LTYPE
5
14
100
AcDbSymbolTableRecord
100
AcDbLinetypeTableRecord
70
0
2
ByBlock
3

72
65
73
0
40
0
0
LTYPE
5
15
100
AcDbSymbolTableRecord
100
AcDbLinetypeTableRecord
70
0
2
ByLayer
3

72
65
73
0
40
0
0
LTYPE
5
16
100
AcDbSymbolTableRecord
100
AcDbLinetypeTableRecord
70
0
2
CONTINUOUS
3
Solid line
72
65
73
0
40
0
0
LTYPE
5
6A
100
AcDbSymbolTableRecord
100
AcDbLinetypeTableRecord
70
0
2
CENTER
3
____ _ ____ _ ____ _ ____
72
65
73
4
40
47.5
49
22
74
0
49
-8.5
74
0
49
8.5
74
0
49
-8.5
74
0
0
LTYPE
5
6B
100
AcDbSymbolTableRecord
100
AcDbLinetypeTableRecord
70
0
2
DASHED
3
__ __ __ __ __ __ __ __ __
72
65
73
2
40
25.72
49
12.86
74
0
49
-12.86
74
0
0
ENDTAB
0
TABLE
2
LAYER
5
24d
100
AcDbSymbolTable
0
LAYER
5
10
100
AcDbSymbolTableRecord
100
AcDbLayerTableRecord
2
0
70
0
62
7
6
CONTINUOUS
290
1
370
-3
390
0
0
LAYER
5
6D
100
AcDbSymbolTableRecord
100
AcDbLayerTableRecord
2
80
70
0
62
-6
6
CONTINUOUS
290
1
370
-3
390
0
0
LAYER
5
6F
100
AcDbSymbolTableRecord
100
AcDbLayerTableRecord
2
81
70
0
62
-3
6
CONTINUOUS
290
1
370
-3
390
0
0
LAYER
5
72
100
AcDbSymbolTableRecord
100
AcDbLayerTableRecord
2
4
70
0
62
-2
6
CENTER
290
1
370
-3
390
0
0
LAYER
5
7E
100
AcDbSymbolTableRecord
100
AcDbLayerTableRecord
2
1
70
0
62
4
6
CONTINUOUS
290
1
370
-3
390
0
0
LAYER
5
19F
100
AcDbSymbolTableRecord
100
AcDbLayerTableRecord
2
2
70
0
62
7
6
CONTINUOUS
290
1
370
-3
390
0
0
LAYER
5
237
100
AcDbSymbolTableRecord
100
AcDbLayerTableRecord
2
SK4
70
0
62
2
6
CENTER
290
1
370
-3
390
0
0
LAYER
5
238
100
AcDbSymbolTableRecord
100
AcDbLayerTableRecord
2
SK1
70
0
62
4
6
CONTINUOUS
290
1
370
-3
390
0
0
LAYER
5
239
100
AcDbSymbolTableRecord
100
AcDbLayerTableRecord
2
SK6
70
0
62
5
6
CONTINUOUS
290
1
370
-3
390
0
0
LAYER
5
23a
100
AcDbSymbolTableRecord
100
AcDbLayerTableRecord
2
SK2
70
0
62
7
6
CONTINUOUS
290
1
370
-3
390
0
0
ENDTAB
0
TABLE
2
STYLE
5
24e
100
AcDbSymbolTable
0
STYLE
5
11
100
AcDbSymbolTableRecord
100
AcDbTextStyleTableRecord
2
Standard
3
txt
70
0
71
0
40
0
41
1
42
0
50
0
0
STYLE
5
19A
100
AcDbSymbolTableRecord
100
AcDbTextStyleTableRecord
2
iso_b_vert
3
simplex.shx
70
0
71
0
40
0
41
1
42
0
50
0
0
STYLE
5
19B
100
AcDbSymbolTableRecord
100
AcDbTextStyleTableRecord
2
DWGDirectTextStyle
3
simplex
70
0
71
0
40
0
41
1
42
0
50
0
0
ENDTAB
0
TABLE
2
DIMSTYLE
5
24f
100
AcDbSymbolTable
100
AcDbDimStyleTable
0
DIMSTYLE
105
27
100
AcDbSymbolTableRecord
100
AcDbDimStyleTableRecord
2
Standard
70
0
3
<>
41
0.18
42
0.0625
44
0.18
140
0.18
147
0.09
73
0
74
0
77
1
271
2
275
0
278
52
280
0
340
11
0
ENDTAB
0
TABLE
2
VIEW
5
250
100
AcDbSymbolTable
0
ENDTAB
0
TABLE
2
UCS
5
251
100
AcDbSymbolTable
0
ENDTAB
0
TABLE
2
APPID
5
252
100
AcDbSymbolTable
0
APPID
5
12
100
AcDbSymbolTableRecord
100
AcDbRegAppTableRecord
2
ACAD
70
0
0
ENDTAB
0
TABLE
2
BLOCK_RECORD
5
253
100
AcDbSymbolTable
0
BLOCK_RECORD
5
1F
100
AcDbSymbolTableRecord
100
AcDbBlockTableRecord
2
*Model_Space
340
0
70
0
0
BLOCK_RECORD
5
1B
100
AcDbSymbolTableRecord
100
AcDbBlockTableRecord
2
*Paper_Space
340
0
70
0
0
BLOCK_RECORD
5
23
100
AcDbSymbolTableRecord
100
AcDbBlockTableRecord
2
*Paper_Space0
340
0
70
0
0
BLOCK_RECORD
5
19D
100
AcDbSymbolTableRecord
100
AcDbBlockTableRecord
2
DimnDraft3D1
340
0
70
0
0
BLOCK_RECORD
5
1A8
100
AcDbSymbolTableRecord
100
AcDbBlockTableRecord
2
DimnDraft3D2
340
0
70
0
0
BLOCK_RECORD
5
1B4
100
AcDbSymbolTableRecord
100
AcDbBlockTableRecord
2
DimnDraft3D3
340
0
70
0
0
BLOCK_RECORD
5
1BE
100
AcDbSymbolTableRecord
100
AcDbBlockTableRecord
2
DimnDraft3D4
340
0
70
0
0
BLOCK_RECORD
5
1C9
100
AcDbSymbolTableRecord
100
AcDbBlockTableRecord
2
DimnDraft3D5
340
0
70
0
0
BLOCK_RECORD
5
1D4
100
AcDbSymbolTableRecord
100
AcDbBlockTableRecord
2
DimnDraft3D66
340
0
70
0
0
ENDTAB
0
ENDSEC
0
SECTION
2
BLOCKS
0
BLOCK
5
20
100
AcDbEntity
8
0
100
AcDbBlockBegin
2
*Model_Space
70
0
10
0
20
0
30
0
3
*Model_Space
0
ENDBLK
5
21
100
AcDbEntity
8
0
100
AcDbBlockEnd
0
BLOCK
5
1C
100
AcDbEntity
8
0
100
AcDbBlockBegin
2
*Paper_Space
70
0
10
0
20
0
30
0
3
*Paper_Space
0
ENDBLK
5
1D
100
AcDbEntity
8
0
100
AcDbBlockEnd
0
BLOCK
5
24
100
AcDbEntity
8
0
100
AcDbBlockBegin
2
*Paper_Space0
70
0
10
0
20
0
30
0
3
*Paper_Space0
0
ENDBLK
5
25
100
AcDbEntity
8
0
100
AcDbBlockEnd
0
BLOCK
5
1A5
100
AcDbEntity
8
0
100
AcDbBlockBegin
2
DimnDraft3D1
70
0
10
0
20
0
30
0
3
DimnDraft3D1
0
MTEXT
5
19E
100
AcDbEntity
8
2
62
256
6
ByLayer
370
13
48
1
60
0
100
AcDbMText
10
341.710658
20
39.39375
30
0
210
0
220
0
230
1
1
\W0.7138;688
40
3.175
41
0
44
1.084337
50
0
71
7
72
5
7
iso_b_vert
0
LINE
5
1A0
100
AcDbEntity
8
2
62
256
6
ByLayer
370
13
48
1
60
0
100
AcDbLine
10
0
20
1.5875
30
0
11
0
21
41.775
31
0
39
0
210
0
220
0
230
1
0
LINE
5
1A1
100
AcDbEntity
8
2
62
256
6
ByLayer
370
13
48
1
60
0
100
AcDbLine
10
688
20
11.5875
30
0
11
688
21
41.775
31
0
39
0
210
0
220
0
230
1
0
LINE
5
1A2
100
AcDbEntity
8
2
62
256
6
ByLayer
370
13
48
1
60
0
100
AcDbLine
10
0
20
38.6
30
0
11
688
21
38.6
31
0
39
0
210
0
220
0
230
1
0
SOLID
5
1A3
100
AcDbEntity
8
2
62
256
6
ByLayer
370
13
48
1
60
0
100
AcDbTrace
10
0
20
38.6
30
0
11
3.174998
21
39.017997
31
0
12
3.175002
22
38.182004
32
0
13
0
23
38.6
33
0
39
0
210
0
220
0
230
1
0
SOLID
5
1A4
100
AcDbEntity
8
2
62
256
6
ByLayer
370
13
48
1
60
0
100
AcDbTrace
10
688
20
38.6
30
0
11
684.825002
21
38.182004
31
0
12
684.824998
22
39.017997
32
0
13
688
23
38.6
33
0
39
0
210
0
220
0
230
1
0
ENDBLK
5
1A6
100
AcDbEntity
8
0
100
AcDbBlockEnd
0
BLOCK
5
1B1
100
AcDbEntity
8
0
100
AcDbBlockBegin
2
DimnDraft3D2
70
0
10
0
20
0
30
0
3
DimnDraft3D2
0
MTEXT
5
1A9
100
AcDbEntity
8
SK2
62
256
6
ByLayer
370
13
48
1
60
0
100
AcDbMText
10
-301.185007
20
-4.25309
30
0
210
0
220
0
230
1
1
%%c
40
3.175
41
0
44
1.084337
50
90
71
7
72
5
7
iso_b_vert
0
MTEXT
5
1AB
100
AcDbEntity
8
SK2
62
256
6
ByLayer
370
13
48
1
60
0
100
AcDbMText
10
-301.185007
20
3.659605
30
0
210
0
220
0
230
1
1
\W0.6740;60
40
3.175
41
0
44
1.084337
50
90
71
7
72
5
7
iso_b_vert
0
LINE
5
1AC
100
AcDbEntity
8
SK2
62
256
6
ByLayer
370
13
48
1
60
0
100
AcDbLine
10
-273.0875
20
30
30
0
11
-302.772507
21
30
31
0
39
0
210
0
220
0
230
1
0
LINE
5
1AD
100
AcDbEntity
8
SK2
62
256
6
ByLayer
370
13
48
1
60
0
100
AcDbLine
10
-273.0875
20
-30
30
0
11
-302.772507
21
-30
31
0
39
0
210
0
220
0
230
1
0
LINE
5
1AE
100
AcDbEntity
8
SK2
62
256
6
ByLayer
370
13
48
1
60
0
100
AcDbLine
10
-299.597507
20
30
30
0
11
-299.597507
21
-30
31
0
39
0
210
0
220
0
230
1
0
SOLID
5
1AF
100
AcDbEntity
8
SK2
62
256
6
ByLayer
370
13
48
1
60
0
100
AcDbTrace
10
-299.597507
20
30
30
0
11
-299.17951
21
26.825002
31
0
12
-300.015504
22
26.824998
32
0
13
-299.597507
23
30
33
0
39
0
210
0
220
0
230
1
0
SOLID
5
1B0
100
AcDbEntity
8
SK2
62
256
6
ByLayer
370
13
48
1
60
0
100
AcDbTrace
10
-299.597507
20
-30
30
0
11
-300.015504
21
-26.825002
31
0
12
-299.17951
22
-26.824998
32
0
13
-299.597507
23
-30
33
0
39
0
210
0
220
0
230
1
0
ENDBLK
5
1B2
100
AcDbEntity
8
0
100
AcDbBlockEnd
0
BLOCK
5
1BB
100
AcDbEntity
8
0
100
AcDbBlockBegin
2
DimnDraft3D3
70
0
10
0
20
0
30
0
3
DimnDraft3D3
0
MTEXT
5
1B5
100
AcDbEntity
8
SK2
62
256
6
ByLayer
370
13
48
1
60
0
100
AcDbMText
10
223.714408
20
51.996294
30
0
210
0
220
0
230
1
1
\W0.7317;920,5
40
3.175
41
0
44
1.084337
50
0
71
7
72
5
7
iso_b_vert
0
LINE
5
1B6
100
AcDbEntity
8
SK2
62
256
6
ByLayer
370
13
48
1
60
0
100
AcDbLine
10
-232.5
20
31.5875
30
0
11
-232.5
21
54.377544
31
0
39
0
210
0
220
0
230
1
0
LINE
5
1B7
100
AcDbEntity
8
SK2
62
256
6
ByLayer
370
13
48
1
60
0
100
AcDbLine
10
688
20
11.5875
30
0
11
688
21
54.377544
31
0
39
0
210
0
220
0
230
1
0
LINE
5
1B8
100
AcDbEntity
8
SK2
62
256
6
ByLayer
370
13
48
1
60
0
100
AcDbLine
10
-232.5
20
51.202544
30
0
11
688
21
51.202544
31
0
39
0
210
0
220
0
230
1
0
SOLID
5
1B9
100
AcDbEntity
8
SK2
62
256
6
ByLayer
370
13
48
1
60
0
100
AcDbTrace
10
-232.5
20
51.202544
30
0
11
-229.325002
21
51.62054
31
0
12
-229.324998
22
50.784547
32
0
13
-232.5
23
51.202544
33
0
39
0
210
0
220
0
230
1
0
SOLID
5
1BA
100
AcDbEntity
8
SK2
62
256
6
ByLayer
370
13
48
1
60
0
100
AcDbTrace
10
688
20
51.202544
30
0
11
684.825002
21
50.784547
31
0
12
684.824998
22
51.62054
32
0
13
688
23
51.202544
33
0
39
0
210
0
220
0
230
1
0
ENDBLK
5
1BC
100
AcDbEntity
8
0
100
AcDbBlockEnd
0
BLOCK
5
1C6
100
AcDbEntity
8
0
100
AcDbBlockBegin
2
DimnDraft3D4
70
0
10
0
20
0
30
0
3
DimnDraft3D4
0
MTEXT
5
1BF
100
AcDbEntity
8
SK2
62
256
6
ByLayer
370
13
48
1
60
0
100
AcDbMText
10
-125.002138
20
-54.815438
30
0
210
0
220
0
230
1
1
\W0.8210;Clamping area
40
3.175
41
0
44
1.084337
50
0
71
7
72
5
7
iso_b_vert
0
MTEXT
5
1C0
100
AcDbEntity
8
SK2
62
256
6
ByLayer
370
13
48
1
60
0
100
AcDbMText
10
-134.343322
20
-54.815438
30
0
210
0
220
0
230
1
1
\W0.7138;232
40
3.175
41
0
44
1.084337
50
0
71
7
72
5
7
iso_b_vert
0
LINE
5
1C1
100
AcDbEntity
8
SK2
62
256
6
ByLayer
370
13
48
1
60
0
100
AcDbLine
10
-232.5
20
-31.5875
30
0
11
-232.5
21
-58.784188
31
0
39
0
210
0
220
0
230
1
0
LINE
5
1C2
100
AcDbEntity
8
SK2
62
256
6
ByLayer
370
13
48
1
60
0
100
AcDbLine
10
0
20
-1.5875
30
0
11
0
21
-58.784188
31
0
39
0
210
0
220
0
230
1
0
LINE
5
1C3
100
AcDbEntity
8
SK2
62
256
6
ByLayer
370
13
48
1
60
0
100
AcDbLine
10
-232.5
20
-55.609188
30
0
11
0
21
-55.609188
31
0
39
0
210
0
220
0
230
1
0
SOLID
5
1C4
100
AcDbEntity
8
SK2
62
256
6
ByLayer
370
13
48
1
60
0
100
AcDbTrace
10
-232.5
20
-55.609188
30
0
11
-229.325002
21
-55.191191
31
0
12
-229.324998
22
-56.027185
32
0
13
-232.5
23
-55.609188
33
0
39
0
210
0
220
0
230
1
0
SOLID
5
1C5
100
AcDbEntity
8
SK2
62
256
6
ByLayer
370
13
48
1
60
0
100
AcDbTrace
10
0
20
-55.609188
30
0
11
-3.174998
21
-56.027185
31
0
12
-3.175002
22
-55.191191
32
0
13
0
23
-55.609188
33
0
39
0
210
0
220
0
230
1
0
ENDBLK
5
1C7
100
AcDbEntity
8
0
100
AcDbBlockEnd
0
BLOCK
5
1D1
100
AcDbEntity
8
0
100
AcDbBlockBegin
2
DimnDraft3D5
70
0
10
0
20
0
30
0
3
DimnDraft3D5
0
MTEXT
5
1CA
100
AcDbEntity
8
SK2
62
256
6
ByLayer
370
13
48
1
60
0
100
AcDbMText
10
730.477305
20
37.815014
30
0
210
0
220
0
230
1
1
%%c
40
3.175
41
0
44
1.084337
50
90
71
7
72
5
7
iso_b_vert
0
MTEXT
5
1CB
100
AcDbEntity
8
SK2
62
256
6
ByLayer
370
13
48
1
60
0
100
AcDbMText
10
730.477305
20
45.727709
30
0
210
0
220
0
230
1
1
\W0.7361;40
40
3.175
41
0
44
1.084337
50
90
71
7
72
5
7
iso_b_vert
0
LINE
5
1CC
100
AcDbEntity
8
SK2
62
256
6
ByLayer
370
13
48
1
60
0
100
AcDbLine
10
688.9125
20
-10
30
0
11
735.239805
21
-10
31
0
39
0
210
0
220
0
230
1
0
LINE
5
1CD
100
AcDbEntity
8
SK2
62
256
6
ByLayer
370
13
48
1
60
0
100
AcDbLine
10
688.9125
20
30
30
0
11
735.239805
21
30
31
0
39
0
210
0
220
0
230
1
0
LINE
5
1CE
100
AcDbEntity
8
SK2
62
256
6
ByLayer
370
13
48
1
60
0
100
AcDbLine
10
732.064805
20
-10
30
0
11
732.064805
21
49.061459
31
0
39
0
210
0
220
0
230
1
0
SOLID
5
1CF
100
AcDbEntity
8
SK2
62
256
6
ByLayer
370
13
48
1
60
0
100
AcDbTrace
10
732.064805
20
-10
30
0
11
731.646809
21
-6.825002
31
0
12
732.482802
22
-6.824998
32
0
13
732.064805
23
-10
33
0
39
0
210
0
220
0
230
1
0
SOLID
5
1D0
100
AcDbEntity
8
SK2
62
256
6
ByLayer
370
13
48
1
60
0
100
AcDbTrace
10
732.064805
20
30
30
0
11
732.482802
21
26.825002
31
0
12
731.646809
22
26.824998
32
0
13
732.064805
23
30
33
0
39
0
210
0
220
0
230
1
0
ENDBLK
5
1D2
100
AcDbEntity
8
0
100
AcDbBlockEnd
0
BLOCK
5
1D5
100
AcDbEntity
8
0
100
AcDbBlockBegin
2
DimnDraft3D66
70
0
10
0
20
0
30
0
3
DimnDraft3D66
0
LINE
5
1D7
100
AcDbEntity
8
SK2
62
256
6
ByLayer
370
25
48
1
60
0
100
AcDbLine
10
689.9125
20
10
30
0
11
717.634632
21
10
31
0
39
0
210
0
220
0
230
1
0
LINE
5
1D8
100
AcDbEntity
8
SK2
62
256
6
ByLayer
370
25
48
1
60
0
100
AcDbLine
10
696.5875
20
0
30
0
11
717.634632
21
0
31
0
39
0
210
0
220
0
230
1
0
LINE
5
1D9
100
AcDbEntity
8
SK2
62
256
6
ByLayer
370
25
48
1
60
0
100
AcDbLine
10
714.459632
20
0
30
0
11
714.459632
21
22.563843
31
0
39
0
210
0
220
0
230
1
0
SOLID
5
1DA
100
AcDbEntity
8
SK2
62
256
6
ByLayer
370
25
48
1
60
0
100
AcDbTrace
10
714.459632
20
10
30
0
11
714.877629
21
6.825002
31
0
12
714.041636
22
6.824998
32
0
13
714.459632
23
10
33
0
39
0
210
0
220
0
230
1
0
SOLID
5
1DB
100
AcDbEntity
8
SK2
62
256
6
ByLayer
370
25
48
1
60
0
100
AcDbTrace
10
714.459632
20
0
30
0
11
714.041636
21
3.174998
31
0
12
714.877629
22
3.175002
32
0
13
714.459632
23
0
33
0
39
0
210
0
220
0
230
1
0
MTEXT
5
1DC
100
AcDbEntity
8
SK2
62
256
6
ByLayer
370
13
48
1
60
0
100
AcDbMText
10
713.665882
20
20.358053
30
0
210
0
220
0
230
1
1
\W0.5321;10
40
3.175
41
0
44
1.084337
50
90
71
7
72
5
7
iso_b_vert
0
ENDBLK
5
1D6
100
AcDbEntity
8
0
100
AcDbBlockEnd
0
ENDSEC
0
SECTION
2
ENTITIES
0
ARC
5
120
100
AcDbEntity
8
1
62
256
6
ByLayer
370
18
48
1
60
0
100
AcDbCircle
39
0
10
684.2
20
-29.8
30
0
40
0.2
210
0
220
0
230
1
100
AcDbArc
50
180
51
270
0
ARC
5
121
100
AcDbEntity
8
1
62
256
6
ByLayer
370
18
48
1
60
0
100
AcDbCircle
39
0
10
684.2
20
29.8
30
0
40
0.2
210
0
220
0
230
1
100
AcDbArc
50
90
51
180
0
ARC
5
122
100
AcDbEntity
8
1
62
256
6
ByLayer
370
18
48
1
60
0
100
AcDbCircle
39
0
10
-687
20
-11
30
0
40
1
210
0
220
0
230
-1
100
AcDbArc
50
0
51
90
0
ARC
5
123
100
AcDbEntity
8
SK1
62
256
6
ByLayer
370
18
48
1
60
0
100
AcDbCircle
39
0
10
-271.5
20
-29
30
0
40
1
210
0
220
0
230
1
100
AcDbArc
50
180
51
270
0
ARC
5
124
100
AcDbEntity
8
SK1
62
256
6
ByLayer
370
18
48
1
60
0
100
AcDbCircle
39
0
10
-271.5
20
29
30
0
40
1
210
0
220
0
230
1
100
AcDbArc
50
90
51
180
0
ARC
5
125
100
AcDbEntity
8
1
62
256
6
ByLayer
370
18
48
1
60
0
100
AcDbCircle
39
0
10
683.6
20
29.6
30
0
40
0.4
210
0
220
0
230
1
100
AcDbArc
50
0
51
90
0
ARC
5
126
100
AcDbEntity
8
1
62
256
6
ByLayer
370
18
48
1
60
0
100
AcDbCircle
39
0
10
683.6
20
-29.6
30
0
40
0.4
210
0
220
0
230
1
100
AcDbArc
50
270
51
0
0
CIRCLE
5
11F
100
AcDbEntity
8
1
62
256
6
ByLayer
370
18
48
1
60
0
100
AcDbCircle
10
673
20
0
30
0
40
2
39
0
210
0
220
0
230
1
0
ELLIPSE
5
127
100
AcDbEntity
8
1
62
256
6
ByLayer
370
18
48
1
60
0
100
AcDbEllipse
10
687
20
27.95
30
0
11
1.00000000000593
21
0
31
0
210
0
220
0
230
1
40
0.854762
41
-2.79624344720817
42
-1.5707963267949
0
POINT
5
6C
100
AcDbEntity
8
80
62
256
6
ByLayer
370
18
48
1
60
0
100
AcDbPoint
10
0
20
0
30
0
39
0
210
0
220
0
230
1
50
360
0
POINT
5
6E
100
AcDbEntity
8
81
62
256
6
ByLayer
370
18
48
1
60
0
100
AcDbPoint
10
688
20
10
30
0
39
0
210
0
220
0
230
1
50
360
0
SPLINE
5
128
100
AcDbEntity
8
1
62
256
6
ByLayer
370
18
48
1
60
0
100
AcDbSpline
70
4
71
3
72
13
73
9
40
0
40
0
40
0
40
0
40
0.1504042863653
40
0.317028573705159
40
0.49988247904673
40
0.666599581305613
40
0.833305149793905
40
1
40
1
40
1
40
1
41
1
10
685.58856405781
20
27.9823344634338
30
0
41
1
10
685.620425984439
20
28.1823633960999
30
0
41
1
10
685.682774547244
20
28.5731357044897
30
0
41
1
10
685.763278577095
20
29.0877345531623
30
0
41
1
10
685.832136738584
20
29.5002260562154
30
0
41
1
10
685.893181162548
20
29.7920799607194
30
0
41
1
10
685.949083374416
20
29.9621730064427
30
0
41
1
10
685.983468051537
20
29.9999618169814
30
0
41
1
10
686
20
30
30
0
0
SPLINE
5
129
100
AcDbEntity
8
1
62
256
6
ByLayer
370
18
48
1
60
0
100
AcDbSpline
70
4
71
2
72
6
73
3
40
0
40
0
40
0
40
1
40
1
40
1
41
1
10
685.5
20
26.9110169491525
30
0
41
1
10
685.503170054093
20
27.501521737375
30
0
41
1
10
685.58856405781
20
27.9823344634338
30
0
0
SPLINE
5
12A
100
AcDbEntity
8
1
62
256
6
ByLayer
370
18
48
1
60
0
100
AcDbSpline
70
4
71
1
72
4
73
2
40
0
40
0
40
1
40
1
41
1
10
685.5
20
26.9110169491526
30
0
41
1
10
686
20
26.4625
30
0
0
SPLINE
5
12B
100
AcDbEntity
8
1
62
256
6
ByLayer
370
18
48
1
60
0
100
AcDbSpline
70
4
71
1
72
4
73
2
40
0
40
0
40
1
40
1
41
1
10
686.000121768637
20
26.5230820550306
30
0
41
1
10
686
20
26.4625
30
0
0
SPLINE
5
12C
100
AcDbEntity
8
1
62
256
6
ByLayer
370
18
48
1
60
0
100
AcDbSpline
70
4
71
2
72
6
73
3
40
0
40
0
40
0
40
1
40
1
40
1
41
1
10
686.059042705207
20
27.6606414815844
30
0
41
1
10
686.002673002418
20
27.15453240118
30
0
41
1
10
686.000121768637
20
26.5230820550306
30
0
0
SPLINE
5
12D
100
AcDbEntity
8
1
62
256
6
ByLayer
370
18
48
1
60
0
100
AcDbSpline
70
4
71
3
72
18
73
14
40
0
40
0
40
0
40
0
40
0.0048006420614855
40
0.118741637592233
40
0.233116403521678
40
0.331416022910834
40
0.429715017524821
40
0.529181010475108
40
0.628645680946862
40
0.720929846505569
40
0.813211997980016
40
0.906608677943839
40
1
40
1
40
1
40
1
41
1
10
686
20
30
30
0
41
1
10
686.002264780055
20
30.0000000017482
30
0
41
1
10
686.058271115138
20
29.9994384570483
30
0
41
1
10
686.168221514239
20
29.9710437463426
30
0
41
1
10
686.319088298831
20
29.857855592596
30
0
41
1
10
686.457172084615
20
29.6851876467553
30
0
41
1
10
686.581437466047
20
29.4641347299146
30
0
41
1
10
686.696566722091
20
29.1852261125037
30
0
41
1
10
686.79692751507
20
28.8565902467447
30
0
41
1
10
686.880366271712
20
28.48448459057
30
0
41
1
10
686.944714073043
20
28.0727112955847
30
0
41
1
10
686.989057011344
20
27.6117777355255
30
0
41
1
10
686.999272823305
20
27.2725992495063
30
0
41
1
10
687
20
27.0952380952381
30
0
0
SPLINE
5
12E
100
AcDbEntity
8
1
62
256
6
ByLayer
370
18
48
1
60
0
100
AcDbSpline
70
4
71
3
72
12
73
8
40
0
40
0
40
0
40
0
40
0.0814684080198327
40
0.282954387161719
40
0.496494800032772
40
0.831758491133067
40
1
40
1
40
1
40
1
41
1
10
687.555
20
-9.77000000000001
30
0
41
1
10
687.555015582329
20
-9.76998414954716
30
0
41
1
10
687.556077393944
20
-9.76891159601861
30
0
41
1
10
687.564760637255
20
-9.76013875059682
30
0
41
1
10
687.589381414209
20
-9.73528417272753
30
0
41
1
10
687.622628100026
20
-9.70177215694507
30
0
41
1
10
687.648254823464
20
-9.67599632018058
30
0
41
1
10
687.657250000005
20
-9.66695260773218
30
0
0
SPLINE
5
12F
100
AcDbEntity
8
1
62
256
6
ByLayer
370
18
48
1
60
0
100
AcDbSpline
70
4
71
3
72
11
73
7
40
0
40
0
40
0
40
0
40
0.363787721949941
40
0.633109824668325
40
0.856330372739845
40
1
40
1
40
1
40
1
41
1
10
687.65725
20
29.6669526077377
30
0
41
1
10
687.637106503078
20
29.6872119969314
30
0
41
1
10
687.606499723285
20
29.7180158423594
30
0
41
1
10
687.572549591026
20
29.7522724919801
30
0
41
1
10
687.557491476118
20
29.7674829407209
30
0
41
1
10
687.555088777225
20
29.7699097409187
30
0
41
1
10
687.555
20
29.77
30
0
0
SPLINE
5
130
100
AcDbEntity
8
1
62
256
6
ByLayer
370
18
48
1
60
0
100
AcDbSpline
70
4
71
1
72
4
73
2
40
0
40
0
40
1
40
1
41
1
10
688.325
20
28.991667907708
30
0
41
1
10
687.65725
20
29.6669526077377
30
0
0
SPLINE
5
131
100
AcDbEntity
8
1
62
256
6
ByLayer
370
18
48
1
60
0
100
AcDbSpline
70
4
71
1
72
4
73
2
40
0
40
0
40
1
40
1
41
1
10
687.65725
20
29.6232090000648
30
0
41
1
10
688.325
20
28.9768631082337
30
0
0
SPLINE
5
132
100
AcDbEntity
8
1
62
256
6
ByLayer
370
18
48
1
60
0
100
AcDbSpline
70
4
71
3
72
11
73
7
40
0
40
0
40
0
40
0
40
0.353544895004732
40
0.637649992213742
40
0.866481616419161
40
1
40
1
40
1
40
1
41
1
10
687.65725
20
29.5961148774388
30
0
41
1
10
687.637736231931
20
29.6166212011108
30
0
41
1
10
687.606877005414
20
29.649762420808
30
0
41
1
10
687.572532958045
20
29.6884341492299
30
0
41
1
10
687.557376965567
20
29.7075135390098
30
0
41
1
10
687.555102572038
20
29.7120495720826
30
0
41
1
10
687.555000029089
20
29.7130051391009
30
0
0
SPLINE
5
133
100
AcDbEntity
8
1
62
256
6
ByLayer
370
18
48
1
60
0
100
AcDbSpline
70
4
71
1
72
4
73
2
40
0
40
0
40
1
40
1
41
1
10
688.325
20
28.8877094006841
30
0
41
1
10
687.65725
20
29.5961148774388
30
0
0
SPLINE
5
134
100
AcDbEntity
8
1
62
256
6
ByLayer
370
18
48
1
60
0
100
AcDbSpline
70
4
71
1
72
4
73
2
40
0
40
0
40
1
40
1
41
1
10
687.65725
20
29.4641115400998
30
0
41
1
10
688.325
20
28.8430150703283
30
0
0
SPLINE
5
135
100
AcDbEntity
8
1
62
256
6
ByLayer
370
18
48
1
60
0
100
AcDbSpline
70
4
71
3
72
11
73
7
40
0
40
0
40
0
40
0
40
0.342011787836723
40
0.642198228721709
40
0.876725351047454
40
1
40
1
40
1
40
1
41
1
10
687.65725
20
29.4094413032565
30
0
41
1
10
687.638405962704
20
29.4302315216882
30
0
41
1
10
687.607246454179
20
29.4659783235364
30
0
41
1
10
687.572478698652
20
29.5093812544871
30
0
41
1
10
687.557238712117
20
29.5326216917596
30
0
41
1
10
687.555107377871
20
29.5393112426375
30
0
41
1
10
687.555000074588
20
29.5410298872621
30
0
0
SPLINE
5
136
100
AcDbEntity
8
1
62
256
6
ByLayer
370
18
48
1
60
0
100
AcDbSpline
70
4
71
1
72
4
73
2
40
0
40
0
40
1
40
1
41
1
10
688.325
20
28.6630030512968
30
0
41
1
10
687.65725
20
29.4094413032565
30
0
0
SPLINE
5
137
100
AcDbEntity
8
1
62
256
6
ByLayer
370
18
48
1
60
0
100
AcDbSpline
70
4
71
1
72
4
73
2
40
0
40
0
40
1
40
1
41
1
10
687.65725
20
29.1867908893245
30
0
41
1
10
688.325
20
28.587552298584
30
0
0
SPLINE
5
138
100
AcDbEntity
8
1
62
256
6
ByLayer
370
18
48
1
60
0
100
AcDbSpline
70
4
71
3
72
11
73
7
40
0
40
0
40
0
40
0
40
0.329250067109449
40
0.647313353418101
40
0.887590104473781
40
1
40
1
40
1
40
1
41
1
10
687.65725
20
29.1035364558329
30
0
41
1
10
687.639125826007
20
29.1246406317614
30
0
41
1
10
687.607605573011
20
29.1633405571413
30
0
41
1
10
687.572379703214
20
29.2119075998364
30
0
41
1
10
687.557086797367
20
29.2396890076993
30
0
41
1
10
687.555109283244
20
29.2486011368986
30
0
41
1
10
687.555000241862
20
29.250975551376
30
0
0
SPLINE
5
139
100
AcDbEntity
8
1
62
256
6
ByLayer
370
18
48
1
60
0
100
AcDbSpline
70
4
71
1
72
4
73
2
40
0
40
0
40
1
40
1
41
1
10
688.325
20
28.3131045806204
30
0
41
1
10
687.65725
20
29.1035364558329
30
0
0
SPLINE
5
13A
100
AcDbEntity
8
1
62
256
6
ByLayer
370
18
48
1
60
0
100
AcDbSpline
70
4
71
1
72
4
73
2
40
0
40
0
40
1
40
1
41
1
10
687.65725
20
28.786012115824
30
0
41
1
10
688.325
20
28.2053559142514
30
0
0
SPLINE
5
13B
100
AcDbEntity
8
1
62
256
6
ByLayer
370
18
48
1
60
0
100
AcDbSpline
70
4
71
3
72
11
73
7
40
0
40
0
40
0
40
0
40
0.441839920560009
40
0.734050487715004
40
0.961867500839328
40
1
40
1
40
1
40
1
41
1
10
687.65725
20
28.6725412982303
30
0
41
1
10
687.632309326615
20
28.7032457165448
30
0
41
1
10
687.59797900152
20
28.7497389857026
30
0
41
1
10
687.564594625596
20
28.8046483170383
30
0
41
1
10
687.555573313104
20
28.8285226969548
30
0
41
1
10
687.555015021058
20
28.8363594717354
30
0
41
1
10
687.555000312325
20
28.8374254774192
30
0
0
SPLINE
5
13C
100
AcDbEntity
8
1
62
256
6
ByLayer
370
18
48
1
60
0
100
AcDbSpline
70
4
71
1
72
4
73
2
40
0
40
0
40
1
40
1
41
1
10
688.325
20
27.8306454136905
30
0
41
1
10
687.65725
20
28.6725412982303
30
0
0
SPLINE
5
13D
100
AcDbEntity
8
1
62
256
6
ByLayer
370
18
48
1
60
0
100
AcDbSpline
70
4
71
1
72
4
73
2
40
0
40
0
40
1
40
1
41
1
10
687.65725
20
28.2536450551968
30
0
41
1
10
688.325
20
27.6882126704918
30
0
0
SPLINE
5
13E
100
AcDbEntity
8
1
62
256
6
ByLayer
370
18
48
1
60
0
100
AcDbSpline
70
4
71
3
72
11
73
7
40
0
40
0
40
0
40
0
40
0.469351758654451
40
0.761993777863471
40
0.988709287791783
40
1
40
1
40
1
40
1
41
1
10
687.65725
20
28.1075258373112
30
0
41
1
10
687.630514136621
20
28.1426232148382
30
0
41
1
10
687.595252507033
20
28.1949484938443
30
0
41
1
10
687.562509008145
20
28.2570863381311
30
0
41
1
10
687.555160567662
20
28.2829901513205
30
0
41
1
10
687.555001680443
20
28.2916794237046
30
0
41
1
10
687.555000066086
20
28.292086575487
30
0
0
SPLINE
5
13F
100
AcDbEntity
8
1
62
256
6
ByLayer
370
18
48
1
60
0
100
AcDbSpline
70
4
71
1
72
4
73
2
40
0
40
0
40
1
40
1
41
1
10
688.325
20
27.204477102103
30
0
41
1
10
687.65725
20
28.1075258373112
30
0
0
SPLINE
5
140
100
AcDbEntity
8
1
62
256
6
ByLayer
370
18
48
1
60
0
100
AcDbSpline
70
4
71
1
72
4
73
2
40
0
40
0
40
1
40
1
41
1
10
687.65725
20
27.57773774939
30
0
41
1
10
688.325
20
27.0238289168013
30
0
0
SPLINE
5
141
100
AcDbEntity
8
1
62
256
6
ByLayer
370
18
48
1
60
0
100
AcDbSpline
70
4
71
3
72
10
73
6
40
0
40
0
40
0
40
0
40
0.500655634822126
40
0.790172015434912
40
1
40
1
40
1
40
1
41
1
10
687.65725
20
27.3954357623968
30
0
41
1
10
687.628459400728
20
27.4360513359832
30
0
41
1
10
687.592593064923
20
27.495054100592
30
0
41
1
10
687.560646526087
20
27.565410693159
30
0
41
1
10
687.555617495468
20
27.5922713314739
30
0
41
1
10
687.555000081396
20
27.602545625745
30
0
0
SPLINE
5
142
100
AcDbEntity
8
1
62
256
6
ByLayer
370
18
48
1
60
0
100
AcDbSpline
70
4
71
1
72
4
73
2
40
0
40
0
40
1
40
1
41
1
10
688.325
20
26.4181652094505
30
0
41
1
10
687.65725
20
27.3954357623968
30
0
0
SPLINE
5
143
100
AcDbEntity
8
1
62
256
6
ByLayer
370
18
48
1
60
0
100
AcDbSpline
70
4
71
1
72
4
73
2
40
0
40
0
40
1
40
1
41
1
10
687.65725
20
26.7409130865539
30
0
41
1
10
688.325
20
26.1940925803361
30
0
0
SPLINE
5
144
100
AcDbEntity
8
1
62
256
6
ByLayer
370
18
48
1
60
0
100
AcDbSpline
70
4
71
3
72
10
73
6
40
0
40
0
40
0
40
0
40
0.538057462057109
40
0.81813013882175
40
1
40
1
40
1
40
1
41
1
10
687.65725
20
26.5172600263618
30
0
41
1
10
687.626027033555
20
26.5650666634061
30
0
41
1
10
687.589523572285
20
26.6324796523193
30
0
41
1
10
687.559690658731
20
26.7107563317592
30
0
41
1
10
687.55549982106
20
26.7400235417015
30
0
41
1
10
687.555000929876
20
26.7508182535806
30
0
0
SPLINE
5
145
100
AcDbEntity
8
1
62
256
6
ByLayer
370
18
48
1
60
0
100
AcDbSpline
70
4
71
1
72
4
73
2
40
0
40
0
40
1
40
1
41
1
10
688.325
20
25.4472737184539
30
0
41
1
10
687.65725
20
26.5172600263618
30
0
0
SPLINE
5
146
100
AcDbEntity
8
1
62
256
6
ByLayer
370
18
48
1
60
0
100
AcDbSpline
70
4
71
1
72
4
73
2
40
0
40
0
40
1
40
1
41
1
10
687.65725
20
25.7174895437145
30
0
41
1
10
688.325
20
25.1718989586826
30
0
0
SPLINE
5
147
100
AcDbEntity
8
1
62
256
6
ByLayer
370
18
48
1
60
0
100
AcDbSpline
70
4
71
3
72
10
73
6
40
0
40
0
40
0
40
0
40
0.547301222737306
40
0.825627972936557
40
1
40
1
40
1
40
1
41
1
10
687.65725
20
25.4446939818576
30
0
41
1
10
687.625542403747
20
25.4982707951335
30
0
41
1
10
687.588937240184
20
25.5744018380708
30
0
41
1
10
687.559737360317
20
25.6632659657322
30
0
41
1
10
687.555569917055
20
25.6975178942071
30
0
41
1
10
687.555008535533
20
25.7101151220355
30
0
0
SPLINE
5
148
100
AcDbEntity
8
1
62
256
6
ByLayer
370
18
48
1
60
0
100
AcDbSpline
70
4
71
1
72
4
73
2
40
0
40
0
40
1
40
1
41
1
10
688.325
20
24.2541356041276
30
0
41
1
10
687.65725
20
25.4446939818576
30
0
0
SPLINE
5
149
100
AcDbEntity
8
1
62
256
6
ByLayer
370
18
48
1
60
0
100
AcDbSpline
70
4
71
1
72
4
73
2
40
0
40
0
40
1
40
1
41
1
10
687.65725
20
24.4679225924801
30
0
41
1
10
688.325
20
23.9148985452446
30
0
0
SPLINE
5
14A
100
AcDbEntity
8
1
62
256
6
ByLayer
370
18
48
1
60
0
100
AcDbSpline
70
4
71
3
72
10
73
6
40
0
40
0
40
0
40
0
40
0.613007207669567
40
0.839592277898003
40
1
40
1
40
1
40
1
41
1
10
687.65725
20
24.1335510614993
30
0
41
1
10
687.621142460231
20
24.201961925812
30
0
41
1
10
687.584893743717
20
24.290744278793
30
0
41
1
10
687.558712646654
20
24.3926061992163
30
0
41
1
10
687.555429709201
20
24.4278624777635
30
0
41
1
10
687.555003423148
20
24.4419810199694
30
0
0
SPLINE
5
14B
100
AcDbEntity
8
1
62
256
6
ByLayer
370
18
48
1
60
0
100
AcDbSpline
70
4
71
1
72
4
73
2
40
0
40
0
40
1
40
1
41
1
10
688.325
20
22.7766387719495
30
0
41
1
10
687.65725
20
24.1335510614993
30
0
0
SPLINE
5
14C
100
AcDbEntity
8
1
62
256
6
ByLayer
370
18
48
1
60
0
100
AcDbSpline
70
4
71
1
72
4
73
2
40
0
40
0
40
1
40
1
41
1
10
687.65725
20
22.9267973886504
30
0
41
1
10
688.325
20
22.3516106251948
30
0
0
SPLINE
5
14D
100
AcDbEntity
8
1
62
256
6
ByLayer
370
18
48
1
60
0
100
AcDbSpline
70
4
71
2
72
6
73
3
40
0
40
0
40
0
40
1
40
1
40
1
41
1
10
687.65725
20
22.5090350955934
30
0
41
1
10
687.56449452426
20
22.7076362690426
30
0
41
1
10
687.555002402522
20
22.8772305165887
30
0
0
SPLINE
5
14E
100
AcDbEntity
8
1
62
256
6
ByLayer
370
18
48
1
60
0
100
AcDbSpline
70
4
71
1
72
4
73
2
40
0
40
0
40
1
40
1
41
1
10
688.325
20
20.8997529695359
30
0
41
1
10
687.65725
20
22.5090350955934
30
0
0
SPLINE
5
14F
100
AcDbEntity
8
1
62
256
6
ByLayer
370
18
48
1
60
0
100
AcDbSpline
70
4
71
1
72
4
73
2
40
0
40
0
40
1
40
1
41
1
10
687.65725
20
20.9719368077126
30
0
41
1
10
688.325
20
20.3440885798798
30
0
0
SPLINE
5
150
100
AcDbEntity
8
1
62
256
6
ByLayer
370
18
48
1
60
0
100
AcDbSpline
70
4
71
2
72
6
73
3
40
0
40
0
40
0
40
1
40
1
40
1
41
1
10
687.65725
20
20.4256727570726
30
0
41
1
10
687.564248120374
20
20.6687947747668
30
0
41
1
10
687.555011360507
20
20.8872087149763
30
0
0
SPLINE
5
151
100
AcDbEntity
8
1
62
256
6
ByLayer
370
18
48
1
60
0
100
AcDbSpline
70
4
71
1
72
4
73
2
40
0
40
0
40
1
40
1
41
1
10
688.325
20
18.3586321419794
30
0
41
1
10
687.65725
20
20.4256727570726
30
0
0
SPLINE
5
152
100
AcDbEntity
8
1
62
256
6
ByLayer
370
18
48
1
60
0
100
AcDbSpline
70
4
71
1
72
4
73
2
40
0
40
0
40
1
40
1
41
1
10
687.65725
20
18.3165319633644
30
0
41
1
10
688.325
20
17.5457307174572
30
0
0
SPLINE
5
153
100
AcDbEntity
8
1
62
256
6
ByLayer
370
18
48
1
60
0
100
AcDbSpline
70
4
71
3
72
10
73
6
40
0
40
0
40
0
40
0
40
0.532327471743739
40
0.83359953448786
40
1
40
1
40
1
40
1
41
1
10
687.65725
20
17.5108818292092
30
0
41
1
10
687.627311546927
20
17.6294758906239
30
0
41
1
10
687.591106560034
20
17.8132325564233
30
0
41
1
10
687.55837156256
20
18.0339234867171
30
0
41
1
10
687.55512048653
20
18.1333189934795
30
0
41
1
10
687.55503138987
20
18.1683939732226
30
0
0
SPLINE
5
154
100
AcDbEntity
8
1
62
256
6
ByLayer
370
18
48
1
60
0
100
AcDbSpline
70
4
71
2
72
6
73
3
40
0
40
0
40
0
40
1
40
1
40
1
41
1
10
688.325
20
14.0532515062547
30
0
41
1
10
688.083904837032
20
15.8059504764765
30
0
41
1
10
687.65725
20
17.5108818292092
30
0
0
SPLINE
5
155
100
AcDbEntity
8
1
62
256
6
ByLayer
370
18
48
1
60
0
100
AcDbSpline
70
4
71
2
72
6
73
3
40
0
40
0
40
0
40
1
40
1
40
1
41
1
10
687.65725
20
13.6668802111449
30
0
41
1
10
688.10370184491
20
12.6513631702044
30
0
41
1
10
688.325
20
11.5414070106083
30
0
0
SPLINE
5
156
100
AcDbEntity
8
1
62
256
6
ByLayer
370
18
48
1
60
0
100
AcDbSpline
70
4
71
3
72
18
73
14
40
0
40
0
40
0
40
0
40
0.009276299903733
40
0.0685629895046597
40
0.0951304196521316
40
0.117592414041043
40
0.133540352750782
40
0.149529937945242
40
0.169950422043758
40
0.205700982088395
40
0.318776697950064
40
0.839906372199448
40
1
40
1
40
1
40
1
41
1
10
687.657249999999
20
6.33311978885365
30
0
41
1
10
687.656530488488
20
6.33143682107186
30
0
41
1
10
687.651090051696
20
6.31911477776053
30
0
41
1
10
687.642732472879
20
6.30239845853794
30
0
41
1
10
687.630691624417
20
6.28643045517876
30
0
41
1
10
687.622113310393
20
6.27928956767536
30
0
41
1
10
687.614212181308
20
6.2768872235331
30
0
41
1
10
687.606874679365
20
6.27847661596425
30
0
41
1
10
687.598465296464
20
6.28562329777544
30
0
41
1
10
687.584596086648
20
6.31111668540311
30
0
41
1
10
687.558360975623
20
6.43609394575521
30
0
41
1
10
687.556219231416
20
6.59494672122966
30
0
41
1
10
687.554724613401
20
6.7302484414268
30
0
41
1
10
687.555022756186
20
6.76225176273286
30
0
0
SPLINE
5
157
100
AcDbEntity
8
1
62
256
6
ByLayer
370
18
48
1
60
0
100
AcDbSpline
70
4
71
2
72
6
73
3
40
0
40
0
40
0
40
1
40
1
40
1
41
1
10
688.325
20
8.45859298939171
30
0
41
1
10
688.10386024345
20
7.34870544058047
30
0
41
1
10
687.65725
20
6.33311978885331
30
0
0
SPLINE
5
158
100
AcDbEntity
8
1
62
256
6
ByLayer
370
18
48
1
60
0
100
AcDbSpline
70
4
71
2
72
6
73
3
40
0
40
0
40
0
40
1
40
1
40
1
41
1
10
687.65725
20
2.48911817079084
30
0
41
1
10
688.083894802745
20
4.19403874183818
30
0
41
1
10
688.325
20
5.94674849374531
30
0
0
SPLINE
5
159
100
AcDbEntity
8
1
62
256
6
ByLayer
370
18
48
1
60
0
100
AcDbSpline
70
4
71
3
72
14
73
10
40
0
40
0
40
0
40
0
40
0.108418701022046
40
0.180167597011026
40
0.252422528712182
40
0.317844072553406
40
0.418649479187734
40
0.607004012533893
40
1
40
1
40
1
40
1
41
1
10
687.657250000027
20
1.6834680366583
30
0
41
1
10
687.64997141586
20
1.67473384661812
30
0
41
1
10
687.637423488915
20
1.66327679644544
30
0
41
1
10
687.6181585045
20
1.65253435141958
30
0
41
1
10
687.602527381034
20
1.6513532955904
30
0
41
1
10
687.587727804689
20
1.65879281236878
30
0
41
1
10
687.57204353882
20
1.68066815158456
30
0
41
1
10
687.557258581185
20
1.73864136829408
30
0
41
1
10
687.552549383968
20
1.79197500555603
30
0
41
1
10
687.555038128083
20
1.83242873118916
30
0
0
SPLINE
5
15A
100
AcDbEntity
8
1
62
256
6
ByLayer
370
18
48
1
60
0
100
AcDbSpline
70
4
71
1
72
4
73
2
40
0
40
0
40
1
40
1
41
1
10
688.325
20
2.45426928254298
30
0
41
1
10
687.65725
20
1.68346803663565
30
0
0
SPLINE
5
15B
100
AcDbEntity
8
1
62
256
6
ByLayer
370
18
48
1
60
0
100
AcDbSpline
70
4
71
1
72
4
73
2
40
0
40
0
40
1
40
1
41
1
10
687.65725
20
-0.425672757072636
30
0
41
1
10
688.325
20
1.64136785802058
30
0
0
SPLINE
5
15C
100
AcDbEntity
8
1
62
256
6
ByLayer
370
18
48
1
60
0
100
AcDbSpline
70
4
71
3
72
14
73
10
40
0
40
0
40
0
40
0
40
0.0783829871389213
40
0.215707446421149
40
0.317812290823093
40
0.419869148103563
40
0.563517127420419
40
0.80979482244843
40
1
40
1
40
1
40
1
41
1
10
687.65725000001
20
-0.971936807707209
30
0
41
1
10
687.652444151996
20
-0.976532492905838
30
0
41
1
10
687.639151691486
20
-0.987710899761605
30
0
41
1
10
687.618336548231
20
-1.00011737567915
30
0
41
1
10
687.597444554273
20
-1.00280079335941
30
0
41
1
10
687.580149715048
20
-0.995355575134005
30
0
41
1
10
687.563926018898
20
-0.972006764513356
30
0
41
1
10
687.556259895161
20
-0.932851065505037
30
0
41
1
10
687.554587480467
20
-0.901180037617161
30
0
41
1
10
687.555017244399
20
-0.886439891231804
30
0
0
SPLINE
5
15D
100
AcDbEntity
8
1
62
256
6
ByLayer
370
18
48
1
60
0
100
AcDbSpline
70
4
71
1
72
4
73
2
40
0
40
0
40
1
40
1
41
1
10
688.325
20
-0.344088579879838
30
0
41
1
10
687.65725
20
-0.971936807712613
30
0
0
SPLINE
5
15E
100
AcDbEntity
8
1
62
256
6
ByLayer
370
18
48
1
60
0
100
AcDbSpline
70
4
71
1
72
4
73
2
40
0
40
0
40
1
40
1
41
1
10
687.65725
20
-2.50903509559339
30
0
41
1
10
688.325
20
-0.89975296953594
30
0
0
SPLINE
5
15F
100
AcDbEntity
8
1
62
256
6
ByLayer
370
18
48
1
60
0
100
AcDbSpline
70
4
71
3
72
13
73
9
40
0
40
0
40
0
40
0
40
0.110242213151682
40
0.282557275529539
40
0.412606166269065
40
0.542428032765901
40
0.733732087688717
40
1
40
1
40
1
40
1
41
1
10
687.657250000004
20
-2.92679738864874
30
0
41
1
10
687.650803050241
20
-2.93247403210656
30
0
41
1
10
687.634460670417
20
-2.94497280167865
30
0
41
1
10
687.609769049183
20
-2.95769618909989
30
0
41
1
10
687.587437063048
20
-2.95847277818458
30
0
41
1
10
687.569985716961
20
-2.94809180578266
30
0
41
1
10
687.557500913943
20
-2.92114314972628
30
0
41
1
10
687.554230160886
20
-2.89508601884137
30
0
41
1
10
687.555002425298
20
-2.87722502087381
30
0
0
SPLINE
5
160
100
AcDbEntity
8
1
62
256
6
ByLayer
370
18
48
1
60
0
100
AcDbSpline
70
4
71
1
72
4
73
2
40
0
40
0
40
1
40
1
41
1
10
688.325
20
-2.35161062519479
30
0
41
1
10
687.65725
20
-2.92679738865035
30
0
0
SPLINE
5
161
100
AcDbEntity
8
1
62
256
6
ByLayer
370
18
48
1
60
0
100
AcDbSpline
70
4
71
1
72
4
73
2
40
0
40
0
40
1
40
1
41
1
10
687.65725
20
-4.13355106149932
30
0
41
1
10
688.325
20
-2.7766387719495
30
0
0
SPLINE
5
162
100
AcDbEntity
8
1
62
256
6
ByLayer
370
18
48
1
60
0
100
AcDbSpline
70
4
71
3
72
13
73
9
40
0
40
0
40
0
40
0
40
0.138853390640372
40
0.3415119959216
40
0.518494759973571
40
0.669260172088965
40
0.905494557461796
40
1
40
1
40
1
40
1
41
1
10
687.657250000002
20
-4.46792259247949
30
0
41
1
10
687.64930360173
20
-4.47465507141358
30
0
41
1
10
687.63025527438
20
-4.48864157914712
30
0
41
1
10
687.60109405941
20
-4.5028441627021
30
0
41
1
10
687.577380561363
20
-4.5015211440536
30
0
41
1
10
687.561214372378
20
-4.48663402933444
30
0
41
1
10
687.55569115143
20
-4.4645423845891
30
0
41
1
10
687.554915850398
20
-4.44722157942562
30
0
41
1
10
687.555003412463
20
-4.44198276189742
30
0
0
SPLINE
5
163
100
AcDbEntity
8
1
62
256
6
ByLayer
370
18
48
1
60
0
100
AcDbSpline
70
4
71
1
72
4
73
2
40
0
40
0
40
1
40
1
41
1
10
688.325
20
-3.91489854524455
30
0
41
1
10
687.65725
20
-4.46792259248008
30
0
0
SPLINE
5
164
100
AcDbEntity
8
1
62
256
6
ByLayer
370
18
48
1
60
0
100
AcDbSpline
70
4
71
1
72
4
73
2
40
0
40
0
40
1
40
1
41
1
10
687.65725
20
-5.44469398185763
30
0
41
1
10
688.325
20
-4.25413560412764
30
0
0
SPLINE
5
165
100
AcDbEntity
8
1
62
256
6
ByLayer
370
18
48
1
60
0
100
AcDbSpline
70
4
71
3
72
13
73
9
40
0
40
0
40
0
40
0
40
0.166242911183046
40
0.360375890725401
40
0.555799720089355
40
0.72431620840731
40
0.963610848020789
40
1
40
1
40
1
40
1
41
1
10
687.657250000001
20
-5.71748954371422
30
0
41
1
10
687.647934269862
20
-5.72525281197121
30
0
41
1
10
687.628418910791
20
-5.73944668095801
30
0
41
1
10
687.598923790555
20
-5.75457914931841
30
0
41
1
10
687.575130693618
20
-5.75607790108602
30
0
41
1
10
687.559249471884
20
-5.74350204864451
30
0
41
1
10
687.555257148099
20
-5.72566448265088
30
0
41
1
10
687.554989085093
20
-5.71294066571699
30
0
41
1
10
687.555000472764
20
-5.71121661911054
30
0
0
SPLINE
5
166
100
AcDbEntity
8
1
62
256
6
ByLayer
370
18
48
1
60
0
100
AcDbSpline
70
4
71
1
72
4
73
2
40
0
40
0
40
1
40
1
41
1
10
688.325
20
-5.17189895868257
30
0
41
1
10
687.65725
20
-5.71748954371448
30
0
0
SPLINE
5
167
100
AcDbEntity
8
1
62
256
6
ByLayer
370
18
48
1
60
0
100
AcDbSpline
70
4
71
1
72
4
73
2
40
0
40
0
40
1
40
1
41
1
10
687.65725
20
-6.51726002636184
30
0
41
1
10
688.325
20
-5.44727371845386
30
0
0
SPLINE
5
168
100
AcDbEntity
8
1
62
256
6
ByLayer
370
18
48
1
60
0
100
AcDbSpline
70
4
71
3
72
12
73
8
40
0
40
0
40
0
40
0
40
0.191366235578255
40
0.400705424394827
40
0.611426159911686
40
0.793354321085252
40
1
40
1
40
1
40
1
41
1
10
687.657250000001
20
-6.74091308655379
30
0
41
1
10
687.646627503722
20
-6.74976679976207
30
0
41
1
10
687.625380799525
20
-6.76537951440781
30
0
41
1
10
687.594288505919
20
-6.78197771862969
30
0
41
1
10
687.570624438789
20
-6.78447230982952
30
0
41
1
10
687.557467676365
20
-6.77295770556105
30
0
41
1
10
687.554735111693
20
-6.75978104624017
30
0
41
1
10
687.555000725937
20
-6.75086350793557
30
0
0
SPLINE
5
169
100
AcDbEntity
8
1
62
256
6
ByLayer
370
18
48
1
60
0
100
AcDbSpline
70
4
71
1
72
4
73
2
40
0
40
0
40
1
40
1
41
1
10
688.325
20
-6.19409258033612
30
0
41
1
10
687.65725
20
-6.74091308655392
30
0
0
SPLINE
5
16A
100
AcDbEntity
8
1
62
256
6
ByLayer
370
18
48
1
60
0
100
AcDbSpline
70
4
71
1
72
4
73
2
40
0
40
0
40
1
40
1
41
1
10
687.65725
20
-7.39543576239674
30
0
41
1
10
688.325
20
-6.41816520945051
30
0
0
SPLINE
5
16B
100
AcDbEntity
8
1
62
256
6
ByLayer
370
18
48
1
60
0
100
AcDbSpline
70
4
71
3
72
12
73
8
40
0
40
0
40
0
40
0
40
0.215086515550326
40
0.437438636713941
40
0.661293538621142
40
0.85384397139677
40
1
40
1
40
1
40
1
41
1
10
687.65725
20
-7.57773774938994
30
0
41
1
10
687.645373678305
20
-7.58773891631783
30
0
41
1
10
687.622562049811
20
-7.60489949765938
30
0
41
1
10
687.590147318654
20
-7.6233332368948
30
0
41
1
10
687.566888680885
20
-7.62711216948835
30
0
41
1
10
687.556591726899
20
-7.61760239620116
30
0
41
1
10
687.554873954984
20
-7.60752823892696
30
0
41
1
10
687.55500147232
20
-7.60224057217712
30
0
0
SPLINE
5
16C
100
AcDbEntity
8
1
62
256
6
ByLayer
370
18
48
1
60
0
100
AcDbSpline
70
4
71
1
72
4
73
2
40
0
40
0
40
1
40
1
41
1
10
688.325
20
-7.02382891680134
30
0
41
1
10
687.65725
20
-7.57773774939001
30
0
0
SPLINE
5
16D
100
AcDbEntity
8
1
62
256
6
ByLayer
370
18
48
1
60
0
100
AcDbSpline
70
4
71
1
72
4
73
2
40
0
40
0
40
1
40
1
41
1
10
687.65725
20
-8.10752583731121
30
0
41
1
10
688.325
20
-7.20447710210302
30
0
0
SPLINE
5
16E
100
AcDbEntity
8
1
62
256
6
ByLayer
370
18
48
1
60
0
100
AcDbSpline
70
4
71
3
72
12
73
8
40
0
40
0
40
0
40
0
40
0.238383637776041
40
0.472578322840656
40
0.708422830413747
40
0.90997065536069
40
1
40
1
40
1
40
1
41
1
10
687.65725
20
-8.25364505519672
30
0
41
1
10
687.644154353144
20
-8.264869634683
30
0
41
1
10
687.619908768226
20
-8.28372529129342
30
0
41
1
10
687.586411318166
20
-8.30431773791959
30
0
41
1
10
687.563744385307
20
-8.30971893287979
30
0
41
1
10
687.555900889281
20
-8.30208168889858
30
0
41
1
10
687.554957692868
20
-8.29459594714974
30
0
41
1
10
687.555000724703
20
-8.29193004056051
30
0
0
SPLINE
5
16F
100
AcDbEntity
8
1
62
256
6
ByLayer
370
18
48
1
60
0
100
AcDbSpline
70
4
71
1
72
4
73
2
40
0
40
0
40
1
40
1
41
1
10
688.325
20
-7.68821267049177
30
0
41
1
10
687.65725
20
-8.25364505519675
30
0
0
SPLINE
5
170
100
AcDbEntity
8
1
62
256
6
ByLayer
370
18
48
1
60
0
100
AcDbSpline
70
4
71
1
72
4
73
2
40
0
40
0
40
1
40
1
41
1
10
687.65725
20
-8.67254129823026
30
0
41
1
10
688.325
20
-7.83064541369053
30
0
0
SPLINE
5
171
100
AcDbEntity
8
1
62
256
6
ByLayer
370
18
48
1
60
0
100
AcDbSpline
70
4
71
3
72
12
73
8
40
0
40
0
40
0
40
0
40
0.261192139426483
40
0.505956728872379
40
0.752535483089762
40
0.961563574781929
40
1
40
1
40
1
40
1
41
1
10
687.65725
20
-8.78601211582401
30
0
41
1
10
687.64295433266
20
-8.79855538998095
30
0
41
1
10
687.617380061953
20
-8.81927142675957
30
0
41
1
10
687.583004380813
20
-8.84234274564285
30
0
41
1
10
687.561085004117
20
-8.84967107224521
30
0
41
1
10
687.555355221632
20
-8.84375319074189
30
0
41
1
10
687.554994103839
20
-8.83838268375013
30
0
41
1
10
687.555000075114
20
-8.83748374082444
30
0
0
SPLINE
5
172
100
AcDbEntity
8
1
62
256
6
ByLayer
370
18
48
1
60
0
100
AcDbSpline
70
4
71
1
72
4
73
2
40
0
40
0
40
1
40
1
41
1
10
688.325
20
-8.20535591425144
30
0
41
1
10
687.65725
20
-8.78601211582404
30
0
0
SPLINE
5
173
100
AcDbEntity
8
1
62
256
6
ByLayer
370
18
48
1
60
0
100
AcDbSpline
70
4
71
1
72
4
73
2
40
0
40
0
40
1
40
1
41
1
10
687.65725
20
-9.10353645583288
30
0
41
1
10
688.325
20
-8.31310458062038
30
0
0
SPLINE
5
174
100
AcDbEntity
8
1
62
256
6
ByLayer
370
18
48
1
60
0
100
AcDbSpline
70
4
71
3
72
12
73
8
40
0
40
0
40
0
40
0
40
0.282977018566565
40
0.536553999364013
40
0.750837094272328
40
0.965613435476439
40
1
40
1
40
1
40
1
41
1
10
687.65725
20
-9.18679088932449
30
0
41
1
10
687.641760186522
20
-9.20076973812444
30
0
41
1
10
687.614943225208
20
-9.2235385350738
30
0
41
1
10
687.581692039334
20
-9.248055497566
30
0
41
1
10
687.561024500697
20
-9.25817561778892
30
0
41
1
10
687.555340370391
20
-9.25564946400454
30
0
41
1
10
687.554996731975
20
-9.2516310044636
30
0
41
1
10
687.555000030128
20
-9.25102334291786
30
0
0
SPLINE
5
175
100
AcDbEntity
8
1
62
256
6
ByLayer
370
18
48
1
60
0
100
AcDbSpline
70
4
71
1
72
4
73
2
40
0
40
0
40
1
40
1
41
1
10
688.325
20
-8.58755229858397
30
0
41
1
10
687.65725
20
-9.1867908893245
30
0
0
SPLINE
5
176
100
AcDbEntity
8
1
62
256
6
ByLayer
370
18
48
1
60
0
100
AcDbSpline
70
4
71
1
72
4
73
2
40
0
40
0
40
1
40
1
41
1
10
687.65725
20
-9.40944130325645
30
0
41
1
10
688.325
20
-8.66300305129683
30
0
0
SPLINE
5
177
100
AcDbEntity
8
1
62
256
6
ByLayer
370
18
48
1
60
0
100
AcDbSpline
70
4
71
3
72
11
73
7
40
0
40
0
40
0
40
0
40
0.304632312554432
40
0.566084194491735
40
0.784880098668191
40
1
40
1
40
1
40
1
41
1
10
687.65725
20
-9.46411154009974
30
0
41
1
10
687.64055915088
20
-9.47966848851918
30
0
41
1
10
687.612558144472
20
-9.50470635390965
30
0
41
1
10
687.578899199237
20
-9.53215697771687
30
0
41
1
10
687.559153228532
20
-9.54457279984122
30
0
41
1
10
687.555154530637
20
-9.54354662175268
30
0
41
1
10
687.555000003065
20
-9.54105133919625
30
0
0
SPLINE
5
178
100
AcDbEntity
8
1
62
256
6
ByLayer
370
18
48
1
60
0
100
AcDbSpline
70
4
71
1
72
4
73
2
40
0
40
0
40
1
40
1
41
1
10
688.325
20
-8.84301507032827
30
0
41
1
10
687.65725
20
-9.46411154009974
30
0
0
SPLINE
5
179
100
AcDbEntity
8
1
62
256
6
ByLayer
370
18
48
1
60
0
100
AcDbSpline
70
4
71
1
72
4
73
2
40
0
40
0
40
1
40
1
41
1
10
687.65725
20
-9.59611487743882
30
0
41
1
10
688.325
20
-8.88770940068411
30
0
0
SPLINE
5
17A
100
AcDbEntity
8
1
62
256
6
ByLayer
370
18
48
1
60
0
100
AcDbSpline
70
4
71
3
72
11
73
7
40
0
40
0
40
0
40
0
40
0.372996890536524
40
0.628682077128601
40
0.886371579237559
40
1
40
1
40
1
40
1
41
1
10
687.65725
20
-9.62320900006476
30
0
41
1
10
687.636507587212
20
-9.64326553465222
30
0
41
1
10
687.606116904081
20
-9.67193828224969
30
0
41
1
10
687.570951690871
20
-9.70342549669861
30
0
41
1
10
687.556864851729
20
-9.71402657109485
30
0
41
1
10
687.55502596866
20
-9.71367060221922
30
0
41
1
10
687.555000044758
20
-9.71300312765091
30
0
0
SPLINE
5
17B
100
AcDbEntity
8
1
62
256
6
ByLayer
370
18
48
1
60
0
100
AcDbSpline
70
4
71
1
72
4
73
2
40
0
40
0
40
1
40
1
41
1
10
688.325
20
-8.97686310823373
30
0
41
1
10
687.65725
20
-9.62320900006475
30
0
0
SPLINE
5
17C
100
AcDbEntity
8
1
62
256
6
ByLayer
370
18
48
1
60
0
100
AcDbSpline
70
4
71
1
72
4
73
2
40
0
40
0
40
1
40
1
41
1
10
687.65725
20
-9.6669526077377
30
0
41
1
10
688.325
20
-8.99166790770802
30
0
0
SPLINE
5
17D
100
AcDbEntity
8
1
62
256
6
ByLayer
370
18
48
1
60
0
100
AcDbSpline
70
4
71
3
72
18
73
14
40
0
40
0
40
0
40
0
40
0.0395444285638332
40
0.678020344594683
40
0.738430857538397
40
0.80171063476715
40
0.823803287789817
40
0.846100958307214
40
0.862570653677241
40
0.87900835852262
40
0.905141278320834
40
0.957073783467112
40
1
40
1
40
1
40
1
41
1
10
687.55502714837
20
13.2759376793496
30
0
41
1
10
687.553140836076
20
13.2832198536353
30
0
41
1
10
687.522476480588
20
13.4078663659639
30
0
41
1
10
687.555777472251
20
13.5499144131867
30
0
41
1
10
687.58352979887
20
13.6807270572552
30
0
41
1
10
687.592010013281
20
13.7042101978319
30
0
41
1
10
687.601643329811
20
13.7175151370386
30
0
41
1
10
687.608716698743
20
13.7224006482298
30
0
41
1
10
687.616167497371
20
13.7228289589986
30
0
41
1
10
687.624105074744
20
13.7194446972966
30
0
41
1
10
687.63541804679
20
13.7086975672441
30
0
41
1
10
687.646658383323
20
13.6898579724799
30
0
41
1
10
687.654218463867
20
13.6743476195543
30
0
41
1
10
687.65725
20
13.6668802111449
30
0
0
SPLINE
5
17E
100
AcDbEntity
8
1
62
256
6
ByLayer
370
18
48
1
60
0
100
AcDbSpline
70
4
71
3
72
13
73
9
40
0
40
0
40
0
40
0
40
0.0811644644508566
40
0.177297495013964
40
0.433856160876728
40
0.690627755607406
40
0.94696712345632
40
1
40
1
40
1
40
1
41
1
10
687.555022756186
20
6.76225176273286
30
0
41
1
10
687.556685354627
20
6.93705563848883
30
0
41
1
10
687.563432827021
20
7.31964644076207
30
0
41
1
10
687.615581614574
20
8.26138031357172
30
0
41
1
10
687.637544089998
20
9.5875328277872
30
0
41
1
10
687.612774682813
20
11.2638807457152
30
0
41
1
10
687.565957676768
20
12.4952205535313
30
0
41
1
10
687.556512388558
20
13.1617837567944
30
0
41
1
10
687.55502714837
20
13.2759376793496
30
0
0
SPLINE
5
17F
100
AcDbEntity
8
1
62
256
6
ByLayer
370
18
48
1
60
0
100
AcDbSpline
70
4
71
3
72
14
73
10
40
0
40
0
40
0
40
0
40
0.287575987652882
40
0.590056088248672
40
0.679730591769908
40
0.750554707084438
40
0.821712627379449
40
0.902192848597151
40
1
40
1
40
1
40
1
41
1
10
687.55503138987
20
18.1683939732226
30
0
41
1
10
687.553750469309
20
18.197258496108
30
0
41
1
10
687.557233909262
20
18.2517247198269
30
0
41
1
10
687.567713507383
20
18.313856914318
30
0
41
1
10
687.588436644206
20
18.341692142686
30
0
41
1
10
687.60287063449
20
18.348791227584
30
0
41
1
10
687.619472193804
20
18.347139223477
30
0
41
1
10
687.638437550164
20
18.3358091771672
30
0
41
1
10
687.65073612068
20
18.3242992137024
30
0
41
1
10
687.65725
20
18.3165319633645
30
0
0
SPLINE
5
180
100
AcDbEntity
8
1
62
256
6
ByLayer
370
18
48
1
60
0
100
AcDbSpline
70
4
71
3
72
10
73
6
40
0
40
0
40
0
40
0
40
0.0927554397792133
40
0.545697818068024
40
1
40
1
40
1
40
1
41
1
10
687.555038128083
20
1.83242873118916
30
0
41
1
10
687.555388989701
20
1.85201580544834
30
0
41
1
10
687.559039956352
20
1.96767873842415
30
0
41
1
10
687.588693640007
20
2.18832206838929
30
0
41
1
10
687.630758281869
20
2.38807119464022
30
0
41
1
10
687.65725
20
2.48911817079081
30
0
0
SPLINE
5
181
100
AcDbEntity
8
1
62
256
6
ByLayer
370
18
48
1
60
0
100
AcDbSpline
70
4
71
3
72
14
73
10
40
0
40
0
40
0
40
0
40
0.134830546589888
40
0.432278571175079
40
0.556416845272016
40
0.681679785607496
40
0.79385915036056
40
0.921826329766848
40
1
40
1
40
1
40
1
41
1
10
687.555011360507
20
20.8872087149763
30
0
41
1
10
687.554794910832
20
20.8975213538897
30
0
41
1
10
687.555917857637
20
20.9291166454892
30
0
41
1
10
687.562018268893
20
20.9678387965237
30
0
41
1
10
687.579160760749
20
20.9943615848698
30
0
41
1
10
687.596635088183
20
21.0032599089765
30
0
41
1
10
687.619157766394
20
20.9997522682054
30
0
41
1
10
687.639812086508
20
20.9871545656549
30
0
41
1
10
687.652478051636
20
20.9764938403015
30
0
41
1
10
687.65725
20
20.9719368077127
30
0
0
SPLINE
5
182
100
AcDbEntity
8
1
62
256
6
ByLayer
370
18
48
1
60
0
100
AcDbSpline
70
4
71
3
72
10
73
6
40
0
40
0
40
0
40
0
40
0.18304833156395
40
0.859515705816223
40
1
40
1
40
1
40
1
41
1
10
687.555017244399
20
-0.886439891231804
30
0
41
1
10
687.555942472327
20
-0.859984397635254
30
0
41
1
10
687.564464988636
20
-0.734665072401818
30
0
41
1
10
687.606509813794
20
-0.574969579747276
30
0
41
1
10
687.649401846816
20
-0.447658817496575
30
0
41
1
10
687.65725
20
-0.425672757072849
30
0
0
SPLINE
5
183
100
AcDbEntity
8
1
62
256
6
ByLayer
370
18
48
1
60
0
100
AcDbSpline
70
4
71
3
72
14
73
10
40
0
40
0
40
0
40
0
40
0.0617078890032941
40
0.263114248683492
40
0.466061522330785
40
0.602372188178126
40
0.739176880901696
40
0.869036933416249
40
1
40
1
40
1
40
1
41
1
10
687.555002402522
20
22.8772305165887
30
0
41
1
10
687.554969421878
20
22.8811445502882
30
0
41
1
10
687.555292053417
20
22.8974714445143
30
0
41
1
10
687.55859860252
20
22.9245618991858
30
0
41
1
10
687.570451001359
20
22.9490076024356
30
0
41
1
10
687.58946102734
20
22.959120570745
30
0
41
1
10
687.610946039811
20
22.956830747443
30
0
41
1
10
687.634417727209
20
22.9448783803618
30
0
41
1
10
687.649564454984
20
22.9335762274619
30
0
41
1
10
687.65725
20
22.9267973886504
30
0
0
SPLINE
5
184
100
AcDbEntity
8
1
62
256
6
ByLayer
370
18
48
1
60
0
100
AcDbSpline
70
4
71
3
72
10
73
6
40
0
40
0
40
0
40
0
40
0.0340274245099611
40
0.415044787858732
40
1
40
1
40
1
40
1
41
1
10
687.555002425298
20
-2.87722502087381
30
0
41
1
10
687.555036900652
20
-2.87353910695195
30
0
41
1
10
687.55598463012
20
-2.82832243094885
30
0
41
1
10
687.58089688564
20
-2.70529623323447
30
0
41
1
10
687.622322050846
20
-2.585293665942
30
0
41
1
10
687.65725
20
-2.50903509559341
30
0
0
SPLINE
5
185
100
AcDbEntity
8
1
62
256
6
ByLayer
370
18
48
1
60
0
100
AcDbSpline
70
4
71
3
72
13
73
9
40
0
40
0
40
0
40
0
40
0.106322020951522
40
0.308092026541327
40
0.511861720184116
40
0.687387669813752
40
0.838178876361637
40
1
40
1
40
1
40
1
41
1
10
687.555003423148
20
24.4419810199694
30
0
41
1
10
687.554902748484
20
24.4478807434843
30
0
41
1
10
687.5557309423
20
24.4639528573804
30
0
41
1
10
687.561449200833
20
24.4873359995496
30
0
41
1
10
687.578391104752
20
24.5028448339463
30
0
41
1
10
687.603424866665
20
24.501489161909
30
0
41
1
10
687.630477830277
20
24.4883501757058
30
0
41
1
10
687.647958903935
20
24.4758016130345
30
0
41
1
10
687.65725
20
24.4679225924802
30
0
0
SPLINE
5
186
100
AcDbEntity
8
1
62
256
6
ByLayer
370
18
48
1
60
0
100
AcDbSpline
70
4
71
3
72
10
73
6
40
0
40
0
40
0
40
0
40
0.192958189275739
40
0.662877134872448
40
1
40
1
40
1
40
1
41
1
10
687.555003412463
20
-4.44198276189742
30
0
41
1
10
687.555775357579
20
-4.42474685352108
30
0
41
1
10
687.562247184345
20
-4.36383708387139
30
0
41
1
10
687.599082328815
20
-4.25621962198064
30
0
41
1
10
687.638177661418
20
-4.1703207309281
30
0
41
1
10
687.65725
20
-4.1335510614993
30
0
0
SPLINE
5
187
100
AcDbEntity
8
1
62
256
6
ByLayer
370
18
48
1
60
0
100
AcDbSpline
70
4
71
1
72
4
73
2
40
0
40
0
40
1
40
1
41
1
10
685.58856405781
20
27.9823344634338
30
0
41
1
10
686.059042705207
20
27.6606414815844
30
0
0
SPLINE
5
188
100
AcDbEntity
8
1
62
256
6
ByLayer
370
18
48
1
60
0
100
AcDbSpline
70
4
71
3
72
10
73
6
40
0
40
0
40
0
40
0
40
0.230543928052923
40
0.670249368460683
40
1
40
1
40
1
40
1
41
1
10
687.555000472764
20
-5.71121661911054
30
0
41
1
10
687.555973870088
20
-5.69419269510227
30
0
41
1
10
687.563390370997
20
-5.64240940263118
30
0
41
1
10
687.601280134767
20
-5.54839800088897
30
0
41
1
10
687.638677503405
20
-5.4764629670545
30
0
41
1
10
687.65725
20
-5.44469398185762
30
0
0
SPLINE
5
189
100
AcDbEntity
8
1
62
256
6
ByLayer
370
18
48
1
60
0
100
AcDbSpline
70
4
71
3
72
13
73
9
40
0
40
0
40
0
40
0
40
0.156938698583122
40
0.349316531427305
40
0.54311349397554
40
0.714312677860236
40
0.930589975771545
40
1
40
1
40
1
40
1
41
1
10
687.555008535533
20
25.7101151220355
30
0
41
1
10
687.554764424077
20
25.7178825742427
30
0
41
1
10
687.556326840231
20
25.7330199523803
30
0
41
1
10
687.565117235662
20
25.7510191699905
30
0
41
1
10
687.58431428651
20
25.7571096349773
30
0
41
1
10
687.612372194197
20
25.74899564906
30
0
41
1
10
687.63767922616
20
25.7329360348716
30
0
41
1
10
687.653396743984
20
25.72066053656
30
0
41
1
10
687.657250000002
20
25.7174895437139
30
0
0
SPLINE
5
18A
100
AcDbEntity
8
1
62
256
6
ByLayer
370
18
48
1
60
0
100
AcDbSpline
70
4
71
3
72
13
73
9
40
0
40
0
40
0
40
0
40
0.166744196503615
40
0.333420031538872
40
0.499708238098188
40
0.666788419012119
40
0.833481745095767
40
1
40
1
40
1
40
1
41
1
10
686
20
30
30
0
41
1
10
686.013888457047
20
30.0001446679326
30
0
41
1
10
686.040809370023
20
29.9563759930653
30
0
41
1
10
686.081529017272
20
29.7589906768711
30
0
41
1
10
686.113891272851
20
29.429034237404
30
0
41
1
10
686.129761424671
20
28.9688797048096
30
0
41
1
10
686.12080668402
20
28.3809419195362
30
0
41
1
10
686.083967273989
20
27.9137582978012
30
0
41
1
10
686.059042705207
20
27.6606414815844
30
0
0
SPLINE
5
18B
100
AcDbEntity
8
1
62
256
6
ByLayer
370
18
48
1
60
0
100
AcDbSpline
70
4
71
3
72
13
73
9
40
0
40
0
40
0
40
0
40
0.0632694644458563
40
0.276663840458684
40
0.491667190860551
40
0.676297285291558
40
0.91134629009814
40
1
40
1
40
1
40
1
41
1
10
687.555000929875
20
26.7508182535806
30
0
41
1
10
687.554969985234
20
26.7534297023435
30
0
41
1
10
687.55550091994
20
26.7641829123098
30
0
41
1
10
687.560935326728
20
26.779474812584
30
0
41
1
10
687.579425426929
20
26.7851478318844
30
0
41
1
10
687.607960906402
20
26.7759274024369
30
0
41
1
10
687.635043745723
20
26.7584802199497
30
0
41
1
10
687.652419939031
20
26.744896680266
30
0
41
1
10
687.657250000006
20
26.7409130865523
30
0
0
SPLINE
5
18C
100
AcDbEntity
8
1
62
256
6
ByLayer
370
18
48
1
60
0
100
AcDbSpline
70
4
71
3
72
11
73
7
40
0
40
0
40
0
40
0
40
0.0302362271658171
40
0.300567593954797
40
0.740596753790229
40
1
40
1
40
1
40
1
41
1
10
687.555000725937
20
-6.75086350793557
30
0
41
1
10
687.555017361135
20
-6.74914775195934
30
0
41
1
10
687.555575568672
20
-6.73180460224578
30
0
41
1
10
687.569149254964
20
-6.67899541701223
30
0
41
1
10
687.607837049872
20
-6.59850274158732
30
0
41
1
10
687.642867396602
20
-6.53960354190218
30
0
41
1
10
687.65725
20
-6.51726002636183
30
0
0
SPLINE
5
18D
100
AcDbEntity
8
1
62
256
6
ByLayer
370
18
48
1
60
0
100
AcDbSpline
70
4
71
3
72
13
73
9
40
0
40
0
40
0
40
0
40
0.0212809377381021
40
0.23856138611225
40
0.457168607694745
40
0.649648659773639
40
0.903508497126216
40
1
40
1
40
1
40
1
41
1
10
687.555000081396
20
27.602545625745
30
0
41
1
10
687.55499712244
20
27.6032852321386
30
0
41
1
10
687.555161987586
20
27.6113772392832
30
0
41
1
10
687.559253003597
20
27.6236047693758
30
0
41
1
10
687.57688156024
20
27.6269244451721
30
0
41
1
10
687.605349565434
20
27.6158580447934
30
0
41
1
10
687.633524661658
20
27.5968329280772
30
0
41
1
10
687.65205242859
20
27.5820731962956
30
0
41
1
10
687.657250000005
20
27.5777377493884
30
0
0
SPLINE
5
18E
100
AcDbEntity
8
1
62
256
6
ByLayer
370
18
48
1
60
0
100
AcDbSpline
70
4
71
3
72
11
73
7
40
0
40
0
40
0
40
0
40
0.0812329922284172
40
0.361133281662969
40
0.796537058091863
40
1
40
1
40
1
40
1
41
1
10
687.55500147232
20
-7.60224057217712
30
0
41
1
10
687.555099462372
20
-7.59845045496553
30
0
41
1
10
687.556719074078
20
-7.58070970344701
30
0
41
1
10
687.574802179399
20
-7.52948365584925
30
0
41
1
10
687.613632517066
20
-7.46032676941391
30
0
41
1
10
687.646115482642
20
-7.4113458694242
30
0
41
1
10
687.65725
20
-7.39543576239673
30
0
0
SPLINE
5
18F
100
AcDbEntity
8
1
62
256
6
ByLayer
370
18
48
1
60
0
100
AcDbSpline
70
4
71
3
72
11
73
7
40
0
40
0
40
0
40
0
40
0.130632392229598
40
0.41554868263128
40
0.84341341881049
40
1
40
1
40
1
40
1
41
1
10
687.555000724703
20
-8.29193004056051
30
0
41
1
10
687.555219444984
20
-8.28697358958151
30
0
41
1
10
687.55799512545
20
-8.26958490314422
30
0
41
1
10
687.580249725646
20
-8.22019444494554
30
0
41
1
10
687.618700276632
20
-8.16011893874937
30
0
41
1
10
687.648761892694
20
-8.11879078300271
30
0
41
1
10
687.65725
20
-8.10752583731118
30
0
0
SPLINE
5
190
100
AcDbEntity
8
1
62
256
6
ByLayer
370
18
48
1
60
0
100
AcDbSpline
70
4
71
3
72
12
73
8
40
0
40
0
40
0
40
0
40
0.20398210121569
40
0.42289203830104
40
0.621225759785534
40
0.890379488772094
40
1
40
1
40
1
40
1
41
1
10
687.555000066086
20
28.292086575487
30
0
41
1
10
687.554897963952
20
28.2983003785211
30
0
41
1
10
687.558176529177
20
28.3071735753694
30
0
41
1
10
687.574243124086
20
28.3084735293176
30
0
41
1
10
687.602275393742
20
28.2955987473305
30
0
41
1
10
687.631553976018
20
28.2748245964975
30
0
41
1
10
687.651377526233
20
28.258638471764
30
0
41
1
10
687.657250000007
20
28.2536450551943
30
0
0
SPLINE
5
191
100
AcDbEntity
8
1
62
256
6
ByLayer
370
18
48
1
60
0
100
AcDbSpline
70
4
71
3
72
12
73
8
40
0
40
0
40
0
40
0
40
0.171820385506433
40
0.389124108028992
40
0.591678114719865
40
0.87362273935053
40
1
40
1
40
1
40
1
41
1
10
687.555000312325
20
28.8374254774192
30
0
41
1
10
687.554945951919
20
28.8415859421234
30
0
41
1
10
687.557566085496
20
28.8479456508417
30
0
41
1
10
687.571645644365
20
28.8471547875957
30
0
41
1
10
687.598948282838
20
28.8325246100648
30
0
41
1
10
687.629289303415
20
28.8097517340527
30
0
41
1
10
687.650490893341
20
28.7919055473377
30
0
41
1
10
687.657250000011
20
28.7860121158195
30
0
0
SPLINE
5
192
100
AcDbEntity
8
1
62
256
6
ByLayer
370
18
48
1
60
0
100
AcDbSpline
70
4
71
3
72
11
73
7
40
0
40
0
40
0
40
0
40
0.143406160135573
40
0.416179409660797
40
0.813457131819859
40
1
40
1
40
1
40
1
41
1
10
687.555000075114
20
-8.83748374082444
30
0
41
1
10
687.555218734815
20
-8.83325591120732
30
0
41
1
10
687.558158421245
20
-8.81907430867186
30
0
41
1
10
687.579864871634
20
-8.77720679856757
30
0
41
1
10
687.617427602227
20
-8.72327472297275
30
0
41
1
10
687.647143977536
20
-8.685075854437
30
0
41
1
10
687.65725
20
-8.67254129822988
30
0
0
SPLINE
5
193
100
AcDbEntity
8
1
62
256
6
ByLayer
370
18
48
1
60
0
100
AcDbSpline
70
4
71
3
72
12
73
8
40
0
40
0
40
0
40
0
40
0.0937750043520828
40
0.31507929396434
40
0.520086113400947
40
0.799364997268696
40
1
40
1
40
1
40
1
41
1
10
687.555000241862
20
29.250975551376
30
0
41
1
10
687.554980723118
20
29.252660330552
30
0
41
1
10
687.556166673441
20
29.2569820460955
30
0
41
1
10
687.56547045096
20
29.256718152267
30
0
41
1
10
687.58977541185
20
29.2426519312952
30
0
41
1
10
687.621987058706
20
29.2176386678643
30
0
41
1
10
687.646436280983
20
29.1965225182805
30
0
41
1
10
687.65725
20
29.1867908893245
30
0
0
SPLINE
5
194
100
AcDbEntity
8
1
62
256
6
ByLayer
370
18
48
1
60
0
100
AcDbSpline
70
4
71
3
72
11
73
7
40
0
40
0
40
0
40
0
40
0.151510210552067
40
0.411847092875986
40
0.780628591293493
40
1
40
1
40
1
40
1
41
1
10
687.555000030128
20
-9.25102334291786
30
0
41
1
10
687.555213291713
20
-9.2477351167947
30
0
41
1
10
687.558226651058
20
-9.23665903435811
30
0
41
1
10
687.579017327131
20
-9.2017481251854
30
0
41
1
10
687.61576248758
20
-9.1531383553435
30
0
41
1
10
687.645364287079
20
-9.11740787226612
30
0
41
1
10
687.65725
20
-9.10353645583037
30
0
0
SPLINE
5
195
100
AcDbEntity
8
1
62
256
6
ByLayer
370
18
48
1
60
0
100
AcDbSpline
70
4
71
3
72
12
73
8
40
0
40
0
40
0
40
0
40
0.0805814427706166
40
0.29485663648646
40
0.50142459823628
40
0.795507813486137
40
1
40
1
40
1
40
1
41
1
10
687.555000074588
20
29.5410298872621
30
0
41
1
10
687.554994909587
20
29.5419980562034
30
0
41
1
10
687.555997909948
20
29.5444659198811
30
0
41
1
10
687.564538790173
20
29.541741577563
30
0
41
1
10
687.588322652416
20
29.524900506125
30
0
41
1
10
687.620983720608
20
29.4972337835865
30
0
41
1
10
687.646251711464
20
29.4743399506937
30
0
41
1
10
687.65725
20
29.4641115400998
30
0
0
SPLINE
5
196
100
AcDbEntity
8
1
62
256
6
ByLayer
370
18
48
1
60
0
100
AcDbSpline
70
4
71
3
72
12
73
8
40
0
40
0
40
0
40
0
40
0.0040678379005887
40
0.19325918499378
40
0.453930994611946
40
0.81650393693012
40
1
40
1
40
1
40
1
41
1
10
687.555000003065
20
-9.54105133919625
30
0
41
1
10
687.555000102346
20
-9.54099889870499
30
0
41
1
10
687.555041908087
20
-9.53847157887515
30
0
41
1
10
687.559763366211
20
-9.52789585264465
30
0
41
1
10
687.583394766297
20
-9.49495344004907
30
0
41
1
10
687.61968179993
20
-9.45158504235235
30
0
41
1
10
687.64738507519
20
-9.42034969432169
30
0
41
1
10
687.657250000001
20
-9.40944130325363
30
0
0
SPLINE
5
197
100
AcDbEntity
8
1
62
256
6
ByLayer
370
18
48
1
60
0
100
AcDbSpline
70
4
71
3
72
12
73
8
40
0
40
0
40
0
40
0
40
0.101897259976048
40
0.309477308976144
40
0.520977748882323
40
0.843702230847008
40
1
40
1
40
1
40
1
41
1
10
687.555000029089
20
29.7130051391009
30
0
41
1
10
687.555013028712
20
29.7136125625675
30
0
41
1
10
687.556404817248
20
29.7140568873087
30
0
41
1
10
687.566369579928
20
29.7070410064692
30
0
41
1
10
687.591854792125
20
29.6849792726466
30
0
41
1
10
687.624433074224
20
29.6546523938096
30
0
41
1
10
687.648908641859
20
29.6312544707722
30
0
41
1
10
687.657250000007
20
29.6232090000593
30
0
0
SPLINE
5
198
100
AcDbEntity
8
1
62
256
6
ByLayer
370
18
48
1
60
0
100
AcDbSpline
70
4
71
3
72
12
73
8
40
0
40
0
40
0
40
0
40
0.101523682145582
40
0.298670259603669
40
0.579960061486642
40
0.971009684659175
40
1
40
1
40
1
40
1
41
1
10
687.555000044759
20
-9.71300312765091
30
0
41
1
10
687.555046733676
20
-9.71231267483559
30
0
41
1
10
687.556492157933
20
-9.70900030756411
30
0
41
1
10
687.567719690897
20
-9.69419133944743
30
0
41
1
10
687.599047395785
20
-9.6582641268284
30
0
41
1
10
687.633679505406
20
-9.62096907240589
30
0
41
1
10
687.655717722443
20
-9.59772828635616
30
0
41
1
10
687.65725
20
-9.59611487743883
30
0
0
INSERT
5
1DD
100
AcDbEntity
8
SK2
62
256
6
ByLayer
370
25
48
1
60
0
100
AcDbBlockReference
2
DimnDraft3D66
10
0
20
0
30
0
41
1
42
1
43
1
50
0
210
0
220
0
230
1
0
LINE
5
70
100
AcDbEntity
8
81
62
256
6
ByLayer
370
18
48
1
60
0
100
AcDbLine
10
688
20
10
30
0
11
756.8
21
10
31
0
39
0
210
0
220
0
230
1
0
LINE
5
71
100
AcDbEntity
8
4
62
256
6
ByLayer
370
18
48
0.05
60
0
100
AcDbLine
10
0
20
0
30
0
11
688
21
0
31
0
39
0
210
0
220
0
230
1
0
LINE
5
73
100
AcDbEntity
8
SK4
62
256
6
ByLayer
370
18
48
0.05
60
0
100
AcDbLine
10
-280
20
0
30
0
11
695
21
0
31
0
39
0
210
0
220
0
230
1
0
LINE
5
75
100
AcDbEntity
8
80
62
256
6
ByLayer
370
18
48
1
60
0
100
AcDbLine
10
0
20
0
30
0
11
-68.8
21
0
31
0
39
0
210
0
220
0
230
1
0
LINE
5
76
100
AcDbEntity
8
SK1
62
256
6
ByLayer
370
18
48
1
60
0
100
AcDbLine
10
-112.5
20
-30
30
0
11
-52.5
21
-30
31
0
39
0
210
0
220
0
230
1
0
LINE
5
78
100
AcDbEntity
8
SK1
62
256
6
ByLayer
370
18
48
1
60
0
100
AcDbLine
10
-52.5
20
30
30
0
11
-112.5
21
30
31
0
39
0
210
0
220
0
230
1
0
LINE
5
79
100
AcDbEntity
8
SK1
62
256
6
ByLayer
370
18
48
1
60
0
100
AcDbLine
10
696.5
20
5.100505
30
0
11
690.5
21
5.100505
31
0
39
0
210
0
220
0
230
1
0
LINE
5
7A
100
AcDbEntity
8
SK1
62
256
6
ByLayer
370
18
48
1
60
0
100
AcDbLine
10
690.5
20
-4.899495
30
0
11
696.5
21
-4.899495
31
0
39
0
210
0
220
0
230
1
0
LINE
5
7B
100
AcDbEntity
8
SK1
62
256
6
ByLayer
370
18
48
1
60
0
100
AcDbLine
10
690.5
20
3.100505
30
0
11
688.325
21
3.100505
31
0
39
0
210
0
220
0
230
1
0
LINE
5
7C
100
AcDbEntity
8
SK1
62
256
6
ByLayer
370
18
48
1
60
0
100
AcDbLine
10
688.325
20
-2.899495
30
0
11
690.5
21
-2.899495
31
0
39
0
210
0
220
0
230
1
0
LINE
5
7D
100
AcDbEntity
8
1
62
256
6
ByLayer
370
18
48
1
60
0
100
AcDbLine
10
7.5
20
-30
30
0
11
67.5
21
-30
31
0
39
0
210
0
220
0
230
1
0
LINE
5
7F
100
AcDbEntity
8
1
62
256
6
ByLayer
370
18
48
1
60
0
100
AcDbLine
10
67.5
20
30
30
0
11
7.5
21
30
31
0
39
0
210
0
220
0
230
1
0
LINE
5
80
100
AcDbEntity
8
SK1
62
256
6
ByLayer
370
18
48
1
60
0
100
AcDbLine
10
-112.5
20
30
30
0
11
-232.5
21
30
31
0
39
0
210
0
220
0
230
1
0
LINE
5
81
100
AcDbEntity
8
SK1
62
256
6
ByLayer
370
18
48
1
60
0
100
AcDbLine
10
-232.5
20
-30
30
0
11
-112.5
21
-30
31
0
39
0
210
0
220
0
230
1
0
LINE
5
82
100
AcDbEntity
8
1
62
256
6
ByLayer
370
18
48
1
60
0
100
AcDbLine
10
686
20
30
30
0
11
684.2
21
30
31
0
39
0
210
0
220
0
230
1
0
LINE
5
83
100
AcDbEntity
8
1
62
256
6
ByLayer
370
18
48
1
60
0
100
AcDbLine
10
684.2
20
-30
30
0
11
685.5
21
-30
31
0
39
0
210
0
220
0
230
1
0
LINE
5
84
100
AcDbEntity
8
1
62
256
6
ByLayer
370
18
48
1
60
0
100
AcDbLine
10
685.5
20
-30
30
0
11
686
21
-29.5
31
0
39
0
210
0
220
0
230
1
0
LINE
5
85
100
AcDbEntity
8
1
62
256
6
ByLayer
370
18
48
1
60
0
100
AcDbLine
10
687
20
-10
30
0
11
687.325
21
-10
31
0
39
0
210
0
220
0
230
1
0
LINE
5
86
100
AcDbEntity
8
1
62
256
6
ByLayer
370
18
48
1
60
0
100
AcDbLine
10
687.325
20
30
30
0
11
686
21
30
31
0
39
0
210
0
220
0
230
1
0
LINE
5
87
100
AcDbEntity
8
1
62
256
6
ByLayer
370
18
48
1
60
0
100
AcDbLine
10
687.325
20
-10
30
0
11
687.556678
21
-9.768322
31
0
39
0
210
0
220
0
230
1
0
LINE
5
88
100
AcDbEntity
8
1
62
256
6
ByLayer
370
18
48
1
60
0
100
AcDbLine
10
687.556678
20
29.768322
30
0
11
687.325
21
30
31
0
39
0
210
0
220
0
230
1
0
LINE
5
89
100
AcDbEntity
8
1
62
256
6
ByLayer
370
18
48
1
60
0
100
AcDbLine
10
687.65725
20
13.66688
30
0
11
687.65725
21
6.33312
31
0
39
0
210
0
220
0
230
1
0
LINE
5
8A
100
AcDbEntity
8
1
62
256
6
ByLayer
370
18
48
1
60
0
100
AcDbLine
10
688.325
20
11.541407
30
0
11
688.325
21
8.458593
31
0
39
0
210
0
220
0
230
1
0
LINE
5
8B
100
AcDbEntity
8
1
62
256
6
ByLayer
370
18
48
1
60
0
100
AcDbLine
10
687.65725
20
18.316532
30
0
11
687.65725
21
17.510882
31
0
39
0
210
0
220
0
230
1
0
LINE
5
8C
100
AcDbEntity
8
1
62
256
6
ByLayer
370
18
48
1
60
0
100
AcDbLine
10
687.65725
20
2.489118
30
0
11
687.65725
21
1.683468
31
0
39
0
210
0
220
0
230
1
0
LINE
5
8D
100
AcDbEntity
8
1
62
256
6
ByLayer
370
18
48
1
60
0
100
AcDbLine
10
688.325
20
17.545731
30
0
11
688.325
21
14.053252
31
0
39
0
210
0
220
0
230
1
0
LINE
5
8E
100
AcDbEntity
8
1
62
256
6
ByLayer
370
18
48
1
60
0
100
AcDbLine
10
688.325
20
5.946748
30
0
11
688.325
21
2.454269
31
0
39
0
210
0
220
0
230
1
0
LINE
5
8F
100
AcDbEntity
8
1
62
256
6
ByLayer
370
18
48
1
60
0
100
AcDbLine
10
687.65725
20
20.971937
30
0
11
687.65725
21
20.425673
31
0
39
0
210
0
220
0
230
1
0
LINE
5
90
100
AcDbEntity
8
1
62
256
6
ByLayer
370
18
48
1
60
0
100
AcDbLine
10
687.65725
20
-0.425673
30
0
11
687.65725
21
-0.971937
31
0
39
0
210
0
220
0
230
1
0
LINE
5
91
100
AcDbEntity
8
1
62
256
6
ByLayer
370
18
48
1
60
0
100
AcDbLine
10
688.325
20
20.344089
30
0
11
688.325
21
18.358632
31
0
39
0
210
0
220
0
230
1
0
LINE
5
92
100
AcDbEntity
8
1
62
256
6
ByLayer
370
18
48
1
60
0
100
AcDbLine
10
688.325
20
1.641368
30
0
11
688.325
21
-0.344089
31
0
39
0
210
0
220
0
230
1
0
LINE
5
93
100
AcDbEntity
8
1
62
256
6
ByLayer
370
18
48
1
60
0
100
AcDbLine
10
687.65725
20
22.926797
30
0
11
687.65725
21
22.509035
31
0
39
0
210
0
220
0
230
1
0
LINE
5
94
100
AcDbEntity
8
1
62
256
6
ByLayer
370
18
48
1
60
0
100
AcDbLine
10
687.65725
20
-2.509035
30
0
11
687.65725
21
-2.926797
31
0
39
0
210
0
220
0
230
1
0
LINE
5
95
100
AcDbEntity
8
1
62
256
6
ByLayer
370
18
48
1
60
0
100
AcDbLine
10
688.325
20
22.351611
30
0
11
688.325
21
20.899753
31
0
39
0
210
0
220
0
230
1
0
LINE
5
96
100
AcDbEntity
8
1
62
256
6
ByLayer
370
18
48
1
60
0
100
AcDbLine
10
688.325
20
-0.899753
30
0
11
688.325
21
-2.351611
31
0
39
0
210
0
220
0
230
1
0
LINE
5
97
100
AcDbEntity
8
1
62
256
6
ByLayer
370
18
48
1
60
0
100
AcDbLine
10
687.65725
20
24.467923
30
0
11
687.65725
21
24.133551
31
0
39
0
210
0
220
0
230
1
0
LINE
5
98
100
AcDbEntity
8
1
62
256
6
ByLayer
370
18
48
1
60
0
100
AcDbLine
10
687.65725
20
-4.133551
30
0
11
687.65725
21
-4.467923
31
0
39
0
210
0
220
0
230
1
0
LINE
5
99
100
AcDbEntity
8
1
62
256
6
ByLayer
370
18
48
1
60
0
100
AcDbLine
10
688.325
20
23.914899
30
0
11
688.325
21
22.776639
31
0
39
0
210
0
220
0
230
1
0
LINE
5
9A
100
AcDbEntity
8
1
62
256
6
ByLayer
370
18
48
1
60
0
100
AcDbLine
10
688.325
20
-2.776639
30
0
11
688.325
21
-3.914899
31
0
39
0
210
0
220
0
230
1
0
LINE
5
9B
100
AcDbEntity
8
1
62
256
6
ByLayer
370
18
48
1
60
0
100
AcDbLine
10
687.65725
20
-5.444694
30
0
11
687.65725
21
-5.71749
31
0
39
0
210
0
220
0
230
1
0
LINE
5
9C
100
AcDbEntity
8
1
62
256
6
ByLayer
370
18
48
1
60
0
100
AcDbLine
10
687.65725
20
25.71749
30
0
11
687.65725
21
25.444694
31
0
39
0
210
0
220
0
230
1
0
LINE
5
9D
100
AcDbEntity
8
1
62
256
6
ByLayer
370
18
48
1
60
0
100
AcDbLine
10
688.325
20
-4.254136
30
0
11
688.325
21
-5.171899
31
0
39
0
210
0
220
0
230
1
0
LINE
5
9E
100
AcDbEntity
8
1
62
256
6
ByLayer
370
18
48
1
60
0
100
AcDbLine
10
688.325
20
25.171899
30
0
11
688.325
21
24.254136
31
0
39
0
210
0
220
0
230
1
0
LINE
5
9F
100
AcDbEntity
8
1
62
256
6
ByLayer
370
18
48
1
60
0
100
AcDbLine
10
687.65725
20
26.740913
30
0
11
687.65725
21
26.51726
31
0
39
0
210
0
220
0
230
1
0
LINE
5
A0
100
AcDbEntity
8
1
62
256
6
ByLayer
370
18
48
1
60
0
100
AcDbLine
10
687.65725
20
-6.51726
30
0
11
687.65725
21
-6.740913
31
0
39
0
210
0
220
0
230
1
0
LINE
5
A1
100
AcDbEntity
8
1
62
256
6
ByLayer
370
18
48
1
60
0
100
AcDbLine
10
688.325
20
-5.447274
30
0
11
688.325
21
-6.194093
31
0
39
0
210
0
220
0
230
1
0
LINE
5
A2
100
AcDbEntity
8
1
62
256
6
ByLayer
370
18
48
1
60
0
100
AcDbLine
10
688.325
20
26.194093
30
0
11
688.325
21
25.447274
31
0
39
0
210
0
220
0
230
1
0
LINE
5
A3
100
AcDbEntity
8
1
62
256
6
ByLayer
370
18
48
1
60
0
100
AcDbLine
10
687.65725
20
27.577738
30
0
11
687.65725
21
27.395436
31
0
39
0
210
0
220
0
230
1
0
LINE
5
A4
100
AcDbEntity
8
1
62
256
6
ByLayer
370
18
48
1
60
0
100
AcDbLine
10
687.65725
20
-7.395436
30
0
11
687.65725
21
-7.577738
31
0
39
0
210
0
220
0
230
1
0
LINE
5
A5
100
AcDbEntity
8
1
62
256
6
ByLayer
370
18
48
1
60
0
100
AcDbLine
10
688.325
20
27.023829
30
0
11
688.325
21
26.418165
31
0
39
0
210
0
220
0
230
1
0
LINE
5
A6
100
AcDbEntity
8
1
62
256
6
ByLayer
370
18
48
1
60
0
100
AcDbLine
10
688.325
20
-6.418165
30
0
11
688.325
21
-7.023829
31
0
39
0
210
0
220
0
230
1
0
LINE
5
A7
100
AcDbEntity
8
1
62
256
6
ByLayer
370
18
48
1
60
0
100
AcDbLine
10
687.65725
20
-8.107526
30
0
11
687.65725
21
-8.253645
31
0
39
0
210
0
220
0
230
1
0
LINE
5
A8
100
AcDbEntity
8
1
62
256
6
ByLayer
370
18
48
1
60
0
100
AcDbLine
10
687.65725
20
28.253645
30
0
11
687.65725
21
28.107526
31
0
39
0
210
0
220
0
230
1
0
LINE
5
A9
100
AcDbEntity
8
1
62
256
6
ByLayer
370
18
48
1
60
0
100
AcDbLine
10
688.325
20
-7.204477
30
0
11
688.325
21
-7.688213
31
0
39
0
210
0
220
0
230
1
0
LINE
5
AA
100
AcDbEntity
8
1
62
256
6
ByLayer
370
18
48
1
60
0
100
AcDbLine
10
688.325
20
27.688213
30
0
11
688.325
21
27.204477
31
0
39
0
210
0
220
0
230
1
0
LINE
5
AB
100
AcDbEntity
8
1
62
256
6
ByLayer
370
18
48
1
60
0
100
AcDbLine
10
687.65725
20
28.786012
30
0
11
687.65725
21
28.672541
31
0
39
0
210
0
220
0
230
1
0
LINE
5
AC
100
AcDbEntity
8
1
62
256
6
ByLayer
370
18
48
1
60
0
100
AcDbLine
10
687.65725
20
-8.672541
30
0
11
687.65725
21
-8.786012
31
0
39
0
210
0
220
0
230
1
0
LINE
5
AD
100
AcDbEntity
8
1
62
256
6
ByLayer
370
18
48
1
60
0
100
AcDbLine
10
688.325
20
28.205356
30
0
11
688.325
21
27.830645
31
0
39
0
210
0
220
0
230
1
0
LINE
5
AE
100
AcDbEntity
8
1
62
256
6
ByLayer
370
18
48
1
60
0
100
AcDbLine
10
688.325
20
-7.830645
30
0
11
688.325
21
-8.205356
31
0
39
0
210
0
220
0
230
1
0
LINE
5
AF
100
AcDbEntity
8
1
62
256
6
ByLayer
370
18
48
1
60
0
100
AcDbLine
10
687.65725
20
29.186791
30
0
11
687.65725
21
29.103536
31
0
39
0
210
0
220
0
230
1
0
LINE
5
B0
100
AcDbEntity
8
1
62
256
6
ByLayer
370
18
48
1
60
0
100
AcDbLine
10
687.65725
20
-9.103536
30
0
11
687.65725
21
-9.186791
31
0
39
0
210
0
220
0
230
1
0
LINE
5
B1
100
AcDbEntity
8
1
62
256
6
ByLayer
370
18
48
1
60
0
100
AcDbLine
10
688.325
20
28.587552
30
0
11
688.325
21
28.313105
31
0
39
0
210
0
220
0
230
1
0
LINE
5
B2
100
AcDbEntity
8
1
62
256
6
ByLayer
370
18
48
1
60
0
100
AcDbLine
10
688.325
20
-8.313105
30
0
11
688.325
21
-8.587552
31
0
39
0
210
0
220
0
230
1
0
LINE
5
B3
100
AcDbEntity
8
1
62
256
6
ByLayer
370
18
48
1
60
0
100
AcDbLine
10
687.65725
20
29.464112
30
0
11
687.65725
21
29.409441
31
0
39
0
210
0
220
0
230
1
0
LINE
5
B4
100
AcDbEntity
8
1
62
256
6
ByLayer
370
18
48
1
60
0
100
AcDbLine
10
687.65725
20
-9.409441
30
0
11
687.65725
21
-9.464112
31
0
39
0
210
0
220
0
230
1
0
LINE
5
B5
100
AcDbEntity
8
1
62
256
6
ByLayer
370
18
48
1
60
0
100
AcDbLine
10
688.325
20
28.843015
30
0
11
688.325
21
28.663003
31
0
39
0
210
0
220
0
230
1
0
LINE
5
B6
100
AcDbEntity
8
1
62
256
6
ByLayer
370
18
48
1
60
0
100
AcDbLine
10
688.325
20
-8.663003
30
0
11
688.325
21
-8.843015
31
0
39
0
210
0
220
0
230
1
0
LINE
5
B7
100
AcDbEntity
8
1
62
256
6
ByLayer
370
18
48
1
60
0
100
AcDbLine
10
687.65725
20
29.623209
30
0
11
687.65725
21
29.596115
31
0
39
0
210
0
220
0
230
1
0
LINE
5
B8
100
AcDbEntity
8
1
62
256
6
ByLayer
370
18
48
1
60
0
100
AcDbLine
10
687.65725
20
-9.596115
30
0
11
687.65725
21
-9.623209
31
0
39
0
210
0
220
0
230
1
0
LINE
5
B9
100
AcDbEntity
8
1
62
256
6
ByLayer
370
18
48
1
60
0
100
AcDbLine
10
688.325
20
-8.887709
30
0
11
688.325
21
-8.976863
31
0
39
0
210
0
220
0
230
1
0
LINE
5
BA
100
AcDbEntity
8
1
62
256
6
ByLayer
370
18
48
1
60
0
100
AcDbLine
10
688.325
20
28.976863
30
0
11
688.325
21
28.887709
31
0
39
0
210
0
220
0
230
1
0
LINE
5
BB
100
AcDbEntity
8
1
62
256
6
ByLayer
370
18
48
1
60
0
100
AcDbLine
10
127.5
20
-30
30
0
11
187.5
21
-30
31
0
39
0
210
0
220
0
230
1
0
LINE
5
BC
100
AcDbEntity
8
1
62
256
6
ByLayer
370
18
48
1
60
0
100
AcDbLine
10
187.5
20
30
30
0
11
127.5
21
30
31
0
39
0
210
0
220
0
230
1
0
LINE
5
BD
100
AcDbEntity
8
SK1
62
256
6
ByLayer
370
18
48
1
60
0
100
AcDbLine
10
-232.6
20
-30
30
0
11
-232.5
21
-29.9
31
0
39
0
210
0
220
0
230
1
0
LINE
5
BE
100
AcDbEntity
8
SK1
62
256
6
ByLayer
370
18
48
1
60
0
100
AcDbLine
10
-232.5
20
29.9
30
0
11
-232.6
21
30
31
0
39
0
210
0
220
0
230
1
0
LINE
5
BF
100
AcDbEntity
8
SK1
62
256
6
ByLayer
370
18
48
1
60
0
100
AcDbLine
10
-232.6
20
30
30
0
11
-271.5
21
30
31
0
39
0
210
0
220
0
230
1
0
LINE
5
C0
100
AcDbEntity
8
SK1
62
256
6
ByLayer
370
18
48
1
60
0
100
AcDbLine
10
-271.5
20
-30
30
0
11
-232.6
21
-30
31
0
39
0
210
0
220
0
230
1
0
LINE
5
C1
100
AcDbEntity
8
1
62
256
6
ByLayer
370
18
48
1
60
0
100
AcDbLine
10
247.5
20
-30
30
0
11
307.5
21
-30
31
0
39
0
210
0
220
0
230
1
0
LINE
5
C2
100
AcDbEntity
8
1
62
256
6
ByLayer
370
18
48
1
60
0
100
AcDbLine
10
307.5
20
30
30
0
11
247.5
21
30
31
0
39
0
210
0
220
0
230
1
0
LINE
5
C3
100
AcDbEntity
8
SK1
62
256
6
ByLayer
370
18
48
1
60
0
100
AcDbLine
10
-52.5
20
-30
30
0
11
0
21
-30
31
0
39
0
210
0
220
0
230
1
0
LINE
5
C4
100
AcDbEntity
8
1
62
256
6
ByLayer
370
18
48
1
60
0
100
AcDbLine
10
7.5
20
30
30
0
11
0
21
30
31
0
39
0
210
0
220
0
230
1
0
LINE
5
C5
100
AcDbEntity
8
SK1
62
256
6
ByLayer
370
18
48
1
60
0
100
AcDbLine
10
696.5
20
24.899495
30
0
11
690.5
21
24.899495
31
0
39
0
210
0
220
0
230
1
0
LINE
5
C6
100
AcDbEntity
8
SK1
62
256
6
ByLayer
370
18
48
1
60
0
100
AcDbLine
10
690.5
20
14.899495
30
0
11
696.5
21
14.899495
31
0
39
0
210
0
220
0
230
1
0
LINE
5
C7
100
AcDbEntity
8
SK1
62
256
6
ByLayer
370
18
48
1
60
0
100
AcDbLine
10
690.5
20
22.899495
30
0
11
688.325
21
22.899495
31
0
39
0
210
0
220
0
230
1
0
LINE
5
C8
100
AcDbEntity
8
SK1
62
256
6
ByLayer
370
18
48
1
60
0
100
AcDbLine
10
688.325
20
16.899495
30
0
11
690.5
21
16.899495
31
0
39
0
210
0
220
0
230
1
0
LINE
5
C9
100
AcDbEntity
8
1
62
256
6
ByLayer
370
18
48
1
60
0
100
AcDbLine
10
307.5
20
-30
30
0
11
683.6
21
-30
31
0
39
0
210
0
220
0
230
1
0
LINE
5
CA
100
AcDbEntity
8
1
62
256
6
ByLayer
370
18
48
1
60
0
100
AcDbLine
10
683.6
20
30
30
0
11
307.5
21
30
31
0
39
0
210
0
220
0
230
1
0
LINE
5
CB
100
AcDbEntity
8
1
62
256
6
ByLayer
370
18
48
1
60
0
100
AcDbLine
10
67.5
20
-30
30
0
11
127.5
21
-30
31
0
39
0
210
0
220
0
230
1
0
LINE
5
CC
100
AcDbEntity
8
1
62
256
6
ByLayer
370
18
48
1
60
0
100
AcDbLine
10
127.5
20
30
30
0
11
67.5
21
30
31
0
39
0
210
0
220
0
230
1
0
LINE
5
CD
100
AcDbEntity
8
1
62
256
6
ByLayer
370
18
48
1
60
0
100
AcDbLine
10
187.5
20
-30
30
0
11
247.5
21
-30
31
0
39
0
210
0
220
0
230
1
0
LINE
5
CE
100
AcDbEntity
8
1
62
256
6
ByLayer
370
18
48
1
60
0
100
AcDbLine
10
247.5
20
30
30
0
11
187.5
21
30
31
0
39
0
210
0
220
0
230
1
0
LINE
5
CF
100
AcDbEntity
8
SK1
62
256
6
ByLayer
370
18
48
1
60
0
100
AcDbLine
10
-52.5
20
-30
30
0
11
-52.5
21
0
31
0
39
0
210
0
220
0
230
1
0
LINE
5
D0
100
AcDbEntity
8
SK1
62
256
6
ByLayer
370
18
48
1
60
0
100
AcDbLine
10
-112.5
20
30
30
0
11
-112.5
21
-30
31
0
39
0
210
0
220
0
230
1
0
LINE
5
D1
100
AcDbEntity
8
SK1
62
256
6
ByLayer
370
18
48
1
60
0
100
AcDbLine
10
-52.5
20
0
30
0
11
-52.5
21
30
31
0
39
0
210
0
220
0
230
1
0
LINE
5
D2
100
AcDbEntity
8
SK1
62
256
6
ByLayer
370
18
48
1
60
0
100
AcDbLine
10
696.5
20
5.100505
30
0
11
696.5
21
-4.899495
31
0
39
0
210
0
220
0
230
1
0
LINE
5
D3
100
AcDbEntity
8
SK1
62
256
6
ByLayer
370
18
48
1
60
0
100
AcDbLine
10
690.5
20
5.100505
30
0
11
690.5
21
-4.899495
31
0
39
0
210
0
220
0
230
1
0
LINE
5
D4
100
AcDbEntity
8
1
62
256
6
ByLayer
370
18
48
1
60
0
100
AcDbLine
10
67.5
20
-30
30
0
11
67.5
21
0
31
0
39
0
210
0
220
0
230
1
0
LINE
5
D5
100
AcDbEntity
8
1
62
256
6
ByLayer
370
18
48
1
60
0
100
AcDbLine
10
7.5
20
30
30
0
11
7.5
21
0
31
0
39
0
210
0
220
0
230
1
0
LINE
5
D6
100
AcDbEntity
8
1
62
256
6
ByLayer
370
18
48
1
60
0
100
AcDbLine
10
7.5
20
0
30
0
11
7.5
21
-30
31
0
39
0
210
0
220
0
230
1
0
LINE
5
D7
100
AcDbEntity
8
1
62
256
6
ByLayer
370
18
48
1
60
0
100
AcDbLine
10
67.5
20
0
30
0
11
67.5
21
30
31
0
39
0
210
0
220
0
230
1
0
LINE
5
D8
100
AcDbEntity
8
SK1
62
256
6
ByLayer
370
18
48
1
60
0
100
AcDbLine
10
-112.5
20
30
30
0
11
-112.5
21
-30
31
0
39
0
210
0
220
0
230
1
0
LINE
5
D9
100
AcDbEntity
8
SK1
62
256
6
ByLayer
370
18
48
1
60
0
100
AcDbLine
10
-232.5
20
30
30
0
11
-232.5
21
-30
31
0
39
0
210
0
220
0
230
1
0
LINE
5
DA
100
AcDbEntity
8
1
62
256
6
ByLayer
370
18
48
1
60
0
100
AcDbLine
10
685.5
20
-30
30
0
11
685.5
21
26.911017
31
0
39
0
210
0
220
0
230
1
0
LINE
5
DB
100
AcDbEntity
8
1
62
256
6
ByLayer
370
18
48
1
60
0
100
AcDbLine
10
684.2
20
30
30
0
11
684.2
21
0
31
0
39
0
210
0
220
0
230
1
0
LINE
5
DC
100
AcDbEntity
8
1
62
256
6
ByLayer
370
18
48
1
60
0
100
AcDbLine
10
684.2
20
0
30
0
11
684.2
21
-30
31
0
39
0
210
0
220
0
230
1
0
LINE
5
DD
100
AcDbEntity
8
1
62
256
6
ByLayer
370
18
48
1
60
0
100
AcDbLine
10
686
20
26.4625
30
0
11
686
21
-29.5
31
0
39
0
210
0
220
0
230
1
0
LINE
5
DE
100
AcDbEntity
8
1
62
256
6
ByLayer
370
18
48
1
60
0
100
AcDbLine
10
684
20
-29.8
30
0
11
684
21
0
31
0
39
0
210
0
220
0
230
1
0
LINE
5
DF
100
AcDbEntity
8
1
62
256
6
ByLayer
370
18
48
1
60
0
100
AcDbLine
10
684
20
0
30
0
11
684
21
29.8
31
0
39
0
210
0
220
0
230
1
0
LINE
5
E0
100
AcDbEntity
8
1
62
256
6
ByLayer
370
18
48
1
60
0
100
AcDbLine
10
687
20
27.095238
30
0
11
687
21
-10
31
0
39
0
210
0
220
0
230
1
0
LINE
5
E1
100
AcDbEntity
8
1
62
256
6
ByLayer
370
18
48
1
60
0
100
AcDbLine
10
687.325
20
-10
30
0
11
687.325
21
10
31
0
39
0
210
0
220
0
230
1
0
LINE
5
E2
100
AcDbEntity
8
1
62
256
6
ByLayer
370
18
48
1
60
0
100
AcDbLine
10
687.325
20
10
30
0
11
687.325
21
30
31
0
39
0
210
0
220
0
230
1
0
LINE
5
E3
100
AcDbEntity
8
1
62
256
6
ByLayer
370
18
48
1
60
0
100
AcDbLine
10
688.325
20
28.991668
30
0
11
688.325
21
28.976863
31
0
39
0
210
0
220
0
230
1
0
LINE
5
E4
100
AcDbEntity
8
1
62
256
6
ByLayer
370
18
48
1
60
0
100
AcDbLine
10
688.325
20
28.887709
30
0
11
688.325
21
28.843015
31
0
39
0
210
0
220
0
230
1
0
LINE
5
E5
100
AcDbEntity
8
1
62
256
6
ByLayer
370
18
48
1
60
0
100
AcDbLine
10
688.325
20
28.663003
30
0
11
688.325
21
28.587552
31
0
39
0
210
0
220
0
230
1
0
LINE
5
E6
100
AcDbEntity
8
1
62
256
6
ByLayer
370
18
48
1
60
0
100
AcDbLine
10
688.325
20
28.313105
30
0
11
688.325
21
28.205356
31
0
39
0
210
0
220
0
230
1
0
LINE
5
E7
100
AcDbEntity
8
1
62
256
6
ByLayer
370
18
48
1
60
0
100
AcDbLine
10
688.325
20
27.830645
30
0
11
688.325
21
27.688213
31
0
39
0
210
0
220
0
230
1
0
LINE
5
E8
100
AcDbEntity
8
1
62
256
6
ByLayer
370
18
48
1
60
0
100
AcDbLine
10
688.325
20
27.204477
30
0
11
688.325
21
27.023829
31
0
39
0
210
0
220
0
230
1
0
LINE
5
E9
100
AcDbEntity
8
1
62
256
6
ByLayer
370
18
48
1
60
0
100
AcDbLine
10
688.325
20
26.418165
30
0
11
688.325
21
26.194093
31
0
39
0
210
0
220
0
230
1
0
LINE
5
EA
100
AcDbEntity
8
1
62
256
6
ByLayer
370
18
48
1
60
0
100
AcDbLine
10
688.325
20
25.447274
30
0
11
688.325
21
25.171899
31
0
39
0
210
0
220
0
230
1
0
LINE
5
EB
100
AcDbEntity
8
1
62
256
6
ByLayer
370
18
48
1
60
0
100
AcDbLine
10
688.325
20
24.254136
30
0
11
688.325
21
23.914899
31
0
39
0
210
0
220
0
230
1
0
LINE
5
EC
100
AcDbEntity
8
1
62
256
6
ByLayer
370
18
48
1
60
0
100
AcDbLine
10
688.325
20
22.776639
30
0
11
688.325
21
22.351611
31
0
39
0
210
0
220
0
230
1
0
LINE
5
ED
100
AcDbEntity
8
1
62
256
6
ByLayer
370
18
48
1
60
0
100
AcDbLine
10
688.325
20
20.899753
30
0
11
688.325
21
20.344089
31
0
39
0
210
0
220
0
230
1
0
LINE
5
EE
100
AcDbEntity
8
1
62
256
6
ByLayer
370
18
48
1
60
0
100
AcDbLine
10
688.325
20
18.358632
30
0
11
688.325
21
17.545731
31
0
39
0
210
0
220
0
230
1
0
LINE
5
EF
100
AcDbEntity
8
1
62
256
6
ByLayer
370
18
48
1
60
0
100
AcDbLine
10
688.325
20
14.053252
30
0
11
688.325
21
11.541407
31
0
39
0
210
0
220
0
230
1
0
LINE
5
F0
100
AcDbEntity
8
1
62
256
6
ByLayer
370
18
48
1
60
0
100
AcDbLine
10
688.325
20
8.458593
30
0
11
688.325
21
5.946748
31
0
39
0
210
0
220
0
230
1
0
LINE
5
F1
100
AcDbEntity
8
1
62
256
6
ByLayer
370
18
48
1
60
0
100
AcDbLine
10
688.325
20
2.454269
30
0
11
688.325
21
1.641368
31
0
39
0
210
0
220
0
230
1
0
LINE
5
F2
100
AcDbEntity
8
1
62
256
6
ByLayer
370
18
48
1
60
0
100
AcDbLine
10
688.325
20
-0.344089
30
0
11
688.325
21
-0.899753
31
0
39
0
210
0
220
0
230
1
0
LINE
5
F3
100
AcDbEntity
8
1
62
256
6
ByLayer
370
18
48
1
60
0
100
AcDbLine
10
688.325
20
-2.351611
30
0
11
688.325
21
-2.776639
31
0
39
0
210
0
220
0
230
1
0
LINE
5
F4
100
AcDbEntity
8
1
62
256
6
ByLayer
370
18
48
1
60
0
100
AcDbLine
10
688.325
20
-3.914899
30
0
11
688.325
21
-4.254136
31
0
39
0
210
0
220
0
230
1
0
LINE
5
F5
100
AcDbEntity
8
1
62
256
6
ByLayer
370
18
48
1
60
0
100
AcDbLine
10
688.325
20
-5.171899
30
0
11
688.325
21
-5.447274
31
0
39
0
210
0
220
0
230
1
0
LINE
5
F6
100
AcDbEntity
8
1
62
256
6
ByLayer
370
18
48
1
60
0
100
AcDbLine
10
688.325
20
-6.194093
30
0
11
688.325
21
-6.418165
31
0
39
0
210
0
220
0
230
1
0
LINE
5
F7
100
AcDbEntity
8
1
62
256
6
ByLayer
370
18
48
1
60
0
100
AcDbLine
10
688.325
20
-7.023829
30
0
11
688.325
21
-7.204477
31
0
39
0
210
0
220
0
230
1
0
LINE
5
F8
100
AcDbEntity
8
1
62
256
6
ByLayer
370
18
48
1
60
0
100
AcDbLine
10
688.325
20
-7.688213
30
0
11
688.325
21
-7.830645
31
0
39
0
210
0
220
0
230
1
0
LINE
5
F9
100
AcDbEntity
8
1
62
256
6
ByLayer
370
18
48
1
60
0
100
AcDbLine
10
688.325
20
-8.205356
30
0
11
688.325
21
-8.313105
31
0
39
0
210
0
220
0
230
1
0
LINE
5
FA
100
AcDbEntity
8
1
62
256
6
ByLayer
370
18
48
1
60
0
100
AcDbLine
10
688.325
20
-8.587552
30
0
11
688.325
21
-8.663003
31
0
39
0
210
0
220
0
230
1
0
LINE
5
FB
100
AcDbEntity
8
1
62
256
6
ByLayer
370
18
48
1
60
0
100
AcDbLine
10
688.325
20
-8.843015
30
0
11
688.325
21
-8.887709
31
0
39
0
210
0
220
0
230
1
0
LINE
5
FC
100
AcDbEntity
8
1
62
256
6
ByLayer
370
18
48
1
60
0
100
AcDbLine
10
688.325
20
-8.976863
30
0
11
688.325
21
-8.991668
31
0
39
0
210
0
220
0
230
1
0
LINE
5
FD
100
AcDbEntity
8
1
62
256
6
ByLayer
370
18
48
1
60
0
100
AcDbLine
10
187.5
20
-30
30
0
11
187.5
21
0
31
0
39
0
210
0
220
0
230
1
0
LINE
5
FE
100
AcDbEntity
8
1
62
256
6
ByLayer
370
18
48
1
60
0
100
AcDbLine
10
127.5
20
30
30
0
11
127.5
21
0
31
0
39
0
210
0
220
0
230
1
0
LINE
5
FF
100
AcDbEntity
8
1
62
256
6
ByLayer
370
18
48
1
60
0
100
AcDbLine
10
127.5
20
0
30
0
11
127.5
21
-30
31
0
39
0
210
0
220
0
230
1
0
LINE
5
100
100
AcDbEntity
8
1
62
256
6
ByLayer
370
18
48
1
60
0
100
AcDbLine
10
187.5
20
0
30
0
11
187.5
21
30
31
0
39
0
210
0
220
0
230
1
0
LINE
5
101
100
AcDbEntity
8
SK1
62
256
6
ByLayer
370
18
48
1
60
0
100
AcDbLine
10
-271.5
20
30
30
0
11
-271.5
21
0
31
0
39
0
210
0
220
0
230
1
0
LINE
5
102
100
AcDbEntity
8
SK1
62
256
6
ByLayer
370
18
48
1
60
0
100
AcDbLine
10
-272.5
20
-29
30
0
11
-272.5
21
0
31
0
39
0
210
0
220
0
230
1
0
LINE
5
103
100
AcDbEntity
8
SK1
62
256
6
ByLayer
370
18
48
1
60
0
100
AcDbLine
10
-271.5
20
0
30
0
11
-271.5
21
-30
31
0
39
0
210
0
220
0
230
1
0
LINE
5
104
100
AcDbEntity
8
SK1
62
256
6
ByLayer
370
18
48
1
60
0
100
AcDbLine
10
-272.5
20
0
30
0
11
-272.5
21
29
31
0
39
0
210
0
220
0
230
1
0
LINE
5
105
100
AcDbEntity
8
SK1
62
256
6
ByLayer
370
18
48
1
60
0
100
AcDbLine
10
-232.6
20
-30
30
0
11
-232.6
21
30
31
0
39
0
210
0
220
0
230
1
0
LINE
5
106
100
AcDbEntity
8
1
62
256
6
ByLayer
370
18
48
1
60
0
100
AcDbLine
10
307.5
20
-30
30
0
11
307.5
21
0
31
0
39
0
210
0
220
0
230
1
0
LINE
5
107
100
AcDbEntity
8
1
62
256
6
ByLayer
370
18
48
1
60
0
100
AcDbLine
10
247.5
20
30
30
0
11
247.5
21
0
31
0
39
0
210
0
220
0
230
1
0
LINE
5
108
100
AcDbEntity
8
1
62
256
6
ByLayer
370
18
48
1
60
0
100
AcDbLine
10
247.5
20
0
30
0
11
247.5
21
-30
31
0
39
0
210
0
220
0
230
1
0
LINE
5
109
100
AcDbEntity
8
1
62
256
6
ByLayer
370
18
48
1
60
0
100
AcDbLine
10
307.5
20
0
30
0
11
307.5
21
30
31
0
39
0
210
0
220
0
230
1
0
LINE
5
10A
100
AcDbEntity
8
1
62
256
6
ByLayer
370
18
48
1
60
0
100
AcDbLine
10
7.5
20
-30
30
0
11
7.5
21
0
31
0
39
0
210
0
220
0
230
1
0
LINE
5
10B
100
AcDbEntity
8
SK1
62
256
6
ByLayer
370
18
48
1
60
0
100
AcDbLine
10
-52.5
20
30
30
0
11
-52.5
21
0
31
0
39
0
210
0
220
0
230
1
0
LINE
5
10C
100
AcDbEntity
8
SK1
62
256
6
ByLayer
370
18
48
1
60
0
100
AcDbLine
10
-52.5
20
0
30
0
11
-52.5
21
-30
31
0
39
0
210
0
220
0
230
1
0
LINE
5
10D
100
AcDbEntity
8
1
62
256
6
ByLayer
370
18
48
1
60
0
100
AcDbLine
10
7.5
20
0
30
0
11
7.5
21
30
31
0
39
0
210
0
220
0
230
1
0
LINE
5
10E
100
AcDbEntity
8
SK1
62
256
6
ByLayer
370
18
48
1
60
0
100
AcDbLine
10
696.5
20
24.899495
30
0
11
696.5
21
19.899495
31
0
39
0
210
0
220
0
230
1
0
LINE
5
10F
100
AcDbEntity
8
SK1
62
256
6
ByLayer
370
18
48
1
60
0
100
AcDbLine
10
690.5
20
24.899495
30
0
11
690.5
21
19.899495
31
0
39
0
210
0
220
0
230
1
0
LINE
5
110
100
AcDbEntity
8
SK1
62
256
6
ByLayer
370
18
48
1
60
0
100
AcDbLine
10
696.5
20
19.899495
30
0
11
696.5
21
14.899495
31
0
39
0
210
0
220
0
230
1
0
LINE
5
111
100
AcDbEntity
8
SK1
62
256
6
ByLayer
370
18
48
1
60
0
100
AcDbLine
10
690.5
20
19.899495
30
0
11
690.5
21
14.899495
31
0
39
0
210
0
220
0
230
1
0
LINE
5
112
100
AcDbEntity
8
1
62
256
6
ByLayer
370
18
48
1
60
0
100
AcDbLine
10
683.6
20
-30
30
0
11
683.6
21
30
31
0
39
0
210
0
220
0
230
1
0
LINE
5
113
100
AcDbEntity
8
1
62
256
6
ByLayer
370
18
48
1
60
0
100
AcDbLine
10
307.5
20
-30
30
0
11
307.5
21
0
31
0
39
0
210
0
220
0
230
1
0
LINE
5
114
100
AcDbEntity
8
1
62
256
6
ByLayer
370
18
48
1
60
0
100
AcDbLine
10
307.5
20
0
30
0
11
307.5
21
30
31
0
39
0
210
0
220
0
230
1
0
LINE
5
115
100
AcDbEntity
8
1
62
256
6
ByLayer
370
18
48
1
60
0
100
AcDbLine
10
127.5
20
-30
30
0
11
127.5
21
0
31
0
39
0
210
0
220
0
230
1
0
LINE
5
116
100
AcDbEntity
8
1
62
256
6
ByLayer
370
18
48
1
60
0
100
AcDbLine
10
67.5
20
30
30
0
11
67.5
21
0
31
0
39
0
210
0
220
0
230
1
0
LINE
5
117
100
AcDbEntity
8
1
62
256
6
ByLayer
370
18
48
1
60
0
100
AcDbLine
10
67.5
20
0
30
0
11
67.5
21
-30
31
0
39
0
210
0
220
0
230
1
0
LINE
5
118
100
AcDbEntity
8
1
62
256
6
ByLayer
370
18
48
1
60
0
100
AcDbLine
10
127.5
20
0
30
0
11
127.5
21
30
31
0
39
0
210
0
220
0
230
1
0
LINE
5
119
100
AcDbEntity
8
1
62
256
6
ByLayer
370
18
48
1
60
0
100
AcDbLine
10
247.5
20
-30
30
0
11
247.5
21
0
31
0
39
0
210
0
220
0
230
1
0
LINE
5
11A
100
AcDbEntity
8
1
62
256
6
ByLayer
370
18
48
1
60
0
100
AcDbLine
10
187.5
20
30
30
0
11
187.5
21
0
31
0
39
0
210
0
220
0
230
1
0
LINE
5
11B
100
AcDbEntity
8
1
62
256
6
ByLayer
370
18
48
1
60
0
100
AcDbLine
10
187.5
20
0
30
0
11
187.5
21
-30
31
0
39
0
210
0
220
0
230
1
0
LINE
5
11C
100
AcDbEntity
8
1
62
256
6
ByLayer
370
18
48
1
60
0
100
AcDbLine
10
247.5
20
0
30
0
11
247.5
21
30
31
0
39
0
210
0
220
0
230
1
0
LINE
5
11D
100
AcDbEntity
8
SK1
62
256
6
ByLayer
370
18
48
1
60
0
100
AcDbLine
10
0
20
30
30
0
11
-52.5
21
30
31
0
39
0
210
0
220
0
230
1
0
LINE
5
11E
100
AcDbEntity
8
1
62
256
6
ByLayer
370
18
48
1
60
0
100
AcDbLine
10
0
20
-30
30
0
11
7.5
21
-30
31
0
39
0
210
0
220
0
230
1
0
MTEXT
5
199
100
AcDbEntity
8
SK6
62
256
6
ByLayer
370
13
48
1
60
0
100
AcDbMText
10
4.152874
20
64.40202
30
0
210
0
220
0
230
1
1
\W0.7269;570-3C 60 920-40 CR
40
3.175
41
0
44
1.084337
50
0
71
7
72
5
7
iso_b_vert
0
DIMENSION
5
1A7
100
AcDbEntity
8
2
62
256
6
ByLayer
370
13
48
1
60
0
100
AcDbDimension
2
DimnDraft3D1
10
688
20
38.6
30
0
11
340.916908
21
38.6
31
0
70
32
71
5
72
1
41
1
210
0
220
0
230
1
3
Standard
100
AcDbAlignedDimension
13
0
23
1.5875
33
0
14
688
24
11.5875
34
0
50
0
100
AcDbRotatedDimension
1001
ACAD
1000
DSTYLE
1002
{
1070
   279
1070
     0
1070
   173
1070
     1
1070
   340
1005
19A
1070
   271
1070
     1
1070
   272
1070
     2
1070
    77
1070
     1
1070
    73
1070
     0
1070
   171
1070
     3
1070
   274
1070
     4
1070
   177
1070
     7
1070
   176
1070
     7
1070
   178
1070
     7
1070
    78
1070
     8
1070
    48
1040
-0.005
1070
    41
1041
3.175
1070
   147
1041
1.5875
1070
    42
1041
1.5875
1070
    44
1041
3.175
1070
   140
1041
3.175
1070
   343
1005
0
1070
   344
1005
0
1002
}
0
DIMENSION
5
1B3
100
AcDbEntity
8
SK2
62
256
6
ByLayer
370
13
48
1
60
0
100
AcDbDimension
2
DimnDraft3D2
10
-299.597507
20
-30
30
0
11
-299.597507
21
-6.659145
31
0
70
32
71
5
72
1
41
1
210
0
220
0
230
1
3
Standard
100
AcDbAlignedDimension
13
-273.0875
23
30
33
0
14
-273.0875
24
-30
34
0
50
90
100
AcDbRotatedDimension
1001
ACAD
1000
DSTYLE
1002
{
1070
    74
1070
     0
1070
   279
1070
     0
1070
   173
1070
     1
1070
   340
1005
19A
1070
   271
1070
     1
1070
   272
1070
     2
1070
    77
1070
     1
1070
    73
1070
     0
1070
   171
1070
     3
1070
   274
1070
     4
1070
   177
1070
     7
1070
   176
1070
     7
1070
   178
1070
     7
1070
    78
1070
     8
1070
    48
1040
-0.005
1070
    41
1041
3.175
1070
   147
1041
1.5875
1070
    42
1041
1.5875
1070
    44
1041
3.175
1070
   140
1041
3.175
1070
   343
1005
0
1070
   344
1005
0
1002
}
0
DIMENSION
5
1BD
100
AcDbEntity
8
SK2
62
256
6
ByLayer
370
13
48
1
60
0
100
AcDbDimension
2
DimnDraft3D3
10
688
20
51.202544
30
0
11
222.920658
21
51.202544
31
0
70
32
71
5
72
1
41
1
210
0
220
0
230
1
3
Standard
100
AcDbAlignedDimension
13
-232.5
23
31.5875
33
0
14
688
24
11.5875
34
0
50
0
100
AcDbRotatedDimension
1001
ACAD
1000
DSTYLE
1002
{
1070
   279
1070
     0
1070
   173
1070
     1
1070
   340
1005
19A
1070
   271
1070
     1
1070
   272
1070
     2
1070
    77
1070
     1
1070
    73
1070
     0
1070
   171
1070
     3
1070
   274
1070
     4
1070
   177
1070
     7
1070
   176
1070
     7
1070
   178
1070
     7
1070
    78
1070
     8
1070
    48
1040
-0.005
1070
    41
1041
3.175
1070
   147
1041
1.5875
1070
    42
1041
1.5875
1070
    44
1041
3.175
1070
   140
1041
3.175
1070
   343
1005
0
1070
   344
1005
0
1002
}
0
DIMENSION
5
1C8
100
AcDbEntity
8
SK2
62
256
6
ByLayer
370
13
48
1
60
0
100
AcDbDimension
2
DimnDraft3D4
10
0
20
-55.609188
30
0
11
-135.137072
21
-55.609188
31
0
70
32
71
5
72
1
41
1
210
0
220
0
230
1
3
Standard
100
AcDbAlignedDimension
13
-232.5
23
-31.5875
33
0
14
0
24
-1.5875
34
0
50
0
100
AcDbRotatedDimension
1001
ACAD
1000
DSTYLE
1002
{
1070
   279
1070
     0
1070
   173
1070
     1
1070
   340
1005
19A
1070
   271
1070
     0
1070
   272
1070
     2
1070
    77
1070
     1
1070
    73
1070
     0
1070
   171
1070
     3
1070
   274
1070
     4
1070
   177
1070
     7
1070
   176
1070
     7
1070
   178
1070
     7
1070
    78
1070
     8
1070
    48
1040
-0.005
1070
    41
1041
3.175
1070
   147
1041
1.5875
1070
    42
1041
1.5875
1070
    44
1041
3.175
1070
   140
1041
3.175
1070
   343
1005
0
1070
   344
1005
0
1002
}
0
DIMENSION
5
1D3
100
AcDbEntity
8
SK2
62
256
6
ByLayer
370
13
48
1
60
0
100
AcDbDimension
2
DimnDraft3D5
10
732.064805
20
30
30
0
11
732.064805
21
35.408959
31
0
70
32
71
5
72
1
41
1
210
0
220
0
230
1
3
Standard
100
AcDbAlignedDimension
13
688.9125
23
-10
33
0
14
688.9125
24
30
34
0
50
90
100
AcDbRotatedDimension
1001
ACAD
1000
DSTYLE
1002
{
1070
    74
1070
     0
1070
   279
1070
     0
1070
   173
1070
     1
1070
   340
1005
19A
1070
   271
1070
     1
1070
   272
1070
     2
1070
    77
1070
     1
1070
    73
1070
     0
1070
   171
1070
     3
1070
   274
1070
     4
1070
   177
1070
     7
1070
   176
1070
     7
1070
   178
1070
     7
1070
    78
1070
     8
1070
    48
1040
-0.005
1070
    41
1041
3.175
1070
   147
1041
1.5875
1070
    42
1041
1.5875
1070
    44
1041
3.175
1070
   140
1041
3.175
1070
   343
1005
0
1070
   344
1005
0
1002
}
0
ENDSEC
0
SECTION
2
OBJECTS
0
DICTIONARY
5
248
330
0
100
AcDbDictionary
280
0
281
1
3
ACAD_GROUP
350
249
3
ACAD_MLINESTYLE
350
24a
0
DICTIONARY
5
249
330
0
100
AcDbDictionary
280
0
281
1
0
DICTIONARY
5
24a
330
0
100
AcDbDictionary
280
0
281
1
3
Standard
350
18
0
MLINESTYLE
5
18
330
24a
100
AcDbMlineStyle
2
Standard
70
0
3

62
256
51
90
52
90
71
2
49
-0.5
62
256
6
ByLayer
49
0.5
62
256
6
ByLayer
0
RASTERVARIABLES
5
236
330

100
AcDbRasterVariables
90
0
70
1
71
1
72
1
0
ENDSEC
0
EOF
