0
SECTION
2
HEADER
9
$ACADVER
1
AC1015
9
$DWGCODEPAGE
3
ANSI_1252
9
$HANDSEED
5
276
9
$ANGBASE
50
0
9
$ANGDIR
70
0
9
$ATTMODE
70
1
9
$AUNITS
70
0
9
$AUPREC
70
0
9
$CECOLOR
62
256
9
$CELTSCALE
40
1
9
$CELTYPE
6
ByLayer
9
$CELWEIGHT
370
18
9
$CLAYER
8
0
9
$CMLJUST
70
0
9
$CMLSCALE
40
1
9
$CMLSTYLE
2
Standard
9
$DIMSTYLE
2
Standard
9
$TEXTSIZE
40
0.2
9
$TEXTSTYLE
7
Standard
9
$LUNITS
70
2
9
$LUPREC
70
4
9
$EXTNAMES
290
1
9
$INSUNITS
70
4
9
$LTSCALE
40
1
9
$LWDISPLAY
290
1
9
$PDMODE
70
0
9
$PDSIZE
40
0
9
$PLINEGEN
70
0
0
ENDSEC
0
SECTION
2
CLASSES
0
CLASS
1
RASTERVARIABLES
2
AcDbRasterVariables
3
ISM
90
0
280
0
281
0
0
ENDSEC
0
SECTION
2
TABLES
0
TABLE
2
VPORT
5
26c
100
AcDbSymbolTable
0
VPORT
5
1
100
AcDbSymbolTableRecord
100
AcDbViewportTableRecord
2
*Active
70
0
10
0
20
0
11
1
21
1
12
-1
22
1
13
0
23
0
14
0.5
24
0.5
15
10
25
10
16
0
26
0
36
1
17
0
27
0
37
0
0
ENDTAB
0
TABLE
2
LTYPE
5
26d
100
AcDbSymbolTable
0
LTYPE
5
14
100
AcDbSymbolTableRecord
100
AcDbLinetypeTableRecord
70
0
2
ByBlock
3

72
65
73
0
40
0
0
LTYPE
5
15
100
AcDbSymbolTableRecord
100
AcDbLinetypeTableRecord
70
0
2
ByLayer
3

72
65
73
0
40
0
0
LTYPE
5
16
100
AcDbSymbolTableRecord
100
AcDbLinetypeTableRecord
70
0
2
CONTINUOUS
3
Solid line
72
65
73
0
40
0
0
LTYPE
5
6A
100
AcDbSymbolTableRecord
100
AcDbLinetypeTableRecord
70
0
2
CENTER
3
____ _ ____ _ ____ _ ____
72
65
73
4
40
47.5
49
22
74
0
49
-8.5
74
0
49
8.5
74
0
49
-8.5
74
0
0
LTYPE
5
6B
100
AcDbSymbolTableRecord
100
AcDbLinetypeTableRecord
70
0
2
DASHED
3
__ __ __ __ __ __ __ __ __
72
65
73
2
40
25.72
49
12.86
74
0
49
-12.86
74
0
0
ENDTAB
0
TABLE
2
LAYER
5
26e
100
AcDbSymbolTable
0
LAYER
5
10
100
AcDbSymbolTableRecord
100
AcDbLayerTableRecord
2
0
70
0
62
7
6
CONTINUOUS
290
1
370
-3
390
0
0
LAYER
5
6D
100
AcDbSymbolTableRecord
100
AcDbLayerTableRecord
2
80
70
0
62
-6
6
CONTINUOUS
290
1
370
-3
390
0
0
LAYER
5
6F
100
AcDbSymbolTableRecord
100
AcDbLayerTableRecord
2
81
70
0
62
-3
6
CONTINUOUS
290
1
370
-3
390
0
0
LAYER
5
72
100
AcDbSymbolTableRecord
100
AcDbLayerTableRecord
2
4
70
0
62
-2
6
CENTER
290
1
370
-3
390
0
0
LAYER
5
77
100
AcDbSymbolTableRecord
100
AcDbLayerTableRecord
2
1
70
0
62
4
6
CONTINUOUS
290
1
370
-3
390
0
0
LAYER
5
1CD
100
AcDbSymbolTableRecord
100
AcDbLayerTableRecord
2
2
70
0
62
7
6
CONTINUOUS
290
1
370
-3
390
0
0
LAYER
5
258
100
AcDbSymbolTableRecord
100
AcDbLayerTableRecord
2
SK4
70
0
62
2
6
CENTER
290
1
370
-3
390
0
0
LAYER
5
259
100
AcDbSymbolTableRecord
100
AcDbLayerTableRecord
2
SK1
70
0
62
4
6
CONTINUOUS
290
1
370
-3
390
0
0
LAYER
5
25a
100
AcDbSymbolTableRecord
100
AcDbLayerTableRecord
2
SK6
70
0
62
5
6
CONTINUOUS
290
1
370
-3
390
0
0
LAYER
5
25b
100
AcDbSymbolTableRecord
100
AcDbLayerTableRecord
2
SK2
70
0
62
7
6
CONTINUOUS
290
1
370
-3
390
0
0
ENDTAB
0
TABLE
2
STYLE
5
26f
100
AcDbSymbolTable
0
STYLE
5
11
100
AcDbSymbolTableRecord
100
AcDbTextStyleTableRecord
2
Standard
3
txt
70
0
71
0
40
0
41
1
42
0
50
0
0
STYLE
5
1C8
100
AcDbSymbolTableRecord
100
AcDbTextStyleTableRecord
2
iso_b_vert
3
simplex.shx
70
0
71
0
40
0
41
1
42
0
50
0
0
STYLE
5
1C9
100
AcDbSymbolTableRecord
100
AcDbTextStyleTableRecord
2
DWGDirectTextStyle
3
simplex
70
0
71
0
40
0
41
1
42
0
50
0
0
ENDTAB
0
TABLE
2
DIMSTYLE
5
270
100
AcDbSymbolTable
100
AcDbDimStyleTable
0
DIMSTYLE
105
27
100
AcDbSymbolTableRecord
100
AcDbDimStyleTableRecord
2
Standard
70
0
3
<>
41
0.18
42
0.0625
44
0.18
140
0.18
147
0.09
73
0
74
0
77
1
271
2
275
0
278
52
280
0
340
11
0
ENDTAB
0
TABLE
2
VIEW
5
271
100
AcDbSymbolTable
0
ENDTAB
0
TABLE
2
UCS
5
272
100
AcDbSymbolTable
0
ENDTAB
0
TABLE
2
APPID
5
273
100
AcDbSymbolTable
0
APPID
5
12
100
AcDbSymbolTableRecord
100
AcDbRegAppTableRecord
2
ACAD
70
0
0
ENDTAB
0
TABLE
2
BLOCK_RECORD
5
274
100
AcDbSymbolTable
0
BLOCK_RECORD
5
1F
100
AcDbSymbolTableRecord
100
AcDbBlockTableRecord
2
*Model_Space
340
0
70
0
0
BLOCK_RECORD
5
1B
100
AcDbSymbolTableRecord
100
AcDbBlockTableRecord
2
*Paper_Space
340
0
70
0
0
BLOCK_RECORD
5
23
100
AcDbSymbolTableRecord
100
AcDbBlockTableRecord
2
*Paper_Space0
340
0
70
0
0
BLOCK_RECORD
5
1CB
100
AcDbSymbolTableRecord
100
AcDbBlockTableRecord
2
DimnDraft3D1
340
0
70
0
0
BLOCK_RECORD
5
1D6
100
AcDbSymbolTableRecord
100
AcDbBlockTableRecord
2
DimnDraft3D22
340
0
70
0
0
BLOCK_RECORD
5
1E1
100
AcDbSymbolTableRecord
100
AcDbBlockTableRecord
2
DimnDraft3D33
340
0
70
0
0
BLOCK_RECORD
5
1EB
100
AcDbSymbolTableRecord
100
AcDbBlockTableRecord
2
DimnDraft3D4
340
0
70
0
0
BLOCK_RECORD
5
1F5
100
AcDbSymbolTableRecord
100
AcDbBlockTableRecord
2
DimnDraft3D5
340
0
70
0
0
ENDTAB
0
ENDSEC
0
SECTION
2
BLOCKS
0
BLOCK
5
20
100
AcDbEntity
8
0
100
AcDbBlockBegin
2
*Model_Space
70
0
10
0
20
0
30
0
3
*Model_Space
0
ENDBLK
5
21
100
AcDbEntity
8
0
100
AcDbBlockEnd
0
BLOCK
5
1C
100
AcDbEntity
8
0
100
AcDbBlockBegin
2
*Paper_Space
70
0
10
0
20
0
30
0
3
*Paper_Space
0
ENDBLK
5
1D
100
AcDbEntity
8
0
100
AcDbBlockEnd
0
BLOCK
5
24
100
AcDbEntity
8
0
100
AcDbBlockBegin
2
*Paper_Space0
70
0
10
0
20
0
30
0
3
*Paper_Space0
0
ENDBLK
5
25
100
AcDbEntity
8
0
100
AcDbBlockEnd
0
BLOCK
5
1D3
100
AcDbEntity
8
0
100
AcDbBlockBegin
2
DimnDraft3D1
70
0
10
0
20
0
30
0
3
DimnDraft3D1
0
MTEXT
5
1CC
100
AcDbEntity
8
2
62
256
6
ByLayer
370
13
48
1
60
0
100
AcDbMText
10
774.421086
20
104.057625
30
0
210
0
220
0
230
1
1
\W0.6648;1555
40
3.175
41
0
44
1.084337
50
0
71
7
72
5
7
iso_b_vert
0
LINE
5
1CE
100
AcDbEntity
8
2
62
256
6
ByLayer
370
13
48
1
60
0
100
AcDbLine
10
0
20
1.5875
30
0
11
0
21
106.438875
31
0
39
0
210
0
220
0
230
1
0
LINE
5
1CF
100
AcDbEntity
8
2
62
256
6
ByLayer
370
13
48
1
60
0
100
AcDbLine
10
1555
20
41.5875
30
0
11
1555
21
106.438875
31
0
39
0
210
0
220
0
230
1
0
LINE
5
1D0
100
AcDbEntity
8
2
62
256
6
ByLayer
370
13
48
1
60
0
100
AcDbLine
10
0
20
103.263875
30
0
11
1555
21
103.263875
31
0
39
0
210
0
220
0
230
1
0
SOLID
5
1D1
100
AcDbEntity
8
2
62
256
6
ByLayer
370
13
48
1
60
0
100
AcDbTrace
10
0
20
103.263875
30
0
11
3.174998
21
103.681871
31
0
12
3.175002
22
102.845878
32
0
13
0
23
103.263875
33
0
39
0
210
0
220
0
230
1
0
SOLID
5
1D2
100
AcDbEntity
8
2
62
256
6
ByLayer
370
13
48
1
60
0
100
AcDbTrace
10
1555
20
103.263875
30
0
11
1551.825002
21
102.845878
31
0
12
1551.824998
22
103.681871
32
0
13
1555
23
103.263875
33
0
39
0
210
0
220
0
230
1
0
ENDBLK
5
1D4
100
AcDbEntity
8
0
100
AcDbBlockEnd
0
BLOCK
5
1D7
100
AcDbEntity
8
0
100
AcDbBlockBegin
2
DimnDraft3D22
70
0
10
0
20
0
30
0
3
DimnDraft3D22
0
LINE
5
1D9
100
AcDbEntity
8
SK2
62
256
6
ByLayer
370
25
48
1
60
0
100
AcDbLine
10
0
20
-81.5875
30
0
11
0
21
-209.770198
31
0
39
0
210
0
220
0
230
1
0
LINE
5
1DB
100
AcDbEntity
8
SK2
62
256
6
ByLayer
370
25
48
1
60
0
100
AcDbLine
10
-1056
20
-68.5875
30
0
11
-1056
21
-209.770198
31
0
39
0
210
0
220
0
230
1
0
LINE
5
1DC
100
AcDbEntity
8
SK2
62
256
6
ByLayer
370
25
48
1
60
0
100
AcDbLine
10
0
20
-206.595198
30
0
11
-1056
21
-206.595198
31
0
39
0
210
0
220
0
230
1
0
SOLID
5
1DD
100
AcDbEntity
8
SK2
62
256
6
ByLayer
370
25
48
1
60
0
100
AcDbTrace
10
0
20
-206.595198
30
0
11
-3.174998
21
-207.013195
31
0
12
-3.175002
22
-206.177201
32
0
13
0
23
-206.595198
33
0
39
0
210
0
220
0
230
1
0
SOLID
5
1DE
100
AcDbEntity
8
SK2
62
256
6
ByLayer
370
25
48
1
60
0
100
AcDbTrace
10
-1056
20
-206.595198
30
0
11
-1052.825002
21
-206.177201
31
0
12
-1052.824998
22
-207.013195
32
0
13
-1056
23
-206.595198
33
0
39
0
210
0
220
0
230
1
0
MTEXT
5
1DF
100
AcDbEntity
8
SK2
62
256
6
ByLayer
370
13
48
1
60
0
100
AcDbMText
10
-531.078914
20
-205.801448
30
0
210
0
220
0
230
1
1
\W0.6648;1056
40
3.175
41
0
44
1.084337
50
0
71
7
72
5
7
iso_b_vert
0
ENDBLK
5
1D8
100
AcDbEntity
8
0
100
AcDbBlockEnd
0
BLOCK
5
1E2
100
AcDbEntity
8
0
100
AcDbBlockBegin
2
DimnDraft3D33
70
0
10
0
20
0
30
0
3
DimnDraft3D33
0
LINE
5
1E4
100
AcDbEntity
8
SK2
62
256
6
ByLayer
370
25
48
1
60
0
100
AcDbLine
10
0
20
-81.5875
30
0
11
0
21
-141.506746
31
0
39
0
210
0
220
0
230
1
0
LINE
5
1E5
100
AcDbEntity
8
SK2
62
256
6
ByLayer
370
25
48
1
60
0
100
AcDbLine
10
-1045
20
-76.5875
30
0
11
-1045
21
-141.506746
31
0
39
0
210
0
220
0
230
1
0
LINE
5
1E6
100
AcDbEntity
8
SK2
62
256
6
ByLayer
370
25
48
1
60
0
100
AcDbLine
10
0
20
-138.331746
30
0
11
-1045
21
-138.331746
31
0
39
0
210
0
220
0
230
1
0
SOLID
5
1E7
100
AcDbEntity
8
SK2
62
256
6
ByLayer
370
25
48
1
60
0
100
AcDbTrace
10
0
20
-138.331746
30
0
11
-3.174998
21
-138.749743
31
0
12
-3.175002
22
-137.913749
32
0
13
0
23
-138.331746
33
0
39
0
210
0
220
0
230
1
0
SOLID
5
1E8
100
AcDbEntity
8
SK2
62
256
6
ByLayer
370
25
48
1
60
0
100
AcDbTrace
10
-1045
20
-138.331746
30
0
11
-1041.825002
21
-137.913749
31
0
12
-1041.824998
22
-138.749743
32
0
13
-1045
23
-138.331746
33
0
39
0
210
0
220
0
230
1
0
MTEXT
5
1E9
100
AcDbEntity
8
SK2
62
256
6
ByLayer
370
13
48
1
60
0
100
AcDbMText
10
-525.74602
20
-137.537996
30
0
210
0
220
0
230
1
1
\W0.6903;1045
40
3.175
41
0
44
1.084337
50
0
71
7
72
5
7
iso_b_vert
0
ENDBLK
5
1E3
100
AcDbEntity
8
0
100
AcDbBlockEnd
0
BLOCK
5
1F2
100
AcDbEntity
8
0
100
AcDbBlockBegin
2
DimnDraft3D4
70
0
10
0
20
0
30
0
3
DimnDraft3D4
0
MTEXT
5
1EC
100
AcDbEntity
8
SK2
62
256
6
ByLayer
370
13
48
1
60
0
100
AcDbMText
10
242.861316
20
168.961206
30
0
210
0
220
0
230
1
1
\W0.6830;2611,325
40
3.175
41
0
44
1.084337
50
0
71
7
72
5
7
iso_b_vert
0
LINE
5
1ED
100
AcDbEntity
8
SK2
62
256
6
ByLayer
370
13
48
1
60
0
100
AcDbLine
10
-1056
20
1.5875
30
0
11
-1056
21
171.342456
31
0
39
0
210
0
220
0
230
1
0
LINE
5
1EE
100
AcDbEntity
8
SK2
62
256
6
ByLayer
370
13
48
1
60
0
100
AcDbLine
10
1555.325
20
81.513163
30
0
11
1555.325
21
171.342456
31
0
39
0
210
0
220
0
230
1
0
LINE
5
1EF
100
AcDbEntity
8
SK2
62
256
6
ByLayer
370
13
48
1
60
0
100
AcDbLine
10
-1056
20
168.167456
30
0
11
1555.325
21
168.167456
31
0
39
0
210
0
220
0
230
1
0
SOLID
5
1F0
100
AcDbEntity
8
SK2
62
256
6
ByLayer
370
13
48
1
60
0
100
AcDbTrace
10
-1056
20
168.167456
30
0
11
-1052.825002
21
168.585453
31
0
12
-1052.824998
22
167.749459
32
0
13
-1056
23
168.167456
33
0
39
0
210
0
220
0
230
1
0
SOLID
5
1F1
100
AcDbEntity
8
SK2
62
256
6
ByLayer
370
13
48
1
60
0
100
AcDbTrace
10
1555.325
20
168.167456
30
0
11
1552.150002
21
167.749459
31
0
12
1552.149998
22
168.585453
32
0
13
1555.325
23
168.167456
33
0
39
0
210
0
220
0
230
1
0
ENDBLK
5
1F3
100
AcDbEntity
8
0
100
AcDbBlockEnd
0
BLOCK
5
1FC
100
AcDbEntity
8
0
100
AcDbBlockBegin
2
DimnDraft3D5
70
0
10
0
20
0
30
0
3
DimnDraft3D5
0
MTEXT
5
1F6
100
AcDbEntity
8
SK2
62
256
6
ByLayer
370
13
48
1
60
0
100
AcDbMText
10
1597.589214
20
18.73
30
0
210
0
220
0
230
1
1
\W0.7361;40
40
3.175
41
0
44
1.084337
50
90
71
7
72
5
7
iso_b_vert
0
LINE
5
1F7
100
AcDbEntity
8
SK2
62
256
6
ByLayer
370
13
48
1
60
0
100
AcDbLine
10
1561.5875
20
0
30
0
11
1601.557964
21
0
31
0
39
0
210
0
220
0
230
1
0
LINE
5
1F8
100
AcDbEntity
8
SK2
62
256
6
ByLayer
370
13
48
1
60
0
100
AcDbLine
10
1556.5875
20
40
30
0
11
1601.557964
21
40
31
0
39
0
210
0
220
0
230
1
0
LINE
5
1F9
100
AcDbEntity
8
SK2
62
256
6
ByLayer
370
13
48
1
60
0
100
AcDbLine
10
1598.382964
20
0
30
0
11
1598.382964
21
40
31
0
39
0
210
0
220
0
230
1
0
SOLID
5
1FA
100
AcDbEntity
8
SK2
62
256
6
ByLayer
370
13
48
1
60
0
100
AcDbTrace
10
1598.382964
20
0
30
0
11
1597.964967
21
3.174998
31
0
12
1598.800961
22
3.175002
32
0
13
1598.382964
23
0
33
0
39
0
210
0
220
0
230
1
0
SOLID
5
1FB
100
AcDbEntity
8
SK2
62
256
6
ByLayer
370
13
48
1
60
0
100
AcDbTrace
10
1598.382964
20
40
30
0
11
1598.800961
21
36.825002
31
0
12
1597.964967
22
36.824998
32
0
13
1598.382964
23
40
33
0
39
0
210
0
220
0
230
1
0
ENDBLK
5
1FD
100
AcDbEntity
8
0
100
AcDbBlockEnd
0
ENDSEC
0
SECTION
2
ENTITIES
0
ARC
5
14D
100
AcDbEntity
8
1
62
256
6
ByLayer
370
18
48
1
60
0
100
AcDbCircle
39
0
10
1554.075
20
27.85
30
0
40
0.8
210
0
220
0
230
1
100
AcDbArc
50
81.735099
51
82.996234
0
ARC
5
14E
100
AcDbEntity
8
1
62
256
6
ByLayer
370
18
48
1
60
0
100
AcDbCircle
39
0
10
1554.075
20
20.15
30
0
40
0.8
210
0
220
0
230
1
100
AcDbArc
50
273.147776
51
278.264901
0
ARC
5
14F
100
AcDbEntity
8
1
62
256
6
ByLayer
370
18
48
1
60
0
100
AcDbCircle
39
0
10
-1545.25
20
-2.736888
30
0
40
0.25
210
0
220
0
230
-1
100
AcDbArc
50
0
51
90
0
ARC
5
150
100
AcDbEntity
8
1
62
256
6
ByLayer
370
18
48
1
60
0
100
AcDbCircle
39
0
10
-1545.25
20
2.763112
30
0
40
0.25
210
0
220
0
230
-1
100
AcDbArc
50
270
51
0
0
ARC
5
151
100
AcDbEntity
8
1
62
256
6
ByLayer
370
18
48
1
60
0
100
AcDbCircle
39
0
10
1554.075
20
59.85
30
0
40
0.8
210
0
220
0
230
1
100
AcDbArc
50
81.735099
51
86.852224
0
ARC
5
152
100
AcDbEntity
8
1
62
256
6
ByLayer
370
18
48
1
60
0
100
AcDbCircle
39
0
10
1554.075
20
52.15
30
0
40
0.8
210
0
220
0
230
1
100
AcDbArc
50
277.003766
51
278.264901
0
ELLIPSE
5
153
100
AcDbEntity
8
1
62
256
6
ByLayer
370
18
48
1
60
0
100
AcDbEllipse
10
1549.4599
20
60
30
0
11
2.50000000000006
21
0
31
0
210
0
220
0
230
1
40
0.866025
41
0
42
6.28318530717959
0
ELLIPSE
5
154
100
AcDbEntity
8
1
62
256
6
ByLayer
370
18
48
1
60
0
100
AcDbEllipse
10
1549.4599
20
20
30
0
11
2.50000000000006
21
0
31
0
210
0
220
0
230
1
40
0.866025
41
0
42
6.28318530717959
0
ELLIPSE
5
155
100
AcDbEntity
8
1
62
256
6
ByLayer
370
18
48
1
60
0
100
AcDbEllipse
10
1569.43711
20
64.653473
30
0
11
-1.67282651282474
21
1.85786206051843
31
0
210
0
220
0
230
1
40
0.258819
41
3.14159265358979
42
-2.87032889960639
0
ELLIPSE
5
156
100
AcDbEntity
8
1
62
256
6
ByLayer
370
18
48
1
60
0
100
AcDbEllipse
10
1569.43711
20
64.653473
30
0
11
-1.67282651231821
21
1.85786205950076
31
0
210
0
220
0
230
1
40
0.258819
41
-0.252629999349495
42
0
0
ELLIPSE
5
157
100
AcDbEntity
8
1
62
256
6
ByLayer
370
18
48
1
60
0
100
AcDbEllipse
10
1569.43736
20
64.653153
30
0
11
-1.67307559005619
21
1.85818235428889
31
0
210
0
220
0
230
1
40
0.2588
41
-0.271239012905459
42
-0.252606819143303
0
ELLIPSE
5
158
100
AcDbEntity
8
1
62
256
6
ByLayer
370
18
48
1
60
0
100
AcDbEllipse
10
1569.43711
20
64.653473
30
0
11
-1.67282651589759
21
1.85786206369396
31
0
210
0
220
0
230
1
40
0.258819
41
-2.87032889986294
42
-0.271263753727063
0
ELLIPSE
5
159
100
AcDbEntity
8
1
62
256
6
ByLayer
370
18
48
1
60
0
100
AcDbEllipse
10
1569.580675
20
64.782739
30
0
11
-1.53900039462567
21
1.70923309859819
31
0
210
0
220
0
230
1
40
0.258819
41
-2.87032889986335
42
-0.271263753726745
0
ELLIPSE
5
15A
100
AcDbEntity
8
1
62
256
6
ByLayer
370
18
48
1
60
0
100
AcDbEllipse
10
1569.43711
20
15.346527
30
0
11
1.67282651745847
21
1.85786206568912
31
0
210
0
220
0
230
1
40
0.258819
41
3.14159265358979
42
-2.87032890001994
0
ELLIPSE
5
15B
100
AcDbEntity
8
1
62
256
6
ByLayer
370
18
48
1
60
0
100
AcDbEllipse
10
1569.43711
20
15.346527
30
0
11
1.67282651045497
21
1.85786205820672
31
0
210
0
220
0
230
1
40
0.258819
41
-0.271263754185945
42
0
0
ELLIPSE
5
15C
100
AcDbEntity
8
1
62
256
6
ByLayer
370
18
48
1
60
0
100
AcDbEllipse
10
1569.43711
20
15.346527
30
0
11
1.67282651589683
21
1.85786206369358
31
0
210
0
220
0
230
1
40
0.258819
41
-2.8703288998646
42
-0.271263753726249
0
ELLIPSE
5
15D
100
AcDbEntity
8
1
62
256
6
ByLayer
370
18
48
1
60
0
100
AcDbEllipse
10
1569.580675
20
15.217261
30
0
11
1.5390003946255
21
1.7092330985981
31
0
210
0
220
0
230
1
40
0.258819
41
-2.87032889986344
42
-0.271263753726265
0
ELLIPSE
5
15E
100
AcDbEntity
8
1
62
256
6
ByLayer
370
18
48
1
60
0
100
AcDbEllipse
10
1528.343242
20
40.037366
30
0
11
-69.3221305658737
21
0.0214040470164973
31
0
210
0
220
0
230
1
40
0.577557
41
1.96031981219925
42
1.96518432803738
0
ELLIPSE
5
15F
100
AcDbEntity
8
1
62
256
6
ByLayer
370
18
48
1
60
0
100
AcDbEllipse
10
1580.330527
20
39.998596
30
0
11
-69.2805505168887
21
0.000770685624221206
31
0
210
0
220
0
230
1
40
0.577342
41
1.19117215027348
42
1.20153630816015
0
ELLIPSE
5
160
100
AcDbEntity
8
1
62
256
6
ByLayer
370
18
48
1
60
0
100
AcDbEllipse
10
1530.968271
20
39.999632
30
0
11
69.2816517595507
21
0.000191471410908867
31
0
210
0
220
0
230
1
40
0.577348
41
-1.22184374287377
42
-1.21155986831892
0
ELLIPSE
5
161
100
AcDbEntity
8
1
62
256
6
ByLayer
370
18
48
1
60
0
100
AcDbEllipse
10
1577.732538
20
39.998554
30
0
11
-69.2805644590107
21
0.000711232116626909
31
0
210
0
220
0
230
1
40
0.577342
41
1.23123638781989
42
1.24144826798199
0
ELLIPSE
5
162
100
AcDbEntity
8
1
62
256
6
ByLayer
370
18
48
1
60
0
100
AcDbEllipse
10
1533.56636
20
39.999559
30
0
11
69.2815925341166
21
0.000204758326210946
31
0
210
0
220
0
230
1
40
0.577348
41
-1.26147373578664
42
-1.25133068478874
0
ELLIPSE
5
163
100
AcDbEntity
8
1
62
256
6
ByLayer
370
18
48
1
60
0
100
AcDbEllipse
10
1575.13487
20
39.999124
30
0
11
-69.28117226562
21
0.000382045308618028
31
0
210
0
220
0
230
1
40
0.577345
41
1.27073662309103
42
1.28081811799956
0
ELLIPSE
5
164
100
AcDbEntity
8
1
62
256
6
ByLayer
370
18
48
1
60
0
100
AcDbEllipse
10
1536.16368
20
40.00104
30
0
11
-69.2830373849874
21
0.000423458325654505
31
0
210
0
220
0
230
1
40
0.577357
41
1.84099570942232
42
1.85101855093646
0
ELLIPSE
5
165
100
AcDbEntity
8
1
62
256
6
ByLayer
370
18
48
1
60
0
100
AcDbEllipse
10
1572.537534
20
40.000618
30
0
11
69.2826210001243
21
0.000234194372238635
31
0
210
0
220
0
230
1
40
0.577354
41
-1.83183791928779
42
-1.82186711090709
0
ELLIPSE
5
166
100
AcDbEntity
8
1
62
256
6
ByLayer
370
18
48
1
60
0
100
AcDbEllipse
10
1538.761927
20
40.000809
30
0
11
-69.2827919910387
21
0.000283930205153642
31
0
210
0
220
0
230
1
40
0.577356
41
1.80227949595091
42
1.81220124664859
0
ELLIPSE
5
167
100
AcDbEntity
8
1
62
256
6
ByLayer
370
18
48
1
60
0
100
AcDbEllipse
10
1569.939317
20
40.000363
30
0
11
69.2823690890663
21
0.000117380643189588
31
0
210
0
220
0
230
1
40
0.577353
41
-1.79321069005303
42
-1.78333224594557
0
ELLIPSE
5
168
100
AcDbEntity
8
1
62
256
6
ByLayer
370
18
48
1
60
0
100
AcDbEllipse
10
1541.36077
20
39.998766
30
0
11
69.2809001305673
21
0.000364523907421676
31
0
210
0
220
0
230
1
40
0.577342
41
-1.37768767419388
42
-1.36784942748926
0
ELLIPSE
5
169
100
AcDbEntity
8
1
62
256
6
ByLayer
370
18
48
1
60
0
100
AcDbEllipse
10
1567.341179
20
40.000247
30
0
11
69.2822561300491
21
6.52762399345219E-05
31
0
210
0
220
0
230
1
40
0.577352
41
-1.75491921609363
42
-1.74511642559671
0
ELLIPSE
5
16A
100
AcDbEntity
8
1
62
256
6
ByLayer
370
18
48
1
60
0
100
AcDbEllipse
10
1543.958446
20
39.999895
30
0
11
69.2819378944896
21
2.55327559506832E-05
31
0
210
0
220
0
230
1
40
0.57735
41
-1.41575968824328
42
-1.40598919174017
0
ELLIPSE
5
16B
100
AcDbEntity
8
1
62
256
6
ByLayer
370
18
48
1
60
0
100
AcDbEllipse
10
1564.742932
20
39.999611
30
0
11
-69.2816856079846
21
8.1264116933023E-05
31
0
210
0
220
0
230
1
40
0.577348
41
1.42469515161801
42
1.43443801279011
0
ELLIPSE
5
16C
100
AcDbEntity
8
1
62
256
6
ByLayer
370
18
48
1
60
0
100
AcDbEllipse
10
1546.556564
20
39.999663
30
0
11
69.2817336435066
21
6.15386908885821E-05
31
0
210
0
220
0
230
1
40
0.577348
41
-1.45361262512098
42
-1.44389449125238
0
ELLIPSE
5
16D
100
AcDbEntity
8
1
62
256
6
ByLayer
370
18
48
1
60
0
100
AcDbEllipse
10
1562.145249
20
40.001667
30
0
11
69.2834988813534
21
0.000257789262792806
31
0
210
0
220
0
230
1
40
0.577362
41
-1.67909534078541
42
-1.669397894287
0
ELLIPSE
5
16E
100
AcDbEntity
8
1
62
256
6
ByLayer
370
18
48
1
60
0
100
AcDbEllipse
10
1549.154556
20
40.000086
30
0
11
-69.2821074537655
21
1.13061092308346E-05
31
0
210
0
220
0
230
1
40
0.577351
41
1.65029697218292
42
1.65997717874723
0
ELLIPSE
5
16F
100
AcDbEntity
8
1
62
256
6
ByLayer
370
18
48
1
60
0
100
AcDbEllipse
10
1559.546856
20
39.999845
30
0
11
-69.2818972536406
21
1.54943841658946E-05
31
0
210
0
220
0
230
1
40
0.577349
41
1.50015456760322
42
1.5098213190415
0
ELLIPSE
5
170
100
AcDbEntity
8
1
62
256
6
ByLayer
370
18
48
1
60
0
100
AcDbEllipse
10
1551.75267
20
39.999691
30
0
11
69.2817640122606
21
2.16545725520095E-05
31
0
210
0
220
0
230
1
40
0.577348
41
-1.52886769243543
42
-1.51921129359002
0
ELLIPSE
5
171
100
AcDbEntity
8
1
62
256
6
ByLayer
370
18
48
1
60
0
100
AcDbEllipse
10
1556.948803
20
40.000104
30
0
11
69.2821228622862
21
4.25405890366117E-06
31
0
210
0
220
0
230
1
40
0.577351
41
-1.60388569831314
42
-1.59423604884468
0
ELLIPSE
5
172
100
AcDbEntity
8
1
62
256
6
ByLayer
370
18
48
1
60
0
100
AcDbEllipse
10
1554.35072
20
40.000073
30
0
11
-69.2820952861186
21
1.00434950273401E-06
31
0
210
0
220
0
230
1
40
0.577351
41
1.57521309180844
42
1.58485930264752
0
ELLIPSE
5
173
100
AcDbEntity
8
1
62
256
6
ByLayer
370
18
48
1
60
0
100
AcDbEllipse
10
1570.325007
20
40.000017
30
0
11
15.9413467860493
21
36.6861683493662
31
0
210
0
220
0
230
1
40
1
41
3.1279775257869
42
-3.12570813251744
0
ELLIPSE
5
174
100
AcDbEntity
8
1
62
256
6
ByLayer
370
18
48
1
60
0
100
AcDbEllipse
10
1553.670464
20
40
30
0
11
4.68581336926276E-14
21
39.99999999998
31
0
210
0
220
0
230
1
40
0.013091
41
-2.71806021835718
42
-1.69590815739253
0
ELLIPSE
5
175
100
AcDbEntity
8
1
62
256
6
ByLayer
370
18
48
1
60
0
100
AcDbEllipse
10
1553.670464
20
40
30
0
11
4.68581331074764E-14
21
39.9999995004713
31
0
210
0
220
0
230
1
40
0.013091
41
-1.69590815896441
42
-1.44568449462538
0
ELLIPSE
5
176
100
AcDbEntity
8
1
62
256
6
ByLayer
370
18
48
1
60
0
100
AcDbEllipse
10
1553.670464
20
40
30
0
11
4.68581336889661E-14
21
39.9999999968544
31
0
210
0
220
0
230
1
40
0.013091
41
-1.44568449620571
42
-0.662505964239697
0
ELLIPSE
5
177
100
AcDbEntity
8
1
62
256
6
ByLayer
370
18
48
1
60
0
100
AcDbEllipse
10
1546.709903
20
72.444437
30
0
11
-9.09326678637715
21
1.68823117408678E-08
31
0
210
0
220
0
230
1
40
0.57735
41
2.63401266801236
42
2.81585500401924
0
ELLIPSE
5
178
100
AcDbEntity
8
1
62
256
6
ByLayer
370
18
48
1
60
0
100
AcDbEllipse
10
1561.991545
20
72.444439
30
0
11
9.09327212308166
21
2.79143203105821E-06
31
0
210
0
220
0
230
1
40
0.57735
41
-2.50920917901698
42
-2.45332325909656
0
ELLIPSE
5
179
100
AcDbEntity
8
1
62
256
6
ByLayer
370
18
48
1
60
0
100
AcDbEllipse
10
1550.913572
20
72.444437
30
0
11
-3.71231060678105
21
3.71231060678105
31
0
210
0
220
0
230
1
40
1
41
2.99444159522027
42
-3.0444642483634
0
ELLIPSE
5
17A
100
AcDbEntity
8
1
62
256
6
ByLayer
370
18
48
1
60
0
100
AcDbEllipse
10
1554.758721
20
76.265204
30
0
11
8.91872372054164E-16
21
0.761338364779168
31
0
210
0
220
0
230
1
40
0.267949
41
1.5707963267949
42
2.61799387795497
0
ELLIPSE
5
17B
100
AcDbEntity
8
1
62
256
6
ByLayer
370
18
48
1
60
0
100
AcDbEllipse
10
1554.350721
20
39.999997
30
0
11
69.282034645087
21
0
31
0
210
0
220
0
230
1
40
0.57735
41
1.55673336374309
42
1.56637958302458
0
ELLIPSE
5
17C
100
AcDbEntity
8
1
62
256
6
ByLayer
370
18
48
1
60
0
100
AcDbEllipse
10
1556.94878
20
40.000346
30
0
11
69.2817322950464
21
1.48523228997809E-05
31
0
210
0
220
0
230
1
40
0.577348
41
1.59423570313174
42
1.60388540695587
0
ELLIPSE
5
17D
100
AcDbEntity
8
1
62
256
6
ByLayer
370
18
48
1
60
0
100
AcDbEllipse
10
1551.752648
20
40.000034
30
0
11
-69.2820030507056
21
2.36048438341469E-06
31
0
210
0
220
0
230
1
40
0.57735
41
-1.62238166499666
42
-1.61272529939558
0
ELLIPSE
5
17E
100
AcDbEntity
8
1
62
256
6
ByLayer
370
18
48
1
60
0
100
AcDbEllipse
10
1559.546938
20
39.999437
30
0
11
-69.2825230669557
21
5.5783383673046E-05
31
0
210
0
220
0
230
1
40
0.577354
41
-1.50982008375734
42
-1.50015341925644
0
ELLIPSE
5
17F
100
AcDbEntity
8
1
62
256
6
ByLayer
370
18
48
1
60
0
100
AcDbEllipse
10
1549.154562
20
39.999959
30
0
11
69.2820684085525
21
5.99092617711416E-06
31
0
210
0
220
0
230
1
40
0.577351
41
1.48161555795723
42
1.49129576994306
0
ELLIPSE
5
180
100
AcDbEntity
8
1
62
256
6
ByLayer
370
18
48
1
60
0
100
AcDbEllipse
10
1562.145335
20
39.997859
30
0
11
-69.2839165245261
21
0.000331194367568419
31
0
210
0
220
0
230
1
40
0.577365
41
-1.47219350806861
42
-1.4624961194121
0
ELLIPSE
5
181
100
AcDbEntity
8
1
62
256
6
ByLayer
370
18
48
1
60
0
100
AcDbEllipse
10
1546.556579
20
40.000404
30
0
11
-69.2816743169799
21
7.3889703668493E-05
31
0
210
0
220
0
230
1
40
0.577347
41
-1.69769795955751
42
-1.68797981749102
0
ELLIPSE
5
182
100
AcDbEntity
8
1
62
256
6
ByLayer
370
18
48
1
60
0
100
AcDbEllipse
10
1564.742672
20
40.001445
30
0
11
69.2807438631089
21
0.000304157170726181
31
0
210
0
220
0
230
1
40
0.57734
41
1.70715086086598
42
1.71689385190231
0
ELLIPSE
5
183
100
AcDbEntity
8
1
62
256
6
ByLayer
370
18
48
1
60
0
100
AcDbEllipse
10
1543.958646
20
40.000823
30
0
11
-69.2812922345668
21
0.000196441818827353
31
0
210
0
220
0
230
1
40
0.577345
41
-1.73560066281616
42
-1.72583007749384
0
ELLIPSE
5
184
100
AcDbEntity
8
1
62
256
6
ByLayer
370
18
48
1
60
0
100
AcDbEllipse
10
1567.341299
20
39.999372
30
0
11
-69.2826026292154
21
0.000167309552408947
31
0
210
0
220
0
230
1
40
0.577355
41
-1.39647450370377
42
-1.38667176072341
0
ELLIPSE
5
185
100
AcDbEntity
8
1
62
256
6
ByLayer
370
18
48
1
60
0
100
AcDbEllipse
10
1541.360968
20
40.001807
30
0
11
-69.280374505662
21
0.00053301341304052
31
0
210
0
220
0
230
1
40
0.577338
41
-1.77374045931355
42
-1.76390214072751
0
ELLIPSE
5
186
100
AcDbEntity
8
1
62
256
6
ByLayer
370
18
48
1
60
0
100
AcDbEllipse
10
1569.939247
20
39.999818
30
0
11
-69.2822008086049
21
5.78545056963154E-05
31
0
210
0
220
0
230
1
40
0.577351
41
-1.3582614198014
42
-1.34838295280144
0
ELLIPSE
5
187
100
AcDbEntity
8
1
62
256
6
ByLayer
370
18
48
1
60
0
100
AcDbEllipse
10
1538.762211
20
39.999874
30
0
11
69.2821510697839
21
4.47675799149402E-05
31
0
210
0
220
0
230
1
40
0.577351
41
1.32939534418218
42
1.33931718191361
0
ELLIPSE
5
188
100
AcDbEntity
8
1
62
256
6
ByLayer
370
18
48
1
60
0
100
AcDbEllipse
10
1572.537612
20
39.999209
30
0
11
-69.2827851163265
21
0.000299560606584655
31
0
210
0
220
0
230
1
40
0.577355
41
-1.31972444309755
42
-1.30975365691633
0
ELLIPSE
5
189
100
AcDbEntity
8
1
62
256
6
ByLayer
370
18
48
1
60
0
100
AcDbEllipse
10
1536.163843
20
39.999293
30
0
11
69.2827148007101
21
0.000287537149768545
31
0
210
0
220
0
230
1
40
0.577355
41
1.29057634439319
42
1.30059922937428
0
ELLIPSE
5
18A
100
AcDbEntity
8
1
62
256
6
ByLayer
370
18
48
1
60
0
100
AcDbEllipse
10
1575.1347
20
40.001199
30
0
11
69.2808557820924
21
0.000522651059187264
31
0
210
0
220
0
230
1
40
0.577343
41
1.86077217084404
42
1.87085370821642
0
ELLIPSE
5
18B
100
AcDbEntity
8
1
62
256
6
ByLayer
370
18
48
1
60
0
100
AcDbEllipse
10
1533.565309
20
39.998573
30
0
11
69.283455644568
21
0.000661458278752306
31
0
210
0
220
0
230
1
40
0.577359
41
1.2513163725625
42
1.26145917460789
0
ELLIPSE
5
18C
100
AcDbEntity
8
1
62
256
6
ByLayer
370
18
48
1
60
0
100
AcDbEllipse
10
1577.732298
20
40.001844
30
0
11
69.2801596017923
21
0.000907623507053476
31
0
210
0
220
0
230
1
40
0.577339
41
1.90014108361677
42
1.91035301764059
0
ELLIPSE
5
18D
100
AcDbEntity
8
1
62
256
6
ByLayer
370
18
48
1
60
0
100
AcDbEllipse
10
1530.96818
20
40.000225
30
0
11
-69.2817989225834
21
0.000117637951642238
31
0
210
0
220
0
230
1
40
0.577349
41
-1.93003400363498
42
-1.91975014859466
0
ELLIPSE
5
18E
100
AcDbEntity
8
1
62
256
6
ByLayer
370
18
48
1
60
0
100
AcDbEllipse
10
1580.330987
20
40.000727
30
0
11
69.281264265948
21
0.000399930060906133
31
0
210
0
220
0
230
1
40
0.577346
41
1.94006256548353
42
1.9504266291541
0
ELLIPSE
5
18F
100
AcDbEntity
8
1
62
256
6
ByLayer
370
18
48
1
60
0
100
AcDbEllipse
10
1554.758721
20
76.265204
30
0
11
8.91872372054682E-16
21
0.76133836477961
31
0
210
0
220
0
230
1
40
0.267949
41
0.523598775635274
42
1.5707963267949
0
ELLIPSE
5
190
100
AcDbEntity
8
1
62
256
6
ByLayer
370
18
48
1
60
0
100
AcDbEllipse
10
1041.635915
20
550.578135
30
0
11
-549.394398106619
21
528.23736820433
31
0
210
0
220
0
230
1
40
0.048591
41
-2.81150353088037
42
-2.80507219848526
0
ELLIPSE
5
191
100
AcDbEntity
8
1
62
256
6
ByLayer
370
18
48
1
60
0
100
AcDbEllipse
10
1041.692104
20
-470.525906
30
0
11
549.338166988132
21
528.185003397515
31
0
210
0
220
0
230
1
40
0.048593
41
-0.336537162999737
42
-0.330105487974726
0
ELLIPSE
5
192
100
AcDbEntity
8
1
62
256
6
ByLayer
370
18
48
1
60
0
100
AcDbEllipse
10
1575.082435
20
40
30
0
11
-38.0494836210549
21
39.3223698036365
31
0
210
0
220
0
230
1
40
0.192684
41
-1.20871460204214
42
-1.04754204710383
0
ELLIPSE
5
193
100
AcDbEntity
8
1
62
256
6
ByLayer
370
18
48
1
60
0
100
AcDbEllipse
10
1575.082434
20
40
30
0
11
38.0494833483384
21
39.3223694358354
31
0
210
0
220
0
230
1
40
0.192684
41
-2.09405060408902
42
-1.93287804802131
0
POINT
5
6C
100
AcDbEntity
8
80
62
256
6
ByLayer
370
18
48
1
60
0
100
AcDbPoint
10
0
20
0
30
0
39
0
210
0
220
0
230
1
50
360
0
POINT
5
6E
100
AcDbEntity
8
81
62
256
6
ByLayer
370
18
48
1
60
0
100
AcDbPoint
10
1555
20
40
30
0
39
0
210
0
220
0
230
1
50
360
0
SPLINE
5
194
100
AcDbEntity
8
1
62
256
6
ByLayer
370
18
48
1
60
0
100
AcDbSpline
70
4
71
3
72
12
73
8
40
0
40
0
40
0
40
0
40
0.286773853404796
40
0.286773853404796
40
0.573547706818429
40
0.573547706818429
40
1
40
1
40
1
40
1
41
1
10
1554.69204968918
20
77.0006646693614
30
0
41
1
10
1554.68867275552
20
77.0014654473444
30
0
41
1
10
1554.68529578143
20
77.0022660548195
30
-1E-16
41
1
10
1554.67854175243
20
77.0038669287831
30
-1E-16
41
1
10
1554.67516469752
20
77.0046671952737
30
-1E-16
41
1
10
1554.66676563102
20
77.0066570886686
30
-1E-16
41
1
10
1554.6617435705
20
77.0078465090682
30
0
41
1
10
1554.65672142074
20
77.0090355525355
30
0
0
SPLINE
5
195
100
AcDbEntity
8
1
62
256
6
ByLayer
370
18
48
1
60
0
100
AcDbSpline
70
4
71
1
72
4
73
2
40
0
40
0
40
1
40
1
41
1
10
1545
20
78.782
30
0
41
1
10
1545.00004003901
20
78.7920955324379
30
0
0
SPLINE
5
196
100
AcDbEntity
8
1
62
256
6
ByLayer
370
18
48
1
60
0
100
AcDbSpline
70
4
71
3
72
13
73
9
40
0
40
0
40
0
40
0
40
0.0366729676554832
40
0.275725283708172
40
0.514164236465138
40
0.739849167327312
40
0.947249420127842
40
1
40
1
40
1
40
1
41
1
10
1545
20
72.7936874864794
30
0
41
1
10
1544.99999993061
20
72.7705465399892
30
0
41
1
10
1545.0045661249
20
72.5973896268328
30
0
41
1
10
1545.0782648556
20
72.2742748324528
30
0
41
1
10
1545.3275335318
20
71.892180100572
30
0
41
1
10
1545.68404916514
20
71.6314756929331
30
0
41
1
10
1545.99661810165
20
71.5456340029858
30
0
41
1
10
1546.16541912762
20
71.5381633914381
30
0
41
1
10
1546.2
20
71.5381321457292
30
0
0
SPLINE
5
197
100
AcDbEntity
8
1
62
256
6
ByLayer
370
18
48
1
60
0
100
AcDbSpline
70
4
71
3
72
11
73
7
40
0
40
0
40
0
40
0
40
0.31759771535938
40
0.634494539656447
40
0.969531326667284
40
1
40
1
40
1
40
1
41
1
10
1554.65672142074
20
2.99096444746448
30
0
41
1
10
1554.63597278886
20
2.98585644961137
30
0
41
1
10
1554.60077473187
20
2.97396426529666
30
0
41
1
10
1554.56479093369
20
2.94940603089595
30
0
41
1
10
1554.55513688109
20
2.93018395608059
30
0
41
1
10
1554.5547230896
20
2.9199293539265
30
0
41
1
10
1554.55472148437
20
2.91907274232154
30
0
0
SPLINE
5
198
100
AcDbEntity
8
1
62
256
6
ByLayer
370
18
48
1
60
0
100
AcDbSpline
70
4
71
3
72
11
73
7
40
0
40
0
40
0
40
0
40
0.318533968939083
40
0.636502922560901
40
0.968852790184946
40
1
40
1
40
1
40
1
41
1
10
1554.65672142074
20
2.41078984501065
30
0
41
1
10
1554.63602528112
20
2.40628336615333
30
0
41
1
10
1554.60088221404
20
2.39574995743652
30
0
41
1
10
1554.56483562965
20
2.373975498041
30
0
41
1
10
1554.55514601532
20
2.35689007710767
30
0
41
1
10
1554.55472313757
20
2.3478150340663
30
0
41
1
10
1554.55472148234
20
2.34703571177986
30
0
0
SPLINE
5
199
100
AcDbEntity
8
1
62
256
6
ByLayer
370
18
48
1
60
0
100
AcDbSpline
70
4
71
3
72
11
73
7
40
0
40
0
40
0
40
0
40
0.319362917707848
40
0.638281095935348
40
0.968356645369664
40
1
40
1
40
1
40
1
41
1
10
1554.65672142074
20
1.89844192656854
30
0
41
1
10
1554.63607094801
20
1.89450311914247
30
0
41
1
10
1554.60097560603
20
1.88526522938014
30
0
41
1
10
1554.56487141072
20
1.86615282217796
30
0
41
1
10
1554.55515270479
20
1.8511270964725
30
0
41
1
10
1554.55472317257
20
1.84317794198183
30
0
41
1
10
1554.55472148031
20
1.84248096865508
30
0
0
SPLINE
5
19A
100
AcDbEntity
8
1
62
256
6
ByLayer
370
18
48
1
60
0
100
AcDbSpline
70
4
71
3
72
11
73
7
40
0
40
0
40
0
40
0
40
0.32008646857921
40
0.639833300979132
40
0.967995181890785
40
1
40
1
40
1
40
1
41
1
10
1554.65672142074
20
1.45121616483619
30
0
41
1
10
1554.63611033647
20
1.44781698854495
30
0
41
1
10
1554.6010560974
20
1.43982225051068
30
0
41
1
10
1554.56490010686
20
1.42327161320638
30
0
41
1
10
1554.55515758772
20
1.4102417862177
30
0
41
1
10
1554.55472319795
20
1.40337374456903
30
0
41
1
10
1554.5547214784
20
1.40276202660282
30
0
0
SPLINE
5
19B
100
AcDbEntity
8
1
62
256
6
ByLayer
370
18
48
1
60
0
100
AcDbSpline
70
4
71
3
72
11
73
7
40
0
40
0
40
0
40
0
40
0.320706500563699
40
0.641163702598899
40
0.967731474257956
40
1
40
1
40
1
40
1
41
1
10
1554.65672142074
20
1.06686831608196
30
0
41
1
10
1554.63614388578
20
1.06398566469743
30
0
41
1
10
1554.60112463712
20
1.05719094911072
30
0
41
1
10
1554.56492313525
20
1.04311981361562
30
0
41
1
10
1554.55516115747
20
1.03203331842308
30
0
41
1
10
1554.55472321625
20
1.02620930284341
30
0
41
1
10
1554.55472147669
20
1.02568434762667
30
0
0
SPLINE
5
19C
100
AcDbEntity
8
1
62
256
6
ByLayer
370
18
48
1
60
0
100
AcDbSpline
70
4
71
3
72
11
73
7
40
0
40
0
40
0
40
0
40
0.32122475234309
40
0.642276149861855
40
0.967536929553344
40
1
40
1
40
1
40
1
41
1
10
1554.65672142074
20
0.7435514817703
30
0
41
1
10
1554.63617194804
20
0.741166515323587
30
0
41
1
10
1554.60118198146
20
0.735536670350789
30
0
41
1
10
1554.56494159419
20
0.723878201109766
30
0
41
1
10
1554.55516379576
20
0.7146922154058
30
0
41
1
10
1554.55472322939
20
0.709881893225168
30
0
41
1
10
1554.55472147521
20
0.709444342368003
30
0
0
SPLINE
5
19D
100
AcDbEntity
8
1
62
256
6
ByLayer
370
18
48
1
60
0
100
AcDbSpline
70
4
71
3
72
11
73
7
40
0
40
0
40
0
40
0
40
0.321642747140124
40
0.643174015923993
40
0.967389511776221
40
1
40
1
40
1
40
1
41
1
10
1554.65672142074
20
0.47976774092117
30
0
41
1
10
1554.63619480307
20
0.477865375126436
30
0
41
1
10
1554.60122872875
20
0.473372264314535
30
0
41
1
10
1554.56495633083
20
0.464073110144055
30
0
41
1
10
1554.55516579671
20
0.456753416994902
30
0
41
1
10
1554.5547232388
20
0.452932487287035
30
0
41
1
10
1554.55472147399
20
0.452582495868761
30
0
0
SPLINE
5
19E
100
AcDbEntity
8
1
62
256
6
ByLayer
370
18
48
1
60
0
100
AcDbSpline
70
4
71
3
72
11
73
7
40
0
40
0
40
0
40
0
40
0.321961742425964
40
0.643860090949839
40
0.96727245302347
40
1
40
1
40
1
40
1
41
1
10
1554.65672142074
20
0.274331152784203
30
0
41
1
10
1554.6362126694
20
0.272899671851642
30
0
41
1
10
1554.60126534478
20
0.269521445611792
30
0
41
1
10
1554.56496799019
20
0.262540278961326
30
0
41
1
10
1554.55516738412
20
0.257060401340599
30
0
41
1
10
1554.55472324559
20
0.254210043186636
30
0
41
1
10
1554.55472147303
20
0.253947549695538
30
0
0
SPLINE
5
19F
100
AcDbEntity
8
1
62
256
6
ByLayer
370
18
48
1
60
0
100
AcDbSpline
70
4
71
3
72
11
73
7
40
0
40
0
40
0
40
0
40
0.322182696060813
40
0.644336510153238
40
0.967173323384129
40
1
40
1
40
1
40
1
41
1
10
1554.65672142074
20
0.126339860682872
30
0
41
1
10
1554.63622571221
20
0.125370629661453
30
0
41
1
10
1554.60129218113
20
0.123091184655465
30
0
41
1
10
1554.56497705051
20
0.118397626732611
30
0
41
1
10
1554.55516872381
20
0.114738184878733
30
0
41
1
10
1554.55472325054
20
0.112844646369352
30
0
41
1
10
1554.55472147235
20
0.112669563347304
30
0
0
SPLINE
5
1A0
100
AcDbEntity
8
1
62
256
6
ByLayer
370
18
48
1
60
0
100
AcDbSpline
70
4
71
3
72
11
73
7
40
0
40
0
40
0
40
0
40
0.322306243199037
40
0.644604704923623
40
0.967083372842367
40
1
40
1
40
1
40
1
41
1
10
1554.65672142074
20
0.0351556933736608
30
0
41
1
10
1554.63623404906
20
0.0346429533485453
30
0
41
1
10
1554.60130948826
20
0.0334515479332627
30
0
41
1
10
1554.56498384812
20
0.0310254095791919
30
0
41
1
10
1554.55516993246
20
0.0291736655000184
30
0
41
1
10
1554.55472325421
20
0.028227972416827
30
0
41
1
10
1554.55472147193
20
0.0281403179367758
30
0
0
SPLINE
5
1A1
100
AcDbEntity
8
1
62
256
6
ByLayer
370
18
48
1
60
0
100
AcDbSpline
70
4
71
3
72
11
73
7
40
0
40
0
40
0
40
0
40
0.322113991045076
40
0.644227990732877
40
0.966341020472468
40
1
40
1
40
1
40
1
41
1
10
1554.65672142074
20
0.0003901519027296
30
0
41
1
10
1554.63623775374
20
0.000330886739725
30
0
41
1
10
1554.60131742738
20
0.0002218908622751
30
0
41
1
10
1554.56498858398
20
5.26823260849E-05
30
0
41
1
10
1554.55516127163
20
2.1962736876E-06
30
0
41
1
10
1554.55472198925
20
1.19629906E-08
30
0
41
1
10
1554.5547209899
20
-2.68388768E-08
30
0
0
SPLINE
5
1A2
100
AcDbEntity
8
1
62
256
6
ByLayer
370
18
48
1
60
0
100
AcDbSpline
70
2053
71
3
72
44
73
40
40
0
40
0
40
0
40
0
40
0.0237027710870815
40
0.0474080518469992
40
0.0745337967000326
40
0.101661982687178
40
0.129503047617998
40
0.15734441161496
40
0.185524764782048
40
0.21370287290112
40
0.241702963610067
40
0.269698451317324
40
0.297009997397902
40
0.324316503525243
40
0.350653583077646
40
0.376988143435874
40
0.402546292938494
40
0.428105509650144
40
0.453501974294775
40
0.478901863527124
40
0.50480495366071
40
0.530711994310111
40
0.557500797470557
40
0.584292562242805
40
0.611929919030309
40
0.639568305962481
40
0.667695082557209
40
0.695820449643039
40
0.723935796889392
40
0.752047183128666
40
0.779625017852715
40
0.807197625336767
40
0.833848742182133
40
0.860496286589579
40
0.886248955993209
40
0.912001611080683
40
0.937371073458518
40
0.962743410763199
40
1
40
1
40
1
40
1
41
1
10
1551.70989713183
20
18.3654002467871
30
0
41
1
10
1551.61048877067
20
18.2739244832335
30
0
41
1
10
1551.3982104758
20
18.1057720001025
30
0
41
1
10
1551.01968809493
20
17.8847223230582
30
0
41
1
10
1550.58539324069
20
17.7092410904136
30
0
41
1
10
1550.09820007146
20
17.5882054218123
30
0
41
1
10
1549.58898669591
20
17.5360163000083
30
0
41
1
10
1549.06978959006
20
17.5532882940794
30
0
41
1
10
1548.55959449704
20
17.643800142834
30
0
41
1
10
1548.07357926777
20
17.8037841109741
30
0
41
1
10
1547.62936933366
20
18.0317736954021
30
0
41
1
10
1547.24155084233
20
18.3174549173132
30
0
41
1
10
1546.92286165106
20
18.6552923375913
30
0
41
1
10
1546.68190973711
20
19.0288501740134
30
0
41
1
10
1546.52507656446
20
19.4307565013304
30
0
41
1
10
1546.45156949623
20
19.8432824069305
30
0
41
1
10
1546.46310964249
20
20.2592731660408
30
0
41
1
10
1546.55255320886
20
20.6655761039071
30
0
41
1
10
1546.71970467491
20
21.0543072005133
30
0
41
1
10
1546.95691203911
20
21.4179297670622
30
0
41
1
10
1547.26139589984
20
21.7455103781872
30
0
41
1
10
1547.62701843473
20
22.0321948254338
30
0
41
1
10
1548.04548620728
20
22.2645947660531
30
0
41
1
10
1548.50980851932
20
22.4384647334507
30
0
41
1
10
1549.00513940299
20
22.541820521442
30
0
41
1
10
1549.52074970379
20
22.572350014193
30
0
41
1
10
1550.03776811357
20
22.5235949956064
30
0
41
1
10
1550.54170061268
20
22.3983928119514
30
0
41
1
10
1551.01399422091
20
22.1973471672694
30
0
41
1
10
1551.43934242128
20
21.9307130632389
30
0
41
1
10
1551.80318867295
20
21.6048981602934
30
0
41
1
10
1552.09443838657
20
21.2371084206011
30
0
41
1
10
1552.30471098214
20
20.8364610427095
30
0
41
1
10
1552.43180891343
20
20.422257543995
30
0
41
1
10
1552.4729144664
20
20.0029031029729
30
0
41
1
10
1552.43372114878
20
19.5929919315205
30
0
41
1
10
1552.31431123691
20
19.200114048709
30
0
41
1
10
1552.09208078564
20
18.7752592215591
30
0
41
1
10
1551.86776712725
20
18.5106725176995
30
0
41
1
10
1551.70989713183
20
18.3654002467871
30
0
0
SPLINE
5
1A3
100
AcDbEntity
8
1
62
256
6
ByLayer
370
18
48
1
60
0
100
AcDbSpline
70
2053
71
3
72
44
73
40
40
0
40
0
40
0
40
0
40
0.0237039781041124
40
0.0474104698352339
40
0.0745326918382715
40
0.101657362021778
40
0.129496198076619
40
0.15733534234141
40
0.185515358230492
40
0.213693139249141
40
0.241694949503599
40
0.26969216352331
40
0.297007154795134
40
0.32431710184184
40
0.350657909187138
40
0.376996183694531
40
0.402556319263307
40
0.428117509661099
40
0.453513214982946
40
0.4789123393676
40
0.504812490836872
40
0.530716594032235
40
0.557501792649409
40
0.584289958877457
40
0.611924587902066
40
0.639560255660897
40
0.667686062268804
40
0.695810469425312
40
0.723926884006091
40
0.752039346275636
40
0.779620173972379
40
0.807195774184584
40
0.833850752322153
40
0.860502146313542
40
0.886257538705948
40
0.91201290299552
40
0.93738248458767
40
0.962754933255261
40
1
40
1
40
1
40
1
41
1
10
1551.71244603669
20
58.3221307772864
30
0
41
1
10
1551.61321418602
20
58.2251887219454
30
0
41
1
10
1551.4011846491
20
58.0465012701225
30
0
41
1
10
1551.02300315123
20
57.8092925273282
30
0
41
1
10
1550.5890066947
20
57.6196084243247
30
0
41
1
10
1550.1020540858
20
57.4877793001142
30
0
41
1
10
1549.59297075078
20
57.4304963150658
30
0
41
1
10
1549.0737773244
20
57.4486280127279
30
0
41
1
10
1548.5634581486
20
57.5464104409984
30
0
41
1
10
1548.07718481349
20
57.7188279936874
30
0
41
1
10
1547.63259613463
20
57.963221135817
30
0
41
1
10
1547.24429033557
20
58.2669227774633
30
0
41
1
10
1546.92502851392
20
58.622275561929
30
0
41
1
10
1546.68345155011
20
59.0106840000051
30
0
41
1
10
1546.52596433321
20
59.4229674788386
30
0
41
1
10
1546.45180884204
20
59.8406540179525
30
0
41
1
10
1546.46271776164
20
60.2558607574577
30
0
41
1
10
1546.55155971069
20
60.6561496829682
30
0
41
1
10
1546.71814513173
20
61.0339848007507
30
0
41
1
10
1546.95481658341
20
61.3832654893775
30
0
41
1
10
1547.258810228
20
61.6943466658525
30
0
41
1
10
1547.62398511674
20
61.9640099473679
30
0
41
1
10
1548.04207329205
20
62.1808761497234
30
0
41
1
10
1548.50609400668
20
62.3421737946774
30
0
41
1
10
1549.00122378899
20
62.4379173169008
30
0
41
1
10
1549.51675019839
20
62.4664588795279
30
0
41
1
10
1550.033809284
20
62.4222585084224
30
0
41
1
10
1550.53791741632
20
62.3073514526271
30
0
41
1
10
1551.01051248846
20
62.1215930196008
30
0
41
1
10
1551.43628255062
20
61.8730704759953
30
0
41
1
10
1551.80065029058
20
61.5662046476164
30
0
41
1
10
1552.09249398767
20
61.2157729851012
30
0
41
1
10
1552.30340813081
20
60.828851814516
30
0
41
1
10
1552.43115783887
20
60.4234835369769
30
0
41
1
10
1552.47290956023
20
60.0069894983956
30
0
41
1
10
1552.43433638051
20
59.5943127420406
30
0
41
1
10
1552.31551427595
20
59.1931334080253
30
0
41
1
10
1552.09394960529
20
58.7536226577244
30
0
41
1
10
1551.87007978218
20
58.4761270917378
30
0
41
1
10
1551.71244603669
20
58.3221307772864
30
0
0
SPLINE
5
1A4
100
AcDbEntity
8
1
62
256
6
ByLayer
370
18
48
1
60
0
100
AcDbSpline
70
4
71
3
72
10
73
6
40
0
40
0
40
0
40
0
40
0.310854115515237
40
0.765089381825947
40
1
40
1
40
1
40
1
41
1
10
1554.65672142074
20
69.3413232909829
30
0
41
1
10
1554.63303840457
20
69.3629258113499
30
0
41
1
10
1554.58452021325
20
69.4196757372884
30
0
41
1
10
1554.55945396555
20
69.5123213653775
30
0
41
1
10
1554.55446347586
20
69.576049103448
30
0
41
1
10
1554.55472147107
20
69.5982930818353
30
0
0
SPLINE
5
1A5
100
AcDbEntity
8
1
62
256
6
ByLayer
370
18
48
1
60
0
100
AcDbSpline
70
4
71
3
72
13
73
9
40
0
40
0
40
0
40
0
40
0.0528511524751024
40
0.269884527763155
40
0.486770842574524
40
0.702483840279344
40
0.916504711054642
40
1
40
1
40
1
40
1
41
1
10
1545
20
78.1690425496115
30
0
41
1
10
1545.00001078164
20
78.1368106353307
30
0
41
1
10
1545.00685473199
20
77.9735963590922
30
0
41
1
10
1545.08403180461
20
77.680744109707
30
0
41
1
10
1545.31504410595
20
77.3469409824285
30
0
41
1
10
1545.64600344164
20
77.1071123308501
30
0
41
1
10
1545.96125794933
20
77.0124682970686
30
0
41
1
10
1546.14703084778
20
77.0007206896638
30
0
41
1
10
1546.2
20
77.0006646693614
30
0
0
SPLINE
5
1A6
100
AcDbEntity
8
1
62
256
6
ByLayer
370
18
48
1
60
0
100
AcDbSpline
70
4
71
3
72
15
73
11
40
0
40
0
40
0
40
0
40
0.1198125008796
40
0.243798785734709
40
0.36833396882107
40
0.492872727392902
40
0.744130679635923
40
0.995916590826299
40
0.995953157185254
40
1
40
1
40
1
40
1
41
1
10
1545.00004003901
20
78.7920955324379
30
0
41
1
10
1545.0023832923
20
78.8887688669465
30
0
41
1
10
1545.02316198093
20
79.0736601451779
30
0
41
1
10
1545.11057747154
20
79.3167100238867
30
0
41
1
10
1545.23612268188
20
79.5252275397828
30
0
41
1
10
1545.44597178356
20
79.7544403532662
30
0
41
1
10
1545.76563642514
20
79.9467208544769
30
0
41
1
10
1546.05046325618
20
79.9991590527246
30
0
41
1
10
1546.19539474106
20
79.9999933725113
30
0
41
1
10
1546.1977077204
20
79.9999999998656
30
0
41
1
10
1546.2
20
80
30
0
0
SPLINE
5
1A7
100
AcDbEntity
8
1
62
256
6
ByLayer
370
18
48
1
60
0
100
AcDbSpline
70
4
71
3
72
10
73
6
40
0
40
0
40
0
40
0
40
0.41222408190777
40
0.820760192920605
40
1
40
1
40
1
40
1
41
1
10
1554.55472147107
20
69.5982930818353
30
0
41
1
10
1554.55430918943
20
69.6411960637963
30
0
41
1
10
1554.56577462208
20
69.7240773716925
30
0
41
1
10
1554.60332422698
20
69.8261725227706
30
0
41
1
10
1554.64320455844
20
69.8774327058198
30
0
41
1
10
1554.65672142074
20
69.8926021938232
30
0
0
SPLINE
5
1A8
100
AcDbEntity
8
1
62
256
6
ByLayer
370
18
48
1
60
0
100
AcDbSpline
70
4
71
3
72
10
73
6
40
0
40
0
40
0
40
0
40
0.321439448779979
40
0.674080237340151
40
1
40
1
40
1
40
1
41
1
10
1554.55472148437
20
2.91907274232154
30
0
41
1
10
1554.55480018928
20
2.90971792206279
30
0
41
1
10
1554.56228803694
20
2.8912649090964
30
0
41
1
10
1554.59786755558
20
2.86558019668478
30
0
41
1
10
1554.63536497998
20
2.85315038076283
30
0
41
1
10
1554.65672142074
20
2.84803015355495
30
0
0
SPLINE
5
1A9
100
AcDbEntity
8
1
62
256
6
ByLayer
370
18
48
1
60
0
100
AcDbSpline
70
4
71
3
72
11
73
7
40
0
40
0
40
0
40
0
40
0.288757793927221
40
0.610731865089329
40
0.93270938081426
40
1
40
1
40
1
40
1
41
1
10
1554.55472142074
20
80
30
0
41
1
10
1554.55486926506
20
79.9999970486197
30
0
41
1
10
1554.5612661032
20
79.9999670195542
30
0
41
1
10
1554.59188848084
20
79.9998203624336
30
0
41
1
10
1554.62920927283
20
79.9996832992245
30
0
41
1
10
1554.65257223957
20
79.9996205983567
30
0
41
1
10
1554.65672142074
20
79.9996098480973
30
0
0
SPLINE
5
1AA
100
AcDbEntity
8
1
62
256
6
ByLayer
370
18
48
1
60
0
100
AcDbSpline
70
4
71
3
72
11
73
7
40
0
40
0
40
0
40
0
40
0.322261952721955
40
0.644518434068134
40
0.966911920200624
40
1
40
1
40
1
40
1
41
1
10
1554.65672142074
20
79.9781039513771
30
0
41
1
10
1554.63623685867
20
79.9777100838393
30
0
41
1
10
1554.60131606112
20
79.9767373175577
30
0
41
1
10
1554.56499138534
20
79.9746506383938
30
0
41
1
10
1554.55517221054
20
79.9728999482761
30
0
41
1
10
1554.55472325878
20
79.9719585954611
30
0
41
1
10
1554.5547214719
20
79.9718705264754
30
0
0
SPLINE
5
1AB
100
AcDbEntity
8
1
62
256
6
ByLayer
370
18
48
1
60
0
100
AcDbSpline
70
4
71
3
72
11
73
7
40
0
40
0
40
0
40
0
40
0.322093647473822
40
0.64416305255196
40
0.966828181385161
40
1
40
1
40
1
40
1
41
1
10
1554.65672142074
20
79.9002356270515
30
0
41
1
10
1554.63623135587
20
79.8993863029479
30
0
41
1
10
1554.60130538531
20
79.8973274544215
30
0
41
1
10
1554.5649922068
20
79.8929765070587
30
0
41
1
10
1554.55517330911
20
79.8894186746653
30
0
41
1
10
1554.55472325974
20
79.8875291135138
30
0
41
1
10
1554.55472147229
20
79.8873522573606
30
0
0
SPLINE
5
1AC
100
AcDbEntity
8
1
62
256
6
ByLayer
370
18
48
1
60
0
100
AcDbSpline
70
4
71
3
72
11
73
7
40
0
40
0
40
0
40
0
40
0.321826985089563
40
0.643597584171546
40
0.966749068960279
40
1
40
1
40
1
40
1
41
1
10
1554.65672142074
20
79.7656737732601
30
0
41
1
10
1554.63622119673
20
79.7643639501997
30
0
41
1
10
1554.60128529902
20
79.7612096333004
30
0
41
1
10
1554.56499093215
20
79.7545764183263
30
0
41
1
10
1554.55517433598
20
79.7491990886372
30
0
41
1
10
1554.55472325952
20
79.7463520926309
30
0
41
1
10
1554.55472147296
20
79.7460855127042
30
0
0
SPLINE
5
1AD
100
AcDbEntity
8
1
62
256
6
ByLayer
370
18
48
1
60
0
100
AcDbSpline
70
4
71
3
72
11
73
7
40
0
40
0
40
0
40
0
40
0.321460815679101
40
0.642819587723433
40
0.966680852957745
40
1
40
1
40
1
40
1
41
1
10
1554.65672142074
20
79.5738400738223
30
0
41
1
10
1554.6362062904
20
79.5720618752251
30
0
41
1
10
1554.60125561578
20
79.5677974209009
30
0
41
1
10
1554.5649873158
20
79.5588538880044
30
0
41
1
10
1554.55517520689
20
79.5516380838918
30
0
41
1
10
1554.55472325768
20
79.5478196326485
30
0
41
1
10
1554.5547214739
20
79.5474622101582
30
0
0
SPLINE
5
1AE
100
AcDbEntity
8
1
62
256
6
ByLayer
370
18
48
1
60
0
100
AcDbSpline
70
4
71
3
72
11
73
7
40
0
40
0
40
0
40
0
40
0.32099361648031
40
0.641825818107898
40
0.966633223107754
40
1
40
1
40
1
40
1
41
1
10
1554.65672142074
20
79.3238963702172
30
0
41
1
10
1554.63618650085
20
79.3216389003809
30
0
41
1
10
1554.60121605395
20
79.3162440095809
30
0
41
1
10
1554.5649809798
20
79.3049513654837
30
0
41
1
10
1554.55517579194
20
79.2958710415578
30
0
41
1
10
1554.55472325354
20
79.2910620217198
30
0
41
1
10
1554.55472147514
20
79.2906125496293
30
0
0
SPLINE
5
1AF
100
AcDbEntity
8
1
62
256
6
ByLayer
370
18
48
1
60
0
100
AcDbSpline
70
4
71
3
72
11
73
7
40
0
40
0
40
0
40
0
40
0.320423493161847
40
0.640612231621336
40
0.966619831880479
40
1
40
1
40
1
40
1
41
1
10
1554.65672142074
20
79.0147258516922
30
0
41
1
10
1554.63616164219
20
79.0119749315007
30
0
41
1
10
1554.60116622624
20
79.005423178723
30
0
41
1
10
1554.56497139323
20
78.9917308923972
30
0
41
1
10
1554.55517590843
20
78.9807523033756
30
0
41
1
10
1554.55472324622
20
78.9749280883424
30
0
41
1
10
1554.55472147665
20
78.9743854166967
30
0
0
SPLINE
5
1B0
100
AcDbEntity
8
1
62
256
6
ByLayer
370
18
48
1
60
0
100
AcDbSpline
70
4
71
3
72
11
73
7
40
0
40
0
40
0
40
0
40
0.319748186833138
40
0.639174004182348
40
0.966659081079143
40
1
40
1
40
1
40
1
41
1
10
1554.65672142074
20
78.6449070490513
30
0
41
1
10
1554.63613147208
20
78.6416448572375
30
0
41
1
10
1554.60110562457
20
78.6339030158986
30
0
41
1
10
1554.56495784214
20
78.617747457069
30
0
41
1
10
1554.55517531046
20
78.6048283057777
30
0
41
1
10
1554.55472323456
20
78.5979581925716
30
0
41
1
10
1554.55472147846
20
78.5973214416731
30
0
0
SPLINE
5
1B1
100
AcDbEntity
8
1
62
256
6
ByLayer
370
18
48
1
60
0
100
AcDbSpline
70
4
71
3
72
11
73
7
40
0
40
0
40
0
40
0
40
0.318965090225832
40
0.637505570027497
40
0.966775225521263
40
1
40
1
40
1
40
1
41
1
10
1554.65672142074
20
78.2126791572762
30
0
41
1
10
1554.63609568245
20
78.2088837555356
30
0
41
1
10
1554.60103359901
20
78.1999109036642
30
0
41
1
10
1554.56493938751
20
78.1812135214885
30
0
41
1
10
1554.55517367432
20
78.1663018366563
30
0
41
1
10
1554.55472321709
20
78.1583483091619
30
0
41
1
10
1554.55472148053
20
78.1576171755144
30
0
0
SPLINE
5
1B2
100
AcDbEntity
8
1
62
256
6
ByLayer
370
18
48
1
60
0
100
AcDbSpline
70
4
71
3
72
11
73
7
40
0
40
0
40
0
40
0
40
0.318071278332005
40
0.635600692493426
40
0.966999903212102
40
1
40
1
40
1
40
1
41
1
10
1554.65672142074
20
77.7158965944606
30
0
41
1
10
1554.6360538869
20
77.711541305605
30
0
41
1
10
1554.6009493286
20
77.7012876528289
30
0
41
1
10
1554.5649148068
20
77.6799525607849
30
0
41
1
10
1554.55517057808
20
77.6629852342815
30
0
41
1
10
1554.55472319192
20
77.6539030098242
30
0
41
1
10
1554.55472148285
20
77.6530782022202
30
0
0
SPLINE
5
1B3
100
AcDbEntity
8
1
62
256
6
ByLayer
370
18
48
1
60
0
100
AcDbSpline
70
4
71
3
72
11
73
7
40
0
40
0
40
0
40
0
40
0.317063561604286
40
0.633452584526697
40
0.967374254462618
40
1
40
1
40
1
40
1
41
1
10
1554.65672142074
20
77.1519698464451
30
0
41
1
10
1554.63600560336
20
77.1470224418347
30
0
41
1
10
1554.60085178116
20
77.1354277936195
30
0
41
1
10
1554.56488251285
20
77.1113385673413
30
0
41
1
10
1554.55516547332
20
77.0922394514801
30
0
41
1
10
1554.55472315663
20
77.0819742504996
30
0
41
1
10
1554.55472148535
20
77.0810581125027
30
0
0
SPLINE
5
1B4
100
AcDbEntity
8
1
62
256
6
ByLayer
370
18
48
1
60
0
100
AcDbSpline
70
4
71
3
72
10
73
6
40
0
40
0
40
0
40
0
40
0.317972184740901
40
0.670819277292502
40
1
40
1
40
1
40
1
41
1
10
1554.55472148535
20
77.0810581125027
30
0
41
1
10
1554.55480330684
20
77.0717918639908
30
0
41
1
10
1554.56218405057
20
77.0533251772502
30
0
41
1
10
1554.59752340356
20
77.0271832193884
30
0
41
1
10
1554.63514650147
20
77.0143720499299
30
0
41
1
10
1554.65672142074
20
77.0090355525355
30
0
0
SPLINE
5
1B5
100
AcDbEntity
8
1
62
256
6
ByLayer
370
18
48
1
60
0
100
AcDbSpline
70
4
71
3
72
10
73
6
40
0
40
0
40
0
40
0
40
0.311718734586861
40
0.658212160263455
40
1
40
1
40
1
40
1
41
1
10
1554.55472148285
20
77.6530782022202
30
0
41
1
10
1554.5548162798
20
77.6449981232437
30
0
41
1
10
1554.56195222537
20
77.6288653527888
30
0
41
1
10
1554.59683457016
20
77.6055942960225
30
0
41
1
10
1554.63440892664
20
77.5941015393281
30
0
41
1
10
1554.65672142074
20
77.5892101549893
30
0
0
SPLINE
5
1B6
100
AcDbEntity
8
1
62
256
6
ByLayer
370
18
48
1
60
0
100
AcDbSpline
70
4
71
3
72
10
73
6
40
0
40
0
40
0
40
0
40
0.31468021542323
40
0.661013181993496
40
1
40
1
40
1
40
1
41
1
10
1554.55472148234
20
2.34703571177986
30
0
41
1
10
1554.55481410102
20
2.33888973458209
30
0
41
1
10
1554.56204034886
20
2.32278060759016
30
0
41
1
10
1554.59712757866
20
2.29993745065691
30
0
41
1
10
1554.6345964552
20
2.28879341401612
30
0
41
1
10
1554.65672142074
20
2.28410340553939
30
0
0
SPLINE
5
1B7
100
AcDbEntity
8
1
62
256
6
ByLayer
370
18
48
1
60
0
100
AcDbSpline
70
4
71
3
72
10
73
6
40
0
40
0
40
0
40
0
40
0.306460489199427
40
0.647490673471756
40
1
40
1
40
1
40
1
41
1
10
1554.55472148053
20
78.1576171755144
30
0
41
1
10
1554.55482642925
20
78.1506271374869
30
0
41
1
10
1554.56175967242
20
78.1366506893578
30
0
41
1
10
1554.59626039896
20
78.1161558517148
30
0
41
1
10
1554.6337871441
20
78.1059692166479
30
0
41
1
10
1554.65672142074
20
78.1015580734315
30
0
0
SPLINE
5
1B8
100
AcDbEntity
8
1
62
256
6
ByLayer
370
18
48
1
60
0
100
AcDbSpline
70
4
71
3
72
10
73
6
40
0
40
0
40
0
40
0
40
0.308975731916353
40
0.649880708760457
40
1
40
1
40
1
40
1
41
1
10
1554.55472148031
20
1.84248096865508
30
0
41
1
10
1554.55482491811
20
1.83544314410085
30
0
41
1
10
1554.56183401822
20
1.82149854366879
30
0
41
1
10
1554.59650863183
20
1.80140751252676
30
0
41
1
10
1554.63394710094
20
1.7915429240971
30
0
41
1
10
1554.65672142074
20
1.78732084272382
30
0
0
SPLINE
5
1B9
100
AcDbEntity
8
1
62
256
6
ByLayer
370
18
48
1
60
0
100
AcDbSpline
70
4
71
3
72
10
73
6
40
0
40
0
40
0
40
0
40
0.302070281381512
40
0.638443876755874
40
1
40
1
40
1
40
1
41
1
10
1554.55472147846
20
78.5973214416731
30
0
41
1
10
1554.5548344128
20
78.5913445661628
30
0
41
1
10
1554.56160057411
20
78.579380419699
30
0
41
1
10
1554.59578459178
20
78.5615828224604
30
0
41
1
10
1554.63326653067
20
78.5526893868495
30
0
41
1
10
1554.65672142074
20
78.5487838351638
30
0
0
SPLINE
5
1BA
100
AcDbEntity
8
1
62
256
6
ByLayer
370
18
48
1
60
0
100
AcDbSpline
70
4
71
3
72
10
73
6
40
0
40
0
40
0
40
0
40
0.304186444764986
40
0.640462378006421
40
1
40
1
40
1
40
1
41
1
10
1554.5547214784
20
1.40276202660282
30
0
41
1
10
1554.55483337674
20
1.3967518374481
30
0
41
1
10
1554.56166277144
20
1.38482624953075
30
0
41
1
10
1554.59599302979
20
1.3674127174306
30
0
41
1
10
1554.63340160878
20
1.35881957604841
30
0
41
1
10
1554.65672142074
20
1.35509295094872
30
0
0
SPLINE
5
1BB
100
AcDbEntity
8
1
62
256
6
ByLayer
370
18
48
1
60
0
100
AcDbSpline
70
4
71
3
72
11
73
7
40
0
40
0
40
0
40
0
40
0.298235387718502
40
0.630454112190138
40
0.958152673633869
40
1
40
1
40
1
40
1
41
1
10
1554.55472147665
20
78.9743854166967
30
0
41
1
10
1554.55484069179
20
78.9693603464571
30
0
41
1
10
1554.56155908452
20
78.9592667702535
30
0
41
1
10
1554.59365188931
20
78.9448496207303
30
0
41
1
10
1554.63147265132
20
78.9367243124347
30
0
41
1
10
1554.65411360211
20
78.9334868864897
30
0
41
1
10
1554.65672142074
20
78.933131683918
30
0
0
SPLINE
5
1BC
100
AcDbEntity
8
1
62
256
6
ByLayer
370
18
48
1
60
0
100
AcDbSpline
70
4
71
3
72
11
73
7
40
0
40
0
40
0
40
0
40
0.299995439097946
40
0.632146074140231
40
0.959274207629545
40
1
40
1
40
1
40
1
41
1
10
1554.55472147669
20
1.02568434762667
30
0
41
1
10
1554.55483999254
20
1.02063747878193
30
0
41
1
10
1554.56161136248
20
1.01059066034016
30
0
41
1
10
1554.59385567715
20
0.996495905978768
30
0
41
1
10
1554.63164065573
20
0.988696584603942
30
0
41
1
10
1554.65418404969
20
0.985605613196655
30
0
41
1
10
1554.65672142074
20
0.985274148307835
30
0
0
SPLINE
5
1BD
100
AcDbEntity
8
1
62
256
6
ByLayer
370
18
48
1
60
0
100
AcDbSpline
70
4
71
3
72
11
73
7
40
0
40
0
40
0
40
0
40
0.295264730138902
40
0.624206925387392
40
0.950120780405245
40
1
40
1
40
1
40
1
41
1
10
1554.55472147514
20
79.2906125496293
30
0
41
1
10
1554.55484559311
20
79.286490697927
30
0
41
1
10
1554.56145485655
20
79.2782046245507
30
0
41
1
10
1554.59307761528
20
79.2663358366795
30
0
41
1
10
1554.63074338948
20
79.2595379447967
30
0
41
1
10
1554.65362269296
20
79.2567987191438
30
0
41
1
10
1554.65672142074
20
79.2564485182297
30
0
0
SPLINE
5
1BE
100
AcDbEntity
8
1
62
256
6
ByLayer
370
18
48
1
60
0
100
AcDbSpline
70
4
71
3
72
11
73
7
40
0
40
0
40
0
40
0
40
0.296691338905014
40
0.625581954855016
40
0.951041868537321
40
1
40
1
40
1
40
1
41
1
10
1554.55472147521
20
0.709444342368003
30
0
41
1
10
1554.55484513084
20
0.705309754410449
30
0
41
1
10
1554.56149707102
20
0.69707472594414
30
0
41
1
10
1554.5932420604
20
0.685518861940081
30
0
41
1
10
1554.63087980437
20
0.679030208017908
30
0
41
1
10
1554.65368047441
20
0.676430730626105
30
0
41
1
10
1554.65672142074
20
0.676103629782805
30
0
0
SPLINE
5
1BF
100
AcDbEntity
8
1
62
256
6
ByLayer
370
18
48
1
60
0
100
AcDbSpline
70
4
71
3
72
11
73
7
40
0
40
0
40
0
40
0
40
0.292932149838563
40
0.619248439059925
40
0.94369662718815
40
1
40
1
40
1
40
1
41
1
10
1554.5547214739
20
79.5474622101582
30
0
41
1
10
1554.55484934907
20
79.5442057267027
30
0
41
1
10
1554.56137345547
20
79.5376534112412
30
0
41
1
10
1554.59262587965
20
79.5282375764324
30
0
41
1
10
1554.63016718524
20
79.5227704561633
30
0
41
1
10
1554.6532322737
20
79.5205474410019
30
0
41
1
10
1554.65672142074
20
79.5202322590788
30
0
0
SPLINE
5
1C0
100
AcDbEntity
8
1
62
256
6
ByLayer
370
18
48
1
60
0
100
AcDbSpline
70
4
71
3
72
11
73
7
40
0
40
0
40
0
40
0
40
0.294048190002182
40
0.620326342383381
40
0.944424704763882
40
1
40
1
40
1
40
1
41
1
10
1554.55472147399
20
0.452582495868761
30
0
41
1
10
1554.55484905185
20
0.449320260116154
30
0
41
1
10
1554.56140638142
20
0.442822328560458
30
0
41
1
10
1554.59275407076
20
0.433712112562792
30
0
41
1
10
1554.63027405069
20
0.428541134518171
30
0
41
1
10
1554.65327790187
20
0.426452562648601
30
0
41
1
10
1554.65672142074
20
0.426159926177689
30
0
0
SPLINE
5
1C1
100
AcDbEntity
8
1
62
256
6
ByLayer
370
18
48
1
60
0
100
AcDbSpline
70
4
71
3
72
11
73
7
40
0
40
0
40
0
40
0
40
0.292013904716682
40
0.61629372360368
40
0.939340261275081
40
1
40
1
40
1
40
1
41
1
10
1554.55472147303
20
0.253947549695538
30
0
41
1
10
1554.55485194025
20
0.251527253005604
30
0
41
1
10
1554.56133709469
20
0.246709280378567
30
0
41
1
10
1554.59238125873
20
0.2399731265175
30
0
41
1
10
1554.6298115387
20
0.236124770537135
30
0
41
1
10
1554.65296987383
20
0.234561726077822
30
0
41
1
10
1554.65672142074
20
0.234326226739871
30
0
0
SPLINE
5
1C2
100
AcDbEntity
8
1
62
256
6
ByLayer
370
18
48
1
60
0
100
AcDbSpline
70
4
71
3
72
11
73
7
40
0
40
0
40
0
40
0
40
0.29119115635271
40
0.615497863053325
40
0.938799300655058
40
1
40
1
40
1
40
1
41
1
10
1554.55472147296
20
79.7460855127042
30
0
41
1
10
1554.55485212351
20
79.7436657884975
30
0
41
1
10
1554.56131287652
20
79.738790936001
30
0
41
1
10
1554.5922870097
20
79.7317545873415
30
0
41
1
10
1554.62973267473
20
79.7276199149911
30
0
41
1
10
1554.65293599692
20
79.7259264432087
30
0
41
1
10
1554.65672142074
20
79.7256688472158
30
0
0
SPLINE
5
1C3
100
AcDbEntity
8
1
62
256
6
ByLayer
370
18
48
1
60
0
100
AcDbSpline
70
4
71
3
72
11
73
7
40
0
40
0
40
0
40
0
40
0.290549783817662
40
0.613420470806202
40
0.935726433667623
40
1
40
1
40
1
40
1
41
1
10
1554.55472147235
20
0.112669563347304
30
0
41
1
10
1554.55485392472
20
0.111069151684698
30
0
41
1
10
1554.56128759746
20
0.107889694877039
30
0
41
1
10
1554.59211592501
20
0.103475689249772
30
0
41
1
10
1554.62948352121
20
0.100953482745892
30
0
41
1
10
1554.65275158229
20
0.0999265016125468
30
0
41
1
10
1554.65672142074
20
0.0997643729484693
30
0
0
SPLINE
5
1C4
100
AcDbEntity
8
1
62
256
6
ByLayer
370
18
48
1
60
0
100
AcDbSpline
70
4
71
3
72
11
73
7
40
0
40
0
40
0
40
0
40
0.290007932284588
40
0.61289576462363
40
0.935368208323806
40
1
40
1
40
1
40
1
41
1
10
1554.55472147229
20
79.8873522573606
30
0
41
1
10
1554.55485402891
20
79.8857488472087
30
0
41
1
10
1554.56127167298
20
79.8825107802244
30
0
41
1
10
1554.59205397088
20
79.8778003232769
30
0
41
1
10
1554.6294315444
20
79.8749986335018
30
0
41
1
10
1554.65272916013
20
79.873844035897
30
0
41
1
10
1554.65672142074
20
79.8736601393171
30
0
0
SPLINE
5
1C5
100
AcDbEntity
8
1
62
256
6
ByLayer
370
18
48
1
60
0
100
AcDbSpline
70
4
71
3
72
10
73
6
40
0
40
0
40
0
40
0
40
0.453331344751405
40
0.906442999459628
40
1
40
1
40
1
40
1
41
1
10
1554.5639917031
20
0.0258996825560442
30
0
41
1
10
1554.57128869299
20
0.0250908284843722
30
0
41
1
10
1554.59170414735
20
0.0236650181891575
30
0
41
1
10
1554.62929736479
20
0.0224575843361004
30
0
41
1
10
1554.65261969529
20
0.0219743228655732
30
0
41
1
10
1554.65672142074
20
0.021896048622864
30
0
0
SPLINE
5
1C6
100
AcDbEntity
8
1
62
256
6
ByLayer
370
18
48
1
60
0
100
AcDbSpline
70
4
71
3
72
11
73
7
40
0
40
0
40
0
40
0
40
0.289359827578641
40
0.611401709676024
40
0.933361409477217
40
1
40
1
40
1
40
1
41
1
10
1554.5547214719
20
79.9718705264754
30
0
41
1
10
1554.55485513756
20
79.9710704070578
30
0
41
1
10
1554.56124887848
20
79.9694427866936
30
0
41
1
10
1554.59192202705
20
79.9670230351518
30
0
41
1
10
1554.62925815075
20
79.9655540753052
30
0
41
1
10
1554.65260853264
20
79.9649441485845
30
0
41
1
10
1554.65672142074
20
79.9648443066263
30
0
0
INSERT
5
1E0
100
AcDbEntity
8
SK2
62
256
6
ByLayer
370
25
48
1
60
0
100
AcDbBlockReference
2
DimnDraft3D22
10
0
20
0
30
0
41
1
42
1
43
1
50
0
210
0
220
0
230
1
0
INSERT
5
1EA
100
AcDbEntity
8
SK2
62
256
6
ByLayer
370
25
48
1
60
0
100
AcDbBlockReference
2
DimnDraft3D33
10
0
20
0
30
0
41
1
42
1
43
1
50
0
210
0
220
0
230
1
0
LINE
5
70
100
AcDbEntity
8
81
62
256
6
ByLayer
370
18
48
1
60
0
100
AcDbLine
10
1555
20
40
30
0
11
1710.5
21
40
31
0
39
0
210
0
220
0
230
1
0
LINE
5
71
100
AcDbEntity
8
4
62
256
6
ByLayer
370
18
48
0.05
60
0
100
AcDbLine
10
0
20
0
30
0
11
1555
21
0
31
0
39
0
210
0
220
0
230
1
0
LINE
5
73
100
AcDbEntity
8
SK4
62
256
6
ByLayer
370
18
48
0.05
60
0
100
AcDbLine
10
-1061
20
0
30
0
11
1560
21
0
31
0
39
0
210
0
220
0
230
1
0
LINE
5
75
100
AcDbEntity
8
80
62
256
6
ByLayer
370
18
48
1
60
0
100
AcDbLine
10
0
20
0
30
0
11
-155.5
21
0
31
0
39
0
210
0
220
0
230
1
0
LINE
5
76
100
AcDbEntity
8
1
62
256
6
ByLayer
370
18
48
1
60
0
100
AcDbLine
10
1539
20
-24.411428
30
0
11
1545
21
-24.411428
31
0
39
0
210
0
220
0
230
1
0
LINE
5
78
100
AcDbEntity
8
1
62
256
6
ByLayer
370
18
48
1
60
0
100
AcDbLine
10
1550.352853
20
58.714708
30
0
11
1548.621084
21
58.687639
31
0
39
0
210
0
220
0
230
1
0
LINE
5
79
100
AcDbEntity
8
1
62
256
6
ByLayer
370
18
48
1
60
0
100
AcDbLine
10
1551.191669
20
60.027069
30
0
11
1550.352853
21
58.714708
31
0
39
0
210
0
220
0
230
1
0
LINE
5
7A
100
AcDbEntity
8
1
62
256
6
ByLayer
370
18
48
1
60
0
100
AcDbLine
10
1550.298716
20
61.312361
30
0
11
1551.191669
21
60.027069
31
0
39
0
210
0
220
0
230
1
0
LINE
5
7B
100
AcDbEntity
8
1
62
256
6
ByLayer
370
18
48
1
60
0
100
AcDbLine
10
1548.566947
20
61.285292
30
0
11
1550.298716
21
61.312361
31
0
39
0
210
0
220
0
230
1
0
LINE
5
7C
100
AcDbEntity
8
1
62
256
6
ByLayer
370
18
48
1
60
0
100
AcDbLine
10
1547.728131
20
59.972931
30
0
11
1548.566947
21
61.285292
31
0
39
0
210
0
220
0
230
1
0
LINE
5
7D
100
AcDbEntity
8
1
62
256
6
ByLayer
370
18
48
1
60
0
100
AcDbLine
10
1548.621084
20
58.687639
30
0
11
1547.728131
21
59.972931
31
0
39
0
210
0
220
0
230
1
0
LINE
5
7E
100
AcDbEntity
8
1
62
256
6
ByLayer
370
18
48
1
60
0
100
AcDbLine
10
1548.566947
20
59.285292
30
0
11
1548.566947
21
61.285292
31
0
39
0
210
0
220
0
230
1
0
LINE
5
7F
100
AcDbEntity
8
1
62
256
6
ByLayer
370
18
48
1
60
0
100
AcDbLine
10
1548.39393
20
59.014599
30
0
11
1548.566947
21
59.285292
31
0
39
0
210
0
220
0
230
1
0
LINE
5
80
100
AcDbEntity
8
1
62
256
6
ByLayer
370
18
48
1
60
0
100
AcDbLine
10
1550.298716
20
59.312361
30
0
11
1550.52587
21
58.985401
31
0
39
0
210
0
220
0
230
1
0
LINE
5
81
100
AcDbEntity
8
1
62
256
6
ByLayer
370
18
48
1
60
0
100
AcDbLine
10
1550.298716
20
59.312361
30
0
11
1550.298716
21
61.312361
31
0
39
0
210
0
220
0
230
1
0
LINE
5
82
100
AcDbEntity
8
1
62
256
6
ByLayer
370
18
48
1
60
0
100
AcDbLine
10
1548.566947
20
59.285292
30
0
11
1550.298716
21
59.312361
31
0
39
0
210
0
220
0
230
1
0
LINE
5
83
100
AcDbEntity
8
1
62
256
6
ByLayer
370
18
48
1
60
0
100
AcDbLine
10
1547.9599
20
19.25
30
0
11
1547.9599
21
20.75
31
0
39
0
210
0
220
0
230
1
0
LINE
5
84
100
AcDbEntity
8
1
62
256
6
ByLayer
370
18
48
1
60
0
100
AcDbLine
10
1549.4599
20
18.5
30
0
11
1547.9599
21
19.25
31
0
39
0
210
0
220
0
230
1
0
LINE
5
85
100
AcDbEntity
8
1
62
256
6
ByLayer
370
18
48
1
60
0
100
AcDbLine
10
1550.9599
20
19.25
30
0
11
1549.4599
21
18.5
31
0
39
0
210
0
220
0
230
1
0
LINE
5
86
100
AcDbEntity
8
1
62
256
6
ByLayer
370
18
48
1
60
0
100
AcDbLine
10
1550.9599
20
20.75
30
0
11
1550.9599
21
19.25
31
0
39
0
210
0
220
0
230
1
0
LINE
5
87
100
AcDbEntity
8
1
62
256
6
ByLayer
370
18
48
1
60
0
100
AcDbLine
10
1549.4599
20
21.5
30
0
11
1550.9599
21
20.75
31
0
39
0
210
0
220
0
230
1
0
LINE
5
88
100
AcDbEntity
8
1
62
256
6
ByLayer
370
18
48
1
60
0
100
AcDbLine
10
1547.9599
20
20.75
30
0
11
1549.4599
21
21.5
31
0
39
0
210
0
220
0
230
1
0
LINE
5
89
100
AcDbEntity
8
1
62
256
6
ByLayer
370
18
48
1
60
0
100
AcDbLine
10
1549.4599
20
20.5
30
0
11
1549.4599
21
18.5
31
0
39
0
210
0
220
0
230
1
0
LINE
5
8A
100
AcDbEntity
8
1
62
256
6
ByLayer
370
18
48
1
60
0
100
AcDbLine
10
1550.4599
20
21
30
0
11
1549.4599
21
20.5
31
0
39
0
210
0
220
0
230
1
0
LINE
5
8B
100
AcDbEntity
8
1
62
256
6
ByLayer
370
18
48
1
60
0
100
AcDbLine
10
1549.4599
20
20.5
30
0
11
1548.4599
21
21
31
0
39
0
210
0
220
0
230
1
0
LINE
5
8C
100
AcDbEntity
8
1
62
256
6
ByLayer
370
18
48
1
60
0
100
AcDbLine
10
1546.2
20
80
30
0
11
1535
21
80
31
0
39
0
210
0
220
0
230
1
0
LINE
5
8D
100
AcDbEntity
8
1
62
256
6
ByLayer
370
18
48
1
60
0
100
AcDbLine
10
1535
20
-80
30
0
11
1545
21
-80
31
0
39
0
210
0
220
0
230
1
0
LINE
5
8E
100
AcDbEntity
8
1
62
256
6
ByLayer
370
18
48
1
60
0
100
AcDbLine
10
1545
20
15.589779
30
0
11
1539
21
15.589779
31
0
39
0
210
0
220
0
230
1
0
LINE
5
8F
100
AcDbEntity
8
1
62
256
6
ByLayer
370
18
48
1
60
0
100
AcDbLine
10
1545
20
-15.589779
30
0
11
1539
21
-15.589779
31
0
39
0
210
0
220
0
230
1
0
LINE
5
90
100
AcDbEntity
8
1
62
256
6
ByLayer
370
18
48
1
60
0
100
AcDbLine
10
1545
20
-25.732
30
0
11
1539
21
-25.732
31
0
39
0
210
0
220
0
230
1
0
LINE
5
91
100
AcDbEntity
8
1
62
256
6
ByLayer
370
18
48
1
60
0
100
AcDbLine
10
1545
20
-52.73429
30
0
11
1539
21
-52.73429
31
0
39
0
210
0
220
0
230
1
0
LINE
5
92
100
AcDbEntity
8
1
62
256
6
ByLayer
370
18
48
1
60
0
100
AcDbLine
10
1545
20
-60.158911
30
0
11
1539
21
-60.158911
31
0
39
0
210
0
220
0
230
1
0
LINE
5
93
100
AcDbEntity
8
1
62
256
6
ByLayer
370
18
48
1
60
0
100
AcDbLine
10
1545
20
-75.748691
30
0
11
1539
21
-75.748691
31
0
39
0
210
0
220
0
230
1
0
LINE
5
94
100
AcDbEntity
8
1
62
256
6
ByLayer
370
18
48
1
60
0
100
AcDbLine
10
1545
20
-78.466291
30
0
11
1539
21
-78.466291
31
0
39
0
210
0
220
0
230
1
0
LINE
5
95
100
AcDbEntity
8
1
62
256
6
ByLayer
370
18
48
1
60
0
100
AcDbLine
10
1545
20
78.466291
30
0
11
1539
21
78.466291
31
0
39
0
210
0
220
0
230
1
0
LINE
5
96
100
AcDbEntity
8
1
62
256
6
ByLayer
370
18
48
1
60
0
100
AcDbLine
10
1545
20
75.748691
30
0
11
1539
21
75.748691
31
0
39
0
210
0
220
0
230
1
0
LINE
5
97
100
AcDbEntity
8
1
62
256
6
ByLayer
370
18
48
1
60
0
100
AcDbLine
10
1545
20
60.158911
30
0
11
1539
21
60.158911
31
0
39
0
210
0
220
0
230
1
0
LINE
5
98
100
AcDbEntity
8
1
62
256
6
ByLayer
370
18
48
1
60
0
100
AcDbLine
10
1545
20
52.73429
30
0
11
1539
21
52.73429
31
0
39
0
210
0
220
0
230
1
0
LINE
5
99
100
AcDbEntity
8
1
62
256
6
ByLayer
370
18
48
1
60
0
100
AcDbLine
10
1545
20
25.732
30
0
11
1539
21
25.732
31
0
39
0
210
0
220
0
230
1
0
LINE
5
9A
100
AcDbEntity
8
1
62
256
6
ByLayer
370
18
48
1
60
0
100
AcDbLine
10
1545
20
24.482539
30
0
11
1539
21
24.482539
31
0
39
0
210
0
220
0
230
1
0
LINE
5
9B
100
AcDbEntity
8
1
62
256
6
ByLayer
370
18
48
1
60
0
100
AcDbLine
10
1545
20
25.732
30
0
11
1545
21
24.482539
31
0
39
0
210
0
220
0
230
1
0
LINE
5
9C
100
AcDbEntity
8
1
62
256
6
ByLayer
370
18
48
1
60
0
100
AcDbLine
10
1545
20
-24.482539
30
0
11
1539
21
-24.482539
31
0
39
0
210
0
220
0
230
1
0
LINE
5
9D
100
AcDbEntity
8
1
62
256
6
ByLayer
370
18
48
1
60
0
100
AcDbLine
10
1545
20
-25.732
30
0
11
1545
21
-24.482539
31
0
39
0
210
0
220
0
230
1
0
LINE
5
9E
100
AcDbEntity
8
1
62
256
6
ByLayer
370
18
48
1
60
0
100
AcDbLine
10
1545
20
60.158911
30
0
11
1545
21
58.033009
31
0
39
0
210
0
220
0
230
1
0
LINE
5
9F
100
AcDbEntity
8
1
62
256
6
ByLayer
370
18
48
1
60
0
100
AcDbLine
10
1545
20
-60.158911
30
0
11
1545
21
-58.033009
31
0
39
0
210
0
220
0
230
1
0
LINE
5
A0
100
AcDbEntity
8
1
62
256
6
ByLayer
370
18
48
1
60
0
100
AcDbLine
10
1551
20
0
30
0
11
1554.555809
21
0
31
0
39
0
210
0
220
0
230
1
0
LINE
5
A1
100
AcDbEntity
8
1
62
256
6
ByLayer
370
18
48
1
60
0
100
AcDbLine
10
1546.2
20
71.538132
30
0
11
1553.992545
21
71.538132
31
0
39
0
210
0
220
0
230
1
0
LINE
5
A2
100
AcDbEntity
8
1
62
256
6
ByLayer
370
18
48
1
60
0
100
AcDbLine
10
1555.325
20
73.803237
30
0
11
1545
21
73.803237
31
0
39
0
210
0
220
0
230
1
0
LINE
5
A3
100
AcDbEntity
8
1
62
256
6
ByLayer
370
18
48
1
60
0
100
AcDbLine
10
1554.968389
20
69.109628
30
0
11
1554.968389
21
66
31
0
39
0
210
0
220
0
230
1
0
LINE
5
A4
100
AcDbEntity
8
1
62
256
6
ByLayer
370
18
48
1
60
0
100
AcDbLine
10
1554.968389
20
14
30
0
11
1554.968389
21
3.065267
31
0
39
0
210
0
220
0
230
1
0
LINE
5
A5
100
AcDbEntity
8
1
62
256
6
ByLayer
370
18
48
1
60
0
100
AcDbLine
10
1545
20
78.466291
30
0
11
1545
21
78.169043
31
0
39
0
210
0
220
0
230
1
0
LINE
5
A6
100
AcDbEntity
8
1
62
256
6
ByLayer
370
18
48
1
60
0
100
AcDbLine
10
1546.2
20
77.000665
30
0
11
1554.69205
21
77.000665
31
0
39
0
210
0
220
0
230
1
0
LINE
5
A7
100
AcDbEntity
8
1
62
256
6
ByLayer
370
18
48
1
60
0
100
AcDbLine
10
1554.69205
20
77.000665
30
0
11
1554.656721
21
76.924543
31
0
39
0
210
0
220
0
230
1
0
LINE
5
A8
100
AcDbEntity
8
1
62
256
6
ByLayer
370
18
48
1
60
0
100
AcDbLine
10
1555.325
20
74.165926
30
0
11
1554.656721
21
75.605866
31
0
39
0
210
0
220
0
230
1
0
LINE
5
A9
100
AcDbEntity
8
1
62
256
6
ByLayer
370
18
48
1
60
0
100
AcDbLine
10
1555.325
20
74.165926
30
0
11
1555.325
21
73.803237
31
0
39
0
210
0
220
0
230
1
0
LINE
5
AA
100
AcDbEntity
8
1
62
256
6
ByLayer
370
18
48
1
60
0
100
AcDbLine
10
1545
20
-78.466291
30
0
11
1545
21
-77.444437
31
0
39
0
210
0
220
0
230
1
0
LINE
5
AB
100
AcDbEntity
8
1
62
256
6
ByLayer
370
18
48
1
60
0
100
AcDbLine
10
1554.656721
20
69.892602
30
0
11
1554.656721
21
69.341323
31
0
39
0
210
0
220
0
230
1
0
LINE
5
AC
100
AcDbEntity
8
1
62
256
6
ByLayer
370
18
48
1
60
0
100
AcDbLine
10
1554.656721
20
2.990964
30
0
11
1554.656721
21
2.84803
31
0
39
0
210
0
220
0
230
1
0
LINE
5
AD
100
AcDbEntity
8
1
62
256
6
ByLayer
370
18
48
1
60
0
100
AcDbLine
10
1554.555809
20
80
30
0
11
1546.2
21
80
31
0
39
0
210
0
220
0
230
1
0
LINE
5
AE
100
AcDbEntity
8
1
62
256
6
ByLayer
370
18
48
1
60
0
100
AcDbLine
10
1554.656721
20
77.15197
30
0
11
1554.656721
21
77.009036
31
0
39
0
210
0
220
0
230
1
0
LINE
5
AF
100
AcDbEntity
8
1
62
256
6
ByLayer
370
18
48
1
60
0
100
AcDbLine
10
1554.656721
20
76.924543
30
0
11
1554.656721
21
75.605866
31
0
39
0
210
0
220
0
230
1
0
LINE
5
B0
100
AcDbEntity
8
1
62
256
6
ByLayer
370
18
48
1
60
0
100
AcDbLine
10
1555.325
20
77.3036
30
0
11
1555.325
21
74.165926
31
0
39
0
210
0
220
0
230
1
0
LINE
5
B1
100
AcDbEntity
8
1
62
256
6
ByLayer
370
18
48
1
60
0
100
AcDbLine
10
1555.325
20
70.764396
30
0
11
1555.325
21
66
31
0
39
0
210
0
220
0
230
1
0
LINE
5
B2
100
AcDbEntity
8
1
62
256
6
ByLayer
370
18
48
1
60
0
100
AcDbLine
10
1555.325
20
14
30
0
11
1555.325
21
2.6964
31
0
39
0
210
0
220
0
230
1
0
LINE
5
B3
100
AcDbEntity
8
1
62
256
6
ByLayer
370
18
48
1
60
0
100
AcDbLine
10
1554.656721
20
77.715897
30
0
11
1554.656721
21
77.58921
31
0
39
0
210
0
220
0
230
1
0
LINE
5
B4
100
AcDbEntity
8
1
62
256
6
ByLayer
370
18
48
1
60
0
100
AcDbLine
10
1554.656721
20
2.41079
30
0
11
1554.656721
21
2.284103
31
0
39
0
210
0
220
0
230
1
0
LINE
5
B5
100
AcDbEntity
8
1
62
256
6
ByLayer
370
18
48
1
60
0
100
AcDbLine
10
1555.325
20
77.849981
30
0
11
1555.325
21
77.446577
31
0
39
0
210
0
220
0
230
1
0
LINE
5
B6
100
AcDbEntity
8
1
62
256
6
ByLayer
370
18
48
1
60
0
100
AcDbLine
10
1555.325
20
2.553423
30
0
11
1555.325
21
2.150019
31
0
39
0
210
0
220
0
230
1
0
LINE
5
B7
100
AcDbEntity
8
1
62
256
6
ByLayer
370
18
48
1
60
0
100
AcDbLine
10
1554.656721
20
78.212679
30
0
11
1554.656721
21
78.101558
31
0
39
0
210
0
220
0
230
1
0
LINE
5
B8
100
AcDbEntity
8
1
62
256
6
ByLayer
370
18
48
1
60
0
100
AcDbLine
10
1554.656721
20
1.898442
30
0
11
1554.656721
21
1.787321
31
0
39
0
210
0
220
0
230
1
0
LINE
5
B9
100
AcDbEntity
8
1
62
256
6
ByLayer
370
18
48
1
60
0
100
AcDbLine
10
1555.325
20
78.329931
30
0
11
1555.325
21
77.976092
31
0
39
0
210
0
220
0
230
1
0
LINE
5
BA
100
AcDbEntity
8
1
62
256
6
ByLayer
370
18
48
1
60
0
100
AcDbLine
10
1555.325
20
2.023908
30
0
11
1555.325
21
1.670069
31
0
39
0
210
0
220
0
230
1
0
LINE
5
BB
100
AcDbEntity
8
1
62
256
6
ByLayer
370
18
48
1
60
0
100
AcDbLine
10
1554.656721
20
78.644907
30
0
11
1554.656721
21
78.548784
31
0
39
0
210
0
220
0
230
1
0
LINE
5
BC
100
AcDbEntity
8
1
62
256
6
ByLayer
370
18
48
1
60
0
100
AcDbLine
10
1554.656721
20
1.451216
30
0
11
1554.656721
21
1.355093
31
0
39
0
210
0
220
0
230
1
0
LINE
5
BD
100
AcDbEntity
8
1
62
256
6
ByLayer
370
18
48
1
60
0
100
AcDbLine
10
1555.325
20
78.745917
30
0
11
1555.325
21
78.439837
31
0
39
0
210
0
220
0
230
1
0
LINE
5
BE
100
AcDbEntity
8
1
62
256
6
ByLayer
370
18
48
1
60
0
100
AcDbLine
10
1555.325
20
1.560163
30
0
11
1555.325
21
1.254083
31
0
39
0
210
0
220
0
230
1
0
LINE
5
BF
100
AcDbEntity
8
1
62
256
6
ByLayer
370
18
48
1
60
0
100
AcDbLine
10
1554.656721
20
79.014726
30
0
11
1554.656721
21
78.933132
31
0
39
0
210
0
220
0
230
1
0
LINE
5
C0
100
AcDbEntity
8
1
62
256
6
ByLayer
370
18
48
1
60
0
100
AcDbLine
10
1554.656721
20
1.066868
30
0
11
1554.656721
21
0.985274
31
0
39
0
210
0
220
0
230
1
0
LINE
5
C1
100
AcDbEntity
8
1
62
256
6
ByLayer
370
18
48
1
60
0
100
AcDbLine
10
1555.325
20
79.099982
30
0
11
1555.325
21
78.840167
31
0
39
0
210
0
220
0
230
1
0
LINE
5
C2
100
AcDbEntity
8
1
62
256
6
ByLayer
370
18
48
1
60
0
100
AcDbLine
10
1555.325
20
1.159833
30
0
11
1555.325
21
0.900018
31
0
39
0
210
0
220
0
230
1
0
LINE
5
C3
100
AcDbEntity
8
1
62
256
6
ByLayer
370
18
48
1
60
0
100
AcDbLine
10
1554.656721
20
79.323896
30
0
11
1554.656721
21
79.256449
31
0
39
0
210
0
220
0
230
1
0
LINE
5
C4
100
AcDbEntity
8
1
62
256
6
ByLayer
370
18
48
1
60
0
100
AcDbLine
10
1554.656721
20
0.743551
30
0
11
1554.656721
21
0.676104
31
0
39
0
210
0
220
0
230
1
0
LINE
5
C5
100
AcDbEntity
8
1
62
256
6
ByLayer
370
18
48
1
60
0
100
AcDbLine
10
1555.325
20
0.820974
30
0
11
1555.325
21
0.606205
31
0
39
0
210
0
220
0
230
1
0
LINE
5
C6
100
AcDbEntity
8
1
62
256
6
ByLayer
370
18
48
1
60
0
100
AcDbLine
10
1555.325
20
79.393795
30
0
11
1555.325
21
79.179026
31
0
39
0
210
0
220
0
230
1
0
LINE
5
C7
100
AcDbEntity
8
1
62
256
6
ByLayer
370
18
48
1
60
0
100
AcDbLine
10
1554.656721
20
79.57384
30
0
11
1554.656721
21
79.520232
31
0
39
0
210
0
220
0
230
1
0
LINE
5
C8
100
AcDbEntity
8
1
62
256
6
ByLayer
370
18
48
1
60
0
100
AcDbLine
10
1554.656721
20
0.479768
30
0
11
1554.656721
21
0.42616
31
0
39
0
210
0
220
0
230
1
0
LINE
5
C9
100
AcDbEntity
8
1
62
256
6
ByLayer
370
18
48
1
60
0
100
AcDbLine
10
1555.325
20
79.628697
30
0
11
1555.325
21
79.457998
31
0
39
0
210
0
220
0
230
1
0
LINE
5
CA
100
AcDbEntity
8
1
62
256
6
ByLayer
370
18
48
1
60
0
100
AcDbLine
10
1555.325
20
0.542002
30
0
11
1555.325
21
0.371303
31
0
39
0
210
0
220
0
230
1
0
LINE
5
CB
100
AcDbEntity
8
1
62
256
6
ByLayer
370
18
48
1
60
0
100
AcDbLine
10
1554.656721
20
0.274331
30
0
11
1554.656721
21
0.234326
31
0
39
0
210
0
220
0
230
1
0
LINE
5
CC
100
AcDbEntity
8
1
62
256
6
ByLayer
370
18
48
1
60
0
100
AcDbLine
10
1554.656721
20
79.765674
30
0
11
1554.656721
21
79.725669
31
0
39
0
210
0
220
0
230
1
0
LINE
5
CD
100
AcDbEntity
8
1
62
256
6
ByLayer
370
18
48
1
60
0
100
AcDbLine
10
1555.325
20
79.805729
30
0
11
1555.325
21
79.678345
31
0
39
0
210
0
220
0
230
1
0
LINE
5
CE
100
AcDbEntity
8
1
62
256
6
ByLayer
370
18
48
1
60
0
100
AcDbLine
10
1555.325
20
0.321655
30
0
11
1555.325
21
0.194271
31
0
39
0
210
0
220
0
230
1
0
LINE
5
CF
100
AcDbEntity
8
1
62
256
6
ByLayer
370
18
48
1
60
0
100
AcDbLine
10
1554.656721
20
0.12634
30
0
11
1554.656721
21
0.099764
31
0
39
0
210
0
220
0
230
1
0
LINE
5
D0
100
AcDbEntity
8
1
62
256
6
ByLayer
370
18
48
1
60
0
100
AcDbLine
10
1554.656721
20
79.900236
30
0
11
1554.656721
21
79.87366
31
0
39
0
210
0
220
0
230
1
0
LINE
5
D1
100
AcDbEntity
8
1
62
256
6
ByLayer
370
18
48
1
60
0
100
AcDbLine
10
1555.325
20
0.158958
30
0
11
1555.325
21
0.074337
31
0
39
0
210
0
220
0
230
1
0
LINE
5
D2
100
AcDbEntity
8
1
62
256
6
ByLayer
370
18
48
1
60
0
100
AcDbLine
10
1555.325
20
79.925663
30
0
11
1555.325
21
79.841042
31
0
39
0
210
0
220
0
230
1
0
LINE
5
D3
100
AcDbEntity
8
1
62
256
6
ByLayer
370
18
48
1
60
0
100
AcDbLine
10
1554.656721
20
0.035156
30
0
11
1554.656721
21
0.021896
31
0
39
0
210
0
220
0
230
1
0
LINE
5
D4
100
AcDbEntity
8
1
62
256
6
ByLayer
370
18
48
1
60
0
100
AcDbLine
10
1554.656721
20
79.978104
30
0
11
1554.656721
21
79.964844
31
0
39
0
210
0
220
0
230
1
0
LINE
5
D5
100
AcDbEntity
8
1
62
256
6
ByLayer
370
18
48
1
60
0
100
AcDbLine
10
1555.325
20
0.053209
30
0
11
1555.325
21
0.010988
31
0
39
0
210
0
220
0
230
1
0
LINE
5
D6
100
AcDbEntity
8
1
62
256
6
ByLayer
370
18
48
1
60
0
100
AcDbLine
10
1555.325
20
79.989012
30
0
11
1555.325
21
79.946791
31
0
39
0
210
0
220
0
230
1
0
LINE
5
D7
100
AcDbEntity
8
1
62
256
6
ByLayer
370
18
48
1
60
0
100
AcDbLine
10
1562.632041
20
14
30
0
11
1554.19
21
14
31
0
39
0
210
0
220
0
230
1
0
LINE
5
D8
100
AcDbEntity
8
1
62
256
6
ByLayer
370
18
48
1
60
0
100
AcDbLine
10
1562.632041
20
66
30
0
11
1554.19
21
66
31
0
39
0
210
0
220
0
230
1
0
LINE
5
D9
100
AcDbEntity
8
1
62
256
6
ByLayer
370
18
48
1
60
0
100
AcDbLine
10
1534.5
20
80
30
0
11
0
21
80
31
0
39
0
210
0
220
0
230
1
0
LINE
5
DA
100
AcDbEntity
8
SK1
62
256
6
ByLayer
370
18
48
1
60
0
100
AcDbLine
10
-1040
20
-80
30
0
11
0
21
-80
31
0
39
0
210
0
220
0
230
1
0
LINE
5
DC
100
AcDbEntity
8
1
62
256
6
ByLayer
370
18
48
1
60
0
100
AcDbLine
10
1534.5
20
-80
30
0
11
1535
21
-79.5
31
0
39
0
210
0
220
0
230
1
0
LINE
5
DD
100
AcDbEntity
8
1
62
256
6
ByLayer
370
18
48
1
60
0
100
AcDbLine
10
1535
20
79.5
30
0
11
1534.5
21
80
31
0
39
0
210
0
220
0
230
1
0
LINE
5
DE
100
AcDbEntity
8
SK1
62
256
6
ByLayer
370
18
48
1
60
0
100
AcDbLine
10
-1040
20
80
30
0
11
-1045
21
75
31
0
39
0
210
0
220
0
230
1
0
LINE
5
DF
100
AcDbEntity
8
SK1
62
256
6
ByLayer
370
18
48
1
60
0
100
AcDbLine
10
-1045
20
-75
30
0
11
-1040
21
-80
31
0
39
0
210
0
220
0
230
1
0
LINE
5
E0
100
AcDbEntity
8
1
62
256
6
ByLayer
370
18
48
1
60
0
100
AcDbLine
10
1567.764284
20
66.511335
30
0
11
1564.99246
21
64.015574
31
0
39
0
210
0
220
0
230
1
0
LINE
5
E1
100
AcDbEntity
8
1
62
256
6
ByLayer
370
18
48
1
60
0
100
AcDbLine
10
1568.767536
20
60.686504
30
0
11
1571.109937
21
62.795611
31
0
39
0
210
0
220
0
230
1
0
LINE
5
E2
100
AcDbEntity
8
1
62
256
6
ByLayer
370
18
48
1
60
0
100
AcDbLine
10
1571.17761
20
62.979558
30
0
11
1571.181934
21
63.242738
31
0
39
0
210
0
220
0
230
1
0
LINE
5
E3
100
AcDbEntity
8
1
62
256
6
ByLayer
370
18
48
1
60
0
100
AcDbLine
10
1568.216487
20
66.536201
30
0
11
1567.954297
21
66.55941
31
0
39
0
210
0
220
0
230
1
0
LINE
5
E4
100
AcDbEntity
8
1
62
256
6
ByLayer
370
18
48
1
60
0
100
AcDbLine
10
1539
20
-58.033009
30
0
11
1545
21
-58.033009
31
0
39
0
210
0
220
0
230
1
0
LINE
5
E5
100
AcDbEntity
8
SK1
62
256
6
ByLayer
370
18
48
1
60
0
100
AcDbLine
10
-1051
20
75
30
0
11
-1056
21
67
31
0
39
0
210
0
220
0
230
1
0
LINE
5
E6
100
AcDbEntity
8
SK1
62
256
6
ByLayer
370
18
48
1
60
0
100
AcDbLine
10
-1056
20
-67
30
0
11
-1051
21
-75
31
0
39
0
210
0
220
0
230
1
0
LINE
5
E7
100
AcDbEntity
8
SK1
62
256
6
ByLayer
370
18
48
1
60
0
100
AcDbLine
10
-1047
20
75
30
0
11
-1051
21
75
31
0
39
0
210
0
220
0
230
1
0
LINE
5
E8
100
AcDbEntity
8
SK1
62
256
6
ByLayer
370
18
48
1
60
0
100
AcDbLine
10
-1051
20
-75
30
0
11
-1047
21
-75
31
0
39
0
210
0
220
0
230
1
0
LINE
5
E9
100
AcDbEntity
8
SK1
62
256
6
ByLayer
370
18
48
1
60
0
100
AcDbLine
10
-1047
20
-75
30
0
11
-1045
21
-73
31
0
39
0
210
0
220
0
230
1
0
LINE
5
EA
100
AcDbEntity
8
SK1
62
256
6
ByLayer
370
18
48
1
60
0
100
AcDbLine
10
-1045
20
73
30
0
11
-1047
21
75
31
0
39
0
210
0
220
0
230
1
0
LINE
5
EB
100
AcDbEntity
8
1
62
256
6
ByLayer
370
18
48
1
60
0
100
AcDbLine
10
1545
20
58.033009
30
0
11
1539
21
58.033009
31
0
39
0
210
0
220
0
230
1
0
LINE
5
EC
100
AcDbEntity
8
1
62
256
6
ByLayer
370
18
48
1
60
0
100
AcDbLine
10
1539
20
-77.444437
30
0
11
1545
21
-77.444437
31
0
39
0
210
0
220
0
230
1
0
LINE
5
ED
100
AcDbEntity
8
1
62
256
6
ByLayer
370
18
48
1
60
0
100
AcDbLine
10
1571.109937
20
17.204389
30
0
11
1568.767536
21
19.313496
31
0
39
0
210
0
220
0
230
1
0
LINE
5
EE
100
AcDbEntity
8
1
62
256
6
ByLayer
370
18
48
1
60
0
100
AcDbLine
10
1564.99246
20
15.984426
30
0
11
1567.764284
21
13.488665
31
0
39
0
210
0
220
0
230
1
0
LINE
5
EF
100
AcDbEntity
8
1
62
256
6
ByLayer
370
18
48
1
60
0
100
AcDbLine
10
1567.954297
20
13.44059
30
0
11
1568.216487
21
13.463799
31
0
39
0
210
0
220
0
230
1
0
LINE
5
F0
100
AcDbEntity
8
1
62
256
6
ByLayer
370
18
48
1
60
0
100
AcDbLine
10
1571.181934
20
16.757262
30
0
11
1571.17761
21
17.020442
31
0
39
0
210
0
220
0
230
1
0
LINE
5
F1
100
AcDbEntity
8
1
62
256
6
ByLayer
370
18
48
1
60
0
100
AcDbLine
10
1550.8
20
-2.486888
30
0
11
1551
21
-2.286888
31
0
39
0
210
0
220
0
230
1
0
LINE
5
F2
100
AcDbEntity
8
1
62
256
6
ByLayer
370
18
48
1
60
0
100
AcDbLine
10
1551
20
2.313112
30
0
11
1550.8
21
2.513112
31
0
39
0
210
0
220
0
230
1
0
LINE
5
F3
100
AcDbEntity
8
1
62
256
6
ByLayer
370
18
48
1
60
0
100
AcDbLine
10
1550.8
20
2.513112
30
0
11
1545.25
21
2.513112
31
0
39
0
210
0
220
0
230
1
0
LINE
5
F4
100
AcDbEntity
8
1
62
256
6
ByLayer
370
18
48
1
60
0
100
AcDbLine
10
1545.25
20
-2.486888
30
0
11
1550.8
21
-2.486888
31
0
39
0
210
0
220
0
230
1
0
LINE
5
F5
100
AcDbEntity
8
1
62
256
6
ByLayer
370
18
48
1
60
0
100
AcDbLine
10
1547
20
-10
30
0
11
1545
21
-10
31
0
39
0
210
0
220
0
230
1
0
LINE
5
F6
100
AcDbEntity
8
1
62
256
6
ByLayer
370
18
48
1
60
0
100
AcDbLine
10
1547
20
-60
30
0
11
1545
21
-60
31
0
39
0
210
0
220
0
230
1
0
LINE
5
F7
100
AcDbEntity
8
1
62
256
6
ByLayer
370
18
48
1
60
0
100
AcDbLine
10
1547
20
-10
30
0
11
1547
21
-60
31
0
39
0
210
0
220
0
230
1
0
LINE
5
F8
100
AcDbEntity
8
1
62
256
6
ByLayer
370
18
48
1
60
0
100
AcDbLine
10
1545
20
24.411428
30
0
11
1539
21
24.411428
31
0
39
0
210
0
220
0
230
1
0
LINE
5
F9
100
AcDbEntity
8
1
62
256
6
ByLayer
370
18
48
1
60
0
100
AcDbLine
10
1545
20
77.444437
30
0
11
1539
21
77.444437
31
0
39
0
210
0
220
0
230
1
0
LINE
5
FA
100
AcDbEntity
8
1
62
256
6
ByLayer
370
18
48
1
60
0
100
AcDbLine
10
1545
20
-15.589779
30
0
11
1545
21
-21.911428
31
0
39
0
210
0
220
0
230
1
0
LINE
5
FB
100
AcDbEntity
8
1
62
256
6
ByLayer
370
18
48
1
60
0
100
AcDbLine
10
1539
20
-20.705524
30
0
11
1539
21
-21.911428
31
0
39
0
210
0
220
0
230
1
0
LINE
5
FC
100
AcDbEntity
8
1
62
256
6
ByLayer
370
18
48
1
60
0
100
AcDbLine
10
1545
20
-21.911428
30
0
11
1545
21
-24.411428
31
0
39
0
210
0
220
0
230
1
0
LINE
5
FD
100
AcDbEntity
8
1
62
256
6
ByLayer
370
18
48
1
60
0
100
AcDbLine
10
1535
20
80
30
0
11
1535
21
-80
31
0
39
0
210
0
220
0
230
1
0
LINE
5
FE
100
AcDbEntity
8
1
62
256
6
ByLayer
370
18
48
1
60
0
100
AcDbLine
10
1545
20
-80
30
0
11
1545
21
-78.466291
31
0
39
0
210
0
220
0
230
1
0
LINE
5
FF
100
AcDbEntity
8
1
62
256
6
ByLayer
370
18
48
1
60
0
100
AcDbLine
10
1539
20
25.732
30
0
11
1539
21
20.705524
31
0
39
0
210
0
220
0
230
1
0
LINE
5
100
100
AcDbEntity
8
1
62
256
6
ByLayer
370
18
48
1
60
0
100
AcDbLine
10
1539
20
20.705524
30
0
11
1539
21
15.589779
31
0
39
0
210
0
220
0
230
1
0
LINE
5
101
100
AcDbEntity
8
1
62
256
6
ByLayer
370
18
48
1
60
0
100
AcDbLine
10
1545
20
-15.589779
30
0
11
1545
21
15.589779
31
0
39
0
210
0
220
0
230
1
0
LINE
5
102
100
AcDbEntity
8
1
62
256
6
ByLayer
370
18
48
1
60
0
100
AcDbLine
10
1539
20
-15.589779
30
0
11
1539
21
-20.705524
31
0
39
0
210
0
220
0
230
1
0
LINE
5
103
100
AcDbEntity
8
1
62
256
6
ByLayer
370
18
48
1
60
0
100
AcDbLine
10
1539
20
-20.705524
30
0
11
1539
21
-25.732
31
0
39
0
210
0
220
0
230
1
0
LINE
5
104
100
AcDbEntity
8
1
62
256
6
ByLayer
370
18
48
1
60
0
100
AcDbLine
10
1545
20
-52.73429
30
0
11
1545
21
-25.732
31
0
39
0
210
0
220
0
230
1
0
LINE
5
105
100
AcDbEntity
8
1
62
256
6
ByLayer
370
18
48
1
60
0
100
AcDbLine
10
1539
20
-52.73429
30
0
11
1539
21
-56.568542
31
0
39
0
210
0
220
0
230
1
0
LINE
5
106
100
AcDbEntity
8
1
62
256
6
ByLayer
370
18
48
1
60
0
100
AcDbLine
10
1539
20
-56.568542
30
0
11
1539
21
-60.158911
31
0
39
0
210
0
220
0
230
1
0
LINE
5
107
100
AcDbEntity
8
1
62
256
6
ByLayer
370
18
48
1
60
0
100
AcDbLine
10
1545
20
-75.748691
30
0
11
1545
21
-60.158911
31
0
39
0
210
0
220
0
230
1
0
LINE
5
108
100
AcDbEntity
8
1
62
256
6
ByLayer
370
18
48
1
60
0
100
AcDbLine
10
1539
20
-75.748691
30
0
11
1539
21
-77.274066
31
0
39
0
210
0
220
0
230
1
0
LINE
5
109
100
AcDbEntity
8
1
62
256
6
ByLayer
370
18
48
1
60
0
100
AcDbLine
10
1539
20
-77.274066
30
0
11
1539
21
-78.466291
31
0
39
0
210
0
220
0
230
1
0
LINE
5
10A
100
AcDbEntity
8
1
62
256
6
ByLayer
370
18
48
1
60
0
100
AcDbLine
10
1545
20
78.466291
30
0
11
1545
21
78.782
31
0
39
0
210
0
220
0
230
1
0
LINE
5
10B
100
AcDbEntity
8
1
62
256
6
ByLayer
370
18
48
1
60
0
100
AcDbLine
10
1539
20
78.466291
30
0
11
1539
21
77.274066
31
0
39
0
210
0
220
0
230
1
0
LINE
5
10C
100
AcDbEntity
8
1
62
256
6
ByLayer
370
18
48
1
60
0
100
AcDbLine
10
1539
20
77.274066
30
0
11
1539
21
75.748691
31
0
39
0
210
0
220
0
230
1
0
LINE
5
10D
100
AcDbEntity
8
1
62
256
6
ByLayer
370
18
48
1
60
0
100
AcDbLine
10
1545
20
60.158911
30
0
11
1545
21
75.748691
31
0
39
0
210
0
220
0
230
1
0
LINE
5
10E
100
AcDbEntity
8
1
62
256
6
ByLayer
370
18
48
1
60
0
100
AcDbLine
10
1539
20
60.158911
30
0
11
1539
21
56.568542
31
0
39
0
210
0
220
0
230
1
0
LINE
5
10F
100
AcDbEntity
8
1
62
256
6
ByLayer
370
18
48
1
60
0
100
AcDbLine
10
1539
20
56.568542
30
0
11
1539
21
52.73429
31
0
39
0
210
0
220
0
230
1
0
LINE
5
110
100
AcDbEntity
8
1
62
256
6
ByLayer
370
18
48
1
60
0
100
AcDbLine
10
1545
20
25.732
30
0
11
1545
21
52.73429
31
0
39
0
210
0
220
0
230
1
0
LINE
5
111
100
AcDbEntity
8
1
62
256
6
ByLayer
370
18
48
1
60
0
100
AcDbLine
10
1545
20
24.482539
30
0
11
1545
21
24.411428
31
0
39
0
210
0
220
0
230
1
0
LINE
5
112
100
AcDbEntity
8
1
62
256
6
ByLayer
370
18
48
1
60
0
100
AcDbLine
10
1545
20
-24.411428
30
0
11
1545
21
-24.482539
31
0
39
0
210
0
220
0
230
1
0
LINE
5
113
100
AcDbEntity
8
1
62
256
6
ByLayer
370
18
48
1
60
0
100
AcDbLine
10
1546.2
20
71.538132
30
0
11
1546.2
21
2.513112
31
0
39
0
210
0
220
0
230
1
0
LINE
5
114
100
AcDbEntity
8
1
62
256
6
ByLayer
370
18
48
1
60
0
100
AcDbLine
10
1555.325
20
2.553423
30
0
11
1555.325
21
2.6964
31
0
39
0
210
0
220
0
230
1
0
LINE
5
115
100
AcDbEntity
8
1
62
256
6
ByLayer
370
18
48
1
60
0
100
AcDbLine
10
1555.325
20
2.023908
30
0
11
1555.325
21
2.150019
31
0
39
0
210
0
220
0
230
1
0
LINE
5
116
100
AcDbEntity
8
1
62
256
6
ByLayer
370
18
48
1
60
0
100
AcDbLine
10
1555.325
20
1.560163
30
0
11
1555.325
21
1.670069
31
0
39
0
210
0
220
0
230
1
0
LINE
5
117
100
AcDbEntity
8
1
62
256
6
ByLayer
370
18
48
1
60
0
100
AcDbLine
10
1555.325
20
1.159833
30
0
11
1555.325
21
1.254083
31
0
39
0
210
0
220
0
230
1
0
LINE
5
118
100
AcDbEntity
8
1
62
256
6
ByLayer
370
18
48
1
60
0
100
AcDbLine
10
1555.325
20
0.820974
30
0
11
1555.325
21
0.900018
31
0
39
0
210
0
220
0
230
1
0
LINE
5
119
100
AcDbEntity
8
1
62
256
6
ByLayer
370
18
48
1
60
0
100
AcDbLine
10
1555.325
20
0.542002
30
0
11
1555.325
21
0.606205
31
0
39
0
210
0
220
0
230
1
0
LINE
5
11A
100
AcDbEntity
8
1
62
256
6
ByLayer
370
18
48
1
60
0
100
AcDbLine
10
1555.325
20
0.321655
30
0
11
1555.325
21
0.371303
31
0
39
0
210
0
220
0
230
1
0
LINE
5
11B
100
AcDbEntity
8
1
62
256
6
ByLayer
370
18
48
1
60
0
100
AcDbLine
10
1555.325
20
0.158958
30
0
11
1555.325
21
0.194271
31
0
39
0
210
0
220
0
230
1
0
LINE
5
11C
100
AcDbEntity
8
1
62
256
6
ByLayer
370
18
48
1
60
0
100
AcDbLine
10
1555.325
20
0.053209
30
0
11
1555.325
21
0.074337
31
0
39
0
210
0
220
0
230
1
0
LINE
5
11D
100
AcDbEntity
8
1
62
256
6
ByLayer
370
18
48
1
60
0
100
AcDbLine
10
1555.325
20
0.003955
30
0
11
1555.325
21
0.010988
31
0
39
0
210
0
220
0
230
1
0
LINE
5
11E
100
AcDbEntity
8
1
62
256
6
ByLayer
370
18
48
1
60
0
100
AcDbLine
10
1555.325
20
73.803237
30
0
11
1555.325
21
70.764396
31
0
39
0
210
0
220
0
230
1
0
LINE
5
11F
100
AcDbEntity
8
1
62
256
6
ByLayer
370
18
48
1
60
0
100
AcDbLine
10
1546.2
20
80
30
0
11
1546.2
21
77.000665
31
0
39
0
210
0
220
0
230
1
0
LINE
5
120
100
AcDbEntity
8
1
62
256
6
ByLayer
370
18
48
1
60
0
100
AcDbLine
10
1555.325
20
79.989012
30
0
11
1555.325
21
79.996045
31
0
39
0
210
0
220
0
230
1
0
LINE
5
121
100
AcDbEntity
8
1
62
256
6
ByLayer
370
18
48
1
60
0
100
AcDbLine
10
1555.325
20
79.925663
30
0
11
1555.325
21
79.946791
31
0
39
0
210
0
220
0
230
1
0
LINE
5
122
100
AcDbEntity
8
1
62
256
6
ByLayer
370
18
48
1
60
0
100
AcDbLine
10
1555.325
20
79.805729
30
0
11
1555.325
21
79.841042
31
0
39
0
210
0
220
0
230
1
0
LINE
5
123
100
AcDbEntity
8
1
62
256
6
ByLayer
370
18
48
1
60
0
100
AcDbLine
10
1555.325
20
79.628697
30
0
11
1555.325
21
79.678345
31
0
39
0
210
0
220
0
230
1
0
LINE
5
124
100
AcDbEntity
8
1
62
256
6
ByLayer
370
18
48
1
60
0
100
AcDbLine
10
1555.325
20
79.393795
30
0
11
1555.325
21
79.457998
31
0
39
0
210
0
220
0
230
1
0
LINE
5
125
100
AcDbEntity
8
1
62
256
6
ByLayer
370
18
48
1
60
0
100
AcDbLine
10
1555.325
20
79.099982
30
0
11
1555.325
21
79.179026
31
0
39
0
210
0
220
0
230
1
0
LINE
5
126
100
AcDbEntity
8
1
62
256
6
ByLayer
370
18
48
1
60
0
100
AcDbLine
10
1555.325
20
78.745917
30
0
11
1555.325
21
78.840167
31
0
39
0
210
0
220
0
230
1
0
LINE
5
127
100
AcDbEntity
8
1
62
256
6
ByLayer
370
18
48
1
60
0
100
AcDbLine
10
1555.325
20
78.329931
30
0
11
1555.325
21
78.439837
31
0
39
0
210
0
220
0
230
1
0
LINE
5
128
100
AcDbEntity
8
1
62
256
6
ByLayer
370
18
48
1
60
0
100
AcDbLine
10
1555.325
20
77.849981
30
0
11
1555.325
21
77.976092
31
0
39
0
210
0
220
0
230
1
0
LINE
5
129
100
AcDbEntity
8
1
62
256
6
ByLayer
370
18
48
1
60
0
100
AcDbLine
10
1555.325
20
77.3036
30
0
11
1555.325
21
77.446577
31
0
39
0
210
0
220
0
230
1
0
LINE
5
12A
100
AcDbEntity
8
1
62
256
6
ByLayer
370
18
48
1
60
0
100
AcDbLine
10
1569.69
20
20.488719
30
0
11
1569.69
21
59.511281
31
0
39
0
210
0
220
0
230
1
0
LINE
5
12B
100
AcDbEntity
8
1
62
256
6
ByLayer
370
18
48
1
60
0
100
AcDbLine
10
1568.69
20
19.215004
30
0
11
1568.69
21
60.784996
31
0
39
0
210
0
220
0
230
1
0
LINE
5
12C
100
AcDbEntity
8
1
62
256
6
ByLayer
370
18
48
1
60
0
100
AcDbLine
10
1554.19
20
14
30
0
11
1554.19
21
35.008572
31
0
39
0
210
0
220
0
230
1
0
LINE
5
12D
100
AcDbEntity
8
1
62
256
6
ByLayer
370
18
48
1
60
0
100
AcDbLine
10
1554.19
20
35.008572
30
0
11
1554.19
21
44.991428
31
0
39
0
210
0
220
0
230
1
0
LINE
5
12E
100
AcDbEntity
8
1
62
256
6
ByLayer
370
18
48
1
60
0
100
AcDbLine
10
1554.19
20
44.991428
30
0
11
1554.19
21
66
31
0
39
0
210
0
220
0
230
1
0
LINE
5
12F
100
AcDbEntity
8
SK1
62
256
6
ByLayer
370
18
48
1
60
0
100
AcDbLine
10
-1040
20
80
30
0
11
-1040
21
-80
31
0
39
0
210
0
220
0
230
1
0
LINE
5
130
100
AcDbEntity
8
1
62
256
6
ByLayer
370
18
48
1
60
0
100
AcDbLine
10
1534.5
20
80
30
0
11
1534.5
21
-80
31
0
39
0
210
0
220
0
230
1
0
LINE
5
131
100
AcDbEntity
8
SK1
62
256
6
ByLayer
370
18
48
1
60
0
100
AcDbLine
10
-1045
20
75
30
0
11
-1045
21
-75
31
0
39
0
210
0
220
0
230
1
0
LINE
5
132
100
AcDbEntity
8
1
62
256
6
ByLayer
370
18
48
1
60
0
100
AcDbLine
10
1545
20
-52.73429
30
0
11
1545
21
-57.363136
31
0
39
0
210
0
220
0
230
1
0
LINE
5
133
100
AcDbEntity
8
1
62
256
6
ByLayer
370
18
48
1
60
0
100
AcDbLine
10
1539
20
-56.568542
30
0
11
1539
21
-57.363136
31
0
39
0
210
0
220
0
230
1
0
LINE
5
134
100
AcDbEntity
8
1
62
256
6
ByLayer
370
18
48
1
60
0
100
AcDbLine
10
1545
20
-57.363136
30
0
11
1545
21
-58.033009
31
0
39
0
210
0
220
0
230
1
0
LINE
5
135
100
AcDbEntity
8
SK1
62
256
6
ByLayer
370
18
48
1
60
0
100
AcDbLine
10
-1056
20
67
30
0
11
-1056
21
0
31
0
39
0
210
0
220
0
230
1
0
LINE
5
136
100
AcDbEntity
8
SK1
62
256
6
ByLayer
370
18
48
1
60
0
100
AcDbLine
10
-1051
20
75
30
0
11
-1051
21
0
31
0
39
0
210
0
220
0
230
1
0
LINE
5
137
100
AcDbEntity
8
SK1
62
256
6
ByLayer
370
18
48
1
60
0
100
AcDbLine
10
-1056
20
0
30
0
11
-1056
21
-67
31
0
39
0
210
0
220
0
230
1
0
LINE
5
138
100
AcDbEntity
8
SK1
62
256
6
ByLayer
370
18
48
1
60
0
100
AcDbLine
10
-1051
20
0
30
0
11
-1051
21
-75
31
0
39
0
210
0
220
0
230
1
0
LINE
5
139
100
AcDbEntity
8
SK1
62
256
6
ByLayer
370
18
48
1
60
0
100
AcDbLine
10
-1047
20
75
30
0
11
-1047
21
0
31
0
39
0
210
0
220
0
230
1
0
LINE
5
13A
100
AcDbEntity
8
SK1
62
256
6
ByLayer
370
18
48
1
60
0
100
AcDbLine
10
-1047
20
0
30
0
11
-1047
21
-75
31
0
39
0
210
0
220
0
230
1
0
LINE
5
13B
100
AcDbEntity
8
1
62
256
6
ByLayer
370
18
48
1
60
0
100
AcDbLine
10
1545
20
58.033009
30
0
11
1545
21
55.533009
31
0
39
0
210
0
220
0
230
1
0
LINE
5
13C
100
AcDbEntity
8
1
62
256
6
ByLayer
370
18
48
1
60
0
100
AcDbLine
10
1539
20
56.568542
30
0
11
1539
21
55.533009
31
0
39
0
210
0
220
0
230
1
0
LINE
5
13D
100
AcDbEntity
8
1
62
256
6
ByLayer
370
18
48
1
60
0
100
AcDbLine
10
1545
20
55.533009
30
0
11
1545
21
52.73429
31
0
39
0
210
0
220
0
230
1
0
LINE
5
13E
100
AcDbEntity
8
1
62
256
6
ByLayer
370
18
48
1
60
0
100
AcDbLine
10
1545
20
-75.748691
30
0
11
1545
21
-77.444437
31
0
39
0
210
0
220
0
230
1
0
LINE
5
13F
100
AcDbEntity
8
1
62
256
6
ByLayer
370
18
48
1
60
0
100
AcDbLine
10
1539
20
-77.274066
30
0
11
1539
21
-77.444437
31
0
39
0
210
0
220
0
230
1
0
LINE
5
140
100
AcDbEntity
8
1
62
256
6
ByLayer
370
18
48
1
60
0
100
AcDbLine
10
1545.25
20
2.513112
30
0
11
1545.25
21
2.106034
31
0
39
0
210
0
220
0
230
1
0
LINE
5
141
100
AcDbEntity
8
1
62
256
6
ByLayer
370
18
48
1
60
0
100
AcDbLine
10
1545.25
20
2.106034
30
0
11
1545.25
21
-2.486888
31
0
39
0
210
0
220
0
230
1
0
LINE
5
142
100
AcDbEntity
8
1
62
256
6
ByLayer
370
18
48
1
60
0
100
AcDbLine
10
1550.8
20
-2.486888
30
0
11
1550.8
21
2.513112
31
0
39
0
210
0
220
0
230
1
0
LINE
5
143
100
AcDbEntity
8
1
62
256
6
ByLayer
370
18
48
1
60
0
100
AcDbLine
10
1551
20
2.313112
30
0
11
1551
21
-2.286888
31
0
39
0
210
0
220
0
230
1
0
LINE
5
144
100
AcDbEntity
8
1
62
256
6
ByLayer
370
18
48
1
60
0
100
AcDbLine
10
1545
20
24.411428
30
0
11
1545
21
19.411428
31
0
39
0
210
0
220
0
230
1
0
LINE
5
145
100
AcDbEntity
8
1
62
256
6
ByLayer
370
18
48
1
60
0
100
AcDbLine
10
1539
20
20.705524
30
0
11
1539
21
19.411428
31
0
39
0
210
0
220
0
230
1
0
LINE
5
146
100
AcDbEntity
8
1
62
256
6
ByLayer
370
18
48
1
60
0
100
AcDbLine
10
1545
20
19.411428
30
0
11
1545
21
15.589779
31
0
39
0
210
0
220
0
230
1
0
LINE
5
147
100
AcDbEntity
8
1
62
256
6
ByLayer
370
18
48
1
60
0
100
AcDbLine
10
1545
20
77.444437
30
0
11
1545
21
76.774564
31
0
39
0
210
0
220
0
230
1
0
LINE
5
148
100
AcDbEntity
8
1
62
256
6
ByLayer
370
18
48
1
60
0
100
AcDbLine
10
1539
20
77.444437
30
0
11
1539
21
77.274066
31
0
39
0
210
0
220
0
230
1
0
LINE
5
149
100
AcDbEntity
8
1
62
256
6
ByLayer
370
18
48
1
60
0
100
AcDbLine
10
1539
20
77.274066
30
0
11
1539
21
76.774564
31
0
39
0
210
0
220
0
230
1
0
LINE
5
14A
100
AcDbEntity
8
1
62
256
6
ByLayer
370
18
48
1
60
0
100
AcDbLine
10
1545
20
76.774564
30
0
11
1545
21
75.748691
31
0
39
0
210
0
220
0
230
1
0
LINE
5
14B
100
AcDbEntity
8
SK1
62
256
6
ByLayer
370
18
48
1
60
0
100
AcDbLine
10
0
20
80
30
0
11
-1040
21
80
31
0
39
0
210
0
220
0
230
1
0
LINE
5
14C
100
AcDbEntity
8
1
62
256
6
ByLayer
370
18
48
1
60
0
100
AcDbLine
10
0
20
-80
30
0
11
1534.5
21
-80
31
0
39
0
210
0
220
0
230
1
0
MTEXT
5
1C7
100
AcDbEntity
8
SK6
62
256
6
ByLayer
370
13
48
1
60
0
100
AcDbMText
10
50.697682
20
115.94773
30
0
210
0
220
0
230
1
1
\W0.7205;570-3C 160 2600R
40
3.175
41
0
44
1.084337
50
0
71
7
72
5
7
iso_b_vert
0
DIMENSION
5
1D5
100
AcDbEntity
8
2
62
256
6
ByLayer
370
13
48
1
60
0
100
AcDbDimension
2
DimnDraft3D1
10
1555
20
103.263875
30
0
11
773.627336
21
103.263875
31
0
70
32
71
5
72
1
41
1
210
0
220
0
230
1
3
Standard
100
AcDbAlignedDimension
13
0
23
1.5875
33
0
14
1555
24
41.5875
34
0
50
0
100
AcDbRotatedDimension
1001
ACAD
1000
DSTYLE
1002
{
1070
   279
1070
     0
1070
   173
1070
     1
1070
   340
1005
1C8
1070
   271
1070
     1
1070
   272
1070
     2
1070
    77
1070
     1
1070
    73
1070
     0
1070
   171
1070
     3
1070
   274
1070
     4
1070
   177
1070
     7
1070
   176
1070
     7
1070
   178
1070
     7
1070
    78
1070
     8
1070
    48
1040
-0.005
1070
    41
1041
3.175
1070
   147
1041
1.5875
1070
    42
1041
1.5875
1070
    44
1041
3.175
1070
   140
1041
3.175
1070
   343
1005
0
1070
   344
1005
0
1002
}
0
DIMENSION
5
1F4
100
AcDbEntity
8
SK2
62
256
6
ByLayer
370
13
48
1
60
0
100
AcDbDimension
2
DimnDraft3D4
10
1555.325
20
168.167456
30
0
11
242.067566
21
168.167456
31
0
70
32
71
5
72
1
41
1
210
0
220
0
230
1
3
Standard
100
AcDbAlignedDimension
13
-1056
23
1.5875
33
0
14
1555.325
24
81.513163
34
0
50
0
100
AcDbRotatedDimension
1001
ACAD
1000
DSTYLE
1002
{
1070
   279
1070
     0
1070
   173
1070
     1
1070
   340
1005
1C8
1070
   271
1070
     3
1070
   272
1070
     2
1070
    77
1070
     1
1070
    73
1070
     0
1070
   171
1070
     3
1070
   274
1070
     4
1070
   177
1070
     7
1070
   176
1070
     7
1070
   178
1070
     7
1070
    78
1070
     8
1070
    48
1040
-0.005
1070
    41
1041
3.175
1070
   147
1041
1.5875
1070
    42
1041
1.5875
1070
    44
1041
3.175
1070
   140
1041
3.175
1070
   343
1005
0
1070
   344
1005
0
1002
}
0
DIMENSION
5
1FE
100
AcDbEntity
8
SK2
62
256
6
ByLayer
370
13
48
1
60
0
100
AcDbDimension
2
DimnDraft3D5
10
1598.382964
20
40
30
0
11
1598.382964
21
17.93625
31
0
70
32
71
5
72
1
41
1
210
0
220
0
230
1
3
Standard
100
AcDbAlignedDimension
13
1561.5875
23
0
33
0
14
1556.5875
24
40
34
0
50
90
100
AcDbRotatedDimension
1001
ACAD
1000
DSTYLE
1002
{
1070
    74
1070
     0
1070
   279
1070
     0
1070
   173
1070
     1
1070
   340
1005
1C8
1070
   271
1070
     3
1070
   272
1070
     2
1070
    77
1070
     1
1070
    73
1070
     0
1070
   171
1070
     3
1070
   274
1070
     4
1070
   177
1070
     7
1070
   176
1070
     7
1070
   178
1070
     7
1070
    78
1070
     8
1070
    48
1040
-0.005
1070
    41
1041
3.175
1070
   147
1041
1.5875
1070
    42
1041
1.5875
1070
    44
1041
3.175
1070
   140
1041
3.175
1070
   343
1005
0
1070
   344
1005
0
1002
}
0
ENDSEC
0
SECTION
2
OBJECTS
0
DICTIONARY
5
269
330
0
100
AcDbDictionary
280
0
281
1
3
ACAD_GROUP
350
26a
3
ACAD_MLINESTYLE
350
26b
0
DICTIONARY
5
26a
330
0
100
AcDbDictionary
280
0
281
1
0
DICTIONARY
5
26b
330
0
100
AcDbDictionary
280
0
281
1
3
Standard
350
18
0
MLINESTYLE
5
18
330
26b
100
AcDbMlineStyle
2
Standard
70
0
3

62
256
51
90
52
90
71
2
49
-0.5
62
256
6
ByLayer
49
0.5
62
256
6
ByLayer
0
RASTERVARIABLES
5
257
330

100
AcDbRasterVariables
90
0
70
1
71
1
72
1
0
ENDSEC
0
EOF
