0
SECTION
2
HEADER
9
$ACADVER
1
AC1015
9
$DWGCODEPAGE
3
ANSI_1252
9
$HANDSEED
5
1fc
9
$ANGBASE
50
0
9
$ANGDIR
70
0
9
$ATTMODE
70
1
9
$AUNITS
70
0
9
$AUPREC
70
0
9
$CECOLOR
62
256
9
$CELTSCALE
40
1
9
$CELTYPE
6
ByLayer
9
$CELWEIGHT
370
18
9
$CLAYER
8
0
9
$CMLJUST
70
0
9
$CMLSCALE
40
1
9
$CMLSTYLE
2
Standard
9
$DIMSTYLE
2
Standard
9
$TEXTSIZE
40
0.2
9
$TEXTSTYLE
7
Standard
9
$LUNITS
70
2
9
$LUPREC
70
4
9
$EXTNAMES
290
1
9
$INSUNITS
70
4
9
$LTSCALE
40
1
9
$LWDISPLAY
290
1
9
$PDMODE
70
0
9
$PDSIZE
40
0
9
$PLINEGEN
70
0
0
ENDSEC
0
SECTION
2
CLASSES
0
CLASS
1
RASTERVARIABLES
2
AcDbRasterVariables
3
ISM
90
0
280
0
281
0
0
ENDSEC
0
SECTION
2
TABLES
0
TABLE
2
VPORT
5
1f2
100
AcDbSymbolTable
0
VPORT
5
1
100
AcDbSymbolTableRecord
100
AcDbViewportTableRecord
2
*Active
70
0
10
0
20
0
11
1
21
1
12
-1
22
1
13
0
23
0
14
0.5
24
0.5
15
10
25
10
16
0
26
0
36
1
17
0
27
0
37
0
0
ENDTAB
0
TABLE
2
LTYPE
5
1f3
100
AcDbSymbolTable
0
LTYPE
5
14
100
AcDbSymbolTableRecord
100
AcDbLinetypeTableRecord
70
0
2
ByBlock
3

72
65
73
0
40
0
0
LTYPE
5
15
100
AcDbSymbolTableRecord
100
AcDbLinetypeTableRecord
70
0
2
ByLayer
3

72
65
73
0
40
0
0
LTYPE
5
16
100
AcDbSymbolTableRecord
100
AcDbLinetypeTableRecord
70
0
2
CONTINUOUS
3
Solid line
72
65
73
0
40
0
0
LTYPE
5
6A
100
AcDbSymbolTableRecord
100
AcDbLinetypeTableRecord
70
0
2
CENTER
3
____ _ ____ _ ____ _ ____
72
65
73
4
40
47.5
49
22
74
0
49
-8.5
74
0
49
8.5
74
0
49
-8.5
74
0
0
LTYPE
5
6B
100
AcDbSymbolTableRecord
100
AcDbLinetypeTableRecord
70
0
2
DASHED
3
__ __ __ __ __ __ __ __ __
72
65
73
2
40
25.72
49
12.86
74
0
49
-12.86
74
0
0
ENDTAB
0
TABLE
2
LAYER
5
1f4
100
AcDbSymbolTable
0
LAYER
5
10
100
AcDbSymbolTableRecord
100
AcDbLayerTableRecord
2
0
70
0
62
7
6
CONTINUOUS
290
1
370
-3
390
0
0
LAYER
5
6D
100
AcDbSymbolTableRecord
100
AcDbLayerTableRecord
2
80
70
0
62
-6
6
CONTINUOUS
290
1
370
-3
390
0
0
LAYER
5
6F
100
AcDbSymbolTableRecord
100
AcDbLayerTableRecord
2
81
70
0
62
-3
6
CONTINUOUS
290
1
370
-3
390
0
0
LAYER
5
78
100
AcDbSymbolTableRecord
100
AcDbLayerTableRecord
2
1
70
0
62
4
6
CONTINUOUS
290
1
370
-3
390
0
0
LAYER
5
154
100
AcDbSymbolTableRecord
100
AcDbLayerTableRecord
2
2
70
0
62
7
6
CONTINUOUS
290
1
370
-3
390
0
0
LAYER
5
1df
100
AcDbSymbolTableRecord
100
AcDbLayerTableRecord
2
SK1
70
0
62
4
6
CONTINUOUS
290
1
370
-3
390
0
0
LAYER
5
1e0
100
AcDbSymbolTableRecord
100
AcDbLayerTableRecord
2
SK6
70
0
62
5
6
CONTINUOUS
290
1
370
-3
390
0
0
LAYER
5
1e1
100
AcDbSymbolTableRecord
100
AcDbLayerTableRecord
2
SK2
70
0
62
7
6
CONTINUOUS
290
1
370
-3
390
0
0
ENDTAB
0
TABLE
2
STYLE
5
1f5
100
AcDbSymbolTable
0
STYLE
5
11
100
AcDbSymbolTableRecord
100
AcDbTextStyleTableRecord
2
Standard
3
txt
70
0
71
0
40
0
41
1
42
0
50
0
0
STYLE
5
14F
100
AcDbSymbolTableRecord
100
AcDbTextStyleTableRecord
2
iso_b_vert
3
simplex.shx
70
0
71
0
40
0
41
1
42
0
50
0
0
STYLE
5
150
100
AcDbSymbolTableRecord
100
AcDbTextStyleTableRecord
2
DWGDirectTextStyle
3
simplex
70
0
71
0
40
0
41
1
42
0
50
0
0
ENDTAB
0
TABLE
2
DIMSTYLE
5
1f6
100
AcDbSymbolTable
100
AcDbDimStyleTable
0
DIMSTYLE
105
27
100
AcDbSymbolTableRecord
100
AcDbDimStyleTableRecord
2
Standard
70
0
3
<>
41
0.18
42
0.0625
44
0.18
140
0.18
147
0.09
73
0
74
0
77
1
271
2
275
0
278
52
280
0
340
11
0
ENDTAB
0
TABLE
2
VIEW
5
1f7
100
AcDbSymbolTable
0
ENDTAB
0
TABLE
2
UCS
5
1f8
100
AcDbSymbolTable
0
ENDTAB
0
TABLE
2
APPID
5
1f9
100
AcDbSymbolTable
0
APPID
5
12
100
AcDbSymbolTableRecord
100
AcDbRegAppTableRecord
2
ACAD
70
0
0
ENDTAB
0
TABLE
2
BLOCK_RECORD
5
1fa
100
AcDbSymbolTable
0
BLOCK_RECORD
5
1F
100
AcDbSymbolTableRecord
100
AcDbBlockTableRecord
2
*Model_Space
340
0
70
0
0
BLOCK_RECORD
5
1B
100
AcDbSymbolTableRecord
100
AcDbBlockTableRecord
2
*Paper_Space
340
0
70
0
0
BLOCK_RECORD
5
23
100
AcDbSymbolTableRecord
100
AcDbBlockTableRecord
2
*Paper_Space0
340
0
70
0
0
BLOCK_RECORD
5
152
100
AcDbSymbolTableRecord
100
AcDbBlockTableRecord
2
DimnDraft3D1
340
0
70
0
0
BLOCK_RECORD
5
161
100
AcDbSymbolTableRecord
100
AcDbBlockTableRecord
2
_CLOSED
340
0
70
0
0
BLOCK_RECORD
5
168
100
AcDbSymbolTableRecord
100
AcDbBlockTableRecord
2
DimnDraft3D2
340
0
70
0
0
BLOCK_RECORD
5
176
100
AcDbSymbolTableRecord
100
AcDbBlockTableRecord
2
DimnDraft3D3
340
0
70
0
0
ENDTAB
0
ENDSEC
0
SECTION
2
BLOCKS
0
BLOCK
5
20
100
AcDbEntity
8
0
100
AcDbBlockBegin
2
*Model_Space
70
0
10
0
20
0
30
0
3
*Model_Space
0
ENDBLK
5
21
100
AcDbEntity
8
0
100
AcDbBlockEnd
0
BLOCK
5
1C
100
AcDbEntity
8
0
100
AcDbBlockBegin
2
*Paper_Space
70
0
10
0
20
0
30
0
3
*Paper_Space
0
ENDBLK
5
1D
100
AcDbEntity
8
0
100
AcDbBlockEnd
0
BLOCK
5
24
100
AcDbEntity
8
0
100
AcDbBlockBegin
2
*Paper_Space0
70
0
10
0
20
0
30
0
3
*Paper_Space0
0
ENDBLK
5
25
100
AcDbEntity
8
0
100
AcDbBlockEnd
0
BLOCK
5
15E
100
AcDbEntity
8
0
100
AcDbBlockBegin
2
DimnDraft3D1
70
0
10
0
20
0
30
0
3
DimnDraft3D1
0
MTEXT
5
153
100
AcDbEntity
8
2
62
256
6
ByLayer
370
18
48
1
60
0
100
AcDbMText
10
6.083534
20
-35.592709
30
0
210
0
220
0
230
1
1
\W0.5613;14
40
3.50012
41
0
44
1.084337
50
0
71
7
72
5
7
iso_b_vert
0
LINE
5
155
100
AcDbEntity
8
2
62
256
6
ByLayer
370
13
48
1
60
0
100
AcDbLine
10
0
20
-1.5875
30
0
11
0
21
-39.642739
31
0
39
0
210
0
220
0
230
1
0
LINE
5
156
100
AcDbEntity
8
2
62
256
6
ByLayer
370
13
48
1
60
0
100
AcDbLine
10
14.000025
20
-28.388923
30
0
11
14.000025
21
-39.642739
31
0
39
0
210
0
220
0
230
1
0
LINE
5
157
100
AcDbEntity
8
2
62
256
6
ByLayer
370
13
48
1
60
0
100
AcDbLine
10
0
20
-36.467739
30
0
11
14.000025
21
-36.467739
31
0
39
0
210
0
220
0
230
1
0
LINE
5
158
100
AcDbEntity
8
2
62
256
6
ByLayer
370
13
48
1
60
0
100
AcDbLine
10
0
20
-36.467739
30
0
11
3.174998
21
-36.049742
31
0
39
0
210
0
220
0
230
1
0
LINE
5
159
100
AcDbEntity
8
2
62
256
6
ByLayer
370
13
48
1
60
0
100
AcDbLine
10
0
20
-36.467739
30
0
11
3.175002
21
-36.885735
31
0
39
0
210
0
220
0
230
1
0
LINE
5
15A
100
AcDbEntity
8
2
62
256
6
ByLayer
370
13
48
1
60
0
100
AcDbLine
10
3.174998
20
-36.049742
30
0
11
3.175002
21
-36.885735
31
0
39
0
210
0
220
0
230
1
0
LINE
5
15B
100
AcDbEntity
8
2
62
256
6
ByLayer
370
13
48
1
60
0
100
AcDbLine
10
14.000025
20
-36.467739
30
0
11
10.825026
21
-36.885735
31
0
39
0
210
0
220
0
230
1
0
LINE
5
15C
100
AcDbEntity
8
2
62
256
6
ByLayer
370
13
48
1
60
0
100
AcDbLine
10
14.000025
20
-36.467739
30
0
11
10.825023
21
-36.049742
31
0
39
0
210
0
220
0
230
1
0
LINE
5
15D
100
AcDbEntity
8
2
62
256
6
ByLayer
370
13
48
1
60
0
100
AcDbLine
10
10.825026
20
-36.885735
30
0
11
10.825023
21
-36.049742
31
0
39
0
210
0
220
0
230
1
0
ENDBLK
5
15F
100
AcDbEntity
8
0
100
AcDbBlockEnd
0
BLOCK
5
162
100
AcDbEntity
8
0
100
AcDbBlockBegin
2
_CLOSED
70
0
10
0
20
0
30
0
3
_CLOSED
0
LINE
5
164
100
AcDbEntity
8
0
62
256
6
ByLayer
370
-2
48
1
60
0
100
AcDbLine
10
-1
20
0.166667
30
0
11
0
21
0
31
0
39
0
210
0
220
0
230
1
0
LINE
5
165
100
AcDbEntity
8
0
62
256
6
ByLayer
370
-2
48
1
60
0
100
AcDbLine
10
0
20
0
30
0
11
-1
21
-0.166667
31
0
39
0
210
0
220
0
230
1
0
LINE
5
166
100
AcDbEntity
8
0
62
256
6
ByLayer
370
-2
48
1
60
0
100
AcDbLine
10
-1
20
0.166667
30
0
11
-1
21
-0.166667
31
0
39
0
210
0
220
0
230
1
0
LINE
5
167
100
AcDbEntity
8
0
62
256
6
ByLayer
370
-2
48
1
60
0
100
AcDbLine
10
0
20
0
30
0
11
-1
21
0
31
0
39
0
210
0
220
0
230
1
0
ENDBLK
5
163
100
AcDbEntity
8
0
100
AcDbBlockEnd
0
BLOCK
5
173
100
AcDbEntity
8
0
100
AcDbBlockBegin
2
DimnDraft3D2
70
0
10
0
20
0
30
0
3
DimnDraft3D2
0
MTEXT
5
169
100
AcDbEntity
8
2
62
256
6
ByLayer
370
18
48
1
60
0
100
AcDbMText
10
-12.535256
20
-16.541608
30
0
210
0
220
0
230
1
1
\W0.7150;26.8
40
3.50012
41
0
44
1.084337
50
90
71
7
72
5
7
iso_b_vert
0
LINE
5
16A
100
AcDbEntity
8
2
62
256
6
ByLayer
370
13
48
1
60
0
100
AcDbLine
10
-1.5875
20
0
30
0
11
-14.835226
21
0
31
0
39
0
210
0
220
0
230
1
0
LINE
5
16B
100
AcDbEntity
8
2
62
256
6
ByLayer
370
13
48
1
60
0
100
AcDbLine
10
12.412525
20
-26.801423
30
0
11
-14.835226
21
-26.801423
31
0
39
0
210
0
220
0
230
1
0
LINE
5
16C
100
AcDbEntity
8
2
62
256
6
ByLayer
370
13
48
1
60
0
100
AcDbLine
10
-11.660226
20
0
30
0
11
-11.660226
21
-26.801423
31
0
39
0
210
0
220
0
230
1
0
LINE
5
16D
100
AcDbEntity
8
2
62
256
6
ByLayer
370
13
48
1
60
0
100
AcDbLine
10
-11.660226
20
0
30
0
11
-11.242229
21
-3.174998
31
0
39
0
210
0
220
0
230
1
0
LINE
5
16E
100
AcDbEntity
8
2
62
256
6
ByLayer
370
13
48
1
60
0
100
AcDbLine
10
-11.660226
20
0
30
0
11
-12.078223
21
-3.175002
31
0
39
0
210
0
220
0
230
1
0
LINE
5
16F
100
AcDbEntity
8
2
62
256
6
ByLayer
370
13
48
1
60
0
100
AcDbLine
10
-11.242229
20
-3.174998
30
0
11
-12.078223
21
-3.175002
31
0
39
0
210
0
220
0
230
1
0
LINE
5
170
100
AcDbEntity
8
2
62
256
6
ByLayer
370
13
48
1
60
0
100
AcDbLine
10
-11.660226
20
-26.801423
30
0
11
-12.078223
21
-23.626424
31
0
39
0
210
0
220
0
230
1
0
LINE
5
171
100
AcDbEntity
8
2
62
256
6
ByLayer
370
13
48
1
60
0
100
AcDbLine
10
-11.660226
20
-26.801423
30
0
11
-11.242229
21
-23.626421
31
0
39
0
210
0
220
0
230
1
0
LINE
5
172
100
AcDbEntity
8
2
62
256
6
ByLayer
370
13
48
1
60
0
100
AcDbLine
10
-12.078223
20
-23.626424
30
0
11
-11.242229
21
-23.626421
31
0
39
0
210
0
220
0
230
1
0
ENDBLK
5
174
100
AcDbEntity
8
0
100
AcDbBlockEnd
0
BLOCK
5
183
100
AcDbEntity
8
0
100
AcDbBlockBegin
2
DimnDraft3D3
70
0
10
0
20
0
30
0
3
DimnDraft3D3
0
MTEXT
5
177
100
AcDbEntity
8
SK2
62
256
6
ByLayer
370
18
48
1
60
0
100
AcDbMText
10
22.704135
20
-4.901252
30
0
210
0
220
0
230
1
1
%%c
40
3.175
41
0
44
1.084337
50
90
71
7
72
5
7
iso_b_vert
0
MTEXT
5
179
100
AcDbEntity
8
SK2
62
256
6
ByLayer
370
18
48
1
60
0
100
AcDbMText
10
22.785415
20
3.092723
30
0
210
0
220
0
230
1
1
\W0.6562;25
40
3.50012
41
0
44
1.084337
50
90
71
7
72
5
7
iso_b_vert
0
LINE
5
17A
100
AcDbEntity
8
SK2
62
256
6
ByLayer
370
13
48
1
60
0
100
AcDbLine
10
7.7875
20
11.5
30
0
11
27.629195
21
11.5
31
0
39
0
210
0
220
0
230
1
0
LINE
5
17B
100
AcDbEntity
8
SK2
62
256
6
ByLayer
370
13
48
1
60
0
100
AcDbLine
10
2.338734
20
-12.5
30
0
11
27.629195
21
-12.5
31
0
39
0
210
0
220
0
230
1
0
LINE
5
17C
100
AcDbEntity
8
SK2
62
256
6
ByLayer
370
13
48
1
60
0
100
AcDbLine
10
24.454195
20
11.5
30
0
11
24.454195
21
-12.5
31
0
39
0
210
0
220
0
230
1
0
LINE
5
17D
100
AcDbEntity
8
SK2
62
256
6
ByLayer
370
13
48
1
60
0
100
AcDbLine
10
24.454195
20
11.5
30
0
11
24.872192
21
8.325002
31
0
39
0
210
0
220
0
230
1
0
LINE
5
17E
100
AcDbEntity
8
SK2
62
256
6
ByLayer
370
13
48
1
60
0
100
AcDbLine
10
24.454195
20
11.5
30
0
11
24.036199
21
8.324998
31
0
39
0
210
0
220
0
230
1
0
LINE
5
17F
100
AcDbEntity
8
SK2
62
256
6
ByLayer
370
13
48
1
60
0
100
AcDbLine
10
24.872192
20
8.325002
30
0
11
24.036199
21
8.324998
31
0
39
0
210
0
220
0
230
1
0
LINE
5
180
100
AcDbEntity
8
SK2
62
256
6
ByLayer
370
13
48
1
60
0
100
AcDbLine
10
24.454195
20
-12.5
30
0
11
24.036199
21
-9.325002
31
0
39
0
210
0
220
0
230
1
0
LINE
5
181
100
AcDbEntity
8
SK2
62
256
6
ByLayer
370
13
48
1
60
0
100
AcDbLine
10
24.454195
20
-12.5
30
0
11
24.872192
21
-9.324998
31
0
39
0
210
0
220
0
230
1
0
LINE
5
182
100
AcDbEntity
8
SK2
62
256
6
ByLayer
370
13
48
1
60
0
100
AcDbLine
10
24.036199
20
-9.325002
30
0
11
24.872192
21
-9.324998
31
0
39
0
210
0
220
0
230
1
0
ENDBLK
5
184
100
AcDbEntity
8
0
100
AcDbBlockEnd
0
ENDSEC
0
SECTION
2
ENTITIES
0
ELLIPSE
5
E9
100
AcDbEntity
8
1
62
256
6
ByLayer
370
18
48
1
60
0
100
AcDbEllipse
10
13.530458
20
0
30
0
11
-0.218454667682912
21
12.4999977227154
31
0
210
0
220
0
230
-1
40
0.034915
41
1.26079215698765
42
1.33768103850991
0
ELLIPSE
5
EA
100
AcDbEntity
8
1
62
256
6
ByLayer
370
18
48
1
60
0
100
AcDbEllipse
10
433.003017
20
0.000353
30
0
11
-935.059390143435
21
-9.57293783949311
31
0
210
0
220
0
230
-1
40
0.008595
41
1.10181099575439
42
1.1061278703804
0
ELLIPSE
5
EB
100
AcDbEntity
8
1
62
256
6
ByLayer
370
18
48
1
60
0
100
AcDbEllipse
10
-163.169425
20
-5.65685
30
0
11
-280.538361613074
21
-2.8719712743057
31
0
210
0
220
0
230
-1
40
0.008595
41
2.23790215604545
42
2.25343601603355
0
ELLIPSE
5
EC
100
AcDbEntity
8
1
62
256
6
ByLayer
370
18
48
1
60
0
100
AcDbEllipse
10
-163.170456
20
-5.656854
30
0
11
-280.539508525211
21
-2.87197851781662
31
0
210
0
220
0
230
-1
40
0.008595
41
-2.25284668447353
42
-2.2380276653081
0
ELLIPSE
5
ED
100
AcDbEntity
8
1
62
256
6
ByLayer
370
18
48
1
60
0
100
AcDbEllipse
10
13.826771
20
-5.656854
30
0
11
-0.0655364002931165
21
3.74999930186584
31
0
210
0
220
0
230
-1
40
0.034915
41
-1.58655572487745
42
0.175643675306396
0
ELLIPSE
5
EE
100
AcDbEntity
8
1
62
256
6
ByLayer
370
18
48
1
60
0
100
AcDbEllipse
10
-0.135245
20
-14.254711
30
0
11
-1.99512810051952
21
1.99512810051952
31
0
210
0
220
0
230
-1
40
0.069927
41
1.96019269609097
42
-2.09981903625053
0
ELLIPSE
5
EF
100
AcDbEntity
8
1
62
256
6
ByLayer
370
18
48
1
60
0
100
AcDbEllipse
10
2.275481
20
-15.883955
30
0
11
-1.9951281005216
21
1.9951281005216
31
0
210
0
220
0
230
-1
40
0.069927
41
2.23062495496878
42
3.0717794835099
0
ELLIPSE
5
F0
100
AcDbEntity
8
1
62
256
6
ByLayer
370
18
48
1
60
0
100
AcDbEllipse
10
2.275481
20
-17.165174
30
0
11
-1.99512810052023
21
1.99512810052023
31
0
210
0
220
0
230
-1
40
0.069927
41
3.07177948351002
42
-2.199114857513
0
ELLIPSE
5
F1
100
AcDbEntity
8
1
62
256
6
ByLayer
370
18
48
1
60
0
100
AcDbEllipse
10
10.704307
20
-6.876663
30
0
11
-1.29948427261652
21
0.219940008185488
31
0
210
0
220
0
230
-1
40
0.807012
41
1.2408872823984
42
-2.10473638225537
0
ELLIPSE
5
F2
100
AcDbEntity
8
1
62
256
6
ByLayer
370
18
48
1
60
0
100
AcDbEllipse
10
10.933956
20
-8.86969
30
0
11
-1.58266016725286
21
3.6011134213631
31
0
210
0
220
0
230
-1
40
0.156115
41
1.24177839674641
42
1.35513822044028
0
ELLIPSE
5
F3
100
AcDbEntity
8
1
62
256
6
ByLayer
370
18
48
1
60
0
100
AcDbEllipse
10
10.952719
20
-9.032522
30
0
11
-0.798693233845009
21
1.51819289667289
31
0
210
0
220
0
230
-1
40
0.71442
41
0.255773841658806
42
0.636126975599491
0
ELLIPSE
5
F4
100
AcDbEntity
8
1
62
256
6
ByLayer
370
18
48
1
60
0
100
AcDbEllipse
10
10.990204
20
-9.357839
30
0
11
-0.798693241915266
21
1.51819286892289
31
0
210
0
220
0
230
-1
40
0.71442
41
0.7494868112268
42
0.800790652552856
0
ELLIPSE
5
F5
100
AcDbEntity
8
1
62
256
6
ByLayer
370
18
48
1
60
0
100
AcDbEllipse
10
10.403852
20
-17.165174
30
0
11
-0.0349527468229886
21
1.99999962765976
31
0
210
0
220
0
230
-1
40
0.034915
41
3.00257650869869
42
-3.14098126370051
0
POINT
5
6C
100
AcDbEntity
8
80
62
256
6
ByLayer
370
18
48
1
60
0
100
AcDbPoint
10
0
20
0
30
0
39
0
210
0
220
0
230
1
50
360
0
POINT
5
6E
100
AcDbEntity
8
81
62
256
6
ByLayer
370
18
48
1
60
0
100
AcDbPoint
10
14.000025
20
-26.801423
30
0
39
0
210
0
220
0
230
1
50
360
0
SPLINE
5
F6
100
AcDbEntity
8
1
62
256
6
ByLayer
370
18
48
1
60
0
100
AcDbSpline
70
4
71
3
72
9
73
5
40
0
40
0
40
0
40
0
40
0.5
40
1
40
1
40
1
40
1
41
1
10
0.346265877365283
20
-3.15192937208218
30
2E-16
41
1
10
0.174825539168182
20
-2.10128624805478
30
1E-16
41
1
10
0.0010822795891556
20
0
30
0
41
1
10
0.174825539168182
20
2.10128624805481
30
-1E-16
41
1
10
0.346265877365283
20
3.15192937208218
30
-2E-16
0
SPLINE
5
F7
100
AcDbEntity
8
1
62
256
6
ByLayer
370
18
48
1
60
0
100
AcDbSpline
70
4
71
3
72
10
73
6
40
0
40
0
40
0
40
0
40
0.5
40
0.5
40
1
40
1
40
1
40
1
41
1
10
-0.29876587736527
20
-11.7497871434621
30
0
41
1
10
-0.29876587736527
20
-11.7496449714875
30
0
41
1
10
-0.291204875824093
20
-11.7569863641689
30
0
41
1
10
-0.268817560754656
20
-11.7789710720206
30
0
41
1
10
-0.254280308628466
20
-11.7933249107541
30
0
41
1
10
-0.238765877365267
20
-11.8087085626104
30
0
0
SPLINE
5
F8
100
AcDbEntity
8
1
62
256
6
ByLayer
370
18
48
1
60
0
100
AcDbSpline
70
4
71
3
72
8
73
4
40
0
40
0
40
0
40
0
40
1
40
1
40
1
40
1
41
1
10
-0.238765877365267
20
-11.8087085626104
30
0
41
1
10
-0.0443765601931432
20
-12.0014592686609
30
0
41
1
10
0.150659196352621
20
-12.1933341253553
30
0
41
1
10
0.346265877365283
20
-12.3844354465149
30
0
0
SPLINE
5
F9
100
AcDbEntity
8
1
62
256
6
ByLayer
370
18
48
1
60
0
100
AcDbSpline
70
4
71
3
72
16
73
12
40
0
40
0
40
0
40
0
40
0.250000000000001
40
0.250000000000001
40
0.500000000000001
40
0.500000000000001
40
0.625000000000001
40
0.625000000000001
40
0.750000000000001
40
0.750000000000001
40
1
40
1
40
1
40
1
41
1
10
0.346265877365283
20
-12.3730668418409
30
0
41
1
10
0.362829928932683
20
-12.3902303833057
30
0
41
1
10
0.378247314570302
20
-12.4064798233372
30
0
41
1
10
0.402304285886231
20
-12.432648903786
30
0
41
1
10
0.410776322792458
20
-12.44245012751
30
0
41
1
10
0.411477910722311
20
-12.4450824824421
30
0
41
1
10
0.409742555390835
20
-12.4439847117407
30
0
41
1
10
0.402867461721513
20
-12.4382469321851
30
0
41
1
10
0.397767167126261
20
-12.4336538257687
30
0
41
1
10
0.379308354684014
20
-12.4165031300498
30
0
41
1
10
0.363351946975598
20
-12.4011279769491
30
0
41
1
10
0.346265877365283
20
-12.3844354465149
30
0
0
SPLINE
5
FA
100
AcDbEntity
8
1
62
256
6
ByLayer
370
18
48
1
60
0
100
AcDbSpline
70
4
71
3
72
8
73
4
40
0
40
0
40
0
40
0
40
1
40
1
40
1
40
1
41
1
10
-0.238765877365267
20
-11.7609403985286
30
1E-16
41
1
10
-0.0446459725276611
20
-11.9661175537078
30
0
41
1
10
0.150401066479105
20
-12.1701132474588
30
0
41
1
10
0.346265877365283
20
-12.3730668418409
30
0
0
SPLINE
5
FB
100
AcDbEntity
8
1
62
256
6
ByLayer
370
18
48
1
60
0
100
AcDbSpline
70
4
71
3
72
10
73
6
40
0
40
0
40
0
40
0
40
0.5
40
0.5
40
1
40
1
40
1
40
1
41
1
10
-0.29876587736527
20
-11.6906719839625
30
1E-16
41
1
10
-0.29876587736527
20
-11.6931158183837
30
1E-16
41
1
10
-0.291025683340024
20
-11.7031240759039
30
1E-16
41
1
10
-0.268809512749641
20
-11.7287522465736
30
1E-16
41
1
10
-0.25435664626184
20
-11.7444615649338
30
1E-16
41
1
10
-0.238765877365267
20
-11.7609403985286
30
1E-16
0
SPLINE
5
FC
100
AcDbEntity
8
1
62
256
6
ByLayer
370
18
48
1
60
0
100
AcDbSpline
70
4
71
3
72
10
73
6
40
0
40
0
40
0
40
0
40
0.5
40
0.5
40
1
40
1
40
1
40
1
41
1
10
-0.238765877365267
20
-11.7237569394624
30
1E-16
41
1
10
-0.254244045458393
20
-11.7092508348808
30
1E-16
41
1
10
-0.268890909870464
20
-11.6960717616917
30
1E-16
41
1
10
-0.291478002077412
20
-11.6775586194691
30
1E-16
41
1
10
-0.29876587736527
20
-11.6729371036266
30
1E-16
41
1
10
-0.29876587736527
20
-11.6755378632733
30
1E-16
0
SPLINE
5
FD
100
AcDbEntity
8
1
62
256
6
ByLayer
370
18
48
1
60
0
100
AcDbSpline
70
4
71
3
72
8
73
4
40
0
40
0
40
0
40
0
40
1
40
1
40
1
40
1
41
1
10
0.346265877365283
20
-12.2690953042644
30
1E-16
41
1
10
0.150857104270074
20
-12.0878868890753
30
1E-16
41
1
10
-0.0441715975176749
20
-11.9061302641005
30
1E-16
41
1
10
-0.238765877365267
20
-11.7237569394624
30
1E-16
0
SPLINE
5
FE
100
AcDbEntity
8
1
62
256
6
ByLayer
370
18
48
1
60
0
100
AcDbSpline
70
4
71
3
72
16
73
12
40
0
40
0
40
0
40
0
40
0.250000000000002
40
0.250000000000002
40
0.375000000000004
40
0.375000000000004
40
0.500000000000005
40
0.500000000000005
40
0.750000000000002
40
0.750000000000002
40
1
40
1
40
1
40
1
41
1
10
0.346265877365283
20
-12.2690953042645
30
1E-16
41
1
10
0.363763797721049
20
-12.2853216505362
30
1E-16
41
1
10
0.38039174167838
20
-12.2999693296265
30
1E-16
41
1
10
0.399034266599443
20
-12.3142352168926
30
1E-16
41
1
10
0.404044112370684
20
-12.317570311344
30
1E-16
41
1
10
0.410474677317865
20
-12.3202876009209
30
1E-16
41
1
10
0.411739128739754
20
-12.3195912684312
30
1E-16
41
1
10
0.409839372792419
20
-12.3118258879192
30
1E-16
41
1
10
0.40109894391847
20
-12.2994216747915
30
1E-16
41
1
10
0.377419973783191
20
-12.2698457273342
30
1E-16
41
1
10
0.362512536254286
20
-12.2526197623954
30
1E-16
41
1
10
0.346265877365283
20
-12.2346362764258
30
1E-16
0
SPLINE
5
FF
100
AcDbEntity
8
1
62
256
6
ByLayer
370
18
48
1
60
0
100
AcDbSpline
70
4
71
3
72
8
73
4
40
0
40
0
40
0
40
0
40
1
40
1
40
1
40
1
41
1
10
0.346265877365283
20
-12.2346362764258
30
1E-16
41
1
10
0.150057350385936
20
-12.0174523424142
30
-2E-16
41
1
10
-0.0450052938840315
20
-11.7989054914293
30
-2E-16
41
1
10
-0.238765877365267
20
-11.5788099647078
30
-2E-16
0
SPLINE
5
100
100
AcDbEntity
8
1
62
256
6
ByLayer
370
18
48
1
60
0
100
AcDbSpline
70
4
71
3
72
10
73
6
40
0
40
0
40
0
40
0
40
0.5
40
0.5
40
1
40
1
40
1
40
1
41
1
10
-0.238765877365267
20
-11.5788099647078
30
-2E-16
41
1
10
-0.254443144550351
20
-11.5610019238944
30
-2E-16
41
1
10
-0.268793451740379
20
-11.5437516605365
30
-2E-16
41
1
10
-0.290894992240823
20
-11.5141057533186
30
-2E-16
41
1
10
-0.29876587736527
20
-11.5013915223579
30
-2E-16
41
1
10
-0.29876587736527
20
-11.4961352182612
30
-2E-16
0
SPLINE
5
101
100
AcDbEntity
8
1
62
256
6
ByLayer
370
18
48
1
60
0
100
AcDbSpline
70
4
71
3
72
10
73
6
40
0
40
0
40
0
40
0
40
0.5
40
0.5
40
1
40
1
40
1
40
1
41
1
10
-0.29876587736527
20
-11.4653334394072
30
-2E-16
41
1
10
-0.29876587736527
20
-11.460392992169
30
-2E-16
41
1
10
-0.291906756513754
20
-11.4621167367296
30
-2E-16
41
1
10
-0.26925707021033
20
-11.4770165228158
30
-2E-16
41
1
10
-0.254314583140797
20
-11.4892692829254
30
-2E-16
41
1
10
-0.238765877365267
20
-11.5031454669806
30
-2E-16
0
SPLINE
5
102
100
AcDbEntity
8
1
62
256
6
ByLayer
370
18
48
1
60
0
100
AcDbSpline
70
4
71
3
72
8
73
4
40
0
40
0
40
0
40
0
40
1
40
1
40
1
40
1
41
1
10
-0.238765877365267
20
-11.5031454669806
30
-2E-16
41
1
10
-0.0440129748104425
20
-11.6769494581396
30
-2E-16
41
1
10
0.151008659905727
20
-11.8503525243979
30
-2E-16
41
1
10
0.346265877365283
20
-12.023400427556
30
-2E-16
0
SPLINE
5
103
100
AcDbEntity
8
1
62
256
6
ByLayer
370
18
48
1
60
0
100
AcDbSpline
70
4
71
3
72
16
73
12
40
0
40
0
40
0
40
0
40
0.249999999999999
40
0.249999999999999
40
0.499999999999999
40
0.499999999999999
40
0.625000000000001
40
0.625000000000001
40
0.750000000000003
40
0.750000000000003
40
1
40
1
40
1
40
1
41
1
10
0.346265877365283
20
-11.9647342870706
30
-2E-16
41
1
10
0.362089789056228
20
-11.9835994158917
30
-2E-16
41
1
10
0.376414504149977
20
-12.0018053997691
30
-2E-16
41
1
10
0.39980090369346
20
-12.0349865794895
30
-2E-16
41
1
10
0.408653923904637
20
-12.0497093777905
30
-2E-16
41
1
10
0.411862791890201
20
-12.0627843448769
30
-2E-16
41
1
10
0.411114386906348
20
-12.0654164573837
30
-2E-16
41
1
10
0.405527513994059
20
-12.0662715389366
30
-2E-16
41
1
10
0.40068748534145
20
-12.0644610428416
30
-2E-16
41
1
10
0.381994577859075
20
-12.0535745868695
30
-2E-16
41
1
10
0.364444674582927
20
-12.0395114977709
30
-2E-16
41
1
10
0.346265877365283
20
-12.023400427556
30
-2E-16
0
SPLINE
5
104
100
AcDbEntity
8
1
62
256
6
ByLayer
370
18
48
1
60
0
100
AcDbSpline
70
4
71
3
72
8
73
4
40
0
40
0
40
0
40
0
40
1
40
1
40
1
40
1
41
1
10
-0.238765877365267
20
-11.2557967883172
30
-2E-16
41
1
10
-0.0454970323689565
20
-11.4940257197542
30
-2E-16
41
1
10
0.149587851442959
20
-11.7302564684523
30
-2E-16
41
1
10
0.346265877365283
20
-11.9647342870706
30
-2E-16
0
SPLINE
5
105
100
AcDbEntity
8
1
62
256
6
ByLayer
370
18
48
1
60
0
100
AcDbSpline
70
4
71
3
72
10
73
6
40
0
40
0
40
0
40
0
40
0.5
40
0.5
40
1
40
1
40
1
40
1
41
1
10
-0.298765877365696
20
-11.1590966693759
30
-2E-16
41
1
10
-0.298765877365668
20
-11.1674430662224
30
-2E-16
41
1
10
-0.290886716963598
20
-11.1829268883154
30
-2E-16
41
1
10
-0.268789002212373
20
-11.217289701907
30
-2E-16
41
1
10
-0.254625322153771
20
-11.2362479645778
30
-2E-16
41
1
10
-0.238765877365267
20
-11.2557967883172
30
-2E-16
0
SPLINE
5
106
100
AcDbEntity
8
1
62
256
6
ByLayer
370
18
48
1
60
0
100
AcDbSpline
70
4
71
3
72
10
73
6
40
0
40
0
40
0
40
0
40
0.5
40
0.5
40
1
40
1
40
1
40
1
41
1
10
-0.238765877365267
20
-11.1388165661098
30
-2E-16
41
1
10
-0.254328455815028
20
-11.1254820387626
30
-2E-16
41
1
10
-0.269496735722157
20
-11.1141282717471
30
-2E-16
41
1
10
-0.292434837481807
20
-11.102860606643
30
-2E-16
41
1
10
-0.29876587736527
20
-11.10413108601
30
-2E-16
41
1
10
-0.29876587736527
20
-11.1114606311164
30
-2E-16
0
SPLINE
5
107
100
AcDbEntity
8
1
62
256
6
ByLayer
370
18
48
1
60
0
100
AcDbSpline
70
4
71
3
72
8
73
4
40
0
40
0
40
0
40
0
40
1
40
1
40
1
40
1
41
1
10
0.346265877365283
20
-11.6390985947187
30
-2E-16
41
1
10
0.151124165318265
20
-11.4725425669398
30
-2E-16
41
1
10
-0.0438922923073619
20
-11.3057906416203
30
-2E-16
41
1
10
-0.238765877365267
20
-11.1388165661098
30
-2E-16
0
SPLINE
5
108
100
AcDbEntity
8
1
62
256
6
ByLayer
370
18
48
1
60
0
100
AcDbSpline
70
4
71
3
72
18
73
14
40
0
40
0
40
0
40
0
40
0.124999999999998
40
0.124999999999998
40
0.249999999999996
40
0.249999999999996
40
0.374999999999995
40
0.374999999999995
40
0.499999999999993
40
0.499999999999993
40
0.749999999999996
40
0.749999999999996
40
1
40
1
40
1
40
1
41
1
10
0.346265877365283
20
-11.6390985947188
30
-2E-16
41
1
10
0.355662668079191
20
-11.6471188796633
30
-2E-16
41
1
10
0.364854871271774
20
-11.6543977930213
30
-2E-16
41
1
10
0.382010918423475
20
-11.6663391574056
30
-2E-16
41
1
10
0.389879436166638
20
-11.6708958183676
30
-2E-16
41
1
10
0.40229722840661
20
-11.6754899996093
30
-2E-16
41
1
10
0.40685064368779
20
-11.675472479483
30
-2E-16
41
1
10
0.411557911524824
20
-11.6707596810297
30
-2E-16
41
1
10
0.411797740192469
20
-11.6661281442779
30
-2E-16
41
1
10
0.407554711901071
20
-11.6479536660719
30
-2E-16
41
1
10
0.398605886197345
20
-11.6307610749798
30
-2E-16
41
1
10
0.37591867063287
20
-11.5942203981473
30
-2E-16
41
1
10
0.361817648172973
20
-11.5743220515549
30
-2E-16
41
1
10
0.346265877365283
20
-11.5541511286625
30
-2E-16
0
SPLINE
5
109
100
AcDbEntity
8
1
62
256
6
ByLayer
370
18
48
1
60
0
100
AcDbSpline
70
4
71
3
72
8
73
4
40
0
40
0
40
0
40
0
40
1
40
1
40
1
40
1
41
1
10
0.346265877365283
20
-11.5541511286625
30
-2E-16
41
1
10
0.148923996154593
20
-11.2981952045069
30
-2E-16
41
1
10
-0.0461937844659133
20
-11.040000444584
30
-2E-16
41
1
10
-0.238765877365267
20
-10.7792431311742
30
-2E-16
0
SPLINE
5
10A
100
AcDbEntity
8
1
62
256
6
ByLayer
370
18
48
1
60
0
100
AcDbSpline
70
4
71
3
72
10
73
6
40
0
40
0
40
0
40
0
40
0.5
40
0.5
40
1
40
1
40
1
40
1
41
1
10
-0.238765877365267
20
-10.7792431311742
30
-2E-16
41
1
10
-0.254719281812953
20
-10.7576410037793
30
-2E-16
41
1
10
-0.268718274953244
20
-10.7365833959122
30
-2E-16
41
1
10
-0.29081884835864
20
-10.6966749706021
30
-2E-16
41
1
10
-0.29876587736527
20
-10.6781286346749
30
-2E-16
41
1
10
-0.29876587736527
20
-10.6660560656891
30
-2E-16
0
SPLINE
5
10B
100
AcDbEntity
8
1
62
256
6
ByLayer
370
18
48
1
60
0
100
AcDbSpline
70
4
71
3
72
10
73
6
40
0
40
0
40
0
40
0
40
0.5
40
0.5
40
1
40
1
40
1
40
1
41
1
10
-0.298765877365355
20
-10.5995397936377
30
-2E-16
41
1
10
-0.298765877365355
20
-10.5899200624847
30
-2E-16
41
1
10
-0.292918531446929
20
-10.5853424342663
30
-2E-16
41
1
10
-0.270215471157314
20
-10.592296656697
30
-2E-16
41
1
10
-0.254442776518914
20
-10.6029555718279
30
-2E-16
41
1
10
-0.238765877365296
20
-10.6159838617232
30
-2E-16
0
SPLINE
5
10C
100
AcDbEntity
8
1
62
256
6
ByLayer
370
18
48
1
60
0
100
AcDbSpline
70
4
71
3
72
8
73
4
40
0
40
0
40
0
40
0
40
1
40
1
40
1
40
1
41
1
10
-0.238765877365267
20
-10.6159838617232
30
-2E-16
41
1
10
-0.0438058665071139
20
-10.7780054142356
30
-2E-16
41
1
10
0.151206930735327
20
-10.9399423020741
30
-2E-16
41
1
10
0.346265877365283
20
-11.1018050043141
30
-2E-16
0
SPLINE
5
10D
100
AcDbEntity
8
1
62
256
6
ByLayer
370
18
48
1
60
0
100
AcDbSpline
70
4
71
3
72
18
73
14
40
0
40
0
40
0
40
0
40
0.249999999999996
40
0.249999999999996
40
0.499999999999991
40
0.499999999999991
40
0.624999999999993
40
0.624999999999993
40
0.749999999999996
40
0.749999999999996
40
0.874999999999998
40
0.874999999999998
40
1
40
1
40
1
40
1
41
1
10
0.346265877365255
20
-10.9871265601041
30
-2E-16
41
1
10
0.36143843207131
20
-11.0088178393428
30
-2E-16
41
1
10
0.37485856021172
20
-11.029989870025
30
-2E-16
41
1
10
0.397283270164962
20
-11.0709904129482
30
-2E-16
41
1
10
0.406239899838539
20
-11.090798851915
30
-2E-16
41
1
10
0.411516443818243
20
-11.1141692586581
30
-2E-16
41
1
10
0.411862100989168
20
-11.1209486865236
30
-2E-16
41
1
10
0.408328634556369
20
-11.130173620789
30
-2E-16
41
1
10
0.404348589371636
20
-11.1325691167113
30
-2E-16
41
1
10
0.392092643503531
20
-11.1314974863364
30
-2E-16
41
1
10
0.383870609231565
20
-11.1280310548312
30
-2E-16
41
1
10
0.365930143549377
20
-11.1172614671937
30
-2E-16
41
1
10
0.35616956408154
20
-11.1100232251224
30
-2E-16
41
1
10
0.346265877365283
20
-11.1018050043141
30
-2E-16
0
SPLINE
5
10E
100
AcDbEntity
8
1
62
256
6
ByLayer
370
18
48
1
60
0
100
AcDbSpline
70
4
71
3
72
8
73
4
40
0
40
0
40
0
40
0
40
1
40
1
40
1
40
1
41
1
10
-0.238765877365267
20
-10.1274974017296
30
-3E-16
41
1
10
-0.0472289791347293
20
-10.4171925353126
30
-2E-16
41
1
10
0.147939893285667
20
-10.7035919553972
30
-2E-16
41
1
10
0.346265877365255
20
-10.987126560104
30
-2E-16
0
SPLINE
5
10F
100
AcDbEntity
8
1
62
256
6
ByLayer
370
18
48
1
60
0
100
AcDbSpline
70
4
71
3
72
12
73
8
40
0
40
0
40
0
40
0
40
0.249999999999995
40
0.249999999999995
40
0.499999999999989
40
0.499999999999989
40
1
40
1
40
1
40
1
41
1
10
-0.298765877374336
20
-9.99395144656111
30
-3E-16
41
1
10
-0.298765877373711
20
-10.0020391217595
30
-3E-16
41
1
10
-0.296664737725791
20
-10.0118612235829
30
-3E-16
41
1
10
-0.289956057896603
20
-10.0328982066159
30
-3E-16
41
1
10
-0.285389340336934
20
-10.0440288421494
30
-3E-16
41
1
10
-0.269036133186404
20
-10.0787591542901
30
-3E-16
41
1
10
-0.254933519428278
20
-10.1030442166231
30
-3E-16
41
1
10
-0.238765877365267
20
-10.1274974017296
30
-3E-16
0
SPLINE
5
110
100
AcDbEntity
8
1
62
256
6
ByLayer
370
18
48
1
60
0
100
AcDbSpline
70
4
71
3
72
14
73
10
40
0
40
0
40
0
40
0
40
0.25
40
0.25
40
0.5
40
0.5
40
0.75
40
0.75
40
1
40
1
40
1
40
1
41
1
10
-0.238765877365267
20
-9.90959092048163
30
-3E-16
41
1
10
-0.246713132640252
20
-9.90309433048645
30
-3E-16
41
1
10
-0.254699932149634
20
-9.89735910661506
30
-3E-16
41
1
10
-0.269658842193707
20
-9.8889043286789
30
-3E-16
41
1
10
-0.276700825151522
20
-9.88621205600126
30
-3E-16
41
1
10
-0.287965838387947
20
-9.88522907721389
30
-3E-16
41
1
10
-0.292283224629529
20
-9.88693934826375
30
-3E-16
41
1
10
-0.297644847954757
20
-9.89391712461105
30
-3E-16
41
1
10
-0.29876587736527
20
-9.89903382365441
30
-3E-16
41
1
10
-0.29876587736527
20
-9.90509617908731
30
-3E-16
0
SPLINE
5
111
100
AcDbEntity
8
1
62
256
6
ByLayer
370
18
48
1
60
0
100
AcDbSpline
70
4
71
3
72
8
73
4
40
0
40
0
40
0
40
0
40
1
40
1
40
1
40
1
41
1
10
0.346265877365283
20
-10.3878069201369
30
-3E-16
41
1
10
0.151251912810522
20
-10.2284070997711
30
-3E-16
41
1
10
-0.0437588351939269
20
-10.0690020322836
30
-3E-16
41
1
10
-0.238765877365267
20
-9.90959092048172
30
-3E-16
0
SPLINE
5
112
100
AcDbEntity
8
1
62
256
6
ByLayer
370
18
48
1
60
0
100
AcDbSpline
70
4
71
3
72
18
73
14
40
0
40
0
40
0
40
0
40
0.124999999999999
40
0.124999999999999
40
0.249999999999997
40
0.249999999999997
40
0.374999999999996
40
0.374999999999996
40
0.499999999999994
40
0.499999999999994
40
0.749999999999997
40
0.749999999999997
40
1
40
1
40
1
40
1
41
1
10
0.346265877365283
20
-10.387806920137
30
-3E-16
41
1
10
0.356693239078339
20
-10.396329999947
30
-3E-16
41
1
10
0.367202394663195
20
-10.4036466933507
30
-3E-16
41
1
10
0.386160328864236
20
-10.4129202649061
30
-3E-16
41
1
10
0.394536219978477
20
-10.4147235820166
30
-3E-16
41
1
10
0.406354480623918
20
-10.4110790667088
30
-3E-16
41
1
10
0.409585203021237
20
-10.4058284416209
30
-3E-16
41
1
10
0.411896608955345
20
-10.3916740141273
30
-3E-16
41
1
10
0.411064639282983
20
-10.3827045735742
30
-3E-16
41
1
10
0.404958531755852
20
-10.353761746687
30
-3E-16
41
1
10
0.396185531510753
20
-10.3312984859182
30
-3E-16
41
1
10
0.37443960603369
20
-10.2854873025588
30
-3E-16
41
1
10
0.361137769062992
20
-10.2615657367403
30
-3E-16
41
1
10
0.346265877365255
20
-10.2376995361025
30
-3E-16
0
SPLINE
5
113
100
AcDbEntity
8
1
62
256
6
ByLayer
370
18
48
1
60
0
100
AcDbSpline
70
4
71
3
72
8
73
4
40
0
40
0
40
0
40
0
40
1
40
1
40
1
40
1
41
1
10
0.346265877365255
20
-10.2376995361025
30
-3E-16
41
1
10
0.146378815819986
20
-9.91692361783407
30
-3E-16
41
1
10
-0.0488750042017045
20
-9.59243726960557
30
-3E-16
41
1
10
-0.238765877365267
20
-9.26365612288771
30
-3E-16
0
SPLINE
5
114
100
AcDbEntity
8
1
62
256
6
ByLayer
370
18
48
1
60
0
100
AcDbSpline
70
4
71
3
72
10
73
6
40
0
40
0
40
0
40
0
40
0.5
40
0.5
40
1
40
1
40
1
40
1
41
1
10
-0.238765877365267
20
-9.26365612288771
30
-3E-16
41
1
10
-0.255160738537256
20
-9.23526970722378
30
-3E-16
41
1
10
-0.269073005789778
20
-9.20724163953605
30
-3E-16
41
1
10
-0.290811660751501
20
-9.1520234699874
30
-3E-16
41
1
10
-0.298765877368254
20
-9.12485020028763
30
-3E-16
41
1
10
-0.298765877368794
20
-9.10320707422693
30
-3E-16
0
SPLINE
5
115
100
AcDbEntity
8
1
62
256
6
ByLayer
370
18
48
1
60
0
100
AcDbSpline
70
4
71
3
72
12
73
8
40
0
40
0
40
0
40
0
40
0.499999999999992
40
0.499999999999992
40
0.749999999999996
40
0.749999999999996
40
1
40
1
40
1
40
1
41
1
10
-0.298765877367231
20
-8.98591212938356
30
-3E-16
41
1
10
-0.29876587736743
20
-8.97115451394035
30
-3E-16
41
1
10
-0.294684730818176
20
-8.958664484785
30
-3E-16
41
1
10
-0.277955842647742
20
-8.95512636098024
30
-3E-16
41
1
10
-0.270723929856899
20
-8.95663772892459
30
-3E-16
41
1
10
-0.255166601762966
20
-8.96401621027564
30
-3E-16
41
1
10
-0.246889132891425
20
-8.969728647669
30
-3E-16
41
1
10
-0.238765877365267
20
-8.9764063561214
30
-3E-16
0
SPLINE
5
116
100
AcDbEntity
8
1
62
256
6
ByLayer
370
18
48
1
60
0
100
AcDbSpline
70
4
71
3
72
8
73
4
40
0
40
0
40
0
40
0
40
1
40
1
40
1
40
1
41
1
10
-0.238765877365267
20
-8.97640635612154
30
-3E-16
41
1
10
-0.0437777403880659
20
-9.13669602400333
30
-3E-16
41
1
10
0.151233985612805
20
-9.2969474363079
30
-3E-16
41
1
10
0.346265877365283
20
-9.45716611180504
30
6E-16
0
SPLINE
5
117
100
AcDbEntity
8
1
62
256
6
ByLayer
370
18
48
1
60
0
100
AcDbSpline
70
4
71
3
72
18
73
14
40
0
40
0
40
0
40
0
40
0.250000000000004
40
0.250000000000004
40
0.500000000000009
40
0.500000000000009
40
0.625000000000007
40
0.625000000000007
40
0.750000000000004
40
0.750000000000004
40
0.875000000000002
40
0.875000000000002
40
1
40
1
40
1
40
1
41
1
10
0.346265877365283
20
-9.26169711960415
30
5E-16
41
1
10
0.36074410154859
20
-9.28850819523481
30
5E-16
41
1
10
0.373425591342283
20
-9.31507905784909
30
5E-16
41
1
10
0.394745483661666
20
-9.36765761206652
30
5E-16
41
1
10
0.40343742007741
20
-9.39372048328462
30
6E-16
41
1
10
0.410374318366166
20
-9.42944564115126
30
6E-16
41
1
10
0.411627292293673
20
-9.44058597586985
30
6E-16
41
1
10
0.410729588647115
20
-9.46042259555651
30
6E-16
41
1
10
0.408476598126896
20
-9.46923347627023
30
6E-16
41
1
10
0.398015665933855
20
-9.47969279363934
30
6E-16
41
1
10
0.389668215315879
20
-9.48087917296894
30
6E-16
41
1
10
0.369161587179463
20
-9.47401703655427
30
6E-16
41
1
10
0.357540214810541
20
-9.4664279786536
30
6E-16
41
1
10
0.346265877365255
20
-9.45716611180524
30
6E-16
0
SPLINE
5
118
100
AcDbEntity
8
1
62
256
6
ByLayer
370
18
48
1
60
0
100
AcDbSpline
70
4
71
3
72
8
73
4
40
0
40
0
40
0
40
0
40
1
40
1
40
1
40
1
41
1
10
-0.238765877365267
20
-8.12031070244171
30
5E-16
41
1
10
-0.0517828064106709
20
-8.50625896378949
30
5E-16
41
1
10
0.143627797758597
20
-8.88644772373931
30
5E-16
41
1
10
0.346265877365283
20
-9.26169711960415
30
5E-16
0
SPLINE
5
119
100
AcDbEntity
8
1
62
256
6
ByLayer
370
18
48
1
60
0
100
AcDbSpline
70
4
71
3
72
12
73
8
40
0
40
0
40
0
40
0
40
0.250000000000002
40
0.250000000000002
40
0.500000000000005
40
0.500000000000005
40
1
40
1
40
1
40
1
41
1
10
-0.29876587736527
20
-7.92039724737606
30
5E-16
41
1
10
-0.29876587736527
20
-7.93499922918988
30
5E-16
41
1
10
-0.296636044284725
20
-7.95097671258472
30
5E-16
41
1
10
-0.290043116085201
20
-7.98367389905189
30
5E-16
41
1
10
-0.285572673699733
20
-8.00033506283739
30
5E-16
41
1
10
-0.269595216777304
20
-8.05099403727522
30
5E-16
41
1
10
-0.255476559907407
20
-8.08581849499134
30
5E-16
41
1
10
-0.238765877365267
20
-8.12031070244171
30
5E-16
0
SPLINE
5
11A
100
AcDbEntity
8
1
62
256
6
ByLayer
370
18
48
1
60
0
100
AcDbSpline
70
4
71
3
72
14
73
10
40
0
40
0
40
0
40
0
40
0.25
40
0.25
40
0.5
40
0.5
40
0.75
40
0.75
40
1
40
1
40
1
40
1
41
1
10
-0.238765877365211
20
-7.73477536384456
30
5E-16
41
1
10
-0.247170772227918
20
-7.72754123752466
30
5E-16
41
1
10
-0.255943448596838
20
-7.72157266562942
30
5E-16
41
1
10
-0.272418880517989
20
-7.71568074633433
30
5E-16
41
1
10
-0.279915651669001
20
-7.71617230233636
30
5E-16
41
1
10
-0.29056870504769
20
-7.72350483222561
30
5E-16
41
1
10
-0.293926879056102
20
-7.72990996073682
30
5E-16
41
1
10
-0.298019230993191
20
-7.7450004430851
30
5E-16
41
1
10
-0.298765877368254
20
-7.75350621136113
30
5E-16
41
1
10
-0.298765877368112
20
-7.76255777930564
30
5E-16
0
SPLINE
5
11B
100
AcDbEntity
8
1
62
256
6
ByLayer
370
18
48
1
60
0
100
AcDbSpline
70
4
71
3
72
8
73
4
40
0
40
0
40
0
40
0
40
1
40
1
40
1
40
1
41
1
10
0.346265877365283
20
-8.23677419397325
30
5E-16
41
1
10
0.151055373346111
20
-8.0697523478901
30
5E-16
41
1
10
-0.0439681439673052
20
-7.90243854503163
30
5E-16
41
1
10
-0.238765877365267
20
-7.73477536384505
30
5E-16
0
SPLINE
5
11C
100
AcDbEntity
8
1
62
256
6
ByLayer
370
18
48
1
60
0
100
AcDbSpline
70
4
71
3
72
18
73
14
40
0
40
0
40
0
40
0
40
0.124999999999997
40
0.124999999999997
40
0.249999999999995
40
0.249999999999995
40
0.374999999999992
40
0.374999999999992
40
0.49999999999999
40
0.49999999999999
40
0.749999999999995
40
0.749999999999995
40
1
40
1
40
1
40
1
41
1
10
0.34626587736517
20
-8.23677419397387
30
5E-16
41
1
10
0.358691683733525
20
-8.24740569727925
30
5E-16
41
1
10
0.372077778752981
20
-8.25552450950508
30
5E-16
41
1
10
0.394203734713784
20
-8.25741931386028
30
5E-16
41
1
10
0.401963988387735
20
-8.25075233882532
30
5E-16
41
1
10
0.410236944799863
20
-8.23099839149793
30
5E-16
41
1
10
0.411452255695252
20
-8.21826574997044
30
5E-16
41
1
10
0.411037792204382
20
-8.19119295059315
30
5E-16
41
1
10
0.409353916437766
20
-8.17673259631403
30
5E-16
41
1
10
0.401774544653648
20
-8.1325930452868
30
5E-16
41
1
10
0.39324761336394
20
-8.10141558923263
30
5E-16
41
1
10
0.372568261573804
20
-8.03917384729098
30
5E-16
41
1
10
0.36031728824122
20
-8.0078611141135
30
5E-16
41
1
10
0.346265877365283
20
-7.97637607432438
30
5E-16
0
SPLINE
5
11D
100
AcDbEntity
8
1
62
256
6
ByLayer
370
18
48
1
60
0
100
AcDbSpline
70
4
71
3
72
8
73
4
40
0
40
0
40
0
40
0
40
1
40
1
40
1
40
1
41
1
10
0.346265877365283
20
-7.97637607432438
30
5E-16
41
1
10
0.137779010691531
20
-7.50921890763982
30
5E-16
41
1
10
-0.057979829471833
20
-7.03508774708888
30
4E-16
41
1
10
-0.238765877365267
20
-6.55275263116687
30
4E-16
0
SPLINE
5
11E
100
AcDbEntity
8
1
62
256
6
ByLayer
370
18
48
1
60
0
100
AcDbSpline
70
4
71
3
72
10
73
6
40
0
40
0
40
0
40
0
40
0.5
40
0.5
40
1
40
1
40
1
40
1
41
1
10
-0.238765877365609
20
-6.55275263116684
30
4E-16
41
1
10
-0.2559210885276
20
-6.50698272325133
30
4E-16
41
1
10
-0.269820641095748
20
-6.46145465019507
30
4E-16
41
1
10
-0.290972510468265
20
-6.37085531846907
30
4E-16
41
1
10
-0.29876587736527
20
-6.32495480486338
30
4E-16
41
1
10
-0.29876587736527
20
-6.28267507326152
30
4E-16
0
SPLINE
5
11F
100
AcDbEntity
8
1
62
256
6
ByLayer
370
18
48
1
60
0
100
AcDbSpline
70
4
71
3
72
14
73
10
40
0
40
0
40
0
40
0
40
0.25
40
0.25
40
0.5
40
0.5
40
0.75
40
0.75
40
1
40
1
40
1
40
1
41
1
10
-0.29876587736527
20
-6.05334533602311
30
4E-16
41
1
10
-0.29876587736527
20
-6.0417656774494
30
4E-16
41
1
10
-0.298195553195256
20
-6.03050236284682
30
4E-16
41
1
10
-0.295048940664458
20
-6.00910843168933
30
4E-16
41
1
10
-0.292482941779042
20
-5.99886991261866
30
4E-16
41
1
10
-0.283377367990738
20
-5.98304786284118
30
4E-16
41
1
10
-0.276136026177454
20
-5.97759556301199
30
4E-16
41
1
10
-0.257833409594184
20
-5.97995943999769
30
4E-16
41
1
10
-0.247701672079217
20
-5.98720529852724
30
4E-16
41
1
10
-0.238765877365068
20
-5.99605109952043
30
4E-16
0
SPLINE
5
120
100
AcDbEntity
8
1
62
256
6
ByLayer
370
18
48
1
60
0
100
AcDbSpline
70
4
71
3
72
8
73
4
40
0
40
0
40
0
40
0
40
1
40
1
40
1
40
1
41
1
10
-0.238765877365267
20
-5.99605109952125
30
4E-16
41
1
10
-0.04490962252234
20
-6.18795499911391
30
4E-16
41
1
10
0.150189255628163
20
-6.37816129616613
30
4E-16
41
1
10
0.346265877365255
20
-6.5670318545545
30
4E-16
0
SPLINE
5
121
100
AcDbEntity
8
1
62
256
6
ByLayer
370
18
48
1
60
0
100
AcDbSpline
70
4
71
3
72
22
73
18
40
0
40
0
40
0
40
0
40
0.249999999999998
40
0.249999999999998
40
0.499999999999996
40
0.499999999999996
40
0.624999999999997
40
0.624999999999997
40
0.749999999999998
40
0.749999999999998
40
0.812499999999998
40
0.812499999999998
40
0.874999999999999
40
0.874999999999999
40
0.937499999999999
40
0.937499999999999
40
1
40
1
40
1
40
1
41
1
10
0.346265877365312
20
-6.19202043139589
30
4E-16
41
1
10
0.359694721599539
20
-6.23234668894958
30
4E-16
41
1
10
0.371400700732409
20
-6.27251318197017
30
4E-16
41
1
10
0.391320166637456
20
-6.35250930546951
30
4E-16
41
1
10
0.399625062006464
20
-6.39252575775004
30
4E-16
41
1
10
0.40789238738904
20
-6.45157854969378
30
4E-16
41
1
10
0.409927009288253
20
-6.47098051320015
30
4E-16
41
1
10
0.411694753036073
20
-6.50890944997005
30
4E-16
41
1
10
0.411504289309335
20
-6.5272953326367
30
4E-16
41
1
10
0.407621697222936
20
-6.55253041963806
30
4E-16
41
1
10
0.405695991107422
20
-6.56058612593782
30
4E-16
41
1
10
0.399687802589426
20
-6.57450461502427
30
4E-16
41
1
10
0.395574529299864
20
-6.58038296744729
30
4E-16
41
1
10
0.384064683019062
20
-6.58663840611089
30
4E-16
41
1
10
0.376654927448897
20
-6.58653959246658
30
4E-16
41
1
10
0.361220816332946
20
-6.57997315871378
30
4E-16
41
1
10
0.353510030251044
20
-6.57400977568025
30
4E-16
41
1
10
0.346265877364658
20
-6.56703185455626
30
4E-16
0
SPLINE
5
122
100
AcDbEntity
8
1
62
256
6
ByLayer
370
18
48
1
60
0
100
AcDbSpline
70
4
71
3
72
8
73
4
40
0
40
0
40
0
40
0
40
1
40
1
40
1
40
1
41
1
10
-0.238765877365495
20
-4.10032781449721
30
3E-16
41
1
10
-0.0787804947988491
20
-4.81062005989594
30
3E-16
41
1
10
0.118190575828692
20
-5.50711984047595
30
3E-16
41
1
10
0.346265877365198
20
-6.19202043139592
30
4E-16
0
SPLINE
5
123
100
AcDbEntity
8
1
62
256
6
ByLayer
370
18
48
1
60
0
100
AcDbSpline
70
4
71
3
72
10
73
6
40
0
40
0
40
0
40
0
40
0.5
40
0.5
40
1
40
1
40
1
40
1
41
1
10
-0.29876587736527
20
-3.61750184466033
30
2E-16
41
1
10
-0.29876587736527
20
-3.6967376257829
30
2E-16
41
1
10
-0.291684810326132
20
-3.7774696821466
30
2E-16
41
1
10
-0.270945236014796
20
-3.93905819892351
30
3E-16
41
1
10
-0.256917445994304
20
-4.01973971181087
30
3E-16
41
1
10
-0.23876587736595
20
-4.10032781449712
30
3E-16
0
SPLINE
5
124
100
AcDbEntity
8
1
62
256
6
ByLayer
370
18
48
1
60
0
100
AcDbSpline
70
4
71
3
72
18
73
14
40
0
40
0
40
0
40
0
40
0.125000000000003
40
0.125000000000003
40
0.187500000000004
40
0.187500000000004
40
0.250000000000005
40
0.250000000000005
40
0.375000000000007
40
0.375000000000007
40
0.50000000000001
40
0.50000000000001
40
1
40
1
40
1
40
1
41
1
10
-0.238765877365267
20
-2.99224124144348
30
2E-16
41
1
10
-0.243824545820189
20
-2.98342651880338
30
2E-16
41
1
10
-0.24966222871646
20
-2.97458631789433
30
2E-16
41
1
10
-0.260374486104183
20
-2.96728995804017
30
2E-16
41
1
10
-0.264392604983072
20
-2.96620266576429
30
2E-16
41
1
10
-0.271390295588674
20
-2.96824237304915
30
2E-16
41
1
10
-0.274303108032456
20
-2.97105955719212
30
2E-16
41
1
10
-0.281417460106269
20
-2.98134678131205
30
2E-16
41
1
10
-0.284303861103751
20
-2.99028157300216
30
2E-16
41
1
10
-0.288996510637077
20
-3.00841361635872
30
2E-16
41
1
10
-0.290697157755034
20
-3.01785052492187
30
2E-16
41
1
10
-0.297668380718392
20
-3.0658986051277
30
2E-16
41
1
10
-0.29876587736527
20
-3.10648672980179
30
2E-16
41
1
10
-0.29876587736527
20
-3.14701068272936
30
2E-16
0
SPLINE
5
125
100
AcDbEntity
8
1
62
256
6
ByLayer
370
18
48
1
60
0
100
AcDbSpline
70
4
71
3
72
8
73
4
40
0
40
0
40
0
40
0
40
1
40
1
40
1
40
1
41
1
10
0.346265877365255
20
-3.90926663646314
30
2E-16
41
1
10
0.139817994926091
20
-3.61332023908474
30
2E-16
41
1
10
-0.0569172843820809
20
-3.30911215795345
30
2E-16
41
1
10
-0.238765877365324
20
-2.99224124144354
30
2E-16
0
SPLINE
5
126
100
AcDbEntity
8
1
62
256
6
ByLayer
370
18
48
1
60
0
100
AcDbSpline
70
4
71
3
72
22
73
18
40
0
40
0
40
0
40
0
40
0.0312500000000019
40
0.0312500000000019
40
0.0625000000000037
40
0.0625000000000037
40
0.0937500000000056
40
0.0937500000000056
40
0.125000000000007
40
0.125000000000007
40
0.187500000000007
40
0.187500000000007
40
0.250000000000007
40
0.250000000000007
40
0.500000000000005
40
0.500000000000005
40
1
40
1
40
1
40
1
41
1
10
0.346265877365283
20
-3.90926663646309
30
2E-16
41
1
10
0.351258634546497
20
-3.9164238350902
30
2E-16
41
1
10
0.356807052921226
20
-3.92319039229813
30
2E-16
41
1
10
0.369368591768904
20
-3.93238654343207
30
2E-16
41
1
10
0.376440704010264
20
-3.93395572341166
30
2E-16
41
1
10
0.387694492009189
20
-3.92808722293185
30
2E-16
41
1
10
0.391634481727863
20
-3.92192799424799
30
2E-16
41
1
10
0.397771617829989
20
-3.90835722684273
30
2E-16
41
1
10
0.4000097843454
20
-3.90071095849569
30
2E-16
41
1
10
0.405418838999879
20
-3.87730797526714
30
2E-16
41
1
10
0.407421023456692
20
-3.86061897139058
30
2E-16
41
1
10
0.410170991326083
20
-3.82666151254733
30
2E-16
41
1
10
0.410837962789771
20
-3.80949187966689
30
2E-16
41
1
10
0.412231672907836
20
-3.72309575072748
30
2E-16
41
1
10
0.407722828839041
20
-3.65235987146849
30
2E-16
41
1
10
0.389309019040979
20
-3.43847911499898
30
2E-16
41
1
10
0.369678044915816
20
-3.29540688218401
30
2E-16
41
1
10
0.346265877365283
20
-3.15192937208218
30
2E-16
0
SPLINE
5
127
100
AcDbEntity
8
1
62
256
6
ByLayer
370
18
48
1
60
0
100
AcDbSpline
70
4
71
3
72
22
73
18
40
0
40
0
40
0
40
0
40
0.499999999999999
40
0.499999999999999
40
0.749999999999998
40
0.749999999999998
40
0.812499999999999
40
0.812499999999999
40
0.874999999999999
40
0.874999999999999
40
0.90625
40
0.90625
40
0.9375
40
0.9375
40
0.96875
40
0.96875
40
1
40
1
40
1
40
1
41
1
10
0.346265877365283
20
3.15192937208218
30
-2E-16
41
1
10
0.369683290000012
20
3.29543902579573
30
-2E-16
41
1
10
0.389372046661492
20
3.43911078677454
30
-2E-16
41
1
10
0.407719755672048
20
3.65237449714638
30
-2E-16
41
1
10
0.412256153242367
20
3.72357613748349
30
-3E-16
41
1
10
0.410821519357455
20
3.81000258790104
30
-3E-16
41
1
10
0.410143695474971
20
3.82714940375024
30
-3E-16
41
1
10
0.407380518831047
20
3.86096454012139
30
-3E-16
41
1
10
0.40537634322672
20
3.87753102275747
30
-3E-16
41
1
10
0.399994560903707
20
3.90075703276858
30
-3E-16
41
1
10
0.397794455726256
20
3.9083002275741
30
-3E-16
41
1
10
0.391632592666355
20
3.9219386481299
30
-3E-16
41
1
10
0.387698885837011
20
3.92805499067958
30
-3E-16
41
1
10
0.376552539352502
20
3.9339270353112
30
-3E-16
41
1
10
0.369377597614573
20
3.9323823351703
30
-3E-16
41
1
10
0.356868037575651
20
3.92324577951311
30
-3E-16
41
1
10
0.351290151212396
20
3.91646901478191
30
-3E-16
41
1
10
0.346265877359087
20
3.90926663649071
30
-3E-16
0
SPLINE
5
128
100
AcDbEntity
8
1
62
256
6
ByLayer
370
18
48
1
60
0
100
AcDbSpline
70
4
71
3
72
8
73
4
40
0
40
0
40
0
40
0
40
1
40
1
40
1
40
1
41
1
10
-0.238765877365267
20
2.99224124144362
30
-2E-16
41
1
10
-0.0569172843800914
20
3.30911215795692
30
-2E-16
41
1
10
0.139817994930354
20
3.61332023909134
30
-2E-16
41
1
10
0.346265877371906
20
3.90926663647269
30
-3E-16
0
SPLINE
5
129
100
AcDbEntity
8
1
62
256
6
ByLayer
370
18
48
1
60
0
100
AcDbSpline
70
4
71
3
72
18
73
14
40
0
40
0
40
0
40
0
40
0.499999999999977
40
0.499999999999977
40
0.624999999999972
40
0.624999999999972
40
0.749999999999966
40
0.749999999999966
40
0.812499999999971
40
0.812499999999971
40
0.874999999999976
40
0.874999999999976
40
1
40
1
40
1
40
1
41
1
10
-0.29876587736527
20
3.14701068272939
30
-2E-16
41
1
10
-0.29876587736527
20
3.10684351750092
30
-2E-16
41
1
10
-0.297693563498086
20
3.06702306024661
30
-2E-16
41
1
10
-0.290936352384449
20
3.01928247220837
30
-2E-16
41
1
10
-0.289286671766405
20
3.00984686329909
30
-2E-16
41
1
10
-0.284683467203308
20
2.99147832862792
30
-2E-16
41
1
10
-0.28182406725648
20
2.98235542365145
30
-2E-16
41
1
10
-0.274874258019054
20
2.97170822214622
30
-2E-16
41
1
10
-0.271951847295213
20
2.96863969753443
30
-2E-16
41
1
10
-0.26498012814514
20
2.96617572376556
30
-2E-16
41
1
10
-0.260880685631634
20
2.96705885266104
30
-2E-16
41
1
10
-0.249848291962962
20
2.97424976626615
30
-2E-16
41
1
10
-0.243948740956057
20
2.9832101089485
30
-2E-16
41
1
10
-0.238765877363221
20
2.99224124144169
30
-2E-16
0
SPLINE
5
12A
100
AcDbEntity
8
1
62
256
6
ByLayer
370
18
48
1
60
0
100
AcDbSpline
70
4
71
3
72
10
73
6
40
0
40
0
40
0
40
0
40
0.499999999999999
40
0.499999999999999
40
1
40
1
40
1
40
1
41
1
10
-0.238765877365466
20
4.10032781449715
30
-2E-16
41
1
10
-0.256922327752221
20
4.01971803811139
30
-2E-16
41
1
10
-0.270994568040749
20
3.93874962042986
30
-2E-16
41
1
10
-0.291713490067167
20
3.77717016080703
30
-2E-16
41
1
10
-0.29876587736527
20
3.69678683979274
30
-2E-16
41
1
10
-0.29876587736527
20
3.61750184466033
30
-2E-16
0
SPLINE
5
12B
100
AcDbEntity
8
1
62
256
6
ByLayer
370
18
48
1
60
0
100
AcDbSpline
70
4
71
3
72
8
73
4
40
0
40
0
40
0
40
0
40
1
40
1
40
1
40
1
41
1
10
0.346265877365198
20
6.19202043139592
30
-4E-16
41
1
10
0.118190575828692
20
5.50711984047595
30
-3E-16
41
1
10
-0.0787804947988491
20
4.81062005989594
30
-3E-16
41
1
10
-0.238765877365495
20
4.10032781449723
30
-2E-16
0
SPLINE
5
12C
100
AcDbEntity
8
1
62
256
6
ByLayer
370
18
48
1
60
0
100
AcDbSpline
70
4
71
3
72
22
73
18
40
0
40
0
40
0
40
0
40
0.0624999999999982
40
0.0624999999999982
40
0.124999999999996
40
0.124999999999996
40
0.187499999999995
40
0.187499999999995
40
0.249999999999993
40
0.249999999999993
40
0.374999999999995
40
0.374999999999995
40
0.499999999999998
40
0.499999999999998
40
0.749999999999999
40
0.749999999999999
40
1
40
1
40
1
40
1
41
1
10
0.3462658773648
20
6.56703185455581
30
-4E-16
41
1
10
0.353562145528429
20
6.57405997565473
30
-4E-16
41
1
10
0.361315921553114
20
6.58004495640412
30
-4E-16
41
1
10
0.376825998894503
20
6.58658049741987
30
-4E-16
41
1
10
0.384290041221675
20
6.58661408802388
30
-4E-16
41
1
10
0.39581383005148
20
6.58015072080684
30
-4E-16
41
1
10
0.399922526452343
20
6.57411661885689
30
-4E-16
41
1
10
0.405851638664871
20
6.56005924980764
30
-4E-16
41
1
10
0.407728601652053
20
6.55205388122954
30
-4E-16
41
1
10
0.411569149611154
20
6.52641278899097
30
-4E-16
41
1
10
0.411686626332482
20
6.50805178946985
30
-4E-16
41
1
10
0.409859631785082
20
6.47024756600769
30
-4E-16
41
1
10
0.407780746994007
20
6.45062844309592
30
-4E-16
41
1
10
0.399464333037883
20
6.39169390252894
30
-4E-16
41
1
10
0.391219725938413
20
6.3520729509477
30
-4E-16
41
1
10
0.371360834673368
20
6.27238630173753
30
-4E-16
41
1
10
0.359683840865813
20
6.2323140145611
30
-4E-16
41
1
10
0.346265877365397
20
6.19202043139592
30
-4E-16
0
SPLINE
5
12D
100
AcDbEntity
8
1
62
256
6
ByLayer
370
18
48
1
60
0
100
AcDbSpline
70
4
71
3
72
8
73
4
40
0
40
0
40
0
40
0
40
1
40
1
40
1
40
1
41
1
10
0.346265877365255
20
6.5670318545545
30
-4E-16
41
1
10
0.150189255628163
20
6.37816129616613
30
-4E-16
41
1
10
-0.04490962252234
20
6.18795499911391
30
-4E-16
41
1
10
-0.238765877365267
20
5.99605109952125
30
-4E-16
0
SPLINE
5
12E
100
AcDbEntity
8
1
62
256
6
ByLayer
370
18
48
1
60
0
100
AcDbSpline
70
4
71
3
72
14
73
10
40
0
40
0
40
0
40
0
40
0.25
40
0.25
40
0.5
40
0.5
40
0.75
40
0.75
40
1
40
1
40
1
40
1
41
1
10
-0.238765877364841
20
5.99605109952006
30
-4E-16
41
1
10
-0.24771568703315
20
5.98719142471933
30
-4E-16
41
1
10
-0.257807714221627
20
5.97996236173472
30
-4E-16
41
1
10
-0.27616362733923
20
5.9775923951737
30
-3E-16
41
1
10
-0.283363816694077
20
5.98299187243248
30
-3E-16
41
1
10
-0.292568736842469
20
5.99905169088336
30
-3E-16
41
1
10
-0.295051065364021
20
6.00911855673039
30
-3E-16
41
1
10
-0.298196064101774
20
6.0305101610835
30
-4E-16
41
1
10
-0.29876587736527
20
6.04177025088711
30
-4E-16
41
1
10
-0.29876587736527
20
6.05334533602311
30
-4E-16
0
SPLINE
5
12F
100
AcDbEntity
8
1
62
256
6
ByLayer
370
18
48
1
60
0
100
AcDbSpline
70
4
71
3
72
10
73
6
40
0
40
0
40
0
40
0
40
0.5
40
0.5
40
1
40
1
40
1
40
1
41
1
10
-0.29876587736527
20
6.28267507326152
30
-4E-16
41
1
10
-0.29876587736527
20
6.32487581997506
30
-4E-16
41
1
10
-0.291019831783956
20
6.37062515545131
30
-4E-16
41
1
10
-0.269831888505735
20
6.46143387128367
30
-4E-16
41
1
10
-0.255913110842243
20
6.5070040076246
30
-4E-16
41
1
10
-0.238765877365466
20
6.55275263116687
30
-4E-16
0
SPLINE
5
130
100
AcDbEntity
8
1
62
256
6
ByLayer
370
18
48
1
60
0
100
AcDbSpline
70
4
71
3
72
8
73
4
40
0
40
0
40
0
40
0
40
1
40
1
40
1
40
1
41
1
10
-0.238765877365267
20
6.55275263116687
30
-4E-16
41
1
10
-0.057979829471833
20
7.03508774708888
30
-4E-16
41
1
10
0.137779010691531
20
7.50921890763982
30
-5E-16
41
1
10
0.346265877365283
20
7.97637607432438
30
-5E-16
0
SPLINE
5
131
100
AcDbEntity
8
1
62
256
6
ByLayer
370
18
48
1
60
0
100
AcDbSpline
70
4
71
3
72
18
73
14
40
0
40
0
40
0
40
0
40
0.249999999999997
40
0.249999999999997
40
0.499999999999993
40
0.499999999999993
40
0.624999999999995
40
0.624999999999995
40
0.749999999999997
40
0.749999999999997
40
0.874999999999998
40
0.874999999999998
40
1
40
1
40
1
40
1
41
1
10
0.346265877365283
20
7.97637607432438
30
-5E-16
41
1
10
0.3603014702324
20
8.00782567065215
30
-5E-16
41
1
10
0.372500663572623
20
8.03901587785521
30
-5E-16
41
1
10
0.393070247940955
20
8.10083679461096
30
-5E-16
41
1
10
0.401617856164933
20
8.1319270608881
30
-5E-16
41
1
10
0.409287917840999
20
8.17622845234908
30
-5E-16
41
1
10
0.410969484071529
20
8.19049550663925
30
-5E-16
41
1
10
0.411493922021009
20
8.21743172475092
30
-5E-16
41
1
10
0.410358726059968
20
8.23040911360553
30
-5E-16
41
1
10
0.402188556450369
20
8.25050232353354
30
-5E-16
41
1
10
0.394561331952929
20
8.25733198904177
30
-5E-16
41
1
10
0.372294205567016
20
8.25565799694658
30
-5E-16
41
1
10
0.358857689503651
20
8.2475477315933
30
-5E-16
41
1
10
0.346265877365283
20
8.23677419397322
30
-5E-16
0
SPLINE
5
132
100
AcDbEntity
8
1
62
256
6
ByLayer
370
18
48
1
60
0
100
AcDbSpline
70
4
71
3
72
8
73
4
40
0
40
0
40
0
40
0
40
1
40
1
40
1
40
1
41
1
10
-0.23876587736288
20
7.73477536384712
30
-5E-16
41
1
10
-0.0439681439657136
20
7.90243854503299
30
-5E-16
41
1
10
0.151055373346907
20
8.06975234789078
30
-5E-16
41
1
10
0.346265877365283
20
8.23677419397325
30
-5E-16
0
SPLINE
5
133
100
AcDbEntity
8
1
62
256
6
ByLayer
370
18
48
1
60
0
100
AcDbSpline
70
4
71
3
72
14
73
10
40
0
40
0
40
0
40
0
40
0.25
40
0.25
40
0.5
40
0.5
40
0.75
40
0.75
40
1
40
1
40
1
40
1
41
1
10
-0.29876587736527
20
7.76255777930777
30
-5E-16
41
1
10
-0.29876587736527
20
7.75357080636877
30
-5E-16
41
1
10
-0.298027907453957
20
7.74513052562833
30
-5E-16
41
1
10
-0.29401741599645
20
7.73014811245571
30
-5E-16
41
1
10
-0.290631225471486
20
7.72358848127953
30
-5E-16
41
1
10
-0.280008599449985
20
7.71619625186341
30
-5E-16
41
1
10
-0.272642619401609
20
7.71563653301888
30
-5E-16
41
1
10
-0.256026867813944
20
7.72150768866018
30
-5E-16
41
1
10
-0.247221854151349
20
7.72749727111091
30
-5E-16
41
1
10
-0.238765877362852
20
7.73477536384701
30
-5E-16
0
SPLINE
5
134
100
AcDbEntity
8
1
62
256
6
ByLayer
370
18
48
1
60
0
100
AcDbSpline
70
4
71
3
72
10
73
6
40
0
40
0
40
0
40
0
40
0.5
40
0.5
40
1
40
1
40
1
40
1
41
1
10
-0.238765877365324
20
8.12031070244171
30
-5E-16
41
1
10
-0.255513171948564
20
8.08574292476166
30
-5E-16
41
1
10
-0.269420304315474
20
8.05148209063344
30
-5E-16
41
1
10
-0.290867999618882
20
7.98361131936409
30
-5E-16
41
1
10
-0.29876587736527
20
7.94973299450123
30
-5E-16
41
1
10
-0.29876587736527
20
7.92039724737606
30
-5E-16
0
SPLINE
5
135
100
AcDbEntity
8
1
62
256
6
ByLayer
370
18
48
1
60
0
100
AcDbSpline
70
4
71
3
72
8
73
4
40
0
40
0
40
0
40
0
40
1
40
1
40
1
40
1
41
1
10
0.346265877365283
20
9.26169711960415
30
-6E-16
41
1
10
0.143627797758597
20
8.88644772373931
30
-6E-16
41
1
10
-0.0517828064106709
20
8.50625896378949
30
-5E-16
41
1
10
-0.238765877365267
20
8.12031070244171
30
-5E-16
0
SPLINE
5
136
100
AcDbEntity
8
1
62
256
6
ByLayer
370
18
48
1
60
0
100
AcDbSpline
70
4
71
3
72
18
73
14
40
0
40
0
40
0
40
0
40
0.125
40
0.125
40
0.249999999999999
40
0.249999999999999
40
0.374999999999999
40
0.374999999999999
40
0.499999999999998
40
0.499999999999998
40
0.749999999999999
40
0.749999999999999
40
1
40
1
40
1
40
1
41
1
10
0.346265877365255
20
9.45716611180532
30
-6E-16
41
1
10
0.357483487422741
20
9.46638137711147
30
-6E-16
41
1
10
0.368971960067768
20
9.47389030310259
30
-6E-16
41
1
10
0.389325641269067
20
9.48082617972608
30
-6E-16
41
1
10
0.3978533254556
20
9.47973761653532
30
-6E-16
41
1
10
0.408358531891878
20
9.46946590913791
30
-6E-16
41
1
10
0.410667657592143
20
9.46087043727493
30
-6E-16
41
1
10
0.411658406392888
20
9.44078977547201
30
-6E-16
41
1
10
0.410391142447111
20
9.42957562770613
30
-6E-16
41
1
10
0.403494465804442
20
9.39392843279191
30
-6E-16
41
1
10
0.394896538152608
20
9.36808837084664
30
-6E-16
41
1
10
0.37365062704319
20
9.31557682297225
30
-6E-16
41
1
10
0.360775278952872
20
9.28856593019827
30
-6E-16
41
1
10
0.346265877365283
20
9.26169711960415
30
-6E-16
0
SPLINE
5
137
100
AcDbEntity
8
1
62
256
6
ByLayer
370
18
48
1
60
0
100
AcDbSpline
70
4
71
3
72
8
73
4
40
0
40
0
40
0
40
0
40
1
40
1
40
1
40
1
41
1
10
0.346265877365283
20
9.45716611180504
30
-6E-16
41
1
10
0.151233985612805
20
9.2969474363079
30
3E-16
41
1
10
-0.0437777403880659
20
9.13669602400333
30
3E-16
41
1
10
-0.238765877365267
20
8.97640635612154
30
4E-16
0
SPLINE
5
138
100
AcDbEntity
8
1
62
256
6
ByLayer
370
18
48
1
60
0
100
AcDbSpline
70
4
71
3
72
14
73
10
40
0
40
0
40
0
40
0
40
0.25
40
0.25
40
0.5
40
0.5
40
0.75
40
0.75
40
1
40
1
40
1
40
1
41
1
10
-0.238765877365267
20
8.97640635612132
30
4E-16
41
1
10
-0.246879949564573
20
8.96973619680725
30
4E-16
41
1
10
-0.255190071060184
20
8.96401340310842
30
4E-16
41
1
10
-0.270590725411125
20
8.95669264005551
30
4E-16
41
1
10
-0.277838484819228
20
8.95513947561855
30
4E-16
41
1
10
-0.289003972951235
20
8.95742582864881
30
4E-16
41
1
10
-0.293005550910493
20
8.96120921701967
30
4E-16
41
1
10
-0.297816547704684
20
8.97178189454613
30
4E-16
41
1
10
-0.29876587736527
20
8.97846411788868
30
4E-16
41
1
10
-0.29876587736527
20
8.98591212938516
30
4E-16
0
SPLINE
5
139
100
AcDbEntity
8
1
62
256
6
ByLayer
370
18
48
1
60
0
100
AcDbSpline
70
4
71
3
72
10
73
6
40
0
40
0
40
0
40
0
40
0.5
40
0.5
40
1
40
1
40
1
40
1
41
1
10
-0.29876587736527
20
9.10320707422954
30
3E-16
41
1
10
-0.29876587736527
20
9.12477695887472
30
3E-16
41
1
10
-0.290841645265459
20
9.15187352107844
30
3E-16
41
1
10
-0.269352114415625
20
9.20660541190753
30
3E-16
41
1
10
-0.255184714648578
20
9.23522819446836
30
3E-16
41
1
10
-0.238765877365267
20
9.26365612288771
30
3E-16
0
SPLINE
5
13A
100
AcDbEntity
8
1
62
256
6
ByLayer
370
18
48
1
60
0
100
AcDbSpline
70
4
71
3
72
8
73
4
40
0
40
0
40
0
40
0
40
1
40
1
40
1
40
1
41
1
10
-0.238765877365267
20
9.26365612288771
30
3E-16
41
1
10
-0.0488750042017045
20
9.59243726960557
30
3E-16
41
1
10
0.146378815819986
20
9.91692361783407
30
3E-16
41
1
10
0.346265877365255
20
10.2376995361025
30
2E-16
0
SPLINE
5
13B
100
AcDbEntity
8
1
62
256
6
ByLayer
370
18
48
1
60
0
100
AcDbSpline
70
4
71
3
72
18
73
14
40
0
40
0
40
0
40
0
40
0.250000000000002
40
0.250000000000002
40
0.500000000000004
40
0.500000000000004
40
0.625000000000003
40
0.625000000000003
40
0.750000000000002
40
0.750000000000002
40
0.875000000000001
40
0.875000000000001
40
1
40
1
40
1
40
1
41
1
10
0.346265877365283
20
10.2376995361025
30
2E-16
41
1
10
0.361109182002906
20
10.2615198606321
30
2E-16
41
1
10
0.374147060837856
20
10.2849361639119
30
2E-16
41
1
10
0.395974100478355
20
10.3307894103888
30
2E-16
41
1
10
0.404868367104825
20
10.3534359572299
30
2E-16
41
1
10
0.411063719824455
20
10.3826499863676
30
2E-16
41
1
10
0.411905858903367
20
10.3914914371728
30
2E-16
41
1
10
0.409606233886564
20
10.4058239515653
30
2E-16
41
1
10
0.406317315069344
20
10.4110492288325
30
2E-16
41
1
10
0.394750585684306
20
10.4146981482546
30
2E-16
41
1
10
0.386332248552577
20
10.4129936343946
30
2E-16
41
1
10
0.367169326344083
20
10.4036411677743
30
2E-16
41
1
10
0.356754224351164
20
10.3963798478721
30
2E-16
41
1
10
0.346265877365283
20
10.3878069201369
30
2E-16
0
SPLINE
5
13C
100
AcDbEntity
8
1
62
256
6
ByLayer
370
18
48
1
60
0
100
AcDbSpline
70
4
71
3
72
8
73
4
40
0
40
0
40
0
40
0
40
1
40
1
40
1
40
1
41
1
10
-0.238765877365267
20
9.90959092048172
30
3E-16
41
1
10
-0.0437588351939269
20
10.0690020322836
30
3E-16
41
1
10
0.151251912810522
20
10.2284070997711
30
3E-16
41
1
10
0.346265877365283
20
10.3878069201369
30
2E-16
0
SPLINE
5
13D
100
AcDbEntity
8
1
62
256
6
ByLayer
370
18
48
1
60
0
100
AcDbSpline
70
4
71
3
72
12
73
8
40
0
40
0
40
0
40
0
40
0.5
40
0.5
40
0.75
40
0.75
40
1
40
1
40
1
40
1
41
1
10
-0.298765877365668
20
9.905096179087
30
3E-16
41
1
10
-0.298765877365696
20
9.89302237710294
30
3E-16
41
1
10
-0.293659930014428
20
9.88474656098768
30
3E-16
41
1
10
-0.276715764489381
20
9.8862036078726
30
3E-16
41
1
10
-0.269686476352916
20
9.88888457953482
30
3E-16
41
1
10
-0.254596552049407
20
9.89742168816429
30
3E-16
41
1
10
-0.246764765690955
20
9.90305212235947
30
3E-16
41
1
10
-0.238765877365267
20
9.90959092048172
30
3E-16
0
SPLINE
5
13E
100
AcDbEntity
8
1
62
256
6
ByLayer
370
18
48
1
60
0
100
AcDbSpline
70
4
71
3
72
10
73
6
40
0
40
0
40
0
40
0
40
0.5
40
0.5
40
1
40
1
40
1
40
1
41
1
10
-0.238765877365267
20
10.1274974017296
30
3E-16
41
1
10
-0.254927514708413
20
10.1030532986231
30
3E-16
41
1
10
-0.268843240072698
20
10.0791263566385
30
3E-16
41
1
10
-0.290800447733773
20
10.0325789485788
30
3E-16
41
1
10
-0.298765877370641
20
10.0101438990428
30
3E-16
41
1
10
-0.298765877371494
20
9.9939514465633
30
3E-16
0
SPLINE
5
13F
100
AcDbEntity
8
1
62
256
6
ByLayer
370
18
48
1
60
0
100
AcDbSpline
70
4
71
3
72
8
73
4
40
0
40
0
40
0
40
0
40
1
40
1
40
1
40
1
41
1
10
0.346265877365255
20
10.987126560104
30
2E-16
41
1
10
0.147939893285667
20
10.7035919553972
30
2E-16
41
1
10
-0.0472289791347293
20
10.4171925353126
30
3E-16
41
1
10
-0.238765877365267
20
10.1274974017296
30
3E-16
0
SPLINE
5
140
100
AcDbEntity
8
1
62
256
6
ByLayer
370
18
48
1
60
0
100
AcDbSpline
70
4
71
3
72
18
73
14
40
0
40
0
40
0
40
0
40
0.125
40
0.125
40
0.25
40
0.25
40
0.375
40
0.375
40
0.5
40
0.5
40
0.75
40
0.75
40
1
40
1
40
1
40
1
41
1
10
0.346265877365283
20
11.1018050043142
30
2E-16
41
1
10
0.356113834679775
20
11.1099769800682
30
2E-16
41
1
10
0.365898825609378
20
11.1172383168956
30
2E-16
41
1
10
0.383817664638031
20
11.128003602263
30
2E-16
41
1
10
0.39199425053377
20
11.1314522869854
30
2E-16
41
1
10
0.404189882760051
20
11.1325910706886
30
2E-16
41
1
10
0.408263221583042
20
11.1302703267611
30
2E-16
41
1
10
0.411876461873362
20
11.1209842191347
30
2E-16
41
1
10
0.411535296638363
20
11.1142992408818
30
2E-16
41
1
10
0.406272489997804
20
11.0908511569917
30
2E-16
41
1
10
0.397384259428975
20
11.0712192232886
30
2E-16
41
1
10
0.37517476969532
20
11.0305246714499
30
2E-16
41
1
10
0.361487475456158
20
11.0088879536891
30
2E-16
41
1
10
0.346265877365255
20
10.987126560104
30
2E-16
0
SPLINE
5
141
100
AcDbEntity
8
1
62
256
6
ByLayer
370
18
48
1
60
0
100
AcDbSpline
70
4
71
3
72
8
73
4
40
0
40
0
40
0
40
0
40
1
40
1
40
1
40
1
41
1
10
0.346265877365283
20
11.1018050043141
30
2E-16
41
1
10
0.151206930735327
20
10.9399423020741
30
2E-16
41
1
10
-0.0438058665071139
20
10.7780054142356
30
2E-16
41
1
10
-0.238765877365267
20
10.6159838617232
30
3E-16
0
SPLINE
5
142
100
AcDbEntity
8
1
62
256
6
ByLayer
370
18
48
1
60
0
100
AcDbSpline
70
4
71
3
72
10
73
6
40
0
40
0
40
0
40
0
40
0.5
40
0.5
40
1
40
1
40
1
40
1
41
1
10
-0.238765877365267
20
10.6159838617232
30
3E-16
41
1
10
-0.254448373623944
20
10.6029509203527
30
3E-16
41
1
10
-0.270191403917323
20
10.5923114373637
30
3E-16
41
1
10
-0.292897985385963
20
10.5853413337404
30
3E-16
41
1
10
-0.298765877365355
20
10.5899084327266
30
3E-16
41
1
10
-0.298765877365355
20
10.5995397936377
30
3E-16
0
SPLINE
5
143
100
AcDbEntity
8
1
62
256
6
ByLayer
370
18
48
1
60
0
100
AcDbSpline
70
4
71
3
72
12
73
8
40
0
40
0
40
0
40
0
40
0.249999999999995
40
0.249999999999995
40
0.499999999999989
40
0.499999999999989
40
1
40
1
40
1
40
1
41
1
10
-0.298765877367544
20
10.6660560656872
30
3E-16
41
1
10
-0.29876587736743
20
10.6720140124653
30
3E-16
41
1
10
-0.296691415854127
20
10.6798290557635
30
3E-16
41
1
10
-0.289973195490745
20
10.6970886017755
30
3E-16
41
1
10
-0.285374062664374
20
10.7064961114611
30
3E-16
41
1
10
-0.268796105994056
20
10.7364643358961
30
2E-16
41
1
10
-0.254811056450336
20
10.7575167339148
30
2E-16
41
1
10
-0.238765877365267
20
10.7792431311742
30
2E-16
0
SPLINE
5
144
100
AcDbEntity
8
1
62
256
6
ByLayer
370
18
48
1
60
0
100
AcDbSpline
70
4
71
3
72
8
73
4
40
0
40
0
40
0
40
0
40
1
40
1
40
1
40
1
41
1
10
-0.238765877365267
20
10.7792431311742
30
2E-16
41
1
10
-0.0597658318188223
20
11.0216228564718
30
2E-16
41
1
10
0.121434286368526
20
11.2617879331421
30
2E-16
41
1
10
0.304574560390222
20
11.5
30
2E-16
0
SPLINE
5
145
100
AcDbEntity
8
1
62
256
6
ByLayer
370
18
48
1
60
0
100
AcDbSpline
70
4
71
3
72
8
73
4
40
0
40
0
40
0
40
0
40
1
40
1
40
1
40
1
41
1
10
0.304574560390193
20
11.5
30
2E-16
41
1
10
0.352018926468503
20
11.5
30
2E-16
41
1
10
0.400939684077855
20
11.5
30
2E-16
41
1
10
0.45123412263473
20
11.5
30
2E-16
0
SPLINE
5
146
100
AcDbEntity
8
1
62
256
6
ByLayer
370
18
48
1
60
0
100
AcDbSpline
70
4
71
3
72
8
73
4
40
0
40
0
40
0
40
0
40
1
40
1
40
1
40
1
41
1
10
-0.238765877365267
20
11.1388165661098
30
2E-16
41
1
10
-0.0981235879098961
20
11.2593234898805
30
2E-16
41
1
10
0.04259317128475
20
11.3797146013987
30
2E-16
41
1
10
0.183377615571914
20
11.5
30
2E-16
0
SPLINE
5
147
100
AcDbEntity
8
1
62
256
6
ByLayer
370
18
48
1
60
0
100
AcDbSpline
70
4
71
3
72
10
73
6
40
0
40
0
40
0
40
0
40
0.5
40
0.5
40
1
40
1
40
1
40
1
41
1
10
-0.29876587736527
20
11.1114606311164
30
2E-16
41
1
10
-0.29876587736527
20
11.1041942608961
30
2E-16
41
1
10
-0.292352472927519
20
11.102907275648
30
2E-16
41
1
10
-0.269633454594469
20
11.1140549176224
30
2E-16
41
1
10
-0.254358054451785
20
11.1254566776804
30
2E-16
41
1
10
-0.238765877365267
20
11.1388165661098
30
2E-16
0
SPLINE
5
148
100
AcDbEntity
8
1
62
256
6
ByLayer
370
18
48
1
60
0
100
AcDbSpline
70
4
71
3
72
10
73
6
40
0
40
0
40
0
40
0
40
0.5
40
0.5
40
1
40
1
40
1
40
1
41
1
10
-0.238765877365267
20
11.2557967883172
30
2E-16
41
1
10
-0.254556217741936
20
11.2363331447328
30
2E-16
41
1
10
-0.268692536144556
20
11.2174249163875
30
2E-16
41
1
10
-0.290830657641948
20
11.1830287551301
30
2E-16
41
1
10
-0.29876587736527
20
11.1675351135829
30
2E-16
41
1
10
-0.29876587736527
20
11.1590966693763
30
2E-16
0
SPLINE
5
149
100
AcDbEntity
8
1
62
256
6
ByLayer
370
18
48
1
60
0
100
AcDbSpline
70
4
71
3
72
8
73
4
40
0
40
0
40
0
40
0
40
1
40
1
40
1
40
1
41
1
10
-0.0394555188602226
20
11.5
30
2E-16
41
1
10
-0.106099553579696
20
11.4188269644755
30
2E-16
41
1
10
-0.172539509133401
20
11.3374293811809
30
2E-16
41
1
10
-0.238765877365267
20
11.2557967883172
30
2E-16
0
SPLINE
5
14A
100
AcDbEntity
8
1
62
256
6
ByLayer
370
18
48
1
60
0
100
AcDbSpline
70
4
71
3
72
8
73
4
40
0
40
0
40
0
40
0
40
1
40
1
40
1
40
1
41
1
10
-0.0394555188602226
20
11.5
30
2E-16
41
1
10
0.028853040349702
20
11.5
30
2E-16
41
1
10
0.103494371301224
20
11.5
30
2E-16
41
1
10
0.183377615571914
20
11.5
30
2E-16
0
SPLINE
5
14B
100
AcDbEntity
8
1
62
256
6
ByLayer
370
18
48
1
60
0
100
AcDbSpline
70
4
71
3
72
10
73
6
40
0
40
0
40
0
40
0
40
0.5
40
0.5
40
1
40
1
40
1
40
1
41
1
10
-0.24231182918237
20
11.5000000000019
30
2E-16
41
1
10
-0.257047938999079
20
11.4870090324812
30
2E-16
41
1
10
-0.271138680353971
20
11.4756136898941
30
2E-16
41
1
10
-0.292479899692211
20
11.4619245451975
30
2E-16
41
1
10
-0.29876587736527
20
11.4605285821832
30
2E-16
41
1
10
-0.29876587736527
20
11.4653334394072
30
2E-16
0
SPLINE
5
14C
100
AcDbEntity
8
1
62
256
6
ByLayer
370
18
48
1
60
0
100
AcDbSpline
70
4
71
3
72
8
73
4
40
0
40
0
40
0
40
0
40
1
40
1
40
1
40
1
41
1
10
-0.298765877365327
20
11.4961352182611
30
2E-16
41
1
10
-0.298765877365327
20
11.4971557931802
30
2E-16
41
1
10
-0.298475612597969
20
11.4984515048101
30
2E-16
41
1
10
-0.297918512342847
20
11.5000000000003
30
2E-16
0
SPLINE
5
14D
100
AcDbEntity
8
1
62
256
6
ByLayer
370
18
48
1
60
0
100
AcDbSpline
70
4
71
3
72
8
73
4
40
0
40
0
40
0
40
0
40
1
40
1
40
1
40
1
41
1
10
-0.297918512343244
20
11.5
30
2E-16
41
1
10
-0.280250594411854
20
11.5
30
2E-16
41
1
10
-0.261708142819572
20
11.5
30
2E-16
41
1
10
-0.242311829183763
20
11.5
30
2E-16
0
LINE
5
70
100
AcDbEntity
8
SK1
62
256
6
ByLayer
370
18
48
1
60
0
100
AcDbLine
10
-3.3
20
2.983975
30
0
11
-3.8
21
2.85
31
0
39
0
210
0
220
0
230
1
0
LINE
5
72
100
AcDbEntity
8
SK1
62
256
6
ByLayer
370
18
48
1
60
0
100
AcDbLine
10
-3.3
20
-2.983975
30
0
11
-0.298727
21
-2.983975
31
0
39
0
210
0
220
0
230
1
0
LINE
5
73
100
AcDbEntity
8
SK1
62
256
6
ByLayer
370
18
48
1
60
0
100
AcDbLine
10
-3.3
20
-2.983975
30
0
11
-3.3
21
2.983975
31
0
39
0
210
0
220
0
230
1
0
LINE
5
74
100
AcDbEntity
8
SK1
62
256
6
ByLayer
370
18
48
1
60
0
100
AcDbLine
10
-0.298727
20
2.983975
30
0
11
-3.3
21
2.983975
31
0
39
0
210
0
220
0
230
1
0
LINE
5
75
100
AcDbEntity
8
SK1
62
256
6
ByLayer
370
18
48
1
60
0
100
AcDbLine
10
-3.8
20
-2.85
30
0
11
-3.3
21
-2.983975
31
0
39
0
210
0
220
0
230
1
0
LINE
5
76
100
AcDbEntity
8
SK1
62
256
6
ByLayer
370
18
48
1
60
0
100
AcDbLine
10
-3.8
20
-2.85
30
0
11
-3.8
21
2.85
31
0
39
0
210
0
220
0
230
1
0
LINE
5
77
100
AcDbEntity
8
1
62
256
6
ByLayer
370
18
48
1
60
0
100
AcDbLine
10
-0.298766
20
-11.75
30
0
11
0.451234
21
-12.5
31
0
39
0
210
0
220
0
230
1
0
LINE
5
79
100
AcDbEntity
8
1
62
256
6
ByLayer
370
18
48
1
60
0
100
AcDbLine
10
0.451234
20
-12.5
30
0
11
0.451234
21
11.5
31
0
39
0
210
0
220
0
230
1
0
LINE
5
7A
100
AcDbEntity
8
1
62
256
6
ByLayer
370
18
48
1
60
0
100
AcDbLine
10
-0.298766
20
-11.75
30
0
11
-0.298766
21
-11.749787
31
0
39
0
210
0
220
0
230
1
0
LINE
5
7B
100
AcDbEntity
8
1
62
256
6
ByLayer
370
18
48
1
60
0
100
AcDbLine
10
-0.298766
20
-11.690672
30
0
11
-0.298766
21
-11.675538
31
0
39
0
210
0
220
0
230
1
0
LINE
5
7C
100
AcDbEntity
8
1
62
256
6
ByLayer
370
18
48
1
60
0
100
AcDbLine
10
-0.298766
20
-11.496135
30
0
11
-0.298766
21
-11.465333
31
0
39
0
210
0
220
0
230
1
0
LINE
5
7D
100
AcDbEntity
8
1
62
256
6
ByLayer
370
18
48
1
60
0
100
AcDbLine
10
-0.298766
20
-11.159097
30
0
11
-0.298766
21
-11.111461
31
0
39
0
210
0
220
0
230
1
0
LINE
5
7E
100
AcDbEntity
8
1
62
256
6
ByLayer
370
18
48
1
60
0
100
AcDbLine
10
-0.298766
20
-10.666056
30
0
11
-0.298766
21
-10.59954
31
0
39
0
210
0
220
0
230
1
0
LINE
5
7F
100
AcDbEntity
8
1
62
256
6
ByLayer
370
18
48
1
60
0
100
AcDbLine
10
-0.298766
20
-9.993951
30
0
11
-0.298766
21
-9.905096
31
0
39
0
210
0
220
0
230
1
0
LINE
5
80
100
AcDbEntity
8
1
62
256
6
ByLayer
370
18
48
1
60
0
100
AcDbLine
10
-0.298766
20
-9.103207
30
0
11
-0.298766
21
-8.985912
31
0
39
0
210
0
220
0
230
1
0
LINE
5
81
100
AcDbEntity
8
1
62
256
6
ByLayer
370
18
48
1
60
0
100
AcDbLine
10
-0.298766
20
-7.920397
30
0
11
-0.298766
21
-7.762558
31
0
39
0
210
0
220
0
230
1
0
LINE
5
82
100
AcDbEntity
8
1
62
256
6
ByLayer
370
18
48
1
60
0
100
AcDbLine
10
-0.298766
20
-6.282675
30
0
11
-0.298766
21
-6.053345
31
0
39
0
210
0
220
0
230
1
0
LINE
5
83
100
AcDbEntity
8
1
62
256
6
ByLayer
370
18
48
1
60
0
100
AcDbLine
10
-0.298766
20
-3.617502
30
0
11
-0.298766
21
-3.147011
31
0
39
0
210
0
220
0
230
1
0
LINE
5
84
100
AcDbEntity
8
1
62
256
6
ByLayer
370
18
48
1
60
0
100
AcDbLine
10
-0.298766
20
3.147011
30
0
11
-0.298766
21
3.617502
31
0
39
0
210
0
220
0
230
1
0
LINE
5
85
100
AcDbEntity
8
1
62
256
6
ByLayer
370
18
48
1
60
0
100
AcDbLine
10
-0.298766
20
6.053345
30
0
11
-0.298766
21
6.282675
31
0
39
0
210
0
220
0
230
1
0
LINE
5
86
100
AcDbEntity
8
1
62
256
6
ByLayer
370
18
48
1
60
0
100
AcDbLine
10
-0.298766
20
7.762558
30
0
11
-0.298766
21
7.920397
31
0
39
0
210
0
220
0
230
1
0
LINE
5
87
100
AcDbEntity
8
1
62
256
6
ByLayer
370
18
48
1
60
0
100
AcDbLine
10
-0.298766
20
8.985912
30
0
11
-0.298766
21
9.103207
31
0
39
0
210
0
220
0
230
1
0
LINE
5
88
100
AcDbEntity
8
1
62
256
6
ByLayer
370
18
48
1
60
0
100
AcDbLine
10
-0.298766
20
9.905096
30
0
11
-0.298766
21
9.993951
31
0
39
0
210
0
220
0
230
1
0
LINE
5
89
100
AcDbEntity
8
1
62
256
6
ByLayer
370
18
48
1
60
0
100
AcDbLine
10
-0.298766
20
10.59954
30
0
11
-0.298766
21
10.666056
31
0
39
0
210
0
220
0
230
1
0
LINE
5
8A
100
AcDbEntity
8
1
62
256
6
ByLayer
370
18
48
1
60
0
100
AcDbLine
10
0.751234
20
-3.5
30
0
11
10.410874
21
-3.5
31
0
39
0
210
0
220
0
230
1
0
LINE
5
8B
100
AcDbEntity
8
1
62
256
6
ByLayer
370
18
48
1
60
0
100
AcDbLine
10
10.426853
20
-4.415466
30
0
11
0.751234
21
-4.415466
31
0
39
0
210
0
220
0
230
1
0
LINE
5
8C
100
AcDbEntity
8
1
62
256
6
ByLayer
370
18
48
1
60
0
100
AcDbLine
10
10.410874
20
-3.5
30
0
11
10.426853
21
-4.415466
31
0
39
0
210
0
220
0
230
1
0
LINE
5
8D
100
AcDbEntity
8
1
62
256
6
ByLayer
370
18
48
1
60
0
100
AcDbLine
10
0.751234
20
-4.415466
30
0
11
0.751234
21
-3.5
31
0
39
0
210
0
220
0
230
1
0
LINE
5
8E
100
AcDbEntity
8
1
62
256
6
ByLayer
370
18
48
1
60
0
100
AcDbLine
10
6.2
20
11.5
30
0
11
13.879454
21
3.820546
31
0
39
0
210
0
220
0
230
1
0
LINE
5
8F
100
AcDbEntity
8
1
62
256
6
ByLayer
370
18
48
1
60
0
100
AcDbLine
10
0.451234
20
-12.5
30
0
11
0.751234
21
-12.5
31
0
39
0
210
0
220
0
230
1
0
LINE
5
90
100
AcDbEntity
8
1
62
256
6
ByLayer
370
18
48
1
60
0
100
AcDbLine
10
10.349781
20
0
30
0
11
0.751234
21
0
31
0
39
0
210
0
220
0
230
1
0
LINE
5
91
100
AcDbEntity
8
1
62
256
6
ByLayer
370
18
48
1
60
0
100
AcDbLine
10
6.2
20
11.5
30
0
11
0.451234
21
11.5
31
0
39
0
210
0
220
0
230
1
0
LINE
5
92
100
AcDbEntity
8
1
62
256
6
ByLayer
370
18
48
1
60
0
100
AcDbLine
10
10.300165
20
2.842524
30
0
11
10.349781
21
0
31
0
39
0
210
0
220
0
230
1
0
LINE
5
93
100
AcDbEntity
8
1
62
256
6
ByLayer
370
18
48
1
60
0
100
AcDbLine
10
10.349781
20
0
30
0
11
10.410874
21
-3.5
31
0
39
0
210
0
220
0
230
1
0
LINE
5
94
100
AcDbEntity
8
1
62
256
6
ByLayer
370
18
48
1
60
0
100
AcDbLine
10
0.751234
20
-3.5
30
0
11
0.751234
21
0
31
0
39
0
210
0
220
0
230
1
0
LINE
5
95
100
AcDbEntity
8
1
62
256
6
ByLayer
370
18
48
1
60
0
100
AcDbLine
10
3.608686
20
-16.996703
30
0
11
10.64646
21
-16.996703
31
0
39
0
210
0
220
0
230
1
0
LINE
5
96
100
AcDbEntity
8
1
62
256
6
ByLayer
370
18
48
1
60
0
100
AcDbLine
10
0.751234
20
-13.811424
30
0
11
3.608686
21
-16.996703
31
0
39
0
210
0
220
0
230
1
0
LINE
5
97
100
AcDbEntity
8
1
62
256
6
ByLayer
370
18
48
1
60
0
100
AcDbLine
10
10.426853
20
-4.415466
30
0
11
10.64646
21
-16.996703
31
0
39
0
210
0
220
0
230
1
0
LINE
5
98
100
AcDbEntity
8
1
62
256
6
ByLayer
370
18
48
1
60
0
100
AcDbLine
10
0.751234
20
-13.811424
30
0
11
0.751234
21
-4.415466
31
0
39
0
210
0
220
0
230
1
0
LINE
5
99
100
AcDbEntity
8
1
62
256
6
ByLayer
370
18
48
1
60
0
100
AcDbLine
10
13.78719
20
-1.974153
30
0
11
13.904631
21
2.895041
31
0
39
0
210
0
220
0
230
1
0
LINE
5
9A
100
AcDbEntity
8
1
62
256
6
ByLayer
370
18
48
1
60
0
100
AcDbLine
10
0.346266
20
3.909267
30
0
11
0.346266
21
3.151846
31
0
39
0
210
0
220
0
230
1
0
LINE
5
9B
100
AcDbEntity
8
1
62
256
6
ByLayer
370
18
48
1
60
0
100
AcDbLine
10
0.346266
20
-3.151846
30
0
11
0.346266
21
-3.909267
31
0
39
0
210
0
220
0
230
1
0
LINE
5
9C
100
AcDbEntity
8
1
62
256
6
ByLayer
370
18
48
1
60
0
100
AcDbLine
10
-0.238766
20
2.992241
30
0
11
-0.238766
21
-2.992241
31
0
39
0
210
0
220
0
230
1
0
LINE
5
9D
100
AcDbEntity
8
1
62
256
6
ByLayer
370
18
48
1
60
0
100
AcDbLine
10
-0.298766
20
3.147011
30
0
11
-0.298766
21
-3.147011
31
0
39
0
210
0
220
0
230
1
0
LINE
5
9E
100
AcDbEntity
8
1
62
256
6
ByLayer
370
18
48
1
60
0
100
AcDbLine
10
0.346266
20
6.567032
30
0
11
0.346266
21
6.19189
31
0
39
0
210
0
220
0
230
1
0
LINE
5
9F
100
AcDbEntity
8
1
62
256
6
ByLayer
370
18
48
1
60
0
100
AcDbLine
10
0.346266
20
-6.19189
30
0
11
0.346266
21
-6.567032
31
0
39
0
210
0
220
0
230
1
0
LINE
5
A0
100
AcDbEntity
8
1
62
256
6
ByLayer
370
18
48
1
60
0
100
AcDbLine
10
-0.238766
20
5.996051
30
0
11
-0.238766
21
4.100175
31
0
39
0
210
0
220
0
230
1
0
LINE
5
A1
100
AcDbEntity
8
1
62
256
6
ByLayer
370
18
48
1
60
0
100
AcDbLine
10
-0.238766
20
-4.100175
30
0
11
-0.238766
21
-5.996051
31
0
39
0
210
0
220
0
230
1
0
LINE
5
A2
100
AcDbEntity
8
1
62
256
6
ByLayer
370
18
48
1
60
0
100
AcDbLine
10
-0.298766
20
6.053345
30
0
11
-0.298766
21
3.617441
31
0
39
0
210
0
220
0
230
1
0
LINE
5
A3
100
AcDbEntity
8
1
62
256
6
ByLayer
370
18
48
1
60
0
100
AcDbLine
10
-0.298766
20
-3.617441
30
0
11
-0.298766
21
-6.053345
31
0
39
0
210
0
220
0
230
1
0
LINE
5
A4
100
AcDbEntity
8
1
62
256
6
ByLayer
370
18
48
1
60
0
100
AcDbLine
10
0.346266
20
8.236774
30
0
11
0.346266
21
7.976286
31
0
39
0
210
0
220
0
230
1
0
LINE
5
A5
100
AcDbEntity
8
1
62
256
6
ByLayer
370
18
48
1
60
0
100
AcDbLine
10
0.346266
20
-7.976286
30
0
11
0.346266
21
-8.236774
31
0
39
0
210
0
220
0
230
1
0
LINE
5
A6
100
AcDbEntity
8
1
62
256
6
ByLayer
370
18
48
1
60
0
100
AcDbLine
10
-0.238766
20
7.734775
30
0
11
-0.238766
21
6.552563
31
0
39
0
210
0
220
0
230
1
0
LINE
5
A7
100
AcDbEntity
8
1
62
256
6
ByLayer
370
18
48
1
60
0
100
AcDbLine
10
-0.238766
20
-6.552563
30
0
11
-0.238766
21
-7.734775
31
0
39
0
210
0
220
0
230
1
0
LINE
5
A8
100
AcDbEntity
8
1
62
256
6
ByLayer
370
18
48
1
60
0
100
AcDbLine
10
-0.298766
20
7.762558
30
0
11
-0.298766
21
6.282578
31
0
39
0
210
0
220
0
230
1
0
LINE
5
A9
100
AcDbEntity
8
1
62
256
6
ByLayer
370
18
48
1
60
0
100
AcDbLine
10
-0.298766
20
-6.282578
30
0
11
-0.298766
21
-7.762558
31
0
39
0
210
0
220
0
230
1
0
LINE
5
AA
100
AcDbEntity
8
1
62
256
6
ByLayer
370
18
48
1
60
0
100
AcDbLine
10
0.346266
20
9.457166
30
0
11
0.346266
21
9.261521
31
0
39
0
210
0
220
0
230
1
0
LINE
5
AB
100
AcDbEntity
8
1
62
256
6
ByLayer
370
18
48
1
60
0
100
AcDbLine
10
0.346266
20
-9.261521
30
0
11
0.346266
21
-9.457166
31
0
39
0
210
0
220
0
230
1
0
LINE
5
AC
100
AcDbEntity
8
1
62
256
6
ByLayer
370
18
48
1
60
0
100
AcDbLine
10
-0.238766
20
-8.120312
30
0
11
-0.238766
21
-8.976406
31
0
39
0
210
0
220
0
230
1
0
LINE
5
AD
100
AcDbEntity
8
1
62
256
6
ByLayer
370
18
48
1
60
0
100
AcDbLine
10
-0.238766
20
8.976406
30
0
11
-0.238766
21
8.120312
31
0
39
0
210
0
220
0
230
1
0
LINE
5
AE
100
AcDbEntity
8
1
62
256
6
ByLayer
370
18
48
1
60
0
100
AcDbLine
10
-0.298766
20
-7.96707
30
0
11
-0.298766
21
-8.985912
31
0
39
0
210
0
220
0
230
1
0
LINE
5
AF
100
AcDbEntity
8
1
62
256
6
ByLayer
370
18
48
1
60
0
100
AcDbLine
10
-0.298766
20
8.985912
30
0
11
-0.298766
21
7.96707
31
0
39
0
210
0
220
0
230
1
0
LINE
5
B0
100
AcDbEntity
8
1
62
256
6
ByLayer
370
18
48
1
60
0
100
AcDbLine
10
0.346266
20
10.387807
30
0
11
0.346266
21
10.237659
31
0
39
0
210
0
220
0
230
1
0
LINE
5
B1
100
AcDbEntity
8
1
62
256
6
ByLayer
370
18
48
1
60
0
100
AcDbLine
10
0.346266
20
-10.237659
30
0
11
0.346266
21
-10.387807
31
0
39
0
210
0
220
0
230
1
0
LINE
5
B2
100
AcDbEntity
8
1
62
256
6
ByLayer
370
18
48
1
60
0
100
AcDbLine
10
-0.238766
20
9.909591
30
0
11
-0.238766
21
9.263641
31
0
39
0
210
0
220
0
230
1
0
LINE
5
B3
100
AcDbEntity
8
1
62
256
6
ByLayer
370
18
48
1
60
0
100
AcDbLine
10
-0.238766
20
-9.263641
30
0
11
-0.238766
21
-9.909591
31
0
39
0
210
0
220
0
230
1
0
LINE
5
B4
100
AcDbEntity
8
1
62
256
6
ByLayer
370
18
48
1
60
0
100
AcDbLine
10
-0.298766
20
9.905096
30
0
11
-0.298766
21
9.103218
31
0
39
0
210
0
220
0
230
1
0
LINE
5
B5
100
AcDbEntity
8
1
62
256
6
ByLayer
370
18
48
1
60
0
100
AcDbLine
10
-0.298766
20
-9.103218
30
0
11
-0.298766
21
-9.905096
31
0
39
0
210
0
220
0
230
1
0
LINE
5
B6
100
AcDbEntity
8
1
62
256
6
ByLayer
370
18
48
1
60
0
100
AcDbLine
10
4.275481
20
-17.864491
30
0
11
4.275481
21
-19.14571
31
0
39
0
210
0
220
0
230
1
0
LINE
5
B7
100
AcDbEntity
8
1
62
256
6
ByLayer
370
18
48
1
60
0
100
AcDbLine
10
0.751234
20
-16.116537
30
0
11
3.335319
21
-18.450749
31
0
39
0
210
0
220
0
230
1
0
LINE
5
B8
100
AcDbEntity
8
1
62
256
6
ByLayer
370
18
48
1
60
0
100
AcDbLine
10
0.751234
20
-14.883052
30
0
11
0.751234
21
-13.811424
31
0
39
0
210
0
220
0
230
1
0
LINE
5
B9
100
AcDbEntity
8
1
62
256
6
ByLayer
370
18
48
1
60
0
100
AcDbLine
10
0.751234
20
-16.116537
30
0
11
0.751234
21
-15.382073
31
0
39
0
210
0
220
0
230
1
0
LINE
5
BA
100
AcDbEntity
8
1
62
256
6
ByLayer
370
18
48
1
60
0
100
AcDbLine
10
0.346266
20
-10.987118
30
0
11
0.346266
21
-11.101805
31
0
39
0
210
0
220
0
230
1
0
LINE
5
BB
100
AcDbEntity
8
1
62
256
6
ByLayer
370
18
48
1
60
0
100
AcDbLine
10
0.346266
20
11.101805
30
0
11
0.346266
21
10.987118
31
0
39
0
210
0
220
0
230
1
0
LINE
5
BC
100
AcDbEntity
8
1
62
256
6
ByLayer
370
18
48
1
60
0
100
AcDbLine
10
-0.238766
20
-10.127467
30
0
11
-0.238766
21
-10.615984
31
0
39
0
210
0
220
0
230
1
0
LINE
5
BD
100
AcDbEntity
8
1
62
256
6
ByLayer
370
18
48
1
60
0
100
AcDbLine
10
-0.238766
20
10.615984
30
0
11
-0.238766
21
10.127467
31
0
39
0
210
0
220
0
230
1
0
LINE
5
BE
100
AcDbEntity
8
1
62
256
6
ByLayer
370
18
48
1
60
0
100
AcDbLine
10
-0.298766
20
-9.993951
30
0
11
-0.298766
21
-10.59954
31
0
39
0
210
0
220
0
230
1
0
LINE
5
BF
100
AcDbEntity
8
1
62
256
6
ByLayer
370
18
48
1
60
0
100
AcDbLine
10
-0.298766
20
10.59954
30
0
11
-0.298766
21
9.993951
31
0
39
0
210
0
220
0
230
1
0
LINE
5
C0
100
AcDbEntity
8
1
62
256
6
ByLayer
370
18
48
1
60
0
100
AcDbLine
10
0.346266
20
-11.55409
30
0
11
0.346266
21
-11.639099
31
0
39
0
210
0
220
0
230
1
0
LINE
5
C1
100
AcDbEntity
8
1
62
256
6
ByLayer
370
18
48
1
60
0
100
AcDbLine
10
-0.238766
20
-10.779197
30
0
11
-0.238766
21
-11.138817
31
0
39
0
210
0
220
0
230
1
0
LINE
5
C2
100
AcDbEntity
8
1
62
256
6
ByLayer
370
18
48
1
60
0
100
AcDbLine
10
-0.238766
20
11.138817
30
0
11
-0.238766
21
10.779197
31
0
39
0
210
0
220
0
230
1
0
LINE
5
C3
100
AcDbEntity
8
1
62
256
6
ByLayer
370
18
48
1
60
0
100
AcDbLine
10
0.304574
20
11.5
30
0
11
0.183378
21
11.5
31
0
39
0
210
0
220
0
230
1
0
LINE
5
C4
100
AcDbEntity
8
1
62
256
6
ByLayer
370
18
48
1
60
0
100
AcDbLine
10
-0.298766
20
11.111461
30
0
11
-0.298766
21
11.159097
31
0
39
0
210
0
220
0
230
1
0
LINE
5
C5
100
AcDbEntity
8
1
62
256
6
ByLayer
370
18
48
1
60
0
100
AcDbLine
10
-0.298766
20
-10.666044
30
0
11
-0.298766
21
-11.111461
31
0
39
0
210
0
220
0
230
1
0
LINE
5
C6
100
AcDbEntity
8
1
62
256
6
ByLayer
370
18
48
1
60
0
100
AcDbLine
10
-0.298766
20
11.111461
30
0
11
-0.298766
21
10.666044
31
0
39
0
210
0
220
0
230
1
0
LINE
5
C7
100
AcDbEntity
8
1
62
256
6
ByLayer
370
18
48
1
60
0
100
AcDbLine
10
10.661607
20
-17.864491
30
0
11
4.275481
21
-17.864491
31
0
39
0
210
0
220
0
230
1
0
LINE
5
C8
100
AcDbEntity
8
1
62
256
6
ByLayer
370
18
48
1
60
0
100
AcDbLine
10
10.64646
20
-16.996703
30
0
11
10.661607
21
-17.864491
31
0
39
0
210
0
220
0
230
1
0
LINE
5
C9
100
AcDbEntity
8
1
62
256
6
ByLayer
370
18
48
1
60
0
100
AcDbLine
10
-0.238766
20
11.5
30
0
11
-0.238766
21
11.255721
31
0
39
0
210
0
220
0
230
1
0
LINE
5
CA
100
AcDbEntity
8
1
62
256
6
ByLayer
370
18
48
1
60
0
100
AcDbLine
10
-0.238766
20
11.5
30
0
11
-0.079893
21
11.5
31
0
39
0
210
0
220
0
230
1
0
LINE
5
CB
100
AcDbEntity
8
1
62
256
6
ByLayer
370
18
48
1
60
0
100
AcDbLine
10
-0.238766
20
-11.255741
30
0
11
-0.238766
21
-11.503145
31
0
39
0
210
0
220
0
230
1
0
LINE
5
CC
100
AcDbEntity
8
1
62
256
6
ByLayer
370
18
48
1
60
0
100
AcDbLine
10
0.346266
20
-11.964676
30
0
11
0.346266
21
-12.0234
31
0
39
0
210
0
220
0
230
1
0
LINE
5
CD
100
AcDbEntity
8
1
62
256
6
ByLayer
370
18
48
1
60
0
100
AcDbLine
10
-0.298766
20
-11.159033
30
0
11
-0.298766
21
-11.465333
31
0
39
0
210
0
220
0
230
1
0
LINE
5
CE
100
AcDbEntity
8
1
62
256
6
ByLayer
370
18
48
1
60
0
100
AcDbLine
10
-0.298766
20
11.465333
30
0
11
-0.298766
21
11.159033
31
0
39
0
210
0
220
0
230
1
0
LINE
5
CF
100
AcDbEntity
8
1
62
256
6
ByLayer
370
18
48
1
60
0
100
AcDbLine
10
-0.242312
20
11.5
30
0
11
-0.238766
21
11.5
31
0
39
0
210
0
220
0
230
1
0
LINE
5
D0
100
AcDbEntity
8
1
62
256
6
ByLayer
370
18
48
1
60
0
100
AcDbLine
10
-0.298766
20
11.465333
30
0
11
-0.298766
21
11.496135
31
0
39
0
210
0
220
0
230
1
0
LINE
5
D1
100
AcDbEntity
8
1
62
256
6
ByLayer
370
18
48
1
60
0
100
AcDbLine
10
10.448144
20
-19.14571
30
0
11
10.667407
21
-18.196754
31
0
39
0
210
0
220
0
230
1
0
LINE
5
D2
100
AcDbEntity
8
1
62
256
6
ByLayer
370
18
48
1
60
0
100
AcDbLine
10
4.275481
20
-19.14571
30
0
11
10.448144
21
-19.14571
31
0
39
0
210
0
220
0
230
1
0
LINE
5
D3
100
AcDbEntity
8
1
62
256
6
ByLayer
370
18
48
1
60
0
100
AcDbLine
10
10.661607
20
-17.864491
30
0
11
10.667407
21
-18.196754
31
0
39
0
210
0
220
0
230
1
0
LINE
5
D4
100
AcDbEntity
8
1
62
256
6
ByLayer
370
18
48
1
60
0
100
AcDbLine
10
0.346266
20
-12.234513
30
0
11
0.346266
21
-12.269095
31
0
39
0
210
0
220
0
230
1
0
LINE
5
D5
100
AcDbEntity
8
1
62
256
6
ByLayer
370
18
48
1
60
0
100
AcDbLine
10
13.641189
20
-8.027518
30
0
11
11.212863
21
-7.891326
31
0
39
0
210
0
220
0
230
1
0
LINE
5
D6
100
AcDbEntity
8
1
62
256
6
ByLayer
370
18
48
1
60
0
100
AcDbLine
10
13.641189
20
-8.027518
30
0
11
13.696887
21
-5.718237
31
0
39
0
210
0
220
0
230
1
0
LINE
5
D7
100
AcDbEntity
8
1
62
256
6
ByLayer
370
18
48
1
60
0
100
AcDbLine
10
-0.238766
20
-11.578776
30
0
11
-0.238766
21
-11.723757
31
0
39
0
210
0
220
0
230
1
0
LINE
5
D8
100
AcDbEntity
8
1
62
256
6
ByLayer
370
18
48
1
60
0
100
AcDbLine
10
-0.298766
20
-11.496043
30
0
11
-0.298766
21
-11.675538
31
0
39
0
210
0
220
0
230
1
0
LINE
5
D9
100
AcDbEntity
8
1
62
256
6
ByLayer
370
18
48
1
60
0
100
AcDbLine
10
0.346266
20
-12.372934
30
0
11
0.346266
21
-12.384435
31
0
39
0
210
0
220
0
230
1
0
LINE
5
DA
100
AcDbEntity
8
1
62
256
6
ByLayer
370
18
48
1
60
0
100
AcDbLine
10
-0.238766
20
-11.760881
30
0
11
-0.238766
21
-11.808709
31
0
39
0
210
0
220
0
230
1
0
LINE
5
DB
100
AcDbEntity
8
1
62
256
6
ByLayer
370
18
48
1
60
0
100
AcDbLine
10
-0.298766
20
-11.690663
30
0
11
-0.298766
21
-11.749787
31
0
39
0
210
0
220
0
230
1
0
LINE
5
DC
100
AcDbEntity
8
1
62
256
6
ByLayer
370
18
48
1
60
0
100
AcDbLine
10
0.751234
20
-14.883052
30
0
11
0.751234
21
-15.382073
31
0
39
0
210
0
220
0
230
1
0
LINE
5
DD
100
AcDbEntity
8
1
62
256
6
ByLayer
370
18
48
1
60
0
100
AcDbLine
10
4.256017
20
-19.165174
30
0
11
10.438762
21
-19.165174
31
0
39
0
210
0
220
0
230
1
0
LINE
5
DE
100
AcDbEntity
8
1
62
256
6
ByLayer
370
18
48
1
60
0
100
AcDbLine
10
10.832664
20
-26.885955
30
0
11
14.000025
21
-26.801423
31
0
39
0
210
0
220
0
230
1
0
LINE
5
DF
100
AcDbEntity
8
1
62
256
6
ByLayer
370
18
48
1
60
0
100
AcDbLine
10
10.832664
20
-26.885955
30
0
11
10.521231
21
-9.043938
31
0
39
0
210
0
220
0
230
1
0
LINE
5
E0
100
AcDbEntity
8
1
62
256
6
ByLayer
370
18
48
1
60
0
100
AcDbLine
10
10.521231
20
-9.043938
30
0
11
13.690869
21
-9.089889
31
0
39
0
210
0
220
0
230
1
0
LINE
5
E1
100
AcDbEntity
8
1
62
256
6
ByLayer
370
18
48
1
60
0
100
AcDbLine
10
14.000025
20
-26.801423
30
0
11
13.690869
21
-9.089889
31
0
39
0
210
0
220
0
230
1
0
LINE
5
E2
100
AcDbEntity
8
1
62
256
6
ByLayer
370
18
48
1
60
0
100
AcDbLine
10
10.521231
20
-9.043938
30
0
11
10.499547
21
-8.580234
31
0
39
0
210
0
220
0
230
1
0
LINE
5
E3
100
AcDbEntity
8
1
62
256
6
ByLayer
370
18
48
1
60
0
100
AcDbLine
10
13.690869
20
-9.089889
30
0
11
13.641186
21
-8.027444
31
0
39
0
210
0
220
0
230
1
0
LINE
5
E4
100
AcDbEntity
8
1
62
256
6
ByLayer
370
18
48
1
60
0
100
AcDbLine
10
10.415176
20
-19.678395
30
0
11
10.739882
21
-26.622024
31
0
39
0
210
0
220
0
230
1
0
LINE
5
E5
100
AcDbEntity
8
1
62
256
6
ByLayer
370
18
48
1
60
0
100
AcDbLine
10
10.406218
20
-19.165159
30
0
11
10.415176
21
-19.678395
31
0
39
0
210
0
220
0
230
1
0
LINE
5
E6
100
AcDbEntity
8
1
62
256
6
ByLayer
370
18
48
1
60
0
100
AcDbLine
10
10.739882
20
-26.622024
30
0
11
10.832664
21
-26.885955
31
0
39
0
210
0
220
0
230
1
0
LINE
5
E7
100
AcDbEntity
8
80
62
256
6
ByLayer
370
18
48
1
60
0
100
AcDbLine
10
0
20
0
30
0
11
-2.353965
21
0
31
0
39
0
210
0
220
0
230
1
0
LINE
5
E8
100
AcDbEntity
8
81
62
256
6
ByLayer
370
18
48
1
60
0
100
AcDbLine
10
16.353989
20
-26.801423
30
0
11
14.000025
21
-26.801423
31
0
39
0
210
0
220
0
230
1
0
MTEXT
5
14E
100
AcDbEntity
8
SK6
62
256
6
ByLayer
370
18
48
1
60
0
100
AcDbMText
10
-6.594001
20
-52.974101
30
0
210
0
220
0
230
1
1
\W0.7963;570-25LSMAL3
40
3.175
41
0
44
1.084337
50
0
71
7
72
5
7
iso_b_vert
0
DIMENSION
5
160
100
AcDbEntity
8
2
62
256
6
ByLayer
370
13
48
1
60
0
100
AcDbDimension
2
DimnDraft3D1
10
14.000025
20
-36.467739
30
0
11
7.000012
21
-36.467739
31
0
70
32
71
5
72
1
41
1
210
0
220
0
230
1
3
Standard
100
AcDbAlignedDimension
13
0
23
-1.5875
33
0
14
14.000025
24
-28.388923
34
0
50
0
100
AcDbRotatedDimension
1001
ACAD
1000
DSTYLE
1002
{
1070
   279
1070
     0
1070
   172
1070
     1
1070
   173
1070
     1
1070
   340
1005
14F
1070
   271
1070
     1
1070
   272
1070
     2
1070
    77
1070
     1
1070
    73
1070
     0
1070
   171
1070
     3
1070
   274
1070
     4
1070
   177
1070
     7
1070
   176
1070
     7
1070
   178
1070
     7
1070
    78
1070
     8
1070
    48
1040
-0.005
1070
    41
1041
3.175
1070
   147
1041
1.75006
1070
    42
1041
1.5875
1070
    44
1041
3.175
1070
   140
1041
3.50012
1070
   343
1005
161
1070
   344
1005
161
1002
}
0
DIMENSION
5
175
100
AcDbEntity
8
2
62
256
6
ByLayer
370
13
48
1
60
0
100
AcDbDimension
2
DimnDraft3D2
10
-11.660226
20
-26.801423
30
0
11
-11.660226
21
-13.400711
31
0
70
32
71
5
72
1
41
1
210
0
220
0
230
1
3
Standard
100
AcDbAlignedDimension
13
-1.5875
23
0
33
0
14
12.412525
24
-26.801423
34
0
50
90
100
AcDbRotatedDimension
1001
ACAD
1000
DSTYLE
1002
{
1070
    74
1070
     0
1070
   279
1070
     0
1070
   172
1070
     1
1070
   173
1070
     1
1070
   340
1005
14F
1070
   271
1070
     1
1070
   272
1070
     2
1070
    77
1070
     1
1070
    73
1070
     0
1070
   171
1070
     3
1070
   274
1070
     4
1070
   177
1070
     7
1070
   176
1070
     7
1070
   178
1070
     7
1070
    78
1070
     8
1070
    48
1040
-0.005
1070
    41
1041
3.175
1070
   147
1041
1.75006
1070
    42
1041
1.5875
1070
    44
1041
3.175
1070
   140
1041
3.50012
1070
   343
1005
161
1070
   344
1005
161
1002
}
0
DIMENSION
5
185
100
AcDbEntity
8
SK2
62
256
6
ByLayer
370
13
48
1
60
0
100
AcDbDimension
2
DimnDraft3D3
10
24.454195
20
-12.5
30
0
11
24.454195
21
-0.5
31
0
70
32
71
5
72
1
41
1
210
0
220
0
230
1
3
Standard
100
AcDbAlignedDimension
13
7.7875
23
11.5
33
0
14
2.338734
24
-12.5
34
0
50
90
100
AcDbRotatedDimension
1001
ACAD
1000
DSTYLE
1002
{
1070
    74
1070
     0
1070
   279
1070
     0
1070
   172
1070
     1
1070
   173
1070
     1
1070
   340
1005
14F
1070
   271
1070
     1
1070
   272
1070
     2
1070
    77
1070
     1
1070
    73
1070
     0
1070
   171
1070
     3
1070
   274
1070
     4
1070
   177
1070
     7
1070
   176
1070
     7
1070
   178
1070
     7
1070
    78
1070
     8
1070
    48
1040
-0.005
1070
    41
1041
3.175
1070
   147
1041
1.75006
1070
    42
1041
1.5875
1070
    44
1041
3.175
1070
   140
1041
3.50012
1070
   343
1005
161
1070
   344
1005
161
1002
}
0
ENDSEC
0
SECTION
2
OBJECTS
0
DICTIONARY
5
1ef
330
0
100
AcDbDictionary
280
0
281
1
3
ACAD_GROUP
350
1f0
3
ACAD_MLINESTYLE
350
1f1
0
DICTIONARY
5
1f0
330
0
100
AcDbDictionary
280
0
281
1
0
DICTIONARY
5
1f1
330
0
100
AcDbDictionary
280
0
281
1
3
Standard
350
18
0
MLINESTYLE
5
18
330
1f1
100
AcDbMlineStyle
2
Standard
70
0
3

62
256
51
90
52
90
71
2
49
-0.5
62
256
6
ByLayer
49
0.5
62
256
6
ByLayer
0
RASTERVARIABLES
5
1de
330

100
AcDbRasterVariables
90
0
70
1
71
1
72
1
0
ENDSEC
0
EOF
