0
SECTION
2
HEADER
9
$ACADVER
1
AC1015
9
$DWGCODEPAGE
3
ANSI_1252
9
$HANDSEED
5
315
9
$ANGBASE
50
0
9
$ANGDIR
70
0
9
$ATTMODE
70
1
9
$AUNITS
70
0
9
$AUPREC
70
0
9
$CECOLOR
62
256
9
$CELTSCALE
40
1
9
$CELTYPE
6
ByLayer
9
$CELWEIGHT
370
18
9
$CLAYER
8
0
9
$CMLJUST
70
0
9
$CMLSCALE
40
1
9
$CMLSTYLE
2
Standard
9
$DIMSTYLE
2
Standard
9
$TEXTSIZE
40
0.2
9
$TEXTSTYLE
7
Standard
9
$LUNITS
70
2
9
$LUPREC
70
4
9
$EXTNAMES
290
1
9
$INSUNITS
70
4
9
$LTSCALE
40
1
9
$LWDISPLAY
290
1
9
$PDMODE
70
0
9
$PDSIZE
40
0
9
$PLINEGEN
70
0
0
ENDSEC
0
SECTION
2
CLASSES
0
CLASS
1
RASTERVARIABLES
2
AcDbRasterVariables
3
ISM
90
0
280
0
281
0
0
ENDSEC
0
SECTION
2
TABLES
0
TABLE
2
VPORT
5
30b
100
AcDbSymbolTable
0
VPORT
5
1
100
AcDbSymbolTableRecord
100
AcDbViewportTableRecord
2
*Active
70
0
10
0
20
0
11
1
21
1
12
-1
22
1
13
0
23
0
14
0.5
24
0.5
15
10
25
10
16
0
26
0
36
1
17
0
27
0
37
0
0
ENDTAB
0
TABLE
2
LTYPE
5
30c
100
AcDbSymbolTable
0
LTYPE
5
14
100
AcDbSymbolTableRecord
100
AcDbLinetypeTableRecord
70
0
2
ByBlock
3

72
65
73
0
40
0
0
LTYPE
5
15
100
AcDbSymbolTableRecord
100
AcDbLinetypeTableRecord
70
0
2
ByLayer
3

72
65
73
0
40
0
0
LTYPE
5
16
100
AcDbSymbolTableRecord
100
AcDbLinetypeTableRecord
70
0
2
CONTINUOUS
3
Solid line
72
65
73
0
40
0
0
LTYPE
5
6A
100
AcDbSymbolTableRecord
100
AcDbLinetypeTableRecord
70
0
2
CENTER
3
____ _ ____ _ ____ _ ____
72
65
73
4
40
47.5
49
22
74
0
49
-8.5
74
0
49
8.5
74
0
49
-8.5
74
0
0
LTYPE
5
6B
100
AcDbSymbolTableRecord
100
AcDbLinetypeTableRecord
70
0
2
DASHED
3
__ __ __ __ __ __ __ __ __
72
65
73
2
40
25.72
49
12.86
74
0
49
-12.86
74
0
0
ENDTAB
0
TABLE
2
LAYER
5
30d
100
AcDbSymbolTable
0
LAYER
5
10
100
AcDbSymbolTableRecord
100
AcDbLayerTableRecord
2
0
70
0
62
7
6
CONTINUOUS
290
1
370
-3
390
0
0
LAYER
5
6D
100
AcDbSymbolTableRecord
100
AcDbLayerTableRecord
2
80
70
0
62
-6
6
CONTINUOUS
290
1
370
-3
390
0
0
LAYER
5
6F
100
AcDbSymbolTableRecord
100
AcDbLayerTableRecord
2
81
70
0
62
-3
6
CONTINUOUS
290
1
370
-3
390
0
0
LAYER
5
72
100
AcDbSymbolTableRecord
100
AcDbLayerTableRecord
2
4
70
0
62
-2
6
CENTER
290
1
370
-3
390
0
0
LAYER
5
77
100
AcDbSymbolTableRecord
100
AcDbLayerTableRecord
2
1
70
0
62
4
6
CONTINUOUS
290
1
370
-3
390
0
0
LAYER
5
274
100
AcDbSymbolTableRecord
100
AcDbLayerTableRecord
2
2
70
0
62
7
6
CONTINUOUS
290
1
370
-3
390
0
0
LAYER
5
2f7
100
AcDbSymbolTableRecord
100
AcDbLayerTableRecord
2
SK4
70
0
62
2
6
CENTER
290
1
370
-3
390
0
0
LAYER
5
2f8
100
AcDbSymbolTableRecord
100
AcDbLayerTableRecord
2
SK1
70
0
62
4
6
CONTINUOUS
290
1
370
-3
390
0
0
LAYER
5
2f9
100
AcDbSymbolTableRecord
100
AcDbLayerTableRecord
2
SK6
70
0
62
5
6
CONTINUOUS
290
1
370
-3
390
0
0
LAYER
5
2fa
100
AcDbSymbolTableRecord
100
AcDbLayerTableRecord
2
SK2
70
0
62
7
6
CONTINUOUS
290
1
370
-3
390
0
0
ENDTAB
0
TABLE
2
STYLE
5
30e
100
AcDbSymbolTable
0
STYLE
5
11
100
AcDbSymbolTableRecord
100
AcDbTextStyleTableRecord
2
Standard
3
txt
70
0
71
0
40
0
41
1
42
0
50
0
0
STYLE
5
26F
100
AcDbSymbolTableRecord
100
AcDbTextStyleTableRecord
2
iso_b_vert
3
simplex.shx
70
0
71
0
40
0
41
1
42
0
50
0
0
STYLE
5
270
100
AcDbSymbolTableRecord
100
AcDbTextStyleTableRecord
2
DWGDirectTextStyle
3
simplex
70
0
71
0
40
0
41
1
42
0
50
0
0
ENDTAB
0
TABLE
2
DIMSTYLE
5
30f
100
AcDbSymbolTable
100
AcDbDimStyleTable
0
DIMSTYLE
105
27
100
AcDbSymbolTableRecord
100
AcDbDimStyleTableRecord
2
Standard
70
0
3
<>
41
0.18
42
0.0625
44
0.18
140
0.18
147
0.09
73
0
74
0
77
1
271
2
275
0
278
52
280
0
340
11
0
ENDTAB
0
TABLE
2
VIEW
5
310
100
AcDbSymbolTable
0
ENDTAB
0
TABLE
2
UCS
5
311
100
AcDbSymbolTable
0
ENDTAB
0
TABLE
2
APPID
5
312
100
AcDbSymbolTable
0
APPID
5
12
100
AcDbSymbolTableRecord
100
AcDbRegAppTableRecord
2
ACAD
70
0
0
ENDTAB
0
TABLE
2
BLOCK_RECORD
5
313
100
AcDbSymbolTable
0
BLOCK_RECORD
5
1F
100
AcDbSymbolTableRecord
100
AcDbBlockTableRecord
2
*Model_Space
340
0
70
0
0
BLOCK_RECORD
5
1B
100
AcDbSymbolTableRecord
100
AcDbBlockTableRecord
2
*Paper_Space
340
0
70
0
0
BLOCK_RECORD
5
23
100
AcDbSymbolTableRecord
100
AcDbBlockTableRecord
2
*Paper_Space0
340
0
70
0
0
BLOCK_RECORD
5
272
100
AcDbSymbolTableRecord
100
AcDbBlockTableRecord
2
DimnDraft3D1
340
0
70
0
0
BLOCK_RECORD
5
27D
100
AcDbSymbolTableRecord
100
AcDbBlockTableRecord
2
DimnDraft3D2
340
0
70
0
0
BLOCK_RECORD
5
289
100
AcDbSymbolTableRecord
100
AcDbBlockTableRecord
2
DimnDraft3D3
340
0
70
0
0
BLOCK_RECORD
5
294
100
AcDbSymbolTableRecord
100
AcDbBlockTableRecord
2
DimnDraft3D4
340
0
70
0
0
ENDTAB
0
ENDSEC
0
SECTION
2
BLOCKS
0
BLOCK
5
20
100
AcDbEntity
8
0
100
AcDbBlockBegin
2
*Model_Space
70
0
10
0
20
0
30
0
3
*Model_Space
0
ENDBLK
5
21
100
AcDbEntity
8
0
100
AcDbBlockEnd
0
BLOCK
5
1C
100
AcDbEntity
8
0
100
AcDbBlockBegin
2
*Paper_Space
70
0
10
0
20
0
30
0
3
*Paper_Space
0
ENDBLK
5
1D
100
AcDbEntity
8
0
100
AcDbBlockEnd
0
BLOCK
5
24
100
AcDbEntity
8
0
100
AcDbBlockBegin
2
*Paper_Space0
70
0
10
0
20
0
30
0
3
*Paper_Space0
0
ENDBLK
5
25
100
AcDbEntity
8
0
100
AcDbBlockEnd
0
BLOCK
5
27A
100
AcDbEntity
8
0
100
AcDbBlockBegin
2
DimnDraft3D1
70
0
10
0
20
0
30
0
3
DimnDraft3D1
0
MTEXT
5
273
100
AcDbEntity
8
2
62
256
6
ByLayer
370
13
48
1
60
0
100
AcDbMText
10
8.897105
20
59.460561
30
0
210
0
220
0
230
1
1
\W0.6740;20
40
3.175
41
0
44
1.084337
50
0
71
7
72
5
7
iso_b_vert
0
LINE
5
275
100
AcDbEntity
8
2
62
256
6
ByLayer
370
13
48
1
60
0
100
AcDbLine
10
0
20
1.5875
30
0
11
0
21
61.841811
31
0
39
0
210
0
220
0
230
1
0
LINE
5
276
100
AcDbEntity
8
2
62
256
6
ByLayer
370
13
48
1
60
0
100
AcDbLine
10
20
20
31.5875
30
0
11
20
21
61.841811
31
0
39
0
210
0
220
0
230
1
0
LINE
5
277
100
AcDbEntity
8
2
62
256
6
ByLayer
370
13
48
1
60
0
100
AcDbLine
10
0
20
58.666811
30
0
11
20
21
58.666811
31
0
39
0
210
0
220
0
230
1
0
SOLID
5
278
100
AcDbEntity
8
2
62
256
6
ByLayer
370
13
48
1
60
0
100
AcDbTrace
10
0
20
58.666811
30
0
11
3.174998
21
59.084807
31
0
12
3.175002
22
58.248814
32
0
13
0
23
58.666811
33
0
39
0
210
0
220
0
230
1
0
SOLID
5
279
100
AcDbEntity
8
2
62
256
6
ByLayer
370
13
48
1
60
0
100
AcDbTrace
10
20
20
58.666811
30
0
11
16.825002
21
58.248814
31
0
12
16.824998
22
59.084807
32
0
13
20
23
58.666811
33
0
39
0
210
0
220
0
230
1
0
ENDBLK
5
27B
100
AcDbEntity
8
0
100
AcDbBlockEnd
0
BLOCK
5
286
100
AcDbEntity
8
0
100
AcDbBlockBegin
2
DimnDraft3D2
70
0
10
0
20
0
30
0
3
DimnDraft3D2
0
MTEXT
5
27E
100
AcDbEntity
8
SK2
62
256
6
ByLayer
370
13
48
1
60
0
100
AcDbMText
10
53.648386
20
33.095625
30
0
210
0
220
0
230
1
1
\W0.7361;40
40
3.175
41
0
44
1.084337
50
90
71
7
72
5
7
iso_b_vert
0
MTEXT
5
280
100
AcDbEntity
8
SK2
62
256
6
ByLayer
370
13
48
1
60
0
100
AcDbMText
10
53.648386
20
25.97668
30
0
210
0
220
0
230
1
1
%%c
40
3.175
41
0
44
1.084337
50
90
71
7
72
5
7
iso_b_vert
0
LINE
5
281
100
AcDbEntity
8
SK2
62
256
6
ByLayer
370
13
48
1
60
0
100
AcDbLine
10
21.145038
20
10
30
0
11
58.410886
21
10
31
0
39
0
210
0
220
0
230
1
0
LINE
5
282
100
AcDbEntity
8
SK2
62
256
6
ByLayer
370
13
48
1
60
0
100
AcDbLine
10
21.145038
20
50
30
0
11
58.410886
21
50
31
0
39
0
210
0
220
0
230
1
0
LINE
5
283
100
AcDbEntity
8
SK2
62
256
6
ByLayer
370
13
48
1
60
0
100
AcDbLine
10
55.235886
20
10
30
0
11
55.235886
21
50
31
0
39
0
210
0
220
0
230
1
0
SOLID
5
284
100
AcDbEntity
8
SK2
62
256
6
ByLayer
370
13
48
1
60
0
100
AcDbTrace
10
55.235886
20
10
30
0
11
54.81789
21
13.174998
31
0
12
55.653883
22
13.175002
32
0
13
55.235886
23
10
33
0
39
0
210
0
220
0
230
1
0
SOLID
5
285
100
AcDbEntity
8
SK2
62
256
6
ByLayer
370
13
48
1
60
0
100
AcDbTrace
10
55.235886
20
50
30
0
11
55.653883
21
46.825002
31
0
12
54.81789
22
46.824998
32
0
13
55.235886
23
50
33
0
39
0
210
0
220
0
230
1
0
ENDBLK
5
287
100
AcDbEntity
8
0
100
AcDbBlockEnd
0
BLOCK
5
291
100
AcDbEntity
8
0
100
AcDbBlockBegin
2
DimnDraft3D3
70
0
10
0
20
0
30
0
3
DimnDraft3D3
0
MTEXT
5
28A
100
AcDbEntity
8
SK2
62
256
6
ByLayer
370
13
48
1
60
0
100
AcDbMText
10
-32.535779
20
-3.541904
30
0
210
0
220
0
230
1
1
\W0.6217;100
40
3.175
41
0
44
1.084337
50
90
71
7
72
5
7
iso_b_vert
0
MTEXT
5
28B
100
AcDbEntity
8
SK2
62
256
6
ByLayer
370
13
48
1
60
0
100
AcDbMText
10
-32.535779
20
-10.660849
30
0
210
0
220
0
230
1
1
%%c
40
3.175
41
0
44
1.084337
50
90
71
7
72
5
7
iso_b_vert
0
LINE
5
28C
100
AcDbEntity
8
SK2
62
256
6
ByLayer
370
13
48
1
60
0
100
AcDbLine
10
7.617241
20
50
30
0
11
-34.123279
21
50
31
0
39
0
210
0
220
0
230
1
0
LINE
5
28D
100
AcDbEntity
8
SK2
62
256
6
ByLayer
370
13
48
1
60
0
100
AcDbLine
10
-1.9125
20
-50
30
0
11
-34.123279
21
-50
31
0
39
0
210
0
220
0
230
1
0
LINE
5
28E
100
AcDbEntity
8
SK2
62
256
6
ByLayer
370
13
48
1
60
0
100
AcDbLine
10
-30.948279
20
50
30
0
11
-30.948279
21
-50
31
0
39
0
210
0
220
0
230
1
0
SOLID
5
28F
100
AcDbEntity
8
SK2
62
256
6
ByLayer
370
13
48
1
60
0
100
AcDbTrace
10
-30.948279
20
50
30
0
11
-30.530282
21
46.825002
31
0
12
-31.366275
22
46.824998
32
0
13
-30.948279
23
50
33
0
39
0
210
0
220
0
230
1
0
SOLID
5
290
100
AcDbEntity
8
SK2
62
256
6
ByLayer
370
13
48
1
60
0
100
AcDbTrace
10
-30.948279
20
-50
30
0
11
-31.366275
21
-46.825002
31
0
12
-30.530282
22
-46.824998
32
0
13
-30.948279
23
-50
33
0
39
0
210
0
220
0
230
1
0
ENDBLK
5
292
100
AcDbEntity
8
0
100
AcDbBlockEnd
0
BLOCK
5
29B
100
AcDbEntity
8
0
100
AcDbBlockBegin
2
DimnDraft3D4
70
0
10
0
20
0
30
0
3
DimnDraft3D4
0
MTEXT
5
295
100
AcDbEntity
8
SK2
62
256
6
ByLayer
370
13
48
1
60
0
100
AcDbMText
10
40.024236
20
13.897105
30
0
210
0
220
0
230
1
1
\W0.6740;30
40
3.175
41
0
44
1.084337
50
90
71
7
72
5
7
iso_b_vert
0
LINE
5
296
100
AcDbEntity
8
SK2
62
256
6
ByLayer
370
13
48
1
60
0
100
AcDbLine
10
1.5875
20
0
30
0
11
43.992986
21
0
31
0
39
0
210
0
220
0
230
1
0
LINE
5
297
100
AcDbEntity
8
SK2
62
256
6
ByLayer
370
13
48
1
60
0
100
AcDbLine
10
21.5875
20
30
30
0
11
43.992986
21
30
31
0
39
0
210
0
220
0
230
1
0
LINE
5
298
100
AcDbEntity
8
SK2
62
256
6
ByLayer
370
13
48
1
60
0
100
AcDbLine
10
40.817986
20
0
30
0
11
40.817986
21
30
31
0
39
0
210
0
220
0
230
1
0
SOLID
5
299
100
AcDbEntity
8
SK2
62
256
6
ByLayer
370
13
48
1
60
0
100
AcDbTrace
10
40.817986
20
0
30
0
11
40.399989
21
3.174998
31
0
12
41.235982
22
3.175002
32
0
13
40.817986
23
0
33
0
39
0
210
0
220
0
230
1
0
SOLID
5
29A
100
AcDbEntity
8
SK2
62
256
6
ByLayer
370
13
48
1
60
0
100
AcDbTrace
10
40.817986
20
30
30
0
11
41.235982
21
26.825002
31
0
12
40.399989
22
26.824998
32
0
13
40.817986
23
30
33
0
39
0
210
0
220
0
230
1
0
ENDBLK
5
29C
100
AcDbEntity
8
0
100
AcDbBlockEnd
0
ENDSEC
0
SECTION
2
ENTITIES
0
ARC
5
15D
100
AcDbEntity
8
SK1
62
256
6
ByLayer
370
18
48
1
60
0
100
AcDbCircle
39
0
10
-0.8
20
-32.85
30
0
40
0.8
210
0
220
0
230
1
100
AcDbArc
50
180
51
0
0
ARC
5
15E
100
AcDbEntity
8
SK1
62
256
6
ByLayer
370
18
48
1
60
0
100
AcDbCircle
39
0
10
-0.8
20
-25.15
30
0
40
0.8
210
0
220
0
230
1
100
AcDbArc
50
0
51
180
0
ARC
5
15F
100
AcDbEntity
8
1
62
256
6
ByLayer
370
18
48
1
60
0
100
AcDbCircle
39
0
10
-17.325
20
9
30
0
40
1
210
0
220
0
230
-1
100
AcDbArc
50
0
51
90
0
ARC
5
160
100
AcDbEntity
8
SK1
62
256
6
ByLayer
370
18
48
1
60
0
100
AcDbCircle
39
0
10
-0.8
20
25.15
30
0
40
0.8
210
0
220
0
230
1
100
AcDbArc
50
180
51
0
0
ARC
5
161
100
AcDbEntity
8
SK1
62
256
6
ByLayer
370
18
48
1
60
0
100
AcDbCircle
39
0
10
-0.8
20
32.85
30
0
40
0.8
210
0
220
0
230
1
100
AcDbArc
50
0
51
180
0
ARC
5
162
100
AcDbEntity
8
1
62
256
6
ByLayer
370
18
48
1
60
0
100
AcDbCircle
39
0
10
21
20
0
30
0
40
50.0000000087563
210
0
220
0
230
1
100
AcDbArc
50
244.092854
51
246.421822
0
ELLIPSE
5
163
100
AcDbEntity
8
1
62
256
6
ByLayer
370
18
48
1
60
0
100
AcDbEllipse
10
7.986246
20
37.031752
30
0
11
2.49401381161625
21
0.172902016979151
31
0
210
0
220
0
230
1
40
0.620146
41
2.22994870486828
42
3.07752653212857
0
ELLIPSE
5
164
100
AcDbEntity
8
1
62
256
6
ByLayer
370
18
48
1
60
0
100
AcDbEllipse
10
7.986246
20
37.031752
30
0
11
2.4940137811877
21
0.172901994358778
31
0
210
0
220
0
230
1
40
0.620146
41
-2.46495317125637
42
-2.36818179141585
0
ELLIPSE
5
165
100
AcDbEntity
8
1
62
256
6
ByLayer
370
18
48
1
60
0
100
AcDbEllipse
10
7.986246
20
37.031752
30
0
11
2.49401381161461
21
0.17290201697974
31
0
210
0
220
0
230
1
40
0.620146
41
-2.36818180095725
42
-0.0669734558779514
0
ELLIPSE
5
166
100
AcDbEntity
8
1
62
256
6
ByLayer
370
18
48
1
60
0
100
AcDbEllipse
10
7.986232
20
37.031752
30
0
11
2.49402771578289
21
0.172902166986955
31
0
210
0
220
0
230
1
40
0.620144
41
-0.0669730685735546
42
-0.0483902274693552
0
ELLIPSE
5
167
100
AcDbEntity
8
1
62
256
6
ByLayer
370
18
48
1
60
0
100
AcDbEllipse
10
7.986246
20
37.031752
30
0
11
2.49401381161471
21
0.172902016979721
31
0
210
0
220
0
230
1
40
0.620146
41
0.911643948722091
42
2.22994870486778
0
ELLIPSE
5
168
100
AcDbEntity
8
1
62
256
6
ByLayer
370
18
48
1
60
0
100
AcDbEllipse
10
7.986246
20
37.031752
30
0
11
2.49401381161406
21
0.172902016979518
31
0
210
0
220
0
230
1
40
0.620146
41
-0.0483905630957579
42
0.911643948722173
0
ELLIPSE
5
169
100
AcDbEntity
8
1
62
256
6
ByLayer
370
18
48
1
60
0
100
AcDbEllipse
10
-1.036343
20
0
30
0
11
5.85726671158139E-14
21
50.0000000000001
31
0
210
0
220
0
230
1
40
0.008727
41
-2.68942765792491
42
-0.452164995664756
0
ELLIPSE
5
16A
100
AcDbEntity
8
1
62
256
6
ByLayer
370
18
48
1
60
0
100
AcDbEllipse
10
-0.818172
20
0
30
0
11
6.1501300471E-15
21
5.2499999999484
31
0
210
0
220
0
230
1
40
0.008727
41
0
42
0.309844639743284
0
ELLIPSE
5
16B
100
AcDbEntity
8
1
62
256
6
ByLayer
370
18
48
1
60
0
100
AcDbEllipse
10
-14.999999
20
-4E-06
30
0
11
47.6014688643039
21
15.300325716962
31
0
210
0
220
0
230
1
40
1
41
-1.58191563036743
42
-1.55606233164906
0
ELLIPSE
5
16C
100
AcDbEntity
8
1
62
256
6
ByLayer
370
18
48
1
60
0
100
AcDbEllipse
10
21
20
1E-06
30
0
11
45.4245299501501
21
20.8952633542772
31
0
210
0
220
0
230
1
40
1
41
1.5511748030328
42
1.59182295302177
0
ELLIPSE
5
16D
100
AcDbEntity
8
1
62
256
6
ByLayer
370
18
48
1
60
0
100
AcDbEllipse
10
-15.000002
20
-5E-06
30
0
11
15.4764214960724
21
47.5445146110973
31
0
210
0
220
0
230
1
40
1
41
-0.0110324512472711
42
0.0148208451913907
0
ELLIPSE
5
16E
100
AcDbEntity
8
1
62
256
6
ByLayer
370
18
48
1
60
0
100
AcDbEllipse
10
25.352238
20
0.000785
30
0
11
86.6017688997612
21
0.000344036087394249
31
0
210
0
220
0
230
1
40
0.577346
41
1.86374754635162
42
1.8706679566311
0
ELLIPSE
5
16F
100
AcDbEntity
8
1
62
256
6
ByLayer
370
18
48
1
60
0
100
AcDbEllipse
10
-24.054163
20
-0.000133
30
0
11
86.6026700600901
21
5.59726296138989E-05
31
0
210
0
220
0
230
1
40
0.577351
41
1.28521286439061
42
1.29324581703278
0
ELLIPSE
5
170
100
AcDbEntity
8
1
62
256
6
ByLayer
370
18
48
1
60
0
100
AcDbEllipse
10
22.754494
20
0.000176
30
0
11
86.6023716542725
21
6.95324624136009E-05
31
0
210
0
220
0
230
1
40
0.577349
41
1.83255785867769
42
1.84055527607146
0
ELLIPSE
5
171
100
AcDbEntity
8
1
62
256
6
ByLayer
370
18
48
1
60
0
100
AcDbEllipse
10
-21.456135
20
-0.000261
30
0
11
86.6027874492508
21
9.64284147366269E-05
31
0
210
0
220
0
230
1
40
0.577352
41
1.31634147934202
42
1.32430664193948
0
ELLIPSE
5
172
100
AcDbEntity
8
1
62
256
6
ByLayer
370
18
48
1
60
0
100
AcDbEllipse
10
20.156508
20
-1.9E-05
30
0
11
-86.602558122397
21
6.3712692436627E-06
31
0
210
0
220
0
230
1
40
0.57735
41
-1.33996850739975
42
-1.33203417058039
0
ELLIPSE
5
173
100
AcDbEntity
8
1
62
256
6
ByLayer
370
18
48
1
60
0
100
AcDbEllipse
10
-18.858202
20
-0.000668
30
0
11
86.6031615441939
21
0.000218702689409731
31
0
210
0
220
0
230
1
40
0.577354
41
1.34721888471585
42
1.35512538218024
0
ELLIPSE
5
174
100
AcDbEntity
8
1
62
256
6
ByLayer
370
18
48
1
60
0
100
AcDbEllipse
10
17.558332
20
0.000258
30
0
11
86.6023030891281
21
7.84674904246207E-05
31
0
210
0
220
0
230
1
40
0.577349
41
1.77091164311583
42
1.77879179213256
0
ELLIPSE
5
175
100
AcDbEntity
8
1
62
256
6
ByLayer
370
18
48
1
60
0
100
AcDbEllipse
10
-16.259621
20
0.000746
30
0
11
-86.6018597998701
21
0.000209998974304137
31
0
210
0
220
0
230
1
40
0.577346
41
-1.76370446689428
42
-1.75584789258513
0
ELLIPSE
5
176
100
AcDbEntity
8
1
62
256
6
ByLayer
370
18
48
1
60
0
100
AcDbEllipse
10
14.960606
20
-0.000852
30
0
11
-86.6033117804697
21
0.000220203365818256
31
0
210
0
220
0
230
1
40
0.577355
41
-1.40119814682554
42
-1.3933639426971
0
ELLIPSE
5
177
100
AcDbEntity
8
1
62
256
6
ByLayer
370
18
48
1
60
0
100
AcDbEllipse
10
-13.661845
20
-0.000194
30
0
11
86.602715105959
21
4.58473880781427E-05
31
0
210
0
220
0
230
1
40
0.577351
41
1.40836580541434
42
1.41618040898167
0
ELLIPSE
5
178
100
AcDbEntity
8
1
62
256
6
ByLayer
370
18
48
1
60
0
100
AcDbEllipse
10
12.362234
20
0.000151
30
0
11
86.6024051545907
21
3.27968472803784E-05
31
0
210
0
220
0
230
1
40
0.577349
41
1.71002868446918
42
1.71782505602224
0
ELLIPSE
5
179
100
AcDbEntity
8
1
62
256
6
ByLayer
370
18
48
1
60
0
100
AcDbEllipse
10
-11.063721
20
-2.7E-05
30
0
11
86.6025647340638
21
5.31072642020984E-06
31
0
210
0
220
0
230
1
40
0.57735
41
1.43869577136687
42
1.44647626485103
0
ELLIPSE
5
17A
100
AcDbEntity
8
1
62
256
6
ByLayer
370
18
48
1
60
0
100
AcDbEllipse
10
9.764084
20
0.000572
30
0
11
86.6020355396316
21
9.67362556996833E-05
31
0
210
0
220
0
230
1
40
0.577347
41
1.67979410217454
42
1.68756020913512
0
ELLIPSE
5
17B
100
AcDbEntity
8
1
62
256
6
ByLayer
370
18
48
1
60
0
100
AcDbEllipse
10
-8.465677
20
-0.000221
30
0
11
86.6027346825267
21
3.27209307326867E-05
31
0
210
0
220
0
230
1
40
0.577352
41
1.46890306139161
42
1.47665689612421
0
ELLIPSE
5
17C
100
AcDbEntity
8
1
62
256
6
ByLayer
370
18
48
1
60
0
100
AcDbEllipse
10
7.166078
20
0.000288
30
0
11
86.6022882585577
21
3.56151911073534E-05
31
0
210
0
220
0
230
1
40
0.577349
41
1.64966095264679
42
1.65740409777196
0
ELLIPSE
5
17D
100
AcDbEntity
8
1
62
256
6
ByLayer
370
18
48
1
60
0
100
AcDbEllipse
10
-5.867548
20
0.000127
30
0
11
-86.6024296502377
21
1.27558937234914E-05
31
0
210
0
220
0
230
1
40
0.57735
41
-1.64257439821921
42
-1.63483992433647
0
ELLIPSE
5
17E
100
AcDbEntity
8
1
62
256
6
ByLayer
370
18
48
1
60
0
100
AcDbEllipse
10
4.568041
20
3.2E-05
30
0
11
86.602512203041
21
2.21964967398698E-06
31
0
210
0
220
0
230
1
40
0.57735
41
1.6195990518931
42
1.62732640435554
0
ELLIPSE
5
17F
100
AcDbEntity
8
1
62
256
6
ByLayer
370
18
48
1
60
0
100
AcDbEllipse
10
-3.269524
20
-0.000585
30
0
11
86.603048335185
21
3.28855064979036E-05
31
0
210
0
220
0
230
1
40
0.577354
41
1.52906718772378
42
1.53678931399338
0
ELLIPSE
5
180
100
AcDbEntity
8
1
62
256
6
ByLayer
370
18
48
1
60
0
100
AcDbEllipse
10
1.969996
20
-0.000717
30
0
11
-86.6031620480717
21
2.4547179118996E-05
31
0
210
0
220
0
230
1
40
0.577354
41
-1.55201148224062
42
-1.54429292336875
0
ELLIPSE
5
181
100
AcDbEntity
8
1
62
256
6
ByLayer
370
18
48
1
60
0
100
AcDbEllipse
10
-0.671416
20
-0.000399
30
0
11
86.602886353576
21
4.84903893693024E-06
31
0
210
0
220
0
230
1
40
0.577353
41
1.55907939217577
42
1.56679623512582
0
ELLIPSE
5
182
100
AcDbEntity
8
1
62
256
6
ByLayer
370
18
48
1
60
0
100
AcDbEllipse
10
-0.671416
20
0.0004
30
0
11
-86.6028864052478
21
4.84979577947069E-06
31
0
210
0
220
0
230
1
40
0.577353
41
1.57479641847672
42
1.58251326142218
0
ELLIPSE
5
183
100
AcDbEntity
8
1
62
256
6
ByLayer
370
18
48
1
60
0
100
AcDbEllipse
10
1.969997
20
0.000746
30
0
11
86.6031870482212
21
2.54863523249869E-05
31
0
210
0
220
0
230
1
40
0.577355
41
-1.59729974135875
42
-1.58958118471399
0
ELLIPSE
5
184
100
AcDbEntity
8
1
62
256
6
ByLayer
370
18
48
1
60
0
100
AcDbEllipse
10
-3.269525
20
0.000588
30
0
11
-86.6030508798434
21
3.30518712389696E-05
31
0
210
0
220
0
230
1
40
0.577354
41
1.6048033419269
42
1.61252546796993
0
ELLIPSE
5
185
100
AcDbEntity
8
1
62
256
6
ByLayer
370
18
48
1
60
0
100
AcDbEllipse
10
4.567994
20
-0.000541
30
0
11
-86.6020698162308
21
4.26309562576589E-05
31
0
210
0
220
0
230
1
40
0.577347
41
1.5142667700084
42
1.52199416183403
0
ELLIPSE
5
186
100
AcDbEntity
8
1
62
256
6
ByLayer
370
18
48
1
60
0
100
AcDbEllipse
10
-5.867547
20
-0.000131
30
0
11
86.6024258159525
21
1.32022100994389E-05
31
0
210
0
220
0
230
1
40
0.57735
41
-1.5067527353662
42
-1.49901826114259
0
ELLIPSE
5
187
100
AcDbEntity
8
1
62
256
6
ByLayer
370
18
48
1
60
0
100
AcDbEllipse
10
7.166248
20
0.000891
30
0
11
86.6033195714017
21
0.000110267452361429
31
0
210
0
220
0
230
1
40
0.577355
41
-1.65740599541717
42
-1.64966294187805
0
ELLIPSE
5
188
100
AcDbEntity
8
1
62
256
6
ByLayer
370
18
48
1
60
0
100
AcDbEllipse
10
-8.465564
20
-0.000439
30
0
11
86.6021551769099
21
6.41011139332269E-05
31
0
210
0
220
0
230
1
40
0.577348
41
-1.4766582127586
42
-1.46890432663243
0
ELLIPSE
5
189
100
AcDbEntity
8
1
62
256
6
ByLayer
370
18
48
1
60
0
100
AcDbEllipse
10
9.764212
20
8.4E-05
30
0
11
86.6026143782792
21
1.4071734076584E-05
31
0
210
0
220
0
230
1
40
0.577351
41
-1.68756166095739
42
-1.67979560525417
0
ELLIPSE
5
18A
100
AcDbEntity
8
1
62
256
6
ByLayer
370
18
48
1
60
0
100
AcDbEllipse
10
-11.063733
20
8.2E-05
30
0
11
-86.6026131609961
21
1.53784475466059E-05
31
0
210
0
220
0
230
1
40
0.577351
41
1.69511652228346
42
1.70289701148134
0
ELLIPSE
5
18B
100
AcDbEntity
8
1
62
256
6
ByLayer
370
18
48
1
60
0
100
AcDbEllipse
10
12.362404
20
0.00053
30
0
11
86.6030132054003
21
0.000113372743028261
31
0
210
0
220
0
230
1
40
0.577353
41
-1.71782698131233
42
-1.71003066340041
0
ELLIPSE
5
18C
100
AcDbEntity
8
1
62
256
6
ByLayer
370
18
48
1
60
0
100
AcDbEllipse
10
-13.661713
20
-0.000284
30
0
11
86.6022852427404
21
6.71804475600607E-05
31
0
210
0
220
0
230
1
40
0.577349
41
-1.41618193338827
42
-1.40836729197122
0
ELLIPSE
5
18D
100
AcDbEntity
8
1
62
256
6
ByLayer
370
18
48
1
60
0
100
AcDbEllipse
10
14.960331
20
-5.8E-05
30
0
11
-86.6024877052549
21
1.50773656445639E-05
31
0
210
0
220
0
230
1
40
0.57735
41
1.3933670403677
42
1.40120131689428
0
ELLIPSE
5
18E
100
AcDbEntity
8
1
62
256
6
ByLayer
370
18
48
1
60
0
100
AcDbEllipse
10
-16.259843
20
-7.4E-05
30
0
11
86.6024726140608
21
2.0833515384972E-05
31
0
210
0
220
0
230
1
40
0.57735
41
-1.38574221196148
42
-1.37788569135209
0
ELLIPSE
5
18F
100
AcDbEntity
8
1
62
256
6
ByLayer
370
18
48
1
60
0
100
AcDbEllipse
10
17.558182
20
-0.000675
30
0
11
-86.6019191292111
21
0.000205393562849897
31
0
210
0
220
0
230
1
40
0.577347
41
1.36280253834276
42
1.37068272091525
0
ELLIPSE
5
190
100
AcDbEntity
8
1
62
256
6
ByLayer
370
18
48
1
60
0
100
AcDbEllipse
10
-18.858131
20
0.000485
30
0
11
-86.6029906737319
21
0.000158057561490839
31
0
210
0
220
0
230
1
40
0.577353
41
1.78646645076926
42
1.79437296311183
0
ELLIPSE
5
191
100
AcDbEntity
8
1
62
256
6
ByLayer
370
18
48
1
60
0
100
AcDbEllipse
10
20.156756
20
0.000618
30
0
11
86.6031201711131
21
0.000215341709914515
31
0
210
0
220
0
230
1
40
0.577354
41
-1.80956124493036
42
-1.80162695696037
0
ELLIPSE
5
192
100
AcDbEntity
8
1
62
256
6
ByLayer
370
18
48
1
60
0
100
AcDbEllipse
10
-21.455645
20
-0.000844
30
0
11
86.6017390343407
21
0.000314422401164136
31
0
210
0
220
0
230
1
40
0.577346
41
-1.32431216580132
42
-1.31634691235839
0
ELLIPSE
5
193
100
AcDbEntity
8
1
62
256
6
ByLayer
370
18
48
1
60
0
100
AcDbEllipse
10
22.754636
20
0.000125
30
0
11
86.6026605306556
21
4.94316548931569E-05
31
0
210
0
220
0
230
1
40
0.577351
41
-1.84055685289483
42
-1.83255946044455
0
ELLIPSE
5
194
100
AcDbEntity
8
1
62
256
6
ByLayer
370
18
48
1
60
0
100
AcDbEllipse
10
-24.054113
20
3.1E-05
30
0
11
-86.6025712858974
21
1.37683842224193E-05
31
0
210
0
220
0
230
1
40
0.57735
41
1.84834627133506
42
1.85637923248955
0
ELLIPSE
5
195
100
AcDbEntity
8
1
62
256
6
ByLayer
370
18
48
1
60
0
100
AcDbEllipse
10
25.352264
20
-0.000735
30
0
11
-86.6018174543802
21
0.000322424935872798
31
0
210
0
220
0
230
1
40
0.577347
41
1.27092441093087
42
1.27784481763412
0
ELLIPSE
5
196
100
AcDbEntity
8
1
62
256
6
ByLayer
370
18
48
1
60
0
100
AcDbEllipse
10
-0.818172
20
0
30
0
11
6.15013004725075E-15
21
5.25000000007709
31
0
210
0
220
0
230
1
40
0.008727
41
2.83174801385063
42
3.14159265358978
0
ELLIPSE
5
197
100
AcDbEntity
8
1
62
256
6
ByLayer
370
18
48
1
60
0
100
AcDbEllipse
10
-0.818172
20
0
30
0
11
6.15013004716045E-15
21
5.25
31
0
210
0
220
0
230
1
40
0.008727
41
3.14159265358978
42
-2.80647726325742E-14
0
POINT
5
6C
100
AcDbEntity
8
80
62
256
6
ByLayer
370
18
48
1
60
0
100
AcDbPoint
10
0
20
0
30
0
39
0
210
0
220
0
230
1
50
360
0
POINT
5
6E
100
AcDbEntity
8
81
62
256
6
ByLayer
370
18
48
1
60
0
100
AcDbPoint
10
20
20
30
30
0
39
0
210
0
220
0
230
1
50
360
0
SPLINE
5
198
100
AcDbEntity
8
1
62
256
6
ByLayer
370
18
48
1
60
0
100
AcDbSpline
70
4
71
3
72
26
73
22
40
0
40
0
40
0
40
0
40
0.0521845731691931
40
0.105892639574031
40
0.15807441947889
40
0.211748560614315
40
0.264330778648061
40
0.318400274340864
40
0.371650537887361
40
0.426424111365568
40
0.480024803991116
40
0.535184816472451
40
0.588681427988878
40
0.643749144158358
40
0.696898208308528
40
0.751606974708438
40
0.804440173473159
40
0.858815770074768
40
0.91147494015279
40
0.965665077407293
40
1
40
1
40
1
40
1
41
1
10
4.175
20
50
30
0
41
1
10
4.17517704654384
20
49.9999685619183
30
0
41
1
10
4.19818574255903
20
49.998859582302
30
0
41
1
10
4.30247990708433
20
49.9938056334649
30
0
41
1
10
4.47434520583601
20
49.9859709521013
30
0
41
1
10
4.70621279656409
20
49.9763037046828
30
0
41
1
10
4.9958815248342
20
49.9657110340299
30
0
41
1
10
5.33176640182487
20
49.955483093857
30
0
41
1
10
5.71034056416061
20
49.9466201768106
30
0
41
1
10
6.11566947392944
20
49.9402690079364
30
0
41
1
10
6.54226168712456
20
49.9371037034875
30
0
41
1
10
6.97024442489034
20
49.937570751205
30
0
41
1
10
7.39417958305596
20
49.9416357619704
30
0
41
1
10
7.79338300949326
20
49.9487573931092
30
0
41
1
10
8.1639680314472
20
49.9582255450647
30
0
41
1
10
8.48813240385392
20
49.9687762381941
30
0
41
1
10
8.76349819681754
20
49.9793951698341
30
0
41
1
10
8.97733270832381
20
49.9887004212268
30
0
41
1
10
9.1281608906542
20
49.9958132544364
30
0
41
1
10
9.1999860222037
20
49.9993765767042
30
0
41
1
10
9.21251222901963
20
49.9999916297908
30
0
41
1
10
9.2125491272942
20
50
30
0
0
SPLINE
5
199
100
AcDbEntity
8
1
62
256
6
ByLayer
370
18
48
1
60
0
100
AcDbSpline
70
4
71
3
72
16
73
12
40
0
40
0
40
0
40
0
40
0.112045827340847
40
0.224090065402649
40
0.336143971744677
40
0.448197596839529
40
0.560109023454915
40
0.672020851644504
40
0.783956626911362
40
0.895892713956598
40
1
40
1
40
1
40
1
41
1
10
7.79141276166664
20
-36.6488047528038
30
0
41
1
10
7.93325239379355
20
-36.6486100891054
30
0
41
1
10
8.21236154726069
20
-36.6324504311536
30
0
41
1
10
8.62301869387641
20
-36.5607406777656
30
0
41
1
10
9.00860538807348
20
-36.4420299915402
30
0
41
1
10
9.36043628467872
20
-36.2808577776855
30
0
41
1
10
9.66657918893857
20
-36.0796631704265
30
0
41
1
10
9.92056970121159
20
-35.8450113102113
30
0
41
1
10
10.1130171934849
20
-35.5817877173708
30
0
41
1
10
10.2380594306574
20
-35.3038020517346
30
0
41
1
10
10.2765923001152
20
-35.1136719784027
30
0
41
1
10
10.2852854133425
20
-35.0199264771518
30
0
0
SPLINE
5
19A
100
AcDbEntity
8
1
62
256
6
ByLayer
370
18
48
1
60
0
100
AcDbSpline
70
4
71
3
72
13
73
9
40
0
40
0
40
0
40
0
40
0.0043756214828937
40
0.24408443467244
40
0.432101117025558
40
0.620384228762488
40
0.809830529206711
40
1
40
1
40
1
40
1
41
1
10
17.325
20
50
30
0
41
1
10
17.3229221659377
20
50.0000000040225
30
0
41
1
10
17.207063342125
20
49.9997591078469
30
0
41
1
10
17.002075621316
20
49.9755788753231
30
0
41
1
10
16.7337377902481
20
49.881476514324
30
0
41
1
10
16.5244900379685
20
49.746418942864
30
0
41
1
10
16.3680038417768
20
49.5612390422888
30
0
41
1
10
16.3299296987994
20
49.4038925701774
30
0
41
1
10
16.325
20
49.3166666666667
30
0
0
SPLINE
5
19B
100
AcDbEntity
8
1
62
256
6
ByLayer
370
18
48
1
60
0
100
AcDbSpline
70
4
71
3
72
11
73
7
40
0
40
0
40
0
40
0
40
0.31962198717688
40
0.638844258836628
40
0.968050929535668
40
1
40
1
40
1
40
1
41
1
10
0.343278579257489
20
47.8697231381469
30
0
41
1
10
0.363910479560499
20
47.8734324905662
30
0
41
1
10
0.398985725227952
20
47.8821495832903
30
0
41
1
10
0.43511008409001
20
47.9002026545605
30
0
41
1
10
0.444843200265832
20
47.9144251433904
30
0
41
1
10
0.445276811613361
20
47.9219445450295
30
0
41
1
10
0.445278520427707
20
47.9226113063283
30
0
0
SPLINE
5
19C
100
AcDbEntity
8
1
62
256
6
ByLayer
370
18
48
1
60
0
100
AcDbSpline
70
4
71
3
72
11
73
7
40
0
40
0
40
0
40
0
40
0.320181066170426
40
0.640042771350025
40
0.967807089015829
40
1
40
1
40
1
40
1
41
1
10
0.343278579257488
20
48.29676905208
30
0
41
1
10
0.363880661914456
20
48.3000530560196
30
0
41
1
10
0.39892488855579
20
48.3077875044351
30
0
41
1
10
0.43508938551692
20
48.3238135855978
30
0
41
1
10
0.444839899420275
20
48.3364529422909
30
0
41
1
10
0.445276793927806
20
48.3431166662026
30
0
41
1
10
0.44527852193004
20
48.3437140693649
30
0
0
SPLINE
5
19D
100
AcDbEntity
8
1
62
256
6
ByLayer
370
18
48
1
60
0
100
AcDbSpline
70
4
71
3
72
11
73
7
40
0
40
0
40
0
40
0
40
0.3206738503098
40
0.641099301513944
40
0.967620445323697
40
1
40
1
40
1
40
1
41
1
10
0.343278579257491
20
48.6738678185438
30
0
41
1
10
0.363854518249558
20
48.6767406184096
30
0
41
1
10
0.398871561642766
20
48.6835188197366
30
0
41
1
10
0.435072110167961
20
48.6975682581296
30
0
41
1
10
0.444837367459499
20
48.7086567894593
30
0
41
1
10
0.445276780400177
20
48.714487703946
30
0
41
1
10
0.445278523293882
20
48.7150150370002
30
0
0
SPLINE
5
19E
100
AcDbEntity
8
1
62
256
6
ByLayer
370
18
48
1
60
0
100
AcDbSpline
70
4
71
3
72
11
73
7
40
0
40
0
40
0
40
0
40
0.32110126722185
40
0.642015892100737
40
0.967476966886474
40
1
40
1
40
1
40
1
41
1
10
0.343278579257489
20
49.0021725637159
30
0
41
1
10
0.363831874640457
20
49.0046461582378
30
0
41
1
10
0.39882537175148
20
49.0104904981843
30
0
41
1
10
0.435057718691558
20
49.0226058852719
30
0
41
1
10
0.444835417086071
20
49.0321709812389
30
0
41
1
10
0.445276770103689
20
49.0371885368963
30
0
41
1
10
0.445278524502386
20
49.0376454920543
30
0
0
SPLINE
5
19F
100
AcDbEntity
8
1
62
256
6
ByLayer
370
18
48
1
60
0
100
AcDbSpline
70
4
71
3
72
11
73
7
40
0
40
0
40
0
40
0
40
0.321464150209407
40
0.642794378747468
40
0.967365270646707
40
1
40
1
40
1
40
1
41
1
10
0.343278579257488
20
49.282658446063
30
0
41
1
10
0.363812586415604
20
49.2847428954874
30
0
41
1
10
0.398786009992315
20
49.2896721386127
30
0
41
1
10
0.435045773204877
20
49.2998891006286
30
0
41
1
10
0.444833896371932
20
49.3079536994837
30
0
41
1
10
0.445276762293787
20
49.3121742251948
30
0
41
1
10
0.445278525546052
20
49.3125607472898
30
0
0
SPLINE
5
1A0
100
AcDbEntity
8
1
62
256
6
ByLayer
370
18
48
1
60
0
100
AcDbSpline
70
4
71
3
72
11
73
7
40
0
40
0
40
0
40
0
40
0.321763222442443
40
0.643436356143899
40
0.967276194569559
40
1
40
1
40
1
40
1
41
1
10
0.343278579257489
20
49.5161380870764
30
0
41
1
10
0.363796534535504
20
49.517841679422
30
0
41
1
10
0.398753222944633
20
49.5218712820102
30
0
41
1
10
0.435035921028844
20
49.5302191086375
30
0
41
1
10
0.4448326830319
20
49.5368020706978
30
0
41
1
10
0.445276756375602
20
49.5402390126534
30
0
41
1
10
0.445278526419971
20
49.540555183754
30
0
0
SPLINE
5
1A1
100
AcDbEntity
8
1
62
256
6
ByLayer
370
18
48
1
60
0
100
AcDbSpline
70
4
71
3
72
11
73
7
40
0
40
0
40
0
40
0
40
0.321999085563511
40
0.643943153679934
40
0.967202467865661
40
1
40
1
40
1
40
1
41
1
10
0.343278579257489
20
49.7032739224041
30
0
41
1
10
0.363783622775993
20
49.7046033053755
30
0
41
1
10
0.398726806167183
20
49.7077456634314
30
0
41
1
10
0.435027882161621
20
49.7142478026553
30
0
41
1
10
0.444831680022173
20
49.7193642070812
30
0
41
1
10
0.445276751880462
20
49.7220283191809
30
0
41
1
10
0.445278527121968
20
49.7222742711062
30
0
0
SPLINE
5
1A2
100
AcDbEntity
8
1
62
256
6
ByLayer
370
18
48
1
60
0
100
AcDbSpline
70
4
71
3
72
11
73
7
40
0
40
0
40
0
40
0
40
0.322172211439675
40
0.64431581785114
40
0.967138459046342
40
1
40
1
40
1
40
1
41
1
10
0.34327857925749
20
49.844587932419
30
0
41
1
10
0.363773775558918
20
49.8455482159456
30
0
41
1
10
0.398706599217515
20
49.8478128578115
30
0
41
1
10
0.435021439721755
20
49.8524872979347
30
0
41
1
10
0.444830812187178
20
49.8561486731867
30
0
41
1
10
0.445276748448969
20
49.8580481651617
30
0
41
1
10
0.445278527651359
20
49.8582240138778
30
0
0
SPLINE
5
1A3
100
AcDbEntity
8
1
62
256
6
ByLayer
370
18
48
1
60
0
100
AcDbSpline
70
4
71
3
72
11
73
7
40
0
40
0
40
0
40
0
40
0.322282936140408
40
0.644555099461527
40
0.967079987310684
40
1
40
1
40
1
40
1
41
1
10
0.343278579257488
20
49.9404690977144
30
0
41
1
10
0.363766936315704
20
49.9410639308149
30
0
41
1
10
0.398692481904767
20
49.9424576614638
30
0
41
1
10
0.435016432802422
20
49.9453172157737
30
0
41
1
10
0.444830023754619
20
49.9475317117192
30
0
41
1
10
0.445276745818911
20
49.9486723597284
30
0
41
1
10
0.445278528008111
20
49.9487781572778
30
0
0
SPLINE
5
1A4
100
AcDbEntity
8
1
62
256
6
ByLayer
370
18
48
1
60
0
100
AcDbSpline
70
4
71
3
72
11
73
7
40
0
40
0
40
0
40
0
40
0.322331455478577
40
0.644661444211367
40
0.967024186836478
40
1
40
1
40
1
40
1
41
1
10
0.343278579257489
20
49.9911788343392
30
0
41
1
10
0.363763066301644
20
49.9914104589874
30
0
41
1
10
0.398684371578333
20
49.991937461095
30
0
41
1
10
0.435012751336458
20
49.9929899662966
30
0
41
1
10
0.444829276535752
20
49.9937624737337
30
0
41
1
10
0.445276743816774
20
49.9941476968614
30
0
41
1
10
0.445278528192295
20
49.9941833977484
30
0
0
SPLINE
5
1A5
100
AcDbEntity
8
1
62
256
6
ByLayer
370
18
48
1
60
0
100
AcDbSpline
70
4
71
3
72
11
73
7
40
0
40
0
40
0
40
0
40
0.322317067511781
40
0.644633418961848
40
0.966968508343284
40
1
40
1
40
1
40
1
41
1
10
0.343278579257491
20
-49.9965679047384
30
0
41
1
10
0.363762153348577
20
-49.9964311491352
30
0
41
1
10
0.398682235854847
20
-49.9960786252469
30
0
41
1
10
0.43501030292263
20
-49.9952969912153
30
0
41
1
10
0.444828536710027
20
-49.9946052043547
30
0
41
1
10
0.445276742332019
20
-49.9942235336519
30
0
41
1
10
0.445278528202455
20
-49.9941878004707
30
0
0
SPLINE
5
1A6
100
AcDbEntity
8
1
62
256
6
ByLayer
370
18
48
1
60
0
100
AcDbSpline
70
4
71
3
72
11
73
7
40
0
40
0
40
0
40
0
40
0.322240147407106
40
0.644471753454201
40
0.966914315641809
40
1
40
1
40
1
40
1
41
1
10
0.343278579257494
20
-49.9564741530088
30
0
41
1
10
0.363764222340418
20
-49.9559745426621
30
0
41
1
10
0.398686132681143
20
-49.9547559595462
30
0
41
1
10
0.435009150941611
20
-49.9521683534069
30
0
41
1
10
0.444827822521446
20
-49.9500347681468
30
0
41
1
10
0.4452767414029
20
-49.9488975485505
30
0
41
1
10
0.445278528037615
20
-49.9487912552934
30
0
0
SPLINE
5
1A7
100
AcDbEntity
8
1
62
256
6
ByLayer
370
18
48
1
60
0
100
AcDbSpline
70
4
71
3
72
11
73
7
40
0
40
0
40
0
40
0
40
0.32210073260971
40
0.644176584398459
40
0.966861410121718
40
1
40
1
40
1
40
1
41
1
10
0.343278579257495
20
-49.8712524140647
30
0
41
1
10
0.363769245442438
20
-49.8703880630505
30
0
41
1
10
0.398696000325673
20
-49.8682999117163
30
0
41
1
10
0.435009273767567
20
-49.863899582218
30
0
41
1
10
0.444827131518078
20
-49.8603194987718
30
0
41
1
10
0.445276741069162
20
-49.8584231861865
30
0
41
1
10
0.44527852769821
20
-49.8582459092187
30
0
0
SPLINE
5
1A8
100
AcDbEntity
8
1
62
256
6
ByLayer
370
18
48
1
60
0
100
AcDbSpline
70
4
71
3
72
11
73
7
40
0
40
0
40
0
40
0
40
0.321898428721419
40
0.64374707690537
40
0.966811705101809
40
1
40
1
40
1
40
1
41
1
10
0.343278579257497
20
-49.7406707322536
30
0
41
1
10
0.363777251049321
20
-49.739438358249
30
0
41
1
10
0.398711896664943
20
-49.7364745274391
30
0
41
1
10
0.435010746614322
20
-49.7302497819096
30
0
41
1
10
0.444826489466046
20
-49.7252152464231
30
0
41
1
10
0.445276741477594
20
-49.7225539355786
30
0
41
1
10
0.445278527182561
20
-49.7223051343568
30
0
0
SPLINE
5
1A9
100
AcDbEntity
8
1
62
256
6
ByLayer
370
18
48
1
60
0
100
AcDbSpline
70
4
71
3
72
11
73
7
40
0
40
0
40
0
40
0
40
0.321632690692993
40
0.643182070255176
40
0.966768375171821
40
1
40
1
40
1
40
1
41
1
10
0.343278579257499
20
-49.5643705946276
30
0
41
1
10
0.363788284877423
20
-49.5627654707939
30
0
41
1
10
0.398733915891712
20
-49.55891715674
30
0
41
1
10
0.435013693569599
20
-49.5508511818077
30
0
41
1
10
0.444825938989589
20
-49.5443508695378
30
0
41
1
10
0.445276742855451
20
-49.5409162152591
30
0
41
1
10
0.445278526488633
20
-49.540595255322
30
0
0
SPLINE
5
1AA
100
AcDbEntity
8
1
62
256
6
ByLayer
370
18
48
1
60
0
100
AcDbSpline
70
4
71
3
72
11
73
7
40
0
40
0
40
0
40
0
40
0.321302822541302
40
0.642480077843846
40
0.966735967178014
40
1
40
1
40
1
40
1
41
1
10
0.3432785792575
20
-49.3418619428645
30
0
41
1
10
0.363802410920045
20
-49.3398778272982
30
0
41
1
10
0.398762190663741
20
-49.3351334013361
30
0
41
1
10
0.435018291821548
20
-49.3252039995104
30
0
41
1
10
0.44482554103326
20
-49.3172230456848
30
0
41
1
10
0.445276745514576
20
-49.3130041498263
30
0
41
1
10
0.445278525614329
20
-49.3126103389967
30
0
0
SPLINE
5
1AB
100
AcDbEntity
8
1
62
256
6
ByLayer
370
18
48
1
60
0
100
AcDbSpline
70
4
71
3
72
11
73
7
40
0
40
0
40
0
40
0
40
0.320907977985864
40
0.641639289219067
40
0.966720560524821
40
1
40
1
40
1
40
1
41
1
10
0.343278579257497
20
-49.0725162136181
30
0
41
1
10
0.363819712820515
20
-49.0701452539351
30
0
41
1
10
0.398796895207228
20
-49.0644900833411
30
0
41
1
10
0.435024777760336
20
-49.0526693152481
30
0
41
1
10
0.444825376976522
20
-49.0431890879642
30
0
41
1
10
0.445276749857936
20
-49.0381723484723
30
0
41
1
10
0.445278524557996
20
-49.0377049888007
30
0
0
SPLINE
5
1AC
100
AcDbEntity
8
1
62
256
6
ByLayer
370
18
48
1
60
0
100
AcDbSpline
70
4
71
3
72
11
73
7
40
0
40
0
40
0
40
0
40
0.320447162412457
40
0.640657575103668
40
0.966729985759519
40
1
40
1
40
1
40
1
41
1
10
0.3432785792575
20
-48.75555717129
30
0
41
1
10
0.363840295731658
20
-48.7527897809402
30
0
41
1
10
0.398838249538782
20
-48.746205996496
30
0
41
1
10
0.435033455298915
20
-48.7324597144102
30
0
41
1
10
0.444825551521472
20
-48.7214575217382
30
0
41
1
10
0.445276756389333
20
-48.7156264389748
30
0
41
1
10
0.445278523319211
20
-48.7150848980976
30
0
0
SPLINE
5
1AD
100
AcDbEntity
8
1
62
256
6
ByLayer
370
18
48
1
60
0
100
AcDbSpline
70
4
71
3
72
11
73
7
40
0
40
0
40
0
40
0
40
0.31991923676565
40
0.639532496725366
40
0.966774114087317
40
1
40
1
40
1
40
1
41
1
10
0.343278579257496
20
-48.3900492108661
30
0
41
1
10
0.363864288758639
20
-48.3868739125788
30
0
41
1
10
0.398886525038358
20
-48.3793401140823
30
0
41
1
10
0.435044706899348
20
-48.3636273671988
30
0
41
1
10
0.444826196524975
20
-48.3510760879645
30
0
41
1
10
0.445276765727471
20
-48.3444110217918
30
0
41
1
10
0.445278521900016
20
-48.3437948288589
30
0
0
SPLINE
5
1AE
100
AcDbEntity
8
1
62
256
6
ByLayer
370
18
48
1
60
0
100
AcDbSpline
70
4
71
3
72
11
73
7
40
0
40
0
40
0
40
0
40
0.319322924229933
40
0.638261321330908
40
0.966865235283592
40
1
40
1
40
1
40
1
41
1
10
0.343278579257501
20
-47.9748827010256
30
0
41
1
10
0.363891848119715
20
-47.971285931271
30
0
41
1
10
0.398942051696198
20
-47.9627768192974
30
0
41
1
10
0.43505900797833
20
-47.9450491044899
30
0
41
1
10
0.444827476013363
20
-47.930916728811
30
0
41
1
10
0.44527677862621
20
-47.9233945978949
30
0
41
1
10
0.445278520306785
20
-47.9227035712097
30
0
0
SPLINE
5
1AF
100
AcDbEntity
8
1
62
256
6
ByLayer
370
18
48
1
60
0
100
AcDbSpline
70
4
71
3
72
17
73
13
40
0
40
0
40
0
40
0
40
0.046323079740226
40
0.148537874181119
40
0.250754674345799
40
0.353094164341719
40
0.455436601111629
40
0.558350298772782
40
0.661265335849198
40
0.764690974892918
40
0.868115556329808
40
1
40
1
40
1
40
1
41
1
10
5.28600114199352
20
-34.7830082956825
30
0
41
1
10
5.28182691687882
20
-34.8284854248432
30
0
41
1
10
5.27615978014461
20
-34.9737021501056
30
0
41
1
10
5.30919884927696
20
-35.2180045801559
30
0
41
1
10
5.41793446056354
20
-35.5053442442958
30
0
41
1
10
5.59447106304773
20
-35.7733499427098
30
0
41
1
10
5.83163042749087
20
-36.0162572732918
30
0
41
1
10
6.12525950516571
20
-36.2264588718039
30
0
41
1
10
6.46595539297024
20
-36.4002140664607
30
0
41
1
10
6.84513583947918
20
-36.531084643892
30
0
41
1
10
7.28983869981308
20
-36.6252226814794
30
0
41
1
10
7.60844817950968
20
-36.6485905295268
30
0
41
1
10
7.79141276166664
20
-36.6488047528038
30
0
0
SPLINE
5
1B0
100
AcDbEntity
8
1
62
256
6
ByLayer
370
18
48
1
60
0
100
AcDbSpline
70
4
71
2
72
6
73
3
40
0
40
0
40
0
40
1
40
1
40
1
41
1
10
10.2852854133425
20
-35.0199264771518
30
0
41
1
10
10.290851859688
20
-34.9483895521417
30
0
41
1
10
10.2903619803242
20
-34.8765531486357
30
0
0
SPLINE
5
1B1
100
AcDbEntity
8
1
62
256
6
ByLayer
370
18
48
1
60
0
100
AcDbSpline
70
4
71
3
72
26
73
22
40
0
40
0
40
0
40
0
40
0.032760614395748
40
0.0877995444680804
40
0.142838484000653
40
0.197883761582588
40
0.25292903564778
40
0.307974082870766
40
0.363019265184903
40
0.418072961111168
40
0.473127130591041
40
0.528241950527489
40
0.583357362321709
40
0.638595231002248
40
0.693833083731461
40
0.749151316438015
40
0.804468483389935
40
0.859678422428061
40
0.914886946211015
40
0.969815882197494
40
1
40
1
40
1
40
1
41
1
10
10.2903619803242
20
-34.8765531486357
30
0
41
1
10
10.2891138987802
20
-34.8163958334941
30
0
41
1
10
10.2746963564999
20
-34.6560826259425
30
0
41
1
10
10.2017105230984
20
-34.3963357036207
30
0
41
1
10
10.0502641855417
20
-34.1085403494659
30
0
41
1
10
9.83342064826675
20
-33.8417686184569
30
0
41
1
10
9.55977838115559
20
-33.6033364273004
30
0
41
1
10
9.23487204212497
20
-33.4019202650691
30
0
41
1
10
8.86978229483122
20
-33.2421975894758
30
0
41
1
10
8.47338807357631
20
-33.1311208559628
30
0
41
1
10
8.05782258137701
20
-33.0700858810363
30
0
41
1
10
7.63430221187774
20
-33.0632815786035
30
0
41
1
10
7.21456961947709
20
-33.1086987530562
30
0
41
1
10
6.81106118046395
20
-33.207200530879
30
0
41
1
10
6.43416561849397
20
-33.3536998620856
30
0
41
1
10
6.09627120449207
20
-33.5455326316877
30
0
41
1
10
5.80553093365867
20
-33.7749080980121
30
0
41
1
10
5.57256676532603
20
-34.0360430016718
30
0
41
1
10
5.4018567591053
20
-34.319151315512
30
0
41
1
10
5.3158127789382
20
-34.5724805055299
30
0
41
1
10
5.29124295289026
20
-34.7275884841166
30
0
41
1
10
5.28600114199352
20
-34.7830082956825
30
0
0
SPLINE
5
1B2
100
AcDbEntity
8
1
62
256
6
ByLayer
370
18
48
1
60
0
100
AcDbSpline
70
4
71
1
72
4
73
2
40
0
40
0
40
1
40
1
41
1
10
5.48212814886526
20
37.0045999056624
30
0
41
1
10
5.48631082175308
20
36.9580088781878
30
0
0
SPLINE
5
1B3
100
AcDbEntity
8
1
62
256
6
ByLayer
370
18
48
1
60
0
100
AcDbSpline
70
4
71
3
72
12
73
8
40
0
40
0
40
0
40
0
40
0.153608257195374
40
0.407787463193411
40
0.663602294905538
40
0.919423315490077
40
1
40
1
40
1
40
1
41
1
10
5.48631082175308
20
36.9580088781878
30
0
41
1
10
5.49277236551494
20
36.9009749349406
30
0
41
1
10
5.52089694160984
20
36.7508483112439
30
0
41
1
10
5.61433554519365
20
36.5091741867495
30
0
41
1
10
5.78993361104695
20
36.2450139436675
30
0
41
1
10
5.97284170001096
20
36.0569705879062
30
0
41
1
10
6.09248700468376
20
35.9590204906287
30
0
41
1
10
6.12209472510417
20
35.9359978811914
30
0
0
SPLINE
5
1B4
100
AcDbEntity
8
1
62
256
6
ByLayer
370
18
48
1
60
0
100
AcDbSpline
70
4
71
1
72
4
73
2
40
0
40
0
40
1
40
1
41
1
10
6.12209472510417
20
35.9359978811914
30
0
41
1
10
6.2768857186658
20
35.8255783732811
30
0
0
SPLINE
5
1B5
100
AcDbEntity
8
1
62
256
6
ByLayer
370
18
48
1
60
0
100
AcDbSpline
70
4
71
3
72
27
73
23
40
0
40
0
40
0
40
0
40
0.0208328049239115
40
0.0746813150073225
40
0.12852972314453
40
0.182379232107312
40
0.236228645275361
40
0.290055310616487
40
0.34388192554453
40
0.397693157975407
40
0.451504323226217
40
0.505305109074368
40
0.559105618458191
40
0.61287614706641
40
0.666645964909891
40
0.720316771790528
40
0.773986654832764
40
0.827475740032424
40
0.880964559525674
40
0.934305448248909
40
0.987647434927607
40
1
40
1
40
1
40
1
41
1
10
10.4841221675181
20
37.1489463322363
30
0
41
1
10
10.4815866416082
20
37.1855002895336
30
0
41
1
10
10.466220053627
20
37.3156076074727
30
0
41
1
10
10.3999293719754
20
37.5358505177239
30
0
41
1
10
10.2492199141563
20
37.7970612117049
30
0
41
1
10
10.0327171160437
20
38.035350891516
30
0
41
1
10
9.75907401900757
20
38.2454742353852
30
0
41
1
10
9.43382487643084
20
38.4208679348958
30
0
41
1
10
9.06814479985208
20
38.558695329167
30
0
41
1
10
8.67088773474382
20
38.654082790964
30
0
41
1
10
8.25441064750035
20
38.7064806179202
30
0
41
1
10
7.82993816862584
20
38.7129378196537
30
0
41
1
10
7.40968007640587
20
38.6750676880671
30
0
41
1
10
7.00598085014912
20
38.5919975371176
30
0
41
1
10
6.62966424254154
20
38.4674443671253
30
0
41
1
10
6.29274116017505
20
38.3027674245024
30
0
41
1
10
6.00333349718904
20
38.1037602385631
30
0
41
1
10
5.77155963706517
20
37.8740527125536
30
0
41
1
10
5.60152235494279
20
37.6210406462769
30
0
41
1
10
5.50025584249881
20
37.3504477661979
30
0
41
1
10
5.47593727324359
20
37.1417855126141
30
0
41
1
10
5.48062010761387
20
37.0263511663362
30
0
41
1
10
5.48212814886526
20
37.0045999056624
30
0
0
SPLINE
5
1B6
100
AcDbEntity
8
1
62
256
6
ByLayer
370
18
48
1
60
0
100
AcDbSpline
70
4
71
2
72
6
73
3
40
0
40
0
40
0
40
1
40
1
40
1
41
1
10
19.575
20
25.9623952673788
30
0
41
1
10
19.6078185656261
20
26.4364521168532
30
0
41
1
10
19.6572499999999
20
26.9131870372303
30
0
0
SPLINE
5
1B7
100
AcDbEntity
8
1
62
256
6
ByLayer
370
18
48
1
60
0
100
AcDbSpline
70
4
71
2
72
6
73
3
40
0
40
0
40
0
40
1
40
1
40
1
41
1
10
19.6572499999999
20
33.0868129627697
30
0
41
1
10
19.6101303380293
20
33.5629979240888
30
0
41
1
10
19.575
20
34.0376047326209
30
0
0
SPLINE
5
1B8
100
AcDbEntity
8
1
62
256
6
ByLayer
370
18
48
1
60
0
100
AcDbSpline
70
4
71
3
72
11
73
7
40
0
40
0
40
0
40
0
40
0.247984897840781
40
0.496756277541361
40
0.747965154822509
40
1
40
1
40
1
40
1
41
1
10
19.6572499999999
20
26.9131870372303
30
0
41
1
10
19.7075801583285
20
27.4218451339963
30
0
41
1
10
19.7833995628528
20
28.442197373261
30
0
41
1
10
19.8226658215726
20
29.9849394597207
30
0
41
1
10
19.7848058475508
20
31.5361185492767
30
0
41
1
10
19.7084062917836
20
32.5698289671498
30
0
41
1
10
19.6572499999999
20
33.0868129627697
30
0
0
SPLINE
5
1B9
100
AcDbEntity
8
1
62
256
6
ByLayer
370
18
48
1
60
0
100
AcDbSpline
70
4
71
2
72
6
73
3
40
0
40
0
40
0
40
1
40
1
40
1
41
1
10
19.5549999999871
20
9.99999999999987
30
0
41
1
10
19.5551319325084
20
10.000005193721
30
0
41
1
10
19.5749999999999
20
10.0001945009458
30
0
0
SPLINE
5
1BA
100
AcDbEntity
8
1
62
256
6
ByLayer
370
18
48
1
60
0
100
AcDbSpline
70
4
71
2
72
6
73
3
40
0
40
0
40
0
40
1
40
1
40
1
41
1
10
19.575
20
49.9998054990542
30
0
41
1
10
19.5550298432497
20
49.9999981768698
30
0
41
1
10
19.5549999999871
20
50.0000000000001
30
0
0
SPLINE
5
1BB
100
AcDbEntity
8
1
62
256
6
ByLayer
370
18
48
1
60
0
100
AcDbSpline
70
4
71
2
72
6
73
3
40
0
40
0
40
0
40
1
40
1
40
1
41
1
10
19.575
20
49.9368404486555
30
0
41
1
10
19.5550642482844
20
49.9402208509737
30
0
41
1
10
19.5550000621865
20
49.9436586785733
30
0
0
SPLINE
5
1BC
100
AcDbEntity
8
1
62
256
6
ByLayer
370
18
48
1
60
0
100
AcDbSpline
70
4
71
2
72
6
73
3
40
0
40
0
40
0
40
1
40
1
40
1
41
1
10
19.575
20
49.7601364911857
30
0
41
1
10
19.5550632976625
20
49.7667674298493
30
0
41
1
10
19.555000071718
20
49.7736939468021
30
0
0
SPLINE
5
1BD
100
AcDbEntity
8
1
62
256
6
ByLayer
370
18
48
1
60
0
100
AcDbSpline
70
4
71
2
72
6
73
3
40
0
40
0
40
0
40
1
40
1
40
1
41
1
10
19.575
20
49.4665965496138
30
0
41
1
10
19.5550613169254
20
49.4766061016707
30
0
41
1
10
19.5550000876168
20
49.4871315537117
30
0
0
SPLINE
5
1BE
100
AcDbEntity
8
1
62
256
6
ByLayer
370
18
48
1
60
0
100
AcDbSpline
70
4
71
2
72
6
73
3
40
0
40
0
40
0
40
1
40
1
40
1
41
1
10
19.575
20
49.0508206726267
30
0
41
1
10
19.5550588536976
20
49.0644141369027
30
0
41
1
10
19.5550001109454
20
49.0787170351398
30
0
0
SPLINE
5
1BF
100
AcDbEntity
8
1
62
256
6
ByLayer
370
18
48
1
60
0
100
AcDbSpline
70
4
71
2
72
6
73
3
40
0
40
0
40
0
40
1
40
1
40
1
41
1
10
19.575
20
48.5045712021578
30
0
41
1
10
19.5550564852478
20
48.5220519091691
30
0
41
1
10
19.5550001413646
20
48.5403989471739
30
0
0
SPLINE
5
1C0
100
AcDbEntity
8
1
62
256
6
ByLayer
370
18
48
1
60
0
100
AcDbSpline
70
4
71
2
72
6
73
3
40
0
40
0
40
0
40
1
40
1
40
1
41
1
10
19.575
20
47.815850876421
30
0
41
1
10
19.5550544239774
20
47.8376562075466
30
0
41
1
10
19.5550001731808
20
47.8604369877087
30
0
0
SPLINE
5
1C1
100
AcDbEntity
8
1
62
256
6
ByLayer
370
18
48
1
60
0
100
AcDbSpline
70
4
71
2
72
6
73
3
40
0
40
0
40
0
40
1
40
1
40
1
41
1
10
19.575
20
46.9673194561196
30
0
41
1
10
19.5550094748903
20
46.9942652546432
30
0
41
1
10
19.5550000060177
20
47.0220139190585
30
0
0
SPLINE
5
1C2
100
AcDbEntity
8
1
62
256
6
ByLayer
370
18
48
1
60
0
100
AcDbSpline
70
4
71
2
72
6
73
3
40
0
40
0
40
0
40
1
40
1
40
1
41
1
10
19.575
20
45.9334653042319
30
0
41
1
10
19.5550423486751
20
45.9661454212671
30
0
41
1
10
19.555000135227
20
45.9998236151359
30
0
0
SPLINE
5
1C3
100
AcDbEntity
8
1
62
256
6
ByLayer
370
18
48
1
60
0
100
AcDbSpline
70
4
71
2
72
6
73
3
40
0
40
0
40
0
40
1
40
1
40
1
41
1
10
19.575
20
44.6751730373548
30
0
41
1
10
19.5550689107007
20
44.7149754432223
30
0
41
1
10
19.5550004375952
20
44.7559675152657
30
0
0
SPLINE
5
1C4
100
AcDbEntity
8
1
62
256
6
ByLayer
370
18
48
1
60
0
100
AcDbSpline
70
4
71
1
72
4
73
2
40
0
40
0
40
1
40
1
41
1
10
19.575
20
43.1280650040838
30
0
41
1
10
19.5550002909702
20
43.2291477083391
30
0
0
SPLINE
5
1C5
100
AcDbEntity
8
1
62
256
6
ByLayer
370
18
48
1
60
0
100
AcDbSpline
70
4
71
1
72
4
73
2
40
0
40
0
40
1
40
1
41
1
10
19.575
20
41.1728008049276
30
0
41
1
10
19.5550012843221
20
41.3037125212037
30
0
0
SPLINE
5
1C6
100
AcDbEntity
8
1
62
256
6
ByLayer
370
18
48
1
60
0
100
AcDbSpline
70
4
71
1
72
4
73
2
40
0
40
0
40
1
40
1
41
1
10
19.575
20
38.5332798443352
30
0
41
1
10
19.5550002978641
20
38.7185185201409
30
0
0
SPLINE
5
1C7
100
AcDbEntity
8
1
62
256
6
ByLayer
370
18
48
1
60
0
100
AcDbSpline
70
4
71
2
72
6
73
3
40
0
40
0
40
0
40
1
40
1
40
1
41
1
10
19.575
20
34.0376047326209
30
0
41
1
10
19.5550371764844
20
34.2407842123973
30
0
41
1
10
19.5550000435628
20
34.4435114533927
30
0
0
SPLINE
5
1C8
100
AcDbEntity
8
1
62
256
6
ByLayer
370
18
48
1
60
0
100
AcDbSpline
70
4
71
1
72
4
73
2
40
0
40
0
40
1
40
1
41
1
10
19.575
20
25.1852115287256
30
0
41
1
10
19.5550006865926
20
25.5582286403465
30
0
0
SPLINE
5
1C9
100
AcDbEntity
8
1
62
256
6
ByLayer
370
18
48
1
60
0
100
AcDbSpline
70
4
71
1
72
4
73
2
40
0
40
0
40
1
40
1
41
1
10
19.575
20
21.1023837406718
30
0
41
1
10
19.5550066387059
20
21.2856051776409
30
0
0
SPLINE
5
1CA
100
AcDbEntity
8
1
62
256
6
ByLayer
370
18
48
1
60
0
100
AcDbSpline
70
4
71
1
72
4
73
2
40
0
40
0
40
1
40
1
41
1
10
19.5749999999963
20
18.56964732945
30
0
41
1
10
19.5550018135925
20
18.6986028332203
30
0
0
SPLINE
5
1CB
100
AcDbEntity
8
1
62
256
6
ByLayer
370
18
48
1
60
0
100
AcDbSpline
70
4
71
1
72
4
73
2
40
0
40
0
40
1
40
1
41
1
10
19.575
20
16.6718962620877
30
0
41
1
10
19.5550002554704
20
16.7716099791589
30
0
0
SPLINE
5
1CC
100
AcDbEntity
8
1
62
256
6
ByLayer
370
18
48
1
60
0
100
AcDbSpline
70
4
71
2
72
6
73
3
40
0
40
0
40
0
40
1
40
1
40
1
41
1
10
19.575
20
15.1634324615262
30
0
41
1
10
19.5550353139031
20
15.2025311529299
30
0
41
1
10
19.5550002748228
20
15.24333872321
30
0
0
SPLINE
5
1CD
100
AcDbEntity
8
1
62
256
6
ByLayer
370
18
48
1
60
0
100
AcDbSpline
70
4
71
2
72
6
73
3
40
0
40
0
40
0
40
1
40
1
40
1
41
1
10
19.575
20
13.9342250918657
30
0
41
1
10
19.5550282784493
20
13.9663007364476
30
0
41
1
10
19.5550000929689
20
13.9998537532235
30
0
0
SPLINE
5
1CE
100
AcDbEntity
8
1
62
256
6
ByLayer
370
18
48
1
60
0
100
AcDbSpline
70
4
71
2
72
6
73
3
40
0
40
0
40
0
40
1
40
1
40
1
41
1
10
19.575
20
12.9238613710832
30
0
41
1
10
19.5550057940065
20
12.9502700007821
30
0
41
1
10
19.5550000029108
20
12.9779341820698
30
0
0
SPLINE
5
1CF
100
AcDbEntity
8
1
62
256
6
ByLayer
370
18
48
1
60
0
100
AcDbSpline
70
4
71
2
72
6
73
3
40
0
40
0
40
0
40
1
40
1
40
1
41
1
10
19.575
20
12.0952548873454
30
0
41
1
10
19.5550401146615
20
12.116575048742
30
0
41
1
10
19.5550001359506
20
12.1393100796609
30
0
0
SPLINE
5
1D0
100
AcDbEntity
8
1
62
256
6
ByLayer
370
18
48
1
60
0
100
AcDbSpline
70
4
71
2
72
6
73
3
40
0
40
0
40
0
40
1
40
1
40
1
41
1
10
19.575
20
11.4240670591146
30
0
41
1
10
19.5550441424445
20
11.4410992396668
30
0
41
1
10
19.5550001127095
20
11.4594169309005
30
0
0
SPLINE
5
1D1
100
AcDbEntity
8
1
62
256
6
ByLayer
370
18
48
1
60
0
100
AcDbSpline
70
4
71
2
72
6
73
3
40
0
40
0
40
0
40
1
40
1
40
1
41
1
10
19.575
20
10.8937007324961
30
0
41
1
10
19.5550489292168
20
10.9068712243181
30
0
41
1
10
19.5550000908887
20
10.9211553376678
30
0
0
SPLINE
5
1D2
100
AcDbEntity
8
1
62
256
6
ByLayer
370
18
48
1
60
0
100
AcDbSpline
70
4
71
2
72
6
73
3
40
0
40
0
40
0
40
1
40
1
40
1
41
1
10
19.575
20
10.4926665385921
30
0
41
1
10
19.5550539127746
20
10.5022708494951
30
0
41
1
10
19.5550000745057
20
10.5127844187369
30
0
0
SPLINE
5
1D3
100
AcDbEntity
8
1
62
256
6
ByLayer
370
18
48
1
60
0
100
AcDbSpline
70
4
71
2
72
6
73
3
40
0
40
0
40
0
40
1
40
1
40
1
41
1
10
19.575
20
10.2130991347885
30
0
41
1
10
19.5550583977432
20
10.2193365355708
30
0
41
1
10
19.5550000639219
20
10.2262555344868
30
0
0
SPLINE
5
1D4
100
AcDbEntity
8
1
62
256
6
ByLayer
370
18
48
1
60
0
100
AcDbSpline
70
4
71
2
72
6
73
3
40
0
40
0
40
0
40
1
40
1
40
1
41
1
10
19.575
20
10.0498914056877
30
0
41
1
10
19.5550618119155
20
10.0528849502184
30
0
41
1
10
19.55500005857
20
10.0563176834429
30
0
0
SPLINE
5
1D5
100
AcDbEntity
8
1
62
256
6
ByLayer
370
18
48
1
60
0
100
AcDbSpline
70
4
71
1
72
4
73
2
40
0
40
0
40
1
40
1
41
1
10
19.5550000435628
20
34.4435114533927
30
0
41
1
10
19.575
20
34.8147884712744
30
0
0
SPLINE
5
1D6
100
AcDbEntity
8
1
62
256
6
ByLayer
370
18
48
1
60
0
100
AcDbSpline
70
4
71
2
72
6
73
3
40
0
40
0
40
0
40
1
40
1
40
1
41
1
10
19.5550006865926
20
25.5582286403465
30
0
41
1
10
19.5551464130985
20
25.7601136415781
30
0
41
1
10
19.575
20
25.9623952673788
30
0
0
SPLINE
5
1D7
100
AcDbEntity
8
1
62
256
6
ByLayer
370
18
48
1
60
0
100
AcDbSpline
70
4
71
3
72
15
73
11
40
0
40
0
40
0
40
0
40
0.202572141993225
40
0.365903158133212
40
0.462028565931227
40
0.53842948747801
40
0.615150024153126
40
0.705994689112112
40
0.858849485470766
40
1
40
1
40
1
40
1
41
1
10
19.575
20
34.8147884712744
30
0
41
1
10
19.5770816873592
20
34.8251637921153
30
0
41
1
10
19.582393261109
20
34.8423446039656
30
0
41
1
10
19.5915698596128
20
34.862322813739
30
0
41
1
10
19.6012987782157
20
34.8728844825047
30
0
41
1
10
19.6104033361731
20
34.8767062610982
30
0
41
1
10
19.6203178588452
20
34.8753060421252
30
0
41
1
10
19.6327558351661
20
34.8671337694338
30
0
41
1
10
19.645349992525
20
34.8514981469144
30
0
41
1
10
19.6536413984075
20
34.8383276769348
30
0
41
1
10
19.65725
20
34.8313958110346
30
0
0
SPLINE
5
1D8
100
AcDbEntity
8
1
62
256
6
ByLayer
370
18
48
1
60
0
100
AcDbSpline
70
4
71
3
72
16
73
12
40
0
40
0
40
0
40
0
40
0.0223189149918816
40
0.193110462901814
40
0.319004839806659
40
0.399562050069424
40
0.48072709118787
40
0.552088364775302
40
0.671411627898035
40
0.967419528323401
40
1
40
1
40
1
40
1
41
1
10
19.65725
20
25.1686041889607
30
0
41
1
10
19.6566672553931
20
25.1675428245052
30
0
41
1
10
19.6515580367002
20
25.1584393846605
30
0
41
1
10
19.6424054406073
20
25.1440061545371
30
0
41
1
10
19.6293316904779
20
25.1301119829089
30
0
41
1
10
19.617969001626
20
25.1238975919339
30
0
41
1
10
19.6085612473401
20
25.1236641963993
30
0
41
1
10
19.5990371424627
20
25.1288153927149
30
0
41
1
10
19.5860003010766
20
25.1458562289841
30
0
41
1
10
19.579314762974
20
25.1674658418356
30
0
41
1
10
19.5753716342541
20
25.1835948380044
30
0
41
1
10
19.575
20
25.1852115287256
30
0
0
SPLINE
5
1D9
100
AcDbEntity
8
1
62
256
6
ByLayer
370
18
48
1
60
0
100
AcDbSpline
70
4
71
2
72
6
73
3
40
0
40
0
40
0
40
1
40
1
40
1
41
1
10
20.325
20
26.5447958711021
30
0
41
1
10
20.0267142078013
20
25.8336784870402
30
0
41
1
10
19.65725
20
25.1686041889607
30
0
0
SPLINE
5
1DA
100
AcDbEntity
8
1
62
256
6
ByLayer
370
18
48
1
60
0
100
AcDbSpline
70
4
71
2
72
6
73
3
40
0
40
0
40
0
40
1
40
1
40
1
41
1
10
19.6572499999999
20
21.856921905548
30
0
41
1
10
20.0609812561655
20
23.3589462912649
30
0
41
1
10
20.325
20
24.9018289776669
30
0
0
SPLINE
5
1DB
100
AcDbEntity
8
1
62
256
6
ByLayer
370
18
48
1
60
0
100
AcDbSpline
70
4
71
2
72
6
73
3
40
0
40
0
40
0
40
1
40
1
40
1
41
1
10
19.575
20
21.4667201556653
30
0
41
1
10
19.604902911552
20
21.6615145628019
30
0
41
1
10
19.6572499999999
20
21.856921905548
30
0
0
SPLINE
5
1DC
100
AcDbEntity
8
1
62
256
6
ByLayer
370
18
48
1
60
0
100
AcDbSpline
70
4
71
2
72
6
73
3
40
0
40
0
40
0
40
1
40
1
40
1
41
1
10
19.65725
20
34.8313958110346
30
0
41
1
10
20.0267044998203
20
34.1663209943343
30
0
41
1
10
20.325
20
33.4552041288978
30
0
0
SPLINE
5
1DD
100
AcDbEntity
8
1
62
256
6
ByLayer
370
18
48
1
60
0
100
AcDbSpline
70
4
71
1
72
4
73
2
40
0
40
0
40
1
40
1
41
1
10
19.6572499999999
20
38.143078094452
30
0
41
1
10
19.575
20
38.5332798443352
30
0
0
SPLINE
5
1DE
100
AcDbEntity
8
1
62
256
6
ByLayer
370
18
48
1
60
0
100
AcDbSpline
70
4
71
2
72
6
73
3
40
0
40
0
40
0
40
1
40
1
40
1
41
1
10
20.325
20
35.0981710223331
30
0
41
1
10
20.0609866505023
20
36.6410489057478
30
0
41
1
10
19.6572499999999
20
38.143078094452
30
0
0
SPLINE
5
1DF
100
AcDbEntity
8
1
62
256
6
ByLayer
370
18
48
1
60
0
100
AcDbSpline
70
4
71
2
72
6
73
3
40
0
40
0
40
0
40
1
40
1
40
1
41
1
10
19.5550002978641
20
38.7185185201409
30
0
41
1
10
19.5545196526108
20
38.8094165179783
30
0
41
1
10
19.575
20
38.8976162593281
30
0
0
SPLINE
5
1E0
100
AcDbEntity
8
1
62
256
6
ByLayer
370
18
48
1
60
0
100
AcDbSpline
70
4
71
2
72
6
73
3
40
0
40
0
40
0
40
1
40
1
40
1
41
1
10
19.5550066387059
20
21.2856051776409
30
0
41
1
10
19.5551381957301
20
21.3769126435117
30
0
41
1
10
19.5749999999999
20
21.4667201556644
30
0
0
SPLINE
5
1E1
100
AcDbEntity
8
1
62
256
6
ByLayer
370
18
48
1
60
0
100
AcDbSpline
70
4
71
3
72
13
73
9
40
0
40
0
40
0
40
0
40
0.150172031547902
40
0.330114238556901
40
0.511459707331032
40
0.673512704967456
40
0.910645564257862
40
1
40
1
40
1
40
1
41
1
10
19.575
20
38.8976162593282
30
0
41
1
10
19.5772117973486
20
38.9022395528639
30
0
41
1
10
19.5829554544443
20
38.9110062569544
30
0
41
1
10
19.5946630265506
20
38.9211254942591
30
0
41
1
10
19.6104032878281
20
38.9234984195271
30
0
41
1
10
19.6294852389016
20
38.9166625567215
30
0
41
1
10
19.6450496934025
20
38.904229287663
30
0
41
1
10
19.6546620109537
20
38.8944765844212
30
0
41
1
10
19.65725
20
38.8916297098823
30
0
0
SPLINE
5
1E2
100
AcDbEntity
8
1
62
256
6
ByLayer
370
18
48
1
60
0
100
AcDbSpline
70
4
71
3
72
13
73
9
40
0
40
0
40
0
40
0
40
0.0143785770883764
40
0.297859442270552
40
0.468885473554354
40
0.640762294077716
40
0.800679742290859
40
1
40
1
40
1
40
1
41
1
10
19.65725
20
21.1083702901177
30
0
41
1
10
19.6568339917505
20
21.1079188255342
30
0
41
1
10
19.6481917709019
20
21.0986547050659
30
0
41
1
10
19.6335104965852
20
21.0855455278506
30
0
41
1
10
19.6128778448439
20
21.076898121488
30
0
41
1
10
19.5974288234794
20
21.077960260839
30
0
41
1
10
19.5844580838477
20
21.0869898355046
30
0
41
1
10
19.5779194332669
20
21.0961227642562
30
0
41
1
10
19.575
20
21.1023837406718
30
0
0
SPLINE
5
1E3
100
AcDbEntity
8
1
62
256
6
ByLayer
370
18
48
1
60
0
100
AcDbSpline
70
4
71
1
72
4
73
2
40
0
40
0
40
1
40
1
41
1
10
20.325
20
21.8452129359267
30
0
41
1
10
19.65725
20
21.1083702901177
30
0
0
SPLINE
5
1E4
100
AcDbEntity
8
1
62
256
6
ByLayer
370
18
48
1
60
0
100
AcDbSpline
70
4
71
1
72
4
73
2
40
0
40
0
40
1
40
1
41
1
10
19.6572499999999
20
19.1100492454021
30
0
41
1
10
20.325
20
21.0876921459741
30
0
0
SPLINE
5
1E5
100
AcDbEntity
8
1
62
256
6
ByLayer
370
18
48
1
60
0
100
AcDbSpline
70
4
71
1
72
4
73
2
40
0
40
0
40
1
40
1
41
1
10
19.575
20
18.8271991950724
30
0
41
1
10
19.6572499999999
20
19.1100492454021
30
0
0
SPLINE
5
1E6
100
AcDbEntity
8
1
62
256
6
ByLayer
370
18
48
1
60
0
100
AcDbSpline
70
4
71
1
72
4
73
2
40
0
40
0
40
1
40
1
41
1
10
19.65725
20
38.8916297098823
30
0
41
1
10
20.325
20
38.1547870640733
30
0
0
SPLINE
5
1E7
100
AcDbEntity
8
1
62
256
6
ByLayer
370
18
48
1
60
0
100
AcDbSpline
70
4
71
1
72
4
73
2
40
0
40
0
40
1
40
1
41
1
10
19.6572499999999
20
40.8899507545979
30
0
41
1
10
19.575
20
41.172800804926
30
0
0
SPLINE
5
1E8
100
AcDbEntity
8
1
62
256
6
ByLayer
370
18
48
1
60
0
100
AcDbSpline
70
4
71
1
72
4
73
2
40
0
40
0
40
1
40
1
41
1
10
20.325
20
38.9123078540259
30
0
41
1
10
19.6572499999999
20
40.8899507545979
30
0
0
SPLINE
5
1E9
100
AcDbEntity
8
1
62
256
6
ByLayer
370
18
48
1
60
0
100
AcDbSpline
70
4
71
2
72
6
73
3
40
0
40
0
40
0
40
1
40
1
40
1
41
1
10
19.5550018135925
20
18.6986028332203
30
0
41
1
10
19.5551340298736
20
18.7634761066799
30
0
41
1
10
19.575
20
18.8271991950724
30
0
0
SPLINE
5
1EA
100
AcDbEntity
8
1
62
256
6
ByLayer
370
18
48
1
60
0
100
AcDbSpline
70
4
71
2
72
6
73
3
40
0
40
0
40
0
40
1
40
1
40
1
41
1
10
19.5550012843221
20
41.3037125212037
30
0
41
1
10
19.5550350029472
20
41.3680043757689
30
0
41
1
10
19.575
20
41.4303526705613
30
0
0
SPLINE
5
1EB
100
AcDbEntity
8
1
62
256
6
ByLayer
370
18
48
1
60
0
100
AcDbSpline
70
4
71
3
72
12
73
8
40
0
40
0
40
0
40
0
40
0.0626196306078517
40
0.327294455962835
40
0.565654147741256
40
0.830416055539786
40
1
40
1
40
1
40
1
41
1
10
19.575
20
41.4303526705613
30
0
41
1
10
19.5760417403521
20
41.4316819540706
30
0
41
1
10
19.5817970000084
20
41.4380894696731
30
0
41
1
10
19.5947660215832
20
41.445344604443
30
0
41
1
10
19.6176550384774
20
41.4422729567478
30
0
41
1
10
19.6390291642503
20
41.4296416696036
30
0
41
1
10
19.6521493749735
20
41.4188159672223
30
0
41
1
10
19.65725
20
41.4140164846753
30
0
0
SPLINE
5
1EC
100
AcDbEntity
8
1
62
256
6
ByLayer
370
18
48
1
60
0
100
AcDbSpline
70
4
71
3
72
12
73
8
40
0
40
0
40
0
40
0
40
0.184922571472415
40
0.467001875081094
40
0.681376902828782
40
0.895506197874764
40
1
40
1
40
1
40
1
41
1
10
19.65725
20
18.5859835153247
30
0
41
1
10
19.651671095831
20
18.5807133993188
30
0
41
1
10
19.6375575286484
20
18.5691956245206
30
0
41
1
10
19.6157765830928
20
18.5570408135611
30
0
41
1
10
19.5949762117097
20
18.5552621059539
30
0
41
1
10
19.5825457140848
20
18.5614575768781
30
0
41
1
10
19.5767389424359
20
18.5674070315333
30
0
41
1
10
19.5749999999786
20
18.5696473294366
30
0
0
SPLINE
5
1ED
100
AcDbEntity
8
1
62
256
6
ByLayer
370
18
48
1
60
0
100
AcDbSpline
70
4
71
1
72
4
73
2
40
0
40
0
40
1
40
1
41
1
10
20.325
20
19.2035807533979
30
0
41
1
10
19.65725
20
18.5859835153247
30
0
0
SPLINE
5
1EE
100
AcDbEntity
8
1
62
256
6
ByLayer
370
18
48
1
60
0
100
AcDbSpline
70
4
71
1
72
4
73
2
40
0
40
0
40
1
40
1
41
1
10
19.6572499999999
20
17.101460004218
30
0
41
1
10
20.325
20
18.670078782405
30
0
0
SPLINE
5
1EF
100
AcDbEntity
8
1
62
256
6
ByLayer
370
18
48
1
60
0
100
AcDbSpline
70
4
71
2
72
6
73
3
40
0
40
0
40
0
40
1
40
1
40
1
41
1
10
19.5749999999999
20
16.871934995919
30
0
41
1
10
19.6053040689646
20
16.9860301523541
30
0
41
1
10
19.6572499999999
20
17.101460004218
30
0
0
SPLINE
5
1F0
100
AcDbEntity
8
1
62
256
6
ByLayer
370
18
48
1
60
0
100
AcDbSpline
70
4
71
1
72
4
73
2
40
0
40
0
40
1
40
1
41
1
10
19.65725
20
41.4140164846753
30
0
41
1
10
20.325
20
40.7964192466021
30
0
0
SPLINE
5
1F1
100
AcDbEntity
8
1
62
256
6
ByLayer
370
18
48
1
60
0
100
AcDbSpline
70
4
71
1
72
4
73
2
40
0
40
0
40
1
40
1
41
1
10
19.6572499999999
20
42.898539995782
30
0
41
1
10
19.5749999999999
20
43.128065004081
30
0
0
SPLINE
5
1F2
100
AcDbEntity
8
1
62
256
6
ByLayer
370
18
48
1
60
0
100
AcDbSpline
70
4
71
1
72
4
73
2
40
0
40
0
40
1
40
1
41
1
10
20.325
20
41.329921217595
30
0
41
1
10
19.6572499999999
20
42.898539995782
30
0
0
SPLINE
5
1F3
100
AcDbEntity
8
1
62
256
6
ByLayer
370
18
48
1
60
0
100
AcDbSpline
70
4
71
2
72
6
73
3
40
0
40
0
40
0
40
1
40
1
40
1
41
1
10
19.5550002554704
20
16.7716099791589
30
0
41
1
10
19.5550563317725
20
16.8222627160464
30
0
41
1
10
19.575
20
16.8719349959163
30
0
0
SPLINE
5
1F4
100
AcDbEntity
8
1
62
256
6
ByLayer
370
18
48
1
60
0
100
AcDbSpline
70
4
71
2
72
6
73
3
40
0
40
0
40
0
40
1
40
1
40
1
41
1
10
19.5550002909702
20
43.2291477083391
30
0
41
1
10
19.5550431782584
20
43.2794359491762
30
0
41
1
10
19.575
20
43.3281037379123
30
0
0
SPLINE
5
1F5
100
AcDbEntity
8
1
62
256
6
ByLayer
370
18
48
1
60
0
100
AcDbSpline
70
4
71
3
72
11
73
7
40
0
40
0
40
0
40
0
40
0.297753673586829
40
0.575337933002373
40
0.854393618581298
40
1
40
1
40
1
40
1
41
1
10
19.65725
20
16.695922965977
30
0
41
1
10
19.6479774930528
20
16.6877432625738
30
0
41
1
10
19.6304691956702
20
16.6751388320459
30
0
41
1
10
19.6042284493933
20
16.6636282767035
30
0
41
1
10
19.5859216955607
20
16.6647306450431
30
0
41
1
10
19.5775916260631
20
16.6696716710365
30
0
41
1
10
19.575
20
16.6718962620877
30
0
0
SPLINE
5
1F6
100
AcDbEntity
8
1
62
256
6
ByLayer
370
18
48
1
60
0
100
AcDbSpline
70
4
71
3
72
12
73
8
40
0
40
0
40
0
40
0
40
0.0976461297112141
40
0.382701634955886
40
0.636277668901593
40
0.992092490603112
40
1
40
1
40
1
40
1
41
1
10
19.575
20
43.3281037379123
30
0
41
1
10
19.5767271018766
20
43.3295793651886
30
0
41
1
10
19.5839791956706
20
43.3344427826277
30
0
41
1
10
19.5998547131754
20
43.336948972916
30
0
41
1
10
19.6266199779495
20
43.3275093760695
30
0
41
1
10
19.64599378667
20
43.3136522751267
30
0
41
1
10
19.6570105118749
20
43.3042816478687
30
0
41
1
10
19.65725
20
43.304077034023
30
0
0
SPLINE
5
1F7
100
AcDbEntity
8
1
62
256
6
ByLayer
370
18
48
1
60
0
100
AcDbSpline
70
4
71
1
72
4
73
2
40
0
40
0
40
1
40
1
41
1
10
19.65725
20
43.304077034023
30
0
41
1
10
20.325
20
42.7328231369334
30
0
0
SPLINE
5
1F8
100
AcDbEntity
8
1
62
256
6
ByLayer
370
18
48
1
60
0
100
AcDbSpline
70
4
71
2
72
6
73
3
40
0
40
0
40
0
40
1
40
1
40
1
41
1
10
19.6572499999999
20
44.4794212801482
30
0
41
1
10
19.6041227182181
20
44.5803322777082
30
0
41
1
10
19.575
20
44.6751730373548
30
0
0
SPLINE
5
1F9
100
AcDbEntity
8
1
62
256
6
ByLayer
370
18
48
1
60
0
100
AcDbSpline
70
4
71
1
72
4
73
2
40
0
40
0
40
1
40
1
41
1
10
20.325
20
43.145531495869
30
0
41
1
10
19.6572499999999
20
44.4794212801482
30
0
0
SPLINE
5
1FA
100
AcDbEntity
8
1
62
256
6
ByLayer
370
18
48
1
60
0
100
AcDbSpline
70
4
71
1
72
4
73
2
40
0
40
0
40
1
40
1
41
1
10
20.325
20
17.2671768630666
30
0
41
1
10
19.65725
20
16.695922965977
30
0
0
SPLINE
5
1FB
100
AcDbEntity
8
1
62
256
6
ByLayer
370
18
48
1
60
0
100
AcDbSpline
70
4
71
1
72
4
73
2
40
0
40
0
40
1
40
1
41
1
10
19.6572499999999
20
15.5205787198518
30
0
41
1
10
20.325
20
16.854468504131
30
0
0
SPLINE
5
1FC
100
AcDbEntity
8
1
62
256
6
ByLayer
370
18
48
1
60
0
100
AcDbSpline
70
4
71
2
72
6
73
3
40
0
40
0
40
0
40
1
40
1
40
1
41
1
10
19.5749999999997
20
15.324826962649
30
0
41
1
10
19.6053020402835
20
15.4211041834454
30
0
41
1
10
19.6572499999999
20
15.5205787198518
30
0
0
SPLINE
5
1FD
100
AcDbEntity
8
1
62
256
6
ByLayer
370
18
48
1
60
0
100
AcDbSpline
70
4
71
3
72
10
73
6
40
0
40
0
40
0
40
0
40
0.306754054012333
40
0.645760620390993
40
1
40
1
40
1
40
1
41
1
10
0.445278520427707
20
47.9226113063283
30
0
41
1
10
0.445171382293058
20
47.9292321325953
30
0
41
1
10
0.438244179397766
20
47.9423704445327
30
0
41
1
10
0.403728826646736
20
47.9614397824935
30
0
41
1
10
0.366293974315857
20
47.970834386224
30
0
41
1
10
0.343278579257295
20
47.9748827010256
30
0
0
SPLINE
5
1FE
100
AcDbEntity
8
1
62
256
6
ByLayer
370
18
48
1
60
0
100
AcDbSpline
70
4
71
3
72
10
73
6
40
0
40
0
40
0
40
0
40
0.304871459214695
40
0.643968900091697
40
1
40
1
40
1
40
1
41
1
10
0.445278520306785
20
-47.9227035712097
30
0
41
1
10
0.44517033834919
20
-47.9161161067771
30
0
41
1
10
0.43829969496692
20
-47.9029500730717
30
0
41
1
10
0.403914468433686
20
-47.8835642832073
30
0
41
1
10
0.36641388060053
20
-47.8739193186762
30
0
41
1
10
0.343278579257267
20
-47.8697231381469
30
0
0
SPLINE
5
1FF
100
AcDbEntity
8
1
62
256
6
ByLayer
370
18
48
1
60
0
100
AcDbSpline
70
4
71
2
72
6
73
3
40
0
40
0
40
0
40
1
40
1
40
1
41
1
10
19.5550004375952
20
44.7559675152657
30
0
41
1
10
19.5547206920448
20
44.797983784007
30
0
41
1
10
19.5749999999999
20
44.8365675384737
30
0
0
SPLINE
5
200
100
AcDbEntity
8
1
62
256
6
ByLayer
370
18
48
1
60
0
100
AcDbSpline
70
4
71
2
72
6
73
3
40
0
40
0
40
0
40
1
40
1
40
1
41
1
10
19.5550002748228
20
15.24333872321
30
0
41
1
10
19.5548204396849
20
15.2855025931259
30
0
41
1
10
19.5749999999998
20
15.3248269626452
30
0
0
SPLINE
5
201
100
AcDbEntity
8
1
62
256
6
ByLayer
370
18
48
1
60
0
100
AcDbSpline
70
4
71
3
72
11
73
7
40
0
40
0
40
0
40
0
40
0.127035467443618
40
0.431804057068271
40
0.711278385828794
40
1
40
1
40
1
40
1
41
1
10
19.5749999999988
20
44.8365675384749
30
0
41
1
10
19.5773446018068
20
44.8378486516538
30
0
41
1
10
19.5859353032307
20
44.8409905879511
30
0
41
1
10
19.6044728415872
20
44.8392936473823
30
0
41
1
10
19.6308624890781
20
44.8261301398141
30
0
41
1
10
19.6482096637695
20
44.8136201095268
30
0
41
1
10
19.65725
20
44.805983896452
30
0
0
SPLINE
5
202
100
AcDbEntity
8
1
62
256
6
ByLayer
370
18
48
1
60
0
100
AcDbSpline
70
4
71
3
72
11
73
7
40
0
40
0
40
0
40
0
40
0.114671213144089
40
0.467001509795927
40
0.754507012235574
40
1
40
1
40
1
40
1
41
1
10
19.65725
20
15.194016103548
30
0
41
1
10
19.6537219949911
20
15.1910793582939
30
0
41
1
10
19.6394285332493
20
15.1798457921061
30
0
41
1
10
19.6159730224241
20
15.1650389206803
30
0
41
1
10
19.5910537559985
20
15.1584107082294
30
0
41
1
10
19.5796559413697
20
15.1609577879833
30
0
41
1
10
19.575
20
15.1634324615262
30
0
0
SPLINE
5
203
100
AcDbEntity
8
1
62
256
6
ByLayer
370
18
48
1
60
0
100
AcDbSpline
70
4
71
1
72
4
73
2
40
0
40
0
40
1
40
1
41
1
10
19.65725
20
44.805983896452
30
0
41
1
10
20.325
20
44.2543642974511
30
0
0
SPLINE
5
204
100
AcDbEntity
8
1
62
256
6
ByLayer
370
18
48
1
60
0
100
AcDbSpline
70
4
71
2
72
6
73
3
40
0
40
0
40
0
40
1
40
1
40
1
41
1
10
19.6572499999999
20
45.7618192856418
30
0
41
1
10
19.603976751448
20
45.8516839384526
30
0
41
1
10
19.575
20
45.9334653042318
30
0
0
SPLINE
5
205
100
AcDbEntity
8
1
62
256
6
ByLayer
370
18
48
1
60
0
100
AcDbSpline
70
4
71
1
72
4
73
2
40
0
40
0
40
1
40
1
41
1
10
20.325
20
44.5857081357355
30
0
41
1
10
19.6572499999999
20
45.7618192856418
30
0
0
SPLINE
5
206
100
AcDbEntity
8
1
62
256
6
ByLayer
370
18
48
1
60
0
100
AcDbSpline
70
4
71
1
72
4
73
2
40
0
40
0
40
1
40
1
41
1
10
20.325
20
15.7456357025489
30
0
41
1
10
19.65725
20
15.194016103548
30
0
0
SPLINE
5
207
100
AcDbEntity
8
1
62
256
6
ByLayer
370
18
48
1
60
0
100
AcDbSpline
70
4
71
1
72
4
73
2
40
0
40
0
40
1
40
1
41
1
10
19.6572499999999
20
14.2381807143582
30
0
41
1
10
20.325
20
15.4142918642645
30
0
0
SPLINE
5
208
100
AcDbEntity
8
1
62
256
6
ByLayer
370
18
48
1
60
0
100
AcDbSpline
70
4
71
2
72
6
73
3
40
0
40
0
40
0
40
1
40
1
40
1
41
1
10
19.575
20
14.0665346957681
30
0
41
1
10
19.605443462912
20
14.1500247357119
30
0
41
1
10
19.6572499999999
20
14.2381807143582
30
0
0
SPLINE
5
209
100
AcDbEntity
8
1
62
256
6
ByLayer
370
18
48
1
60
0
100
AcDbSpline
70
4
71
3
72
10
73
6
40
0
40
0
40
0
40
0
40
0.303152141601439
40
0.638630992147726
40
1
40
1
40
1
40
1
41
1
10
0.44527852193004
20
48.3437140693649
30
0
41
1
10
0.44516512344323
20
48.3495303709286
30
0
41
1
10
0.438372722305076
20
48.3610840171001
30
0
41
1
10
0.404116010373293
20
48.3780255104901
30
0
41
1
10
0.366705855634379
20
48.3864033261569
30
0
41
1
10
0.343278579257251
20
48.3900492108662
30
0
0
SPLINE
5
20A
100
AcDbEntity
8
1
62
256
6
ByLayer
370
18
48
1
60
0
100
AcDbSpline
70
4
71
3
72
10
73
6
40
0
40
0
40
0
40
0
40
0.301517270382637
40
0.637070560965201
40
1
40
1
40
1
40
1
41
1
10
0.445278521900016
20
-48.3437948288589
30
0
41
1
10
0.44516435410396
20
-48.3380032271103
30
0
41
1
10
0.438420726441391
20
-48.3264178183934
30
0
41
1
10
0.404276989820698
20
-48.3091717719201
30
0
41
1
10
0.366810280089675
20
-48.3005566877164
30
0
41
1
10
0.343278579257219
20
-48.2967690520799
30
0
0
SPLINE
5
20B
100
AcDbEntity
8
1
62
256
6
ByLayer
370
18
48
1
60
0
100
AcDbSpline
70
4
71
2
72
6
73
3
40
0
40
0
40
0
40
1
40
1
40
1
41
1
10
19.5550000929689
20
13.9998537532235
30
0
41
1
10
19.554948945714
20
14.0345647666596
30
0
41
1
10
19.5749999999999
20
14.0665346957681
30
0
0
SPLINE
5
20C
100
AcDbEntity
8
1
62
256
6
ByLayer
370
18
48
1
60
0
100
AcDbSpline
70
4
71
3
72
10
73
6
40
0
40
0
40
0
40
0
40
0.313597354507873
40
0.658002780231446
40
1
40
1
40
1
40
1
41
1
10
19.65725
20
13.9707812867634
30
0
41
1
10
19.6473290638885
20
13.9625093150561
30
0
41
1
10
19.6273537880396
20
13.9480515469971
30
0
41
1
10
19.5974053171575
20
13.9330236841988
30
0
41
1
10
19.5818796493551
20
13.9324729524891
30
0
41
1
10
19.5750000000009
20
13.9342250918652
30
0
0
SPLINE
5
20D
100
AcDbEntity
8
1
62
256
6
ByLayer
370
18
48
1
60
0
100
AcDbSpline
70
4
71
2
72
6
73
3
40
0
40
0
40
0
40
1
40
1
40
1
41
1
10
19.555000135227
20
45.9998236151359
30
0
41
1
10
19.5548836547537
20
46.0344265778216
30
0
41
1
10
19.5749999999999
20
46.0657749081343
30
0
0
SPLINE
5
20E
100
AcDbEntity
8
1
62
256
6
ByLayer
370
18
48
1
60
0
100
AcDbSpline
70
4
71
3
72
11
73
7
40
0
40
0
40
0
40
0
40
0.153054690002192
40
0.477195071978262
40
0.864252539445876
40
1
40
1
40
1
40
1
41
1
10
19.575
20
46.0657749081343
30
0
41
1
10
19.577908688102
20
46.0666479537648
30
0
41
1
10
19.5877132490508
20
46.0679520489838
30
0
41
1
10
19.6108439580437
20
46.0616671665159
30
0
41
1
10
19.6369598443025
20
46.0451914171249
30
0
41
1
10
19.6530334164627
20
46.0326894661136
30
0
41
1
10
19.65725
20
46.0292187132366
30
0
0
SPLINE
5
20F
100
AcDbEntity
8
1
62
256
6
ByLayer
370
18
48
1
60
0
100
AcDbSpline
70
4
71
1
72
4
73
2
40
0
40
0
40
1
40
1
41
1
10
19.65725
20
46.0292187132366
30
0
41
1
10
20.325
20
45.4838308571385
30
0
0
SPLINE
5
210
100
AcDbEntity
8
1
62
256
6
ByLayer
370
18
48
1
60
0
100
AcDbSpline
70
4
71
2
72
6
73
3
40
0
40
0
40
0
40
1
40
1
40
1
41
1
10
19.6572499999999
20
46.8141682452166
30
0
41
1
10
19.6042072208013
20
46.8954040726725
30
0
41
1
10
19.575
20
46.9673194561191
30
0
0
SPLINE
5
211
100
AcDbEntity
8
1
62
256
6
ByLayer
370
18
48
1
60
0
100
AcDbSpline
70
4
71
1
72
4
73
2
40
0
40
0
40
1
40
1
41
1
10
20.325
20
45.7537540076274
30
0
41
1
10
19.6572499999999
20
46.8141682452166
30
0
0
SPLINE
5
212
100
AcDbEntity
8
1
62
256
6
ByLayer
370
18
48
1
60
0
100
AcDbSpline
70
4
71
1
72
4
73
2
40
0
40
0
40
1
40
1
41
1
10
20.325
20
14.5161691428615
30
0
41
1
10
19.65725
20
13.9707812867634
30
0
0
SPLINE
5
213
100
AcDbEntity
8
1
62
256
6
ByLayer
370
18
48
1
60
0
100
AcDbSpline
70
4
71
1
72
4
73
2
40
0
40
0
40
1
40
1
41
1
10
19.6572499999999
20
13.1858317547834
30
0
41
1
10
20.325
20
14.2462459923726
30
0
0
SPLINE
5
214
100
AcDbEntity
8
1
62
256
6
ByLayer
370
18
48
1
60
0
100
AcDbSpline
70
4
71
2
72
6
73
3
40
0
40
0
40
0
40
1
40
1
40
1
41
1
10
19.575
20
13.0326805438803
30
0
41
1
10
19.6055724969198
20
13.10614553699
30
0
41
1
10
19.6572499999999
20
13.1858317547834
30
0
0
SPLINE
5
215
100
AcDbEntity
8
1
62
256
6
ByLayer
370
18
48
1
60
0
100
AcDbSpline
70
4
71
3
72
11
73
7
40
0
40
0
40
0
40
0
40
0.299843791722277
40
0.632027265167902
40
0.959224833947598
40
1
40
1
40
1
40
1
41
1
10
0.445278523293882
20
48.7150150370002
30
0
41
1
10
0.445159981559156
20
48.7200659687735
30
0
41
1
10
0.438393021395564
20
48.7301298995999
30
0
41
1
10
0.406160062734502
20
48.7442743036206
30
0
41
1
10
0.368370287117937
20
48.7521147816004
30
0
41
1
10
0.34581914020507
20
48.7552234824349
30
0
41
1
10
0.343278579257493
20
48.75555717129
30
0
0
SPLINE
5
216
100
AcDbEntity
8
1
62
256
6
ByLayer
370
18
48
1
60
0
100
AcDbSpline
70
4
71
3
72
11
73
7
40
0
40
0
40
0
40
0
40
0.298433896396757
40
0.630671945485526
40
0.958326528487329
40
1
40
1
40
1
40
1
41
1
10
0.445278523319211
20
-48.7150848980976
30
0
41
1
10
0.445159420579895
20
-48.7100514598533
30
0
41
1
10
0.438434899896186
20
-48.6999501483707
30
0
41
1
10
0.406323312969642
20
-48.685547769879
30
0
41
1
10
0.368504864905718
20
-48.677446403025
30
0
41
1
10
0.345875566550381
20
-48.6742205001628
30
0
41
1
10
0.343278579257491
20
-48.6738678185438
30
0
0
SPLINE
5
217
100
AcDbEntity
8
1
62
256
6
ByLayer
370
18
48
1
60
0
100
AcDbSpline
70
4
71
2
72
6
73
3
40
0
40
0
40
0
40
1
40
1
40
1
41
1
10
19.5550000060177
20
47.0220139190585
30
0
41
1
10
19.5550308670843
20
47.0505824264855
30
0
41
1
10
19.575
20
47.0761386289168
30
0
0
SPLINE
5
218
100
AcDbEntity
8
1
62
256
6
ByLayer
370
18
48
1
60
0
100
AcDbSpline
70
4
71
3
72
11
73
7
40
0
40
0
40
0
40
0
40
0.176743495912778
40
0.519693225623534
40
0.963810906868645
40
1
40
1
40
1
40
1
41
1
10
19.575
20
47.0761386289168
30
0
41
1
10
19.5784311048601
20
47.0764532689564
30
0
41
1
10
19.5893605001836
20
47.0758166280889
30
0
41
1
10
19.6156280430643
20
47.0650418350863
30
0
41
1
10
19.6412232258397
20
47.0469327644366
30
0
41
1
10
19.6561242940909
20
47.0348471219955
30
0
41
1
10
19.65725
20
47.0339233875098
30
0
0
SPLINE
5
219
100
AcDbEntity
8
1
62
256
6
ByLayer
370
18
48
1
60
0
100
AcDbSpline
70
4
71
2
72
6
73
3
40
0
40
0
40
0
40
1
40
1
40
1
41
1
10
19.5550000029108
20
12.9779341820698
30
0
41
1
10
19.5550755832041
20
13.0065843554662
30
0
41
1
10
19.575
20
13.0326805438803
30
0
0
SPLINE
5
21A
100
AcDbEntity
8
1
62
256
6
ByLayer
370
18
48
1
60
0
100
AcDbSpline
70
4
71
3
72
10
73
6
40
0
40
0
40
0
40
0
40
0.350088139066448
40
0.713614779343246
40
1
40
1
40
1
40
1
41
1
10
19.65725
20
12.9660766124902
30
0
41
1
10
19.6460530917623
20
12.9567313806214
30
0
41
1
10
19.6244002650491
20
12.9408655457452
30
0
41
1
10
19.5951377582409
20
12.9254605137426
30
0
41
1
10
19.5807301300518
20
12.9234624304661
30
0
41
1
10
19.5749999999999
20
12.9238613710831
30
0
0
SPLINE
5
21B
100
AcDbEntity
8
1
62
256
6
ByLayer
370
18
48
1
60
0
100
AcDbSpline
70
4
71
1
72
4
73
2
40
0
40
0
40
1
40
1
41
1
10
19.65725
20
47.0339233875098
30
0
41
1
10
20.325
20
46.4866956816852
30
0
0
SPLINE
5
21C
100
AcDbEntity
8
1
62
256
6
ByLayer
370
18
48
1
60
0
100
AcDbSpline
70
4
71
2
72
6
73
3
40
0
40
0
40
0
40
1
40
1
40
1
41
1
10
19.6572499999999
20
47.6776005261934
30
0
41
1
10
19.6045645063461
20
47.7519047405792
30
0
41
1
10
19.5749999999987
20
47.8158508764163
30
0
0
SPLINE
5
21D
100
AcDbEntity
8
1
62
256
6
ByLayer
370
18
48
1
60
0
100
AcDbSpline
70
4
71
1
72
4
73
2
40
0
40
0
40
1
40
1
41
1
10
20.325
20
46.7068443712393
30
0
41
1
10
19.6572499999999
20
47.6776005261934
30
0
0
SPLINE
5
21E
100
AcDbEntity
8
1
62
256
6
ByLayer
370
18
48
1
60
0
100
AcDbSpline
70
4
71
1
72
4
73
2
40
0
40
0
40
1
40
1
41
1
10
20.325
20
13.5133043183148
30
0
41
1
10
19.65725
20
12.9660766124902
30
0
0
SPLINE
5
21F
100
AcDbEntity
8
1
62
256
6
ByLayer
370
18
48
1
60
0
100
AcDbSpline
70
4
71
1
72
4
73
2
40
0
40
0
40
1
40
1
41
1
10
19.6572499999999
20
12.3223994738066
30
0
41
1
10
20.325
20
13.2931556287607
30
0
0
SPLINE
5
220
100
AcDbEntity
8
1
62
256
6
ByLayer
370
18
48
1
60
0
100
AcDbSpline
70
4
71
2
72
6
73
3
40
0
40
0
40
0
40
1
40
1
40
1
41
1
10
19.575
20
12.184149123579
30
0
41
1
10
19.6053731791001
20
12.2489947201671
30
0
41
1
10
19.6572499999999
20
12.3223994738066
30
0
0
SPLINE
5
221
100
AcDbEntity
8
1
62
256
6
ByLayer
370
18
48
1
60
0
100
AcDbSpline
70
4
71
3
72
11
73
7
40
0
40
0
40
0
40
0
40
0.29716895597174
40
0.626686313929946
40
0.952513890801836
40
1
40
1
40
1
40
1
41
1
10
0.445278524502386
20
49.0376454920543
30
0
41
1
10
0.445155778313585
20
49.0419635720491
30
0
41
1
10
0.438485741835081
20
49.0505713739609
30
0
41
1
10
0.406658917001785
20
49.0626751020981
30
0
41
1
10
0.36899014583178
20
49.0694663863578
30
0
41
1
10
0.346229865844484
20
49.0721832046573
30
0
41
1
10
0.343278579257494
20
49.0725162136181
30
0
0
SPLINE
5
222
100
AcDbEntity
8
1
62
256
6
ByLayer
370
18
48
1
60
0
100
AcDbSpline
70
4
71
3
72
11
73
7
40
0
40
0
40
0
40
0
40
0.295974197754774
40
0.625535325953502
40
0.951744419531782
40
1
40
1
40
1
40
1
41
1
10
0.445278524557996
20
-49.0377049888007
30
0
41
1
10
0.445155374617638
20
-49.0333984513283
30
0
41
1
10
0.438521120793694
20
-49.0247504568014
30
0
41
1
10
0.406796752910247
20
-49.0123949734303
30
0
41
1
10
0.369104352183203
20
-49.0053537817244
30
0
41
1
10
0.346278147807256
20
-49.0025241526007
30
0
41
1
10
0.34327857925749
20
-49.0021725637159
30
0
0
SPLINE
5
223
100
AcDbEntity
8
1
62
256
6
ByLayer
370
18
48
1
60
0
100
AcDbSpline
70
4
71
2
72
6
73
3
40
0
40
0
40
0
40
1
40
1
40
1
41
1
10
19.5550001359506
20
12.1393100796609
30
0
41
1
10
19.5550336082705
20
12.1626912793205
30
0
41
1
10
19.5749999999535
20
12.1841491235788
30
0
0
SPLINE
5
224
100
AcDbEntity
8
1
62
256
6
ByLayer
370
18
48
1
60
0
100
AcDbSpline
70
4
71
3
72
10
73
6
40
0
40
0
40
0
40
0
40
0.384877477119002
40
0.765038737465554
40
1
40
1
40
1
40
1
41
1
10
19.65725
20
12.1429778690194
30
0
41
1
10
19.6448237818553
20
12.1324956182592
30
0
41
1
10
19.6216492112732
20
12.1150863951835
30
0
41
1
10
19.5930533324542
20
12.098974747578
30
0
41
1
10
19.5796808766912
20
12.095716458915
30
0
41
1
10
19.5749999999999
20
12.0952548873453
30
0
0
SPLINE
5
225
100
AcDbEntity
8
1
62
256
6
ByLayer
370
18
48
1
60
0
100
AcDbSpline
70
4
71
2
72
6
73
3
40
0
40
0
40
0
40
1
40
1
40
1
41
1
10
19.5550001731808
20
47.8604369877087
30
0
41
1
10
19.5550023625456
20
47.8837739593982
30
0
41
1
10
19.5749999999614
20
47.9047451126553
30
0
0
SPLINE
5
226
100
AcDbEntity
8
1
62
256
6
ByLayer
370
18
48
1
60
0
100
AcDbSpline
70
4
71
3
72
10
73
6
40
0
40
0
40
0
40
0
40
0.198744249071475
40
0.559944425983463
40
1
40
1
40
1
40
1
41
1
10
19.575
20
47.9047451126546
30
0
41
1
10
19.5789215362046
20
47.9043834331064
30
0
41
1
10
19.5908816294696
20
47.9017421018553
30
0
41
1
10
19.6187862009526
20
47.8869628989576
30
0
41
1
10
19.6429217941308
20
47.8691373468106
30
0
41
1
10
19.65725
20
47.8570221309806
30
0
0
SPLINE
5
227
100
AcDbEntity
8
1
62
256
6
ByLayer
370
18
48
1
60
0
100
AcDbSpline
70
4
71
1
72
4
73
2
40
0
40
0
40
1
40
1
41
1
10
19.65725
20
47.8570221309806
30
0
41
1
10
20.325
20
47.3024059306364
30
0
0
SPLINE
5
228
100
AcDbEntity
8
1
62
256
6
ByLayer
370
18
48
1
60
0
100
AcDbSpline
70
4
71
2
72
6
73
3
40
0
40
0
40
0
40
1
40
1
40
1
41
1
10
19.65725
20
48.3787613007214
30
0
41
1
10
19.6049065988765
20
48.4474287016091
30
0
41
1
10
19.5749999999982
20
48.5045712021538
30
0
0
SPLINE
5
229
100
AcDbEntity
8
1
62
256
6
ByLayer
370
18
48
1
60
0
100
AcDbSpline
70
4
71
1
72
4
73
2
40
0
40
0
40
1
40
1
41
1
10
20.325
20
47.4801754097831
30
0
41
1
10
19.65725
20
48.3787613007214
30
0
0
SPLINE
5
22A
100
AcDbEntity
8
1
62
256
6
ByLayer
370
18
48
1
60
0
100
AcDbSpline
70
4
71
1
72
4
73
2
40
0
40
0
40
1
40
1
41
1
10
20.325
20
12.6975940693636
30
0
41
1
10
19.65725
20
12.1429778690194
30
0
0
SPLINE
5
22B
100
AcDbEntity
8
1
62
256
6
ByLayer
370
18
48
1
60
0
100
AcDbSpline
70
4
71
1
72
4
73
2
40
0
40
0
40
1
40
1
41
1
10
19.65725
20
11.6212386992786
30
0
41
1
10
20.325
20
12.5198245902168
30
0
0
SPLINE
5
22C
100
AcDbEntity
8
1
62
256
6
ByLayer
370
18
48
1
60
0
100
AcDbSpline
70
4
71
2
72
6
73
3
40
0
40
0
40
0
40
1
40
1
40
1
41
1
10
19.575
20
11.4954287978422
30
0
41
1
10
19.6056996891863
20
11.5534343487349
30
0
41
1
10
19.65725
20
11.6212386992786
30
0
0
SPLINE
5
22D
100
AcDbEntity
8
1
62
256
6
ByLayer
370
18
48
1
60
0
100
AcDbSpline
70
4
71
3
72
11
73
7
40
0
40
0
40
0
40
0
40
0.294923347322282
40
0.622194231341096
40
0.946848376515928
40
1
40
1
40
1
40
1
41
1
10
0.445278525546052
20
49.3125607472898
30
0
41
1
10
0.445152377729789
20
49.3161727351378
30
0
41
1
10
0.438563080196452
20
49.3233746075369
30
0
41
1
10
0.407076015522739
20
49.33350048767
30
0
41
1
10
0.369509104604142
20
49.3392380101052
30
0
41
1
10
0.346575021909495
20
49.3415499277445
30
0
41
1
10
0.343278579257495
20
49.3418619428645
30
0
0
SPLINE
5
22E
100
AcDbEntity
8
1
62
256
6
ByLayer
370
18
48
1
60
0
100
AcDbSpline
70
4
71
3
72
11
73
7
40
0
40
0
40
0
40
0
40
0.293931380451792
40
0.6212369039127
40
0.94620376859013
40
1
40
1
40
1
40
1
41
1
10
0.445278525614329
20
-49.3126103389967
30
0
41
1
10
0.445152091986094
20
-49.3090050401784
30
0
41
1
10
0.438592378574265
20
-49.3017606612457
30
0
41
1
10
0.407190107331493
20
-49.2913881010686
30
0
41
1
10
0.369604039499765
20
-49.2854097358579
30
0
41
1
10
0.346615434047826
20
-49.2829886678046
30
0
41
1
10
0.34327857925749
20
-49.282658446063
30
0
0
SPLINE
5
22F
100
AcDbEntity
8
1
62
256
6
ByLayer
370
18
48
1
60
0
100
AcDbSpline
70
4
71
2
72
6
73
3
40
0
40
0
40
0
40
1
40
1
40
1
41
1
10
19.5550001413646
20
48.5403989471739
30
0
41
1
10
19.5550368078283
20
48.5591499133228
30
0
41
1
10
19.575
20
48.5759329408854
30
0
0
SPLINE
5
230
100
AcDbEntity
8
1
62
256
6
ByLayer
370
18
48
1
60
0
100
AcDbSpline
70
4
71
1
72
4
73
2
40
0
40
0
40
1
40
1
41
1
10
19.575
20
48.5759329408855
30
0
41
1
10
19.5850277786454
20
48.5724996821521
30
0
0
SPLINE
5
231
100
AcDbEntity
8
1
62
256
6
ByLayer
370
18
48
1
60
0
100
AcDbSpline
70
4
71
3
72
10
73
6
40
0
40
0
40
0
40
0
40
0.0739751454778461
40
0.523992429773354
40
1
40
1
40
1
40
1
41
1
10
19.5850277786454
20
48.5724996821521
30
0
41
1
10
19.5864656465722
20
48.5718845160073
30
0
41
1
10
19.5968420055275
20
48.567194503055
30
0
41
1
10
19.6205617086668
20
48.552384381868
30
0
41
1
10
19.6442281591494
20
48.5339114382177
30
0
41
1
10
19.65725
20
48.5227409635051
30
0
0
SPLINE
5
232
100
AcDbEntity
8
1
62
256
6
ByLayer
370
18
48
1
60
0
100
AcDbSpline
70
4
71
2
72
6
73
3
40
0
40
0
40
0
40
1
40
1
40
1
41
1
10
19.5550001127095
20
11.4594169309005
30
0
41
1
10
19.555059603012
20
11.478199029914
30
0
41
1
10
19.575
20
11.4954287978422
30
0
0
SPLINE
5
233
100
AcDbEntity
8
1
62
256
6
ByLayer
370
18
48
1
60
0
100
AcDbSpline
70
4
71
3
72
10
73
6
40
0
40
0
40
0
40
0
40
0.418433628928439
40
0.813117480439326
40
1
40
1
40
1
40
1
41
1
10
19.65725
20
11.4772590364949
30
0
41
1
10
19.6436241656967
20
11.465559229852
30
0
41
1
10
19.6190524800908
20
11.4464591089246
30
0
41
1
10
19.5911103209627
20
11.429386695399
30
0
41
1
10
19.5787088415848
20
11.4250176001024
30
0
41
1
10
19.5749999999918
20
11.4240670591032
30
0
0
SPLINE
5
234
100
AcDbEntity
8
1
62
256
6
ByLayer
370
18
48
1
60
0
100
AcDbSpline
70
4
71
1
72
4
73
2
40
0
40
0
40
1
40
1
41
1
10
19.65725
20
48.5227409635051
30
0
41
1
10
20.325
20
47.9564853876405
30
0
0
SPLINE
5
235
100
AcDbEntity
8
1
62
256
6
ByLayer
370
18
48
1
60
0
100
AcDbSpline
70
4
71
2
72
6
73
3
40
0
40
0
40
0
40
1
40
1
40
1
41
1
10
19.65725
20
48.9356851878699
30
0
41
1
10
19.6052382992455
20
48.99965909515
30
0
41
1
10
19.5749999999977
20
49.0508206726239
30
0
0
SPLINE
5
236
100
AcDbEntity
8
1
62
256
6
ByLayer
370
18
48
1
60
0
100
AcDbSpline
70
4
71
1
72
4
73
2
40
0
40
0
40
1
40
1
41
1
10
20.325
20
48.0968067865235
30
0
41
1
10
19.65725
20
48.9356851878699
30
0
0
SPLINE
5
237
100
AcDbEntity
8
1
62
256
6
ByLayer
370
18
48
1
60
0
100
AcDbSpline
70
4
71
1
72
4
73
2
40
0
40
0
40
1
40
1
41
1
10
20.325
20
12.0435146123595
30
0
41
1
10
19.65725
20
11.4772590364949
30
0
0
SPLINE
5
238
100
AcDbEntity
8
1
62
256
6
ByLayer
370
18
48
1
60
0
100
AcDbSpline
70
4
71
1
72
4
73
2
40
0
40
0
40
1
40
1
41
1
10
19.65725
20
11.0643148121301
30
0
41
1
10
20.325
20
11.9031932134765
30
0
0
SPLINE
5
239
100
AcDbEntity
8
1
62
256
6
ByLayer
370
18
48
1
60
0
100
AcDbSpline
70
4
71
2
72
6
73
3
40
0
40
0
40
0
40
1
40
1
40
1
41
1
10
19.575
20
10.9491793273733
30
0
41
1
10
19.6060226717568
20
11.0011773327782
30
0
41
1
10
19.65725
20
11.0643148121301
30
0
0
SPLINE
5
23A
100
AcDbEntity
8
1
62
256
6
ByLayer
370
18
48
1
60
0
100
AcDbSpline
70
4
71
3
72
11
73
7
40
0
40
0
40
0
40
0
40
0.293078327518872
40
0.618503802742577
40
0.942182798799251
40
1
40
1
40
1
40
1
41
1
10
0.445278526419971
20
49.540555183754
30
0
41
1
10
0.445149676299807
20
49.5434827694959
30
0
41
1
10
0.438626252250796
20
49.5493195875095
30
0
41
1
10
0.407417134976679
20
49.5575189797166
30
0
41
1
10
0.369933734782658
20
49.5621993266782
30
0
41
1
10
0.346858185332112
20
49.5640959011256
30
0
41
1
10
0.343278579257495
20
49.5643705946276
30
0
0
SPLINE
5
23B
100
AcDbEntity
8
1
62
256
6
ByLayer
370
18
48
1
60
0
100
AcDbSpline
70
4
71
3
72
11
73
7
40
0
40
0
40
0
40
0
40
0.292279204801681
40
0.617731476696675
40
0.941659717997319
40
1
40
1
40
1
40
1
41
1
10
0.445278526488633
20
-49.540595255322
30
0
41
1
10
0.445149478441849
20
-49.5376704792361
30
0
41
1
10
0.43864980534822
20
-49.5317892920133
30
0
41
1
10
0.407508818045974
20
-49.523347279739
30
0
41
1
10
0.370010288022677
20
-49.5184334095843
30
0
41
1
10
0.346890956099808
20
-49.5164306641021
30
0
41
1
10
0.343278579257493
20
-49.5161380870764
30
0
0
SPLINE
5
23C
100
AcDbEntity
8
1
62
256
6
ByLayer
370
18
48
1
60
0
100
AcDbSpline
70
4
71
2
72
6
73
3
40
0
40
0
40
0
40
1
40
1
40
1
41
1
10
19.5550000908887
20
10.9211553376678
30
0
41
1
10
19.5550772062087
20
10.9357638354813
30
0
41
1
10
19.575
20
10.9491793273733
30
0
0
SPLINE
5
23D
100
AcDbEntity
8
1
62
256
6
ByLayer
370
18
48
1
60
0
100
AcDbSpline
70
4
71
2
72
6
73
3
40
0
40
0
40
0
40
1
40
1
40
1
41
1
10
19.5550001109454
20
49.0787170351398
30
0
41
1
10
19.5550608170359
20
49.0933031283931
30
0
41
1
10
19.575
20
49.1062992675038
30
0
0
SPLINE
5
23E
100
AcDbEntity
8
1
62
256
6
ByLayer
370
18
48
1
60
0
100
AcDbSpline
70
4
71
1
72
4
73
2
40
0
40
0
40
1
40
1
41
1
10
19.5749999999992
20
49.1062992675049
30
0
41
1
10
19.5813151565788
20
49.1034442049165
30
0
0
SPLINE
5
23F
100
AcDbEntity
8
1
62
256
6
ByLayer
370
18
48
1
60
0
100
AcDbSpline
70
4
71
3
72
10
73
6
40
0
40
0
40
0
40
0
40
0.15399788311641
40
0.596265366491259
40
1
40
1
40
1
40
1
41
1
10
19.5813151565788
20
49.1034442049165
30
0
41
1
10
19.5843763939041
20
49.1018990076495
30
0
41
1
10
19.5967412582977
20
49.0951142253083
30
0
41
1
10
19.6222894625963
20
49.0769855973007
30
0
41
1
10
19.6454895523377
20
49.0578943081884
30
0
41
1
10
19.65725
20
49.047588461952
30
0
0
SPLINE
5
240
100
AcDbEntity
8
1
62
256
6
ByLayer
370
18
48
1
60
0
100
AcDbSpline
70
4
71
3
72
10
73
6
40
0
40
0
40
0
40
0
40
0.451144723314504
40
0.858558960327612
40
1
40
1
40
1
40
1
41
1
10
19.65725
20
10.952411538048
30
0
41
1
10
19.6424400083254
20
10.9393956105663
30
0
41
1
10
19.6165715531896
20
10.9184397957887
30
0
41
1
10
19.5892775211581
20
10.9001938333196
30
0
41
1
10
19.5777969933501
20
10.8948412400738
30
0
41
1
10
19.5749999999915
20
10.8937007324803
30
0
0
SPLINE
5
241
100
AcDbEntity
8
1
62
256
6
ByLayer
370
18
48
1
60
0
100
AcDbSpline
70
4
71
1
72
4
73
2
40
0
40
0
40
1
40
1
41
1
10
19.65725
20
49.047588461952
30
0
41
1
10
20.325
20
48.466117187015
30
0
0
SPLINE
5
242
100
AcDbEntity
8
1
62
256
6
ByLayer
370
18
48
1
60
0
100
AcDbSpline
70
4
71
1
72
4
73
2
40
0
40
0
40
1
40
1
41
1
10
20.325
20
11.533882812985
30
0
41
1
10
19.65725
20
10.952411538048
30
0
0
SPLINE
5
243
100
AcDbEntity
8
1
62
256
6
ByLayer
370
18
48
1
60
0
100
AcDbSpline
70
4
71
2
72
6
73
3
40
0
40
0
40
0
40
1
40
1
40
1
41
1
10
19.65725
20
49.3608233326823
30
0
41
1
10
19.6061613737563
20
49.4201904548902
30
0
41
1
10
19.5749999999972
20
49.4665965496126
30
0
0
SPLINE
5
244
100
AcDbEntity
8
1
62
256
6
ByLayer
370
18
48
1
60
0
100
AcDbSpline
70
4
71
1
72
4
73
2
40
0
40
0
40
1
40
1
41
1
10
20.325
20
48.5723530921835
30
0
41
1
10
19.65725
20
49.3608233326823
30
0
0
SPLINE
5
245
100
AcDbEntity
8
1
62
256
6
ByLayer
370
18
48
1
60
0
100
AcDbSpline
70
4
71
1
72
4
73
2
40
0
40
0
40
1
40
1
41
1
10
19.65725
20
10.6391766673177
30
0
41
1
10
20.325
20
11.4276469078165
30
0
0
SPLINE
5
246
100
AcDbEntity
8
1
62
256
6
ByLayer
370
18
48
1
60
0
100
AcDbSpline
70
4
71
2
72
6
73
3
40
0
40
0
40
0
40
1
40
1
40
1
41
1
10
19.575
20
10.5334034503862
30
0
41
1
10
19.6063414089195
20
10.5799969215743
30
0
41
1
10
19.65725
20
10.6391766673177
30
0
0
SPLINE
5
247
100
AcDbEntity
8
1
62
256
6
ByLayer
370
18
48
1
60
0
100
AcDbSpline
70
4
71
3
72
11
73
7
40
0
40
0
40
0
40
0
40
0.291611055862848
40
0.615577258718521
40
0.93848032862325
40
1
40
1
40
1
40
1
41
1
10
0.445278527121968
20
49.7222742711062
30
0
41
1
10
0.445147595900801
20
49.7245346106451
30
0
41
1
10
0.438676217706926
20
49.7290387886114
30
0
41
1
10
0.407686855012844
20
49.735352508855
30
0
41
1
10
0.37026925664168
20
49.738973123957
30
0
41
1
10
0.347082222461633
20
49.7404461624555
30
0
41
1
10
0.343278579257497
20
49.7406707322536
30
0
0
SPLINE
5
248
100
AcDbEntity
8
1
62
256
6
ByLayer
370
18
48
1
60
0
100
AcDbSpline
70
4
71
3
72
11
73
7
40
0
40
0
40
0
40
0
40
0.290996961029192
40
0.614983090752254
40
0.938076064581868
40
1
40
1
40
1
40
1
41
1
10
0.445278527182561
20
-49.7223051343568
30
0
41
1
10
0.445147463328253
20
-49.7200446040388
30
0
41
1
10
0.438694287515325
20
-49.7154946082496
30
0
41
1
10
0.407757171969485
20
-49.7089414109665
30
0
41
1
10
0.37032812962837
20
-49.7050929813422
30
0
41
1
10
0.347107536059105
20
-49.7035161102038
30
0
41
1
10
0.343278579257494
20
-49.7032739224041
30
0
0
SPLINE
5
249
100
AcDbEntity
8
1
62
256
6
ByLayer
370
18
48
1
60
0
100
AcDbSpline
70
4
71
2
72
6
73
3
40
0
40
0
40
0
40
1
40
1
40
1
41
1
10
19.5550000745057
20
10.5127844187369
30
0
41
1
10
19.5550886371773
20
10.5235150656406
30
0
41
1
10
19.575
20
10.5334034503862
30
0
0
SPLINE
5
24A
100
AcDbEntity
8
1
62
256
6
ByLayer
370
18
48
1
60
0
100
AcDbSpline
70
4
71
3
72
10
73
6
40
0
40
0
40
0
40
0
40
0.483353424226619
40
0.901965703789489
40
1
40
1
40
1
40
1
41
1
10
19.65725
20
10.5570238998587
30
0
41
1
10
19.6412585509182
20
10.5425725581962
30
0
41
1
10
19.6141744679229
20
10.5195738095138
30
0
41
1
10
19.5875302832658
20
10.4999626385838
30
0
41
1
10
19.5769319185741
20
10.4937412040591
30
0
41
1
10
19.5749999999997
20
10.4926665385915
30
0
0
SPLINE
5
24B
100
AcDbEntity
8
1
62
256
6
ByLayer
370
18
48
1
60
0
100
AcDbSpline
70
4
71
2
72
6
73
3
40
0
40
0
40
0
40
1
40
1
40
1
41
1
10
19.5550000876168
20
49.4871315537117
30
0
41
1
10
19.5550773103071
20
49.4978457091931
30
0
41
1
10
19.575
20
49.5073334614079
30
0
0
SPLINE
5
24C
100
AcDbEntity
8
1
62
256
6
ByLayer
370
18
48
1
60
0
100
AcDbSpline
70
4
71
3
72
10
73
6
40
0
40
0
40
0
40
0
40
0.259969512077249
40
0.675691557322561
40
1
40
1
40
1
40
1
41
1
10
19.575
20
49.5073334614079
30
0
41
1
10
19.5802784972633
20
49.504338331664
30
0
41
1
10
19.5952404593641
20
49.4948161994882
30
0
41
1
10
19.6239948187394
20
49.4721363317758
30
0
41
1
10
19.6467347400733
20
49.4524443024325
30
0
41
1
10
19.65725
20
49.4429761001413
30
0
0
SPLINE
5
24D
100
AcDbEntity
8
1
62
256
6
ByLayer
370
18
48
1
60
0
100
AcDbSpline
70
4
71
1
72
4
73
2
40
0
40
0
40
1
40
1
41
1
10
19.65725
20
49.4429761001413
30
0
41
1
10
20.325
20
48.8430252468279
30
0
0
SPLINE
5
24E
100
AcDbEntity
8
1
62
256
6
ByLayer
370
18
48
1
60
0
100
AcDbSpline
70
4
71
2
72
6
73
3
40
0
40
0
40
0
40
1
40
1
40
1
41
1
10
19.65725
20
49.6627258208153
30
0
41
1
10
19.6062391642924
20
49.7189338205118
30
0
41
1
10
19.5749999999968
20
49.7601364911863
30
0
0
SPLINE
5
24F
100
AcDbEntity
8
1
62
256
6
ByLayer
370
18
48
1
60
0
100
AcDbSpline
70
4
71
1
72
4
73
2
40
0
40
0
40
1
40
1
41
1
10
20.325
20
48.9174570937194
30
0
41
1
10
19.65725
20
49.6627258208153
30
0
0
SPLINE
5
250
100
AcDbEntity
8
1
62
256
6
ByLayer
370
18
48
1
60
0
100
AcDbSpline
70
4
71
1
72
4
73
2
40
0
40
0
40
1
40
1
41
1
10
20.325
20
11.1569747531721
30
0
41
1
10
19.65725
20
10.5570238998587
30
0
0
SPLINE
5
251
100
AcDbEntity
8
1
62
256
6
ByLayer
370
18
48
1
60
0
100
AcDbSpline
70
4
71
1
72
4
73
2
40
0
40
0
40
1
40
1
41
1
10
19.65725
20
10.3372741791847
30
0
41
1
10
20.325
20
11.0825429062806
30
0
0
SPLINE
5
252
100
AcDbEntity
8
1
62
256
6
ByLayer
370
18
48
1
60
0
100
AcDbSpline
70
4
71
2
72
6
73
3
40
0
40
0
40
0
40
1
40
1
40
1
41
1
10
19.575
20
10.2398635088142
30
0
41
1
10
19.605961524824
20
10.2807785334062
30
0
41
1
10
19.65725
20
10.3372741791847
30
0
0
SPLINE
5
253
100
AcDbEntity
8
1
62
256
6
ByLayer
370
18
48
1
60
0
100
AcDbSpline
70
4
71
3
72
11
73
7
40
0
40
0
40
0
40
0
40
0.290503824857906
40
0.613385303041789
40
0.935712162354364
40
1
40
1
40
1
40
1
41
1
10
0.445278527651359
20
49.8582240138778
30
0
41
1
10
0.445146078722967
20
49.8598301379026
30
0
41
1
10
0.438713713774715
20
49.8630262929141
30
0
41
1
10
0.407888703711126
20
49.8674853274439
30
0
41
1
10
0.370519694255539
20
49.8700442879609
30
0
41
1
10
0.347249356553349
20
49.8710875971446
30
0
41
1
10
0.343278579257499
20
49.8712524140647
30
0
0
SPLINE
5
254
100
AcDbEntity
8
1
62
256
6
ByLayer
370
18
48
1
60
0
100
AcDbSpline
70
4
71
3
72
11
73
7
40
0
40
0
40
0
40
0
40
0.290068869546595
40
0.612964114643736
40
0.935424620048491
40
1
40
1
40
1
40
1
41
1
10
0.44527852769821
20
-49.8582459092187
30
0
41
1
10
0.44514599501023
20
-49.8566374014259
30
0
41
1
10
0.438726496773839
20
-49.8533943654561
30
0
41
1
10
0.407938436052566
20
-49.8486981530964
30
0
41
1
10
0.370561416681638
20
-49.8459155776934
30
0
41
1
10
0.347267354547182
20
-49.8447701643932
30
0
41
1
10
0.343278579257498
20
-49.844587932419
30
0
0
SPLINE
5
255
100
AcDbEntity
8
1
62
256
6
ByLayer
370
18
48
1
60
0
100
AcDbSpline
70
4
71
2
72
6
73
3
40
0
40
0
40
0
40
1
40
1
40
1
41
1
10
19.555000071718
20
49.7736939468021
30
0
41
1
10
19.5550882814786
20
49.7807339890722
30
0
41
1
10
19.575
20
49.7869008652115
30
0
0
SPLINE
5
256
100
AcDbEntity
8
1
62
256
6
ByLayer
370
18
48
1
60
0
100
AcDbSpline
70
4
71
3
72
10
73
6
40
0
40
0
40
0
40
0
40
0.280044978436591
40
0.714628098549719
40
1
40
1
40
1
40
1
41
1
10
19.575
20
49.7869008652115
30
0
41
1
10
19.5807151367468
20
49.7828170960607
30
0
41
1
10
19.5966698937041
20
49.7706640381295
30
0
41
1
10
19.6256925078117
20
49.7456053200822
30
0
41
1
10
19.6479881110838
20
49.7253063732952
30
0
41
1
10
19.65725
20
49.7166937655745
30
0
0
SPLINE
5
257
100
AcDbEntity
8
1
62
256
6
ByLayer
370
18
48
1
60
0
100
AcDbSpline
70
4
71
2
72
6
73
3
40
0
40
0
40
0
40
1
40
1
40
1
41
1
10
19.5550000639219
20
10.2262555344868
30
0
41
1
10
19.5550954092271
20
10.2333082110255
30
0
41
1
10
19.575
20
10.2398635088142
30
0
0
SPLINE
5
258
100
AcDbEntity
8
1
62
256
6
ByLayer
370
18
48
1
60
0
100
AcDbSpline
70
4
71
3
72
10
73
6
40
0
40
0
40
0
40
0
40
0.515357565499856
40
0.940129085265659
40
1
40
1
40
1
40
1
41
1
10
19.65725
20
10.2833062344255
30
0
41
1
10
19.6400705593401
20
10.2672784611107
30
0
41
1
10
19.6119426897589
20
10.2421157378169
30
0
41
1
10
19.5859416938002
20
10.2209321058357
30
0
41
1
10
19.5761763344866
20
10.2139279318497
30
0
41
1
10
19.575
20
10.2130991347885
30
0
0
SPLINE
5
259
100
AcDbEntity
8
1
62
256
6
ByLayer
370
18
48
1
60
0
100
AcDbSpline
70
4
71
1
72
4
73
2
40
0
40
0
40
1
40
1
41
1
10
19.65725
20
49.7166937655745
30
0
41
1
10
20.325
20
49.095070487972
30
0
0
SPLINE
5
25A
100
AcDbEntity
8
1
62
256
6
ByLayer
370
18
48
1
60
0
100
AcDbSpline
70
4
71
2
72
6
73
3
40
0
40
0
40
0
40
1
40
1
40
1
41
1
10
19.65725
20
49.8470172391163
30
0
41
1
10
19.6062935736562
20
49.9005327214963
30
0
41
1
10
19.5749999999966
20
49.9368404486577
30
0
0
SPLINE
5
25B
100
AcDbEntity
8
1
62
256
6
ByLayer
370
18
48
1
60
0
100
AcDbSpline
70
4
71
1
72
4
73
2
40
0
40
0
40
1
40
1
41
1
10
20.325
20
49.1391762206395
30
0
41
1
10
19.65725
20
49.8470172391163
30
0
0
SPLINE
5
25C
100
AcDbEntity
8
1
62
256
6
ByLayer
370
18
48
1
60
0
100
AcDbSpline
70
4
71
1
72
4
73
2
40
0
40
0
40
1
40
1
41
1
10
20.325
20
10.904929512028
30
0
41
1
10
19.65725
20
10.2833062344255
30
0
0
SPLINE
5
25D
100
AcDbEntity
8
1
62
256
6
ByLayer
370
18
48
1
60
0
100
AcDbSpline
70
4
71
1
72
4
73
2
40
0
40
0
40
1
40
1
41
1
10
19.65725
20
10.1529827608837
30
0
41
1
10
20.325
20
10.8608237793605
30
0
0
SPLINE
5
25E
100
AcDbEntity
8
1
62
256
6
ByLayer
370
18
48
1
60
0
100
AcDbSpline
70
4
71
3
72
10
73
6
40
0
40
0
40
0
40
0
40
0.344370590417167
40
0.993801653719582
40
1
40
1
40
1
40
1
41
1
10
19.575
20
10.0631595513445
30
0
41
1
10
19.5821102283524
20
10.0714190872389
30
0
41
1
10
19.6046581845445
20
10.0970035505827
30
0
41
1
10
19.6357782438997
20
10.1303827970112
30
0
41
1
10
19.6570487070599
20
10.1527709330608
30
0
41
1
10
19.65725
20
10.1529827608837
30
0
0
SPLINE
5
25F
100
AcDbEntity
8
1
62
256
6
ByLayer
370
18
48
1
60
0
100
AcDbSpline
70
4
71
3
72
11
73
7
40
0
40
0
40
0
40
0
40
0.289483637661829
40
0.61165454696634
40
0.933684717792496
40
1
40
1
40
1
40
1
41
1
10
0.445278528037615
20
-49.9487912552934
30
0
41
1
10
0.445145037673024
20
-49.9478263189875
30
0
41
1
10
0.438746912789047
20
-49.9458732963665
30
0
41
1
10
0.408054956777777
20
-49.9430115899622
30
0
41
1
10
0.370712933010103
20
-49.9412948860679
30
0
41
1
10
0.347372001414389
20
-49.940584723122
30
0
41
1
10
0.343278579257498
20
-49.9404690977144
30
0
0
SPLINE
5
260
100
AcDbEntity
8
1
62
256
6
ByLayer
370
18
48
1
60
0
100
AcDbSpline
70
4
71
3
72
10
73
6
40
0
40
0
40
0
40
0
40
0.453586622986296
40
0.906874519580857
40
1
40
1
40
1
40
1
41
1
10
0.436002609576091
20
49.9515023431635
30
0
41
1
10
0.4287013794976
20
49.9524956991377
30
0
41
1
10
0.408273768422731
20
49.9542530509371
30
0
41
1
10
0.370674663650901
20
49.9557675545837
30
0
41
1
10
0.347361218778353
20
49.9563758055494
30
0
41
1
10
0.343278579257501
20
49.9564741530088
30
0
0
SPLINE
5
261
100
AcDbEntity
8
1
62
256
6
ByLayer
370
18
48
1
60
0
100
AcDbSpline
70
4
71
2
72
6
73
3
40
0
40
0
40
0
40
1
40
1
40
1
41
1
10
19.5550000621865
20
49.9436586785733
30
0
41
1
10
19.5550950302991
20
49.9471470906092
30
0
41
1
10
19.5749999999999
20
49.9501085943123
30
0
0
SPLINE
5
262
100
AcDbEntity
8
1
62
256
6
ByLayer
370
18
48
1
60
0
100
AcDbSpline
70
4
71
3
72
10
73
6
40
0
40
0
40
0
40
0
40
0.300790735310199
40
0.867596727738163
40
1
40
1
40
1
40
1
41
1
10
19.575
20
49.9501085943123
30
0
41
1
10
19.5811811423247
20
49.9447813507191
30
0
41
1
10
19.6006350449778
20
49.9275680347332
30
0
41
1
10
19.630866538456
20
49.899117906103
30
0
41
1
10
19.6529738858701
20
49.87789280074
30
0
41
1
10
19.65725
20
49.873769306808
30
0
0
SPLINE
5
263
100
AcDbEntity
8
1
62
256
6
ByLayer
370
18
48
1
60
0
100
AcDbSpline
70
4
71
2
72
6
73
3
40
0
40
0
40
0
40
1
40
1
40
1
41
1
10
19.55500005857
20
10.0563176834429
30
0
41
1
10
19.555098473791
20
10.0598165397736
30
0
41
1
10
19.5749999999999
20
10.0631595513445
30
0
0
SPLINE
5
264
100
AcDbEntity
8
1
62
256
6
ByLayer
370
18
48
1
60
0
100
AcDbSpline
70
4
71
2
72
6
73
3
40
0
40
0
40
0
40
1
40
1
40
1
41
1
10
19.65725
20
10.126230693192
30
0
41
1
10
19.6063238769226
20
10.0769706015763
30
0
41
1
10
19.575
20
10.0498914056877
30
0
0
SPLINE
5
265
100
AcDbEntity
8
1
62
256
6
ByLayer
370
18
48
1
60
0
100
AcDbSpline
70
4
71
1
72
4
73
2
40
0
40
0
40
1
40
1
41
1
10
19.65725
20
49.873769306808
30
0
41
1
10
20.325
20
49.2271639465794
30
0
0
SPLINE
5
266
100
AcDbEntity
8
1
62
256
6
ByLayer
370
18
48
1
60
0
100
AcDbSpline
70
4
71
1
72
4
73
2
40
0
40
0
40
1
40
1
41
1
10
19.65725
20
49.9169626166994
30
0
41
1
10
19.617277951662
20
49.9571810689724
30
0
0
SPLINE
5
267
100
AcDbEntity
8
1
62
256
6
ByLayer
370
18
48
1
60
0
100
AcDbSpline
70
4
71
2
72
6
73
3
40
0
40
0
40
0
40
1
40
1
40
1
41
1
10
19.617277951662
20
49.9571810689724
30
0
41
1
10
19.5924647088564
20
49.9821744334142
30
0
41
1
10
19.575
20
49.9998054990542
30
0
0
SPLINE
5
268
100
AcDbEntity
8
1
62
256
6
ByLayer
370
18
48
1
60
0
100
AcDbSpline
70
4
71
1
72
4
73
2
40
0
40
0
40
1
40
1
41
1
10
20.325
20
49.2417761632513
30
0
41
1
10
19.65725
20
49.9169626166994
30
0
0
SPLINE
5
269
100
AcDbEntity
8
1
62
256
6
ByLayer
370
18
48
1
60
0
100
AcDbSpline
70
4
71
1
72
4
73
2
40
0
40
0
40
1
40
1
41
1
10
20.325
20
10.7728360534206
30
0
41
1
10
19.65725
20
10.126230693192
30
0
0
SPLINE
5
26A
100
AcDbEntity
8
1
62
256
6
ByLayer
370
18
48
1
60
0
100
AcDbSpline
70
4
71
1
72
4
73
2
40
0
40
0
40
1
40
1
41
1
10
19.65725
20
10.0830373833006
30
0
41
1
10
20.325
20
10.7582238367487
30
0
0
SPLINE
5
26B
100
AcDbEntity
8
1
62
256
6
ByLayer
370
18
48
1
60
0
100
AcDbSpline
70
4
71
3
72
10
73
6
40
0
40
0
40
0
40
0
40
0.322030608963993
40
0.929334820291916
40
1
40
1
40
1
40
1
41
1
10
19.575
20
10.0001945009458
30
0
41
1
10
19.5816365565627
20
10.0068948292607
30
0
41
1
10
19.6026015743208
20
10.028040265252
30
0
41
1
10
19.6332620629757
20
10.0589221372491
30
0
41
1
10
19.6549623610023
20
10.0807378446805
30
0
41
1
10
19.65725
20
10.0830373833006
30
0
0
SPLINE
5
26C
100
AcDbEntity
8
1
62
256
6
ByLayer
370
18
48
1
60
0
100
AcDbSpline
70
4
71
3
72
11
73
7
40
0
40
0
40
0
40
0
40
0.289234149448338
40
0.611041526323174
40
0.932842853912897
40
1
40
1
40
1
40
1
41
1
10
0.445278528202455
20
-49.9941878004707
30
0
41
1
10
0.445144569171132
20
-49.9938615661331
30
0
41
1
10
0.438755838948095
20
-49.9931885637891
30
0
41
1
10
0.408108229823077
20
-49.9921478519905
30
0
41
1
10
0.370784472112963
20
-49.9914967285779
30
0
41
1
10
0.347422512026061
20
-49.9912239382279
30
0
41
1
10
0.343278579257499
20
-49.9911788343392
30
0
0
SPLINE
5
26D
100
AcDbEntity
8
1
62
256
6
ByLayer
370
18
48
1
60
0
100
AcDbSpline
70
4
71
3
72
10
73
6
40
0
40
0
40
0
40
0
40
0.452813291001867
40
0.905584349014138
40
1
40
1
40
1
40
1
41
1
10
0.436024604893356
20
49.9950751601798
30
0
41
1
10
0.428737471632521
20
49.9953876282063
30
0
41
1
10
0.408346995169315
20
49.9959322708014
30
0
41
1
10
0.370762539759226
20
49.9963678136512
30
0
41
1
10
0.347418884860288
20
49.9965400094967
30
0
41
1
10
0.343278579257501
20
49.9965679047384
30
0
0
LINE
5
70
100
AcDbEntity
8
81
62
256
6
ByLayer
370
18
48
1
60
0
100
AcDbLine
10
20
20
30
30
0
11
22
21
30
31
0
39
0
210
0
220
0
230
1
0
LINE
5
71
100
AcDbEntity
8
4
62
256
6
ByLayer
370
18
48
0.05
60
0
100
AcDbLine
10
0
20
0
30
0
11
20
21
0
31
0
39
0
210
0
220
0
230
1
0
LINE
5
73
100
AcDbEntity
8
SK4
62
256
6
ByLayer
370
18
48
0.05
60
0
100
AcDbLine
10
-5
20
0
30
0
11
25
21
0
31
0
39
0
210
0
220
0
230
1
0
LINE
5
75
100
AcDbEntity
8
80
62
256
6
ByLayer
370
18
48
1
60
0
100
AcDbLine
10
0
20
0
30
0
11
-2
21
0
31
0
39
0
210
0
220
0
230
1
0
LINE
5
76
100
AcDbEntity
8
1
62
256
6
ByLayer
370
18
48
1
60
0
100
AcDbLine
10
-0.845699
20
-44.975165
30
0
11
-0.845699
21
-33.648694
31
0
39
0
210
0
220
0
230
1
0
LINE
5
78
100
AcDbEntity
8
1
62
256
6
ByLayer
370
18
48
1
60
0
100
AcDbLine
10
-0.845699
20
-24.351306
30
0
11
-0.845699
21
-5
31
0
39
0
210
0
220
0
230
1
0
LINE
5
79
100
AcDbEntity
8
1
62
256
6
ByLayer
370
18
48
1
60
0
100
AcDbLine
10
-0.845699
20
5
30
0
11
-0.845699
21
24.351306
31
0
39
0
210
0
220
0
230
1
0
LINE
5
7A
100
AcDbEntity
8
1
62
256
6
ByLayer
370
18
48
1
60
0
100
AcDbLine
10
-0.845699
20
33.648694
30
0
11
-0.845699
21
44.975165
31
0
39
0
210
0
220
0
230
1
0
LINE
5
7B
100
AcDbEntity
8
1
62
256
6
ByLayer
370
18
48
1
60
0
100
AcDbLine
10
4.175
20
50
30
0
11
-0.325
21
50
31
0
39
0
210
0
220
0
230
1
0
LINE
5
7C
100
AcDbEntity
8
1
62
256
6
ByLayer
370
18
48
1
60
0
100
AcDbLine
10
17.325
20
50
30
0
11
9.204741
21
50
31
0
39
0
210
0
220
0
230
1
0
LINE
5
7D
100
AcDbEntity
8
1
62
256
6
ByLayer
370
18
48
1
60
0
100
AcDbLine
10
-0.325
20
-50
30
0
11
16.325
21
-50
31
0
39
0
210
0
220
0
230
1
0
LINE
5
7E
100
AcDbEntity
8
1
62
256
6
ByLayer
370
18
48
1
60
0
100
AcDbLine
10
17.325
20
10
30
0
11
19.557538
21
10
31
0
39
0
210
0
220
0
230
1
0
LINE
5
7F
100
AcDbEntity
8
1
62
256
6
ByLayer
370
18
48
1
60
0
100
AcDbLine
10
19.557538
20
50
30
0
11
17.325
21
50
31
0
39
0
210
0
220
0
230
1
0
LINE
5
80
100
AcDbEntity
8
1
62
256
6
ByLayer
370
18
48
1
60
0
100
AcDbLine
10
19.65725
20
34.831396
30
0
11
19.65725
21
33.086813
31
0
39
0
210
0
220
0
230
1
0
LINE
5
81
100
AcDbEntity
8
1
62
256
6
ByLayer
370
18
48
1
60
0
100
AcDbLine
10
19.65725
20
26.913187
30
0
11
19.65725
21
25.168604
31
0
39
0
210
0
220
0
230
1
0
LINE
5
82
100
AcDbEntity
8
1
62
256
6
ByLayer
370
18
48
1
60
0
100
AcDbLine
10
20.325
20
33.455204
30
0
11
20.325
21
26.544796
31
0
39
0
210
0
220
0
230
1
0
LINE
5
83
100
AcDbEntity
8
1
62
256
6
ByLayer
370
18
48
1
60
0
100
AcDbLine
10
19.65725
20
38.89163
30
0
11
19.65725
21
38.143078
31
0
39
0
210
0
220
0
230
1
0
LINE
5
84
100
AcDbEntity
8
1
62
256
6
ByLayer
370
18
48
1
60
0
100
AcDbLine
10
19.65725
20
21.856922
30
0
11
19.65725
21
21.10837
31
0
39
0
210
0
220
0
230
1
0
LINE
5
85
100
AcDbEntity
8
1
62
256
6
ByLayer
370
18
48
1
60
0
100
AcDbLine
10
20.325
20
38.154787
30
0
11
20.325
21
35.098171
31
0
39
0
210
0
220
0
230
1
0
LINE
5
86
100
AcDbEntity
8
1
62
256
6
ByLayer
370
18
48
1
60
0
100
AcDbLine
10
20.325
20
24.901829
30
0
11
20.325
21
21.845213
31
0
39
0
210
0
220
0
230
1
0
LINE
5
87
100
AcDbEntity
8
1
62
256
6
ByLayer
370
18
48
1
60
0
100
AcDbLine
10
19.65725
20
41.414016
30
0
11
19.65725
21
40.889951
31
0
39
0
210
0
220
0
230
1
0
LINE
5
88
100
AcDbEntity
8
1
62
256
6
ByLayer
370
18
48
1
60
0
100
AcDbLine
10
19.65725
20
19.110049
30
0
11
19.65725
21
18.585984
31
0
39
0
210
0
220
0
230
1
0
LINE
5
89
100
AcDbEntity
8
1
62
256
6
ByLayer
370
18
48
1
60
0
100
AcDbLine
10
20.325
20
40.796419
30
0
11
20.325
21
38.912308
31
0
39
0
210
0
220
0
230
1
0
LINE
5
8A
100
AcDbEntity
8
1
62
256
6
ByLayer
370
18
48
1
60
0
100
AcDbLine
10
20.325
20
21.087692
30
0
11
20.325
21
19.203581
31
0
39
0
210
0
220
0
230
1
0
LINE
5
8B
100
AcDbEntity
8
1
62
256
6
ByLayer
370
18
48
1
60
0
100
AcDbLine
10
-0.229904
20
-47.768654
30
0
11
-0.229904
21
-45.269097
31
0
39
0
210
0
220
0
230
1
0
LINE
5
8C
100
AcDbEntity
8
1
62
256
6
ByLayer
370
18
48
1
60
0
100
AcDbLine
10
-0.229904
20
45.269097
30
0
11
-0.229904
21
47.768654
31
0
39
0
210
0
220
0
230
1
0
LINE
5
8D
100
AcDbEntity
8
1
62
256
6
ByLayer
370
18
48
1
60
0
100
AcDbLine
10
19.65725
20
43.304077
30
0
11
19.65725
21
42.89854
31
0
39
0
210
0
220
0
230
1
0
LINE
5
8E
100
AcDbEntity
8
1
62
256
6
ByLayer
370
18
48
1
60
0
100
AcDbLine
10
19.65725
20
17.10146
30
0
11
19.65725
21
16.695923
31
0
39
0
210
0
220
0
230
1
0
LINE
5
8F
100
AcDbEntity
8
1
62
256
6
ByLayer
370
18
48
1
60
0
100
AcDbLine
10
20.325
20
42.732823
30
0
11
20.325
21
41.329921
31
0
39
0
210
0
220
0
230
1
0
LINE
5
90
100
AcDbEntity
8
1
62
256
6
ByLayer
370
18
48
1
60
0
100
AcDbLine
10
20.325
20
18.670079
30
0
11
20.325
21
17.267177
31
0
39
0
210
0
220
0
230
1
0
LINE
5
91
100
AcDbEntity
8
1
62
256
6
ByLayer
370
18
48
1
60
0
100
AcDbLine
10
0.343279
20
47.974883
30
0
11
0.343279
21
47.869723
31
0
39
0
210
0
220
0
230
1
0
LINE
5
92
100
AcDbEntity
8
1
62
256
6
ByLayer
370
18
48
1
60
0
100
AcDbLine
10
0.343279
20
-47.869723
30
0
11
0.343279
21
-47.974883
31
0
39
0
210
0
220
0
230
1
0
LINE
5
93
100
AcDbEntity
8
1
62
256
6
ByLayer
370
18
48
1
60
0
100
AcDbLine
10
-0.325
20
48.086485
30
0
11
-0.325
21
45.224378
31
0
39
0
210
0
220
0
230
1
0
LINE
5
94
100
AcDbEntity
8
1
62
256
6
ByLayer
370
18
48
1
60
0
100
AcDbLine
10
-0.325
20
-45.224378
30
0
11
-0.325
21
-48.086485
31
0
39
0
210
0
220
0
230
1
0
LINE
5
95
100
AcDbEntity
8
1
62
256
6
ByLayer
370
18
48
1
60
0
100
AcDbLine
10
19.65725
20
44.805984
30
0
11
19.65725
21
44.479421
31
0
39
0
210
0
220
0
230
1
0
LINE
5
96
100
AcDbEntity
8
1
62
256
6
ByLayer
370
18
48
1
60
0
100
AcDbLine
10
19.65725
20
15.520579
30
0
11
19.65725
21
15.194016
31
0
39
0
210
0
220
0
230
1
0
LINE
5
97
100
AcDbEntity
8
1
62
256
6
ByLayer
370
18
48
1
60
0
100
AcDbLine
10
20.325
20
44.254364
30
0
11
20.325
21
43.145531
31
0
39
0
210
0
220
0
230
1
0
LINE
5
98
100
AcDbEntity
8
1
62
256
6
ByLayer
370
18
48
1
60
0
100
AcDbLine
10
20.325
20
16.854469
30
0
11
20.325
21
15.745636
31
0
39
0
210
0
220
0
230
1
0
LINE
5
99
100
AcDbEntity
8
1
62
256
6
ByLayer
370
18
48
1
60
0
100
AcDbLine
10
0.343279
20
48.390049
30
0
11
0.343279
21
48.296769
31
0
39
0
210
0
220
0
230
1
0
LINE
5
9A
100
AcDbEntity
8
1
62
256
6
ByLayer
370
18
48
1
60
0
100
AcDbLine
10
0.343279
20
-48.296769
30
0
11
0.343279
21
-48.390049
31
0
39
0
210
0
220
0
230
1
0
LINE
5
9B
100
AcDbEntity
8
1
62
256
6
ByLayer
370
18
48
1
60
0
100
AcDbLine
10
-0.325
20
48.488762
30
0
11
-0.325
21
48.191746
31
0
39
0
210
0
220
0
230
1
0
LINE
5
9C
100
AcDbEntity
8
1
62
256
6
ByLayer
370
18
48
1
60
0
100
AcDbLine
10
-0.325
20
-48.191746
30
0
11
-0.325
21
-48.488762
31
0
39
0
210
0
220
0
230
1
0
LINE
5
9D
100
AcDbEntity
8
1
62
256
6
ByLayer
370
18
48
1
60
0
100
AcDbLine
10
19.65725
20
14.238181
30
0
11
19.65725
21
13.970781
31
0
39
0
210
0
220
0
230
1
0
LINE
5
9E
100
AcDbEntity
8
1
62
256
6
ByLayer
370
18
48
1
60
0
100
AcDbLine
10
19.65725
20
46.029219
30
0
11
19.65725
21
45.761819
31
0
39
0
210
0
220
0
230
1
0
LINE
5
9F
100
AcDbEntity
8
1
62
256
6
ByLayer
370
18
48
1
60
0
100
AcDbLine
10
20.325
20
45.483831
30
0
11
20.325
21
44.585708
31
0
39
0
210
0
220
0
230
1
0
LINE
5
A0
100
AcDbEntity
8
1
62
256
6
ByLayer
370
18
48
1
60
0
100
AcDbLine
10
20.325
20
15.414292
30
0
11
20.325
21
14.516169
31
0
39
0
210
0
220
0
230
1
0
LINE
5
A1
100
AcDbEntity
8
1
62
256
6
ByLayer
370
18
48
1
60
0
100
AcDbLine
10
0.343279
20
48.755557
30
0
11
0.343279
21
48.673868
31
0
39
0
210
0
220
0
230
1
0
LINE
5
A2
100
AcDbEntity
8
1
62
256
6
ByLayer
370
18
48
1
60
0
100
AcDbLine
10
0.343279
20
-48.673868
30
0
11
0.343279
21
-48.755557
31
0
39
0
210
0
220
0
230
1
0
LINE
5
A3
100
AcDbEntity
8
1
62
256
6
ByLayer
370
18
48
1
60
0
100
AcDbLine
10
-0.325
20
48.841683
30
0
11
-0.325
21
48.581574
31
0
39
0
210
0
220
0
230
1
0
LINE
5
A4
100
AcDbEntity
8
1
62
256
6
ByLayer
370
18
48
1
60
0
100
AcDbLine
10
-0.325
20
-48.581574
30
0
11
-0.325
21
-48.841683
31
0
39
0
210
0
220
0
230
1
0
LINE
5
A5
100
AcDbEntity
8
1
62
256
6
ByLayer
370
18
48
1
60
0
100
AcDbLine
10
19.65725
20
47.033923
30
0
11
19.65725
21
46.814168
31
0
39
0
210
0
220
0
230
1
0
LINE
5
A6
100
AcDbEntity
8
1
62
256
6
ByLayer
370
18
48
1
60
0
100
AcDbLine
10
19.65725
20
13.185832
30
0
11
19.65725
21
12.966077
31
0
39
0
210
0
220
0
230
1
0
LINE
5
A7
100
AcDbEntity
8
1
62
256
6
ByLayer
370
18
48
1
60
0
100
AcDbLine
10
20.325
20
46.486696
30
0
11
20.325
21
45.753754
31
0
39
0
210
0
220
0
230
1
0
LINE
5
A8
100
AcDbEntity
8
1
62
256
6
ByLayer
370
18
48
1
60
0
100
AcDbLine
10
20.325
20
14.246246
30
0
11
20.325
21
13.513304
31
0
39
0
210
0
220
0
230
1
0
LINE
5
A9
100
AcDbEntity
8
1
62
256
6
ByLayer
370
18
48
1
60
0
100
AcDbLine
10
0.343279
20
49.072516
30
0
11
0.343279
21
49.002173
31
0
39
0
210
0
220
0
230
1
0
LINE
5
AA
100
AcDbEntity
8
1
62
256
6
ByLayer
370
18
48
1
60
0
100
AcDbLine
10
0.343279
20
-49.002173
30
0
11
0.343279
21
-49.072516
31
0
39
0
210
0
220
0
230
1
0
LINE
5
AB
100
AcDbEntity
8
1
62
256
6
ByLayer
370
18
48
1
60
0
100
AcDbLine
10
-0.325
20
49.146312
30
0
11
-0.325
21
48.92233
31
0
39
0
210
0
220
0
230
1
0
LINE
5
AC
100
AcDbEntity
8
1
62
256
6
ByLayer
370
18
48
1
60
0
100
AcDbLine
10
-0.325
20
-48.92233
30
0
11
-0.325
21
-49.146312
31
0
39
0
210
0
220
0
230
1
0
LINE
5
AD
100
AcDbEntity
8
1
62
256
6
ByLayer
370
18
48
1
60
0
100
AcDbLine
10
19.65725
20
12.322399
30
0
11
19.65725
21
12.142978
31
0
39
0
210
0
220
0
230
1
0
LINE
5
AE
100
AcDbEntity
8
1
62
256
6
ByLayer
370
18
48
1
60
0
100
AcDbLine
10
19.65725
20
47.857022
30
0
11
19.65725
21
47.677601
31
0
39
0
210
0
220
0
230
1
0
LINE
5
AF
100
AcDbEntity
8
1
62
256
6
ByLayer
370
18
48
1
60
0
100
AcDbLine
10
20.325
20
13.293156
30
0
11
20.325
21
12.697594
31
0
39
0
210
0
220
0
230
1
0
LINE
5
B0
100
AcDbEntity
8
1
62
256
6
ByLayer
370
18
48
1
60
0
100
AcDbLine
10
20.325
20
47.302406
30
0
11
20.325
21
46.706844
31
0
39
0
210
0
220
0
230
1
0
LINE
5
B1
100
AcDbEntity
8
1
62
256
6
ByLayer
370
18
48
1
60
0
100
AcDbLine
10
0.343279
20
49.341862
30
0
11
0.343279
21
49.282658
31
0
39
0
210
0
220
0
230
1
0
LINE
5
B2
100
AcDbEntity
8
1
62
256
6
ByLayer
370
18
48
1
60
0
100
AcDbLine
10
0.343279
20
-49.282658
30
0
11
0.343279
21
-49.341862
31
0
39
0
210
0
220
0
230
1
0
LINE
5
B3
100
AcDbEntity
8
1
62
256
6
ByLayer
370
18
48
1
60
0
100
AcDbLine
10
-0.325
20
49.403542
30
0
11
-0.325
21
49.215032
31
0
39
0
210
0
220
0
230
1
0
LINE
5
B4
100
AcDbEntity
8
1
62
256
6
ByLayer
370
18
48
1
60
0
100
AcDbLine
10
-0.325
20
-49.215032
30
0
11
-0.325
21
-49.403542
31
0
39
0
210
0
220
0
230
1
0
LINE
5
B5
100
AcDbEntity
8
1
62
256
6
ByLayer
370
18
48
1
60
0
100
AcDbLine
10
19.65725
20
48.522741
30
0
11
19.65725
21
48.378761
31
0
39
0
210
0
220
0
230
1
0
LINE
5
B6
100
AcDbEntity
8
1
62
256
6
ByLayer
370
18
48
1
60
0
100
AcDbLine
10
19.65725
20
11.621239
30
0
11
19.65725
21
11.477259
31
0
39
0
210
0
220
0
230
1
0
LINE
5
B7
100
AcDbEntity
8
1
62
256
6
ByLayer
370
18
48
1
60
0
100
AcDbLine
10
20.325
20
12.519825
30
0
11
20.325
21
12.043515
31
0
39
0
210
0
220
0
230
1
0
LINE
5
B8
100
AcDbEntity
8
1
62
256
6
ByLayer
370
18
48
1
60
0
100
AcDbLine
10
20.325
20
47.956485
30
0
11
20.325
21
47.480175
31
0
39
0
210
0
220
0
230
1
0
LINE
5
B9
100
AcDbEntity
8
1
62
256
6
ByLayer
370
18
48
1
60
0
100
AcDbLine
10
0.343279
20
49.564371
30
0
11
0.343279
21
49.516138
31
0
39
0
210
0
220
0
230
1
0
LINE
5
BA
100
AcDbEntity
8
1
62
256
6
ByLayer
370
18
48
1
60
0
100
AcDbLine
10
0.343279
20
-49.516138
30
0
11
0.343279
21
-49.564371
31
0
39
0
210
0
220
0
230
1
0
LINE
5
BB
100
AcDbEntity
8
1
62
256
6
ByLayer
370
18
48
1
60
0
100
AcDbLine
10
-0.325
20
49.614111
30
0
11
-0.325
21
49.460534
31
0
39
0
210
0
220
0
230
1
0
LINE
5
BC
100
AcDbEntity
8
1
62
256
6
ByLayer
370
18
48
1
60
0
100
AcDbLine
10
-0.325
20
-49.460534
30
0
11
-0.325
21
-49.614111
31
0
39
0
210
0
220
0
230
1
0
LINE
5
BD
100
AcDbEntity
8
1
62
256
6
ByLayer
370
18
48
1
60
0
100
AcDbLine
10
19.65725
20
49.047588
30
0
11
19.65725
21
48.935685
31
0
39
0
210
0
220
0
230
1
0
LINE
5
BE
100
AcDbEntity
8
1
62
256
6
ByLayer
370
18
48
1
60
0
100
AcDbLine
10
19.65725
20
11.064315
30
0
11
19.65725
21
10.952412
31
0
39
0
210
0
220
0
230
1
0
LINE
5
BF
100
AcDbEntity
8
1
62
256
6
ByLayer
370
18
48
1
60
0
100
AcDbLine
10
20.325
20
48.466117
30
0
11
20.325
21
48.096807
31
0
39
0
210
0
220
0
230
1
0
LINE
5
C0
100
AcDbEntity
8
1
62
256
6
ByLayer
370
18
48
1
60
0
100
AcDbLine
10
20.325
20
11.903193
30
0
11
20.325
21
11.533883
31
0
39
0
210
0
220
0
230
1
0
LINE
5
C1
100
AcDbEntity
8
1
62
256
6
ByLayer
370
18
48
1
60
0
100
AcDbLine
10
0.343279
20
-49.703274
30
0
11
0.343279
21
-49.740671
31
0
39
0
210
0
220
0
230
1
0
LINE
5
C2
100
AcDbEntity
8
1
62
256
6
ByLayer
370
18
48
1
60
0
100
AcDbLine
10
0.343279
20
49.740671
30
0
11
0.343279
21
49.703274
31
0
39
0
210
0
220
0
230
1
0
LINE
5
C3
100
AcDbEntity
8
1
62
256
6
ByLayer
370
18
48
1
60
0
100
AcDbLine
10
-0.325
20
49.77861
30
0
11
-0.325
21
49.659535
31
0
39
0
210
0
220
0
230
1
0
LINE
5
C4
100
AcDbEntity
8
1
62
256
6
ByLayer
370
18
48
1
60
0
100
AcDbLine
10
-0.325
20
-49.659535
30
0
11
-0.325
21
-49.77861
31
0
39
0
210
0
220
0
230
1
0
LINE
5
C5
100
AcDbEntity
8
1
62
256
6
ByLayer
370
18
48
1
60
0
100
AcDbLine
10
19.65725
20
10.639177
30
0
11
19.65725
21
10.557024
31
0
39
0
210
0
220
0
230
1
0
LINE
5
C6
100
AcDbEntity
8
1
62
256
6
ByLayer
370
18
48
1
60
0
100
AcDbLine
10
19.65725
20
49.442976
30
0
11
19.65725
21
49.360823
31
0
39
0
210
0
220
0
230
1
0
LINE
5
C7
100
AcDbEntity
8
1
62
256
6
ByLayer
370
18
48
1
60
0
100
AcDbLine
10
20.325
20
11.427647
30
0
11
20.325
21
11.156975
31
0
39
0
210
0
220
0
230
1
0
LINE
5
C8
100
AcDbEntity
8
1
62
256
6
ByLayer
370
18
48
1
60
0
100
AcDbLine
10
20.325
20
48.843025
30
0
11
20.325
21
48.572353
31
0
39
0
210
0
220
0
230
1
0
LINE
5
C9
100
AcDbEntity
8
1
62
256
6
ByLayer
370
18
48
1
60
0
100
AcDbLine
10
0.343279
20
49.871252
30
0
11
0.343279
21
49.844588
31
0
39
0
210
0
220
0
230
1
0
LINE
5
CA
100
AcDbEntity
8
1
62
256
6
ByLayer
370
18
48
1
60
0
100
AcDbLine
10
0.343279
20
-49.844588
30
0
11
0.343279
21
-49.871252
31
0
39
0
210
0
220
0
230
1
0
LINE
5
CB
100
AcDbEntity
8
1
62
256
6
ByLayer
370
18
48
1
60
0
100
AcDbLine
10
-0.325
20
-49.812593
30
0
11
-0.325
21
-49.897495
31
0
39
0
210
0
220
0
230
1
0
LINE
5
CC
100
AcDbEntity
8
1
62
256
6
ByLayer
370
18
48
1
60
0
100
AcDbLine
10
-0.325
20
49.897495
30
0
11
-0.325
21
49.812593
31
0
39
0
210
0
220
0
230
1
0
LINE
5
CD
100
AcDbEntity
8
1
62
256
6
ByLayer
370
18
48
1
60
0
100
AcDbLine
10
19.65725
20
49.716694
30
0
11
19.65725
21
49.662726
31
0
39
0
210
0
220
0
230
1
0
LINE
5
CE
100
AcDbEntity
8
1
62
256
6
ByLayer
370
18
48
1
60
0
100
AcDbLine
10
19.65725
20
10.337274
30
0
11
19.65725
21
10.283306
31
0
39
0
210
0
220
0
230
1
0
LINE
5
CF
100
AcDbEntity
8
1
62
256
6
ByLayer
370
18
48
1
60
0
100
AcDbLine
10
20.325
20
49.09507
30
0
11
20.325
21
48.917457
31
0
39
0
210
0
220
0
230
1
0
LINE
5
D0
100
AcDbEntity
8
1
62
256
6
ByLayer
370
18
48
1
60
0
100
AcDbLine
10
20.325
20
11.082543
30
0
11
20.325
21
10.90493
31
0
39
0
210
0
220
0
230
1
0
LINE
5
D1
100
AcDbEntity
8
1
62
256
6
ByLayer
370
18
48
1
60
0
100
AcDbLine
10
0.343279
20
-49.940469
30
0
11
0.343279
21
-49.956474
31
0
39
0
210
0
220
0
230
1
0
LINE
5
D2
100
AcDbEntity
8
1
62
256
6
ByLayer
370
18
48
1
60
0
100
AcDbLine
10
0.343279
20
49.956474
30
0
11
0.343279
21
49.940469
31
0
39
0
210
0
220
0
230
1
0
LINE
5
D3
100
AcDbEntity
8
1
62
256
6
ByLayer
370
18
48
1
60
0
100
AcDbLine
10
-0.325
20
-49.92013
30
0
11
-0.325
21
-49.971092
31
0
39
0
210
0
220
0
230
1
0
LINE
5
D4
100
AcDbEntity
8
1
62
256
6
ByLayer
370
18
48
1
60
0
100
AcDbLine
10
-0.325
20
49.971092
30
0
11
-0.325
21
49.92013
31
0
39
0
210
0
220
0
230
1
0
LINE
5
D5
100
AcDbEntity
8
1
62
256
6
ByLayer
370
18
48
1
60
0
100
AcDbLine
10
19.65725
20
49.873769
30
0
11
19.65725
21
49.847017
31
0
39
0
210
0
220
0
230
1
0
LINE
5
D6
100
AcDbEntity
8
1
62
256
6
ByLayer
370
18
48
1
60
0
100
AcDbLine
10
19.65725
20
10.152983
30
0
11
19.65725
21
10.126231
31
0
39
0
210
0
220
0
230
1
0
LINE
5
D7
100
AcDbEntity
8
1
62
256
6
ByLayer
370
18
48
1
60
0
100
AcDbLine
10
20.325
20
10.860824
30
0
11
20.325
21
10.772836
31
0
39
0
210
0
220
0
230
1
0
LINE
5
D8
100
AcDbEntity
8
1
62
256
6
ByLayer
370
18
48
1
60
0
100
AcDbLine
10
20.325
20
49.227164
30
0
11
20.325
21
49.139176
31
0
39
0
210
0
220
0
230
1
0
LINE
5
D9
100
AcDbEntity
8
1
62
256
6
ByLayer
370
18
48
1
60
0
100
AcDbLine
10
0.343279
20
-49.991179
30
0
11
0.343279
21
-49.996568
31
0
39
0
210
0
220
0
230
1
0
LINE
5
DA
100
AcDbEntity
8
1
62
256
6
ByLayer
370
18
48
1
60
0
100
AcDbLine
10
0.343279
20
49.996568
30
0
11
0.343279
21
49.991179
31
0
39
0
210
0
220
0
230
1
0
LINE
5
DB
100
AcDbEntity
8
1
62
256
6
ByLayer
370
18
48
1
60
0
100
AcDbLine
10
-0.325
20
-49.982441
30
0
11
-0.325
21
-49.9996
31
0
39
0
210
0
220
0
230
1
0
LINE
5
DC
100
AcDbEntity
8
1
62
256
6
ByLayer
370
18
48
1
60
0
100
AcDbLine
10
-0.325
20
49.9996
30
0
11
-0.325
21
49.982441
31
0
39
0
210
0
220
0
230
1
0
LINE
5
DD
100
AcDbEntity
8
SK1
62
256
6
ByLayer
370
18
48
1
60
0
100
AcDbLine
10
-0.845699
20
-9
30
0
11
-13.2
21
-9
31
0
39
0
210
0
220
0
230
1
0
LINE
5
DF
100
AcDbEntity
8
SK1
62
256
6
ByLayer
370
18
48
1
60
0
100
AcDbLine
10
-13.2
20
-19
30
0
11
-0.845699
21
-19
31
0
39
0
210
0
220
0
230
1
0
LINE
5
E0
100
AcDbEntity
8
SK1
62
256
6
ByLayer
370
18
48
1
60
0
100
AcDbLine
10
-13.2
20
-9
30
0
11
-13.7
21
-9.5
31
0
39
0
210
0
220
0
230
1
0
LINE
5
E1
100
AcDbEntity
8
SK1
62
256
6
ByLayer
370
18
48
1
60
0
100
AcDbLine
10
-13.7
20
-18.5
30
0
11
-13.2
21
-19
31
0
39
0
210
0
220
0
230
1
0
LINE
5
E2
100
AcDbEntity
8
1
62
256
6
ByLayer
370
18
48
1
60
0
100
AcDbLine
10
6.579085
20
-35.549345
30
0
11
6.133355
21
-34.318167
31
0
39
0
210
0
220
0
230
1
0
LINE
5
E3
100
AcDbEntity
8
1
62
256
6
ByLayer
370
18
48
1
60
0
100
AcDbLine
10
8.248325
20
-35.948072
30
0
11
6.579085
21
-35.549345
31
0
39
0
210
0
220
0
230
1
0
LINE
5
E4
100
AcDbEntity
8
1
62
256
6
ByLayer
370
18
48
1
60
0
100
AcDbLine
10
9.471835
20
-35.115621
30
0
11
8.248325
21
-35.948072
31
0
39
0
210
0
220
0
230
1
0
LINE
5
E5
100
AcDbEntity
8
1
62
256
6
ByLayer
370
18
48
1
60
0
100
AcDbLine
10
9.026105
20
-33.884444
30
0
11
9.471835
21
-35.115621
31
0
39
0
210
0
220
0
230
1
0
LINE
5
E6
100
AcDbEntity
8
1
62
256
6
ByLayer
370
18
48
1
60
0
100
AcDbLine
10
7.356865
20
-33.485717
30
0
11
9.026105
21
-33.884444
31
0
39
0
210
0
220
0
230
1
0
LINE
5
E7
100
AcDbEntity
8
1
62
256
6
ByLayer
370
18
48
1
60
0
100
AcDbLine
10
6.133355
20
-34.318167
30
0
11
7.356865
21
-33.485717
31
0
39
0
210
0
220
0
230
1
0
LINE
5
E8
100
AcDbEntity
8
1
62
256
6
ByLayer
370
18
48
1
60
0
100
AcDbLine
10
6.729406
20
-33.912627
30
0
11
6.579085
21
-35.549345
31
0
39
0
210
0
220
0
230
1
0
LINE
5
E9
100
AcDbEntity
8
1
62
256
6
ByLayer
370
18
48
1
60
0
100
AcDbLine
10
8.450483
20
-33.746946
30
0
11
8.248325
21
-35.948072
31
0
39
0
210
0
220
0
230
1
0
LINE
5
EA
100
AcDbEntity
8
1
62
256
6
ByLayer
370
18
48
1
60
0
100
AcDbLine
10
7.113385
20
36.065921
30
0
11
6.256772
21
36.963935
31
0
39
0
210
0
220
0
230
1
0
LINE
5
EB
100
AcDbEntity
8
1
62
256
6
ByLayer
370
18
48
1
60
0
100
AcDbLine
10
8.842859
20
36.133738
30
0
11
7.113385
21
36.065921
31
0
39
0
210
0
220
0
230
1
0
LINE
5
EC
100
AcDbEntity
8
1
62
256
6
ByLayer
370
18
48
1
60
0
100
AcDbLine
10
9.71572
20
37.099569
30
0
11
8.842859
21
36.133738
31
0
39
0
210
0
220
0
230
1
0
LINE
5
ED
100
AcDbEntity
8
1
62
256
6
ByLayer
370
18
48
1
60
0
100
AcDbLine
10
8.859108
20
37.997584
30
0
11
9.71572
21
37.099569
31
0
39
0
210
0
220
0
230
1
0
LINE
5
EE
100
AcDbEntity
8
1
62
256
6
ByLayer
370
18
48
1
60
0
100
AcDbLine
10
7.129634
20
37.929767
30
0
11
8.859108
21
37.997584
31
0
39
0
210
0
220
0
230
1
0
LINE
5
EF
100
AcDbEntity
8
1
62
256
6
ByLayer
370
18
48
1
60
0
100
AcDbLine
10
6.256772
20
36.963935
30
0
11
7.129634
21
37.929767
31
0
39
0
210
0
220
0
230
1
0
LINE
5
F0
100
AcDbEntity
8
1
62
256
6
ByLayer
370
18
48
1
60
0
100
AcDbLine
10
8.977959
20
36.283227
30
0
11
8.859108
21
37.997584
31
0
39
0
210
0
220
0
230
1
0
LINE
5
F1
100
AcDbEntity
8
1
62
256
6
ByLayer
370
18
48
1
60
0
100
AcDbLine
10
7.258454
20
36.071609
30
0
11
7.129634
21
37.929767
31
0
39
0
210
0
220
0
230
1
0
LINE
5
F2
100
AcDbEntity
8
SK1
62
256
6
ByLayer
370
18
48
1
60
0
100
AcDbLine
10
-0.804202
20
5
30
0
11
-13.2
21
5
31
0
39
0
210
0
220
0
230
1
0
LINE
5
F3
100
AcDbEntity
8
SK1
62
256
6
ByLayer
370
18
48
1
60
0
100
AcDbLine
10
-13.2
20
-5
30
0
11
-0.804202
21
-5
31
0
39
0
210
0
220
0
230
1
0
LINE
5
F4
100
AcDbEntity
8
SK1
62
256
6
ByLayer
370
18
48
1
60
0
100
AcDbLine
10
-13.2
20
5
30
0
11
-13.7
21
4.5
31
0
39
0
210
0
220
0
230
1
0
LINE
5
F5
100
AcDbEntity
8
SK1
62
256
6
ByLayer
370
18
48
1
60
0
100
AcDbLine
10
-13.7
20
-4.5
30
0
11
-13.2
21
-5
31
0
39
0
210
0
220
0
230
1
0
LINE
5
F6
100
AcDbEntity
8
SK1
62
256
6
ByLayer
370
18
48
1
60
0
100
AcDbLine
10
30.325
20
44.899495
30
0
11
24.325
21
44.899495
31
0
39
0
210
0
220
0
230
1
0
LINE
5
F7
100
AcDbEntity
8
SK1
62
256
6
ByLayer
370
18
48
1
60
0
100
AcDbLine
10
24.325
20
34.899495
30
0
11
30.325
21
34.899495
31
0
39
0
210
0
220
0
230
1
0
LINE
5
F8
100
AcDbEntity
8
SK1
62
256
6
ByLayer
370
18
48
1
60
0
100
AcDbLine
10
24.325
20
42.899495
30
0
11
20.325
21
42.899495
31
0
39
0
210
0
220
0
230
1
0
LINE
5
F9
100
AcDbEntity
8
SK1
62
256
6
ByLayer
370
18
48
1
60
0
100
AcDbLine
10
20.325
20
36.899495
30
0
11
24.325
21
36.899495
31
0
39
0
210
0
220
0
230
1
0
LINE
5
FA
100
AcDbEntity
8
SK1
62
256
6
ByLayer
370
18
48
1
60
0
100
AcDbLine
10
30.325
20
25.100505
30
0
11
24.325
21
25.100505
31
0
39
0
210
0
220
0
230
1
0
LINE
5
FB
100
AcDbEntity
8
SK1
62
256
6
ByLayer
370
18
48
1
60
0
100
AcDbLine
10
24.325
20
15.100505
30
0
11
30.325
21
15.100505
31
0
39
0
210
0
220
0
230
1
0
LINE
5
FC
100
AcDbEntity
8
SK1
62
256
6
ByLayer
370
18
48
1
60
0
100
AcDbLine
10
24.325
20
23.100505
30
0
11
20.325
21
23.100505
31
0
39
0
210
0
220
0
230
1
0
LINE
5
FD
100
AcDbEntity
8
SK1
62
256
6
ByLayer
370
18
48
1
60
0
100
AcDbLine
10
20.325
20
17.100505
30
0
11
24.325
21
17.100505
31
0
39
0
210
0
220
0
230
1
0
LINE
5
FE
100
AcDbEntity
8
SK1
62
256
6
ByLayer
370
18
48
1
60
0
100
AcDbLine
10
-13.2
20
19
30
0
11
-13.7
21
18.5
31
0
39
0
210
0
220
0
230
1
0
LINE
5
FF
100
AcDbEntity
8
SK1
62
256
6
ByLayer
370
18
48
1
60
0
100
AcDbLine
10
-13.7
20
9.5
30
0
11
-13.2
21
9
31
0
39
0
210
0
220
0
230
1
0
LINE
5
100
100
AcDbEntity
8
SK1
62
256
6
ByLayer
370
18
48
1
60
0
100
AcDbLine
10
-0.845699
20
19
30
0
11
-13.2
21
19
31
0
39
0
210
0
220
0
230
1
0
LINE
5
101
100
AcDbEntity
8
SK1
62
256
6
ByLayer
370
18
48
1
60
0
100
AcDbLine
10
-13.2
20
9
30
0
11
-0.845699
21
9
31
0
39
0
210
0
220
0
230
1
0
LINE
5
102
100
AcDbEntity
8
SK1
62
256
6
ByLayer
370
18
48
1
60
0
100
AcDbLine
10
-1.6
20
-25.15
30
0
11
-1.6
21
-32.85
31
0
39
0
210
0
220
0
230
1
0
LINE
5
103
100
AcDbEntity
8
1
62
256
6
ByLayer
370
18
48
1
60
0
100
AcDbLine
10
-0.325
20
50
30
0
11
-0.325
21
49.9996
31
0
39
0
210
0
220
0
230
1
0
LINE
5
104
100
AcDbEntity
8
1
62
256
6
ByLayer
370
18
48
1
60
0
100
AcDbLine
10
16.325
20
49.316667
30
0
11
16.325
21
-50
31
0
39
0
210
0
220
0
230
1
0
LINE
5
105
100
AcDbEntity
8
1
62
256
6
ByLayer
370
18
48
1
60
0
100
AcDbLine
10
1
20
-45.825757
30
0
11
1
21
-47.370877
31
0
39
0
210
0
220
0
230
1
0
LINE
5
106
100
AcDbEntity
8
1
62
256
6
ByLayer
370
18
48
1
60
0
100
AcDbLine
10
1
20
47.370877
30
0
11
1
21
45.825757
31
0
39
0
210
0
220
0
230
1
0
LINE
5
107
100
AcDbEntity
8
1
62
256
6
ByLayer
370
18
48
1
60
0
100
AcDbLine
10
-0.325
20
48.191746
30
0
11
-0.325
21
48.086485
31
0
39
0
210
0
220
0
230
1
0
LINE
5
108
100
AcDbEntity
8
1
62
256
6
ByLayer
370
18
48
1
60
0
100
AcDbLine
10
-0.325
20
48.581574
30
0
11
-0.325
21
48.488762
31
0
39
0
210
0
220
0
230
1
0
LINE
5
109
100
AcDbEntity
8
1
62
256
6
ByLayer
370
18
48
1
60
0
100
AcDbLine
10
-0.325
20
48.92233
30
0
11
-0.325
21
48.841683
31
0
39
0
210
0
220
0
230
1
0
LINE
5
10A
100
AcDbEntity
8
1
62
256
6
ByLayer
370
18
48
1
60
0
100
AcDbLine
10
-0.325
20
49.215032
30
0
11
-0.325
21
49.146312
31
0
39
0
210
0
220
0
230
1
0
LINE
5
10B
100
AcDbEntity
8
1
62
256
6
ByLayer
370
18
48
1
60
0
100
AcDbLine
10
-0.325
20
49.460534
30
0
11
-0.325
21
49.403542
31
0
39
0
210
0
220
0
230
1
0
LINE
5
10C
100
AcDbEntity
8
1
62
256
6
ByLayer
370
18
48
1
60
0
100
AcDbLine
10
-0.325
20
49.659535
30
0
11
-0.325
21
49.614111
31
0
39
0
210
0
220
0
230
1
0
LINE
5
10D
100
AcDbEntity
8
1
62
256
6
ByLayer
370
18
48
1
60
0
100
AcDbLine
10
-0.325
20
49.812593
30
0
11
-0.325
21
49.77861
31
0
39
0
210
0
220
0
230
1
0
LINE
5
10E
100
AcDbEntity
8
1
62
256
6
ByLayer
370
18
48
1
60
0
100
AcDbLine
10
-0.325
20
49.92013
30
0
11
-0.325
21
49.897495
31
0
39
0
210
0
220
0
230
1
0
LINE
5
10F
100
AcDbEntity
8
1
62
256
6
ByLayer
370
18
48
1
60
0
100
AcDbLine
10
-0.325
20
49.982441
30
0
11
-0.325
21
49.971092
31
0
39
0
210
0
220
0
230
1
0
LINE
5
110
100
AcDbEntity
8
1
62
256
6
ByLayer
370
18
48
1
60
0
100
AcDbLine
10
-0.325
20
-49.9996
30
0
11
-0.325
21
-50
31
0
39
0
210
0
220
0
230
1
0
LINE
5
111
100
AcDbEntity
8
1
62
256
6
ByLayer
370
18
48
1
60
0
100
AcDbLine
10
-0.325
20
-49.971092
30
0
11
-0.325
21
-49.982441
31
0
39
0
210
0
220
0
230
1
0
LINE
5
112
100
AcDbEntity
8
1
62
256
6
ByLayer
370
18
48
1
60
0
100
AcDbLine
10
-0.325
20
-49.897495
30
0
11
-0.325
21
-49.92013
31
0
39
0
210
0
220
0
230
1
0
LINE
5
113
100
AcDbEntity
8
1
62
256
6
ByLayer
370
18
48
1
60
0
100
AcDbLine
10
-0.325
20
-49.77861
30
0
11
-0.325
21
-49.812593
31
0
39
0
210
0
220
0
230
1
0
LINE
5
114
100
AcDbEntity
8
1
62
256
6
ByLayer
370
18
48
1
60
0
100
AcDbLine
10
-0.325
20
-49.614111
30
0
11
-0.325
21
-49.659535
31
0
39
0
210
0
220
0
230
1
0
LINE
5
115
100
AcDbEntity
8
1
62
256
6
ByLayer
370
18
48
1
60
0
100
AcDbLine
10
-0.325
20
-49.403542
30
0
11
-0.325
21
-49.460534
31
0
39
0
210
0
220
0
230
1
0
LINE
5
116
100
AcDbEntity
8
1
62
256
6
ByLayer
370
18
48
1
60
0
100
AcDbLine
10
-0.325
20
-49.146312
30
0
11
-0.325
21
-49.215032
31
0
39
0
210
0
220
0
230
1
0
LINE
5
117
100
AcDbEntity
8
1
62
256
6
ByLayer
370
18
48
1
60
0
100
AcDbLine
10
-0.325
20
-48.841683
30
0
11
-0.325
21
-48.92233
31
0
39
0
210
0
220
0
230
1
0
LINE
5
118
100
AcDbEntity
8
1
62
256
6
ByLayer
370
18
48
1
60
0
100
AcDbLine
10
-0.325
20
-48.488762
30
0
11
-0.325
21
-48.581574
31
0
39
0
210
0
220
0
230
1
0
LINE
5
119
100
AcDbEntity
8
1
62
256
6
ByLayer
370
18
48
1
60
0
100
AcDbLine
10
-0.325
20
-48.086485
30
0
11
-0.325
21
-48.191746
31
0
39
0
210
0
220
0
230
1
0
LINE
5
11A
100
AcDbEntity
8
1
62
256
6
ByLayer
370
18
48
1
60
0
100
AcDbLine
10
17.325
20
10
30
0
11
17.325
21
50
31
0
39
0
210
0
220
0
230
1
0
LINE
5
11B
100
AcDbEntity
8
1
62
256
6
ByLayer
370
18
48
1
60
0
100
AcDbLine
10
19.575
20
25.962395
30
0
11
19.575
21
34.037605
31
0
39
0
210
0
220
0
230
1
0
LINE
5
11C
100
AcDbEntity
8
1
62
256
6
ByLayer
370
18
48
1
60
0
100
AcDbLine
10
19.575
20
49.950109
30
0
11
19.575
21
49.999805
31
0
39
0
210
0
220
0
230
1
0
LINE
5
11D
100
AcDbEntity
8
1
62
256
6
ByLayer
370
18
48
1
60
0
100
AcDbLine
10
19.575
20
49.786901
30
0
11
19.575
21
49.93684
31
0
39
0
210
0
220
0
230
1
0
LINE
5
11E
100
AcDbEntity
8
1
62
256
6
ByLayer
370
18
48
1
60
0
100
AcDbLine
10
19.575
20
49.507333
30
0
11
19.575
21
49.760136
31
0
39
0
210
0
220
0
230
1
0
LINE
5
11F
100
AcDbEntity
8
1
62
256
6
ByLayer
370
18
48
1
60
0
100
AcDbLine
10
19.575
20
49.106299
30
0
11
19.575
21
49.466597
31
0
39
0
210
0
220
0
230
1
0
LINE
5
120
100
AcDbEntity
8
1
62
256
6
ByLayer
370
18
48
1
60
0
100
AcDbLine
10
19.575
20
48.575933
30
0
11
19.575
21
49.050821
31
0
39
0
210
0
220
0
230
1
0
LINE
5
121
100
AcDbEntity
8
1
62
256
6
ByLayer
370
18
48
1
60
0
100
AcDbLine
10
19.575
20
47.904745
30
0
11
19.575
21
48.504571
31
0
39
0
210
0
220
0
230
1
0
LINE
5
122
100
AcDbEntity
8
1
62
256
6
ByLayer
370
18
48
1
60
0
100
AcDbLine
10
19.575
20
47.076139
30
0
11
19.575
21
47.815851
31
0
39
0
210
0
220
0
230
1
0
LINE
5
123
100
AcDbEntity
8
1
62
256
6
ByLayer
370
18
48
1
60
0
100
AcDbLine
10
19.575
20
46.065775
30
0
11
19.575
21
46.967319
31
0
39
0
210
0
220
0
230
1
0
LINE
5
124
100
AcDbEntity
8
1
62
256
6
ByLayer
370
18
48
1
60
0
100
AcDbLine
10
19.575
20
44.836568
30
0
11
19.575
21
45.933465
31
0
39
0
210
0
220
0
230
1
0
LINE
5
125
100
AcDbEntity
8
1
62
256
6
ByLayer
370
18
48
1
60
0
100
AcDbLine
10
19.575
20
43.328104
30
0
11
19.575
21
44.675173
31
0
39
0
210
0
220
0
230
1
0
LINE
5
126
100
AcDbEntity
8
1
62
256
6
ByLayer
370
18
48
1
60
0
100
AcDbLine
10
19.575
20
41.430353
30
0
11
19.575
21
43.128065
31
0
39
0
210
0
220
0
230
1
0
LINE
5
127
100
AcDbEntity
8
1
62
256
6
ByLayer
370
18
48
1
60
0
100
AcDbLine
10
19.575
20
38.897616
30
0
11
19.575
21
41.172801
31
0
39
0
210
0
220
0
230
1
0
LINE
5
128
100
AcDbEntity
8
1
62
256
6
ByLayer
370
18
48
1
60
0
100
AcDbLine
10
19.575
20
34.814788
30
0
11
19.575
21
38.53328
31
0
39
0
210
0
220
0
230
1
0
LINE
5
129
100
AcDbEntity
8
1
62
256
6
ByLayer
370
18
48
1
60
0
100
AcDbLine
10
19.575
20
21.46672
30
0
11
19.575
21
25.185212
31
0
39
0
210
0
220
0
230
1
0
LINE
5
12A
100
AcDbEntity
8
1
62
256
6
ByLayer
370
18
48
1
60
0
100
AcDbLine
10
19.575
20
18.827199
30
0
11
19.575
21
21.102384
31
0
39
0
210
0
220
0
230
1
0
LINE
5
12B
100
AcDbEntity
8
1
62
256
6
ByLayer
370
18
48
1
60
0
100
AcDbLine
10
19.575
20
16.871935
30
0
11
19.575
21
18.569647
31
0
39
0
210
0
220
0
230
1
0
LINE
5
12C
100
AcDbEntity
8
1
62
256
6
ByLayer
370
18
48
1
60
0
100
AcDbLine
10
19.575
20
15.324827
30
0
11
19.575
21
16.671896
31
0
39
0
210
0
220
0
230
1
0
LINE
5
12D
100
AcDbEntity
8
1
62
256
6
ByLayer
370
18
48
1
60
0
100
AcDbLine
10
19.575
20
14.066535
30
0
11
19.575
21
15.163432
31
0
39
0
210
0
220
0
230
1
0
LINE
5
12E
100
AcDbEntity
8
1
62
256
6
ByLayer
370
18
48
1
60
0
100
AcDbLine
10
19.575
20
13.032681
30
0
11
19.575
21
13.934225
31
0
39
0
210
0
220
0
230
1
0
LINE
5
12F
100
AcDbEntity
8
1
62
256
6
ByLayer
370
18
48
1
60
0
100
AcDbLine
10
19.575
20
12.184149
30
0
11
19.575
21
12.923861
31
0
39
0
210
0
220
0
230
1
0
LINE
5
130
100
AcDbEntity
8
1
62
256
6
ByLayer
370
18
48
1
60
0
100
AcDbLine
10
19.575
20
11.495429
30
0
11
19.575
21
12.095255
31
0
39
0
210
0
220
0
230
1
0
LINE
5
131
100
AcDbEntity
8
1
62
256
6
ByLayer
370
18
48
1
60
0
100
AcDbLine
10
19.575
20
10.949179
30
0
11
19.575
21
11.424067
31
0
39
0
210
0
220
0
230
1
0
LINE
5
132
100
AcDbEntity
8
1
62
256
6
ByLayer
370
18
48
1
60
0
100
AcDbLine
10
19.575
20
10.533403
30
0
11
19.575
21
10.893701
31
0
39
0
210
0
220
0
230
1
0
LINE
5
133
100
AcDbEntity
8
1
62
256
6
ByLayer
370
18
48
1
60
0
100
AcDbLine
10
19.575
20
10.239864
30
0
11
19.575
21
10.492667
31
0
39
0
210
0
220
0
230
1
0
LINE
5
134
100
AcDbEntity
8
1
62
256
6
ByLayer
370
18
48
1
60
0
100
AcDbLine
10
19.575
20
10.06316
30
0
11
19.575
21
10.213099
31
0
39
0
210
0
220
0
230
1
0
LINE
5
135
100
AcDbEntity
8
1
62
256
6
ByLayer
370
18
48
1
60
0
100
AcDbLine
10
19.575
20
10.000195
30
0
11
19.575
21
10.049891
31
0
39
0
210
0
220
0
230
1
0
LINE
5
136
100
AcDbEntity
8
1
62
256
6
ByLayer
370
18
48
1
60
0
100
AcDbLine
10
20.325
20
24.901829
30
0
11
20.325
21
26.544796
31
0
39
0
210
0
220
0
230
1
0
LINE
5
137
100
AcDbEntity
8
1
62
256
6
ByLayer
370
18
48
1
60
0
100
AcDbLine
10
20.325
20
33.455204
30
0
11
20.325
21
35.098171
31
0
39
0
210
0
220
0
230
1
0
LINE
5
138
100
AcDbEntity
8
1
62
256
6
ByLayer
370
18
48
1
60
0
100
AcDbLine
10
20.325
20
21.087692
30
0
11
20.325
21
21.845213
31
0
39
0
210
0
220
0
230
1
0
LINE
5
139
100
AcDbEntity
8
1
62
256
6
ByLayer
370
18
48
1
60
0
100
AcDbLine
10
20.325
20
38.154787
30
0
11
20.325
21
38.912308
31
0
39
0
210
0
220
0
230
1
0
LINE
5
13A
100
AcDbEntity
8
1
62
256
6
ByLayer
370
18
48
1
60
0
100
AcDbLine
10
20.325
20
18.670079
30
0
11
20.325
21
19.203581
31
0
39
0
210
0
220
0
230
1
0
LINE
5
13B
100
AcDbEntity
8
1
62
256
6
ByLayer
370
18
48
1
60
0
100
AcDbLine
10
20.325
20
40.796419
30
0
11
20.325
21
41.329921
31
0
39
0
210
0
220
0
230
1
0
LINE
5
13C
100
AcDbEntity
8
1
62
256
6
ByLayer
370
18
48
1
60
0
100
AcDbLine
10
20.325
20
42.732823
30
0
11
20.325
21
43.145531
31
0
39
0
210
0
220
0
230
1
0
LINE
5
13D
100
AcDbEntity
8
1
62
256
6
ByLayer
370
18
48
1
60
0
100
AcDbLine
10
20.325
20
16.854469
30
0
11
20.325
21
17.267177
31
0
39
0
210
0
220
0
230
1
0
LINE
5
13E
100
AcDbEntity
8
1
62
256
6
ByLayer
370
18
48
1
60
0
100
AcDbLine
10
20.325
20
44.254364
30
0
11
20.325
21
44.585708
31
0
39
0
210
0
220
0
230
1
0
LINE
5
13F
100
AcDbEntity
8
1
62
256
6
ByLayer
370
18
48
1
60
0
100
AcDbLine
10
20.325
20
15.414292
30
0
11
20.325
21
15.745636
31
0
39
0
210
0
220
0
230
1
0
LINE
5
140
100
AcDbEntity
8
1
62
256
6
ByLayer
370
18
48
1
60
0
100
AcDbLine
10
20.325
20
45.483831
30
0
11
20.325
21
45.753754
31
0
39
0
210
0
220
0
230
1
0
LINE
5
141
100
AcDbEntity
8
1
62
256
6
ByLayer
370
18
48
1
60
0
100
AcDbLine
10
20.325
20
14.246246
30
0
11
20.325
21
14.516169
31
0
39
0
210
0
220
0
230
1
0
LINE
5
142
100
AcDbEntity
8
1
62
256
6
ByLayer
370
18
48
1
60
0
100
AcDbLine
10
20.325
20
46.486696
30
0
11
20.325
21
46.706844
31
0
39
0
210
0
220
0
230
1
0
LINE
5
143
100
AcDbEntity
8
1
62
256
6
ByLayer
370
18
48
1
60
0
100
AcDbLine
10
20.325
20
13.293156
30
0
11
20.325
21
13.513304
31
0
39
0
210
0
220
0
230
1
0
LINE
5
144
100
AcDbEntity
8
1
62
256
6
ByLayer
370
18
48
1
60
0
100
AcDbLine
10
20.325
20
47.302406
30
0
11
20.325
21
47.480175
31
0
39
0
210
0
220
0
230
1
0
LINE
5
145
100
AcDbEntity
8
1
62
256
6
ByLayer
370
18
48
1
60
0
100
AcDbLine
10
20.325
20
12.519825
30
0
11
20.325
21
12.697594
31
0
39
0
210
0
220
0
230
1
0
LINE
5
146
100
AcDbEntity
8
1
62
256
6
ByLayer
370
18
48
1
60
0
100
AcDbLine
10
20.325
20
47.956485
30
0
11
20.325
21
48.096807
31
0
39
0
210
0
220
0
230
1
0
LINE
5
147
100
AcDbEntity
8
1
62
256
6
ByLayer
370
18
48
1
60
0
100
AcDbLine
10
20.325
20
11.903193
30
0
11
20.325
21
12.043515
31
0
39
0
210
0
220
0
230
1
0
LINE
5
148
100
AcDbEntity
8
1
62
256
6
ByLayer
370
18
48
1
60
0
100
AcDbLine
10
20.325
20
48.466117
30
0
11
20.325
21
48.572353
31
0
39
0
210
0
220
0
230
1
0
LINE
5
149
100
AcDbEntity
8
1
62
256
6
ByLayer
370
18
48
1
60
0
100
AcDbLine
10
20.325
20
11.427647
30
0
11
20.325
21
11.533883
31
0
39
0
210
0
220
0
230
1
0
LINE
5
14A
100
AcDbEntity
8
1
62
256
6
ByLayer
370
18
48
1
60
0
100
AcDbLine
10
20.325
20
48.843025
30
0
11
20.325
21
48.917457
31
0
39
0
210
0
220
0
230
1
0
LINE
5
14B
100
AcDbEntity
8
1
62
256
6
ByLayer
370
18
48
1
60
0
100
AcDbLine
10
20.325
20
11.082543
30
0
11
20.325
21
11.156975
31
0
39
0
210
0
220
0
230
1
0
LINE
5
14C
100
AcDbEntity
8
1
62
256
6
ByLayer
370
18
48
1
60
0
100
AcDbLine
10
20.325
20
49.09507
30
0
11
20.325
21
49.139176
31
0
39
0
210
0
220
0
230
1
0
LINE
5
14D
100
AcDbEntity
8
1
62
256
6
ByLayer
370
18
48
1
60
0
100
AcDbLine
10
20.325
20
10.860824
30
0
11
20.325
21
10.90493
31
0
39
0
210
0
220
0
230
1
0
LINE
5
14E
100
AcDbEntity
8
1
62
256
6
ByLayer
370
18
48
1
60
0
100
AcDbLine
10
20.325
20
49.227164
30
0
11
20.325
21
49.241776
31
0
39
0
210
0
220
0
230
1
0
LINE
5
14F
100
AcDbEntity
8
1
62
256
6
ByLayer
370
18
48
1
60
0
100
AcDbLine
10
20.325
20
10.758224
30
0
11
20.325
21
10.772836
31
0
39
0
210
0
220
0
230
1
0
LINE
5
150
100
AcDbEntity
8
SK1
62
256
6
ByLayer
370
18
48
1
60
0
100
AcDbLine
10
-13.2
20
-9
30
0
11
-13.2
21
-19
31
0
39
0
210
0
220
0
230
1
0
LINE
5
151
100
AcDbEntity
8
SK1
62
256
6
ByLayer
370
18
48
1
60
0
100
AcDbLine
10
-13.7
20
-18.5
30
0
11
-13.7
21
-9.5
31
0
39
0
210
0
220
0
230
1
0
LINE
5
152
100
AcDbEntity
8
SK1
62
256
6
ByLayer
370
18
48
1
60
0
100
AcDbLine
10
-1.6
20
32.85
30
0
11
-1.6
21
25.15
31
0
39
0
210
0
220
0
230
1
0
LINE
5
153
100
AcDbEntity
8
SK1
62
256
6
ByLayer
370
18
48
1
60
0
100
AcDbLine
10
-13.2
20
5
30
0
11
-13.2
21
-5
31
0
39
0
210
0
220
0
230
1
0
LINE
5
154
100
AcDbEntity
8
SK1
62
256
6
ByLayer
370
18
48
1
60
0
100
AcDbLine
10
-13.7
20
-4.5
30
0
11
-13.7
21
4.5
31
0
39
0
210
0
220
0
230
1
0
LINE
5
155
100
AcDbEntity
8
SK1
62
256
6
ByLayer
370
18
48
1
60
0
100
AcDbLine
10
24.325
20
44.899495
30
0
11
24.325
21
34.899495
31
0
39
0
210
0
220
0
230
1
0
LINE
5
156
100
AcDbEntity
8
SK1
62
256
6
ByLayer
370
18
48
1
60
0
100
AcDbLine
10
30.325
20
44.899495
30
0
11
30.325
21
34.899495
31
0
39
0
210
0
220
0
230
1
0
LINE
5
157
100
AcDbEntity
8
SK1
62
256
6
ByLayer
370
18
48
1
60
0
100
AcDbLine
10
30.325
20
25.100505
30
0
11
30.325
21
20.100505
31
0
39
0
210
0
220
0
230
1
0
LINE
5
158
100
AcDbEntity
8
SK1
62
256
6
ByLayer
370
18
48
1
60
0
100
AcDbLine
10
24.325
20
25.100505
30
0
11
24.325
21
20.100505
31
0
39
0
210
0
220
0
230
1
0
LINE
5
159
100
AcDbEntity
8
SK1
62
256
6
ByLayer
370
18
48
1
60
0
100
AcDbLine
10
30.325
20
20.100505
30
0
11
30.325
21
15.100505
31
0
39
0
210
0
220
0
230
1
0
LINE
5
15A
100
AcDbEntity
8
SK1
62
256
6
ByLayer
370
18
48
1
60
0
100
AcDbLine
10
24.325
20
20.100505
30
0
11
24.325
21
15.100505
31
0
39
0
210
0
220
0
230
1
0
LINE
5
15B
100
AcDbEntity
8
SK1
62
256
6
ByLayer
370
18
48
1
60
0
100
AcDbLine
10
-13.7
20
9.5
30
0
11
-13.7
21
18.5
31
0
39
0
210
0
220
0
230
1
0
LINE
5
15C
100
AcDbEntity
8
SK1
62
256
6
ByLayer
370
18
48
1
60
0
100
AcDbLine
10
-13.2
20
19
30
0
11
-13.2
21
9
31
0
39
0
210
0
220
0
230
1
0
MTEXT
5
26E
100
AcDbEntity
8
SK6
62
256
6
ByLayer
370
13
48
1
60
0
100
AcDbMText
10
4.028595
20
69.738835
30
0
210
0
220
0
230
1
1
\W0.7196;570-100 20 30-40R
40
3.175
41
0
44
1.084337
50
0
71
7
72
5
7
iso_b_vert
0
DIMENSION
5
27C
100
AcDbEntity
8
2
62
256
6
ByLayer
370
13
48
1
60
0
100
AcDbDimension
2
DimnDraft3D1
10
20
20
58.666811
30
0
11
8.103355
21
58.666811
31
0
70
32
71
5
72
1
41
1
210
0
220
0
230
1
3
Standard
100
AcDbAlignedDimension
13
0
23
1.5875
33
0
14
20
24
31.5875
34
0
50
0
100
AcDbRotatedDimension
1001
ACAD
1000
DSTYLE
1002
{
1070
   279
1070
     0
1070
   173
1070
     1
1070
   340
1005
26F
1070
   271
1070
     1
1070
   272
1070
     2
1070
    77
1070
     1
1070
    73
1070
     0
1070
   171
1070
     3
1070
   274
1070
     4
1070
   177
1070
     7
1070
   176
1070
     7
1070
   178
1070
     7
1070
    78
1070
     8
1070
    48
1040
-0.005
1070
    41
1041
3.175
1070
   147
1041
1.5875
1070
    42
1041
1.5875
1070
    44
1041
3.175
1070
   140
1041
3.175
1070
   343
1005
0
1070
   344
1005
0
1002
}
0
DIMENSION
5
288
100
AcDbEntity
8
SK2
62
256
6
ByLayer
370
13
48
1
60
0
100
AcDbDimension
2
DimnDraft3D2
10
58.410886
20
50
30
0
11
52.854636
21
32.301875
31
0
70
33
71
5
72
1
41
1
210
0
220
0
230
1
3
Standard
100
AcDbAlignedDimension
13
21.145038
23
10
33
0
14
21.145038
24
50
34
0
1001
ACAD
1000
DSTYLE
1002
{
1070
   279
1070
     0
1070
    74
1070
     0
1070
   173
1070
     1
1070
   340
1005
26F
1070
   271
1070
     1
1070
   272
1070
     2
1070
    77
1070
     1
1070
    73
1070
     0
1070
   171
1070
     3
1070
   274
1070
     4
1070
   177
1070
     7
1070
   176
1070
     7
1070
   178
1070
     7
1070
    78
1070
     8
1070
    48
1040
-0.005
1070
    41
1041
3.175
1070
   147
1041
1.5875
1070
    42
1041
1.5875
1070
    44
1041
3.175
1070
   140
1041
3.175
1070
   343
1005
0
1070
   344
1005
0
1002
}
0
DIMENSION
5
293
100
AcDbEntity
8
SK2
62
256
6
ByLayer
370
13
48
1
60
0
100
AcDbDimension
2
DimnDraft3D3
10
-34.123279
20
-50
30
0
11
-33.329529
21
-4.335654
31
0
70
33
71
5
72
1
41
1
210
0
220
0
230
1
3
Standard
100
AcDbAlignedDimension
13
7.617241
23
50
33
0
14
-1.9125
24
-50
34
0
1001
ACAD
1000
DSTYLE
1002
{
1070
   279
1070
     0
1070
    74
1070
     0
1070
   173
1070
     1
1070
   340
1005
26F
1070
   271
1070
     1
1070
   272
1070
     2
1070
    77
1070
     1
1070
    73
1070
     0
1070
   171
1070
     3
1070
   274
1070
     4
1070
   177
1070
     7
1070
   176
1070
     7
1070
   178
1070
     7
1070
    78
1070
     8
1070
    48
1040
-0.005
1070
    41
1041
3.175
1070
   147
1041
1.5875
1070
    42
1041
1.5875
1070
    44
1041
3.175
1070
   140
1041
3.175
1070
   343
1005
0
1070
   344
1005
0
1002
}
0
DIMENSION
5
29D
100
AcDbEntity
8
SK2
62
256
6
ByLayer
370
13
48
1
60
0
100
AcDbDimension
2
DimnDraft3D4
10
40.817986
20
30
30
0
11
40.817986
21
13.103355
31
0
70
32
71
5
72
1
41
1
210
0
220
0
230
1
3
Standard
100
AcDbAlignedDimension
13
1.5875
23
0
33
0
14
21.5875
24
30
34
0
50
90
100
AcDbRotatedDimension
1001
ACAD
1000
DSTYLE
1002
{
1070
    74
1070
     0
1070
   279
1070
     0
1070
   173
1070
     1
1070
   340
1005
26F
1070
   271
1070
     1
1070
   272
1070
     2
1070
    77
1070
     1
1070
    73
1070
     0
1070
   171
1070
     3
1070
   274
1070
     4
1070
   177
1070
     7
1070
   176
1070
     7
1070
   178
1070
     7
1070
    78
1070
     8
1070
    48
1040
-0.005
1070
    41
1041
3.175
1070
   147
1041
1.5875
1070
    42
1041
1.5875
1070
    44
1041
3.175
1070
   140
1041
3.175
1070
   343
1005
0
1070
   344
1005
0
1002
}
0
ENDSEC
0
SECTION
2
OBJECTS
0
DICTIONARY
5
308
330
0
100
AcDbDictionary
280
0
281
1
3
ACAD_GROUP
350
309
3
ACAD_MLINESTYLE
350
30a
0
DICTIONARY
5
309
330
0
100
AcDbDictionary
280
0
281
1
0
DICTIONARY
5
30a
330
0
100
AcDbDictionary
280
0
281
1
3
Standard
350
18
0
MLINESTYLE
5
18
330
30a
100
AcDbMlineStyle
2
Standard
70
0
3

62
256
51
90
52
90
71
2
49
-0.5
62
256
6
ByLayer
49
0.5
62
256
6
ByLayer
0
RASTERVARIABLES
5
2f6
330

100
AcDbRasterVariables
90
0
70
1
71
1
72
1
0
ENDSEC
0
EOF
