0
SECTION
2
HEADER
9
$ACADVER
1
AC1015
9
$DWGCODEPAGE
3
ANSI_1252
9
$HANDSEED
5
2f6
9
$ANGBASE
50
0
9
$ANGDIR
70
0
9
$ATTMODE
70
1
9
$AUNITS
70
0
9
$AUPREC
70
0
9
$CECOLOR
62
256
9
$CELTSCALE
40
1
9
$CELTYPE
6
ByLayer
9
$CELWEIGHT
370
18
9
$CLAYER
8
0
9
$CMLJUST
70
0
9
$CMLSCALE
40
1
9
$CMLSTYLE
2
Standard
9
$DIMSTYLE
2
Standard
9
$TEXTSIZE
40
0.2
9
$TEXTSTYLE
7
Standard
9
$LUNITS
70
2
9
$LUPREC
70
4
9
$EXTNAMES
290
1
9
$INSUNITS
70
4
9
$LTSCALE
40
1
9
$LWDISPLAY
290
1
9
$PDMODE
70
0
9
$PDSIZE
40
0
9
$PLINEGEN
70
0
0
ENDSEC
0
SECTION
2
CLASSES
0
CLASS
1
RASTERVARIABLES
2
AcDbRasterVariables
3
ISM
90
0
280
0
281
0
0
ENDSEC
0
SECTION
2
TABLES
0
TABLE
2
VPORT
5
2ec
100
AcDbSymbolTable
0
VPORT
5
1
100
AcDbSymbolTableRecord
100
AcDbViewportTableRecord
2
*Active
70
0
10
0
20
0
11
1
21
1
12
-1
22
1
13
0
23
0
14
0.5
24
0.5
15
10
25
10
16
0
26
0
36
1
17
0
27
0
37
0
0
ENDTAB
0
TABLE
2
LTYPE
5
2ed
100
AcDbSymbolTable
0
LTYPE
5
14
100
AcDbSymbolTableRecord
100
AcDbLinetypeTableRecord
70
0
2
ByBlock
3

72
65
73
0
40
0
0
LTYPE
5
15
100
AcDbSymbolTableRecord
100
AcDbLinetypeTableRecord
70
0
2
ByLayer
3

72
65
73
0
40
0
0
LTYPE
5
16
100
AcDbSymbolTableRecord
100
AcDbLinetypeTableRecord
70
0
2
Continuous
3
Solid line
72
65
73
0
40
0
0
LTYPE
5
6E
100
AcDbSymbolTableRecord
100
AcDbLinetypeTableRecord
70
0
2
CENTER
3
____ _ ____ _ ____ _ ____
72
65
73
4
40
47.5
49
22
74
0
49
-8.5
74
0
49
8.5
74
0
49
-8.5
74
0
0
LTYPE
5
6F
100
AcDbSymbolTableRecord
100
AcDbLinetypeTableRecord
70
0
2
DASHED
3
__ __ __ __ __ __ __ __ __
72
65
73
2
40
25.72
49
12.86
74
0
49
-12.86
74
0
0
ENDTAB
0
TABLE
2
LAYER
5
2ee
100
AcDbSymbolTable
0
LAYER
5
10
100
AcDbSymbolTableRecord
100
AcDbLayerTableRecord
2
0
70
0
62
7
6
Continuous
290
1
370
-3
390
0
0
LAYER
5
71
100
AcDbSymbolTableRecord
100
AcDbLayerTableRecord
2
81
70
0
62
-3
6
Continuous
290
1
370
-3
390
0
0
LAYER
5
73
100
AcDbSymbolTableRecord
100
AcDbLayerTableRecord
2
80
70
0
62
-6
6
Continuous
290
1
370
-3
390
0
0
LAYER
5
75
100
AcDbSymbolTableRecord
100
AcDbLayerTableRecord
2
1
70
0
62
4
6
Continuous
290
1
370
-3
390
0
0
LAYER
5
C8
100
AcDbSymbolTableRecord
100
AcDbLayerTableRecord
2
4
70
0
62
-2
6
CENTER
290
1
370
-3
390
0
0
LAYER
5
1CF
100
AcDbSymbolTableRecord
100
AcDbLayerTableRecord
2
Defpoints
70
0
62
7
6
Continuous
290
0
370
-3
390
0
0
LAYER
5
1DC
100
AcDbSymbolTableRecord
100
AcDbLayerTableRecord
2
2
70
0
62
7
6
Continuous
290
1
370
-3
390
0
0
LAYER
5
2d8
100
AcDbSymbolTableRecord
100
AcDbLayerTableRecord
2
SK1
70
0
62
4
6
Continuous
290
1
370
-3
390
0
0
LAYER
5
2d9
100
AcDbSymbolTableRecord
100
AcDbLayerTableRecord
2
SK4
70
0
62
2
6
CENTER
290
1
370
-3
390
0
0
LAYER
5
2da
100
AcDbSymbolTableRecord
100
AcDbLayerTableRecord
2
SK2
70
0
62
7
6
Continuous
290
1
370
-3
390
0
0
LAYER
5
2db
100
AcDbSymbolTableRecord
100
AcDbLayerTableRecord
2
SK6
70
0
62
5
6
Continuous
290
1
370
-3
390
0
0
ENDTAB
0
TABLE
2
STYLE
5
2ef
100
AcDbSymbolTable
0
STYLE
5
11
100
AcDbSymbolTableRecord
100
AcDbTextStyleTableRecord
2
Standard
3
txt
70
0
71
0
40
0
41
1
42
0
50
0
0
STYLE
5
1C0
100
AcDbSymbolTableRecord
100
AcDbTextStyleTableRecord
2
iso_b_vert
3
simplex.shx
70
0
71
0
40
0
41
1
42
0
50
0
0
STYLE
5
1C1
100
AcDbSymbolTableRecord
100
AcDbTextStyleTableRecord
2
DWGDirectTextStyle
3
simplex
70
0
71
0
40
0
41
1
42
0
50
0
0
ENDTAB
0
TABLE
2
DIMSTYLE
5
2f0
100
AcDbSymbolTable
100
AcDbDimStyleTable
0
DIMSTYLE
105
27
100
AcDbSymbolTableRecord
100
AcDbDimStyleTableRecord
2
Standard
70
0
3
<>
41
0.18
42
0.0625
44
0.18
140
0.18
147
0.09
73
0
74
0
77
1
271
2
275
0
278
52
280
0
340
11
0
ENDTAB
0
TABLE
2
VIEW
5
2f1
100
AcDbSymbolTable
0
ENDTAB
0
TABLE
2
UCS
5
2f2
100
AcDbSymbolTable
0
ENDTAB
0
TABLE
2
APPID
5
2f3
100
AcDbSymbolTable
0
APPID
5
12
100
AcDbSymbolTableRecord
100
AcDbRegAppTableRecord
2
ACAD
70
0
0
APPID
5
1C4
100
AcDbSymbolTableRecord
100
AcDbRegAppTableRecord
2
ACAD_DSTYLE_DIMBREAK
70
0
0
APPID
5
297
100
AcDbSymbolTableRecord
100
AcDbRegAppTableRecord
2
ACAD_DSTYLE_DIM_LINETYPE
70
0
0
APPID
5
298
100
AcDbSymbolTableRecord
100
AcDbRegAppTableRecord
2
ACAD_DSTYLE_DIM_EXT1_LINETYPE
70
0
0
APPID
5
299
100
AcDbSymbolTableRecord
100
AcDbRegAppTableRecord
2
ACAD_DSTYLE_DIM_EXT2_LINETYPE
70
0
0
APPID
5
2D4
100
AcDbSymbolTableRecord
100
AcDbRegAppTableRecord
2
ACAD_MLEADERVER
70
0
0
ENDTAB
0
TABLE
2
BLOCK_RECORD
5
2f4
100
AcDbSymbolTable
0
BLOCK_RECORD
5
1F
100
AcDbSymbolTableRecord
100
AcDbBlockTableRecord
2
*Model_Space
340
0
70
0
0
BLOCK_RECORD
5
1B
100
AcDbSymbolTableRecord
100
AcDbBlockTableRecord
2
*Paper_Space
340
0
70
0
0
BLOCK_RECORD
5
23
100
AcDbSymbolTableRecord
100
AcDbBlockTableRecord
2
*Paper_Space0
340
0
70
0
0
BLOCK_RECORD
5
1C6
100
AcDbSymbolTableRecord
100
AcDbBlockTableRecord
2
_Closed
340
0
70
0
0
BLOCK_RECORD
5
1D0
100
AcDbSymbolTableRecord
100
AcDbBlockTableRecord
2
*D2
340
0
70
0
0
BLOCK_RECORD
5
1DD
100
AcDbSymbolTableRecord
100
AcDbBlockTableRecord
2
_U0
340
0
70
0
0
BLOCK_RECORD
5
1EE
100
AcDbSymbolTableRecord
100
AcDbBlockTableRecord
2
*D4
340
0
70
0
0
BLOCK_RECORD
5
1FA
100
AcDbSymbolTableRecord
100
AcDbBlockTableRecord
2
_U1
340
0
70
0
0
BLOCK_RECORD
5
20A
100
AcDbSymbolTableRecord
100
AcDbBlockTableRecord
2
*D6
340
0
70
0
0
BLOCK_RECORD
5
216
100
AcDbSymbolTableRecord
100
AcDbBlockTableRecord
2
_U2
340
0
70
0
0
BLOCK_RECORD
5
226
100
AcDbSymbolTableRecord
100
AcDbBlockTableRecord
2
*D8
340
0
70
0
0
BLOCK_RECORD
5
232
100
AcDbSymbolTableRecord
100
AcDbBlockTableRecord
2
_U3
340
0
70
0
0
BLOCK_RECORD
5
242
100
AcDbSymbolTableRecord
100
AcDbBlockTableRecord
2
*D10
340
0
70
0
0
BLOCK_RECORD
5
24E
100
AcDbSymbolTableRecord
100
AcDbBlockTableRecord
2
_U4
340
0
70
0
0
BLOCK_RECORD
5
25F
100
AcDbSymbolTableRecord
100
AcDbBlockTableRecord
2
*D12
340
0
70
0
0
BLOCK_RECORD
5
26B
100
AcDbSymbolTableRecord
100
AcDbBlockTableRecord
2
_U5
340
0
70
0
0
ENDTAB
0
ENDSEC
0
SECTION
2
BLOCKS
0
BLOCK
5
20
100
AcDbEntity
8
0
100
AcDbBlockBegin
2
*Model_Space
70
0
10
0
20
0
30
0
3
*Model_Space
0
ENDBLK
5
21
100
AcDbEntity
8
0
100
AcDbBlockEnd
0
BLOCK
5
1C
100
AcDbEntity
8
0
100
AcDbBlockBegin
2
*Paper_Space
70
0
10
0
20
0
30
0
3
*Paper_Space
0
ENDBLK
5
1D
100
AcDbEntity
8
0
100
AcDbBlockEnd
0
BLOCK
5
24
100
AcDbEntity
8
0
100
AcDbBlockBegin
2
*Paper_Space0
70
0
10
0
20
0
30
0
3
*Paper_Space0
0
ENDBLK
5
25
100
AcDbEntity
8
0
100
AcDbBlockEnd
0
BLOCK
5
1C7
100
AcDbEntity
8
0
100
AcDbBlockBegin
2
_Closed
70
0
10
0
20
0
30
0
3
_Closed
0
LINE
5
1C9
100
AcDbEntity
8
0
62
256
6
ByLayer
370
-2
48
1
60
0
100
AcDbLine
10
-1
20
0.166667
30
0
11
0
21
0
31
0
39
0
210
0
220
0
230
1
0
LINE
5
1CA
100
AcDbEntity
8
0
62
256
6
ByLayer
370
-2
48
1
60
0
100
AcDbLine
10
0
20
0
30
0
11
-1
21
-0.166667
31
0
39
0
210
0
220
0
230
1
0
LINE
5
1CB
100
AcDbEntity
8
0
62
256
6
ByLayer
370
-2
48
1
60
0
100
AcDbLine
10
-1
20
0.166667
30
0
11
-1
21
-0.166667
31
0
39
0
210
0
220
0
230
1
0
LINE
5
1CC
100
AcDbEntity
8
0
62
256
6
ByLayer
370
-2
48
1
60
0
100
AcDbLine
10
0
20
0
30
0
11
-1
21
0
31
0
39
0
210
0
220
0
230
1
0
ENDBLK
5
1C8
100
AcDbEntity
8
0
100
AcDbBlockEnd
0
BLOCK
5
1D1
100
AcDbEntity
8
0
100
AcDbBlockBegin
2
*D2
70
1
10
0
20
0
30
0
3
*D2
0
LINE
5
1D3
100
AcDbEntity
8
0
62
256
6
ByLayer
370
-2
48
1
60
0
100
AcDbLine
10
64.5875
20
-12.75
30
0
11
91.071875
21
-12.75
31
0
39
0
210
0
220
0
230
1
0
LINE
5
1D4
100
AcDbEntity
8
0
62
256
6
ByLayer
370
-2
48
1
60
0
100
AcDbLine
10
64.5875
20
12.75
30
0
11
91.071875
21
12.75
31
0
39
0
210
0
220
0
230
1
0
LINE
5
1D5
100
AcDbEntity
8
0
62
256
6
ByLayer
370
-2
48
1
60
0
100
AcDbLine
10
87.896875
20
-9.575
30
0
11
87.896875
21
9.575
31
0
39
0
210
0
220
0
230
1
0
SOLID
5
1D6
100
AcDbEntity
8
0
62
256
6
ByLayer
370
-1
48
1
60
0
100
AcDbTrace
10
87.367708
20
-9.575
30
0
11
88.426042
21
-9.575
31
0
12
87.896875
22
-12.75
32
0
13
87.896875
23
-12.75
33
0
39
0
210
0
220
0
230
1
0
SOLID
5
1D7
100
AcDbEntity
8
0
62
256
6
ByLayer
370
-1
48
1
60
0
100
AcDbTrace
10
88.426042
20
9.575
30
0
11
87.367708
21
9.575
31
0
12
87.896875
22
12.75
32
0
13
87.896875
23
12.75
33
0
39
0
210
0
220
0
230
1
0
MTEXT
5
1D8
100
AcDbEntity
8
0
62
256
6
ByLayer
370
18
48
1
60
0
100
AcDbMText
10
78.503125
20
0
30
0
210
0
220
0
230
1
1
\A1;25.5
40
4.5
41
0
44
1
50
90
71
5
72
5
7
iso_b_vert
0
POINT
5
1D9
100
AcDbEntity
8
Defpoints
62
0
6
ByLayer
370
-1
48
1
60
0
100
AcDbPoint
10
63
20
-12.75
30
0
39
0
210
0
220
0
230
1
50
360
0
POINT
5
1DA
100
AcDbEntity
8
Defpoints
62
0
6
ByLayer
370
-1
48
1
60
0
100
AcDbPoint
10
63
20
12.75
30
0
39
0
210
0
220
0
230
1
50
360
0
POINT
5
1DB
100
AcDbEntity
8
Defpoints
62
0
6
ByLayer
370
-1
48
1
60
0
100
AcDbPoint
10
87.896875
20
12.75
30
0
39
0
210
0
220
0
230
1
50
360
0
ENDBLK
5
1D2
100
AcDbEntity
8
0
100
AcDbBlockEnd
0
BLOCK
5
1E9
100
AcDbEntity
8
0
100
AcDbBlockBegin
2
_U0
70
0
10
0
20
0
30
0
3
_U0
0
MTEXT
5
1DE
100
AcDbEntity
8
2
62
256
6
ByLayer
370
18
48
1
60
0
100
AcDbMText
10
85.815029
20
-10.877015
30
0
210
0
220
0
230
1
1
%%c
40
3.175
41
0
44
1.084337
50
90
71
7
72
5
7
iso_b_vert
0
MTEXT
5
1DF
100
AcDbEntity
8
2
62
256
6
ByLayer
370
18
48
1
60
0
100
AcDbMText
10
86.216453
20
-1.29239
30
0
210
0
220
0
230
1
1
\W0.8668;25.5
40
4.5
41
0
44
1.084337
50
90
71
7
72
5
7
iso_b_vert
0
LINE
5
1E0
100
AcDbEntity
8
2
62
256
6
ByLayer
370
13
48
1
60
0
100
AcDbLine
10
64.5875
20
-12.75
30
0
11
91.071875
21
-12.75
31
0
39
0
210
0
220
0
230
1
0
LINE
5
1E1
100
AcDbEntity
8
2
62
256
6
ByLayer
370
13
48
1
60
0
100
AcDbLine
10
64.5875
20
12.75
30
0
11
91.071875
21
12.75
31
0
39
0
210
0
220
0
230
1
0
LINE
5
1E2
100
AcDbEntity
8
2
62
256
6
ByLayer
370
13
48
1
60
0
100
AcDbLine
10
87.896875
20
-24
30
0
11
87.896875
21
24
31
0
39
0
210
0
220
0
230
1
0
LINE
5
1E3
100
AcDbEntity
8
2
62
256
6
ByLayer
370
13
48
1
60
0
100
AcDbLine
10
87.896875
20
-12.75
30
0
11
88.314872
21
-15.924998
31
0
39
0
210
0
220
0
230
1
0
LINE
5
1E4
100
AcDbEntity
8
2
62
256
6
ByLayer
370
13
48
1
60
0
100
AcDbLine
10
87.896875
20
-12.75
30
0
11
87.478878
21
-15.925002
31
0
39
0
210
0
220
0
230
1
0
LINE
5
1E5
100
AcDbEntity
8
2
62
256
6
ByLayer
370
13
48
1
60
0
100
AcDbLine
10
88.314872
20
-15.924998
30
0
11
87.478878
21
-15.925002
31
0
39
0
210
0
220
0
230
1
0
LINE
5
1E6
100
AcDbEntity
8
2
62
256
6
ByLayer
370
13
48
1
60
0
100
AcDbLine
10
87.896875
20
12.75
30
0
11
87.478878
21
15.924998
31
0
39
0
210
0
220
0
230
1
0
LINE
5
1E7
100
AcDbEntity
8
2
62
256
6
ByLayer
370
13
48
1
60
0
100
AcDbLine
10
87.896875
20
12.75
30
0
11
88.314872
21
15.925002
31
0
39
0
210
0
220
0
230
1
0
LINE
5
1E8
100
AcDbEntity
8
2
62
256
6
ByLayer
370
13
48
1
60
0
100
AcDbLine
10
87.478878
20
15.924998
30
0
11
88.314872
21
15.925002
31
0
39
0
210
0
220
0
230
1
0
ENDBLK
5
1EA
100
AcDbEntity
8
0
100
AcDbBlockEnd
0
BLOCK
5
1EF
100
AcDbEntity
8
0
100
AcDbBlockBegin
2
*D4
70
1
10
0
20
0
30
0
3
*D4
0
LINE
5
1F1
100
AcDbEntity
8
0
62
256
6
ByLayer
370
-2
48
1
60
0
100
AcDbLine
10
63
20
-14.3375
30
0
11
63
21
-40.425
31
0
39
0
210
0
220
0
230
1
0
LINE
5
1F2
100
AcDbEntity
8
0
62
256
6
ByLayer
370
-2
48
1
60
0
100
AcDbLine
10
0
20
-1.5875
30
0
11
0
21
-40.425
31
0
39
0
210
0
220
0
230
1
0
LINE
5
1F3
100
AcDbEntity
8
0
62
256
6
ByLayer
370
-2
48
1
60
0
100
AcDbLine
10
59.825
20
-37.25
30
0
11
3.175
21
-37.25
31
0
39
0
210
0
220
0
230
1
0
SOLID
5
1F4
100
AcDbEntity
8
0
62
256
6
ByLayer
370
-1
48
1
60
0
100
AcDbTrace
10
59.825
20
-37.779167
30
0
11
59.825
21
-36.720833
31
0
12
63
22
-37.25
32
0
13
63
23
-37.25
33
0
39
0
210
0
220
0
230
1
0
SOLID
5
1F5
100
AcDbEntity
8
0
62
256
6
ByLayer
370
-1
48
1
60
0
100
AcDbTrace
10
3.175
20
-36.720833
30
0
11
3.175
21
-37.779167
31
0
12
0
22
-37.25
32
0
13
0
23
-37.25
33
0
39
0
210
0
220
0
230
1
0
MTEXT
5
1F6
100
AcDbEntity
8
0
62
256
6
ByLayer
370
18
48
1
60
0
100
AcDbMText
10
31.5
20
-27.85625
30
0
210
0
220
0
230
1
1
\A1;63
40
4.5
41
0
44
1
50
0
71
5
72
5
7
iso_b_vert
0
POINT
5
1F7
100
AcDbEntity
8
Defpoints
62
0
6
ByLayer
370
-1
48
1
60
0
100
AcDbPoint
10
63
20
-12.75
30
0
39
0
210
0
220
0
230
1
50
360
0
POINT
5
1F8
100
AcDbEntity
8
Defpoints
62
0
6
ByLayer
370
-1
48
1
60
0
100
AcDbPoint
10
0
20
0
30
0
39
0
210
0
220
0
230
1
50
360
0
POINT
5
1F9
100
AcDbEntity
8
Defpoints
62
0
6
ByLayer
370
-1
48
1
60
0
100
AcDbPoint
10
0
20
-37.25
30
0
39
0
210
0
220
0
230
1
50
360
0
ENDBLK
5
1F0
100
AcDbEntity
8
0
100
AcDbBlockEnd
0
BLOCK
5
205
100
AcDbEntity
8
0
100
AcDbBlockBegin
2
_U1
70
0
10
0
20
0
30
0
3
_U1
0
MTEXT
5
1FB
100
AcDbEntity
8
SK2
62
256
6
ByLayer
370
18
48
1
60
0
100
AcDbMText
10
28.446935
20
-35.922328
30
0
210
0
220
0
230
1
1
\W0.8247;63
40
4.5
41
0
44
1.084337
50
0
71
7
72
5
7
iso_b_vert
0
LINE
5
1FC
100
AcDbEntity
8
SK2
62
256
6
ByLayer
370
13
48
1
60
0
100
AcDbLine
10
63
20
-14.3375
30
0
11
63
21
-40.425
31
0
39
0
210
0
220
0
230
1
0
LINE
5
1FD
100
AcDbEntity
8
SK2
62
256
6
ByLayer
370
13
48
1
60
0
100
AcDbLine
10
0
20
-1.5875
30
0
11
0
21
-40.425
31
0
39
0
210
0
220
0
230
1
0
LINE
5
1FE
100
AcDbEntity
8
SK2
62
256
6
ByLayer
370
13
48
1
60
0
100
AcDbLine
10
63
20
-37.25
30
0
11
0
21
-37.25
31
0
39
0
210
0
220
0
230
1
0
LINE
5
1FF
100
AcDbEntity
8
SK2
62
256
6
ByLayer
370
13
48
1
60
0
100
AcDbLine
10
63
20
-37.25
30
0
11
59.825002
21
-37.667997
31
0
39
0
210
0
220
0
230
1
0
LINE
5
200
100
AcDbEntity
8
SK2
62
256
6
ByLayer
370
13
48
1
60
0
100
AcDbLine
10
63
20
-37.25
30
0
11
59.824998
21
-36.832003
31
0
39
0
210
0
220
0
230
1
0
LINE
5
201
100
AcDbEntity
8
SK2
62
256
6
ByLayer
370
13
48
1
60
0
100
AcDbLine
10
59.825002
20
-37.667997
30
0
11
59.824998
21
-36.832003
31
0
39
0
210
0
220
0
230
1
0
LINE
5
202
100
AcDbEntity
8
SK2
62
256
6
ByLayer
370
13
48
1
60
0
100
AcDbLine
10
0
20
-37.25
30
0
11
3.174998
21
-36.832003
31
0
39
0
210
0
220
0
230
1
0
LINE
5
203
100
AcDbEntity
8
SK2
62
256
6
ByLayer
370
13
48
1
60
0
100
AcDbLine
10
0
20
-37.25
30
0
11
3.175002
21
-37.667997
31
0
39
0
210
0
220
0
230
1
0
LINE
5
204
100
AcDbEntity
8
SK2
62
256
6
ByLayer
370
13
48
1
60
0
100
AcDbLine
10
3.174998
20
-36.832003
30
0
11
3.175002
21
-37.667997
31
0
39
0
210
0
220
0
230
1
0
ENDBLK
5
206
100
AcDbEntity
8
0
100
AcDbBlockEnd
0
BLOCK
5
20B
100
AcDbEntity
8
0
100
AcDbBlockBegin
2
*D6
70
1
10
0
20
0
30
0
3
*D6
0
LINE
5
20D
100
AcDbEntity
8
0
62
256
6
ByLayer
370
-2
48
1
60
0
100
AcDbLine
10
-57
20
14.0875
30
0
11
-57
21
36.425
31
0
39
0
210
0
220
0
230
1
0
LINE
5
20E
100
AcDbEntity
8
0
62
256
6
ByLayer
370
-2
48
1
60
0
100
AcDbLine
10
63
20
14.3375
30
0
11
63
21
36.425
31
0
39
0
210
0
220
0
230
1
0
LINE
5
20F
100
AcDbEntity
8
0
62
256
6
ByLayer
370
-2
48
1
60
0
100
AcDbLine
10
-53.825
20
33.25
30
0
11
59.825
21
33.25
31
0
39
0
210
0
220
0
230
1
0
SOLID
5
210
100
AcDbEntity
8
0
62
256
6
ByLayer
370
-1
48
1
60
0
100
AcDbTrace
10
-53.825
20
33.779167
30
0
11
-53.825
21
32.720833
31
0
12
-57
22
33.25
32
0
13
-57
23
33.25
33
0
39
0
210
0
220
0
230
1
0
SOLID
5
211
100
AcDbEntity
8
0
62
256
6
ByLayer
370
-1
48
1
60
0
100
AcDbTrace
10
59.825
20
32.720833
30
0
11
59.825
21
33.779167
31
0
12
63
22
33.25
32
0
13
63
23
33.25
33
0
39
0
210
0
220
0
230
1
0
MTEXT
5
212
100
AcDbEntity
8
0
62
256
6
ByLayer
370
18
48
1
60
0
100
AcDbMText
10
3
20
42.64375
30
0
210
0
220
0
230
1
1
\A1;120
40
4.5
41
0
44
1
50
0
71
5
72
5
7
iso_b_vert
0
POINT
5
213
100
AcDbEntity
8
Defpoints
62
0
6
ByLayer
370
-1
48
1
60
0
100
AcDbPoint
10
-57
20
12.5
30
0
39
0
210
0
220
0
230
1
50
360
0
POINT
5
214
100
AcDbEntity
8
Defpoints
62
0
6
ByLayer
370
-1
48
1
60
0
100
AcDbPoint
10
63
20
12.75
30
0
39
0
210
0
220
0
230
1
50
360
0
POINT
5
215
100
AcDbEntity
8
Defpoints
62
0
6
ByLayer
370
-1
48
1
60
0
100
AcDbPoint
10
63
20
33.25
30
0
39
0
210
0
220
0
230
1
50
360
0
ENDBLK
5
20C
100
AcDbEntity
8
0
100
AcDbBlockEnd
0
BLOCK
5
221
100
AcDbEntity
8
0
100
AcDbBlockBegin
2
_U2
70
0
10
0
20
0
30
0
3
_U2
0
MTEXT
5
217
100
AcDbEntity
8
2
62
256
6
ByLayer
370
18
48
1
60
0
100
AcDbMText
10
-1.305209
20
34.577672
30
0
210
0
220
0
230
1
1
\W0.7426;120
40
4.5
41
0
44
1.084337
50
0
71
7
72
5
7
iso_b_vert
0
LINE
5
218
100
AcDbEntity
8
2
62
256
6
ByLayer
370
13
48
1
60
0
100
AcDbLine
10
-57
20
14.0875
30
0
11
-57
21
36.425
31
0
39
0
210
0
220
0
230
1
0
LINE
5
219
100
AcDbEntity
8
2
62
256
6
ByLayer
370
13
48
1
60
0
100
AcDbLine
10
63
20
14.3375
30
0
11
63
21
36.425
31
0
39
0
210
0
220
0
230
1
0
LINE
5
21A
100
AcDbEntity
8
2
62
256
6
ByLayer
370
13
48
1
60
0
100
AcDbLine
10
-57
20
33.25
30
0
11
63
21
33.25
31
0
39
0
210
0
220
0
230
1
0
LINE
5
21B
100
AcDbEntity
8
2
62
256
6
ByLayer
370
13
48
1
60
0
100
AcDbLine
10
-57
20
33.25
30
0
11
-53.825002
21
33.667997
31
0
39
0
210
0
220
0
230
1
0
LINE
5
21C
100
AcDbEntity
8
2
62
256
6
ByLayer
370
13
48
1
60
0
100
AcDbLine
10
-57
20
33.25
30
0
11
-53.824998
21
32.832003
31
0
39
0
210
0
220
0
230
1
0
LINE
5
21D
100
AcDbEntity
8
2
62
256
6
ByLayer
370
13
48
1
60
0
100
AcDbLine
10
-53.825002
20
33.667997
30
0
11
-53.824998
21
32.832003
31
0
39
0
210
0
220
0
230
1
0
LINE
5
21E
100
AcDbEntity
8
2
62
256
6
ByLayer
370
13
48
1
60
0
100
AcDbLine
10
63
20
33.25
30
0
11
59.825002
21
32.832003
31
0
39
0
210
0
220
0
230
1
0
LINE
5
21F
100
AcDbEntity
8
2
62
256
6
ByLayer
370
13
48
1
60
0
100
AcDbLine
10
63
20
33.25
30
0
11
59.824998
21
33.667997
31
0
39
0
210
0
220
0
230
1
0
LINE
5
220
100
AcDbEntity
8
2
62
256
6
ByLayer
370
13
48
1
60
0
100
AcDbLine
10
59.825002
20
32.832003
30
0
11
59.824998
21
33.667997
31
0
39
0
210
0
220
0
230
1
0
ENDBLK
5
222
100
AcDbEntity
8
0
100
AcDbBlockEnd
0
BLOCK
5
227
100
AcDbEntity
8
0
100
AcDbBlockBegin
2
*D8
70
1
10
0
20
0
30
0
3
*D8
0
LINE
5
229
100
AcDbEntity
8
0
62
256
6
ByLayer
370
-2
48
1
60
0
100
AcDbLine
10
-57
20
14.0875
30
0
11
-57
21
26.425
31
0
39
0
210
0
220
0
230
1
0
LINE
5
22A
100
AcDbEntity
8
0
62
256
6
ByLayer
370
-2
48
1
60
0
100
AcDbLine
10
56.96
20
20.0375
30
0
11
56.96
21
26.425
31
0
39
0
210
0
220
0
230
1
0
LINE
5
22B
100
AcDbEntity
8
0
62
256
6
ByLayer
370
-2
48
1
60
0
100
AcDbLine
10
-53.825
20
23.25
30
0
11
53.785
21
23.25
31
0
39
0
210
0
220
0
230
1
0
SOLID
5
22C
100
AcDbEntity
8
0
62
256
6
ByLayer
370
-1
48
1
60
0
100
AcDbTrace
10
-53.825
20
23.779167
30
0
11
-53.825
21
22.720833
31
0
12
-57
22
23.25
32
0
13
-57
23
23.25
33
0
39
0
210
0
220
0
230
1
0
SOLID
5
22D
100
AcDbEntity
8
0
62
256
6
ByLayer
370
-1
48
1
60
0
100
AcDbTrace
10
53.785
20
22.720833
30
0
11
53.785
21
23.779167
31
0
12
56.96
22
23.25
32
0
13
56.96
23
23.25
33
0
39
0
210
0
220
0
230
1
0
MTEXT
5
22E
100
AcDbEntity
8
0
62
256
6
ByLayer
370
18
48
1
60
0
100
AcDbMText
10
-0.02
20
32.64375
30
0
210
0
220
0
230
1
1
\A1;113.96
40
4.5
41
0
44
1
50
0
71
5
72
5
7
iso_b_vert
0
POINT
5
22F
100
AcDbEntity
8
Defpoints
62
0
6
ByLayer
370
-1
48
1
60
0
100
AcDbPoint
10
-57
20
12.5
30
0
39
0
210
0
220
0
230
1
50
360
0
POINT
5
230
100
AcDbEntity
8
Defpoints
62
0
6
ByLayer
370
-1
48
1
60
0
100
AcDbPoint
10
56.96
20
18.45
30
0
39
0
210
0
220
0
230
1
50
360
0
POINT
5
231
100
AcDbEntity
8
Defpoints
62
0
6
ByLayer
370
-1
48
1
60
0
100
AcDbPoint
10
56.96
20
23.25
30
0
39
0
210
0
220
0
230
1
50
360
0
ENDBLK
5
228
100
AcDbEntity
8
0
100
AcDbBlockEnd
0
BLOCK
5
23D
100
AcDbEntity
8
0
100
AcDbBlockBegin
2
_U3
70
0
10
0
20
0
30
0
3
_U3
0
MTEXT
5
233
100
AcDbEntity
8
SK2
62
256
6
ByLayer
370
18
48
1
60
0
100
AcDbMText
10
-8.543178
20
24.577672
30
0
210
0
220
0
230
1
1
\W0.7636;113.96
40
4.5
41
0
44
1.084337
50
0
71
7
72
5
7
iso_b_vert
0
LINE
5
234
100
AcDbEntity
8
SK2
62
256
6
ByLayer
370
13
48
1
60
0
100
AcDbLine
10
-57
20
14.0875
30
0
11
-57
21
26.425
31
0
39
0
210
0
220
0
230
1
0
LINE
5
235
100
AcDbEntity
8
SK2
62
256
6
ByLayer
370
13
48
1
60
0
100
AcDbLine
10
56.96
20
20.0375
30
0
11
56.96
21
26.425
31
0
39
0
210
0
220
0
230
1
0
LINE
5
236
100
AcDbEntity
8
SK2
62
256
6
ByLayer
370
13
48
1
60
0
100
AcDbLine
10
-57
20
23.25
30
0
11
56.96
21
23.25
31
0
39
0
210
0
220
0
230
1
0
LINE
5
237
100
AcDbEntity
8
SK2
62
256
6
ByLayer
370
13
48
1
60
0
100
AcDbLine
10
-57
20
23.25
30
0
11
-53.825002
21
23.667997
31
0
39
0
210
0
220
0
230
1
0
LINE
5
238
100
AcDbEntity
8
SK2
62
256
6
ByLayer
370
13
48
1
60
0
100
AcDbLine
10
-57
20
23.25
30
0
11
-53.824998
21
22.832003
31
0
39
0
210
0
220
0
230
1
0
LINE
5
239
100
AcDbEntity
8
SK2
62
256
6
ByLayer
370
13
48
1
60
0
100
AcDbLine
10
-53.825002
20
23.667997
30
0
11
-53.824998
21
22.832003
31
0
39
0
210
0
220
0
230
1
0
LINE
5
23A
100
AcDbEntity
8
SK2
62
256
6
ByLayer
370
13
48
1
60
0
100
AcDbLine
10
56.96
20
23.25
30
0
11
53.785002
21
22.832003
31
0
39
0
210
0
220
0
230
1
0
LINE
5
23B
100
AcDbEntity
8
SK2
62
256
6
ByLayer
370
13
48
1
60
0
100
AcDbLine
10
56.96
20
23.25
30
0
11
53.784998
21
23.667997
31
0
39
0
210
0
220
0
230
1
0
LINE
5
23C
100
AcDbEntity
8
SK2
62
256
6
ByLayer
370
13
48
1
60
0
100
AcDbLine
10
53.785002
20
22.832003
30
0
11
53.784998
21
23.667997
31
0
39
0
210
0
220
0
230
1
0
ENDBLK
5
23E
100
AcDbEntity
8
0
100
AcDbBlockEnd
0
BLOCK
5
243
100
AcDbEntity
8
0
100
AcDbBlockBegin
2
*D10
70
1
10
0
20
0
30
0
3
*D10
0
LINE
5
245
100
AcDbEntity
8
0
62
256
6
ByLayer
370
-2
48
1
60
0
100
AcDbLine
10
58.5475
20
-18.45
30
0
11
101.925
21
-18.45
31
0
39
0
210
0
220
0
230
1
0
LINE
5
246
100
AcDbEntity
8
0
62
256
6
ByLayer
370
-2
48
1
60
0
100
AcDbLine
10
58.5475
20
18.45
30
0
11
101.925
21
18.45
31
0
39
0
210
0
220
0
230
1
0
LINE
5
247
100
AcDbEntity
8
0
62
256
6
ByLayer
370
-2
48
1
60
0
100
AcDbLine
10
98.75
20
-15.275
30
0
11
98.75
21
15.275
31
0
39
0
210
0
220
0
230
1
0
SOLID
5
248
100
AcDbEntity
8
0
62
256
6
ByLayer
370
-1
48
1
60
0
100
AcDbTrace
10
98.220833
20
-15.275
30
0
11
99.279167
21
-15.275
31
0
12
98.75
22
-18.45
32
0
13
98.75
23
-18.45
33
0
39
0
210
0
220
0
230
1
0
SOLID
5
249
100
AcDbEntity
8
0
62
256
6
ByLayer
370
-1
48
1
60
0
100
AcDbTrace
10
99.279167
20
15.275
30
0
11
98.220833
21
15.275
31
0
12
98.75
22
18.45
32
0
13
98.75
23
18.45
33
0
39
0
210
0
220
0
230
1
0
MTEXT
5
24A
100
AcDbEntity
8
0
62
256
6
ByLayer
370
18
48
1
60
0
100
AcDbMText
10
89.35625
20
0
30
0
210
0
220
0
230
1
1
\A1;36.9
40
4.5
41
0
44
1
50
90
71
5
72
5
7
iso_b_vert
0
POINT
5
24B
100
AcDbEntity
8
Defpoints
62
0
6
ByLayer
370
-1
48
1
60
0
100
AcDbPoint
10
56.96
20
-18.45
30
0
39
0
210
0
220
0
230
1
50
360
0
POINT
5
24C
100
AcDbEntity
8
Defpoints
62
0
6
ByLayer
370
-1
48
1
60
0
100
AcDbPoint
10
56.96
20
18.45
30
0
39
0
210
0
220
0
230
1
50
360
0
POINT
5
24D
100
AcDbEntity
8
Defpoints
62
0
6
ByLayer
370
-1
48
1
60
0
100
AcDbPoint
10
98.75
20
18.45
30
0
39
0
210
0
220
0
230
1
50
360
0
ENDBLK
5
244
100
AcDbEntity
8
0
100
AcDbBlockEnd
0
BLOCK
5
25A
100
AcDbEntity
8
0
100
AcDbBlockBegin
2
_U4
70
0
10
0
20
0
30
0
3
_U4
0
MTEXT
5
24F
100
AcDbEntity
8
SK2
62
256
6
ByLayer
370
18
48
1
60
0
100
AcDbMText
10
96.668154
20
-10.877015
30
0
210
0
220
0
230
1
1
%%c
40
3.175
41
0
44
1.084337
50
90
71
7
72
5
7
iso_b_vert
0
MTEXT
5
250
100
AcDbEntity
8
SK2
62
256
6
ByLayer
370
18
48
1
60
0
100
AcDbMText
10
97.069578
20
-1.29239
30
0
210
0
220
0
230
1
1
\W0.8800;36.9
40
4.5
41
0
44
1.084337
50
90
71
7
72
5
7
iso_b_vert
0
LINE
5
251
100
AcDbEntity
8
SK2
62
256
6
ByLayer
370
13
48
1
60
0
100
AcDbLine
10
58.5475
20
-18.45
30
0
11
101.925
21
-18.45
31
0
39
0
210
0
220
0
230
1
0
LINE
5
252
100
AcDbEntity
8
SK2
62
256
6
ByLayer
370
13
48
1
60
0
100
AcDbLine
10
58.5475
20
18.45
30
0
11
101.925
21
18.45
31
0
39
0
210
0
220
0
230
1
0
LINE
5
253
100
AcDbEntity
8
SK2
62
256
6
ByLayer
370
13
48
1
60
0
100
AcDbLine
10
98.75
20
-18.45
30
0
11
98.75
21
18.45
31
0
39
0
210
0
220
0
230
1
0
LINE
5
254
100
AcDbEntity
8
SK2
62
256
6
ByLayer
370
13
48
1
60
0
100
AcDbLine
10
98.75
20
-18.45
30
0
11
98.332003
21
-15.275002
31
0
39
0
210
0
220
0
230
1
0
LINE
5
255
100
AcDbEntity
8
SK2
62
256
6
ByLayer
370
13
48
1
60
0
100
AcDbLine
10
98.75
20
-18.45
30
0
11
99.167997
21
-15.274998
31
0
39
0
210
0
220
0
230
1
0
LINE
5
256
100
AcDbEntity
8
SK2
62
256
6
ByLayer
370
13
48
1
60
0
100
AcDbLine
10
98.332003
20
-15.275002
30
0
11
99.167997
21
-15.274998
31
0
39
0
210
0
220
0
230
1
0
LINE
5
257
100
AcDbEntity
8
SK2
62
256
6
ByLayer
370
13
48
1
60
0
100
AcDbLine
10
98.75
20
18.45
30
0
11
99.167997
21
15.275002
31
0
39
0
210
0
220
0
230
1
0
LINE
5
258
100
AcDbEntity
8
SK2
62
256
6
ByLayer
370
13
48
1
60
0
100
AcDbLine
10
98.75
20
18.45
30
0
11
98.332003
21
15.274998
31
0
39
0
210
0
220
0
230
1
0
LINE
5
259
100
AcDbEntity
8
SK2
62
256
6
ByLayer
370
13
48
1
60
0
100
AcDbLine
10
99.167997
20
15.275002
30
0
11
98.332003
21
15.274998
31
0
39
0
210
0
220
0
230
1
0
ENDBLK
5
25B
100
AcDbEntity
8
0
100
AcDbBlockEnd
0
BLOCK
5
260
100
AcDbEntity
8
0
100
AcDbBlockBegin
2
*D12
70
1
10
0
20
0
30
0
3
*D12
0
LINE
5
262
100
AcDbEntity
8
0
62
256
6
ByLayer
370
-2
48
1
60
0
100
AcDbLine
10
-58.5875
20
12.5
30
0
11
-85.278125
21
12.5
31
0
39
0
210
0
220
0
230
1
0
LINE
5
263
100
AcDbEntity
8
0
62
256
6
ByLayer
370
-2
48
1
60
0
100
AcDbLine
10
-58.5875
20
-12.5
30
0
11
-85.278125
21
-12.5
31
0
39
0
210
0
220
0
230
1
0
LINE
5
264
100
AcDbEntity
8
0
62
256
6
ByLayer
370
-2
48
1
60
0
100
AcDbLine
10
-82.103125
20
9.325
30
0
11
-82.103125
21
-9.325
31
0
39
0
210
0
220
0
230
1
0
SOLID
5
265
100
AcDbEntity
8
0
62
256
6
ByLayer
370
-1
48
1
60
0
100
AcDbTrace
10
-81.573958
20
9.325
30
0
11
-82.632292
21
9.325
31
0
12
-82.103125
22
12.5
32
0
13
-82.103125
23
12.5
33
0
39
0
210
0
220
0
230
1
0
SOLID
5
266
100
AcDbEntity
8
0
62
256
6
ByLayer
370
-1
48
1
60
0
100
AcDbTrace
10
-82.632292
20
-9.325
30
0
11
-81.573958
21
-9.325
31
0
12
-82.103125
22
-12.5
32
0
13
-82.103125
23
-12.5
33
0
39
0
210
0
220
0
230
1
0
MTEXT
5
267
100
AcDbEntity
8
0
62
256
6
ByLayer
370
18
48
1
60
0
100
AcDbMText
10
-91.496875
20
0
30
0
210
0
220
0
230
1
1
\A1;25
40
4.5
41
0
44
1
50
90
71
5
72
5
7
iso_b_vert
0
POINT
5
268
100
AcDbEntity
8
Defpoints
62
0
6
ByLayer
370
-1
48
1
60
0
100
AcDbPoint
10
-57
20
12.5
30
0
39
0
210
0
220
0
230
1
50
360
0
POINT
5
269
100
AcDbEntity
8
Defpoints
62
0
6
ByLayer
370
-1
48
1
60
0
100
AcDbPoint
10
-57
20
-12.5
30
0
39
0
210
0
220
0
230
1
50
360
0
POINT
5
26A
100
AcDbEntity
8
Defpoints
62
0
6
ByLayer
370
-1
48
1
60
0
100
AcDbPoint
10
-82.103125
20
-12.5
30
0
39
0
210
0
220
0
230
1
50
360
0
ENDBLK
5
261
100
AcDbEntity
8
0
100
AcDbBlockEnd
0
BLOCK
5
277
100
AcDbEntity
8
0
100
AcDbBlockBegin
2
_U5
70
0
10
0
20
0
30
0
3
_U5
0
MTEXT
5
26C
100
AcDbEntity
8
SK2
62
256
6
ByLayer
370
18
48
1
60
0
100
AcDbMText
10
-84.184971
20
-7.91119
30
0
210
0
220
0
230
1
1
%%c
40
3.175
41
0
44
1.084337
50
90
71
7
72
5
7
iso_b_vert
0
MTEXT
5
26D
100
AcDbEntity
8
SK2
62
256
6
ByLayer
370
18
48
1
60
0
100
AcDbMText
10
-83.783547
20
1.673435
30
0
210
0
220
0
230
1
1
\W0.8247;25
40
4.5
41
0
44
1.084337
50
90
71
7
72
5
7
iso_b_vert
0
LINE
5
26E
100
AcDbEntity
8
SK2
62
256
6
ByLayer
370
13
48
1
60
0
100
AcDbLine
10
-58.5875
20
12.5
30
0
11
-85.278125
21
12.5
31
0
39
0
210
0
220
0
230
1
0
LINE
5
26F
100
AcDbEntity
8
SK2
62
256
6
ByLayer
370
13
48
1
60
0
100
AcDbLine
10
-58.5875
20
-12.5
30
0
11
-85.278125
21
-12.5
31
0
39
0
210
0
220
0
230
1
0
LINE
5
270
100
AcDbEntity
8
SK2
62
256
6
ByLayer
370
13
48
1
60
0
100
AcDbLine
10
-82.103125
20
23.75
30
0
11
-82.103125
21
-23.75
31
0
39
0
210
0
220
0
230
1
0
LINE
5
271
100
AcDbEntity
8
SK2
62
256
6
ByLayer
370
13
48
1
60
0
100
AcDbLine
10
-82.103125
20
12.5
30
0
11
-82.521122
21
15.674998
31
0
39
0
210
0
220
0
230
1
0
LINE
5
272
100
AcDbEntity
8
SK2
62
256
6
ByLayer
370
13
48
1
60
0
100
AcDbLine
10
-82.103125
20
12.5
30
0
11
-81.685128
21
15.675002
31
0
39
0
210
0
220
0
230
1
0
LINE
5
273
100
AcDbEntity
8
SK2
62
256
6
ByLayer
370
13
48
1
60
0
100
AcDbLine
10
-82.521122
20
15.674998
30
0
11
-81.685128
21
15.675002
31
0
39
0
210
0
220
0
230
1
0
LINE
5
274
100
AcDbEntity
8
SK2
62
256
6
ByLayer
370
13
48
1
60
0
100
AcDbLine
10
-82.103125
20
-12.5
30
0
11
-81.685128
21
-15.674998
31
0
39
0
210
0
220
0
230
1
0
LINE
5
275
100
AcDbEntity
8
SK2
62
256
6
ByLayer
370
13
48
1
60
0
100
AcDbLine
10
-82.103125
20
-12.5
30
0
11
-82.521122
21
-15.675002
31
0
39
0
210
0
220
0
230
1
0
LINE
5
276
100
AcDbEntity
8
SK2
62
256
6
ByLayer
370
13
48
1
60
0
100
AcDbLine
10
-81.685128
20
-15.674998
30
0
11
-82.521122
21
-15.675002
31
0
39
0
210
0
220
0
230
1
0
ENDBLK
5
278
100
AcDbEntity
8
0
100
AcDbBlockEnd
0
ENDSEC
0
SECTION
2
ENTITIES
0
ARC
5
D3
100
AcDbEntity
8
1
62
256
6
ByLayer
370
18
48
1
60
0
100
AcDbCircle
39
0
10
56.96741
20
12.418629
30
0
40
1.28905
210
0
220
0
230
1
100
AcDbArc
50
225
51
285
0
ARC
5
D4
100
AcDbEntity
8
1
62
256
6
ByLayer
370
18
48
1
60
0
100
AcDbCircle
39
0
10
56.96741
20
12.418629
30
0
40
1.28905
210
0
220
0
230
1
100
AcDbArc
50
285
51
345
0
ARC
5
D5
100
AcDbEntity
8
1
62
256
6
ByLayer
370
18
48
1
60
0
100
AcDbCircle
39
0
10
56.96741
20
12.418629
30
0
40
1.28905
210
0
220
0
230
1
100
AcDbArc
50
105
51
165
0
ARC
5
D6
100
AcDbEntity
8
1
62
256
6
ByLayer
370
18
48
1
60
0
100
AcDbCircle
39
0
10
56.96741
20
12.418629
30
0
40
1.28905
210
0
220
0
230
1
100
AcDbArc
50
165
51
225
0
ARC
5
D7
100
AcDbEntity
8
1
62
256
6
ByLayer
370
18
48
1
60
0
100
AcDbCircle
39
0
10
56.96741
20
12.418629
30
0
40
1.28905
210
0
220
0
230
1
100
AcDbArc
50
345
51
45
0
ARC
5
D8
100
AcDbEntity
8
1
62
256
6
ByLayer
370
18
48
1
60
0
100
AcDbCircle
39
0
10
56.96741
20
12.418629
30
0
40
1.28905
210
0
220
0
230
1
100
AcDbArc
50
45
51
105
0
ARC
5
D9
100
AcDbEntity
8
1
62
256
6
ByLayer
370
18
48
1
60
0
100
AcDbCircle
39
0
10
56.96741
20
12.418629
30
0
40
0.9944
210
0
220
0
230
1
100
AcDbArc
50
15
51
75
0
ARC
5
DA
100
AcDbEntity
8
1
62
256
6
ByLayer
370
18
48
1
60
0
100
AcDbCircle
39
0
10
56.96741
20
12.418629
30
0
40
0.9944
210
0
220
0
230
1
100
AcDbArc
50
75
51
135
0
ARC
5
DB
100
AcDbEntity
8
1
62
256
6
ByLayer
370
18
48
1
60
0
100
AcDbCircle
39
0
10
56.96741
20
12.418629
30
0
40
0.9944
210
0
220
0
230
1
100
AcDbArc
50
255
51
315
0
ARC
5
DC
100
AcDbEntity
8
1
62
256
6
ByLayer
370
18
48
1
60
0
100
AcDbCircle
39
0
10
56.96741
20
12.418629
30
0
40
0.9944
210
0
220
0
230
1
100
AcDbArc
50
135
51
195
0
ARC
5
DD
100
AcDbEntity
8
1
62
256
6
ByLayer
370
18
48
1
60
0
100
AcDbCircle
39
0
10
56.96741
20
12.418629
30
0
40
0.9944
210
0
220
0
230
1
100
AcDbArc
50
315
51
15
0
ARC
5
DE
100
AcDbEntity
8
1
62
256
6
ByLayer
370
18
48
1
60
0
100
AcDbCircle
39
0
10
56.96741
20
12.418629
30
0
40
0.9944
210
0
220
0
230
1
100
AcDbArc
50
195
51
255
0
ARC
5
E4
100
AcDbEntity
8
1
62
256
6
ByLayer
370
18
48
1
60
0
100
AcDbCircle
39
0
10
56.96741
20
-12.418629
30
0
40
1.5
210
0
220
0
230
1
100
AcDbArc
50
67.471864
51
112.533734
0
ARC
5
E5
100
AcDbEntity
8
1
62
256
6
ByLayer
370
13
48
1
60
0
100
AcDbCircle
39
0
10
56.96741
20
-12.218629
30
0
40
1.5
210
0
220
0
230
1
100
AcDbArc
50
45
51
135
0
ARC
5
E7
100
AcDbEntity
8
1
62
256
6
ByLayer
370
13
48
1
60
0
100
AcDbCircle
39
0
10
56.96741
20
-12.218629
30
0
40
2.00000000000057
210
0
220
0
230
1
100
AcDbArc
50
45
51
90
0
ARC
5
E9
100
AcDbEntity
8
1
62
256
6
ByLayer
370
13
48
1
60
0
100
AcDbCircle
39
0
10
62.553553
20
12.15845
30
0
40
1
210
0
220
0
230
1
100
AcDbArc
50
246.47645
51
269.796405
0
ARC
5
EA
100
AcDbEntity
8
1
62
256
6
ByLayer
370
13
48
1
60
0
100
AcDbCircle
39
0
10
53.502587
20
10.368019
30
0
40
1
210
0
220
0
230
1
100
AcDbArc
50
172.39967
51
207.674161
0
ARC
5
EB
100
AcDbEntity
8
1
62
256
6
ByLayer
370
13
48
1
60
0
100
AcDbCircle
39
0
10
56.96741
20
18.918629
30
0
40
12
210
0
220
0
230
1
100
AcDbArc
50
213.623506
51
225.261883
0
ARC
5
EC
100
AcDbEntity
8
1
62
256
6
ByLayer
370
13
48
1
60
0
100
AcDbCircle
39
0
10
0.419846
20
-12.784011
30
0
40
0.5
210
0
220
0
230
1
100
AcDbArc
50
90
51
135
0
ARC
5
ED
100
AcDbEntity
8
1
62
256
6
ByLayer
370
13
48
1
60
0
100
AcDbCircle
39
0
10
0.419846
20
12.784011
30
0
40
0.5
210
0
220
0
230
1
100
AcDbArc
50
225
51
270
0
ARC
5
EE
100
AcDbEntity
8
SK2
62
256
6
ByLayer
370
13
48
1
60
0
100
AcDbCircle
39
0
10
63
20
12.75
30
0
40
12.9723095210679
210
0
220
0
230
1
100
AcDbArc
50
90
51
135
0
ARC
5
EF
100
AcDbEntity
8
SK2
62
256
6
ByLayer
370
13
48
1
60
0
100
AcDbCircle
39
0
10
63
20
12.75
30
0
40
12.9723095210679
210
0
220
0
230
1
100
AcDbArc
50
24.357104
51
90
0
CIRCLE
5
D2
100
AcDbEntity
8
1
62
256
6
ByLayer
370
18
48
1
60
0
100
AcDbCircle
10
56.96741
20
-12.418629
30
0
40
1.2
39
0
210
0
220
0
230
1
0
CIRCLE
5
DF
100
AcDbEntity
8
1
62
256
6
ByLayer
370
18
48
1
60
0
100
AcDbCircle
10
56.96741
20
12.418629
30
0
40
1.4
39
0
210
0
220
0
230
1
0
CIRCLE
5
E0
100
AcDbEntity
8
1
62
256
6
ByLayer
370
18
48
1
60
0
100
AcDbCircle
10
56.96741
20
12.418629
30
0
40
2.1
39
0
210
0
220
0
230
1
0
CIRCLE
5
E1
100
AcDbEntity
8
1
62
256
6
ByLayer
370
18
48
1
60
0
100
AcDbCircle
10
56.96741
20
12.418629
30
0
40
2.15037854103613
39
0
210
0
220
0
230
1
0
CIRCLE
5
E2
100
AcDbEntity
8
1
62
256
6
ByLayer
370
18
48
1
60
0
100
AcDbCircle
10
56.96741
20
12.418629
30
0
40
2.26175520142507
39
0
210
0
220
0
230
1
0
CIRCLE
5
E3
100
AcDbEntity
8
1
62
256
6
ByLayer
370
18
48
1
60
0
100
AcDbCircle
10
56.96741
20
12.418629
30
0
40
2.30803925391311
39
0
210
0
220
0
230
1
0
CIRCLE
5
E6
100
AcDbEntity
8
1
62
256
6
ByLayer
370
13
48
1
60
0
100
AcDbCircle
10
56.96741
20
-12.218629
30
0
40
1.3175
39
0
210
0
220
0
230
1
0
CIRCLE
5
E8
100
AcDbEntity
8
1
62
256
6
ByLayer
370
13
48
1
60
0
100
AcDbCircle
10
56.96741
20
-12.218629
30
0
40
1.4
39
0
210
0
220
0
230
1
0
ELLIPSE
5
F0
100
AcDbEntity
8
1
62
256
6
ByLayer
370
13
48
1
60
0
100
AcDbEllipse
10
55.90675
20
7.81
30
0
11
5.85726671158138E-16
21
0.5
31
0
210
0
220
0
230
1
40
0.707107
41
1.57079632679491
42
3.14159265358975
0
ELLIPSE
5
F1
100
AcDbEntity
8
1
62
256
6
ByLayer
370
13
48
1
60
0
100
AcDbEllipse
10
-657.375468
20
2E-06
30
0
11
718.668014615213
21
-2.57169697417713E-06
31
0
210
0
220
0
230
1
40
0.194434
41
0.055921266675961
42
0.075147515097493
0
ELLIPSE
5
F2
100
AcDbEntity
8
1
62
256
6
ByLayer
370
13
48
1
60
0
100
AcDbEllipse
10
51.210043
20
2.337635
30
0
11
1.12021142188966
21
-0.554640757849574
31
0
210
0
220
0
230
1
40
0.40558
41
1.7951466403466
42
1.92992976825561
0
ELLIPSE
5
F3
100
AcDbEntity
8
1
62
256
6
ByLayer
370
13
48
1
60
0
100
AcDbEllipse
10
56.96741
20
10.797631
30
0
11
1.99999999999962
21
4.04453249742233E-21
31
0
210
0
220
0
230
1
40
0.57735
41
-1.5707963267949
42
-0.78539816339727
0
ELLIPSE
5
F4
100
AcDbEntity
8
1
62
256
6
ByLayer
370
13
48
1
60
0
100
AcDbEllipse
10
62.553553
20
3
30
0
11
1.17145334231628E-15
21
1
31
0
210
0
220
0
230
1
40
0.965926
41
0.266035115482899
42
0.924444600198698
0
ELLIPSE
5
F5
100
AcDbEntity
8
1
62
256
6
ByLayer
370
13
48
1
60
0
100
AcDbEllipse
10
58.02807
20
7.81
30
0
11
5.85726671158138E-16
21
0.5
31
0
210
0
220
0
230
1
40
0.707107
41
3.14159265358975
42
-1.57079632679492
0
ELLIPSE
5
F6
100
AcDbEntity
8
1
62
256
6
ByLayer
370
13
48
1
60
0
100
AcDbEllipse
10
51.194494
20
13.009674
30
0
11
-0.883883476483187
21
0.883883476483182
31
0
210
0
220
0
230
1
40
0.819152
41
2.07094105221419
42
2.25412085928727
0
ELLIPSE
5
F7
100
AcDbEntity
8
1
62
256
6
ByLayer
370
13
48
1
60
0
100
AcDbEllipse
10
782.96095
20
3E-06
30
0
11
730.318146704488
21
3.5809141489984E-06
31
0
210
0
220
0
230
1
40
0.192888
41
3.0659861575427
42
3.08612287685472
0
ELLIPSE
5
F8
100
AcDbEntity
8
1
62
256
6
ByLayer
370
13
48
1
60
0
100
AcDbEllipse
10
62.022663
20
0
30
0
11
12.4231599929964
21
-12.2372795645385
31
0
210
0
220
0
230
1
40
0.086167
41
2.88192872989936
42
3.01362397068605
0
ELLIPSE
5
F9
100
AcDbEntity
8
1
62
256
6
ByLayer
370
13
48
1
60
0
100
AcDbEllipse
10
51.194494
20
2.306229
30
0
11
1.12021142188966
21
-0.554640757849574
31
0
210
0
220
0
230
1
40
0.40558
41
1.77195771143345
42
1.95513751850665
0
ELLIPSE
5
FA
100
AcDbEntity
8
1
62
256
6
ByLayer
370
13
48
1
60
0
100
AcDbEllipse
10
51.194494
20
2.306229
30
0
11
1.24531520388109
21
-0.108120502138079
31
0
210
0
220
0
230
1
40
0.086175
41
1.39683339124642
42
2.24354863785681
0
ELLIPSE
5
FB
100
AcDbEntity
8
1
62
256
6
ByLayer
370
13
48
1
60
0
100
AcDbEllipse
10
62.022663
20
0
30
0
11
9.87411886551335
21
9.05397590270298
31
0
210
0
220
0
230
1
40
0.840779
41
2.14048237424849
42
2.27217761497379
0
ELLIPSE
5
FC
100
AcDbEntity
8
1
62
256
6
ByLayer
370
13
48
1
60
0
100
AcDbEllipse
10
62.022663
20
0
30
0
11
12.4231599845362
21
12.2372795559317
31
0
210
0
220
0
230
1
40
0.086167
41
-3.01362397064154
42
-2.88192872980838
0
ELLIPSE
5
FD
100
AcDbEntity
8
1
62
256
6
ByLayer
370
13
48
1
60
0
100
AcDbEllipse
10
51.194494
20
13.009674
30
0
11
-0.883883476483187
21
0.883883476483182
31
0
210
0
220
0
230
1
40
0.992546
41
1.68718302778964
42
2.38420156768125
0
ELLIPSE
5
FE
100
AcDbEntity
8
1
62
256
6
ByLayer
370
13
48
1
60
0
100
AcDbEllipse
10
51.037673
20
12.852854
30
0
11
0.890521287117534
21
0.890521287117532
31
0
210
0
220
6.32451267283211E-17
230
1
40
0.992546
41
-3.14159265358979
42
-2.09136601126691
0
POINT
5
70
100
AcDbEntity
8
81
62
256
6
ByLayer
370
18
48
1
60
0
100
AcDbPoint
10
63
20
12.75
30
0
39
0
210
0
220
0
230
1
50
360
0
POINT
5
72
100
AcDbEntity
8
80
62
256
6
ByLayer
370
18
48
1
60
0
100
AcDbPoint
10
0
20
0
30
0
39
0
210
0
220
0
230
1
50
360
0
POINT
5
74
100
AcDbEntity
8
1
62
256
6
ByLayer
370
18
48
1
60
1
100
AcDbPoint
10
63
20
-12.75
30
0
39
0
210
0
220
0
230
1
50
360
0
POINT
5
76
100
AcDbEntity
8
1
62
256
6
ByLayer
370
18
48
1
60
1
100
AcDbPoint
10
63
20
12.75
30
0
39
0
210
0
220
0
230
1
50
360
0
POINT
5
77
100
AcDbEntity
8
1
62
256
6
ByLayer
370
18
48
1
60
1
100
AcDbPoint
10
63
20
-12.75
30
0
39
0
210
0
220
0
230
1
50
360
0
POINT
5
78
100
AcDbEntity
8
1
62
256
6
ByLayer
370
18
48
1
60
1
100
AcDbPoint
10
0
20
0
30
0
39
0
210
0
220
0
230
1
50
360
0
POINT
5
79
100
AcDbEntity
8
1
62
256
6
ByLayer
370
18
48
1
60
1
100
AcDbPoint
10
-57
20
12.5
30
0
39
0
210
0
220
0
230
1
50
360
0
POINT
5
7A
100
AcDbEntity
8
1
62
256
6
ByLayer
370
18
48
1
60
1
100
AcDbPoint
10
63
20
12.75
30
0
39
0
210
0
220
0
230
1
50
360
0
POINT
5
7B
100
AcDbEntity
8
1
62
256
6
ByLayer
370
18
48
1
60
1
100
AcDbPoint
10
-57
20
12.5
30
0
39
0
210
0
220
0
230
1
50
360
0
POINT
5
7C
100
AcDbEntity
8
1
62
256
6
ByLayer
370
18
48
1
60
1
100
AcDbPoint
10
56.96
20
18.45
30
0
39
0
210
0
220
0
230
1
50
360
0
POINT
5
7D
100
AcDbEntity
8
1
62
256
6
ByLayer
370
18
48
1
60
1
100
AcDbPoint
10
56.96
20
-18.45
30
0
39
0
210
0
220
0
230
1
50
360
0
POINT
5
7E
100
AcDbEntity
8
1
62
256
6
ByLayer
370
18
48
1
60
1
100
AcDbPoint
10
56.96
20
18.45
30
0
39
0
210
0
220
0
230
1
50
360
0
POINT
5
7F
100
AcDbEntity
8
1
62
256
6
ByLayer
370
18
48
1
60
1
100
AcDbPoint
10
-57
20
12.5
30
0
39
0
210
0
220
0
230
1
50
360
0
POINT
5
80
100
AcDbEntity
8
1
62
256
6
ByLayer
370
18
48
1
60
1
100
AcDbPoint
10
-57
20
-12.5
30
0
39
0
210
0
220
0
230
1
50
360
0
SPLINE
5
FF
100
AcDbEntity
8
1
62
256
6
ByLayer
370
18
48
1
60
0
100
AcDbSpline
70
4
71
3
72
8
73
4
40
0
40
0
40
0
40
0
40
1
40
1
40
1
40
1
41
1
10
51.1691342134871
20
-1.137E-13
30
0
41
1
10
52.0412325769516
20
-1.137E-13
30
0
41
1
10
52.9133309403925
20
-1.137E-13
30
0
41
1
10
53.7854293038801
20
-1.421E-13
30
0
0
SPLINE
5
100
100
AcDbEntity
8
1
62
256
6
ByLayer
370
18
48
1
60
0
100
AcDbSpline
70
4
71
3
72
8
73
4
40
0
40
0
40
0
40
0
40
1
40
1
40
1
40
1
41
1
10
57.5330952441688
20
-1.421E-13
30
0
41
1
10
57.5888897725148
20
-0.066666666666805
30
0
41
1
10
57.6446843008607
20
-0.133333333333468
30
0
41
1
10
57.7004788292068
20
-0.200000000000131
30
0
0
SPLINE
5
101
100
AcDbEntity
8
1
62
256
6
ByLayer
370
18
48
1
60
0
100
AcDbSpline
70
4
71
3
72
8
73
4
40
0
40
0
40
0
40
0
40
1
40
1
40
1
40
1
41
1
10
56.4017243942692
20
1.3642E-12
30
0
41
1
10
56.4017243942687
20
1.10333333333486
30
0
41
1
10
56.401724394269
20
2.20666666666836
30
0
41
1
10
56.4017243942694
20
3.31000000000188
30
0
0
SPLINE
5
102
100
AcDbEntity
8
1
62
256
6
ByLayer
370
18
48
1
60
0
100
AcDbSpline
70
4
71
3
72
10
73
6
40
0
40
0
40
0
40
0
40
0.375000000000406
40
0.750000000000812
40
1
40
1
40
1
40
1
41
1
10
58.9747908397044
20
-0.200000000000131
30
0
41
1
10
58.839681461308
20
-0.200000000000131
30
0
41
1
10
58.5468708766629
20
-0.200000000000131
30
0
41
1
10
58.1091180717775
20
-0.200000000000131
30
0
41
1
10
57.8185395050563
20
-0.200000000000131
30
0
41
1
10
57.7004788292082
20
-0.200000000000131
30
0
0
SPLINE
5
103
100
AcDbEntity
8
1
62
256
6
ByLayer
370
18
48
1
60
0
100
AcDbSpline
70
4
71
3
72
8
73
4
40
0
40
0
40
0
40
0
40
1
40
1
40
1
40
1
41
1
10
54.1981267363426
20
3.30999999999986
30
0
41
1
10
53.4635941836898
20
3.30999999999989
30
0
41
1
10
52.7290616310559
20
3.30999999999989
30
0
41
1
10
51.9945290784168
20
3.30999999999989
30
0
0
SPLINE
5
104
100
AcDbEntity
8
1
62
256
6
ByLayer
370
18
48
1
60
0
100
AcDbSpline
70
4
71
3
72
8
73
4
40
0
40
0
40
0
40
0
40
1
40
1
40
1
40
1
41
1
10
51.9945290784176
20
3.31000000000205
30
0
41
1
10
51.7193974567766
20
2.20666666666855
30
0
41
1
10
51.4442658351355
20
1.10333333333509
30
0
41
1
10
51.1691342134936
20
1.5916E-12
30
0
0
SPLINE
5
105
100
AcDbEntity
8
1
62
256
6
ByLayer
370
18
48
1
60
0
100
AcDbSpline
70
4
71
3
72
8
73
4
40
0
40
0
40
0
40
0
40
1
40
1
40
1
40
1
41
1
10
62.7656854249519
20
-1.421E-13
30
0
41
1
10
61.7702951236747
20
-0.066666666666805
30
0
41
1
10
60.7749048223975
20
-0.133333333333468
30
0
41
1
10
59.7795145211203
20
-0.200000000000131
30
0
0
SPLINE
5
106
100
AcDbEntity
8
1
62
256
6
ByLayer
370
18
48
1
60
0
100
AcDbSpline
70
4
71
3
72
8
73
4
40
0
40
0
40
0
40
0
40
1
40
1
40
1
40
1
41
1
10
56.4017243942697
20
3.30999999999986
30
0
41
1
10
55.6671918416302
20
3.30999999999986
30
0
41
1
10
54.9326592889959
20
3.30999999999986
30
0
41
1
10
54.1981267363426
20
3.30999999999986
30
0
0
SPLINE
5
107
100
AcDbEntity
8
1
62
256
6
ByLayer
370
18
48
1
60
0
100
AcDbSpline
70
4
71
3
72
8
73
4
40
0
40
0
40
0
40
0
40
1
40
1
40
1
40
1
41
1
10
57.5330952441661
20
-1.421E-13
30
0
41
1
10
58.4051936076305
20
-1.421E-13
30
0
41
1
10
59.2772919710715
20
-1.421E-13
30
0
41
1
10
60.149390334559
20
-1.421E-13
30
0
0
SPLINE
5
108
100
AcDbEntity
8
1
62
256
6
ByLayer
370
18
48
1
60
0
100
AcDbSpline
70
4
71
3
72
8
73
4
40
0
40
0
40
0
40
0
40
1
40
1
40
1
40
1
41
1
10
53.7854293038801
20
-1.421E-13
30
0
41
1
10
54.6575276673676
20
-1.421E-13
30
0
41
1
10
55.5296260308086
20
-1.421E-13
30
0
41
1
10
56.401724394273
20
-1.421E-13
30
0
0
SPLINE
5
109
100
AcDbEntity
8
1
62
256
6
ByLayer
370
18
48
1
60
0
100
AcDbSpline
70
4
71
3
72
8
73
4
40
0
40
0
40
0
40
0
40
1
40
1
40
1
40
1
41
1
10
51.1691342134899
20
-1.137E-13
30
0
41
1
10
52.1645245147661
20
-0.0666666666667766
30
0
41
1
10
53.1599148160424
20
-0.133333333333468
30
0
41
1
10
54.1553051173187
20
-0.200000000000131
30
0
0
SPLINE
5
10A
100
AcDbEntity
8
1
62
256
6
ByLayer
370
18
48
1
60
0
100
AcDbSpline
70
4
71
3
72
8
73
4
40
0
40
0
40
0
40
0
40
1
40
1
40
1
40
1
41
1
10
62.7656854249478
20
1.3927E-12
30
0
41
1
10
62.4905538033055
20
1.10333333333489
30
0
41
1
10
62.2154221816642
20
2.20666666666838
30
0
41
1
10
61.9402905600229
20
3.31000000000188
30
0
0
SPLINE
5
10B
100
AcDbEntity
8
1
62
256
6
ByLayer
370
18
48
1
60
0
100
AcDbSpline
70
4
71
3
72
8
73
4
40
0
40
0
40
0
40
0
40
1
40
1
40
1
40
1
41
1
10
58.9747908397044
20
-0.200000000000131
30
0
41
1
10
59.366324004656
20
-0.133333333333468
30
0
41
1
10
59.7578571696075
20
-0.066666666666805
30
0
41
1
10
60.149390334559
20
-1.421E-13
30
0
0
SPLINE
5
10C
100
AcDbEntity
8
1
62
256
6
ByLayer
370
18
48
1
60
0
100
AcDbSpline
70
4
71
3
72
8
73
4
40
0
40
0
40
0
40
0
40
1
40
1
40
1
40
1
41
1
10
60.149390334559
20
-1.421E-13
30
0
41
1
10
61.0214886980466
20
-1.421E-13
30
0
41
1
10
61.8935870614876
20
-1.421E-13
30
0
41
1
10
62.7656854249519
20
-1.421E-13
30
0
0
SPLINE
5
10D
100
AcDbEntity
8
1
62
256
6
ByLayer
370
18
48
1
60
0
100
AcDbSpline
70
4
71
3
72
10
73
6
40
0
40
0
40
0
40
0
40
0.375000000000406
40
0.750000000000812
40
1
40
1
40
1
40
1
41
1
10
54.9600287987506
20
-0.200000000000131
30
0
41
1
10
54.8249194203521
20
-0.200000000000131
30
0
41
1
10
54.5772968616178
20
-0.200000000000131
30
0
41
1
10
54.3179783385345
20
-0.200000000000131
30
0
41
1
10
54.1969050505501
20
-0.200000000000131
30
0
41
1
10
54.1553051173192
20
-0.200000000000131
30
0
0
SPLINE
5
10E
100
AcDbEntity
8
1
62
256
6
ByLayer
370
18
48
1
60
0
100
AcDbSpline
70
4
71
3
72
10
73
6
40
0
40
0
40
0
40
0
40
0.249999999999984
40
0.624999999999992
40
1
40
1
40
1
40
1
41
1
10
56.2343408092482
20
-0.200000000000131
30
0
41
1
10
56.1162801333988
20
-0.200000000000131
30
0
41
1
10
55.8257015666736
20
-0.200000000000131
30
0
41
1
10
55.3879487617936
20
-0.200000000000131
30
0
41
1
10
55.0951381771401
20
-0.200000000000131
30
0
41
1
10
54.9600287987427
20
-0.200000000000131
30
0
0
SPLINE
5
10F
100
AcDbEntity
8
1
62
256
6
ByLayer
370
18
48
1
60
0
100
AcDbSpline
70
4
71
3
72
8
73
4
40
0
40
0
40
0
40
0
40
1
40
1
40
1
40
1
41
1
10
57.533095244171
20
3.31000000000202
30
0
41
1
10
57.5330952441717
20
2.20666666666855
30
0
41
1
10
57.5330952441723
20
1.10333333333506
30
0
41
1
10
57.5330952441721
20
1.5916E-12
30
0
0
SPLINE
5
110
100
AcDbEntity
8
1
62
256
6
ByLayer
370
18
48
1
60
0
100
AcDbSpline
70
4
71
3
72
29
73
25
40
0
40
0
40
0
40
0
40
0.125000000000945
40
0.171875000000894
40
0.218750000000842
40
0.242187500000816
40
0.26562500000079
40
0.277343750000777
40
0.289062500000764
40
0.312500000000738
40
0.359375000000687
40
0.406250000000635
40
0.500000000000531
40
0.593750000000427
40
0.640625000000376
40
0.687500000000324
40
0.710937500000298
40
0.722656250000285
40
0.734375000000272
40
0.757812500000246
40
0.78125000000022
40
0.828125000000168
40
0.875000000000117
40
1
40
1
40
1
40
1
41
1
10
57.7004788292082
20
-0.200000000000131
30
0
41
1
10
57.6414484912835
20
-0.200000000000131
30
0
41
1
10
57.5596529722385
20
-0.200000000000131
30
0
41
1
10
57.4547162827557
20
-0.200000000000131
30
0
41
1
10
57.3982889111839
20
-0.200000000000131
30
0
41
1
10
57.353030706008
20
-0.200000000000131
30
0
41
1
10
57.3247061534022
20
-0.200000000000131
30
0
41
1
10
57.3020347410709
20
-0.200000000000131
30
0
41
1
10
57.2792825447269
20
-0.200000000000131
30
0
41
1
10
57.2391561817371
20
-0.200000000000131
30
0
41
1
10
57.1810639331942
20
-0.200000000000131
30
0
41
1
10
57.0868297665081
20
-0.200000000000131
30
0
41
1
10
56.9674098324946
20
-0.200000000000131
30
0
41
1
10
56.8479899033713
20
-0.200000000000131
30
0
41
1
10
56.7537557438637
20
-0.200000000000131
30
0
41
1
10
56.6956634802968
20
-0.200000000000131
30
0
41
1
10
56.6555370971315
20
-0.200000000000131
30
0
41
1
10
56.6327848967973
20
-0.200000000000131
30
0
41
1
10
56.6101134852787
20
-0.200000000000131
30
0
41
1
10
56.5817889327002
20
-0.200000000000131
30
0
41
1
10
56.5365307271454
20
-0.200000000000131
30
0
41
1
10
56.4801033557002
20
-0.200000000000131
30
0
41
1
10
56.375166666218
20
-0.200000000000131
30
0
41
1
10
56.2933711471729
20
-0.200000000000131
30
0
41
1
10
56.2343408092482
20
-0.200000000000131
30
0
0
SPLINE
5
111
100
AcDbEntity
8
1
62
256
6
ByLayer
370
18
48
1
60
0
100
AcDbSpline
70
4
71
1
72
4
73
2
40
0
40
0
40
1
40
1
41
1
10
53.7854293038801
20
-1.421E-13
30
0
41
1
10
54.1981267363426
20
3.30999999999986
30
0
0
SPLINE
5
112
100
AcDbEntity
8
1
62
256
6
ByLayer
370
18
48
1
60
0
100
AcDbSpline
70
4
71
3
72
8
73
4
40
0
40
0
40
0
40
0
40
1
40
1
40
1
40
1
41
1
10
53.7854293038801
20
-1.421E-13
30
0
41
1
10
54.176962468837
20
-0.066666666666805
30
0
41
1
10
54.5684956337938
20
-0.133333333333468
30
0
41
1
10
54.9600287987507
20
-0.200000000000131
30
0
0
SPLINE
5
113
100
AcDbEntity
8
1
62
256
6
ByLayer
370
18
48
1
60
0
100
AcDbSpline
70
4
71
3
72
17
73
13
40
0
40
0
40
0
40
0
40
0.0625
40
0.125
40
0.25
40
0.375
40
0.5
40
0.625
40
0.75
40
0.875
40
0.9375
40
1
40
1
40
1
40
1
41
1
10
57.5330952441702
20
3.31000000000023
30
0
41
1
10
57.5145838282193
20
3.3100000000002
30
0
41
1
10
57.4757338015464
20
3.31000000000017
30
0
41
1
10
57.3915054602439
20
3.31000000000014
30
0
41
1
10
57.2755074355754
20
3.31000000000009
30
0
41
1
10
57.1244818150698
20
3.31000000000003
30
0
41
1
10
56.9674095742763
20
3.30999999999997
30
0
41
1
10
56.8103367672086
20
3.30999999999995
30
0
41
1
10
56.6593126285198
20
3.30999999999992
30
0
41
1
10
56.5433139488065
20
3.30999999999992
30
0
41
1
10
56.4590862635241
20
3.30999999999992
30
0
41
1
10
56.4202358102197
20
3.30999999999992
30
0
41
1
10
56.4017243942689
20
3.30999999999992
30
0
0
SPLINE
5
114
100
AcDbEntity
8
1
62
256
6
ByLayer
370
18
48
1
60
0
100
AcDbSpline
70
4
71
3
72
8
73
4
40
0
40
0
40
0
40
0
40
1
40
1
40
1
40
1
41
1
10
61.9402905600236
20
3.30999999999986
30
0
41
1
10
61.2057580073841
20
3.30999999999986
30
0
41
1
10
60.4712254547498
20
3.30999999999986
30
0
41
1
10
59.7366929020965
20
3.30999999999986
30
0
0
SPLINE
5
115
100
AcDbEntity
8
1
62
256
6
ByLayer
370
18
48
1
60
0
100
AcDbSpline
70
4
71
1
72
4
73
2
40
0
40
0
40
1
40
1
41
1
10
60.149390334559
20
-1.421E-13
30
0
41
1
10
59.7366929020965
20
3.30999999999986
30
0
0
SPLINE
5
116
100
AcDbEntity
8
1
62
256
6
ByLayer
370
18
48
1
60
0
100
AcDbSpline
70
4
71
3
72
10
73
6
40
0
40
0
40
0
40
0
40
0.249999999999984
40
0.624999999999992
40
1
40
1
40
1
40
1
41
1
10
59.7795145211203
20
-0.200000000000131
30
0
41
1
10
59.7379145878913
20
-0.200000000000131
30
0
41
1
10
59.6168412999127
20
-0.200000000000131
30
0
41
1
10
59.3575227768213
20
-0.200000000000131
30
0
41
1
10
59.1099002180946
20
-0.200000000000131
30
0
41
1
10
58.9747908396964
20
-0.200000000000131
30
0
0
SPLINE
5
117
100
AcDbEntity
8
1
62
256
6
ByLayer
370
18
48
1
60
0
100
AcDbSpline
70
4
71
3
72
17
73
13
40
0
40
0
40
0
40
0
40
0.0625
40
0.125
40
0.25
40
0.375
40
0.5
40
0.625
40
0.75
40
0.875
40
0.9375
40
1
40
1
40
1
40
1
41
1
10
56.4017243942703
20
-1.630567965E-07
30
0
41
1
10
56.4202364064708
20
-1.630567965E-07
30
0
41
1
10
56.4590795375652
20
-1.630567681E-07
30
0
41
1
10
56.5432907948632
20
-1.630567397E-07
30
0
41
1
10
56.6592893884118
20
-1.630566828E-07
30
0
41
1
10
56.8103312509512
20
-1.63056626E-07
30
0
41
1
10
56.9674096221003
20
-1.630565691E-07
30
0
41
1
10
57.1244877314793
20
-1.630565123E-07
30
0
41
1
10
57.2755305024925
20
-1.630564839E-07
30
0
41
1
10
57.3915287326839
20
-1.63056427E-07
30
0
41
1
10
57.4757403625294
20
-1.630563986E-07
30
0
41
1
10
57.5145832319682
20
-1.630563702E-07
30
0
41
1
10
57.5330952441688
20
-1.630563702E-07
30
0
0
SPLINE
5
118
100
AcDbEntity
8
1
62
256
6
ByLayer
370
18
48
1
60
0
100
AcDbSpline
70
4
71
3
72
8
73
4
40
0
40
0
40
0
40
0
40
1
40
1
40
1
40
1
41
1
10
56.401724394273
20
-1.421E-13
30
0
41
1
10
56.3459298659314
20
-0.066666666666805
30
0
41
1
10
56.2901353375899
20
-0.133333333333468
30
0
41
1
10
56.2343408092482
20
-0.200000000000131
30
0
0
SPLINE
5
119
100
AcDbEntity
8
1
62
256
6
ByLayer
370
18
48
1
60
0
100
AcDbSpline
70
4
71
3
72
8
73
4
40
0
40
0
40
0
40
0
40
1
40
1
40
1
40
1
41
1
10
59.7366929020965
20
3.30999999999986
30
0
41
1
10
59.0021603494437
20
3.30999999999986
30
0
41
1
10
58.2676277968098
20
3.30999999999986
30
0
41
1
10
57.5330952441707
20
3.30999999999986
30
0
0
SPLINE
5
11A
100
AcDbEntity
8
1
62
256
6
ByLayer
370
18
48
1
60
0
100
AcDbSpline
70
4
71
3
72
8
73
4
40
0
40
0
40
0
40
0
40
1
40
1
40
1
40
1
41
1
10
51.1691342134871
20
-12.984314575048
30
0
41
1
10
52.0412325769515
20
-13.8564129385124
30
0
41
1
10
52.9133309403925
20
-14.7285113019534
30
0
41
1
10
53.7854293038801
20
-15.6006096654409
30
0
0
SPLINE
5
11B
100
AcDbEntity
8
1
62
256
6
ByLayer
370
18
48
1
60
0
100
AcDbSpline
70
4
71
3
72
8
73
4
40
0
40
0
40
0
40
0
40
1
40
1
40
1
40
1
41
1
10
56.4017243942692
20
-18.2169047558297
30
0
41
1
10
56.4017243942687
20
-17.9417731341875
30
0
41
1
10
56.401724394269
20
-17.6666415125461
30
0
41
1
10
56.4017243942694
20
-17.3915098909048
30
0
0
SPLINE
5
11C
100
AcDbEntity
8
1
62
256
6
ByLayer
370
18
48
1
60
0
100
AcDbSpline
70
4
71
3
72
8
73
4
40
0
40
0
40
0
40
0
40
1
40
1
40
1
40
1
41
1
10
54.1981267363426
20
-15.1879122329784
30
0
41
1
10
53.4635941836897
20
-14.4533796803256
30
0
41
1
10
52.7290616310559
20
-13.7188471276917
30
0
41
1
10
51.9945290784168
20
-12.9843145750527
30
0
0
SPLINE
5
11D
100
AcDbEntity
8
1
62
256
6
ByLayer
370
18
48
1
60
0
100
AcDbSpline
70
4
71
3
72
8
73
4
40
0
40
0
40
0
40
0
40
1
40
1
40
1
40
1
41
1
10
51.9945290784176
20
-12.9843145750529
30
0
41
1
10
51.7193974567766
20
-12.9843145750536
30
0
41
1
10
51.4442658351355
20
-12.9843145750542
30
0
41
1
10
51.1691342134936
20
-12.984314575054
30
0
0
SPLINE
5
11E
100
AcDbEntity
8
1
62
256
6
ByLayer
370
18
48
1
60
0
100
AcDbSpline
70
4
71
3
72
17
73
13
40
0
40
0
40
0
40
0
40
0.0625
40
0.125
40
0.25
40
0.375
40
0.5
40
0.625
40
0.75
40
0.875
40
0.9375
40
1
40
1
40
1
40
1
41
1
10
62.7656854656097
20
-12.9843145750507
30
0
41
1
10
62.7841974778102
20
-12.9658025628503
30
0
41
1
10
62.8194021533363
20
-12.9269594317559
30
0
41
1
10
62.8818619658381
20
-12.8427481744578
30
0
41
1
10
62.9438679447494
20
-12.7267495809093
30
0
41
1
10
62.9896860309134
20
-12.5757077183699
30
0
41
1
10
63.0051570033175
20
-12.4186293472208
30
0
41
1
10
62.9896859412501
20
-12.2615512378417
30
0
41
1
10
62.9438689085905
20
-12.1105084668286
30
0
41
1
10
62.8818620171534
20
-11.9945102366372
30
0
41
1
10
62.8194025998898
20
-11.9102986067917
30
0
41
1
10
62.7841974778102
20
-11.8714557373528
30
0
41
1
10
62.7656854656096
20
-11.8529437251523
30
0
0
SPLINE
5
11F
100
AcDbEntity
8
1
62
256
6
ByLayer
370
18
48
1
60
0
100
AcDbSpline
70
4
71
3
72
8
73
4
40
0
40
0
40
0
40
0
40
1
40
1
40
1
40
1
41
1
10
56.4017243942697
20
-17.3915098909055
30
0
41
1
10
55.6671918416301
20
-16.656977338266
30
0
41
1
10
54.9326592889959
20
-15.9224447856317
30
0
41
1
10
54.1981267363426
20
-15.1879122329784
30
0
0
SPLINE
5
120
100
AcDbEntity
8
1
62
256
6
ByLayer
370
18
48
1
60
0
100
AcDbSpline
70
4
71
3
72
8
73
4
40
0
40
0
40
0
40
0
40
1
40
1
40
1
40
1
41
1
10
57.533095244166
20
-18.2169047558339
30
0
41
1
10
58.4051936076305
20
-17.3448063923695
30
0
41
1
10
59.2772919710715
20
-16.4727080289285
30
0
41
1
10
60.149390334559
20
-15.6006096654409
30
0
0
SPLINE
5
121
100
AcDbEntity
8
1
62
256
6
ByLayer
370
18
48
1
60
0
100
AcDbSpline
70
4
71
3
72
8
73
4
40
0
40
0
40
0
40
0
40
1
40
1
40
1
40
1
41
1
10
53.7854293038801
20
-15.6006096654409
30
0
41
1
10
54.6575276673676
20
-16.4727080289285
30
0
41
1
10
55.5296260308086
20
-17.3448063923694
30
0
41
1
10
56.4017243942729
20
-18.2169047558338
30
0
0
SPLINE
5
122
100
AcDbEntity
8
1
62
256
6
ByLayer
370
18
48
1
60
0
100
AcDbSpline
70
4
71
3
72
8
73
4
40
0
40
0
40
0
40
0
40
1
40
1
40
1
40
1
41
1
10
62.7656854249477
20
-12.9843145750518
30
0
41
1
10
62.4905538033055
20
-12.9843145750523
30
0
41
1
10
62.2154221816642
20
-12.984314575052
30
0
41
1
10
61.9402905600229
20
-12.9843145750517
30
0
0
SPLINE
5
123
100
AcDbEntity
8
1
62
256
6
ByLayer
370
18
48
1
60
0
100
AcDbSpline
70
4
71
3
72
8
73
4
40
0
40
0
40
0
40
0
40
1
40
1
40
1
40
1
41
1
10
60.149390334559
20
-15.600609665441
30
0
41
1
10
61.0214886980466
20
-14.7285113019534
30
0
41
1
10
61.8935870614876
20
-13.8564129385125
30
0
41
1
10
62.7656854249519
20
-12.984314575048
30
0
0
SPLINE
5
124
100
AcDbEntity
8
1
62
256
6
ByLayer
370
18
48
1
60
0
100
AcDbSpline
70
4
71
3
72
8
73
4
40
0
40
0
40
0
40
0
40
1
40
1
40
1
40
1
41
1
10
57.533095244171
20
-17.3915098909034
30
0
41
1
10
57.5330952441716
20
-17.6666415125445
30
0
41
1
10
57.5330952441723
20
-17.9417731341855
30
0
41
1
10
57.5330952441721
20
-18.2169047558274
30
0
0
SPLINE
5
125
100
AcDbEntity
8
1
62
256
6
ByLayer
370
18
48
1
60
0
100
AcDbSpline
70
4
71
1
72
4
73
2
40
0
40
0
40
1
40
1
41
1
10
53.7854293038801
20
-15.6006096654409
30
0
41
1
10
54.1981267363426
20
-15.1879122329784
30
0
0
SPLINE
5
126
100
AcDbEntity
8
1
62
256
6
ByLayer
370
18
48
1
60
0
100
AcDbSpline
70
4
71
3
72
17
73
13
40
0
40
0
40
0
40
0
40
0.0625
40
0.125
40
0.25
40
0.375
40
0.5
40
0.625
40
0.75
40
0.875
40
0.9375
40
1
40
1
40
1
40
1
41
1
10
57.5330952441702
20
-17.3915098909047
30
0
41
1
10
57.5145838282193
20
-17.4100213068556
30
0
41
1
10
57.4757338015464
20
-17.4452165043245
30
0
41
1
10
57.3915054602439
20
-17.5076474555965
30
0
41
1
10
57.2755074355754
20
-17.5696408599261
30
0
41
1
10
57.1244818150698
20
-17.6154938477698
30
0
41
1
10
56.9674095742763
20
-17.6309897248621
30
0
41
1
10
56.8103367672086
20
-17.6154941531904
30
0
41
1
10
56.6593126285198
20
-17.569639445823
30
0
41
1
10
56.5433139488065
20
-17.5076474296737
30
0
41
1
10
56.4590862635241
20
-17.4452157853741
30
0
41
1
10
56.4202358102197
20
-17.4100213068555
30
0
41
1
10
56.4017243942689
20
-17.3915098909048
30
0
0
SPLINE
5
127
100
AcDbEntity
8
1
62
256
6
ByLayer
370
18
48
1
60
0
100
AcDbSpline
70
4
71
3
72
8
73
4
40
0
40
0
40
0
40
0
40
1
40
1
40
1
40
1
41
1
10
61.9402905600236
20
-12.9843145750514
30
0
41
1
10
61.2057580073841
20
-13.7188471276909
30
0
41
1
10
60.4712254547498
20
-14.4533796803252
30
0
41
1
10
59.7366929020965
20
-15.1879122329785
30
0
0
SPLINE
5
128
100
AcDbEntity
8
1
62
256
6
ByLayer
370
18
48
1
60
0
100
AcDbSpline
70
4
71
1
72
4
73
2
40
0
40
0
40
1
40
1
41
1
10
60.149390334559
20
-15.600609665441
30
0
41
1
10
59.7366929020965
20
-15.1879122329785
30
0
0
SPLINE
5
129
100
AcDbEntity
8
1
62
256
6
ByLayer
370
18
48
1
60
0
100
AcDbSpline
70
4
71
3
72
17
73
13
40
0
40
0
40
0
40
0
40
0.0625
40
0.125
40
0.25
40
0.375
40
0.5
40
0.625
40
0.75
40
0.875
40
0.9375
40
1
40
1
40
1
40
1
41
1
10
56.4017243942703
20
-18.2169047964916
30
0
41
1
10
56.4202364064708
20
-18.2354168086921
30
0
41
1
10
56.4590795375651
20
-18.2706214842183
30
0
41
1
10
56.5432907948632
20
-18.33308129672
30
0
41
1
10
56.6592893884117
20
-18.3950872756313
30
0
41
1
10
56.8103312509512
20
-18.4409053617953
30
0
41
1
10
56.9674096221003
20
-18.4563763341995
30
0
41
1
10
57.1244877314793
20
-18.4409052721319
30
0
41
1
10
57.2755305024925
20
-18.3950882394724
30
0
41
1
10
57.3915287326839
20
-18.3330813480353
30
0
41
1
10
57.4757403625293
20
-18.2706219307717
30
0
41
1
10
57.5145832319682
20
-18.2354168086921
30
0
41
1
10
57.5330952441687
20
-18.2169047964915
30
0
0
SPLINE
5
12A
100
AcDbEntity
8
1
62
256
6
ByLayer
370
18
48
1
60
0
100
AcDbSpline
70
4
71
3
72
8
73
4
40
0
40
0
40
0
40
0
40
1
40
1
40
1
40
1
41
1
10
59.7366929020965
20
-15.1879122329785
30
0
41
1
10
59.0021603494437
20
-15.9224447856313
30
0
41
1
10
58.2676277968098
20
-16.6569773382652
30
0
41
1
10
57.5330952441707
20
-17.3915098909042
30
0
0
SPLINE
5
12B
100
AcDbEntity
8
1
62
256
6
ByLayer
370
18
48
1
60
0
100
AcDbSpline
70
4
71
3
72
8
73
4
40
0
40
0
40
0
40
0
40
1
40
1
40
1
40
1
41
1
10
56.3896855142602
20
13.4214281212182
30
0
41
1
10
56.3913069353645
20
13.414961849635
30
0
41
1
10
56.3929286131904
20
13.4084945542393
30
0
41
1
10
56.3945505608087
20
13.4020261829038
30
0
0
SPLINE
5
12C
100
AcDbEntity
8
1
62
256
6
ByLayer
370
18
48
1
60
0
100
AcDbSpline
70
4
71
3
72
8
73
4
40
0
40
0
40
0
40
0
40
1
40
1
40
1
40
1
41
1
10
58.1247213555753
20
12.4175535890214
30
0
41
1
10
58.1183106895644
20
12.4193825329464
30
0
41
1
10
58.111899008545
20
12.4212117664503
30
0
41
1
10
58.1054862608381
20
12.4230413042769
30
0
0
SPLINE
5
12D
100
AcDbEntity
8
1
62
256
6
ByLayer
370
18
48
1
60
0
100
AcDbSpline
70
4
71
3
72
8
73
4
40
0
40
0
40
0
40
0
40
1
40
1
40
1
40
1
41
1
10
57.545134124179
20
11.4158301789845
30
0
41
1
10
57.5435127030746
20
11.4222964505676
30
0
41
1
10
57.5418910252487
20
11.4287637459633
30
0
41
1
10
57.5402690776303
20
11.4352321172989
30
0
0
SPLINE
5
12E
100
AcDbEntity
8
1
62
256
6
ByLayer
370
18
48
1
60
0
100
AcDbSpline
70
4
71
3
72
16
73
12
40
0
40
0
40
0
40
0
40
0.125
40
0.125
40
0.25
40
0.25
40
0.5
40
0.5
40
0.75
40
0.75
40
1
40
1
40
1
40
1
41
1
10
57.9702087903364
20
11.840904845142
30
0
41
1
10
57.9824105077765
20
11.832851601001
30
0
41
1
10
57.9966911321029
20
11.8284505242903
30
0
41
1
10
58.0264790781966
20
11.8286511827002
30
0
41
1
10
58.0417575514948
20
11.8331721464588
30
0
41
1
10
58.084089810708
20
11.8548042273774
30
0
41
1
10
58.1079367272846
20
11.8787568764289
30
0
41
1
10
58.1481601888909
20
11.9312307493272
30
0
41
1
10
58.1648160311971
20
11.9604220672207
30
0
41
1
10
58.1926682202591
20
12.0210808583233
30
0
41
1
10
58.2038810200901
20
12.0526957483343
30
0
41
1
10
58.2125365055975
20
12.084998460012
30
0
0
SPLINE
5
12F
100
AcDbEntity
8
1
62
256
6
ByLayer
370
18
48
1
60
0
100
AcDbSpline
70
4
71
3
72
8
73
4
40
0
40
0
40
0
40
0
40
1
40
1
40
1
40
1
41
1
10
57.546997050616
20
13.4203525601382
30
0
41
1
10
57.5422078057093
20
13.4157152324801
30
0
41
1
10
57.5374178025158
20
13.4110771705883
30
0
41
1
10
57.5326270024273
20
13.4064383370794
30
0
0
SPLINE
5
130
100
AcDbEntity
8
1
62
256
6
ByLayer
370
18
48
1
60
0
100
AcDbSpline
70
4
71
3
72
8
73
4
40
0
40
0
40
0
40
0
40
1
40
1
40
1
40
1
41
1
10
57.9552190061976
20
12.9838463333091
30
0
41
1
10
57.9598578397065
20
12.9886371333976
30
0
41
1
10
57.9644959015983
20
12.9934271365911
30
0
41
1
10
57.9691332292565
20
12.9982163814977
30
0
0
SPLINE
5
131
100
AcDbEntity
8
1
62
256
6
ByLayer
370
18
48
1
60
0
100
AcDbSpline
70
4
71
3
72
8
73
4
40
0
40
0
40
0
40
0
40
1
40
1
40
1
40
1
41
1
10
57.950806852022
20
11.8457698916905
30
0
41
1
10
57.9572752233576
20
11.8441479440722
30
0
41
1
10
57.9637425187532
20
11.8425262662463
30
0
41
1
10
57.9702087903364
20
11.840904845142
30
0
0
SPLINE
5
132
100
AcDbEntity
8
1
62
256
6
ByLayer
370
18
48
1
60
0
100
AcDbSpline
70
4
71
3
72
16
73
12
40
0
40
0
40
0
40
0
40
0.125
40
0.125
40
0.25
40
0.25
40
0.5
40
0.5
40
0.75
40
0.75
40
1
40
1
40
1
40
1
41
1
10
56.9684853802995
20
11.2613176137456
30
0
41
1
10
56.9676119250106
20
11.2467239944021
30
0
41
1
10
56.9709407929383
20
11.2321560725982
30
0
41
1
10
56.9860085412656
20
11.2064592837595
30
0
41
1
10
56.9975630473792
20
11.1954882196315
30
0
41
1
10
57.037463108598
20
11.1696434482126
30
0
41
1
10
57.0701301694529
20
11.1609677371811
30
0
41
1
10
57.1356856072209
20
11.152370134051
30
0
41
1
10
57.1692939512397
20
11.1525414104392
30
0
41
1
10
57.2357520998285
20
11.1587501027118
30
0
41
1
10
57.2687377976314
20
11.164846978216
30
0
41
1
10
57.301040509309
20
11.1735024637234
30
0
0
SPLINE
5
133
100
AcDbEntity
8
1
62
256
6
ByLayer
370
18
48
1
60
0
100
AcDbSpline
70
4
71
3
72
18
73
14
40
0
40
0
40
0
40
0
40
0.25
40
0.25
40
0.5
40
0.5
40
0.625
40
0.625
40
0.75
40
0.75
40
0.875
40
0.875
40
1
40
1
40
1
40
1
41
1
10
57.301040509309
20
11.1735024637234
30
0
41
1
10
57.3333278813122
20
11.1821538389774
30
0
41
1
10
57.3649056962623
20
11.1933501741311
30
0
41
1
10
57.4255751859511
20
11.2212002971786
30
0
41
1
10
57.4546942990933
20
11.2378008279009
30
0
41
1
10
57.4941274888617
20
11.2680140072275
30
0
41
1
10
57.5064687160597
20
11.2789291164183
30
0
41
1
10
57.5284856832553
20
11.3027626504679
30
0
41
1
10
57.5383593814646
20
11.3159370811883
30
0
41
1
10
57.5527928714684
20
11.3440916335018
30
0
41
1
10
57.5573612596622
20
11.3592941050603
30
0
41
1
10
57.5576130411662
20
11.3893580773099
30
0
41
1
10
57.5531910897355
20
11.4036228231132
30
0
41
1
10
57.545134124179
20
11.4158301789845
30
0
0
SPLINE
5
134
100
AcDbEntity
8
1
62
256
6
ByLayer
370
18
48
1
60
0
100
AcDbSpline
70
4
71
3
72
8
73
4
40
0
40
0
40
0
40
0
40
1
40
1
40
1
40
1
41
1
10
56.9718219733952
20
13.5567055917199
30
0
41
1
10
56.9699924355685
20
13.5631183394267
30
0
41
1
10
56.9681632020647
20
13.5695300204461
30
0
41
1
10
56.9663342581397
20
13.5759406864571
30
0
0
SPLINE
5
135
100
AcDbEntity
8
1
62
256
6
ByLayer
370
18
48
1
60
0
100
AcDbSpline
70
4
71
3
72
8
73
4
40
0
40
0
40
0
40
0
40
1
40
1
40
1
40
1
41
1
10
55.8100982828638
20
12.4197047111812
30
0
41
1
10
55.8165089488747
20
12.4178757672562
30
0
41
1
10
55.8229206298942
20
12.4160465337523
30
0
41
1
10
55.829333377601
20
12.4142169959257
30
0
0
SPLINE
5
136
100
AcDbEntity
8
1
62
256
6
ByLayer
370
18
48
1
60
0
100
AcDbSpline
70
4
71
3
72
18
73
14
40
0
40
0
40
0
40
0
40
0.25
40
0.25
40
0.5
40
0.5
40
0.625
40
0.625
40
0.75
40
0.75
40
0.875
40
0.875
40
1
40
1
40
1
40
1
41
1
10
58.2125365055975
20
12.084998460012
30
0
41
1
10
58.2211878808515
20
12.1172858320152
30
0
41
1
10
58.2272804776541
20
12.1502311895348
30
0
41
1
10
58.2334963084409
20
12.2166975703637
30
0
41
1
10
58.2336793836901
20
12.2502157274416
30
0
41
1
10
58.2272305977484
20
12.2994724611966
30
0
41
1
10
58.223948449503
20
12.3156178320594
30
0
41
1
10
58.2143164871521
20
12.3466018519899
30
0
41
1
10
58.2078439445724
20
12.3617399408286
30
0
41
1
10
58.1906781320387
20
12.388316985994
30
0
41
1
10
58.1797965995656
20
12.3998745620034
30
0
41
1
10
58.1538863266107
20
12.4151245973069
30
0
41
1
10
58.1393217186512
20
12.4184274479353
30
0
41
1
10
58.1247213555753
20
12.4175535890214
30
0
0
SPLINE
5
137
100
AcDbEntity
8
1
62
256
6
ByLayer
370
18
48
1
60
0
100
AcDbSpline
70
4
71
3
72
18
73
14
40
0
40
0
40
0
40
0
40
0.125
40
0.125
40
0.249999999999999
40
0.249999999999999
40
0.5
40
0.5
40
0.75
40
0.75
40
0.875
40
0.875
40
1
40
1
40
1
40
1
41
1
10
58.1054862608381
20
12.4230413042769
30
0
41
1
10
58.0818657928663
20
12.4297801534588
30
0
41
1
10
58.0609165040503
20
12.4445380394426
30
0
41
1
10
58.0234970689339
20
12.4803469216148
30
0
41
1
10
58.0071285186952
20
12.5015504464576
30
0
41
1
10
57.9638031859569
20
12.5699601353784
30
0
41
1
10
57.942389035172
20
12.622029403222
30
0
41
1
10
57.9134723088075
20
12.7299367833875
30
0
41
1
10
57.9059832886388
20
12.7857508583424
30
0
41
1
10
57.9092869974415
20
12.8666058437427
30
0
41
1
10
57.9128446025059
20
12.893128031788
30
0
41
1
10
57.9273641461809
20
12.9429471126579
30
0
41
1
10
57.9381415668671
20
12.9662094429789
30
0
41
1
10
57.9552190061976
20
12.9838463333091
30
0
0
SPLINE
5
138
100
AcDbEntity
8
1
62
256
6
ByLayer
370
18
48
1
60
0
100
AcDbSpline
70
4
71
3
72
16
73
12
40
0
40
0
40
0
40
0
40
0.125
40
0.125
40
0.25
40
0.25
40
0.5
40
0.5
40
0.75
40
0.75
40
1
40
1
40
1
40
1
41
1
10
57.9691332292565
20
12.9982163814977
30
0
41
1
10
57.9822084019855
20
13.0047567567002
30
0
41
1
10
57.9931601583842
20
13.0149236017934
30
0
41
1
10
58.0078803561506
20
13.040821049042
30
0
41
1
10
58.0116043233352
20
13.0563130769286
30
0
41
1
10
58.0140365213294
20
13.1037899292661
30
0
41
1
10
58.0052163770512
20
13.1364182893491
30
0
41
1
10
57.9798844008895
20
13.1974897653775
30
0
41
1
10
57.9629318991769
20
13.2265098068828
30
0
41
1
10
57.9243259396502
20
13.2809599057128
30
0
41
1
10
57.9025530416784
20
13.3064779202196
30
0
41
1
10
57.8789058155081
20
13.3301251463898
30
0
0
SPLINE
5
139
100
AcDbEntity
8
1
62
256
6
ByLayer
370
18
48
1
60
0
100
AcDbSpline
70
4
71
3
72
18
73
14
40
0
40
0
40
0
40
0
40
0.25
40
0.25
40
0.5
40
0.5
40
0.625
40
0.625
40
0.75
40
0.75
40
0.875
40
0.875
40
1
40
1
40
1
40
1
41
1
10
57.8789058155081
20
13.3301251463898
30
0
41
1
10
57.8552698187588
20
13.3537611431391
30
0
41
1
10
57.8297846006113
20
13.375510165505
30
0
41
1
10
57.7753309417093
20
13.4141264232864
30
0
41
1
10
57.7463949038165
20
13.431044049642
30
0
41
1
10
57.7005129281063
20
13.4500876040705
30
0
41
1
10
57.684889552663
20
13.4553178657424
30
0
41
1
10
57.6532406231163
20
13.4624683516233
30
0
41
1
10
57.6368943823273
20
13.4644320097416
30
0
41
1
10
57.6052950797898
20
13.4628545025935
30
0
41
1
10
57.5898451591229
20
13.4592096070444
30
0
41
1
10
57.5636831046641
20
13.4443956700983
30
0
41
1
10
57.5535404481352
20
13.4334337749233
30
0
41
1
10
57.546997050616
20
13.4203525601382
30
0
0
SPLINE
5
13A
100
AcDbEntity
8
1
62
256
6
ByLayer
370
18
48
1
60
0
100
AcDbSpline
70
4
71
3
72
16
73
12
40
0
40
0
40
0
40
0
40
0.125
40
0.125
40
0.25
40
0.25
40
0.5
40
0.5
40
0.75
40
0.75
40
1
40
1
40
1
40
1
41
1
10
55.9646108481027
20
12.9963534550607
30
0
41
1
10
55.9524091306626
20
13.0044066992016
30
0
41
1
10
55.9381285063362
20
13.0088077759124
30
0
41
1
10
55.9083405602426
20
13.0086071175025
30
0
41
1
10
55.8930620869444
20
13.0040861537439
30
0
41
1
10
55.8507298277312
20
12.9824540728253
30
0
41
1
10
55.8268829111546
20
12.9585014237738
30
0
41
1
10
55.7866594495483
20
12.9060275508754
30
0
41
1
10
55.7700036072421
20
12.876836232982
30
0
41
1
10
55.7421514181801
20
12.8161774418794
30
0
41
1
10
55.730938618349
20
12.7845625518684
30
0
41
1
10
55.7222831328417
20
12.7522598401907
30
0
0
SPLINE
5
13B
100
AcDbEntity
8
1
62
256
6
ByLayer
370
18
48
1
60
0
100
AcDbSpline
70
4
71
3
72
18
73
14
40
0
40
0
40
0
40
0
40
0.25
40
0.25
40
0.5
40
0.5
40
0.625
40
0.625
40
0.75
40
0.75
40
0.875
40
0.875
40
1
40
1
40
1
40
1
41
1
10
55.7222831328417
20
12.7522598401907
30
0
41
1
10
55.7136317575877
20
12.7199724681875
30
0
41
1
10
55.7075391607851
20
12.6870271106678
30
0
41
1
10
55.7013233299982
20
12.6205607298389
30
0
41
1
10
55.701140254749
20
12.587042572761
30
0
41
1
10
55.7075890406907
20
12.537785839006
30
0
41
1
10
55.710871188936
20
12.5216404681433
30
0
41
1
10
55.7205031512871
20
12.4906564482128
30
0
41
1
10
55.7269756938667
20
12.475518359374
30
0
41
1
10
55.7441415064005
20
12.4489413142087
30
0
41
1
10
55.7550230388736
20
12.4373837381993
30
0
41
1
10
55.7809333118284
20
12.4221337028958
30
0
41
1
10
55.795497919788
20
12.4188308522674
30
0
41
1
10
55.8100982828638
20
12.4197047111812
30
0
0
SPLINE
5
13C
100
AcDbEntity
8
1
62
256
6
ByLayer
370
18
48
1
60
0
100
AcDbSpline
70
4
71
3
72
8
73
4
40
0
40
0
40
0
40
0
40
1
40
1
40
1
40
1
41
1
10
56.9629976650439
20
11.2805527084828
30
0
41
1
10
56.9648272028706
20
11.2741399607759
30
0
41
1
10
56.9666564363745
20
11.2677282797565
30
0
41
1
10
56.9684853802995
20
11.2613176137456
30
0
0
SPLINE
5
13D
100
AcDbEntity
8
1
62
256
6
ByLayer
370
18
48
1
60
0
100
AcDbSpline
70
4
71
3
72
8
73
4
40
0
40
0
40
0
40
0
40
1
40
1
40
1
40
1
41
1
10
55.9840127864171
20
12.9914884085121
30
0
41
1
10
55.9775444150816
20
12.9931103561305
30
0
41
1
10
55.9710771196859
20
12.9947320339563
30
0
41
1
10
55.9646108481027
20
12.9963534550607
30
0
0
SPLINE
5
13E
100
AcDbEntity
8
1
62
256
6
ByLayer
370
18
48
1
60
0
100
AcDbSpline
70
4
71
3
72
18
73
14
40
0
40
0
40
0
40
0
40
0.125
40
0.125
40
0.250000000000001
40
0.250000000000001
40
0.500000000000001
40
0.500000000000001
40
0.75
40
0.75
40
0.875
40
0.875
40
1
40
1
40
1
40
1
41
1
10
57.5326270024273
20
13.4064383370794
30
0
41
1
10
57.5149807538577
20
13.3893518363574
30
0
41
1
10
57.4917254052816
20
13.3785881630435
30
0
41
1
10
57.4420042860811
20
13.3640864227235
30
0
41
1
10
57.4154572197981
20
13.3605126048151
30
0
41
1
10
57.3345500249586
20
13.3571966104967
30
0
41
1
10
57.2787496408571
20
13.3646860458383
30
0
41
1
10
57.1708407451957
20
13.3935971162951
30
0
41
1
10
57.1187598283117
20
13.4150184720571
30
0
41
1
10
57.0503892113337
20
13.458307060507
30
0
41
1
10
57.0291991252548
20
13.474649130892
30
0
41
1
10
56.9933143074657
20
13.5121329650009
30
0
41
1
10
56.9785572487996
20
13.533097650263
30
0
41
1
10
56.9718219733952
20
13.5567055917199
30
0
0
SPLINE
5
13F
100
AcDbEntity
8
1
62
256
6
ByLayer
370
18
48
1
60
0
100
AcDbSpline
70
4
71
3
72
16
73
12
40
0
40
0
40
0
40
0
40
0.125
40
0.125
40
0.25
40
0.25
40
0.5
40
0.5
40
0.75
40
0.75
40
1
40
1
40
1
40
1
41
1
10
56.9663342581397
20
13.5759406864571
30
0
41
1
10
56.9672077134285
20
13.5905343058005
30
0
41
1
10
56.9638788455009
20
13.6051022276044
30
0
41
1
10
56.9488110971736
20
13.6307990164431
30
0
41
1
10
56.93725659106
20
13.6417700805712
30
0
41
1
10
56.8973565298411
20
13.66761485199
30
0
41
1
10
56.8646894689863
20
13.6762905630215
30
0
41
1
10
56.7991340312182
20
13.6848881661516
30
0
41
1
10
56.7655256871994
20
13.6847168897634
30
0
41
1
10
56.6990675386107
20
13.6785081974908
30
0
41
1
10
56.6660818408078
20
13.6724113219866
30
0
41
1
10
56.6337791291302
20
13.6637558364793
30
0
0
SPLINE
5
140
100
AcDbEntity
8
1
62
256
6
ByLayer
370
18
48
1
60
0
100
AcDbSpline
70
4
71
3
72
18
73
14
40
0
40
0
40
0
40
0
40
0.25
40
0.25
40
0.5
40
0.5
40
0.625
40
0.625
40
0.75
40
0.75
40
0.875
40
0.875
40
1
40
1
40
1
40
1
41
1
10
56.6337791291302
20
13.6637558364793
30
0
41
1
10
56.6014917571269
20
13.6551044612252
30
0
41
1
10
56.5699139421769
20
13.6439081260715
30
0
41
1
10
56.509244452488
20
13.616058003024
30
0
41
1
10
56.4801253393459
20
13.5994574723017
30
0
41
1
10
56.4406921495774
20
13.5692442929752
30
0
41
1
10
56.4283509223795
20
13.5583291837843
30
0
41
1
10
56.4063339551838
20
13.5344956497348
30
0
41
1
10
56.3964602569745
20
13.5213212190143
30
0
41
1
10
56.3820267669707
20
13.4931666667009
30
0
41
1
10
56.3774583787769
20
13.4779641951423
30
0
41
1
10
56.3772065972729
20
13.4479002228927
30
0
41
1
10
56.3816285487036
20
13.4336354770894
30
0
41
1
10
56.3896855142602
20
13.4214281212182
30
0
0
SPLINE
5
141
100
AcDbEntity
8
1
62
256
6
ByLayer
370
18
48
1
60
0
100
AcDbSpline
70
4
71
3
72
18
73
14
40
0
40
0
40
0
40
0
40
0.125000000000001
40
0.125000000000001
40
0.250000000000001
40
0.250000000000001
40
0.5
40
0.5
40
0.75
40
0.75
40
0.875
40
0.875
40
1
40
1
40
1
40
1
41
1
10
57.5402690776303
20
11.4352321172989
30
0
41
1
10
57.5342948582282
20
11.4590574672026
30
0
41
1
10
57.5366009179883
20
11.4845790265005
30
0
41
1
10
57.5489026020723
20
11.5348896489926
30
0
41
1
10
57.5590811181166
20
11.5596669917439
30
0
41
1
10
57.596662980218
20
11.631392674983
30
0
41
1
10
57.6310492135345
20
11.675972507485
30
0
41
1
10
57.7100413828314
20
11.7549688171937
30
0
41
1
10
57.7546332795467
20
11.7893615363867
30
0
41
1
10
57.8263076053273
20
11.8269279333371
30
0
41
1
10
57.8510552964707
20
11.8371080509973
30
0
41
1
10
57.9014596579348
20
11.8494432977583
30
0
41
1
10
57.9269941372871
20
11.8517409428173
30
0
41
1
10
57.950806852022
20
11.8457698916905
30
0
0
SPLINE
5
142
100
AcDbEntity
8
1
62
256
6
ByLayer
370
18
48
1
60
0
100
AcDbSpline
70
4
71
3
72
18
73
14
40
0
40
0
40
0
40
0
40
0.125000000000001
40
0.125000000000001
40
0.250000000000001
40
0.250000000000001
40
0.500000000000001
40
0.500000000000001
40
0.75
40
0.75
40
0.875
40
0.875
40
1
40
1
40
1
40
1
41
1
10
56.3945505608087
20
13.4020261829038
30
0
41
1
10
56.400524780211
20
13.378200833
30
0
41
1
10
56.3982187204508
20
13.3526792737022
30
0
41
1
10
56.3859170363668
20
13.30236865121
30
0
41
1
10
56.3757385203224
20
13.2775913084588
30
0
41
1
10
56.3381566582212
20
13.2058656252196
30
0
41
1
10
56.3037704249047
20
13.1612857927176
30
0
41
1
10
56.2247782556078
20
13.0822894830089
30
0
41
1
10
56.1801863588924
20
13.047896763816
30
0
41
1
10
56.1085120331118
20
13.0103303668656
30
0
41
1
10
56.0837643419685
20
13.0001502492053
30
0
41
1
10
56.0333599805044
20
12.9878150024443
30
0
41
1
10
56.0078255011521
20
12.9855173573854
30
0
41
1
10
55.9840127864171
20
12.9914884085121
30
0
0
SPLINE
5
143
100
AcDbEntity
8
1
62
256
6
ByLayer
370
18
48
1
60
0
100
AcDbSpline
70
4
71
3
72
16
73
12
40
0
40
0
40
0
40
0
40
0.124999999999999
40
0.124999999999999
40
0.249999999999998
40
0.249999999999998
40
0.499999999999998
40
0.499999999999998
40
0.749999999999999
40
0.749999999999999
40
1
40
1
40
1
40
1
41
1
10
56.3878225878232
20
11.4169057400644
30
0
41
1
10
56.3812822126207
20
11.4038305673354
30
0
41
1
10
56.3711153675275
20
11.3928788109367
30
0
41
1
10
56.3452179202789
20
11.3781586131703
30
0
41
1
10
56.3297258923923
20
11.3744346459857
30
0
41
1
10
56.2822490400549
20
11.3720024479914
30
0
41
1
10
56.2496206799718
20
11.3808225922697
30
0
41
1
10
56.1885492039434
20
11.4061545684314
30
0
41
1
10
56.1595291624382
20
11.423107070144
30
0
41
1
10
56.1050790636081
20
11.4617130296707
30
0
41
1
10
56.0795610491014
20
11.4834859276425
30
0
41
1
10
56.0559138229311
20
11.5071331538128
30
0
0
SPLINE
5
144
100
AcDbEntity
8
1
62
256
6
ByLayer
370
18
48
1
60
0
100
AcDbSpline
70
4
71
3
72
8
73
4
40
0
40
0
40
0
40
0
40
1
40
1
40
1
40
1
41
1
10
55.9656864091826
20
11.8390419187049
30
0
41
1
10
55.9703237368408
20
11.8438311636116
30
0
41
1
10
55.9749617987326
20
11.8486211668051
30
0
41
1
10
55.9796006322415
20
11.8534119668936
30
0
0
SPLINE
5
145
100
AcDbEntity
8
1
62
256
6
ByLayer
370
18
48
1
60
0
100
AcDbSpline
70
4
71
3
72
16
73
12
40
0
40
0
40
0
40
0
40
0.25
40
0.25
40
0.5
40
0.5
40
0.749999999999999
40
0.749999999999999
40
0.875
40
0.875
40
1
40
1
40
1
40
1
41
1
10
56.0559138229311
20
11.5071331538128
30
0
41
1
10
56.0322694540953
20
11.5307775226486
30
0
41
1
10
56.0105133855959
20
11.556272356836
30
0
41
1
10
55.9718869314073
20
11.6107479048205
30
0
41
1
10
55.9549662408291
20
11.6396957288629
30
0
41
1
10
55.9295782425856
20
11.7008983896237
30
0
41
1
10
55.9207748629749
20
11.733193361539
30
0
41
1
10
55.9232175624809
20
11.781045970557
30
0
41
1
10
55.9269683944302
20
11.7964821559282
30
0
41
1
10
55.9416141696132
20
11.8222612887718
30
0
41
1
10
55.9526160267572
20
11.832503939676
30
0
41
1
10
55.9656864091826
20
11.8390419187049
30
0
0
SPLINE
5
146
100
AcDbEntity
8
1
62
256
6
ByLayer
370
18
48
1
60
0
100
AcDbSpline
70
4
71
3
72
18
73
14
40
0
40
0
40
0
40
0
40
0.125
40
0.125
40
0.25
40
0.25
40
0.499999999999999
40
0.499999999999999
40
0.749999999999999
40
0.749999999999999
40
0.874999999999999
40
0.874999999999999
40
1
40
1
40
1
40
1
41
1
10
56.9629976650439
20
11.2805527084828
30
0
41
1
10
56.9562197367196
20
11.3043101534978
30
0
41
1
10
56.9412410433612
20
11.3254364110607
30
0
41
1
10
56.9055661428724
20
11.3626306362679
30
0
41
1
10
56.8842487491722
20
11.3790723744339
30
0
41
1
10
56.8162152699101
20
11.4221291592259
30
0
41
1
10
56.7644110885043
20
11.4435080062377
30
0
41
1
10
56.6564095033143
20
11.4725184109092
30
0
41
1
10
56.6005293066223
20
11.4800430169628
30
0
41
1
10
56.5195781364895
20
11.4767691010939
30
0
41
1
10
56.49302465492
20
11.473218035917
30
0
41
1
10
56.4431418024171
20
11.4586988218771
30
0
41
1
10
56.4198488378317
20
11.4479161013734
30
0
41
1
10
56.4021926360118
20
11.4308199631232
30
0
0
SPLINE
5
147
100
AcDbEntity
8
1
62
256
6
ByLayer
370
18
48
1
60
0
100
AcDbSpline
70
4
71
3
72
8
73
4
40
0
40
0
40
0
40
0
40
1
40
1
40
1
40
1
41
1
10
56.4021926360118
20
11.4308199631232
30
0
41
1
10
56.3974018359233
20
11.4261811296144
30
0
41
1
10
56.3926118327298
20
11.4215430677225
30
0
41
1
10
56.3878225878232
20
11.4169057400644
30
0
0
SPLINE
5
148
100
AcDbEntity
8
1
62
256
6
ByLayer
370
18
48
1
60
0
100
AcDbSpline
70
4
71
3
72
20
73
16
40
0
40
0
40
0
40
0
40
0.125
40
0.125
40
0.25
40
0.25
40
0.5
40
0.5
40
0.625
40
0.625
40
0.75
40
0.75
40
0.875
40
0.875
40
1
40
1
40
1
40
1
41
1
10
55.9796006322415
20
11.8534119668936
30
0
41
1
10
55.9967048602616
20
11.8710765235015
30
0
41
1
10
56.007473553202
20
11.8943609794796
30
0
41
1
10
56.0219749124912
20
11.9441420382395
30
0
41
1
10
56.0255486232666
20
11.970745981322
30
0
41
1
10
56.028827763812
20
12.0518957358747
30
0
41
1
10
56.0212717526788
20
12.1077886545727
30
0
41
1
10
55.9994897178906
20
12.1887927955192
30
0
41
1
10
55.990549035348
20
12.2149087239966
30
0
41
1
10
55.9692100232412
20
12.2653445454826
30
0
41
1
10
55.9566724560212
20
12.289917961172
30
0
41
1
10
55.9278548447786
20
12.3354781126654
30
0
41
1
10
55.9116194098512
20
12.3565718737252
30
0
41
1
10
55.8741458826697
20
12.3925426087073
30
0
41
1
10
55.8530455069432
20
12.4074519960279
30
0
41
1
10
55.829333377601
20
12.4142169959257
30
0
0
SPLINE
5
149
100
AcDbEntity
8
1
62
256
6
ByLayer
370
18
48
1
60
0
100
AcDbSpline
70
4
71
3
72
17
73
13
40
0
40
0
40
0
40
0
40
0.0625
40
0.125
40
0.25
40
0.375
40
0.5
40
0.625
40
0.75
40
0.875
40
0.9375
40
1
40
1
40
1
40
1
41
1
10
51.1691341728294
20
11.8529437251521
30
0
41
1
10
51.1506221606289
20
11.8714557373526
30
0
41
1
10
51.1154174851027
20
11.9102988684469
30
0
41
1
10
51.052957672601
20
11.994510125745
30
0
41
1
10
50.9909516936897
20
12.1105087192935
30
0
41
1
10
50.9451336075257
20
12.261550581833
30
0
41
1
10
50.9296626351215
20
12.4186289529821
30
0
41
1
10
50.9451336971891
20
12.5757070623611
30
0
41
1
10
50.9909507298487
20
12.7267498333743
30
0
41
1
10
51.0529576212858
20
12.8427480635657
30
0
41
1
10
51.1154170385494
20
12.9269596934112
30
0
41
1
10
51.150622160629
20
12.96580256285
30
0
41
1
10
51.1691341728296
20
12.9843145750506
30
0
0
SPLINE
5
14A
100
AcDbEntity
8
1
62
256
6
ByLayer
370
18
48
1
60
0
100
AcDbSpline
70
4
71
3
72
8
73
4
40
0
40
0
40
0
40
0
40
1
40
1
40
1
40
1
41
1
10
51.1691342134871
20
12.9843145750479
30
0
41
1
10
52.0412325769516
20
13.8564129385122
30
0
41
1
10
52.9133309403925
20
14.7285113019532
30
0
41
1
10
53.7854293038801
20
15.6006096654408
30
0
0
SPLINE
5
14B
100
AcDbEntity
8
1
62
256
6
ByLayer
370
18
48
1
60
0
100
AcDbSpline
70
4
71
3
72
8
73
4
40
0
40
0
40
0
40
0
40
1
40
1
40
1
40
1
41
1
10
57.5330952441688
20
18.216904755831
30
0
41
1
10
57.5888897725148
20
17.2215144545548
30
0
41
1
10
57.6446843008607
20
16.2261241532785
30
0
41
1
10
57.7004788292068
20
15.2307338520022
30
0
0
SPLINE
5
14C
100
AcDbEntity
8
1
62
256
6
ByLayer
370
18
48
1
60
0
100
AcDbSpline
70
4
71
3
72
10
73
6
40
0
40
0
40
0
40
0
40
0.375000000000406
40
0.750000000000812
40
1
40
1
40
1
40
1
41
1
10
58.9747908397044
20
14.4260101705702
30
0
41
1
10
58.839681461308
20
14.5611195489688
30
0
41
1
10
58.5468708766629
20
14.808742107703
30
0
41
1
10
58.1091180717775
20
15.0680606307864
30
0
41
1
10
57.8185395050563
20
15.1891339187708
30
0
41
1
10
57.7004788292082
20
15.2307338520017
30
0
0
SPLINE
5
14D
100
AcDbEntity
8
1
62
256
6
ByLayer
370
18
48
1
60
0
100
AcDbSpline
70
4
71
3
72
8
73
4
40
0
40
0
40
0
40
0
40
1
40
1
40
1
40
1
41
1
10
62.7656854249519
20
12.9843145750479
30
0
41
1
10
61.7702951236747
20
13.0401091033894
30
0
41
1
10
60.7749048223975
20
13.095903631731
30
0
41
1
10
59.7795145211203
20
13.1516981600726
30
0
0
SPLINE
5
14E
100
AcDbEntity
8
1
62
256
6
ByLayer
370
18
48
1
60
0
100
AcDbSpline
70
4
71
3
72
8
73
4
40
0
40
0
40
0
40
0
40
1
40
1
40
1
40
1
41
1
10
51.1691342134872
20
11.8529437251548
30
0
41
1
10
52.1645245147644
20
11.7971491968132
30
0
41
1
10
53.1599148160416
20
11.7413546684716
30
0
41
1
10
54.1553051173189
20
11.68556014013
30
0
0
SPLINE
5
14F
100
AcDbEntity
8
1
62
256
6
ByLayer
370
18
48
1
60
0
100
AcDbSpline
70
4
71
3
72
17
73
13
40
0
40
0
40
0
40
0
40
0.0625
40
0.125
40
0.25
40
0.375
40
0.5
40
0.625
40
0.75
40
0.875
40
0.9375
40
1
40
1
40
1
40
1
41
1
10
62.7656854656097
20
12.9843145750506
30
0
41
1
10
62.7841974778102
20
12.9658025628501
30
0
41
1
10
62.8194021533363
20
12.9269594317557
30
0
41
1
10
62.8818619658381
20
12.8427481744577
30
0
41
1
10
62.9438679447494
20
12.7267495809091
30
0
41
1
10
62.9896860309134
20
12.5757077183697
30
0
41
1
10
63.0051570033176
20
12.4186293472206
30
0
41
1
10
62.9896859412501
20
12.2615512378416
30
0
41
1
10
62.9438689085905
20
12.1105084668284
30
0
41
1
10
62.8818620171534
20
11.994510236637
30
0
41
1
10
62.8194025998898
20
11.9102986067915
30
0
41
1
10
62.7841974778102
20
11.8714557373526
30
0
41
1
10
62.7656854656096
20
11.8529437251521
30
0
0
SPLINE
5
150
100
AcDbEntity
8
1
62
256
6
ByLayer
370
18
48
1
60
0
100
AcDbSpline
70
4
71
3
72
8
73
4
40
0
40
0
40
0
40
0
40
1
40
1
40
1
40
1
41
1
10
57.5330952441661
20
18.2169047558337
30
0
41
1
10
58.4051936076305
20
17.3448063923693
30
0
41
1
10
59.2772919710715
20
16.4727080289284
30
0
41
1
10
60.149390334559
20
15.6006096654408
30
0
0
SPLINE
5
151
100
AcDbEntity
8
1
62
256
6
ByLayer
370
18
48
1
60
0
100
AcDbSpline
70
4
71
3
72
8
73
4
40
0
40
0
40
0
40
0
40
1
40
1
40
1
40
1
41
1
10
53.7854293038801
20
15.6006096654408
30
0
41
1
10
54.6575276673676
20
16.4727080289283
30
0
41
1
10
55.5296260308086
20
17.3448063923693
30
0
41
1
10
56.401724394273
20
18.2169047558337
30
0
0
SPLINE
5
152
100
AcDbEntity
8
1
62
256
6
ByLayer
370
18
48
1
60
0
100
AcDbSpline
70
4
71
3
72
8
73
4
40
0
40
0
40
0
40
0
40
1
40
1
40
1
40
1
41
1
10
51.1691342134899
20
12.9843145750506
30
0
41
1
10
52.1645245147661
20
13.0401091033965
30
0
41
1
10
53.1599148160424
20
13.0959036317425
30
0
41
1
10
54.1553051173187
20
13.1516981600885
30
0
0
SPLINE
5
153
100
AcDbEntity
8
1
62
256
6
ByLayer
370
18
48
1
60
0
100
AcDbSpline
70
4
71
3
72
8
73
4
40
0
40
0
40
0
40
0
40
1
40
1
40
1
40
1
41
1
10
58.9747908397044
20
14.4260101705702
30
0
41
1
10
59.366324004656
20
14.8175433355271
30
0
41
1
10
59.7578571696075
20
15.209076500484
30
0
41
1
10
60.149390334559
20
15.6006096654408
30
0
0
SPLINE
5
154
100
AcDbEntity
8
1
62
256
6
ByLayer
370
18
48
1
60
0
100
AcDbSpline
70
4
71
3
72
8
73
4
40
0
40
0
40
0
40
0
40
1
40
1
40
1
40
1
41
1
10
60.149390334559
20
15.6006096654408
30
0
41
1
10
61.0214886980466
20
14.7285113019532
30
0
41
1
10
61.8935870614876
20
13.8564129385123
30
0
41
1
10
62.7656854249519
20
12.9843145750479
30
0
0
SPLINE
5
155
100
AcDbEntity
8
1
62
256
6
ByLayer
370
18
48
1
60
0
100
AcDbSpline
70
4
71
3
72
10
73
6
40
0
40
0
40
0
40
0
40
0.375000000000406
40
0.750000000000812
40
1
40
1
40
1
40
1
41
1
10
54.9600287987507
20
14.4260101705862
30
0
41
1
10
54.8249194203521
20
14.2909007921897
30
0
41
1
10
54.5772968616179
20
13.9980902075446
30
0
41
1
10
54.3179783385345
20
13.5603374026593
30
0
41
1
10
54.1969050505501
20
13.269758835938
30
0
41
1
10
54.1553051173192
20
13.15169816009
30
0
0
SPLINE
5
156
100
AcDbEntity
8
1
62
256
6
ByLayer
370
18
48
1
60
0
100
AcDbSpline
70
4
71
3
72
10
73
6
40
0
40
0
40
0
40
0
40
0.375000000000406
40
0.750000000000812
40
1
40
1
40
1
40
1
41
1
10
58.9747908396885
20
10.4112481296165
30
0
41
1
10
59.109900218087
20
10.5463575080129
30
0
41
1
10
59.3575227768213
20
10.839168092658
30
0
41
1
10
59.6168412999046
20
11.2769208975433
30
0
41
1
10
59.7379145878891
20
11.5674994642646
30
0
41
1
10
59.77951452112
20
11.6855601401126
30
0
0
SPLINE
5
157
100
AcDbEntity
8
1
62
256
6
ByLayer
370
18
48
1
60
0
100
AcDbSpline
70
4
71
3
72
8
73
4
40
0
40
0
40
0
40
0
40
1
40
1
40
1
40
1
41
1
10
62.7656854249492
20
11.8529437251521
30
0
41
1
10
61.770295123673
20
11.7971491968061
30
0
41
1
10
60.7749048223967
20
11.7413546684601
30
0
41
1
10
59.7795145211205
20
11.6855601401142
30
0
0
SPLINE
5
158
100
AcDbEntity
8
1
62
256
6
ByLayer
370
18
48
1
60
0
100
AcDbSpline
70
4
71
3
72
10
73
6
40
0
40
0
40
0
40
0
40
0.249999999999984
40
0.624999999999992
40
1
40
1
40
1
40
1
41
1
10
56.2343408092482
20
15.2307338520021
30
0
41
1
10
56.1162801333988
20
15.189133918773
30
0
41
1
10
55.8257015666736
20
15.0680606307944
30
0
41
1
10
55.3879487617936
20
14.808742107703
30
0
41
1
10
55.0951381771401
20
14.5611195489764
30
0
41
1
10
54.9600287987427
20
14.4260101705782
30
0
0
SPLINE
5
159
100
AcDbEntity
8
1
62
256
6
ByLayer
370
18
48
1
60
0
100
AcDbSpline
70
4
71
3
72
29
73
25
40
0
40
0
40
0
40
0
40
0.125000000000946
40
0.171875000000894
40
0.218750000000842
40
0.242187500000817
40
0.265625000000791
40
0.277343750000778
40
0.289062500000765
40
0.312500000000739
40
0.359375000000687
40
0.406250000000635
40
0.500000000000532
40
0.593750000000428
40
0.640625000000376
40
0.687500000000324
40
0.710937500000298
40
0.722656250000285
40
0.734375000000272
40
0.757812500000247
40
0.781250000000221
40
0.828125000000169
40
0.875000000000117
40
1
40
1
40
1
40
1
41
1
10
54.1553051173192
20
13.15169816009
30
0
41
1
10
54.1345051507035
20
13.0926678221653
30
0
41
1
10
54.1082527966568
20
13.0108723031203
30
0
41
1
10
54.0790299968509
20
12.9059356136374
30
0
41
1
10
54.0646002889517
20
12.8495082420657
30
0
41
1
10
54.0538013789
20
12.8042500368897
30
0
41
1
10
54.0473562754513
20
12.7759254842839
30
0
41
1
10
54.0423740499072
20
12.7532540719526
30
0
41
1
10
54.0375818758529
20
12.7305018756086
30
0
41
1
10
54.0298182831011
20
12.6903755126189
30
0
41
1
10
54.020529633444
20
12.632283264076
30
0
41
1
10
54.0097643872466
20
12.5380490973899
30
0
41
1
10
54.0042943123043
20
12.4186291633764
30
0
41
1
10
54.0097644274595
20
12.2992092342531
30
0
41
1
10
54.0205296865691
20
12.2049750747455
30
0
41
1
10
54.0298183100955
20
12.1468828111786
30
0
41
1
10
54.037581879282
20
12.1067564280133
30
0
41
1
10
54.0423740493104
20
12.0840042276791
30
0
41
1
10
54.0473562756931
20
12.0613328161604
30
0
41
1
10
54.0538013791662
20
12.033008263582
30
0
41
1
10
54.0646002888231
20
11.9877500580272
30
0
41
1
10
54.0790299968538
20
11.931322686582
30
0
41
1
10
54.1082527966589
20
11.8263859970997
30
0
41
1
10
54.1345051507043
20
11.7445904780547
30
0
41
1
10
54.1553051173188
20
11.68556014013
30
0
0
SPLINE
5
15A
100
AcDbEntity
8
1
62
256
6
ByLayer
370
18
48
1
60
0
100
AcDbSpline
70
4
71
3
72
29
73
25
40
0
40
0
40
0
40
0
40
0.125000000000945
40
0.171875000000894
40
0.218750000000842
40
0.242187500000816
40
0.26562500000079
40
0.277343750000777
40
0.289062500000764
40
0.312500000000738
40
0.359375000000687
40
0.406250000000635
40
0.500000000000531
40
0.593750000000427
40
0.640625000000376
40
0.687500000000324
40
0.710937500000298
40
0.722656250000285
40
0.734375000000272
40
0.757812500000246
40
0.78125000000022
40
0.828125000000168
40
0.875000000000117
40
1
40
1
40
1
40
1
41
1
10
57.7004788292082
20
15.2307338520017
30
0
41
1
10
57.6414484912835
20
15.2515338186174
30
0
41
1
10
57.5596529722385
20
15.2777861726642
30
0
41
1
10
57.4547162827557
20
15.30700897247
30
0
41
1
10
57.3982889111839
20
15.3214386803692
30
0
41
1
10
57.353030706008
20
15.3322375904209
30
0
41
1
10
57.3247061534022
20
15.3386826938695
30
0
41
1
10
57.3020347410709
20
15.3436649194137
30
0
41
1
10
57.2792825447269
20
15.3484570934679
30
0
41
1
10
57.2391561817371
20
15.3562206862198
30
0
41
1
10
57.1810639331942
20
15.3655093358768
30
0
41
1
10
57.0868297665081
20
15.3762745820743
30
0
41
1
10
56.9674098324946
20
15.3817446570166
30
0
41
1
10
56.8479899033713
20
15.3762745418614
30
0
41
1
10
56.7537557438637
20
15.3655092827518
30
0
41
1
10
56.6956634802968
20
15.3562206592254
30
0
41
1
10
56.6555370971315
20
15.3484570900389
30
0
41
1
10
56.6327848967973
20
15.3436649200105
30
0
41
1
10
56.6101134852787
20
15.3386826936279
30
0
41
1
10
56.5817889327002
20
15.3322375901547
30
0
41
1
10
56.5365307271454
20
15.3214386804978
30
0
41
1
10
56.4801033557002
20
15.3070089724671
30
0
41
1
10
56.375166666218
20
15.277786172662
30
0
41
1
10
56.2933711471729
20
15.2515338186166
30
0
41
1
10
56.2343408092482
20
15.2307338520021
30
0
0
SPLINE
5
15B
100
AcDbEntity
8
1
62
256
6
ByLayer
370
18
48
1
60
0
100
AcDbSpline
70
4
71
3
72
8
73
4
40
0
40
0
40
0
40
0
40
1
40
1
40
1
40
1
41
1
10
53.7854293038801
20
15.6006096654408
30
0
41
1
10
54.176962468837
20
15.2090765004893
30
0
41
1
10
54.5684956337938
20
14.8175433355377
30
0
41
1
10
54.9600287987507
20
14.4260101705861
30
0
0
SPLINE
5
15C
100
AcDbEntity
8
1
62
256
6
ByLayer
370
18
48
1
60
0
100
AcDbSpline
70
4
71
3
72
29
73
25
40
0
40
0
40
0
40
0
40
0.125000000000945
40
0.171875000000893
40
0.218750000000841
40
0.242187500000815
40
0.26562500000079
40
0.277343750000777
40
0.289062500000764
40
0.312500000000738
40
0.359375000000686
40
0.406250000000634
40
0.50000000000053
40
0.593750000000427
40
0.640625000000375
40
0.687500000000323
40
0.710937500000297
40
0.722656250000284
40
0.734375000000271
40
0.757812500000245
40
0.781250000000219
40
0.828125000000168
40
0.875000000000116
40
1
40
1
40
1
40
1
41
1
10
59.77951452112
20
11.6855601401126
30
0
41
1
10
59.8003144877356
20
11.7445904780374
30
0
41
1
10
59.8265668417824
20
11.8263859970824
30
0
41
1
10
59.8557896415883
20
11.9313226865652
30
0
41
1
10
59.8702193494875
20
11.987750058137
30
0
41
1
10
59.8810182595391
20
12.0330082633129
30
0
41
1
10
59.8874633629878
20
12.0613328159187
30
0
41
1
10
59.8924455885319
20
12.08400422825
30
0
41
1
10
59.8972377625862
20
12.106756424594
30
0
41
1
10
59.905001355338
20
12.1468827875838
30
0
41
1
10
59.9142900049951
20
12.2049750361266
30
0
41
1
10
59.9250552511925
20
12.2992092028127
30
0
41
1
10
59.9305253261348
20
12.4186291368262
30
0
41
1
10
59.9250552109797
20
12.5380490659496
30
0
41
1
10
59.9142899518701
20
12.6322832254572
30
0
41
1
10
59.9050013283436
20
12.690375489024
30
0
41
1
10
59.8972377591572
20
12.7305018721894
30
0
41
1
10
59.8924455891287
20
12.7532540725235
30
0
41
1
10
59.8874633627461
20
12.7759254840422
30
0
41
1
10
59.8810182592729
20
12.8042500366207
30
0
41
1
10
59.870219349616
20
12.8495082421755
30
0
41
1
10
59.8557896415853
20
12.9059356136207
30
0
41
1
10
59.8265668417802
20
13.0108723031029
30
0
41
1
10
59.8003144877349
20
13.0926678221479
30
0
41
1
10
59.7795145211203
20
13.1516981600727
30
0
0
SPLINE
5
15D
100
AcDbEntity
8
1
62
256
6
ByLayer
370
18
48
1
60
0
100
AcDbSpline
70
4
71
3
72
10
73
6
40
0
40
0
40
0
40
0
40
0.249999999999984
40
0.624999999999992
40
1
40
1
40
1
40
1
41
1
10
59.7795145211203
20
13.1516981600727
30
0
41
1
10
59.7379145878913
20
13.2697588359221
30
0
41
1
10
59.6168412999127
20
13.5603374026473
30
0
41
1
10
59.3575227768213
20
13.9980902075273
30
0
41
1
10
59.1099002180946
20
14.2909007921807
30
0
41
1
10
58.9747908396964
20
14.4260101705782
30
0
0
SPLINE
5
15E
100
AcDbEntity
8
1
62
256
6
ByLayer
370
18
48
1
60
0
100
AcDbSpline
70
4
71
3
72
17
73
13
40
0
40
0
40
0
40
0
40
0.0625
40
0.125
40
0.25
40
0.375
40
0.5
40
0.625
40
0.75
40
0.875
40
0.9375
40
1
40
1
40
1
40
1
41
1
10
56.4017243942703
20
18.2169047964915
30
0
41
1
10
56.4202364064708
20
18.235416808692
30
0
41
1
10
56.4590795375652
20
18.2706214842181
30
0
41
1
10
56.5432907948632
20
18.3330812967199
30
0
41
1
10
56.6592893884118
20
18.3950872756311
30
0
41
1
10
56.8103312509512
20
18.4409053617952
30
0
41
1
10
56.9674096221003
20
18.4563763341994
30
0
41
1
10
57.1244877314793
20
18.4409052721318
30
0
41
1
10
57.2755305024925
20
18.3950882394722
30
0
41
1
10
57.3915287326839
20
18.3330813480351
30
0
41
1
10
57.4757403625294
20
18.2706219307715
30
0
41
1
10
57.5145832319682
20
18.2354168086919
30
0
41
1
10
57.5330952441688
20
18.2169047964914
30
0
0
SPLINE
5
15F
100
AcDbEntity
8
1
62
256
6
ByLayer
370
18
48
1
60
0
100
AcDbSpline
70
4
71
3
72
8
73
4
40
0
40
0
40
0
40
0
40
1
40
1
40
1
40
1
41
1
10
56.401724394273
20
18.2169047558337
30
0
41
1
10
56.3459298659314
20
17.2215144545565
30
0
41
1
10
56.2901353375899
20
16.2261241532793
30
0
41
1
10
56.2343408092482
20
15.2307338520021
30
0
0
SPLINE
5
160
100
AcDbEntity
8
1
62
256
6
ByLayer
370
18
48
1
60
0
100
AcDbSpline
70
4
71
3
72
8
73
4
40
0
40
0
40
0
40
0
40
1
40
1
40
1
40
1
41
1
10
62.5499994283275
20
-0.864944378920939
30
0
41
1
10
62.6218947605335
20
-0.576629585947899
30
0
41
1
10
62.6937900927394
20
-0.288314792974859
30
0
41
1
10
62.7656854249455
20
-1.7906E-12
30
0
0
SPLINE
5
161
100
AcDbEntity
8
1
62
256
6
ByLayer
370
18
48
1
60
0
100
AcDbSpline
70
4
71
3
72
8
73
4
40
0
40
0
40
0
40
0
40
1
40
1
40
1
40
1
41
1
10
52.9930595870154
20
10.0290183516266
30
0
41
1
10
52.3850844625016
20
10.6369934761404
30
0
41
1
10
51.7771093380001
20
11.2449686006419
30
0
41
1
10
51.1691342134872
20
11.8529437251548
30
0
0
SPLINE
5
162
100
AcDbEntity
8
1
62
256
6
ByLayer
370
18
48
1
60
0
100
AcDbSpline
70
4
71
3
72
8
73
4
40
0
40
0
40
0
40
0
40
1
40
1
40
1
40
1
41
1
10
62.7656854249519
20
11.8529437251548
30
0
41
1
10
62.0727214864928
20
11.1599797866957
30
0
41
1
10
61.3797575480485
20
10.4670158482513
30
0
41
1
10
60.6867936095838
20
9.77405190978669
30
0
0
SPLINE
5
163
100
AcDbEntity
8
1
62
256
6
ByLayer
370
18
48
1
60
0
100
AcDbSpline
70
4
71
3
72
8
73
4
40
0
40
0
40
0
40
0
40
1
40
1
40
1
40
1
41
1
10
59.0303637758358
20
10.3556751934698
30
0
41
1
10
59.0118394637867
20
10.3741995055187
30
0
41
1
10
58.9933151517376
20
10.3927238175676
30
0
41
1
10
58.9747908396885
20
10.4112481296165
30
0
0
SPLINE
5
164
100
AcDbEntity
8
1
62
256
6
ByLayer
370
18
48
1
60
0
100
AcDbSpline
70
4
71
3
72
8
73
4
40
0
40
0
40
0
40
0
40
1
40
1
40
1
40
1
41
1
10
58.5502717847613
20
10.0505791684217
30
0
41
1
10
58.7009967573738
20
10.1588711052083
30
0
41
1
10
58.843247545192
20
10.2797048351194
30
0
41
1
10
58.9747908396965
20
10.4112481296245
30
0
0
SPLINE
5
165
100
AcDbEntity
8
1
62
256
6
ByLayer
370
18
48
1
60
0
100
AcDbSpline
70
4
71
3
72
10
73
6
40
0
40
0
40
0
40
0
40
0.320172375446031
40
0.800430938615117
40
1
40
1
40
1
40
1
41
1
10
54.1553051173189
20
11.68556014013
30
0
41
1
10
54.1969050505478
20
11.5674994642806
30
0
41
1
10
54.3179783385265
20
11.2769208975554
30
0
41
1
10
54.52046186223
20
10.9351106427901
30
0
41
1
10
54.6847326369016
20
10.7205240412777
30
0
41
1
10
54.7351069833464
20
10.6592366864444
30
0
0
SPLINE
5
166
100
AcDbEntity
8
1
62
256
6
ByLayer
370
18
48
1
60
0
100
AcDbSpline
70
4
71
3
72
12
73
8
40
0
40
0
40
0
40
0
40
0.125193384459615
40
0.250386768919229
40
0.500773537838458
40
0.751160306757688
40
1
40
1
40
1
40
1
41
1
10
51.9945290784163
20
3.31000000000009
30
0
41
1
10
51.9760176624655
20
3.31000000000023
30
0
41
1
10
51.9408224649965
20
3.3100000000002
30
0
41
1
10
51.8783915137245
20
3.31000000000014
30
0
41
1
10
51.816398109395
20
3.31000000000009
30
0
41
1
10
51.7706395595049
20
3.31000000000003
30
0
41
1
10
51.7602785600153
20
3.31
30
0
41
1
10
51.7602150784166
20
3.31
30
0
0
SPLINE
5
167
100
AcDbEntity
8
1
62
256
6
ByLayer
370
18
48
1
60
0
100
AcDbSpline
70
4
71
3
72
13
73
9
40
0
40
0
40
0
40
0
40
0.0012791840018103
40
0.250959388001358
40
0.500639592000905
40
0.750319796000453
40
0.875159898000226
40
1
40
1
40
1
40
1
41
1
10
62.1746043806691
20
3.31
30
0
41
1
10
62.1746053807691
20
3.31
30
0
41
1
10
62.1746316661902
20
3.31
30
0
41
1
10
62.1642748223085
20
3.30999999999997
30
0
41
1
10
62.1184201149411
20
3.30999999999995
30
0
41
1
10
62.0564280987918
20
3.30999999999992
30
0
41
1
10
61.9939964544922
20
3.30999999999992
30
0
41
1
10
61.9588019759736
20
3.30999999999992
30
0
41
1
10
61.9402905600229
20
3.31000000000006
30
0
0
SPLINE
5
168
100
AcDbEntity
8
1
62
256
6
ByLayer
370
18
48
1
60
0
100
AcDbSpline
70
4
71
3
72
19
73
15
40
0
40
0
40
0
40
0
40
0.0011162262219771
40
0.188406933805348
40
0.282052287597033
40
0.375697641388719
40
0.422520318284561
40
0.445931656732483
40
0.469342995180404
40
0.516165672076247
40
0.56298834897209
40
0.656633702763775
40
0.75027905655546
40
1
40
1
40
1
40
1
41
1
10
59.9283366327535
20
-0.200000000000236
30
0
41
1
10
59.9283376328535
20
-0.200000000000131
30
0
41
1
10
59.9283503205189
20
-0.200000000000131
30
0
41
1
10
59.9250552109797
20
-0.200000000000131
30
0
41
1
10
59.9142899518701
20
-0.200000000000131
30
0
41
1
10
59.9050013283436
20
-0.200000000000131
30
0
41
1
10
59.8972377591572
20
-0.200000000000131
30
0
41
1
10
59.8924455891287
20
-0.200000000000131
30
0
41
1
10
59.8874633627461
20
-0.200000000000131
30
0
41
1
10
59.8810182592729
20
-0.200000000000131
30
0
41
1
10
59.870219349616
20
-0.200000000000131
30
0
41
1
10
59.8557896415853
20
-0.200000000000131
30
0
41
1
10
59.8265668417802
20
-0.200000000000131
30
0
41
1
10
59.8003144877349
20
-0.200000000000131
30
0
41
1
10
59.7795145211201
20
-0.200000000000131
30
0
0
SPLINE
5
169
100
AcDbEntity
8
1
62
256
6
ByLayer
370
18
48
1
60
0
100
AcDbSpline
70
4
71
3
72
13
73
9
40
0
40
0
40
0
40
0
40
0.124828395717214
40
0.249656791434428
40
0.499313582868855
40
0.748970374303283
40
0.99862716573771
40
1
40
1
40
1
40
1
41
1
10
62.7656854656097
20
-1.630565407E-07
30
0
41
1
10
62.7841974778102
20
-1.630567681E-07
30
0
41
1
10
62.8194021533363
20
-1.630567681E-07
30
0
41
1
10
62.8818619658381
20
-1.630567112E-07
30
0
41
1
10
62.9438679447494
20
-1.630566828E-07
30
0
41
1
10
62.9896860309134
20
-1.63056626E-07
30
0
41
1
10
63.0000283702213
20
-1.630565691E-07
30
0
41
1
10
63.0000001855526
20
-1.630565411E-07
30
0
41
1
10
62.9999991854526
20
-1.630565407E-07
30
0
0
SPLINE
5
16A
100
AcDbEntity
8
1
62
256
6
ByLayer
370
18
48
1
60
0
100
AcDbSpline
70
4
71
3
72
19
73
15
40
0
40
0
40
0
40
0
40
0.249721113184413
40
0.343366530627756
40
0.437011948071099
40
0.48383465679277
40
0.530657365514441
40
0.554068719875277
40
0.577480074236113
40
0.624302782957784
40
0.717948200401127
40
0.811593617844469
40
0.998884452731155
40
1
40
1
40
1
40
1
41
1
10
54.155305117319
20
-0.200000000000102
30
0
41
1
10
54.1345051507035
20
-0.200000000000131
30
0
41
1
10
54.1082527966568
20
-0.200000000000131
30
0
41
1
10
54.0790299968509
20
-0.200000000000131
30
0
41
1
10
54.0646002889517
20
-0.200000000000131
30
0
41
1
10
54.0538013789
20
-0.200000000000131
30
0
41
1
10
54.0473562754513
20
-0.200000000000131
30
0
41
1
10
54.0423740499072
20
-0.200000000000131
30
0
41
1
10
54.0375818758529
20
-0.200000000000131
30
0
41
1
10
54.0298182831011
20
-0.200000000000131
30
0
41
1
10
54.020529633444
20
-0.200000000000131
30
0
41
1
10
54.0097643872466
20
-0.200000000000131
30
0
41
1
10
54.0064693098716
20
-0.200000000000131
30
0
41
1
10
54.006482005636
20
-0.200000000000131
30
0
41
1
10
54.006483005736
20
-0.200000000000236
30
0
0
SPLINE
5
16B
100
AcDbEntity
8
1
62
256
6
ByLayer
370
18
48
1
60
0
100
AcDbSpline
70
4
71
3
72
13
73
9
40
0
40
0
40
0
40
0
40
0.0013735540397764
40
0.251030165529832
40
0.500686777019888
40
0.750343388509944
40
0.875171694254972
40
1
40
1
40
1
40
1
41
1
10
50.934820452903
20
-1.630565407E-07
30
0
41
1
10
50.934819452803
20
-1.630565407E-07
30
0
41
1
10
50.9347912830528
20
-1.630565407E-07
30
0
41
1
10
50.9451336971891
20
-1.630564839E-07
30
0
41
1
10
50.9909507298487
20
-1.630564554E-07
30
0
41
1
10
51.0529576212858
20
-1.630563986E-07
30
0
41
1
10
51.1154170385494
20
-1.630563702E-07
30
0
41
1
10
51.150622160629
20
-1.630563418E-07
30
0
41
1
10
51.1691341728295
20
-1.630565407E-07
30
0
0
SPLINE
5
16C
100
AcDbEntity
8
1
62
256
6
ByLayer
370
18
48
1
60
0
100
AcDbSpline
70
4
71
3
72
16
73
12
40
0
40
0
40
0
40
0
40
0.040109779758245
40
0.177236954078496
40
0.314364128398746
40
0.451491302718997
40
0.588618477039248
40
0.725745651359499
40
0.862872825679749
40
0.931436412839875
40
1
40
1
40
1
40
1
41
1
10
51.0962524293856
20
-11.9367239861347
30
0
41
1
10
51.0870266532995
20
-11.948948718251
30
0
41
1
10
51.0478111910508
20
-12.0041379815107
30
0
41
1
10
50.9909516936897
20
-12.1105087192936
30
0
41
1
10
50.9451336075257
20
-12.2615505818331
30
0
41
1
10
50.9296626351215
20
-12.4186289529822
30
0
41
1
10
50.9451336971891
20
-12.5757070623612
30
0
41
1
10
50.9909507298487
20
-12.7267498333744
30
0
41
1
10
51.0529576212858
20
-12.8427480635658
30
0
41
1
10
51.1154170385493
20
-12.9269596934113
30
0
41
1
10
51.1506221606289
20
-12.9658025628501
30
0
41
1
10
51.1691341728295
20
-12.9843145750507
30
0
0
SPLINE
5
16D
100
AcDbEntity
8
1
62
256
6
ByLayer
370
18
48
1
60
0
100
AcDbSpline
70
4
71
3
72
8
73
4
40
0
40
0
40
0
40
0
40
1
40
1
40
1
40
1
41
1
10
62.4459354249455
20
-11.852943725149
30
0
41
1
10
62.5525187582788
20
-11.8529437251489
30
0
41
1
10
62.6591020916121
20
-11.8529437251489
30
0
41
1
10
62.7656854249455
20
-11.852943725149
30
0
0
SPLINE
5
16E
100
AcDbEntity
8
1
62
256
6
ByLayer
370
18
48
1
60
0
100
AcDbSpline
70
4
71
3
72
8
73
4
40
0
40
0
40
0
40
0
40
1
40
1
40
1
40
1
41
1
10
62.7656854249519
20
-11.852943725155
30
0
41
1
10
62.6862019087012
20
-11.7734602089042
30
0
41
1
10
62.6067183924507
20
-11.6939766926536
30
0
41
1
10
62.5272348762003
20
-11.6144931764032
30
0
0
SPLINE
5
16F
100
AcDbEntity
8
1
62
256
6
ByLayer
370
18
48
1
60
0
100
AcDbSpline
70
4
71
3
72
14
73
10
40
0
40
0
40
0
40
0
40
0.0061417644058883
40
0.204913411524711
40
0.403685058643533
40
0.602456705762355
40
0.801228352881178
40
0.900614176440589
40
1
40
1
40
1
40
1
41
1
10
62.1582527192179
20
-12.257807943797
30
0
41
1
10
62.1585783034352
20
-12.2593926228733
30
0
41
1
10
62.1692802089808
20
-12.312296797388
30
0
41
1
10
62.1797703939801
20
-12.4186293950448
30
0
41
1
10
62.1642748223085
20
-12.5757022021125
30
0
41
1
10
62.1184201149411
20
-12.7267263408012
30
0
41
1
10
62.0564280987918
20
-12.8427250205145
30
0
41
1
10
61.9939964544922
20
-12.9269527057969
30
0
41
1
10
61.9588019759736
20
-12.9658031591014
30
0
41
1
10
61.9402905600229
20
-12.9843145750521
30
0
0
SPLINE
5
170
100
AcDbEntity
8
1
62
256
6
ByLayer
370
18
48
1
60
0
100
AcDbSpline
70
4
71
3
72
13
73
9
40
0
40
0
40
0
40
0
40
0.116876512318114
40
0.233753024636228
40
0.467506049272456
40
0.701259073908685
40
0.935012098544913
40
1
40
1
40
1
40
1
41
1
10
51.9945290784163
20
-12.9843145750521
30
0
41
1
10
51.9760176624655
20
-12.9658031591013
30
0
41
1
10
51.9408224649965
20
-12.9269531324283
30
0
41
1
10
51.8783915137245
20
-12.8427247911258
30
0
41
1
10
51.816398109395
20
-12.7267267664574
30
0
41
1
10
51.7705451215513
20
-12.5757011459517
30
0
41
1
10
51.7587784847692
20
-12.4564299362637
30
0
41
1
10
51.7606137041697
20
-12.3895159860211
30
0
41
1
10
51.7614099184468
20
-12.3749812285132
30
0
0
SPLINE
5
171
100
AcDbEntity
8
1
62
256
6
ByLayer
370
13
48
1
60
0
100
AcDbSpline
70
4
71
3
72
8
73
4
40
0
40
0
40
0
40
0
40
1
40
1
40
1
40
1
41
1
10
56.4070612640186
20
-17.0908011478519
30
0
41
1
10
54.9669876101275
20
-15.6515144851847
30
0
41
1
10
53.5298778090124
20
-14.2093314532372
30
0
41
1
10
52.1001950740109
20
-12.7600670793586
30
0
0
SPLINE
5
172
100
AcDbEntity
8
1
62
256
6
ByLayer
370
13
48
1
60
0
100
AcDbSpline
70
4
71
3
72
18
73
14
40
0
40
0
40
0
40
0
40
0.24999999999998
40
0.24999999999998
40
0.37499999999998
40
0.37499999999998
40
0.49999999999998
40
0.49999999999998
40
0.750000000000002
40
0.750000000000002
40
0.875000000000001
40
0.875000000000001
40
1
40
1
40
1
40
1
41
1
10
55.5531962568465
20
10.054151374876
30
0
41
1
10
55.6407841752088
20
9.99451388836547
30
0
41
1
10
55.7365054191342
20
9.93947849910862
30
0
41
1
10
55.8932679580255
20
9.86488931610904
30
0
41
1
10
55.9477338075989
20
9.84136237819487
30
0
41
1
10
56.0614803372772
20
9.79729863879285
30
0
41
1
10
56.1207156403548
20
9.77682092975445
30
0
41
1
10
56.3014953352699
20
9.72181361789404
30
0
41
1
10
56.4274744887612
20
9.69306802538006
30
0
41
1
10
56.6254535139881
20
9.66336824143539
30
0
41
1
10
56.6933759571186
20
9.6557010325856
30
0
41
1
10
56.8298225673516
20
9.64550590923608
30
0
41
1
10
56.8984237393366
20
9.64293096011812
30
0
41
1
10
56.9674098192196
20
9.64293096011812
30
0
0
SPLINE
5
173
100
AcDbEntity
8
1
62
256
6
ByLayer
370
13
48
1
60
0
100
AcDbSpline
70
4
71
3
72
10
73
6
40
0
40
0
40
0
40
0
40
0.5
40
0.5
40
1
40
1
40
1
40
1
41
1
10
62.4444271909999
20
-0.500000000000369
30
0
41
1
10
62.4792053627166
20
-0.500000000000369
30
0
41
1
10
62.5053877856661
20
-0.500000000000369
30
0
41
1
10
62.5408042650785
20
-0.500000000000369
30
0
41
1
10
62.5500110011
20
-0.500000000000369
30
0
41
1
10
62.549995249525
20
-0.500000000000369
30
0
0
SPLINE
5
174
100
AcDbEntity
8
1
62
256
6
ByLayer
370
13
48
1
60
0
100
AcDbSpline
70
4
71
3
72
10
73
6
40
0
40
0
40
0
40
0
40
0.499999999999999
40
0.499999999999999
40
1
40
1
40
1
40
1
41
1
10
50.7759496926571
20
-7.63266445569613
30
0
41
1
10
50.9097704693573
20
-7.68199278335044
30
0
41
1
10
51.0368227386497
20
-7.75054343384119
30
0
41
1
10
51.2766764291831
20
-7.92212988861155
30
0
41
1
10
51.3833979273215
20
-8.02082611867706
30
0
41
1
10
51.4763226234824
20
-8.13312130635586
30
0
0
SPLINE
5
175
100
AcDbEntity
8
1
62
256
6
ByLayer
370
13
48
1
60
0
100
AcDbSpline
70
4
71
3
72
8
73
4
40
0
40
0
40
0
40
0
40
1
40
1
40
1
40
1
41
1
10
50.2867101711801
20
-12.1018905327412
30
0
41
1
10
50.3280778151573
20
-12.0811772668109
30
0
41
1
10
50.3737424249822
20
-12.0589956415745
30
0
41
1
10
50.4257737193967
20
-12.0356737006624
30
0
0
SPLINE
5
176
100
AcDbEntity
8
1
62
256
6
ByLayer
370
13
48
1
60
0
100
AcDbSpline
70
4
71
3
72
22
73
18
40
0
40
0
40
0
40
0
40
0.125
40
0.125
40
0.25
40
0.25
40
0.375
40
0.375
40
0.5
40
0.5
40
0.625
40
0.625
40
0.75
40
0.75
40
0.875
40
0.875
40
1
40
1
40
1
40
1
41
1
10
56.4070612640186
20
-17.0908011478519
30
0
41
1
10
56.4435776001239
20
-17.1272975280085
30
0
41
1
10
56.484177792347
20
-17.1607425928908
30
0
41
1
10
56.5704808418186
20
-17.2186275039156
30
0
41
1
10
56.6159442503885
20
-17.2430705800245
30
0
41
1
10
56.7114834018209
20
-17.2829802250263
30
0
41
1
10
56.7619835796878
20
-17.2984384987079
30
0
41
1
10
56.8634364410944
20
-17.3187898259924
30
0
41
1
10
56.9148303945737
20
-17.3239473379024
30
0
41
1
10
57.0189824324726
20
-17.3240074067033
30
0
41
1
10
57.0711502751059
20
-17.3188013020895
30
0
41
1
10
57.1724263918504
20
-17.2985155708094
30
0
41
1
10
57.2223050153036
20
-17.2833298279048
30
0
41
1
10
57.3186982188606
20
-17.2431414532265
30
0
41
1
10
57.364224800823
20
-17.218616863445
30
0
41
1
10
57.4501354076564
20
-17.1610345646294
30
0
41
1
10
57.4908815969927
20
-17.1275459816809
30
0
41
1
10
57.5275691536696
20
-17.090889885183
30
0
0
SPLINE
5
177
100
AcDbEntity
8
1
62
256
6
ByLayer
370
13
48
1
60
0
100
AcDbSpline
70
4
71
3
72
8
73
4
40
0
40
0
40
0
40
0
40
1
40
1
40
1
40
1
41
1
10
61.6555728090001
20
-0.500000000000369
30
0
41
1
10
61.6148750172432
20
-0.500000000000369
30
0
41
1
10
61.5857870128789
20
-0.500000000000369
30
0
41
1
10
61.5683822789338
20
-0.500000000000369
30
0
0
SPLINE
5
178
100
AcDbEntity
8
1
62
256
6
ByLayer
370
13
48
1
60
0
100
AcDbSpline
70
4
71
3
72
8
73
4
40
0
40
0
40
0
40
0
40
1
40
1
40
1
40
1
41
1
10
50.2867101711802
20
12.1018905327405
30
0
41
1
10
50.3280778151575
20
12.0811772668101
30
0
41
1
10
50.3737424249833
20
12.0589956415733
30
0
41
1
10
50.4257737193982
20
12.0356737006611
30
0
0
SPLINE
5
179
100
AcDbEntity
8
1
62
256
6
ByLayer
370
13
48
1
60
0
100
AcDbSpline
70
4
71
3
72
38
73
34
40
0
40
0
40
0
40
0
40
0.0625000000000001
40
0.0625000000000001
40
0.125
40
0.125
40
0.25
40
0.25
40
0.3125
40
0.3125
40
0.375000000000001
40
0.375000000000001
40
0.437500000000001
40
0.437500000000001
40
0.500000000000001
40
0.500000000000001
40
0.562500000000001
40
0.562500000000001
40
0.625000000000001
40
0.625000000000001
40
0.687500000000001
40
0.687500000000001
40
0.718750000000001
40
0.718750000000001
40
0.750000000000001
40
0.750000000000001
40
0.812500000000001
40
0.812500000000001
40
0.875
40
0.875
40
0.9375
40
0.9375
40
1
40
1
40
1
40
1
41
1
10
46.9750801075369
20
0.499999999999773
30
0
41
1
10
46.8814274018546
20
0.499999999999773
30
0
41
1
10
46.787028253137
20
0.495415692121611
30
0
41
1
10
46.5991547014836
20
0.476756647373549
30
0
41
1
10
46.5064787823238
20
0.462800819782331
30
0
41
1
10
46.2322286806062
20
0.40706827202294
30
0
41
1
10
46.0543645319923
20
0.351675954852169
30
0
41
1
10
45.7960441929682
20
0.237445203552937
30
0
41
1
10
45.7113249437155
20
0.193979783400266
30
0
41
1
10
45.5497481492283
20
0.0981404781724393
30
0
41
1
10
45.4722808809371
20
0.045532432632001
30
0
41
1
10
45.3244462152995
20
-0.0697071794376143
30
0
41
1
10
45.2538082327694
20
-0.132605026805692
30
0
41
1
10
45.1217081094988
20
-0.268540747058182
30
0
41
1
10
45.0612309060258
20
-0.340498501554094
30
0
41
1
10
44.9518944341711
20
-0.492718443461627
30
0
41
1
10
44.9030266587414
20
-0.57297459090114
30
0
41
1
10
44.8181406288622
20
-0.742658643987397
30
0
41
1
10
44.783168831355
20
-0.830129735168498
30
0
41
1
10
44.72878832923
20
-1.00860915123258
30
0
41
1
10
44.7092428816719
20
-1.09988221041238
30
0
41
1
10
44.6919351020184
20
-1.23997442155738
30
0
41
1
10
44.6881899469929
20
-1.2873533432988
30
0
41
1
10
44.6848989453053
20
-1.38125834527023
30
0
41
1
10
44.6853127120961
20
-1.42800347341853
30
0
41
1
10
44.6925306543519
20
-1.56763591772
30
0
41
1
10
44.7052836968359
20
-1.65992264997331
30
0
41
1
10
44.7463336830739
20
-1.84293257918449
30
0
41
1
10
44.7745271561363
20
-1.93269910414654
30
0
41
1
10
44.8437159284062
20
-2.10520666260433
30
0
41
1
10
44.8848530611551
20
-2.18858216354946
30
0
41
1
10
44.9794608674289
20
-2.34994445975676
30
0
41
1
10
45.0325082076318
20
-2.42709220109475
30
0
41
1
10
45.0899677562094
20
-2.50000000000062
30
0
0
SPLINE
5
17A
100
AcDbEntity
8
1
62
256
6
ByLayer
370
13
48
1
60
0
100
AcDbSpline
70
4
71
3
72
8
73
4
40
0
40
0
40
0
40
0
40
1
40
1
40
1
40
1
41
1
10
62.2502619312381
20
-9.08130556527624
30
0
41
1
10
61.258105895431
20
-9.95265627620259
30
0
41
1
10
60.262175811933
20
-10.8207206530361
30
0
41
1
10
59.2642886896975
20
-11.6870808958337
30
0
0
SPLINE
5
17B
100
AcDbEntity
8
1
62
256
6
ByLayer
370
13
48
1
60
0
100
AcDbSpline
70
4
71
3
72
14
73
10
40
0
40
0
40
0
40
0
40
0.25
40
0.25
40
0.5
40
0.5
40
0.75
40
0.75
40
1
40
1
40
1
40
1
41
1
10
62.2502619312382
20
8.98629688226325
30
0
41
1
10
62.2981141177959
20
8.96203334186416
30
0
41
1
10
62.3407673008165
20
8.93556510173855
30
0
41
1
10
62.4157302728579
20
8.87824238136247
30
0
41
1
10
62.4475114260477
20
8.8476699347213
30
0
41
1
10
62.4982852200525
20
8.78464599071256
30
0
41
1
10
62.517704793097
20
8.75171801971024
30
0
41
1
10
62.5436297134318
20
8.68435814771348
30
0
41
1
10
62.5500000000001
20
8.65051784586541
30
0
41
1
10
62.5500000000001
20
8.61652257594753
30
0
0
SPLINE
5
17C
100
AcDbEntity
8
1
62
256
6
ByLayer
370
13
48
1
60
0
100
AcDbSpline
70
4
71
3
72
10
73
6
40
0
40
0
40
0
40
0
40
0.5
40
0.5
40
1
40
1
40
1
40
1
41
1
10
61.55
20
-3.50242689094299
30
0
41
1
10
61.5499999999999
20
-3.57726209851472
30
0
41
1
10
61.5584980110731
20
-3.65182051987415
30
0
41
1
10
61.5939836467007
20
-3.80033514284548
30
0
41
1
10
61.6204247348407
20
-3.87181608441318
30
0
41
1
10
61.6555728090001
20
-3.94001258463624
30
0
0
SPLINE
5
17D
100
AcDbEntity
8
1
62
256
6
ByLayer
370
13
48
1
60
0
100
AcDbSpline
70
4
71
3
72
8
73
4
40
0
40
0
40
0
40
0
40
1
40
1
40
1
40
1
41
1
10
50.7759496926561
20
11.9539381468002
30
0
41
1
10
50.8436356570438
20
11.9452558349924
30
0
41
1
10
50.9139044122236
20
11.9438366321801
30
0
41
1
10
50.9830118759293
20
11.9504551013771
30
0
0
SPLINE
5
17E
100
AcDbEntity
8
1
62
256
6
ByLayer
370
13
48
1
60
0
100
AcDbSpline
70
4
71
3
72
22
73
18
40
0
40
0
40
0
40
0
40
0.125
40
0.125
40
0.25
40
0.25
40
0.375
40
0.375
40
0.5
40
0.5
40
0.625
40
0.625
40
0.75
40
0.75
40
0.875
40
0.875
40
1
40
1
40
1
40
1
41
1
10
61.7824679581902
20
3.60227805334844
30
0
41
1
10
61.779298068724
20
3.6163647873957
30
0
41
1
10
61.7747179806809
20
3.6282570865161
30
0
41
1
10
61.7616553007607
20
3.64669204823576
30
0
41
1
10
61.7531867158857
20
3.65328883444494
30
0
41
1
10
61.7310297012783
20
3.66050095959457
30
0
41
1
10
61.7172414736758
20
3.66110887827281
30
0
41
1
10
61.6833575800846
20
3.65482803797792
30
0
41
1
10
61.6636058110366
20
3.64801713925195
30
0
41
1
10
61.6187941330713
20
3.62611699262936
30
0
41
1
10
61.593470482498
20
3.61082914592888
30
0
41
1
10
61.5399728415261
20
3.57154767430737
30
0
41
1
10
61.5122296824386
20
3.54790936450473
30
0
41
1
10
61.4569266286277
20
3.49270752443348
30
0
41
1
10
61.4292214250978
20
3.46095101528414
30
0
41
1
10
61.3767870826755
20
3.39004125749449
30
0
41
1
10
61.3524648254364
20
3.35149035739866
30
0
41
1
10
61.3308129123812
20
3.30999999999958
30
0
0
SPLINE
5
17F
100
AcDbEntity
8
1
62
256
6
ByLayer
370
13
48
1
60
0
100
AcDbSpline
70
4
71
3
72
8
73
4
40
0
40
0
40
0
40
0
40
1
40
1
40
1
40
1
41
1
10
61.6555728090001
20
-3.94001258463624
30
0
41
1
10
61.9136998081028
20
-4.44084679455784
30
0
41
1
10
62.1775456110548
20
-4.93948958528142
30
0
41
1
10
62.4444271909999
20
-5.43696908029509
30
0
0
SPLINE
5
180
100
AcDbEntity
8
1
62
256
6
ByLayer
370
13
48
1
60
0
100
AcDbSpline
70
4
71
3
72
8
73
4
40
0
40
0
40
0
40
0
40
1
40
1
40
1
40
1
41
1
10
51.180140191162
20
2.90397664169615
30
0
41
1
10
51.170553316741
20
2.9458700101236
30
0
41
1
10
51.1633671163081
20
2.98687439154978
30
0
41
1
10
51.1586159617731
20
3.02696599100724
30
0
0
SPLINE
5
181
100
AcDbEntity
8
1
62
256
6
ByLayer
370
13
48
1
60
0
100
AcDbSpline
70
4
71
3
72
8
73
4
40
0
40
0
40
0
40
0
40
1
40
1
40
1
40
1
41
1
10
51.0269300670016
20
2.9579201713162
30
0
41
1
10
51.0711165583865
20
2.98132934386237
30
0
41
1
10
51.1155734030894
20
3.00453409473323
30
0
41
1
10
51.1586159617717
20
3.02696599101057
30
0
0
SPLINE
5
182
100
AcDbEntity
8
1
62
256
6
ByLayer
370
13
48
1
60
0
100
AcDbSpline
70
4
71
3
72
8
73
4
40
0
40
0
40
0
40
0
40
1
40
1
40
1
40
1
41
1
10
50.9830118759293
20
11.9504551013771
30
0
41
1
10
50.9977627103726
20
11.9518677989087
30
0
41
1
10
51.01240440388
20
11.9535676825109
30
0
41
1
10
51.0269300670017
20
11.9555435186691
30
0
0
SPLINE
5
183
100
AcDbEntity
8
1
62
256
6
ByLayer
370
13
48
1
60
0
100
AcDbSpline
70
4
71
3
72
14
73
10
40
0
40
0
40
0
40
0
40
0.25
40
0.25
40
0.5
40
0.5
40
0.75
40
0.75
40
1
40
1
40
1
40
1
41
1
10
62.2502619312381
20
-9.08130556527627
30
0
41
1
10
62.298078909879
20
-9.03931080151992
30
0
41
1
10
62.341490614088
20
-8.99254908642487
30
0
41
1
10
62.4157646606808
20
-8.89403185501294
30
0
41
1
10
62.4471970078548
20
-8.84185354097653
30
0
41
1
10
62.4985051554427
20
-8.73158218092632
30
0
41
1
10
62.5177053621759
20
-8.67483636297251
30
0
41
1
10
62.5434163337613
20
-8.55945539356219
30
0
41
1
10
62.5499999999999
20
-8.50016189492482
30
0
41
1
10
62.5499999999999
20
-8.44083767940393
30
0
0
SPLINE
5
184
100
AcDbEntity
8
1
62
256
6
ByLayer
370
13
48
1
60
0
100
AcDbSpline
70
4
71
3
72
20
73
16
40
0
40
0
40
0
40
0
40
0.124999999999997
40
0.124999999999997
40
0.249999999999993
40
0.249999999999993
40
0.37499999999999
40
0.37499999999999
40
0.499999999999987
40
0.499999999999987
40
0.74999999999998
40
0.74999999999998
40
0.87499999999999
40
0.87499999999999
40
1
40
1
40
1
40
1
41
1
10
57.5275691536698
20
7.30999999999958
30
0
41
1
10
57.4920584159398
20
7.30999999999958
30
0
41
1
10
57.4522775069642
20
7.30999999999958
30
0
41
1
10
57.3671762315453
20
7.30999999999958
30
0
41
1
10
57.3221044627811
20
7.30999999999958
30
0
41
1
10
57.2267624392453
20
7.30999999999958
30
0
41
1
10
57.1758574162177
20
7.30999999999958
30
0
41
1
10
57.07321734576
20
7.30999999999958
30
0
41
1
10
57.0211365291171
20
7.30999999999958
30
0
41
1
10
56.8625437612101
20
7.30999999999958
30
0
41
1
10
56.7573622659035
20
7.30999999999958
30
0
41
1
10
56.6130640557299
20
7.30999999999958
30
0
41
1
10
56.5677854055265
20
7.30999999999958
30
0
41
1
10
56.4825796753332
20
7.30999999999958
30
0
41
1
10
56.4427440708003
20
7.30999999999958
30
0
41
1
10
56.4070612640187
20
7.30999999999958
30
0
0
SPLINE
5
185
100
AcDbEntity
8
1
62
256
6
ByLayer
370
13
48
1
60
0
100
AcDbSpline
70
4
71
3
72
12
73
8
40
0
40
0
40
0
40
0
40
0.500000000000002
40
0.500000000000002
40
0.750000000000001
40
0.750000000000001
40
1
40
1
40
1
40
1
41
1
10
51.4192177798759
20
2.39320941820731
30
0
41
1
10
51.3661185911316
20
2.46703839392583
30
0
41
1
10
51.3209079817075
20
2.5447309118513
30
0
41
1
10
51.263680421307
20
2.66396830350231
30
0
41
1
10
51.2462241870359
20
2.70462150068161
30
0
41
1
10
51.2156724625099
20
2.7843280796522
30
0
41
1
10
51.2024473227551
20
2.8235826457913
30
0
41
1
10
51.1910819339674
20
2.8622236810921
30
0
0
SPLINE
5
186
100
AcDbEntity
8
1
62
256
6
ByLayer
370
13
48
1
60
0
100
AcDbSpline
70
4
71
3
72
8
73
4
40
0
40
0
40
0
40
0
40
1
40
1
40
1
40
1
41
1
10
51.0269300670013
20
-11.9555435186698
30
0
41
1
10
51.0710465438199
20
-11.9615444102874
30
0
41
1
10
51.1149936190877
20
-11.9708518785152
30
0
41
1
10
51.1586159617712
20
-11.9837449863984
30
0
0
SPLINE
5
187
100
AcDbEntity
8
1
62
256
6
ByLayer
370
13
48
1
60
0
100
AcDbSpline
70
4
71
3
72
8
73
4
40
0
40
0
40
0
40
0
40
1
40
1
40
1
40
1
41
1
10
61.2489251023148
20
-13.3540248618931
30
0
41
1
10
60.0124466371547
20
-14.6036085991968
30
0
41
1
10
58.7711334265007
20
-15.8483919890293
30
0
41
1
10
57.5275691536696
20
-17.090889885183
30
0
0
SPLINE
5
188
100
AcDbEntity
8
1
62
256
6
ByLayer
370
13
48
1
60
0
100
AcDbSpline
70
4
71
3
72
28
73
24
40
0
40
0
40
0
40
0
40
0.12499999999999
40
0.12499999999999
40
0.187499999999988
40
0.187499999999988
40
0.249999999999987
40
0.249999999999987
40
0.312499999999985
40
0.312499999999985
40
0.374999999999982
40
0.374999999999982
40
0.43749999999998
40
0.43749999999998
40
0.499999999999978
40
0.499999999999978
40
0.624999999999983
40
0.624999999999983
40
0.749999999999989
40
0.749999999999989
40
0.874999999999994
40
0.874999999999994
40
1
40
1
40
1
40
1
41
1
10
49.8276604524133
20
-2.50000000000034
30
0
41
1
10
49.805932327938
20
-2.60256534585301
30
0
41
1
10
49.7682535884921
20
-2.69496138232455
30
0
41
1
10
49.6876581876347
20
-2.81765581386682
30
0
41
1
10
49.6568805966183
20
-2.85550528763611
30
0
41
1
10
49.5895320779878
20
-2.9233548074387
30
0
41
1
10
49.5527566781844
20
-2.95368163596964
30
0
41
1
10
49.4733025213744
20
-3.00728597588014
30
0
41
1
10
49.430432261087
20
-3.03057485638413
30
0
41
1
10
49.3415869350924
20
-3.06898877878862
30
0
41
1
10
49.2953418869524
20
-3.08433492803158
30
0
41
1
10
49.1995383017044
20
-3.10772683454223
30
0
41
1
10
49.1496656022135
20
-3.11578274727026
30
0
41
1
10
49.0486145531576
20
-3.12454513058324
30
0
41
1
10
48.9974473988266
20
-3.12531205632749
30
0
41
1
10
48.8422664232186
20
-3.11748111552578
30
0
41
1
10
48.7355230541415
20
-3.0984344858251
30
0
41
1
10
48.5256048061303
20
-3.03640239498927
30
0
41
1
10
48.4219643623052
20
-2.99363794419233
30
0
41
1
10
48.2172842927681
20
-2.8853079439605
30
0
41
1
10
48.1186509905161
20
-2.82092328626402
30
0
41
1
10
47.9302549652376
20
-2.67424376240314
30
0
41
1
10
47.8396235642108
20
-2.59116114981433
30
0
41
1
10
47.7545880747421
20
-2.50000000000034
30
0
0
SPLINE
5
189
100
AcDbEntity
8
1
62
256
6
ByLayer
370
13
48
1
60
0
100
AcDbSpline
70
4
71
3
72
8
73
4
40
0
40
0
40
0
40
0
40
1
40
1
40
1
40
1
41
1
10
51.1910819339673
20
2.86222368109213
30
0
41
1
10
51.1870020662086
20
2.87609476962524
30
0
41
1
10
51.1833347588438
20
2.89001680505027
30
0
41
1
10
51.180140191162
20
2.90397664169615
30
0
0
SPLINE
5
18A
100
AcDbEntity
8
1
62
256
6
ByLayer
370
13
48
1
60
0
100
AcDbSpline
70
4
71
3
72
10
73
6
40
0
40
0
40
0
40
0
40
0.5
40
0.5
40
1
40
1
40
1
40
1
41
1
10
51.4763226234821
20
-8.13312130635552
30
0
41
1
10
51.9899110811664
20
-8.75376914948041
30
0
41
1
10
52.5211615926432
20
-9.35349810521708
30
0
41
1
10
53.608776634795
20
-10.5175529906019
30
0
41
1
10
54.1657731049797
20
-11.0823878877261
30
0
41
1
10
54.7291832578239
20
-11.6284285867512
30
0
0
SPLINE
5
18B
100
AcDbEntity
8
1
62
256
6
ByLayer
370
13
48
1
60
0
100
AcDbSpline
70
4
71
3
72
34
73
30
40
0
40
0
40
0
40
0
40
0.0625000000000002
40
0.0625000000000002
40
0.125
40
0.125
40
0.250000000000001
40
0.250000000000001
40
0.312500000000001
40
0.312500000000001
40
0.375000000000001
40
0.375000000000001
40
0.437500000000001
40
0.437500000000001
40
0.500000000000002
40
0.500000000000002
40
0.562500000000002
40
0.562500000000002
40
0.625000000000002
40
0.625000000000002
40
0.687500000000002
40
0.687500000000002
40
0.750000000000002
40
0.750000000000002
40
0.812500000000003
40
0.812500000000003
40
0.875000000000003
40
0.875000000000003
40
1
40
1
40
1
40
1
41
1
10
46.975080107537
20
12.2738306630877
30
0
41
1
10
46.8813383957949
20
12.2738306630877
30
0
41
1
10
46.7866301675509
20
12.274021469008
30
0
41
1
10
46.5992276833167
20
12.2747589553633
30
0
41
1
10
46.5067115607341
20
12.2753022727206
30
0
41
1
10
46.2327297109009
20
12.2773161099315
30
0
41
1
10
46.054764816083
20
12.2792079314027
30
0
41
1
10
45.7958923802515
20
12.281776205883
30
0
41
1
10
45.711458715451
20
12.2825711548984
30
0
41
1
10
45.5501182091936
20
12.2837099571124
30
0
41
1
10
45.4726813545721
20
12.2840604346123
30
0
41
1
10
45.3247601648379
20
12.2839496349151
30
0
41
1
10
45.2538252629756
20
12.2834820443522
30
0
41
1
10
45.1220460300675
20
12.2812701734927
30
0
41
1
10
45.0616243462177
20
12.2795402058457
30
0
41
1
10
44.9522589383281
20
12.2743837737496
30
0
41
1
10
44.9032190228347
20
12.2709504635839
30
0
41
1
10
44.8182861138487
20
12.2618553656133
30
0
41
1
10
44.7834659426708
20
12.2563093226128
30
0
41
1
10
44.729026138555
20
12.2429388835887
30
0
41
1
10
44.7094030183058
20
12.2351156458189
30
0
41
1
10
44.6861945202717
20
12.2168641217936
30
0
41
1
10
44.6829165056774
20
12.206553710988
30
0
41
1
10
44.6924140402906
20
12.1840751499648
30
0
41
1
10
44.7050984535639
20
12.1718402411637
30
0
41
1
10
44.7461024872191
20
12.1454520048099
30
0
41
1
10
44.7741576190434
20
12.1315060226923
30
0
41
1
10
44.8777167930797
20
12.0884254984458
30
0
41
1
10
44.9739260003625
20
12.0575311044801
30
0
41
1
10
45.0899677562094
20
12.0269247584799
30
0
0
SPLINE
5
18C
100
AcDbEntity
8
1
62
256
6
ByLayer
370
13
48
1
60
0
100
AcDbSpline
70
4
71
3
72
12
73
8
40
0
40
0
40
0
40
0
40
0.499999999999984
40
0.499999999999984
40
0.749999999999992
40
0.749999999999992
40
1
40
1
40
1
40
1
41
1
10
62.444427191
20
8.75647393972866
30
0
41
1
10
62.4791038230753
20
8.82594017432174
30
0
41
1
10
62.5056325249016
20
8.89951277388718
30
0
41
1
10
62.5320852401855
20
9.01178287998766
30
0
41
1
10
62.538757634477
20
9.04970954314859
30
0
41
1
10
62.5477272788355
20
9.12658935137432
30
0
41
1
10
62.5500000000001
20
9.16571177571194
30
0
41
1
10
62.5500000000001
20
9.20438058426529
30
0
0
SPLINE
5
18D
100
AcDbEntity
8
1
62
256
6
ByLayer
370
13
48
1
60
0
100
AcDbSpline
70
4
71
3
72
8
73
4
40
0
40
0
40
0
40
0
40
1
40
1
40
1
40
1
41
1
10
62.2996036573434
20
-12.0904041550593
30
0
41
1
10
62.283726627498
20
-12.1102391208258
30
0
41
1
10
62.2672688318897
20
-12.1295051141645
30
0
41
1
10
62.250261931238
20
-12.1482165240867
30
0
0
SPLINE
5
18E
100
AcDbEntity
8
1
62
256
6
ByLayer
370
13
48
1
60
0
100
AcDbSpline
70
4
71
3
72
8
73
4
40
0
40
0
40
0
40
0
40
1
40
1
40
1
40
1
41
1
10
57.5275691536696
20
-15.7993201457357
30
0
41
1
10
58.3515048206107
20
-14.9087933219095
30
0
41
1
10
59.1694165978403
20
-14.0119195674276
30
0
41
1
10
59.9760387084377
20
-13.1059376957603
30
0
0
SPLINE
5
18F
100
AcDbEntity
8
1
62
256
6
ByLayer
370
13
48
1
60
0
100
AcDbSpline
70
4
71
3
72
22
73
18
40
0
40
0
40
0
40
0
40
0.125
40
0.125
40
0.25
40
0.25
40
0.375
40
0.375
40
0.5
40
0.5
40
0.625
40
0.625
40
0.75
40
0.75
40
0.875
40
0.875
40
1
40
1
40
1
40
1
41
1
10
56.4070612640187
20
3.30999999999958
30
0
41
1
10
56.4438785171951
20
3.30999999999958
30
0
41
1
10
56.4844103478652
20
3.30999999999958
30
0
41
1
10
56.5701462895219
20
3.30999999999958
30
0
41
1
10
56.6157871912758
20
3.30999999999958
30
0
41
1
10
56.7124003722646
20
3.30999999999958
30
0
41
1
10
56.7618943618587
20
3.30999999999958
30
0
41
1
10
56.8631775421214
20
3.30999999999958
30
0
41
1
10
56.9155629705215
20
3.30999999999958
30
0
41
1
10
57.0194812364753
20
3.30999999999958
30
0
41
1
10
57.0708745628701
20
3.30999999999958
30
0
41
1
10
57.1725394870883
20
3.30999999999958
30
0
41
1
10
57.2230142736148
20
3.30999999999958
30
0
41
1
10
57.318484513525
20
3.30999999999958
30
0
41
1
10
57.3640469012696
20
3.30999999999958
30
0
41
1
10
57.4507439713506
20
3.30999999999958
30
0
41
1
10
57.4910239340071
20
3.30999999999958
30
0
41
1
10
57.5275691536697
20
3.30999999999958
30
0
0
SPLINE
5
190
100
AcDbEntity
8
1
62
256
6
ByLayer
370
13
48
1
60
0
100
AcDbSpline
70
4
71
3
72
10
73
6
40
0
40
0
40
0
40
0
40
0.5
40
0.5
40
1
40
1
40
1
40
1
41
1
10
51.4763226234825
20
9.58452454146183
30
0
41
1
10
51.9899110811667
20
9.71879154978791
30
0
41
1
10
52.5211615926435
20
9.87081419351333
30
0
41
1
10
53.6087766347953
20
10.2205061890496
30
0
41
1
10
54.1657731049798
20
10.4183341913542
30
0
41
1
10
54.729183257824
20
10.6405144006217
30
0
0
SPLINE
5
191
100
AcDbEntity
8
1
62
256
6
ByLayer
370
13
48
1
60
0
100
AcDbSpline
70
4
71
3
72
8
73
4
40
0
40
0
40
0
40
0
40
1
40
1
40
1
40
1
41
1
10
54.729183257825
20
10.640514400621
30
0
41
1
10
55.0014557177083
20
10.4383378429382
30
0
41
1
10
55.2761040270505
20
10.2428199084549
30
0
41
1
10
55.5531962568465
20
10.0541513748759
30
0
0
SPLINE
5
192
100
AcDbEntity
8
1
62
256
6
ByLayer
370
13
48
1
60
0
100
AcDbSpline
70
4
71
3
72
14
73
10
40
0
40
0
40
0
40
0
40
0.25
40
0.25
40
0.5
40
0.5
40
0.75
40
0.75
40
1
40
1
40
1
40
1
41
1
10
50.4257737193952
20
2.45753488628716
30
0
41
1
10
50.4435722767618
20
2.49660598072217
30
0
41
1
10
50.4645496391505
20
2.53399171860815
30
0
41
1
10
50.5128181029562
20
2.60543423520051
30
0
41
1
10
50.5403234184228
20
2.63963345146397
30
0
41
1
10
50.5997337920339
20
2.70231582675819
30
0
41
1
10
50.6318100702765
20
2.73111953525867
30
0
41
1
10
50.700624845454
20
2.78376091120566
30
0
41
1
10
50.7376789766315
20
2.8077296571218
30
0
41
1
10
50.7759496926568
20
2.82847696270736
30
0
0
SPLINE
5
193
100
AcDbEntity
8
1
62
256
6
ByLayer
370
13
48
1
60
0
100
AcDbSpline
70
4
71
3
72
16
73
12
40
0
40
0
40
0
40
0
40
0.125000000000005
40
0.125000000000005
40
0.250000000000009
40
0.250000000000009
40
0.500000000000006
40
0.500000000000006
40
0.750000000000003
40
0.750000000000003
40
1
40
1
40
1
40
1
41
1
10
61.2489251023148
20
-13.3540248618931
30
0
41
1
10
61.2774365456104
20
-13.312454843081
30
0
41
1
10
61.3095351628086
20
-13.268189196964
30
0
41
1
10
61.3785866548292
20
-13.1760088101365
30
0
41
1
10
61.4156009528975
20
-13.1280366783558
30
0
41
1
10
61.532230266865
20
-12.9800230424936
30
0
41
1
10
61.6149571848485
20
-12.8789230813098
30
0
41
1
10
61.7868898526831
20
-12.6737611543113
30
0
41
1
10
61.8761843078294
20
-12.5696549738211
30
0
41
1
10
62.060355937162
20
-12.35913621862
30
0
41
1
10
62.154502682661
20
-12.2535732019819
30
0
41
1
10
62.2502619312375
20
-12.1482165240866
30
0
0
SPLINE
5
194
100
AcDbEntity
8
1
62
256
6
ByLayer
370
13
48
1
60
0
100
AcDbSpline
70
4
71
3
72
8
73
4
40
0
40
0
40
0
40
0
40
1
40
1
40
1
40
1
41
1
10
50.775949692656
20
-11.953938146801
30
0
41
1
10
50.8436356570436
20
-11.9452558349932
30
0
41
1
10
50.9139044122232
20
-11.943836632181
30
0
41
1
10
50.9830118759289
20
-11.9504551013779
30
0
0
SPLINE
5
195
100
AcDbEntity
8
1
62
256
6
ByLayer
370
13
48
1
60
0
100
AcDbSpline
70
4
71
3
72
8
73
4
40
0
40
0
40
0
40
0
40
1
40
1
40
1
40
1
41
1
10
62.2502619312382
20
8.98629688226322
30
0
41
1
10
61.2581113655939
20
9.48936867611889
30
0
41
1
10
60.2621802620172
20
9.99054642079858
30
0
41
1
10
59.2642886896975
20
10.4907419708083
30
0
0
SPLINE
5
196
100
AcDbEntity
8
1
62
256
6
ByLayer
370
13
48
1
60
0
100
AcDbSpline
70
4
71
3
72
8
73
4
40
0
40
0
40
0
40
0
40
1
40
1
40
1
40
1
41
1
10
57.5275691536698
20
7.30999999999958
30
0
41
1
10
58.3516462197817
20
7.30999999999958
30
0
41
1
10
59.1692303915978
20
7.30999999999958
30
0
41
1
10
59.9760387084377
20
7.30999999999958
30
0
0
SPLINE
5
197
100
AcDbEntity
8
1
62
256
6
ByLayer
370
13
48
1
60
0
100
AcDbSpline
70
4
71
3
72
20
73
16
40
0
40
0
40
0
40
0
40
0.249999999999997
40
0.249999999999997
40
0.374999999999996
40
0.374999999999996
40
0.437499999999995
40
0.437499999999995
40
0.499999999999995
40
0.499999999999995
40
0.749999999999995
40
0.749999999999995
40
0.874999999999998
40
0.874999999999998
40
1
40
1
40
1
40
1
41
1
10
45.0899677562096
20
12.0269247584799
30
0
41
1
10
45.3722057085109
20
11.8981569513133
30
0
41
1
10
45.7026396324993
20
11.7291440368587
30
0
41
1
10
46.2798001263827
20
11.4383007419028
30
0
41
1
10
46.4857698936597
20
11.3350906321518
30
0
41
1
10
46.8162936486797
20
11.1735357743638
30
0
41
1
10
46.9302546538682
20
11.1184741042318
30
0
41
1
10
47.162801083416
20
11.0078421603144
30
0
41
1
10
47.2816786712834
20
10.9521266209467
30
0
41
1
10
47.888899255586
20
10.672684215771
30
0
41
1
10
48.41562544472
20
10.4466225607341
30
0
41
1
10
49.2647988936371
20
10.1217604433241
30
0
41
1
10
49.5581756298765
20
10.0156853599809
30
0
41
1
10
50.1569180471814
20
9.81316772666216
30
0
41
1
10
50.4631302221782
20
9.71637575053424
30
0
41
1
10
50.7759496926574
20
9.62493389343049
30
0
0
SPLINE
5
198
100
AcDbEntity
8
1
62
256
6
ByLayer
370
13
48
1
60
0
100
AcDbSpline
70
4
71
3
72
8
73
4
40
0
40
0
40
0
40
0
40
1
40
1
40
1
40
1
41
1
10
52.100195074011
20
3.30999999999963
30
0
41
1
10
52.0827620390365
20
3.32994249642948
30
0
41
1
10
52.0653684535751
20
3.34988173480247
30
0
41
1
10
52.0480148308023
20
3.36981767273633
30
0
0
SPLINE
5
199
100
AcDbEntity
8
1
62
256
6
ByLayer
370
13
48
1
60
0
100
AcDbSpline
70
4
71
3
72
18
73
14
40
0
40
0
40
0
40
0
40
0.125000000000002
40
0.125000000000002
40
0.250000000000004
40
0.250000000000004
40
0.500000000000002
40
0.500000000000002
40
0.750000000000001
40
0.750000000000001
40
0.875000000000001
40
0.875000000000001
40
1
40
1
40
1
40
1
41
1
10
53.9591306835078
20
-13.1055879422538
30
0
41
1
10
53.9361553587683
20
-13.0797743240264
30
0
41
1
10
53.914601767307
20
-13.0535710279411
30
0
41
1
10
53.8742015864867
20
-13.0004033835661
30
0
41
1
10
53.8551827004128
20
-12.9731360432943
30
0
41
1
10
53.8044821331167
20
-12.8933457471309
30
0
41
1
10
53.7781689983364
20
-12.8413078476484
30
0
41
1
10
53.7440217250112
20
-12.7480263300411
30
0
41
1
10
53.735874122888
20
-12.7060009523867
30
0
41
1
10
53.7372902636117
20
-12.6544360604699
30
0
41
1
10
53.7400316009038
20
-12.638860611209
30
0
41
1
10
53.7498416496364
20
-12.6120604726853
30
0
41
1
10
53.7568750578295
20
-12.6007367867456
30
0
41
1
10
53.7660716714019
20
-12.5915401731732
30
0
0
SPLINE
5
19A
100
AcDbEntity
8
1
62
256
6
ByLayer
370
13
48
1
60
0
100
AcDbSpline
70
4
71
3
72
65
73
61
40
0
40
0
40
0
40
0
40
0.0312500000000008
40
0.0312500000000008
40
0.0625000000000015
40
0.0625000000000015
40
0.0937500000000023
40
0.0937500000000023
40
0.125000000000003
40
0.125000000000003
40
0.156250000000004
40
0.156250000000004
40
0.187500000000004
40
0.187500000000004
40
0.218750000000005
40
0.218750000000005
40
0.250000000000006
40
0.250000000000006
40
0.281250000000006
40
0.281250000000006
40
0.312500000000007
40
0.312500000000007
40
0.343750000000008
40
0.343750000000008
40
0.375000000000008
40
0.375000000000008
40
0.406250000000009
40
0.406250000000009
40
0.43750000000001
40
0.43750000000001
40
0.500000000000006
40
0.500000000000006
40
0.531250000000006
40
0.531250000000006
40
0.562500000000007
40
0.562500000000007
40
0.593750000000008
40
0.593750000000008
40
0.625000000000008
40
0.625000000000008
40
0.687500000000007
40
0.687500000000007
40
0.718750000000006
40
0.718750000000006
40
0.750000000000005
40
0.750000000000005
40
0.781250000000004
40
0.781250000000004
40
0.812500000000004
40
0.812500000000004
40
0.843750000000003
40
0.843750000000003
40
0.875000000000002
40
0.906250000000002
40
0.906250000000002
40
0.937500000000001
40
0.937500000000001
40
0.968750000000001
40
0.968750000000001
40
1
40
1
40
1
40
1
41
1
10
47.7545880747422
20
-2.50000000000043
30
0
41
1
10
47.7024988416576
20
-2.45086044910082
30
0
41
1
10
47.6530600001953
20
-2.39863095274475
30
0
41
1
10
47.5605736861207
20
-2.28677058455432
30
0
41
1
10
47.5181290819432
20
-2.22778153539016
30
0
41
1
10
47.443112727723
20
-2.1046431395894
30
0
41
1
10
47.4103269267716
20
-2.0402634760419
30
0
41
1
10
47.355907156631
20
-1.90486988553096
30
0
41
1
10
47.3348011027273
20
-1.83487671818281
30
0
41
1
10
47.3065870346385
20
-1.69301628250685
30
0
41
1
10
47.2993022468975
20
-1.62005113094673
30
0
41
1
10
47.2997536270859
20
-1.4741645382359
30
0
41
1
10
47.3073449190691
20
-1.40236202819568
30
0
41
1
10
47.3364886996202
20
-1.26093372664698
30
0
41
1
10
47.3583757881465
20
-1.19074069939737
30
0
41
1
10
47.4137213912497
20
-1.05748121373409
30
0
41
1
10
47.4471694099898
20
-0.993889135016047
30
0
41
1
10
47.5242835690648
20
-0.87213721965432
30
0
41
1
10
47.5676836881771
20
-0.814540818923234
30
0
41
1
10
47.6606951683922
20
-0.707376957810112
30
0
41
1
10
47.7105873722132
20
-0.657378617811901
30
0
41
1
10
47.8161644277531
20
-0.563688352475083
30
0
41
1
10
47.8722185527398
20
-0.519771763449029
30
0
41
1
10
47.9871671592797
20
-0.439395279800863
30
0
41
1
10
48.0461265325571
20
-0.402803564744886
30
0
41
1
10
48.1664079301137
20
-0.336072107806615
30
0
41
1
10
48.2277327229292
20
-0.305935025952124
30
0
41
1
10
48.3522962238816
20
-0.251876318568605
30
0
41
1
10
48.4158667222154
20
-0.227850174453351
30
0
41
1
10
48.6064679879054
20
-0.166241561727503
30
0
41
1
10
48.7320899969124
20
-0.139040176400926
30
0
41
1
10
48.9147124245426
20
-0.122377961248816
30
0
41
1
10
48.9743922262432
20
-0.121050090871648
30
0
41
1
10
49.0871816417585
20
-0.127734296693319
30
0
41
1
10
49.1407965964016
20
-0.13568255615445
30
0
41
1
10
49.2422854867606
20
-0.16185681017339
30
0
41
1
10
49.2898376000202
20
-0.180131664230487
30
0
41
1
10
49.3764429426816
20
-0.226295576088404
30
0
41
1
10
49.416177177894
20
-0.254477577193938
30
0
41
1
10
49.5245670162533
20
-0.353199095264728
30
0
41
1
10
49.5811487544001
20
-0.43570212911257
30
0
41
1
10
49.6526867982556
20
-0.584634881032201
30
0
41
1
10
49.6740222977771
20
-0.638228151139742
30
0
41
1
10
49.712052773478
20
-0.750750022936046
30
0
41
1
10
49.7289091496751
20
-0.810018023248318
30
0
41
1
10
49.7592344055347
20
-0.93472790344137
30
0
41
1
10
49.7727517564457
20
-1.00062093985335
30
0
41
1
10
49.7962205974645
20
-1.1346216713464
30
0
41
1
10
49.8062898067723
20
-1.2031192617498
30
0
41
1
10
49.823652263987
20
-1.34309078192652
30
0
41
1
10
49.8309821806043
20
-1.41506817186618
30
0
41
1
10
49.8428919174991
20
-1.5597939028516
30
0
41
1
10
49.8519709861199
20
-1.70375044437205
30
0
41
1
10
49.8560025348886
20
-1.84619728221557
30
0
41
1
10
49.857500638674
20
-1.98787287297111
30
0
41
1
10
49.8569621027821
20
-2.05704307721723
30
0
41
1
10
49.8533290731122
20
-2.19092771251496
30
0
41
1
10
49.8502391568476
20
-2.25586996749718
30
0
41
1
10
49.8411823896687
20
-2.38183780969823
30
0
41
1
10
49.8351969738948
20
-2.44273065014104
30
0
41
1
10
49.8276604524127
20
-2.50000000000048
30
0
0
SPLINE
5
19B
100
AcDbEntity
8
1
62
256
6
ByLayer
370
13
48
1
60
0
100
AcDbSpline
70
4
71
3
72
14
73
10
40
0
40
0
40
0
40
0
40
0.25
40
0.25
40
0.5
40
0.5
40
0.75
40
0.75
40
1
40
1
40
1
40
1
41
1
10
51.1586159617711
20
-11.9837449863989
30
0
41
1
10
51.1795040107666
20
-11.9832770649913
30
0
41
1
10
51.2028249487392
20
-11.984776867287
30
0
41
1
10
51.2520716437044
20
-11.9925532812362
30
0
41
1
10
51.2781369249541
20
-11.9988029680847
30
0
41
1
10
51.3326298236676
20
-12.0172203334801
30
0
41
1
10
51.3613827252892
20
-12.0295747431036
30
0
41
1
10
51.4189186249806
20
-12.0609615211446
30
0
41
1
10
51.4477462212862
20
-12.0799325955298
30
0
41
1
10
51.4763226234821
20
-12.1028318234354
30
0
0
SPLINE
5
19C
100
AcDbEntity
8
1
62
256
6
ByLayer
370
13
48
1
60
0
100
AcDbSpline
70
4
71
3
72
8
73
4
40
0
40
0
40
0
40
0
40
1
40
1
40
1
40
1
41
1
10
50.2867101711801
20
2.10740709871178
30
0
41
1
10
50.3280778151571
20
2.22635406297732
30
0
41
1
10
50.3737424249812
20
2.34331666198136
30
0
41
1
10
50.4257737193955
20
2.45753488628768
30
0
0
SPLINE
5
19D
100
AcDbEntity
8
1
62
256
6
ByLayer
370
13
48
1
60
0
100
AcDbSpline
70
4
71
3
72
14
73
10
40
0
40
0
40
0
40
0
40
0.25
40
0.25
40
0.5
40
0.5
40
0.75
40
0.75
40
1
40
1
40
1
40
1
41
1
10
50.4257737193961
20
-12.0356737006627
30
0
41
1
10
50.4436091784051
20
-12.027679328702
30
0
41
1
10
50.4646001124179
20
-12.0198482888324
30
0
41
1
10
50.5127737868018
20
-12.0045951756358
30
0
41
1
10
50.5402514380052
20
-11.9971118116114
30
0
41
1
10
50.5998039635279
20
-11.9831149363635
30
0
41
1
10
50.6319036845329
20
-11.9765696872465
30
0
41
1
10
50.7006186156586
20
-11.964462725528
30
0
41
1
10
50.7375752522622
20
-11.9588605684594
30
0
41
1
10
50.7759496926568
20
-11.9539381468028
30
0
0
SPLINE
5
19E
100
AcDbEntity
8
1
62
256
6
ByLayer
370
13
48
1
60
0
100
AcDbSpline
70
4
71
3
72
10
73
6
40
0
40
0
40
0
40
0
40
0.500000000000001
40
0.500000000000001
40
1
40
1
40
1
40
1
41
1
10
50.7759496926571
20
9.62493389343047
30
0
41
1
10
50.9097704693574
20
9.58581605871964
30
0
41
1
10
51.0368227386499
20
9.56395593978721
30
0
41
1
10
51.2766764291833
20
9.55100575892868
30
0
41
1
10
51.3833979273215
20
9.56023131452793
30
0
41
1
10
51.4763226234825
20
9.5845245414618
30
0
0
SPLINE
5
19F
100
AcDbEntity
8
1
62
256
6
ByLayer
370
13
48
1
60
0
100
AcDbSpline
70
4
71
3
72
8
73
4
40
0
40
0
40
0
40
0
40
1
40
1
40
1
40
1
41
1
10
62.4444271909999
20
-0.500000000000369
30
0
41
1
10
62.1814004043998
20
-0.500000000000369
30
0
41
1
10
61.9184323688974
20
-0.500000000000369
30
0
41
1
10
61.6555728090001
20
-0.500000000000369
30
0
0
SPLINE
5
1A0
100
AcDbEntity
8
1
62
256
6
ByLayer
370
13
48
1
60
0
100
AcDbSpline
70
4
71
3
72
22
73
18
40
0
40
0
40
0
40
0
40
0.125
40
0.125
40
0.25
40
0.25
40
0.375
40
0.375
40
0.5
40
0.5
40
0.625
40
0.625
40
0.75
40
0.75
40
0.875
40
0.875
40
1
40
1
40
1
40
1
41
1
10
57.5275691536696
20
-15.7993201457357
30
0
41
1
10
57.4921007749385
20
-15.8376551079481
30
0
41
1
10
57.4531292386477
20
-15.8726821350664
30
0
41
1
10
57.3674153837693
20
-15.9353984538368
30
0
41
1
10
57.3220017816916
20
-15.9620694116449
30
0
41
1
10
57.2268764077219
20
-16.0055515435322
30
0
41
1
10
57.1765364608409
20
-16.022565326137
30
0
41
1
10
57.0731429379563
20
-16.0453801715573
30
0
41
1
10
57.0210165774013
20
-16.0510936644685
30
0
41
1
10
56.9159137476033
20
-16.0512532639149
30
0
41
1
10
56.8625009424272
20
-16.0454884466158
30
0
41
1
10
56.7597856310248
20
-16.0230124501064
30
0
41
1
10
56.7099114028096
20
-16.0063907503756
30
0
41
1
10
56.6131343007759
20
-15.9623636185096
30
0
41
1
10
56.5676818412247
20
-15.9355963069781
30
0
41
1
10
56.4827525825754
20
-15.8736101223023
30
0
41
1
10
56.4428535879553
20
-15.8379213196155
30
0
41
1
10
56.4070612640186
20
-15.799224154224
30
0
0
SPLINE
5
1A1
100
AcDbEntity
8
1
62
256
6
ByLayer
370
13
48
1
60
0
100
AcDbSpline
70
4
71
3
72
8
73
4
40
0
40
0
40
0
40
0
40
1
40
1
40
1
40
1
41
1
10
55.5531962568465
20
-10.8044155877286
30
0
41
1
10
55.276009357231
20
-11.0816024873441
30
0
41
1
10
55.0013636289724
20
-11.3562482156027
30
0
41
1
10
54.7291832578239
20
-11.6284285867512
30
0
0
SPLINE
5
1A2
100
AcDbEntity
8
1
62
256
6
ByLayer
370
13
48
1
60
0
100
AcDbSpline
70
4
71
3
72
8
73
4
40
0
40
0
40
0
40
0
40
1
40
1
40
1
40
1
41
1
10
62.2996036573453
20
3.96482087755823
30
0
41
1
10
62.2837439885179
20
3.96204383167998
30
0
41
1
10
62.267287495303
20
3.95889865030304
30
0
41
1
10
62.2502619312382
20
3.95531006496412
30
0
0
SPLINE
5
1A3
100
AcDbEntity
8
1
62
256
6
ByLayer
370
13
48
1
60
0
100
AcDbSpline
70
4
71
3
72
14
73
10
40
0
40
0
40
0
40
0
40
0.25
40
0.25
40
0.5
40
0.5
40
0.75
40
0.75
40
1
40
1
40
1
40
1
41
1
10
50.4257737193967
20
12.0356737006618
30
0
41
1
10
50.4436091784058
20
12.027679328701
30
0
41
1
10
50.4646001124186
20
12.0198482888315
30
0
41
1
10
50.5127737868024
20
12.0045951756349
30
0
41
1
10
50.5402514380058
20
11.9971118116104
30
0
41
1
10
50.5998039635284
20
11.9831149363626
30
0
41
1
10
50.6319036845333
20
11.9765696872456
30
0
41
1
10
50.7006186156589
20
11.9644627255271
30
0
41
1
10
50.7375752522625
20
11.9588605684586
30
0
41
1
10
50.7759496926569
20
11.953938146802
30
0
0
SPLINE
5
1A4
100
AcDbEntity
8
1
62
256
6
ByLayer
370
13
48
1
60
0
100
AcDbSpline
70
4
71
3
72
10
73
6
40
0
40
0
40
0
40
0
40
0.5
40
0.5
40
1
40
1
40
1
40
1
41
1
10
62.55
20
-5.85219463789602
30
0
41
1
10
62.55
20
-5.78098220852036
30
0
41
1
10
62.540914736465
20
-5.70870218301286
30
0
41
1
10
62.5055196517646
20
-5.56956967753567
30
0
41
1
10
62.4793925440373
20
-5.50214610066331
30
0
41
1
10
62.4444271909999
20
-5.43696908029509
30
0
0
SPLINE
5
1A5
100
AcDbEntity
8
1
62
256
6
ByLayer
370
13
48
1
60
0
100
AcDbSpline
70
4
71
3
72
12
73
8
40
0
40
0
40
0
40
0
40
0.499999999999973
40
0.499999999999973
40
0.749999999999986
40
0.749999999999986
40
1
40
1
40
1
40
1
41
1
10
51.1586159617729
20
3.02696599100739
30
0
41
1
10
51.2002609228769
20
3.10109285419946
30
0
41
1
10
51.2513564205259
20
3.17132726436739
30
0
41
1
10
51.3328279625733
20
3.26455987456012
30
0
41
1
10
51.3608906652823
20
3.29379187482169
30
0
41
1
10
51.4183728950538
20
3.34843488046988
30
0
41
1
10
51.4478828591262
20
3.37384063285893
30
0
41
1
10
51.4763226234825
20
3.39591441638737
30
0
0
SPLINE
5
1A6
100
AcDbEntity
8
1
62
256
6
ByLayer
370
13
48
1
60
0
100
AcDbSpline
70
4
71
3
72
18
73
14
40
0
40
0
40
0
40
0
40
0.124999999999997
40
0.124999999999997
40
0.249999999999995
40
0.249999999999995
40
0.499999999999985
40
0.499999999999985
40
0.624999999999983
40
0.624999999999983
40
0.749999999999981
40
0.749999999999981
40
1
40
1
40
1
40
1
41
1
10
62.5500000000004
20
3.72696799927863
30
0
41
1
10
62.5500000000001
20
3.74822355334541
30
0
41
1
10
62.5488011687606
20
3.76870589972637
30
0
41
1
10
62.5437836632358
20
3.80672572747071
30
0
41
1
10
62.539977388623
20
3.82441660252232
30
0
41
1
10
62.5243671711128
20
3.87354730024165
30
0
41
1
10
62.5080132839694
20
3.90126485566722
30
0
41
1
10
62.475576579958
20
3.93234864156724
30
0
41
1
10
62.4634428844976
20
3.94107212388104
30
0
41
1
10
62.4365111076955
20
3.95521065890887
30
0
41
1
10
62.4215826730314
20
3.96064118475277
30
0
41
1
10
62.3739696190531
20
3.97144728056185
30
0
41
1
10
62.3384100900508
20
3.97161592764192
30
0
41
1
10
62.2996036573449
20
3.96482087755814
30
0
0
SPLINE
5
1A7
100
AcDbEntity
8
1
62
256
6
ByLayer
370
13
48
1
60
0
100
AcDbSpline
70
4
71
3
72
20
73
16
40
0
40
0
40
0
40
0
40
0.125000000000002
40
0.125000000000002
40
0.250000000000005
40
0.250000000000005
40
0.375000000000007
40
0.375000000000007
40
0.50000000000001
40
0.50000000000001
40
0.750000000000004
40
0.750000000000004
40
0.875000000000002
40
0.875000000000002
40
1
40
1
40
1
40
1
41
1
10
53.959130683508
20
7.3099999999996
30
0
41
1
10
53.9362491991318
20
7.3099999999996
30
0
41
1
10
53.914447407058
20
7.31356374309837
30
0
41
1
10
53.8740318365808
20
7.32730517239983
30
0
41
1
10
53.8550465555754
20
7.3376598361277
30
0
41
1
10
53.8211947266991
20
7.36427227457898
30
0
41
1
10
53.8062766154134
20
7.38043541539372
30
0
41
1
10
53.7803557747703
20
7.4182601101819
30
0
41
1
10
53.7694901340681
20
7.4398488123856
30
0
41
1
10
53.7439292451903
20
7.51001972117024
30
0
41
1
10
53.7358294718253
20
7.56542680056612
30
0
41
1
10
53.7373256820212
20
7.65386041404025
30
0
41
1
10
53.7400970310933
20
7.68475709798113
30
0
41
1
10
53.749945699579
20
7.74701439412175
30
0
41
1
10
53.7569706057712
20
7.77838484198943
30
0
41
1
10
53.766071671402
20
7.8099999999996
30
0
0
SPLINE
5
1A8
100
AcDbEntity
8
1
62
256
6
ByLayer
370
13
48
1
60
0
100
AcDbSpline
70
4
71
3
72
18
73
14
40
0
40
0
40
0
40
0
40
0.125000000000008
40
0.125000000000008
40
0.250000000000016
40
0.250000000000016
40
0.375000000000025
40
0.375000000000025
40
0.500000000000033
40
0.500000000000033
40
0.750000000000017
40
0.750000000000017
40
1
40
1
40
1
40
1
41
1
10
51.4763226234821
20
-12.1028318234354
30
0
41
1
10
51.5004389203957
20
-12.1221570196402
30
0
41
1
10
51.5251574658031
20
-12.1427019877442
30
0
41
1
10
51.5758069716928
20
-12.1863048701338
30
0
41
1
10
51.6018658760905
20
-12.209491669534
30
0
41
1
10
51.653510364449
20
-12.2569266268475
30
0
41
1
10
51.679290621019
20
-12.2813352288347
30
0
41
1
10
51.7307680208986
20
-12.3315286387655
30
0
41
1
10
51.7566677699206
20
-12.3575248162531
30
0
41
1
10
51.8326706222999
20
-12.436039926511
30
0
41
1
10
51.8806589669649
20
-12.4885575838125
30
0
41
1
10
51.971430721675
20
-12.593764685564
30
0
41
1
10
52.0120433329457
20
-12.6439418319164
30
0
41
1
10
52.0480148308022
20
-12.6914331932733
30
0
0
SPLINE
5
1A9
100
AcDbEntity
8
1
62
256
6
ByLayer
370
13
48
1
60
0
100
AcDbSpline
70
4
71
3
72
18
73
14
40
0
40
0
40
0
40
0
40
0.25
40
0.25
40
0.375
40
0.375
40
0.5
40
0.5
40
0.625
40
0.625
40
0.75
40
0.75
40
1
40
1
40
1
40
1
41
1
10
51.4763226234825
20
3.3959144163874
30
0
41
1
10
51.524479314582
20
3.43329167315565
30
0
41
1
10
51.576152719656
20
3.46228681083073
30
0
41
1
10
51.6533417583709
20
3.48988527557384
30
0
41
1
10
51.6791056313122
20
3.49655138387331
30
0
41
1
10
51.7307032228714
20
3.5047469044876
30
0
41
1
10
51.7566861663757
20
3.50623458518851
30
0
41
1
10
51.8070909270175
20
3.50388406279603
30
0
41
1
10
51.8316949407515
20
3.50010431551388
30
0
41
1
10
51.8797387651289
20
3.48739094170699
30
0
41
1
10
51.9033482481667
20
3.4783640186815
30
0
41
1
10
51.9710872870085
20
3.44384122928395
30
0
41
1
10
52.0117357693156
20
3.41149525946113
30
0
41
1
10
52.0480148308023
20
3.36981767273633
30
0
0
SPLINE
5
1AA
100
AcDbEntity
8
1
62
256
6
ByLayer
370
13
48
1
60
0
100
AcDbSpline
70
4
71
3
72
8
73
4
40
0
40
0
40
0
40
0
40
1
40
1
40
1
40
1
41
1
10
52.1001950740109
20
-12.7600670793586
30
0
41
1
10
52.0827620458199
20
-12.7372221379399
30
0
41
1
10
52.0653684222373
20
-12.714344268174
30
0
41
1
10
52.0480148308022
20
-12.6914331932733
30
0
0
SPLINE
5
1AB
100
AcDbEntity
8
1
62
256
6
ByLayer
370
13
48
1
60
0
100
AcDbSpline
70
4
71
3
72
18
73
14
40
0
40
0
40
0
40
0
40
0.125
40
0.125
40
0.25
40
0.25
40
0.375
40
0.375
40
0.5
40
0.5
40
0.75
40
0.75
40
1
40
1
40
1
40
1
41
1
10
61.248925102315
20
3.30999999999958
30
0
41
1
10
61.2773737599589
20
3.36135165346721
30
0
41
1
10
61.3102131902703
20
3.4085524071707
30
0
41
1
10
61.3799835924814
20
3.49416119253493
30
0
41
1
10
61.41700210919
20
3.53280865334389
30
0
41
1
10
61.4941709119495
20
3.60402471295399
30
0
41
1
10
61.5343357988883
20
3.63656506901609
30
0
41
1
10
61.6172325943512
20
3.69670040960315
30
0
41
1
10
61.6600351277085
20
3.72430160647159
30
0
41
1
10
61.7899249841438
20
3.79971661959223
30
0
41
1
10
61.8790885258774
20
3.8407474966356
30
0
41
1
10
62.061570707595
20
3.90852973819287
30
0
41
1
10
62.1549071523976
20
3.93521153782911
30
0
41
1
10
62.2502619312382
20
3.95531006496412
30
0
0
SPLINE
5
1AC
100
AcDbEntity
8
1
62
256
6
ByLayer
370
13
48
1
60
0
100
AcDbSpline
70
4
71
3
72
8
73
4
40
0
40
0
40
0
40
0
40
1
40
1
40
1
40
1
41
1
10
50.7759496926568
20
2.82847696270738
30
0
41
1
10
50.8434633007999
20
2.86507741351681
30
0
41
1
10
50.9134419954226
20
2.90077761456635
30
0
41
1
10
50.9830118759292
20
2.9353799032919
30
0
0
SPLINE
5
1AD
100
AcDbEntity
8
1
62
256
6
ByLayer
370
13
48
1
60
0
100
AcDbSpline
70
4
71
3
72
8
73
4
40
0
40
0
40
0
40
0
40
1
40
1
40
1
40
1
41
1
10
50.9830118759289
20
-11.9504551013779
30
0
41
1
10
50.9977627103722
20
-11.9518677989095
30
0
41
1
10
51.0124044038795
20
-11.9535676825117
30
0
41
1
10
51.0269300670013
20
-11.9555435186698
30
0
0
SPLINE
5
1AE
100
AcDbEntity
8
1
62
256
6
ByLayer
370
13
48
1
60
0
100
AcDbSpline
70
4
71
3
72
20
73
16
40
0
40
0
40
0
40
0
40
0.124999999999997
40
0.124999999999997
40
0.249999999999994
40
0.249999999999994
40
0.374999999999991
40
0.374999999999991
40
0.499999999999988
40
0.499999999999988
40
0.624999999999984
40
0.624999999999984
40
0.749999999999981
40
0.749999999999981
40
1
40
1
40
1
40
1
41
1
10
60.1691343964009
20
7.80999999999958
30
0
41
1
10
60.1782426705653
20
7.7783642480035
30
0
41
1
10
60.185403808512
20
7.7463064786763
30
0
41
1
10
60.1951805377811
20
7.68413750363831
30
0
41
1
10
60.1978909094867
20
7.65381283897923
30
0
41
1
10
60.1988782337498
20
7.59470547092482
30
0
41
1
10
60.1970886379497
20
7.56578783448919
30
0
41
1
10
60.1890202966095
20
7.511918510567
30
0
41
1
10
60.182773720732
20
7.48666462725814
30
0
41
1
10
60.1656531370569
20
7.43969991007455
30
0
41
1
10
60.1547014313474
20
7.41803583221684
30
0
41
1
10
60.1289549664227
20
7.38050335694433
30
0
41
1
10
60.1140774178019
20
7.36433403054662
30
0
41
1
10
60.0630458636581
20
7.32422418066361
30
0
41
1
10
60.0218338515424
20
7.30999999999958
30
0
41
1
10
59.9760387084377
20
7.30999999999958
30
0
0
SPLINE
5
1AF
100
AcDbEntity
8
1
62
256
6
ByLayer
370
13
48
1
60
0
100
AcDbSpline
70
4
71
3
72
8
73
4
40
0
40
0
40
0
40
0
40
1
40
1
40
1
40
1
41
1
10
53.959130683508
20
7.3099999999996
30
0
41
1
10
54.7657574453288
20
7.3099999999996
30
0
41
1
10
55.5831623418791
20
7.3099999999996
30
0
41
1
10
56.4070612640187
20
7.30999999999958
30
0
0
SPLINE
5
1B0
100
AcDbEntity
8
1
62
256
6
ByLayer
370
13
48
1
60
0
100
AcDbSpline
70
4
71
3
72
20
73
16
40
0
40
0
40
0
40
0
40
0.250000000000005
40
0.250000000000005
40
0.375000000000007
40
0.375000000000007
40
0.437500000000008
40
0.437500000000008
40
0.500000000000009
40
0.500000000000009
40
0.750000000000006
40
0.750000000000006
40
0.875000000000003
40
0.875000000000003
40
1
40
1
40
1
40
1
41
1
10
45.0899677562097
20
-2.50000000000037
30
0
41
1
10
45.3722057085112
20
-3.11947229124289
30
0
41
1
10
45.7026396324994
20
-3.69353282882162
30
0
41
1
10
46.2798001263828
20
-4.48795238902227
30
0
41
1
10
46.4857698936598
20
-4.74163462927621
30
0
41
1
10
46.8162936486799
20
-5.10554916808974
30
0
41
1
10
46.9302546538683
20
-5.22423693792123
30
0
41
1
10
47.1628010834161
20
-5.4534877797258
30
0
41
1
10
47.2816786712835
20
-5.56439514630893
30
0
41
1
10
47.8888992555861
20
-6.10124235599284
30
0
41
1
10
48.4156254447201
20
-6.47441518256528
30
0
41
1
10
49.2647988936372
20
-6.96312778916467
30
0
41
1
10
49.5581756298766
20
-7.11423781880916
30
0
41
1
10
50.1569180471815
20
-7.3910805800713
30
0
41
1
10
50.4631302221795
20
-7.51735454854298
30
0
41
1
10
50.7759496926587
20
-7.63266445569593
30
0
0
SPLINE
5
1B1
100
AcDbEntity
8
1
62
256
6
ByLayer
370
13
48
1
60
0
100
AcDbSpline
70
4
71
3
72
20
73
16
40
0
40
0
40
0
40
0
40
0.25
40
0.25
40
0.375
40
0.375
40
0.5
40
0.5
40
0.625
40
0.625
40
0.75
40
0.75
40
0.875
40
0.875
40
1
40
1
40
1
40
1
41
1
10
60.1691343964008
20
-12.5919266025369
30
0
41
1
10
60.1875539373486
20
-12.6103461434847
30
0
41
1
10
60.19739391894
20
-12.6371208538255
30
0
41
1
10
60.1988806366112
20
-12.6891310849039
30
0
41
1
10
60.1971178876028
20
-12.7080471922469
30
0
41
1
10
60.1891142194485
20
-12.7490239622069
30
0
41
1
10
60.1827893562495
20
-12.7713092286478
30
0
41
1
10
60.1656093119326
20
-12.8182976211019
30
0
41
1
10
60.1549013903309
20
-12.842698727983
30
0
41
1
10
60.129215540181
20
-12.8933713651393
30
0
41
1
10
60.1140050057597
20
-12.9199912995701
30
0
41
1
10
60.0801733787914
20
-12.9732561571456
30
0
41
1
10
60.0616024999963
20
-12.9999098856742
30
0
41
1
10
60.02108649925
20
-13.0532959490489
30
0
41
1
10
59.999057656586
20
-13.0800832721669
30
0
41
1
10
59.9760387084377
20
-13.1059376957603
30
0
0
SPLINE
5
1B2
100
AcDbEntity
8
1
62
256
6
ByLayer
370
13
48
1
60
0
100
AcDbSpline
70
4
71
3
72
8
73
4
40
0
40
0
40
0
40
0
40
1
40
1
40
1
40
1
41
1
10
53.9591306835078
20
-13.1055879422538
30
0
41
1
10
54.7654312882406
20
-14.0114961817702
30
0
41
1
10
55.5830895894428
20
-14.908380401652
30
0
41
1
10
56.4070612640186
20
-15.7992241542239
30
0
0
SPLINE
5
1B3
100
AcDbEntity
8
1
62
256
6
ByLayer
370
13
48
1
60
0
100
AcDbSpline
70
4
71
3
72
18
73
14
40
0
40
0
40
0
40
0
40
0.250000000000005
40
0.250000000000005
40
0.375000000000007
40
0.375000000000007
40
0.500000000000009
40
0.500000000000009
40
0.625000000000012
40
0.625000000000012
40
0.750000000000014
40
0.750000000000014
40
1
40
1
40
1
40
1
41
1
10
56.9674098192196
20
-10.2186291501017
30
0
41
1
10
56.8296732433562
20
-10.2186291501017
30
0
41
1
10
56.6950743892747
20
-10.2327001560146
30
0
41
1
10
56.4975368728888
20
-10.2734454689816
30
0
41
1
10
56.4321536637704
20
-10.2904158834096
30
0
41
1
10
56.3040754692777
20
-10.3306426316168
30
0
41
1
10
56.2420339851344
20
-10.3536586192225
30
0
41
1
10
56.1216337586347
20
-10.4050834415341
30
0
41
1
10
56.0632762107448
20
-10.4334939719004
30
0
41
1
10
55.9500675268119
20
-10.4954983232333
30
0
41
1
10
55.894993870316
20
-10.5292522961614
30
0
41
1
10
55.7367614731627
20
-10.6369259109582
30
0
41
1
10
55.6407267265726
20
-10.7168851180026
30
0
41
1
10
55.5531962568466
20
-10.8044155877286
30
0
0
SPLINE
5
1B4
100
AcDbEntity
8
1
62
256
6
ByLayer
370
13
48
1
60
0
100
AcDbSpline
70
4
71
3
72
18
73
14
40
0
40
0
40
0
40
0
40
0.124999999999995
40
0.124999999999995
40
0.24999999999999
40
0.24999999999999
40
0.374999999999985
40
0.374999999999985
40
0.499999999999981
40
0.499999999999981
40
0.74999999999999
40
0.74999999999999
40
1
40
1
40
1
40
1
41
1
10
62.5500000000003
20
-11.4717876359474
30
0
41
1
10
62.5500000000003
20
-11.4943233819477
30
0
41
1
10
62.5487987594159
20
-11.5181648757693
30
0
41
1
10
62.5437693311405
20
-11.5669050105904
30
0
41
1
10
62.5399598277001
20
-11.5918725964676
30
0
41
1
10
62.5295937380724
20
-11.6429390821145
30
0
41
1
10
62.5230383000462
20
-11.6690378597586
30
0
41
1
10
62.5069549457331
20
-11.7223717871431
30
0
41
1
10
62.4973367338844
20
-11.7497911268844
30
0
41
1
10
62.4647160796595
20
-11.8311592899635
30
0
41
1
10
62.4378438565578
20
-11.8848965145498
30
0
41
1
10
62.3739558031497
20
-11.9914761565088
30
0
41
1
10
62.3381810927431
20
-12.0422098694803
30
0
41
1
10
62.2996036573434
20
-12.0904041550593
30
0
0
SPLINE
5
1B5
100
AcDbEntity
8
1
62
256
6
ByLayer
370
13
48
1
60
0
100
AcDbSpline
70
4
71
3
72
8
73
4
40
0
40
0
40
0
40
0
40
1
40
1
40
1
40
1
41
1
10
50.9830118759292
20
2.93537990329187
30
0
41
1
10
50.9977387713085
20
2.94270468640545
30
0
41
1
10
51.012380792992
20
2.95021223943323
30
0
41
1
10
51.0269300670018
20
2.95792017131564
30
0
0
SPLINE
5
1B6
100
AcDbEntity
8
1
62
256
6
ByLayer
370
13
48
1
60
0
100
AcDbSpline
70
4
71
3
72
10
73
6
40
0
40
0
40
0
40
0
40
0.522329685364417
40
0.522329685364417
40
1
40
1
40
1
40
1
41
1
10
62.5500000000004
20
11.4717876359464
30
0
41
1
10
62.5500000000004
20
11.4943233819467
30
0
41
1
10
62.5487987594161
20
11.5181648757683
30
0
41
1
10
62.5439843400787
20
11.5648213613049
30
0
41
1
10
62.5406017901416
20
11.5876074898671
30
0
41
1
10
62.5360761655016
20
11.6108689610202
30
0
0
SPLINE
5
1B7
100
AcDbEntity
8
1
62
256
6
ByLayer
370
13
48
1
60
0
100
AcDbSpline
70
4
71
3
72
16
73
12
40
0
40
0
40
0
40
0
40
0.172913362543249
40
0.172913362543249
40
0.345826725086499
40
0.345826725086499
40
0.691653450172972
40
0.691653450172972
40
0.864566812716197
40
0.864566812716197
40
1
40
1
40
1
40
1
41
1
10
46.9750801075365
20
-12.2738306630885
30
0
41
1
10
46.8813383957944
20
-12.2738306630885
30
0
41
1
10
46.7866301675505
20
-12.2740214690088
30
0
41
1
10
46.5992276833162
20
-12.2747589553641
30
0
41
1
10
46.5067115607336
20
-12.2753022727215
30
0
41
1
10
46.2327297109005
20
-12.2773161099323
30
0
41
1
10
46.0547648160825
20
-12.2792079314034
30
0
41
1
10
45.7958923802511
20
-12.2817762058838
30
0
41
1
10
45.7114587154505
20
-12.2825711548992
30
0
41
1
10
45.5676040482342
20
-12.2835865354587
30
0
41
1
10
45.5064032260153
20
-12.2838982119214
30
0
41
1
10
45.4473026894831
20
-12.2839857548998
30
0
0
SPLINE
5
1B8
100
AcDbEntity
8
1
62
256
6
ByLayer
370
13
48
1
60
0
100
AcDbSpline
70
4
71
3
72
8
73
4
40
0
40
0
40
0
40
0
40
1
40
1
40
1
40
1
41
1
10
51.5018823119446
20
2.29252976955709
30
0
41
1
10
51.4725431924344
20
2.32403695490254
30
0
41
1
10
51.4448845745437
20
2.35752237279064
30
0
41
1
10
51.4192177798759
20
2.39320941820733
30
0
0
SPLINE
5
1B9
100
AcDbEntity
8
1
62
256
6
ByLayer
370
13
48
1
60
0
100
AcDbSpline
70
4
71
3
72
14
73
10
40
0
40
0
40
0
40
0
40
0.179271586214491
40
0.179271586214491
40
0.589635793107242
40
0.589635793107242
40
0.794817896553621
40
0.794817896553621
40
1
40
1
40
1
40
1
41
1
10
61.8972465280825
20
3.31674280793098
30
0
41
1
10
61.8872899751071
20
3.34209337732659
30
0
41
1
10
61.8774890747895
20
3.36630890238578
30
0
41
1
10
61.8467072715315
20
3.44074333939369
30
0
41
1
10
61.8278674431997
20
3.48359187299155
30
0
41
1
10
61.8053856984745
20
3.53677762868543
30
0
41
1
10
61.7988536569484
20
3.55269817864067
30
0
41
1
10
61.7885616844451
20
3.58032488050998
30
0
41
1
10
61.7847475336622
20
3.59214780314406
30
0
41
1
10
61.7824679581902
20
3.60227805334844
30
0
0
SPLINE
5
1BA
100
AcDbEntity
8
1
62
256
6
ByLayer
370
18
48
1
60
0
100
AcDbSpline
70
4
71
1
72
4
73
2
40
0
40
0
40
1
40
1
41
1
10
62.5500050175016
20
-1.80457066306047
30
0
41
1
10
62.9999999975723
20
1.630563702E-07
30
0
0
SPLINE
5
1BB
100
AcDbEntity
8
1
62
256
6
ByLayer
370
18
48
1
60
0
100
AcDbSpline
70
4
71
1
72
4
73
2
40
0
40
0
40
1
40
1
41
1
10
51.7602144859206
20
3.31000000000526
30
0
41
1
10
50.9348196408668
20
-1.630565407E-07
30
0
0
SPLINE
5
1BC
100
AcDbEntity
8
1
62
256
6
ByLayer
370
18
48
1
60
0
100
AcDbSpline
70
4
71
1
72
4
73
2
40
0
40
0
40
1
40
1
41
1
10
62.9999999975723
20
-1.630565691E-07
30
0
41
1
10
62.1746051525186
20
3.31000000000526
30
0
0
SPLINE
5
1BD
100
AcDbEntity
8
1
62
256
6
ByLayer
370
18
48
1
60
0
100
AcDbSpline
70
4
71
2
72
6
73
3
40
0
40
0
40
0
40
1
40
1
40
1
41
1
10
59.9283372881153
20
-0.200000000000131
30
0
41
1
10
61.4641686226868
20
-0.0999999986870534
30
0
41
1
10
62.9999999576545
20
-3.257696E-10
30
0
0
SPLINE
5
1BE
100
AcDbEntity
8
1
62
256
6
ByLayer
370
18
48
1
60
0
100
AcDbSpline
70
4
71
2
72
6
73
3
40
0
40
0
40
0
40
1
40
1
40
1
41
1
10
50.9348196807846
20
-3.257412E-10
30
0
41
1
10
52.470651015728
20
-0.099999998680488
30
0
41
1
10
54.0064823503238
20
-0.200000000000131
30
0
0
LINE
5
81
100
AcDbEntity
8
1
62
256
6
ByLayer
370
18
48
1
60
0
100
AcDbLine
10
55.977363
20
-0.221221
30
0
11
56.163978
21
-0.221221
31
0
39
0
210
0
220
0
230
1
0
LINE
5
82
100
AcDbEntity
8
1
62
256
6
ByLayer
370
13
48
1
60
0
100
AcDbLine
10
50.147152
20
11.962333
30
0
11
49.835654
21
12.273831
31
0
39
0
210
0
220
0
230
1
0
LINE
5
83
100
AcDbEntity
8
1
62
256
6
ByLayer
370
13
48
1
60
0
100
AcDbLine
10
60.169134
20
7.81
30
0
11
58.381623
21
7.81
31
0
39
0
210
0
220
0
230
1
0
LINE
5
84
100
AcDbEntity
8
1
62
256
6
ByLayer
370
13
48
1
60
0
100
AcDbLine
10
46.97508
20
0.5
30
0
11
49.835654
21
0.5
31
0
39
0
210
0
220
0
230
1
0
LINE
5
85
100
AcDbEntity
8
1
62
256
6
ByLayer
370
13
48
1
60
0
100
AcDbLine
10
46.97508
20
12.273831
30
0
11
49.835654
21
12.273831
31
0
39
0
210
0
220
0
230
1
0
LINE
5
86
100
AcDbEntity
8
1
62
256
6
ByLayer
370
13
48
1
60
0
100
AcDbLine
10
53.959131
20
-13.105588
30
0
11
55.90675
21
-11.157969
31
0
39
0
210
0
220
0
230
1
0
LINE
5
87
100
AcDbEntity
8
1
62
256
6
ByLayer
370
13
48
1
60
0
100
AcDbLine
10
50.147152
20
0.5
30
0
11
49.835654
21
0.5
31
0
39
0
210
0
220
0
230
1
0
LINE
5
88
100
AcDbEntity
8
1
62
256
6
ByLayer
370
13
48
1
60
0
100
AcDbLine
10
62.55
20
11.158456
30
0
11
62.55
21
9.204381
31
0
39
0
210
0
220
0
230
1
0
LINE
5
89
100
AcDbEntity
8
1
62
256
6
ByLayer
370
13
48
1
60
0
100
AcDbLine
10
59.264289
20
10.490742
30
0
11
58.381623
21
9.981135
31
0
39
0
210
0
220
0
230
1
0
LINE
5
8A
100
AcDbEntity
8
1
62
256
6
ByLayer
370
13
48
1
60
0
100
AcDbLine
10
58.381623
20
9.981135
30
0
11
58.381623
21
7.81
31
0
39
0
210
0
220
0
230
1
0
LINE
5
8B
100
AcDbEntity
8
1
62
256
6
ByLayer
370
13
48
1
60
0
100
AcDbLine
10
45.089968
20
-2.5
30
0
11
47.754588
21
-2.5
31
0
39
0
210
0
220
0
230
1
0
LINE
5
8C
100
AcDbEntity
8
1
62
256
6
ByLayer
370
13
48
1
60
0
100
AcDbLine
10
55.553196
20
7.81
30
0
11
53.766072
21
7.81
31
0
39
0
210
0
220
0
230
1
0
LINE
5
8D
100
AcDbEntity
8
1
62
256
6
ByLayer
370
13
48
1
60
0
100
AcDbLine
10
62.55
20
11.158456
30
0
11
62.55
21
11.471788
31
0
39
0
210
0
220
0
230
1
0
LINE
5
8E
100
AcDbEntity
8
1
62
256
6
ByLayer
370
13
48
1
60
0
100
AcDbLine
10
55.553196
20
10.054151
30
0
11
55.553196
21
7.81
31
0
39
0
210
0
220
0
230
1
0
LINE
5
8F
100
AcDbEntity
8
1
62
256
6
ByLayer
370
13
48
1
60
0
100
AcDbLine
10
56.96741
20
-10.218629
30
0
11
56.96741
21
-2.5
31
0
39
0
210
0
220
0
230
1
0
LINE
5
90
100
AcDbEntity
8
1
62
256
6
ByLayer
370
13
48
1
60
0
100
AcDbLine
10
54.729183
20
-11.628429
30
0
11
53.766072
21
-12.59154
31
0
39
0
210
0
220
0
230
1
0
LINE
5
91
100
AcDbEntity
8
1
62
256
6
ByLayer
370
13
48
1
60
0
100
AcDbLine
10
58.381623
20
-10.804416
30
0
11
58.02807
21
-11.157969
31
0
39
0
210
0
220
0
230
1
0
LINE
5
92
100
AcDbEntity
8
1
62
256
6
ByLayer
370
13
48
1
60
0
100
AcDbLine
10
61.55
20
-3.502427
30
0
11
61.55
21
-2.5
31
0
39
0
210
0
220
0
230
1
0
LINE
5
93
100
AcDbEntity
8
1
62
256
6
ByLayer
370
13
48
1
60
0
100
AcDbLine
10
58.381623
20
-10.804416
30
0
11
59.264289
21
-11.687081
31
0
39
0
210
0
220
0
230
1
0
LINE
5
94
100
AcDbEntity
8
1
62
256
6
ByLayer
370
13
48
1
60
0
100
AcDbLine
10
58.02807
20
-11.157969
30
0
11
59.976039
21
-13.105938
31
0
39
0
210
0
220
0
230
1
0
LINE
5
95
100
AcDbEntity
8
1
62
256
6
ByLayer
370
13
48
1
60
0
100
AcDbLine
10
50.77595
20
-11.953938
30
0
11
50.77595
21
-7.632664
31
0
39
0
210
0
220
0
230
1
0
LINE
5
96
100
AcDbEntity
8
1
62
256
6
ByLayer
370
13
48
1
60
0
100
AcDbLine
10
49.82766
20
-2.5
30
0
11
56.96741
21
-2.5
31
0
39
0
210
0
220
0
230
1
0
LINE
5
97
100
AcDbEntity
8
1
62
256
6
ByLayer
370
13
48
1
60
0
100
AcDbLine
10
62.55
20
3.726968
30
0
11
62.55
21
3
31
0
39
0
210
0
220
0
230
1
0
LINE
5
98
100
AcDbEntity
8
1
62
256
6
ByLayer
370
13
48
1
60
0
100
AcDbLine
10
57.527569
20
7.31
30
0
11
57.527569
21
3.31
31
0
39
0
210
0
220
0
230
1
0
LINE
5
99
100
AcDbEntity
8
1
62
256
6
ByLayer
370
13
48
1
60
0
100
AcDbLine
10
50.28671
20
12.101891
30
0
11
50.147152
21
11.962333
31
0
39
0
210
0
220
0
230
1
0
LINE
5
9A
100
AcDbEntity
8
1
62
256
6
ByLayer
370
13
48
1
60
0
100
AcDbLine
10
62.55
20
8.616523
30
0
11
62.55
21
3.726968
31
0
39
0
210
0
220
0
230
1
0
LINE
5
9B
100
AcDbEntity
8
1
62
256
6
ByLayer
370
13
48
1
60
0
100
AcDbLine
10
62.55
20
-8.440838
30
0
11
62.55
21
-11.471788
31
0
39
0
210
0
220
0
230
1
0
LINE
5
9C
100
AcDbEntity
8
1
62
256
6
ByLayer
370
13
48
1
60
0
100
AcDbLine
10
62.250262
20
-12.148217
30
0
11
62.250262
21
-9.081306
31
0
39
0
210
0
220
0
230
1
0
LINE
5
9D
100
AcDbEntity
8
1
62
256
6
ByLayer
370
13
48
1
60
0
100
AcDbLine
10
56.407061
20
3.31
30
0
11
56.407061
21
7.31
31
0
39
0
210
0
220
0
230
1
0
LINE
5
9E
100
AcDbEntity
8
1
62
256
6
ByLayer
370
13
48
1
60
0
100
AcDbLine
10
50.77595
20
2.828477
30
0
11
50.77595
21
9.624934
31
0
39
0
210
0
220
0
230
1
0
LINE
5
9F
100
AcDbEntity
8
1
62
256
6
ByLayer
370
13
48
1
60
0
100
AcDbLine
10
55.553196
20
7.81
30
0
11
58.381623
21
7.81
31
0
39
0
210
0
220
0
230
1
0
LINE
5
A0
100
AcDbEntity
8
1
62
256
6
ByLayer
370
13
48
1
60
0
100
AcDbLine
10
61.55
20
-2.5
30
0
11
56.96741
21
-2.5
31
0
39
0
210
0
220
0
230
1
0
LINE
5
A1
100
AcDbEntity
8
1
62
256
6
ByLayer
370
13
48
1
60
0
100
AcDbLine
10
50.147152
20
0.5
30
0
11
50.28671
21
2.107407
31
0
39
0
210
0
220
0
230
1
0
LINE
5
A2
100
AcDbEntity
8
1
62
256
6
ByLayer
370
13
48
1
60
0
100
AcDbLine
10
51.476323
20
9.584525
30
0
11
51.476323
21
3.395914
31
0
39
0
210
0
220
0
230
1
0
LINE
5
A3
100
AcDbEntity
8
1
62
256
6
ByLayer
370
13
48
1
60
0
100
AcDbLine
10
62.55
20
-5.852195
30
0
11
62.55
21
-8.440838
31
0
39
0
210
0
220
0
230
1
0
LINE
5
A4
100
AcDbEntity
8
1
62
256
6
ByLayer
370
13
48
1
60
0
100
AcDbLine
10
60.169134
20
-12.591927
30
0
11
59.264289
21
-11.687081
31
0
39
0
210
0
220
0
230
1
0
LINE
5
A5
100
AcDbEntity
8
1
62
256
6
ByLayer
370
13
48
1
60
0
100
AcDbLine
10
46.97508
20
-12.273831
30
0
11
49.835654
21
-12.273831
31
0
39
0
210
0
220
0
230
1
0
LINE
5
A6
100
AcDbEntity
8
1
62
256
6
ByLayer
370
13
48
1
60
0
100
AcDbLine
10
56.407061
20
-17.090801
30
0
11
56.407061
21
-15.799224
31
0
39
0
210
0
220
0
230
1
0
LINE
5
A7
100
AcDbEntity
8
1
62
256
6
ByLayer
370
13
48
1
60
0
100
AcDbLine
10
57.527569
20
-15.79932
30
0
11
57.527569
21
-17.09089
31
0
39
0
210
0
220
0
230
1
0
LINE
5
A8
100
AcDbEntity
8
1
62
256
6
ByLayer
370
13
48
1
60
0
100
AcDbLine
10
51.476323
20
-8.133121
30
0
11
51.476323
21
-12.102832
31
0
39
0
210
0
220
0
230
1
0
LINE
5
A9
100
AcDbEntity
8
1
62
256
6
ByLayer
370
13
48
1
60
0
100
AcDbLine
10
55.90675
20
-11.157969
30
0
11
55.553196
21
-10.804416
31
0
39
0
210
0
220
0
230
1
0
LINE
5
AA
100
AcDbEntity
8
1
62
256
6
ByLayer
370
13
48
1
60
0
100
AcDbLine
10
62.250262
20
3.95531
30
0
11
62.250262
21
8.986297
31
0
39
0
210
0
220
0
230
1
0
LINE
5
AB
100
AcDbEntity
8
1
62
256
6
ByLayer
370
13
48
1
60
0
100
AcDbLine
10
62.55
20
-0.5
30
0
11
62.55
21
-5.876783
31
0
39
0
210
0
220
0
230
1
0
LINE
5
AC
100
AcDbEntity
8
1
62
256
6
ByLayer
370
13
48
1
60
0
100
AcDbLine
10
62.444427
20
-5.45326
30
0
11
62.444427
21
-0.5
31
0
39
0
210
0
220
0
230
1
0
LINE
5
AD
100
AcDbEntity
8
1
62
256
6
ByLayer
370
13
48
1
60
0
100
AcDbLine
10
61.655573
20
-0.5
30
0
11
61.655573
21
-3.961288
31
0
39
0
210
0
220
0
230
1
0
LINE
5
AE
100
AcDbEntity
8
1
62
256
6
ByLayer
370
13
48
1
60
0
100
AcDbLine
10
62.55
20
9.204381
30
0
11
62.55
21
8.616485
31
0
39
0
210
0
220
0
230
1
0
LINE
5
AF
100
AcDbEntity
8
1
62
256
6
ByLayer
370
13
48
1
60
0
100
AcDbLine
10
61.55
20
-2.5
30
0
11
61.55
21
-0.068139
31
0
39
0
210
0
220
0
230
1
0
LINE
5
B0
100
AcDbEntity
8
1
62
256
6
ByLayer
370
13
48
1
60
0
100
AcDbLine
10
62.55
20
3
30
0
11
62.55
21
1.80457
31
0
39
0
210
0
220
0
230
1
0
LINE
5
B1
100
AcDbEntity
8
1
62
256
6
ByLayer
370
13
48
1
60
0
100
AcDbLine
10
62.245664
20
3
30
0
11
62.55
21
3
31
0
39
0
210
0
220
0
230
1
0
LINE
5
B2
100
AcDbEntity
8
1
62
256
6
ByLayer
370
13
48
1
60
0
100
AcDbLine
10
51.06188
20
0.5
30
0
11
50.147152
21
0.5
31
0
39
0
210
0
220
0
230
1
0
LINE
5
B3
100
AcDbEntity
8
1
62
256
6
ByLayer
370
13
48
1
60
0
100
AcDbLine
10
56.96741
20
-2.5
30
0
11
56.96741
21
-0.221239
31
0
39
0
210
0
220
0
230
1
0
LINE
5
B4
100
AcDbEntity
8
1
62
256
6
ByLayer
370
13
48
1
60
0
100
AcDbLine
10
0.419846
20
12.284011
30
0
11
0.419846
21
-12.284011
31
0
39
0
210
0
220
0
230
1
0
LINE
5
B5
100
AcDbEntity
8
1
62
256
6
ByLayer
370
13
48
1
60
0
100
AcDbLine
10
0.066293
20
-12.430457
30
0
11
0.066293
21
12.430457
31
0
39
0
210
0
220
0
230
1
0
LINE
5
B6
100
AcDbEntity
8
SK1
62
256
6
ByLayer
370
13
48
1
60
0
100
AcDbLine
10
-57
20
11.49675
30
0
11
-57
21
-11.49675
31
0
39
0
210
0
220
0
230
1
0
LINE
5
B8
100
AcDbEntity
8
SK1
62
256
6
ByLayer
370
13
48
1
60
0
100
AcDbLine
10
0
20
-12.49675
30
0
11
0
21
12.49675
31
0
39
0
210
0
220
0
230
1
0
LINE
5
B9
100
AcDbEntity
8
SK1
62
256
6
ByLayer
370
13
48
1
60
0
100
AcDbLine
10
-56
20
12.49675
30
0
11
-56
21
-12.49675
31
0
39
0
210
0
220
0
230
1
0
LINE
5
BA
100
AcDbEntity
8
1
62
256
6
ByLayer
370
13
48
1
60
0
100
AcDbLine
10
0
20
-12.49675
30
0
11
0
21
12.49675
31
0
39
0
210
0
220
0
230
1
0
LINE
5
BB
100
AcDbEntity
8
81
62
256
6
ByLayer
370
18
48
1
60
0
100
AcDbLine
10
63
20
12.75
30
0
11
68
21
12.75
31
0
39
0
210
0
220
0
230
1
0
LINE
5
BC
100
AcDbEntity
8
SK4
62
256
6
ByLayer
370
18
48
0.05
60
0
100
AcDbLine
10
-62
20
0
30
0
11
68
21
0
31
0
39
0
210
0
220
0
230
1
0
LINE
5
BE
100
AcDbEntity
8
80
62
256
6
ByLayer
370
18
48
1
60
0
100
AcDbLine
10
0
20
0
30
0
11
-5
21
0
31
0
39
0
210
0
220
0
230
1
0
LINE
5
BF
100
AcDbEntity
8
1
62
256
6
ByLayer
370
13
48
1
60
0
100
AcDbLine
10
0.419846
20
-12.284011
30
0
11
45.461396
21
-12.284011
31
0
39
0
210
0
220
0
230
1
0
LINE
5
C0
100
AcDbEntity
8
1
62
256
6
ByLayer
370
13
48
1
60
0
100
AcDbLine
10
45.461396
20
12.284011
30
0
11
0.419846
21
12.284011
31
0
39
0
210
0
220
0
230
1
0
LINE
5
C1
100
AcDbEntity
8
1
62
256
6
ByLayer
370
13
48
1
60
0
100
AcDbLine
10
0.066293
20
12.430457
30
0
11
0
21
12.49675
31
0
39
0
210
0
220
0
230
1
0
LINE
5
C2
100
AcDbEntity
8
1
62
256
6
ByLayer
370
13
48
1
60
0
100
AcDbLine
10
0
20
-12.49675
30
0
11
0.066293
21
-12.430457
31
0
39
0
210
0
220
0
230
1
0
LINE
5
C3
100
AcDbEntity
8
SK1
62
256
6
ByLayer
370
13
48
1
60
0
100
AcDbLine
10
-57
20
-11.49675
30
0
11
-56
21
-12.49675
31
0
39
0
210
0
220
0
230
1
0
LINE
5
C4
100
AcDbEntity
8
SK1
62
256
6
ByLayer
370
13
48
1
60
0
100
AcDbLine
10
-56
20
12.49675
30
0
11
-57
21
11.49675
31
0
39
0
210
0
220
0
230
1
0
LINE
5
C5
100
AcDbEntity
8
SK1
62
256
6
ByLayer
370
13
48
1
60
0
100
AcDbLine
10
-56
20
-12.49675
30
0
11
0
21
-12.49675
31
0
39
0
210
0
220
0
230
1
0
LINE
5
C6
100
AcDbEntity
8
SK1
62
256
6
ByLayer
370
13
48
1
60
0
100
AcDbLine
10
0
20
12.49675
30
0
11
-56
21
12.49675
31
0
39
0
210
0
220
0
230
1
0
LINE
5
C7
100
AcDbEntity
8
4
62
256
6
ByLayer
370
18
48
0.05
60
0
100
AcDbLine
10
0
20
0
30
0
11
68
21
0
31
0
39
0
210
0
220
0
230
1
0
LINE
5
C9
100
AcDbEntity
8
SK2
62
256
6
ByLayer
370
13
48
1
60
0
100
AcDbLine
10
56.644878
20
19.105122
30
0
11
51.582128
21
24.167872
31
0
39
0
210
0
220
0
230
1
0
LINE
5
CB
100
AcDbEntity
8
SK2
62
256
6
ByLayer
370
13
48
1
60
0
100
AcDbLine
10
63
20
14.3375
30
0
11
63
21
28.89731
31
0
39
0
210
0
220
0
230
1
0
LINE
5
CC
100
AcDbEntity
8
1
62
256
6
ByLayer
370
13
48
1
60
0
100
AcDbLine
10
53.827192
20
21.922808
30
0
11
55.927666
21
24.340109
31
0
39
0
210
0
220
0
230
1
0
LINE
5
CD
100
AcDbEntity
8
1
62
256
6
ByLayer
370
13
48
1
60
0
100
AcDbLine
10
53.827192
20
21.922808
30
0
11
56.48174
21
23.714101
31
0
39
0
210
0
220
0
230
1
0
LINE
5
CE
100
AcDbEntity
8
1
62
256
6
ByLayer
370
13
48
1
60
0
100
AcDbLine
10
55.927666
20
24.340109
30
0
11
56.48174
21
23.714101
31
0
39
0
210
0
220
0
230
1
0
LINE
5
CF
100
AcDbEntity
8
1
62
256
6
ByLayer
370
13
48
1
60
0
100
AcDbLine
10
63
20
25.72231
30
0
11
59.856319
21
25.111896
31
0
39
0
210
0
220
0
230
1
0
LINE
5
D0
100
AcDbEntity
8
1
62
256
6
ByLayer
370
13
48
1
60
0
100
AcDbLine
10
63
20
25.72231
30
0
11
59.805447
21
25.94634
31
0
39
0
210
0
220
0
230
1
0
LINE
5
D1
100
AcDbEntity
8
1
62
256
6
ByLayer
370
13
48
1
60
0
100
AcDbLine
10
59.856319
20
25.111896
30
0
11
59.805447
21
25.94634
31
0
39
0
210
0
220
0
230
1
0
MTEXT
5
1BF
100
AcDbEntity
8
SK2
62
256
6
ByLayer
370
18
48
1
60
0
100
AcDbMText
10
69.52191
20
26.537266
30
0
210
0
220
0
230
1
1
\W1.0427;45%%d
40
4.5
41
0
44
1.084337
50
315.545984196369
71
7
72
5
7
iso_b_vert
0
MTEXT
5
1C2
100
AcDbEntity
8
SK6
62
256
6
ByLayer
370
18
48
1
60
0
100
AcDbMText
10
-16.788
20
-50.819847
30
0
210
0
220
0
230
1
1
\W0.7803;495-025A25-4509H
40
4
41
0
44
1.084337
50
0
71
7
72
5
7
iso_b_vert
0
DIMENSION
5
1C5
100
AcDbEntity
8
2
62
256
6
ByLayer
370
18
48
1
60
0
100
AcDbDimension
2
_U0
10
87.896875
20
12.75
30
0
11
87.896875
21
0
31
0
70
32
71
1
72
1
41
1
210
0
220
0
230
1
3
Standard
100
AcDbAlignedDimension
13
63
23
-12.75
33
0
14
63
24
12.75
34
0
50
90
100
AcDbRotatedDimension
1001
ACAD
1000
DSTYLE
1002
{
1070
   371
1070
    13
1070
   372
1070
    13
1070
   170
1070
     0
1070
   144
1040
1.0
1070
   277
1070
     2
1070
   284
1070
     8
1070
   278
1070
    46
1070
   146
1040
0.777778
1070
   345
1005
16
1070
   347
1005
16
1070
   346
1005
16
1070
   344
1005
1C6
1070
   343
1005
1C6
1070
   172
1070
     1
1070
    76
1070
     0
1070
    75
1070
     0
1070
   282
1070
     0
1070
   281
1070
     0
1070
    71
1070
     0
1070
    74
1070
     0
1070
   279
1070
     0
1070
   173
1070
     1
1070
   340
1005
1C0
1070
   271
1070
     2
1070
   272
1070
     2
1070
    77
1070
     1
1070
    73
1070
     0
1070
   171
1070
     3
1070
   274
1070
     4
1070
   177
1070
   150
1070
   176
1070
     9
1070
   178
1070
    43
1070
    78
1070
     8
1070
    48
1040
-0.1
1070
    41
1040
3.175
1070
   147
1040
2.25
1070
    42
1040
1.5875
1070
    44
1040
3.175
1070
   140
1040
4.5
1002
}
1001
ACAD_DSTYLE_DIM_LINETYPE
1070
   380
1005
16
1001
ACAD_DSTYLE_DIM_EXT1_LINETYPE
1070
   381
1005
16
1001
ACAD_DSTYLE_DIM_EXT2_LINETYPE
1070
   382
1005
16
0
DIMENSION
5
1EB
100
AcDbEntity
8
SK2
62
256
6
ByLayer
370
18
48
1
60
0
100
AcDbDimension
2
_U1
10
0
20
-37.25
30
0
11
31.5
21
-37.25
31
0
70
32
71
1
72
1
41
1
210
0
220
0
230
1
3
Standard
100
AcDbAlignedDimension
13
63
23
-12.75
33
0
14
0
24
0
34
0
50
0
100
AcDbRotatedDimension
1001
ACAD
1000
DSTYLE
1002
{
1070
   371
1070
    13
1070
   372
1070
    13
1070
   170
1070
     0
1070
   144
1040
1.0
1070
   277
1070
     2
1070
   284
1070
     8
1070
   278
1070
    46
1070
   146
1040
0.777778
1070
   345
1005
16
1070
   347
1005
16
1070
   346
1005
16
1070
   344
1005
1C6
1070
   343
1005
1C6
1070
   172
1070
     1
1070
    76
1070
     0
1070
    75
1070
     0
1070
   282
1070
     0
1070
   281
1070
     0
1070
    71
1070
     0
1070
    74
1070
     0
1070
   279
1070
     0
1070
   173
1070
     1
1070
   340
1005
1C0
1070
   271
1070
     2
1070
   272
1070
     2
1070
    77
1070
     1
1070
    73
1070
     1
1070
   171
1070
     3
1070
   274
1070
     4
1070
   177
1070
   150
1070
   176
1070
     9
1070
   178
1070
    43
1070
    78
1070
     8
1070
    48
1040
-0.1
1070
    41
1040
3.175
1070
   147
1040
2.25
1070
    42
1040
1.5875
1070
    44
1040
3.175
1070
   140
1040
4.5
1002
}
1001
ACAD_DSTYLE_DIM_LINETYPE
1070
   380
1005
16
1001
ACAD_DSTYLE_DIM_EXT1_LINETYPE
1070
   381
1005
16
1001
ACAD_DSTYLE_DIM_EXT2_LINETYPE
1070
   382
1005
16
0
DIMENSION
5
207
100
AcDbEntity
8
2
62
256
6
ByLayer
370
18
48
1
60
0
100
AcDbDimension
2
_U2
10
63
20
33.25
30
0
11
3
21
33.25
31
0
70
32
71
1
72
1
41
1
210
0
220
0
230
1
3
Standard
100
AcDbAlignedDimension
13
-57
23
12.5
33
0
14
63
24
12.75
34
0
50
0
100
AcDbRotatedDimension
1001
ACAD
1000
DSTYLE
1002
{
1070
   371
1070
    13
1070
   372
1070
    13
1070
   170
1070
     0
1070
   144
1040
1.0
1070
   277
1070
     2
1070
   284
1070
     8
1070
   278
1070
    46
1070
   146
1040
0.777778
1070
   345
1005
16
1070
   347
1005
16
1070
   346
1005
16
1070
   344
1005
1C6
1070
   343
1005
1C6
1070
   172
1070
     1
1070
    76
1070
     0
1070
    75
1070
     0
1070
   282
1070
     0
1070
   281
1070
     0
1070
    71
1070
     0
1070
    74
1070
     0
1070
   279
1070
     0
1070
   173
1070
     1
1070
   340
1005
1C0
1070
   271
1070
     2
1070
   272
1070
     2
1070
    77
1070
     1
1070
    73
1070
     1
1070
   171
1070
     3
1070
   274
1070
     4
1070
   177
1070
   150
1070
   176
1070
     9
1070
   178
1070
    43
1070
    78
1070
     8
1070
    48
1040
-0.1
1070
    41
1040
3.175
1070
   147
1040
2.25
1070
    42
1040
1.5875
1070
    44
1040
3.175
1070
   140
1040
4.5
1002
}
1001
ACAD_DSTYLE_DIM_LINETYPE
1070
   380
1005
16
1001
ACAD_DSTYLE_DIM_EXT1_LINETYPE
1070
   381
1005
16
1001
ACAD_DSTYLE_DIM_EXT2_LINETYPE
1070
   382
1005
16
0
DIMENSION
5
223
100
AcDbEntity
8
SK2
62
256
6
ByLayer
370
18
48
1
60
0
100
AcDbDimension
2
_U3
10
56.96
20
23.25
30
0
11
-0.02
21
23.25
31
0
70
32
71
1
72
1
41
1
210
0
220
0
230
1
3
Standard
100
AcDbAlignedDimension
13
-57
23
12.5
33
0
14
56.96
24
18.45
34
0
50
0
100
AcDbRotatedDimension
1001
ACAD
1000
DSTYLE
1002
{
1070
   371
1070
    13
1070
   372
1070
    13
1070
   170
1070
     0
1070
   144
1040
1.0
1070
   277
1070
     2
1070
   284
1070
     8
1070
   278
1070
    46
1070
   146
1040
0.777778
1070
   345
1005
16
1070
   347
1005
16
1070
   346
1005
16
1070
   344
1005
1C6
1070
   343
1005
1C6
1070
   172
1070
     1
1070
    76
1070
     0
1070
    75
1070
     0
1070
   282
1070
     0
1070
   281
1070
     0
1070
    71
1070
     0
1070
    74
1070
     0
1070
   279
1070
     0
1070
   173
1070
     1
1070
   340
1005
1C0
1070
   271
1070
     2
1070
   272
1070
     2
1070
    77
1070
     1
1070
    73
1070
     1
1070
   171
1070
     3
1070
   274
1070
     4
1070
   177
1070
   150
1070
   176
1070
     9
1070
   178
1070
    43
1070
    78
1070
     8
1070
    48
1040
-0.1
1070
    41
1040
3.175
1070
   147
1040
2.25
1070
    42
1040
1.5875
1070
    44
1040
3.175
1070
   140
1040
4.5
1002
}
1001
ACAD_DSTYLE_DIM_LINETYPE
1070
   380
1005
16
1001
ACAD_DSTYLE_DIM_EXT1_LINETYPE
1070
   381
1005
16
1001
ACAD_DSTYLE_DIM_EXT2_LINETYPE
1070
   382
1005
16
0
DIMENSION
5
23F
100
AcDbEntity
8
SK2
62
256
6
ByLayer
370
18
48
1
60
0
100
AcDbDimension
2
_U4
10
98.75
20
18.45
30
0
11
98.75
21
0
31
0
70
32
71
1
72
1
41
1
210
0
220
0
230
1
3
Standard
100
AcDbAlignedDimension
13
56.96
23
-18.45
33
0
14
56.96
24
18.45
34
0
50
90
100
AcDbRotatedDimension
1001
ACAD
1000
DSTYLE
1002
{
1070
   371
1070
    13
1070
   372
1070
    13
1070
   170
1070
     0
1070
   144
1040
1.0
1070
   277
1070
     2
1070
   284
1070
     8
1070
   278
1070
    46
1070
   146
1040
0.777778
1070
   345
1005
16
1070
   347
1005
16
1070
   346
1005
16
1070
   344
1005
1C6
1070
   343
1005
1C6
1070
   172
1070
     1
1070
    76
1070
     0
1070
    75
1070
     0
1070
   282
1070
     0
1070
   281
1070
     0
1070
    71
1070
     0
1070
    74
1070
     0
1070
   279
1070
     0
1070
   173
1070
     1
1070
   340
1005
1C0
1070
   271
1070
     2
1070
   272
1070
     2
1070
    77
1070
     1
1070
    73
1070
     0
1070
   171
1070
     3
1070
   274
1070
     4
1070
   177
1070
   150
1070
   176
1070
     9
1070
   178
1070
    43
1070
    78
1070
     8
1070
    48
1040
-0.1
1070
    41
1040
3.175
1070
   147
1040
2.25
1070
    42
1040
1.5875
1070
    44
1040
3.175
1070
   140
1040
4.5
1002
}
1001
ACAD_DSTYLE_DIM_LINETYPE
1070
   380
1005
16
1001
ACAD_DSTYLE_DIM_EXT1_LINETYPE
1070
   381
1005
16
1001
ACAD_DSTYLE_DIM_EXT2_LINETYPE
1070
   382
1005
16
0
DIMENSION
5
25C
100
AcDbEntity
8
SK2
62
256
6
ByLayer
370
18
48
1
60
0
100
AcDbDimension
2
_U5
10
-82.103125
20
-12.5
30
0
11
-82.103125
21
0
31
0
70
32
71
1
72
1
41
1
210
0
220
0
230
1
3
Standard
100
AcDbAlignedDimension
13
-57
23
12.5
33
0
14
-57
24
-12.5
34
0
50
90
100
AcDbRotatedDimension
1001
ACAD
1000
DSTYLE
1002
{
1070
   371
1070
    13
1070
   372
1070
    13
1070
   170
1070
     0
1070
   144
1040
1.0
1070
   277
1070
     2
1070
   284
1070
     8
1070
   278
1070
    46
1070
   146
1040
0.777778
1070
   345
1005
16
1070
   347
1005
16
1070
   346
1005
16
1070
   344
1005
1C6
1070
   343
1005
1C6
1070
   172
1070
     1
1070
    76
1070
     0
1070
    75
1070
     0
1070
   282
1070
     0
1070
   281
1070
     0
1070
    71
1070
     0
1070
    74
1070
     0
1070
   279
1070
     0
1070
   173
1070
     1
1070
   340
1005
1C0
1070
   271
1070
     2
1070
   272
1070
     2
1070
    77
1070
     1
1070
    73
1070
     0
1070
   171
1070
     3
1070
   274
1070
     4
1070
   177
1070
   150
1070
   176
1070
     9
1070
   178
1070
    43
1070
    78
1070
     8
1070
    48
1040
-0.1
1070
    41
1040
3.175
1070
   147
1040
2.25
1070
    42
1040
1.5875
1070
    44
1040
3.175
1070
   140
1040
4.5
1002
}
1001
ACAD_DSTYLE_DIM_LINETYPE
1070
   380
1005
16
1001
ACAD_DSTYLE_DIM_EXT1_LINETYPE
1070
   381
1005
16
1001
ACAD_DSTYLE_DIM_EXT2_LINETYPE
1070
   382
1005
16
0
ENDSEC
0
SECTION
2
OBJECTS
0
DICTIONARY
5
2e9
330
0
100
AcDbDictionary
280
0
281
1
3
ACAD_GROUP
350
2ea
3
ACAD_MLINESTYLE
350
2eb
0
DICTIONARY
5
2ea
330
0
100
AcDbDictionary
280
0
281
1
0
DICTIONARY
5
2eb
330
0
100
AcDbDictionary
280
0
281
1
3
Standard
350
18
0
MLINESTYLE
5
18
330
2eb
100
AcDbMlineStyle
2
Standard
70
0
3

62
256
51
90
52
90
71
2
49
-0.5
62
256
6
ByLayer
49
0.5
62
256
6
ByLayer
0
RASTERVARIABLES
5
2d7
330

100
AcDbRasterVariables
90
0
70
1
71
1
72
1
0
ENDSEC
0
EOF
