0
SECTION
2
HEADER
9
$ACADVER
1
AC1015
9
$DWGCODEPAGE
3
ANSI_1252
9
$HANDSEED
5
2de
9
$ANGBASE
50
0
9
$ANGDIR
70
0
9
$ATTMODE
70
1
9
$AUNITS
70
0
9
$AUPREC
70
0
9
$CECOLOR
62
256
9
$CELTSCALE
40
1
9
$CELTYPE
6
ByLayer
9
$CELWEIGHT
370
18
9
$CLAYER
8
0
9
$CMLJUST
70
0
9
$CMLSCALE
40
1
9
$CMLSTYLE
2
Standard
9
$DIMSTYLE
2
Standard
9
$TEXTSIZE
40
0.2
9
$TEXTSTYLE
7
Standard
9
$LUNITS
70
2
9
$LUPREC
70
4
9
$EXTNAMES
290
1
9
$INSUNITS
70
4
9
$LTSCALE
40
1
9
$LWDISPLAY
290
1
9
$PDMODE
70
0
9
$PDSIZE
40
0
9
$PLINEGEN
70
0
0
ENDSEC
0
SECTION
2
CLASSES
0
CLASS
1
RASTERVARIABLES
2
AcDbRasterVariables
3
ISM
90
0
280
0
281
0
0
ENDSEC
0
SECTION
2
TABLES
0
TABLE
2
VPORT
5
2d4
100
AcDbSymbolTable
0
VPORT
5
1
100
AcDbSymbolTableRecord
100
AcDbViewportTableRecord
2
*Active
70
0
10
0
20
0
11
1
21
1
12
-1
22
1
13
0
23
0
14
0.5
24
0.5
15
10
25
10
16
0
26
0
36
1
17
0
27
0
37
0
0
ENDTAB
0
TABLE
2
LTYPE
5
2d5
100
AcDbSymbolTable
0
LTYPE
5
14
100
AcDbSymbolTableRecord
100
AcDbLinetypeTableRecord
70
0
2
ByBlock
3

72
65
73
0
40
0
0
LTYPE
5
15
100
AcDbSymbolTableRecord
100
AcDbLinetypeTableRecord
70
0
2
ByLayer
3

72
65
73
0
40
0
0
LTYPE
5
16
100
AcDbSymbolTableRecord
100
AcDbLinetypeTableRecord
70
0
2
Continuous
3
Solid line
72
65
73
0
40
0
0
LTYPE
5
6E
100
AcDbSymbolTableRecord
100
AcDbLinetypeTableRecord
70
0
2
CENTER
3
____ _ ____ _ ____ _ ____
72
65
73
4
40
47.5
49
22
74
0
49
-8.5
74
0
49
8.5
74
0
49
-8.5
74
0
0
LTYPE
5
6F
100
AcDbSymbolTableRecord
100
AcDbLinetypeTableRecord
70
0
2
DASHED
3
__ __ __ __ __ __ __ __ __
72
65
73
2
40
25.72
49
12.86
74
0
49
-12.86
74
0
0
ENDTAB
0
TABLE
2
LAYER
5
2d6
100
AcDbSymbolTable
0
LAYER
5
10
100
AcDbSymbolTableRecord
100
AcDbLayerTableRecord
2
0
70
0
62
7
6
Continuous
290
1
370
-3
390
0
0
LAYER
5
71
100
AcDbSymbolTableRecord
100
AcDbLayerTableRecord
2
81
70
0
62
-3
6
Continuous
290
1
370
-3
390
0
0
LAYER
5
73
100
AcDbSymbolTableRecord
100
AcDbLayerTableRecord
2
80
70
0
62
-6
6
Continuous
290
1
370
-3
390
0
0
LAYER
5
75
100
AcDbSymbolTableRecord
100
AcDbLayerTableRecord
2
1
70
0
62
4
6
Continuous
290
1
370
-3
390
0
0
LAYER
5
CE
100
AcDbSymbolTableRecord
100
AcDbLayerTableRecord
2
4
70
0
62
-2
6
CENTER
290
1
370
-3
390
0
0
LAYER
5
1B4
100
AcDbSymbolTableRecord
100
AcDbLayerTableRecord
2
Defpoints
70
0
62
7
6
Continuous
290
0
370
-3
390
0
0
LAYER
5
1C3
100
AcDbSymbolTableRecord
100
AcDbLayerTableRecord
2
2
70
0
62
7
6
Continuous
290
1
370
-3
390
0
0
LAYER
5
2c0
100
AcDbSymbolTableRecord
100
AcDbLayerTableRecord
2
SK1
70
0
62
4
6
Continuous
290
1
370
-3
390
0
0
LAYER
5
2c1
100
AcDbSymbolTableRecord
100
AcDbLayerTableRecord
2
SK4
70
0
62
2
6
CENTER
290
1
370
-3
390
0
0
LAYER
5
2c2
100
AcDbSymbolTableRecord
100
AcDbLayerTableRecord
2
SK2
70
0
62
7
6
Continuous
290
1
370
-3
390
0
0
LAYER
5
2c3
100
AcDbSymbolTableRecord
100
AcDbLayerTableRecord
2
SK6
70
0
62
5
6
Continuous
290
1
370
-3
390
0
0
ENDTAB
0
TABLE
2
STYLE
5
2d7
100
AcDbSymbolTable
0
STYLE
5
11
100
AcDbSymbolTableRecord
100
AcDbTextStyleTableRecord
2
Standard
3
txt
70
0
71
0
40
0
41
1
42
0
50
0
0
STYLE
5
1A5
100
AcDbSymbolTableRecord
100
AcDbTextStyleTableRecord
2
iso_b_vert
3
simplex.shx
70
0
71
0
40
0
41
1
42
0
50
0
0
STYLE
5
1A6
100
AcDbSymbolTableRecord
100
AcDbTextStyleTableRecord
2
DWGDirectTextStyle
3
simplex
70
0
71
0
40
0
41
1
42
0
50
0
0
ENDTAB
0
TABLE
2
DIMSTYLE
5
2d8
100
AcDbSymbolTable
100
AcDbDimStyleTable
0
DIMSTYLE
105
27
100
AcDbSymbolTableRecord
100
AcDbDimStyleTableRecord
2
Standard
70
0
3
<>
41
0.18
42
0.0625
44
0.18
140
0.18
147
0.09
73
0
74
0
77
1
271
2
275
0
278
52
280
0
340
11
0
ENDTAB
0
TABLE
2
VIEW
5
2d9
100
AcDbSymbolTable
0
ENDTAB
0
TABLE
2
UCS
5
2da
100
AcDbSymbolTable
0
ENDTAB
0
TABLE
2
APPID
5
2db
100
AcDbSymbolTable
0
APPID
5
12
100
AcDbSymbolTableRecord
100
AcDbRegAppTableRecord
2
ACAD
70
0
0
APPID
5
1A9
100
AcDbSymbolTableRecord
100
AcDbRegAppTableRecord
2
ACAD_DSTYLE_DIMBREAK
70
0
0
APPID
5
27F
100
AcDbSymbolTableRecord
100
AcDbRegAppTableRecord
2
ACAD_DSTYLE_DIM_LINETYPE
70
0
0
APPID
5
280
100
AcDbSymbolTableRecord
100
AcDbRegAppTableRecord
2
ACAD_DSTYLE_DIM_EXT1_LINETYPE
70
0
0
APPID
5
281
100
AcDbSymbolTableRecord
100
AcDbRegAppTableRecord
2
ACAD_DSTYLE_DIM_EXT2_LINETYPE
70
0
0
APPID
5
2BC
100
AcDbSymbolTableRecord
100
AcDbRegAppTableRecord
2
ACAD_MLEADERVER
70
0
0
ENDTAB
0
TABLE
2
BLOCK_RECORD
5
2dc
100
AcDbSymbolTable
0
BLOCK_RECORD
5
1F
100
AcDbSymbolTableRecord
100
AcDbBlockTableRecord
2
*Model_Space
340
0
70
0
0
BLOCK_RECORD
5
1B
100
AcDbSymbolTableRecord
100
AcDbBlockTableRecord
2
*Paper_Space
340
0
70
0
0
BLOCK_RECORD
5
23
100
AcDbSymbolTableRecord
100
AcDbBlockTableRecord
2
*Paper_Space0
340
0
70
0
0
BLOCK_RECORD
5
1AB
100
AcDbSymbolTableRecord
100
AcDbBlockTableRecord
2
_Closed
340
0
70
0
0
BLOCK_RECORD
5
1B5
100
AcDbSymbolTableRecord
100
AcDbBlockTableRecord
2
*D2
340
0
70
0
0
BLOCK_RECORD
5
1C4
100
AcDbSymbolTableRecord
100
AcDbBlockTableRecord
2
_U0
340
0
70
0
0
BLOCK_RECORD
5
1D5
100
AcDbSymbolTableRecord
100
AcDbBlockTableRecord
2
*D4
340
0
70
0
0
BLOCK_RECORD
5
1E1
100
AcDbSymbolTableRecord
100
AcDbBlockTableRecord
2
_U1
340
0
70
0
0
BLOCK_RECORD
5
1F1
100
AcDbSymbolTableRecord
100
AcDbBlockTableRecord
2
*D6
340
0
70
0
0
BLOCK_RECORD
5
1FD
100
AcDbSymbolTableRecord
100
AcDbBlockTableRecord
2
_U2
340
0
70
0
0
BLOCK_RECORD
5
20D
100
AcDbSymbolTableRecord
100
AcDbBlockTableRecord
2
*D8
340
0
70
0
0
BLOCK_RECORD
5
219
100
AcDbSymbolTableRecord
100
AcDbBlockTableRecord
2
_U3
340
0
70
0
0
BLOCK_RECORD
5
229
100
AcDbSymbolTableRecord
100
AcDbBlockTableRecord
2
*D10
340
0
70
0
0
BLOCK_RECORD
5
235
100
AcDbSymbolTableRecord
100
AcDbBlockTableRecord
2
_U4
340
0
70
0
0
BLOCK_RECORD
5
246
100
AcDbSymbolTableRecord
100
AcDbBlockTableRecord
2
*D12
340
0
70
0
0
BLOCK_RECORD
5
253
100
AcDbSymbolTableRecord
100
AcDbBlockTableRecord
2
_U5
340
0
70
0
0
ENDTAB
0
ENDSEC
0
SECTION
2
BLOCKS
0
BLOCK
5
20
100
AcDbEntity
8
0
100
AcDbBlockBegin
2
*Model_Space
70
0
10
0
20
0
30
0
3
*Model_Space
0
ENDBLK
5
21
100
AcDbEntity
8
0
100
AcDbBlockEnd
0
BLOCK
5
1C
100
AcDbEntity
8
0
100
AcDbBlockBegin
2
*Paper_Space
70
0
10
0
20
0
30
0
3
*Paper_Space
0
ENDBLK
5
1D
100
AcDbEntity
8
0
100
AcDbBlockEnd
0
BLOCK
5
24
100
AcDbEntity
8
0
100
AcDbBlockBegin
2
*Paper_Space0
70
0
10
0
20
0
30
0
3
*Paper_Space0
0
ENDBLK
5
25
100
AcDbEntity
8
0
100
AcDbBlockEnd
0
BLOCK
5
1AC
100
AcDbEntity
8
0
100
AcDbBlockBegin
2
_Closed
70
0
10
0
20
0
30
0
3
_Closed
0
LINE
5
1AE
100
AcDbEntity
8
0
62
256
6
ByLayer
370
-2
48
1
60
0
100
AcDbLine
10
-1
20
0.166667
30
0
11
0
21
0
31
0
39
0
210
0
220
0
230
1
0
LINE
5
1AF
100
AcDbEntity
8
0
62
256
6
ByLayer
370
-2
48
1
60
0
100
AcDbLine
10
0
20
0
30
0
11
-1
21
-0.166667
31
0
39
0
210
0
220
0
230
1
0
LINE
5
1B0
100
AcDbEntity
8
0
62
256
6
ByLayer
370
-2
48
1
60
0
100
AcDbLine
10
-1
20
0.166667
30
0
11
-1
21
-0.166667
31
0
39
0
210
0
220
0
230
1
0
LINE
5
1B1
100
AcDbEntity
8
0
62
256
6
ByLayer
370
-2
48
1
60
0
100
AcDbLine
10
0
20
0
30
0
11
-1
21
0
31
0
39
0
210
0
220
0
230
1
0
ENDBLK
5
1AD
100
AcDbEntity
8
0
100
AcDbBlockEnd
0
BLOCK
5
1B6
100
AcDbEntity
8
0
100
AcDbBlockBegin
2
*D2
70
1
10
0
20
0
30
0
3
*D2
0
LINE
5
1B8
100
AcDbEntity
8
0
62
256
6
ByLayer
370
-2
48
1
60
0
100
AcDbLine
10
31.5875
20
-10.25
30
0
11
58.071875
21
-10.25
31
0
39
0
210
0
220
0
230
1
0
LINE
5
1B9
100
AcDbEntity
8
0
62
256
6
ByLayer
370
-2
48
1
60
0
100
AcDbLine
10
31.5875
20
10.25
30
0
11
58.071875
21
10.25
31
0
39
0
210
0
220
0
230
1
0
LINE
5
1BA
100
AcDbEntity
8
0
62
256
6
ByLayer
370
-2
48
1
60
0
100
AcDbLine
10
54.896875
20
10.25
30
0
11
54.896875
21
46.383283
31
0
39
0
210
0
220
0
230
1
0
LINE
5
1BB
100
AcDbEntity
8
0
62
256
6
ByLayer
370
-2
48
1
60
0
100
AcDbLine
10
54.896875
20
-13.425
30
0
11
54.896875
21
-16.6
31
0
39
0
210
0
220
0
230
1
0
LINE
5
1BC
100
AcDbEntity
8
0
62
256
6
ByLayer
370
-2
48
1
60
0
100
AcDbLine
10
54.896875
20
13.425
30
0
11
54.896875
21
16.6
31
0
39
0
210
0
220
0
230
1
0
SOLID
5
1BD
100
AcDbEntity
8
0
62
256
6
ByLayer
370
-1
48
1
60
0
100
AcDbTrace
10
55.426042
20
-13.425
30
0
11
54.367708
21
-13.425
31
0
12
54.896875
22
-10.25
32
0
13
54.896875
23
-10.25
33
0
39
0
210
0
220
0
230
1
0
SOLID
5
1BE
100
AcDbEntity
8
0
62
256
6
ByLayer
370
-1
48
1
60
0
100
AcDbTrace
10
54.367708
20
13.425
30
0
11
55.426042
21
13.425
31
0
12
54.896875
22
10.25
32
0
13
54.896875
23
10.25
33
0
39
0
210
0
220
0
230
1
0
MTEXT
5
1BF
100
AcDbEntity
8
0
62
256
6
ByLayer
370
18
48
1
60
0
100
AcDbMText
10
45.503125
20
32.38239
30
0
210
0
220
0
230
1
1
\A1;20.5
40
4.5
41
0
44
1
50
90
71
5
72
5
7
iso_b_vert
0
POINT
5
1C0
100
AcDbEntity
8
Defpoints
62
0
6
ByLayer
370
-1
48
1
60
0
100
AcDbPoint
10
30
20
-10.25
30
0
39
0
210
0
220
0
230
1
50
360
0
POINT
5
1C1
100
AcDbEntity
8
Defpoints
62
0
6
ByLayer
370
-1
48
1
60
0
100
AcDbPoint
10
30
20
10.25
30
0
39
0
210
0
220
0
230
1
50
360
0
POINT
5
1C2
100
AcDbEntity
8
Defpoints
62
0
6
ByLayer
370
-1
48
1
60
0
100
AcDbPoint
10
54.896875
20
10.25
30
0
39
0
210
0
220
0
230
1
50
360
0
ENDBLK
5
1B7
100
AcDbEntity
8
0
100
AcDbBlockEnd
0
BLOCK
5
1D0
100
AcDbEntity
8
0
100
AcDbBlockBegin
2
_U0
70
0
10
0
20
0
30
0
3
_U0
0
MTEXT
5
1C5
100
AcDbEntity
8
2
62
256
6
ByLayer
370
18
48
1
60
0
100
AcDbMText
10
52.815029
20
21.505375
30
0
210
0
220
0
230
1
1
%%c
40
3.175
41
0
44
1.084337
50
90
71
7
72
5
7
iso_b_vert
0
MTEXT
5
1C6
100
AcDbEntity
8
2
62
256
6
ByLayer
370
18
48
1
60
0
100
AcDbMText
10
53.216453
20
31.09
30
0
210
0
220
0
230
1
1
\W0.8668;20.5
40
4.5
41
0
44
1.084337
50
90
71
7
72
5
7
iso_b_vert
0
LINE
5
1C7
100
AcDbEntity
8
2
62
256
6
ByLayer
370
13
48
1
60
0
100
AcDbLine
10
31.5875
20
-10.25
30
0
11
58.071875
21
-10.25
31
0
39
0
210
0
220
0
230
1
0
LINE
5
1C8
100
AcDbEntity
8
2
62
256
6
ByLayer
370
13
48
1
60
0
100
AcDbLine
10
31.5875
20
10.25
30
0
11
58.071875
21
10.25
31
0
39
0
210
0
220
0
230
1
0
LINE
5
1C9
100
AcDbEntity
8
2
62
256
6
ByLayer
370
13
48
1
60
0
100
AcDbLine
10
54.896875
20
-10.25
30
0
11
54.896875
21
43.402279
31
0
39
0
210
0
220
0
230
1
0
LINE
5
1CA
100
AcDbEntity
8
2
62
256
6
ByLayer
370
13
48
1
60
0
100
AcDbLine
10
54.896875
20
-10.25
30
0
11
54.478878
21
-7.075002
31
0
39
0
210
0
220
0
230
1
0
LINE
5
1CB
100
AcDbEntity
8
2
62
256
6
ByLayer
370
13
48
1
60
0
100
AcDbLine
10
54.896875
20
-10.25
30
0
11
55.314872
21
-7.074998
31
0
39
0
210
0
220
0
230
1
0
LINE
5
1CC
100
AcDbEntity
8
2
62
256
6
ByLayer
370
13
48
1
60
0
100
AcDbLine
10
54.478878
20
-7.075002
30
0
11
55.314872
21
-7.074998
31
0
39
0
210
0
220
0
230
1
0
LINE
5
1CD
100
AcDbEntity
8
2
62
256
6
ByLayer
370
13
48
1
60
0
100
AcDbLine
10
54.896875
20
10.25
30
0
11
55.314872
21
7.075002
31
0
39
0
210
0
220
0
230
1
0
LINE
5
1CE
100
AcDbEntity
8
2
62
256
6
ByLayer
370
13
48
1
60
0
100
AcDbLine
10
54.896875
20
10.25
30
0
11
54.478878
21
7.074998
31
0
39
0
210
0
220
0
230
1
0
LINE
5
1CF
100
AcDbEntity
8
2
62
256
6
ByLayer
370
13
48
1
60
0
100
AcDbLine
10
55.314872
20
7.075002
30
0
11
54.478878
21
7.074998
31
0
39
0
210
0
220
0
230
1
0
ENDBLK
5
1D1
100
AcDbEntity
8
0
100
AcDbBlockEnd
0
BLOCK
5
1D6
100
AcDbEntity
8
0
100
AcDbBlockBegin
2
*D4
70
1
10
0
20
0
30
0
3
*D4
0
LINE
5
1D8
100
AcDbEntity
8
0
62
256
6
ByLayer
370
-2
48
1
60
0
100
AcDbLine
10
30
20
-11.8375
30
0
11
30
21
-37.925
31
0
39
0
210
0
220
0
230
1
0
LINE
5
1D9
100
AcDbEntity
8
0
62
256
6
ByLayer
370
-2
48
1
60
0
100
AcDbLine
10
0
20
-1.5875
30
0
11
0
21
-37.925
31
0
39
0
210
0
220
0
230
1
0
LINE
5
1DA
100
AcDbEntity
8
0
62
256
6
ByLayer
370
-2
48
1
60
0
100
AcDbLine
10
26.825
20
-34.75
30
0
11
3.175
21
-34.75
31
0
39
0
210
0
220
0
230
1
0
SOLID
5
1DB
100
AcDbEntity
8
0
62
256
6
ByLayer
370
-1
48
1
60
0
100
AcDbTrace
10
26.825
20
-35.279167
30
0
11
26.825
21
-34.220833
31
0
12
30
22
-34.75
32
0
13
30
23
-34.75
33
0
39
0
210
0
220
0
230
1
0
SOLID
5
1DC
100
AcDbEntity
8
0
62
256
6
ByLayer
370
-1
48
1
60
0
100
AcDbTrace
10
3.175
20
-34.220833
30
0
11
3.175
21
-35.279167
31
0
12
0
22
-34.75
32
0
13
0
23
-34.75
33
0
39
0
210
0
220
0
230
1
0
MTEXT
5
1DD
100
AcDbEntity
8
0
62
256
6
ByLayer
370
18
48
1
60
0
100
AcDbMText
10
15
20
-25.35625
30
0
210
0
220
0
230
1
1
\A1;30
40
4.5
41
0
44
1
50
0
71
5
72
5
7
iso_b_vert
0
POINT
5
1DE
100
AcDbEntity
8
Defpoints
62
0
6
ByLayer
370
-1
48
1
60
0
100
AcDbPoint
10
30
20
-10.25
30
0
39
0
210
0
220
0
230
1
50
360
0
POINT
5
1DF
100
AcDbEntity
8
Defpoints
62
0
6
ByLayer
370
-1
48
1
60
0
100
AcDbPoint
10
0
20
0
30
0
39
0
210
0
220
0
230
1
50
360
0
POINT
5
1E0
100
AcDbEntity
8
Defpoints
62
0
6
ByLayer
370
-1
48
1
60
0
100
AcDbPoint
10
0
20
-34.75
30
0
39
0
210
0
220
0
230
1
50
360
0
ENDBLK
5
1D7
100
AcDbEntity
8
0
100
AcDbBlockEnd
0
BLOCK
5
1EC
100
AcDbEntity
8
0
100
AcDbBlockBegin
2
_U1
70
0
10
0
20
0
30
0
3
_U1
0
MTEXT
5
1E2
100
AcDbEntity
8
SK2
62
256
6
ByLayer
370
18
48
1
60
0
100
AcDbMText
10
11.946935
20
-33.422328
30
0
210
0
220
0
230
1
1
\W0.8247;30
40
4.5
41
0
44
1.084337
50
0
71
7
72
5
7
iso_b_vert
0
LINE
5
1E3
100
AcDbEntity
8
SK2
62
256
6
ByLayer
370
13
48
1
60
0
100
AcDbLine
10
30
20
-11.8375
30
0
11
30
21
-37.925
31
0
39
0
210
0
220
0
230
1
0
LINE
5
1E4
100
AcDbEntity
8
SK2
62
256
6
ByLayer
370
13
48
1
60
0
100
AcDbLine
10
0
20
-1.5875
30
0
11
0
21
-37.925
31
0
39
0
210
0
220
0
230
1
0
LINE
5
1E5
100
AcDbEntity
8
SK2
62
256
6
ByLayer
370
13
48
1
60
0
100
AcDbLine
10
30
20
-34.75
30
0
11
0
21
-34.75
31
0
39
0
210
0
220
0
230
1
0
LINE
5
1E6
100
AcDbEntity
8
SK2
62
256
6
ByLayer
370
13
48
1
60
0
100
AcDbLine
10
30
20
-34.75
30
0
11
26.825002
21
-35.167997
31
0
39
0
210
0
220
0
230
1
0
LINE
5
1E7
100
AcDbEntity
8
SK2
62
256
6
ByLayer
370
13
48
1
60
0
100
AcDbLine
10
30
20
-34.75
30
0
11
26.824998
21
-34.332003
31
0
39
0
210
0
220
0
230
1
0
LINE
5
1E8
100
AcDbEntity
8
SK2
62
256
6
ByLayer
370
13
48
1
60
0
100
AcDbLine
10
26.825002
20
-35.167997
30
0
11
26.824998
21
-34.332003
31
0
39
0
210
0
220
0
230
1
0
LINE
5
1E9
100
AcDbEntity
8
SK2
62
256
6
ByLayer
370
13
48
1
60
0
100
AcDbLine
10
0
20
-34.75
30
0
11
3.174998
21
-34.332003
31
0
39
0
210
0
220
0
230
1
0
LINE
5
1EA
100
AcDbEntity
8
SK2
62
256
6
ByLayer
370
13
48
1
60
0
100
AcDbLine
10
0
20
-34.75
30
0
11
3.175002
21
-35.167997
31
0
39
0
210
0
220
0
230
1
0
LINE
5
1EB
100
AcDbEntity
8
SK2
62
256
6
ByLayer
370
13
48
1
60
0
100
AcDbLine
10
3.174998
20
-34.332003
30
0
11
3.175002
21
-35.167997
31
0
39
0
210
0
220
0
230
1
0
ENDBLK
5
1ED
100
AcDbEntity
8
0
100
AcDbBlockEnd
0
BLOCK
5
1F2
100
AcDbEntity
8
0
100
AcDbBlockBegin
2
*D6
70
1
10
0
20
0
30
0
3
*D6
0
LINE
5
1F4
100
AcDbEntity
8
0
62
256
6
ByLayer
370
-2
48
1
60
0
100
AcDbLine
10
0
20
11.5875
30
0
11
0
21
33.925
31
0
39
0
210
0
220
0
230
1
0
LINE
5
1F5
100
AcDbEntity
8
0
62
256
6
ByLayer
370
-2
48
1
60
0
100
AcDbLine
10
30
20
11.8375
30
0
11
30
21
33.925
31
0
39
0
210
0
220
0
230
1
0
LINE
5
1F6
100
AcDbEntity
8
0
62
256
6
ByLayer
370
-2
48
1
60
0
100
AcDbLine
10
3.175
20
30.75
30
0
11
26.825
21
30.75
31
0
39
0
210
0
220
0
230
1
0
SOLID
5
1F7
100
AcDbEntity
8
0
62
256
6
ByLayer
370
-1
48
1
60
0
100
AcDbTrace
10
3.175
20
31.279167
30
0
11
3.175
21
30.220833
31
0
12
0
22
30.75
32
0
13
0
23
30.75
33
0
39
0
210
0
220
0
230
1
0
SOLID
5
1F8
100
AcDbEntity
8
0
62
256
6
ByLayer
370
-1
48
1
60
0
100
AcDbTrace
10
26.825
20
30.220833
30
0
11
26.825
21
31.279167
31
0
12
30
22
30.75
32
0
13
30
23
30.75
33
0
39
0
210
0
220
0
230
1
0
MTEXT
5
1F9
100
AcDbEntity
8
0
62
256
6
ByLayer
370
18
48
1
60
0
100
AcDbMText
10
15
20
40.14375
30
0
210
0
220
0
230
1
1
\A1;30
40
4.5
41
0
44
1
50
0
71
5
72
5
7
iso_b_vert
0
POINT
5
1FA
100
AcDbEntity
8
Defpoints
62
0
6
ByLayer
370
-1
48
1
60
0
100
AcDbPoint
10
0
20
10
30
0
39
0
210
0
220
0
230
1
50
360
0
POINT
5
1FB
100
AcDbEntity
8
Defpoints
62
0
6
ByLayer
370
-1
48
1
60
0
100
AcDbPoint
10
30
20
10.25
30
0
39
0
210
0
220
0
230
1
50
360
0
POINT
5
1FC
100
AcDbEntity
8
Defpoints
62
0
6
ByLayer
370
-1
48
1
60
0
100
AcDbPoint
10
30
20
30.75
30
0
39
0
210
0
220
0
230
1
50
360
0
ENDBLK
5
1F3
100
AcDbEntity
8
0
100
AcDbBlockEnd
0
BLOCK
5
208
100
AcDbEntity
8
0
100
AcDbBlockBegin
2
_U2
70
0
10
0
20
0
30
0
3
_U2
0
MTEXT
5
1FE
100
AcDbEntity
8
2
62
256
6
ByLayer
370
18
48
1
60
0
100
AcDbMText
10
11.946935
20
32.077672
30
0
210
0
220
0
230
1
1
\W0.8247;30
40
4.5
41
0
44
1.084337
50
0
71
7
72
5
7
iso_b_vert
0
LINE
5
1FF
100
AcDbEntity
8
2
62
256
6
ByLayer
370
13
48
1
60
0
100
AcDbLine
10
0
20
11.5875
30
0
11
0
21
33.925
31
0
39
0
210
0
220
0
230
1
0
LINE
5
200
100
AcDbEntity
8
2
62
256
6
ByLayer
370
13
48
1
60
0
100
AcDbLine
10
30
20
11.8375
30
0
11
30
21
33.925
31
0
39
0
210
0
220
0
230
1
0
LINE
5
201
100
AcDbEntity
8
2
62
256
6
ByLayer
370
13
48
1
60
0
100
AcDbLine
10
0
20
30.75
30
0
11
30
21
30.75
31
0
39
0
210
0
220
0
230
1
0
LINE
5
202
100
AcDbEntity
8
2
62
256
6
ByLayer
370
13
48
1
60
0
100
AcDbLine
10
0
20
30.75
30
0
11
3.174998
21
31.167997
31
0
39
0
210
0
220
0
230
1
0
LINE
5
203
100
AcDbEntity
8
2
62
256
6
ByLayer
370
13
48
1
60
0
100
AcDbLine
10
0
20
30.75
30
0
11
3.175002
21
30.332003
31
0
39
0
210
0
220
0
230
1
0
LINE
5
204
100
AcDbEntity
8
2
62
256
6
ByLayer
370
13
48
1
60
0
100
AcDbLine
10
3.174998
20
31.167997
30
0
11
3.175002
21
30.332003
31
0
39
0
210
0
220
0
230
1
0
LINE
5
205
100
AcDbEntity
8
2
62
256
6
ByLayer
370
13
48
1
60
0
100
AcDbLine
10
30
20
30.75
30
0
11
26.825002
21
30.332003
31
0
39
0
210
0
220
0
230
1
0
LINE
5
206
100
AcDbEntity
8
2
62
256
6
ByLayer
370
13
48
1
60
0
100
AcDbLine
10
30
20
30.75
30
0
11
26.824998
21
31.167997
31
0
39
0
210
0
220
0
230
1
0
LINE
5
207
100
AcDbEntity
8
2
62
256
6
ByLayer
370
13
48
1
60
0
100
AcDbLine
10
26.825002
20
30.332003
30
0
11
26.824998
21
31.167997
31
0
39
0
210
0
220
0
230
1
0
ENDBLK
5
209
100
AcDbEntity
8
0
100
AcDbBlockEnd
0
BLOCK
5
20E
100
AcDbEntity
8
0
100
AcDbBlockBegin
2
*D8
70
1
10
0
20
0
30
0
3
*D8
0
LINE
5
210
100
AcDbEntity
8
0
62
256
6
ByLayer
370
-2
48
1
60
0
100
AcDbLine
10
0
20
11.5875
30
0
11
0
21
23.925
31
0
39
0
210
0
220
0
230
1
0
LINE
5
211
100
AcDbEntity
8
0
62
256
6
ByLayer
370
-2
48
1
60
0
100
AcDbLine
10
23.96
20
17.5375
30
0
11
23.96
21
23.925
31
0
39
0
210
0
220
0
230
1
0
LINE
5
212
100
AcDbEntity
8
0
62
256
6
ByLayer
370
-2
48
1
60
0
100
AcDbLine
10
3.175
20
20.75
30
0
11
20.785
21
20.75
31
0
39
0
210
0
220
0
230
1
0
SOLID
5
213
100
AcDbEntity
8
0
62
256
6
ByLayer
370
-1
48
1
60
0
100
AcDbTrace
10
3.175
20
21.279167
30
0
11
3.175
21
20.220833
31
0
12
0
22
20.75
32
0
13
0
23
20.75
33
0
39
0
210
0
220
0
230
1
0
SOLID
5
214
100
AcDbEntity
8
0
62
256
6
ByLayer
370
-1
48
1
60
0
100
AcDbTrace
10
20.785
20
20.220833
30
0
11
20.785
21
21.279167
31
0
12
23.96
22
20.75
32
0
13
23.96
23
20.75
33
0
39
0
210
0
220
0
230
1
0
MTEXT
5
215
100
AcDbEntity
8
0
62
256
6
ByLayer
370
18
48
1
60
0
100
AcDbMText
10
11.98
20
30.14375
30
0
210
0
220
0
230
1
1
\A1;23.96
40
4.5
41
0
44
1
50
0
71
5
72
5
7
iso_b_vert
0
POINT
5
216
100
AcDbEntity
8
Defpoints
62
0
6
ByLayer
370
-1
48
1
60
0
100
AcDbPoint
10
0
20
10
30
0
39
0
210
0
220
0
230
1
50
360
0
POINT
5
217
100
AcDbEntity
8
Defpoints
62
0
6
ByLayer
370
-1
48
1
60
0
100
AcDbPoint
10
23.96
20
15.95
30
0
39
0
210
0
220
0
230
1
50
360
0
POINT
5
218
100
AcDbEntity
8
Defpoints
62
0
6
ByLayer
370
-1
48
1
60
0
100
AcDbPoint
10
23.96
20
20.75
30
0
39
0
210
0
220
0
230
1
50
360
0
ENDBLK
5
20F
100
AcDbEntity
8
0
100
AcDbBlockEnd
0
BLOCK
5
224
100
AcDbEntity
8
0
100
AcDbBlockBegin
2
_U3
70
0
10
0
20
0
30
0
3
_U3
0
MTEXT
5
21A
100
AcDbEntity
8
SK2
62
256
6
ByLayer
370
18
48
1
60
0
100
AcDbMText
10
3.977828
20
22.077672
30
0
210
0
220
0
230
1
1
\W0.8825;23.96
40
4.5
41
0
44
1.084337
50
0
71
7
72
5
7
iso_b_vert
0
LINE
5
21B
100
AcDbEntity
8
SK2
62
256
6
ByLayer
370
13
48
1
60
0
100
AcDbLine
10
0
20
11.5875
30
0
11
0
21
23.925
31
0
39
0
210
0
220
0
230
1
0
LINE
5
21C
100
AcDbEntity
8
SK2
62
256
6
ByLayer
370
13
48
1
60
0
100
AcDbLine
10
23.96
20
17.5375
30
0
11
23.96
21
23.925
31
0
39
0
210
0
220
0
230
1
0
LINE
5
21D
100
AcDbEntity
8
SK2
62
256
6
ByLayer
370
13
48
1
60
0
100
AcDbLine
10
-11.25
20
20.75
30
0
11
35.21
21
20.75
31
0
39
0
210
0
220
0
230
1
0
LINE
5
21E
100
AcDbEntity
8
SK2
62
256
6
ByLayer
370
13
48
1
60
0
100
AcDbLine
10
0
20
20.75
30
0
11
-3.174998
21
20.332003
31
0
39
0
210
0
220
0
230
1
0
LINE
5
21F
100
AcDbEntity
8
SK2
62
256
6
ByLayer
370
13
48
1
60
0
100
AcDbLine
10
0
20
20.75
30
0
11
-3.175002
21
21.167997
31
0
39
0
210
0
220
0
230
1
0
LINE
5
220
100
AcDbEntity
8
SK2
62
256
6
ByLayer
370
13
48
1
60
0
100
AcDbLine
10
-3.174998
20
20.332003
30
0
11
-3.175002
21
21.167997
31
0
39
0
210
0
220
0
230
1
0
LINE
5
221
100
AcDbEntity
8
SK2
62
256
6
ByLayer
370
13
48
1
60
0
100
AcDbLine
10
23.96
20
20.75
30
0
11
27.134998
21
21.167997
31
0
39
0
210
0
220
0
230
1
0
LINE
5
222
100
AcDbEntity
8
SK2
62
256
6
ByLayer
370
13
48
1
60
0
100
AcDbLine
10
23.96
20
20.75
30
0
11
27.135002
21
20.332003
31
0
39
0
210
0
220
0
230
1
0
LINE
5
223
100
AcDbEntity
8
SK2
62
256
6
ByLayer
370
13
48
1
60
0
100
AcDbLine
10
27.134998
20
21.167997
30
0
11
27.135002
21
20.332003
31
0
39
0
210
0
220
0
230
1
0
ENDBLK
5
225
100
AcDbEntity
8
0
100
AcDbBlockEnd
0
BLOCK
5
22A
100
AcDbEntity
8
0
100
AcDbBlockBegin
2
*D10
70
1
10
0
20
0
30
0
3
*D10
0
LINE
5
22C
100
AcDbEntity
8
0
62
256
6
ByLayer
370
-2
48
1
60
0
100
AcDbLine
10
25.5475
20
-15.95
30
0
11
68.925
21
-15.95
31
0
39
0
210
0
220
0
230
1
0
LINE
5
22D
100
AcDbEntity
8
0
62
256
6
ByLayer
370
-2
48
1
60
0
100
AcDbLine
10
25.5475
20
15.95
30
0
11
68.925
21
15.95
31
0
39
0
210
0
220
0
230
1
0
LINE
5
22E
100
AcDbEntity
8
0
62
256
6
ByLayer
370
-2
48
1
60
0
100
AcDbLine
10
65.75
20
-12.775
30
0
11
65.75
21
12.775
31
0
39
0
210
0
220
0
230
1
0
SOLID
5
22F
100
AcDbEntity
8
0
62
256
6
ByLayer
370
-1
48
1
60
0
100
AcDbTrace
10
65.220833
20
-12.775
30
0
11
66.279167
21
-12.775
31
0
12
65.75
22
-15.95
32
0
13
65.75
23
-15.95
33
0
39
0
210
0
220
0
230
1
0
SOLID
5
230
100
AcDbEntity
8
0
62
256
6
ByLayer
370
-1
48
1
60
0
100
AcDbTrace
10
66.279167
20
12.775
30
0
11
65.220833
21
12.775
31
0
12
65.75
22
15.95
32
0
13
65.75
23
15.95
33
0
39
0
210
0
220
0
230
1
0
MTEXT
5
231
100
AcDbEntity
8
0
62
256
6
ByLayer
370
18
48
1
60
0
100
AcDbMText
10
56.35625
20
0
30
0
210
0
220
0
230
1
1
\A1;31.9
40
4.5
41
0
44
1
50
90
71
5
72
5
7
iso_b_vert
0
POINT
5
232
100
AcDbEntity
8
Defpoints
62
0
6
ByLayer
370
-1
48
1
60
0
100
AcDbPoint
10
23.96
20
-15.95
30
0
39
0
210
0
220
0
230
1
50
360
0
POINT
5
233
100
AcDbEntity
8
Defpoints
62
0
6
ByLayer
370
-1
48
1
60
0
100
AcDbPoint
10
23.96
20
15.95
30
0
39
0
210
0
220
0
230
1
50
360
0
POINT
5
234
100
AcDbEntity
8
Defpoints
62
0
6
ByLayer
370
-1
48
1
60
0
100
AcDbPoint
10
65.75
20
15.95
30
0
39
0
210
0
220
0
230
1
50
360
0
ENDBLK
5
22B
100
AcDbEntity
8
0
100
AcDbBlockEnd
0
BLOCK
5
241
100
AcDbEntity
8
0
100
AcDbBlockBegin
2
_U4
70
0
10
0
20
0
30
0
3
_U4
0
MTEXT
5
236
100
AcDbEntity
8
SK2
62
256
6
ByLayer
370
18
48
1
60
0
100
AcDbMText
10
63.668154
20
-10.145876
30
0
210
0
220
0
230
1
1
%%c
40
3.175
41
0
44
1.084337
50
90
71
7
72
5
7
iso_b_vert
0
MTEXT
5
237
100
AcDbEntity
8
SK2
62
256
6
ByLayer
370
18
48
1
60
0
100
AcDbMText
10
64.069578
20
-0.561251
30
0
210
0
220
0
230
1
1
\W0.7805;31.9
40
4.5
41
0
44
1.084337
50
90
71
7
72
5
7
iso_b_vert
0
LINE
5
238
100
AcDbEntity
8
SK2
62
256
6
ByLayer
370
13
48
1
60
0
100
AcDbLine
10
25.5475
20
-15.95
30
0
11
68.925
21
-15.95
31
0
39
0
210
0
220
0
230
1
0
LINE
5
239
100
AcDbEntity
8
SK2
62
256
6
ByLayer
370
13
48
1
60
0
100
AcDbLine
10
25.5475
20
15.95
30
0
11
68.925
21
15.95
31
0
39
0
210
0
220
0
230
1
0
LINE
5
23A
100
AcDbEntity
8
SK2
62
256
6
ByLayer
370
13
48
1
60
0
100
AcDbLine
10
65.75
20
-15.95
30
0
11
65.75
21
15.95
31
0
39
0
210
0
220
0
230
1
0
LINE
5
23B
100
AcDbEntity
8
SK2
62
256
6
ByLayer
370
13
48
1
60
0
100
AcDbLine
10
65.75
20
-15.95
30
0
11
65.332003
21
-12.775002
31
0
39
0
210
0
220
0
230
1
0
LINE
5
23C
100
AcDbEntity
8
SK2
62
256
6
ByLayer
370
13
48
1
60
0
100
AcDbLine
10
65.75
20
-15.95
30
0
11
66.167997
21
-12.774998
31
0
39
0
210
0
220
0
230
1
0
LINE
5
23D
100
AcDbEntity
8
SK2
62
256
6
ByLayer
370
13
48
1
60
0
100
AcDbLine
10
65.332003
20
-12.775002
30
0
11
66.167997
21
-12.774998
31
0
39
0
210
0
220
0
230
1
0
LINE
5
23E
100
AcDbEntity
8
SK2
62
256
6
ByLayer
370
13
48
1
60
0
100
AcDbLine
10
65.75
20
15.95
30
0
11
66.167997
21
12.775002
31
0
39
0
210
0
220
0
230
1
0
LINE
5
23F
100
AcDbEntity
8
SK2
62
256
6
ByLayer
370
13
48
1
60
0
100
AcDbLine
10
65.75
20
15.95
30
0
11
65.332003
21
12.774998
31
0
39
0
210
0
220
0
230
1
0
LINE
5
240
100
AcDbEntity
8
SK2
62
256
6
ByLayer
370
13
48
1
60
0
100
AcDbLine
10
66.167997
20
12.775002
30
0
11
65.332003
21
12.774998
31
0
39
0
210
0
220
0
230
1
0
ENDBLK
5
242
100
AcDbEntity
8
0
100
AcDbBlockEnd
0
BLOCK
5
247
100
AcDbEntity
8
0
100
AcDbBlockBegin
2
*D12
70
1
10
0
20
0
30
0
3
*D12
0
LINE
5
249
100
AcDbEntity
8
0
62
256
6
ByLayer
370
-2
48
1
60
0
100
AcDbLine
10
-1.5875
20
10
30
0
11
-28.278125
21
10
31
0
39
0
210
0
220
0
230
1
0
LINE
5
24A
100
AcDbEntity
8
0
62
256
6
ByLayer
370
-2
48
1
60
0
100
AcDbLine
10
-1.5875
20
-10
30
0
11
-28.278125
21
-10
31
0
39
0
210
0
220
0
230
1
0
LINE
5
24B
100
AcDbEntity
8
0
62
256
6
ByLayer
370
-2
48
1
60
0
100
AcDbLine
10
-25.103125
20
13.175
30
0
11
-25.103125
21
16.35
31
0
39
0
210
0
220
0
230
1
0
LINE
5
24C
100
AcDbEntity
8
0
62
256
6
ByLayer
370
-2
48
1
60
0
100
AcDbLine
10
-25.103125
20
-13.175
30
0
11
-25.103125
21
-16.35
31
0
39
0
210
0
220
0
230
1
0
SOLID
5
24D
100
AcDbEntity
8
0
62
256
6
ByLayer
370
-1
48
1
60
0
100
AcDbTrace
10
-25.632292
20
13.175
30
0
11
-24.573958
21
13.175
31
0
12
-25.103125
22
10
32
0
13
-25.103125
23
10
33
0
39
0
210
0
220
0
230
1
0
SOLID
5
24E
100
AcDbEntity
8
0
62
256
6
ByLayer
370
-1
48
1
60
0
100
AcDbTrace
10
-24.573958
20
-13.175
30
0
11
-25.632292
21
-13.175
31
0
12
-25.103125
22
-10
32
0
13
-25.103125
23
-10
33
0
39
0
210
0
220
0
230
1
0
MTEXT
5
24F
100
AcDbEntity
8
0
62
256
6
ByLayer
370
18
48
1
60
0
100
AcDbMText
10
-34.496875
20
0
30
0
210
0
220
0
230
1
1
\A1;20
40
4.5
41
0
44
1
50
90
71
5
72
5
7
iso_b_vert
0
POINT
5
250
100
AcDbEntity
8
Defpoints
62
0
6
ByLayer
370
-1
48
1
60
0
100
AcDbPoint
10
0
20
10
30
0
39
0
210
0
220
0
230
1
50
360
0
POINT
5
251
100
AcDbEntity
8
Defpoints
62
0
6
ByLayer
370
-1
48
1
60
0
100
AcDbPoint
10
0
20
-10
30
0
39
0
210
0
220
0
230
1
50
360
0
POINT
5
252
100
AcDbEntity
8
Defpoints
62
0
6
ByLayer
370
-1
48
1
60
0
100
AcDbPoint
10
-25.103125
20
-10
30
0
39
0
210
0
220
0
230
1
50
360
0
ENDBLK
5
248
100
AcDbEntity
8
0
100
AcDbBlockEnd
0
BLOCK
5
25F
100
AcDbEntity
8
0
100
AcDbBlockBegin
2
_U5
70
0
10
0
20
0
30
0
3
_U5
0
MTEXT
5
254
100
AcDbEntity
8
SK2
62
256
6
ByLayer
370
18
48
1
60
0
100
AcDbMText
10
-27.184971
20
-7.91119
30
0
210
0
220
0
230
1
1
%%c
40
3.175
41
0
44
1.084337
50
90
71
7
72
5
7
iso_b_vert
0
MTEXT
5
255
100
AcDbEntity
8
SK2
62
256
6
ByLayer
370
18
48
1
60
0
100
AcDbMText
10
-26.783547
20
1.673435
30
0
210
0
220
0
230
1
1
\W0.8247;20
40
4.5
41
0
44
1.084337
50
90
71
7
72
5
7
iso_b_vert
0
LINE
5
256
100
AcDbEntity
8
SK2
62
256
6
ByLayer
370
13
48
1
60
0
100
AcDbLine
10
-1.5875
20
10
30
0
11
-28.278125
21
10
31
0
39
0
210
0
220
0
230
1
0
LINE
5
257
100
AcDbEntity
8
SK2
62
256
6
ByLayer
370
13
48
1
60
0
100
AcDbLine
10
-1.5875
20
-10
30
0
11
-28.278125
21
-10
31
0
39
0
210
0
220
0
230
1
0
LINE
5
258
100
AcDbEntity
8
SK2
62
256
6
ByLayer
370
13
48
1
60
0
100
AcDbLine
10
-25.103125
20
21.25
30
0
11
-25.103125
21
-21.25
31
0
39
0
210
0
220
0
230
1
0
LINE
5
259
100
AcDbEntity
8
SK2
62
256
6
ByLayer
370
13
48
1
60
0
100
AcDbLine
10
-25.103125
20
10
30
0
11
-25.521122
21
13.174998
31
0
39
0
210
0
220
0
230
1
0
LINE
5
25A
100
AcDbEntity
8
SK2
62
256
6
ByLayer
370
13
48
1
60
0
100
AcDbLine
10
-25.103125
20
10
30
0
11
-24.685128
21
13.175002
31
0
39
0
210
0
220
0
230
1
0
LINE
5
25B
100
AcDbEntity
8
SK2
62
256
6
ByLayer
370
13
48
1
60
0
100
AcDbLine
10
-25.521122
20
13.174998
30
0
11
-24.685128
21
13.175002
31
0
39
0
210
0
220
0
230
1
0
LINE
5
25C
100
AcDbEntity
8
SK2
62
256
6
ByLayer
370
13
48
1
60
0
100
AcDbLine
10
-25.103125
20
-10
30
0
11
-24.685128
21
-13.174998
31
0
39
0
210
0
220
0
230
1
0
LINE
5
25D
100
AcDbEntity
8
SK2
62
256
6
ByLayer
370
13
48
1
60
0
100
AcDbLine
10
-25.103125
20
-10
30
0
11
-25.521122
21
-13.175002
31
0
39
0
210
0
220
0
230
1
0
LINE
5
25E
100
AcDbEntity
8
SK2
62
256
6
ByLayer
370
13
48
1
60
0
100
AcDbLine
10
-24.685128
20
-13.174998
30
0
11
-25.521122
21
-13.175002
31
0
39
0
210
0
220
0
230
1
0
ENDBLK
5
260
100
AcDbEntity
8
0
100
AcDbBlockEnd
0
ENDSEC
0
SECTION
2
ENTITIES
0
ARC
5
D8
100
AcDbEntity
8
1
62
256
6
ByLayer
370
18
48
1
60
0
100
AcDbCircle
39
0
10
23.96741
20
9.918629
30
0
40
1.28905
210
0
220
0
230
1
100
AcDbArc
50
225
51
285
0
ARC
5
D9
100
AcDbEntity
8
1
62
256
6
ByLayer
370
18
48
1
60
0
100
AcDbCircle
39
0
10
23.96741
20
9.918629
30
0
40
1.28905
210
0
220
0
230
1
100
AcDbArc
50
285
51
345
0
ARC
5
DA
100
AcDbEntity
8
1
62
256
6
ByLayer
370
18
48
1
60
0
100
AcDbCircle
39
0
10
23.96741
20
9.918629
30
0
40
1.28905
210
0
220
0
230
1
100
AcDbArc
50
105
51
165
0
ARC
5
DB
100
AcDbEntity
8
1
62
256
6
ByLayer
370
18
48
1
60
0
100
AcDbCircle
39
0
10
23.96741
20
9.918629
30
0
40
1.28905
210
0
220
0
230
1
100
AcDbArc
50
165
51
225
0
ARC
5
DC
100
AcDbEntity
8
1
62
256
6
ByLayer
370
18
48
1
60
0
100
AcDbCircle
39
0
10
23.96741
20
9.918629
30
0
40
1.28905
210
0
220
0
230
1
100
AcDbArc
50
345
51
45
0
ARC
5
DD
100
AcDbEntity
8
1
62
256
6
ByLayer
370
18
48
1
60
0
100
AcDbCircle
39
0
10
23.96741
20
9.918629
30
0
40
1.28905
210
0
220
0
230
1
100
AcDbArc
50
45
51
105
0
ARC
5
DE
100
AcDbEntity
8
1
62
256
6
ByLayer
370
18
48
1
60
0
100
AcDbCircle
39
0
10
23.96741
20
9.918629
30
0
40
0.9944
210
0
220
0
230
1
100
AcDbArc
50
15
51
75
0
ARC
5
DF
100
AcDbEntity
8
1
62
256
6
ByLayer
370
18
48
1
60
0
100
AcDbCircle
39
0
10
23.96741
20
9.918629
30
0
40
0.9944
210
0
220
0
230
1
100
AcDbArc
50
75
51
135
0
ARC
5
E0
100
AcDbEntity
8
1
62
256
6
ByLayer
370
18
48
1
60
0
100
AcDbCircle
39
0
10
23.96741
20
9.918629
30
0
40
0.9944
210
0
220
0
230
1
100
AcDbArc
50
255
51
315
0
ARC
5
E1
100
AcDbEntity
8
1
62
256
6
ByLayer
370
18
48
1
60
0
100
AcDbCircle
39
0
10
23.96741
20
9.918629
30
0
40
0.9944
210
0
220
0
230
1
100
AcDbArc
50
135
51
195
0
ARC
5
E2
100
AcDbEntity
8
1
62
256
6
ByLayer
370
18
48
1
60
0
100
AcDbCircle
39
0
10
23.96741
20
9.918629
30
0
40
0.9944
210
0
220
0
230
1
100
AcDbArc
50
315
51
15
0
ARC
5
E3
100
AcDbEntity
8
1
62
256
6
ByLayer
370
18
48
1
60
0
100
AcDbCircle
39
0
10
23.96741
20
9.918629
30
0
40
0.9944
210
0
220
0
230
1
100
AcDbArc
50
195
51
255
0
ARC
5
E7
100
AcDbEntity
8
1
62
256
6
ByLayer
370
18
48
1
60
0
100
AcDbCircle
39
0
10
23.96741
20
9.918629
30
0
40
2.26175520142507
210
0
220
0
230
1
100
AcDbArc
50
180.000004
51
268.52062
0
ARC
5
E8
100
AcDbEntity
8
1
62
256
6
ByLayer
370
18
48
1
60
0
100
AcDbCircle
39
0
10
23.96741
20
9.918629
30
0
40
2.26175520142507
210
0
220
0
230
1
100
AcDbArc
50
270.511877
51
315
0
ARC
5
E9
100
AcDbEntity
8
1
62
256
6
ByLayer
370
18
48
1
60
0
100
AcDbCircle
39
0
10
23.96741
20
9.918629
30
0
40
2.26175520142507
210
0
220
0
230
1
100
AcDbArc
50
315
51
180.000002
0
ARC
5
EA
100
AcDbEntity
8
1
62
256
6
ByLayer
370
18
48
1
60
0
100
AcDbCircle
39
0
10
23.96741
20
9.918629
30
0
40
2.30803925391311
210
0
220
0
230
1
100
AcDbArc
50
272.840616
51
359.999991
0
ARC
5
EB
100
AcDbEntity
8
1
62
256
6
ByLayer
370
18
48
1
60
0
100
AcDbCircle
39
0
10
23.96741
20
9.918629
30
0
40
2.30803925391311
210
0
220
0
230
1
100
AcDbArc
50
225
51
267.569991
0
ARC
5
EC
100
AcDbEntity
8
1
62
256
6
ByLayer
370
18
48
1
60
0
100
AcDbCircle
39
0
10
23.96741
20
9.918629
30
0
40
2.30803925391311
210
0
220
0
230
1
100
AcDbArc
50
359.999999
51
225
0
ARC
5
ED
100
AcDbEntity
8
1
62
256
6
ByLayer
370
13
48
1
60
0
100
AcDbCircle
39
0
10
29.553553
20
9.65845
30
0
40
1
210
0
220
0
230
1
100
AcDbArc
50
246.47645
51
269.796405
0
ARC
5
EE
100
AcDbEntity
8
1
62
256
6
ByLayer
370
13
48
1
60
0
100
AcDbCircle
39
0
10
20.502587
20
7.868019
30
0
40
1
210
0
220
0
230
1
100
AcDbArc
50
172.399728
51
277.392066
0
ARC
5
EF
100
AcDbEntity
8
1
62
256
6
ByLayer
370
13
48
1
60
0
100
AcDbCircle
39
0
10
23.96741
20
16.418629
30
0
40
12
210
0
220
0
230
1
100
AcDbArc
50
213.245554
51
232.761241
0
ARC
5
F0
100
AcDbEntity
8
1
62
256
6
ByLayer
370
13
48
1
60
0
100
AcDbCircle
39
0
10
23.967329
20
-14.390437
30
0
40
0.8
210
0
220
0
230
1
100
AcDbArc
50
225.743683
51
272.942628
0
ARC
5
F1
100
AcDbEntity
8
1
62
256
6
ByLayer
370
13
48
1
60
0
100
AcDbCircle
39
0
10
23.967329
20
-14.390437
30
0
40
0.8
210
0
220
0
230
1
100
AcDbArc
50
272.942628
51
289.001721
0
ARC
5
F2
100
AcDbEntity
8
1
62
256
6
ByLayer
370
13
48
1
60
0
100
AcDbCircle
39
0
10
23.967329
20
-14.390437
30
0
40
0.8
210
0
220
0
230
1
100
AcDbArc
50
289.001721
51
314.24201
0
ARC
5
F3
100
AcDbEntity
8
1
62
256
6
ByLayer
370
13
48
1
60
0
100
AcDbCircle
39
0
10
28.55
20
-9.648268
30
0
40
1
210
0
220
0
230
1
100
AcDbArc
50
314.24201
51
360
0
ARC
5
F4
100
AcDbEntity
8
1
62
256
6
ByLayer
370
13
48
1
60
0
100
AcDbCircle
39
0
10
17.757143
20
-10.852584
30
0
40
1
210
0
220
0
230
1
100
AcDbArc
50
45.743683
51
90
0
ARC
5
F5
100
AcDbEntity
8
SK1
62
256
6
ByLayer
370
13
48
1
60
0
100
AcDbCircle
39
0
10
-16
20
-5.1
30
0
40
0.5
210
0
220
0
230
1
100
AcDbArc
50
0
51
90
0
ARC
5
F6
100
AcDbEntity
8
SK1
62
256
6
ByLayer
370
13
48
1
60
0
100
AcDbCircle
39
0
10
-16
20
5.1
30
0
40
0.5
210
0
220
0
230
1
100
AcDbArc
50
270
51
0
0
ARC
5
F7
100
AcDbEntity
8
SK1
62
256
6
ByLayer
370
13
48
1
60
0
100
AcDbCircle
39
0
10
-0.4
20
-7.750053
30
0
40
0.4
210
0
220
0
230
1
100
AcDbArc
50
0
51
87.8
0
ARC
5
F8
100
AcDbEntity
8
SK1
62
256
6
ByLayer
370
13
48
1
60
0
100
AcDbCircle
39
0
10
-0.4
20
7.750053
30
0
40
0.4
210
0
220
0
230
1
100
AcDbArc
50
272.2
51
0
0
ARC
5
F9
100
AcDbEntity
8
1
62
256
6
ByLayer
370
13
48
1
60
0
100
AcDbCircle
39
0
10
10.409691
20
9.352584
30
0
40
0.5
210
0
220
0
230
1
100
AcDbArc
50
90
51
135
0
ARC
5
FA
100
AcDbEntity
8
1
62
256
6
ByLayer
370
13
48
1
60
0
100
AcDbCircle
39
0
10
10.409691
20
-9.352584
30
0
40
0.5
210
0
220
0
230
1
100
AcDbArc
50
225
51
270
0
ARC
5
FB
100
AcDbEntity
8
SK2
62
256
6
ByLayer
370
13
48
1
60
0
100
AcDbCircle
39
0
10
30
20
10.25
30
0
40
12.9723095210679
210
0
220
0
230
1
100
AcDbArc
50
90
51
135
0
ARC
5
FC
100
AcDbEntity
8
SK2
62
256
6
ByLayer
370
13
48
1
60
0
100
AcDbCircle
39
0
10
30
20
10.25
30
0
40
12.9723095210679
210
0
220
0
230
1
100
AcDbArc
50
24.357104
51
90
0
CIRCLE
5
E4
100
AcDbEntity
8
1
62
256
6
ByLayer
370
18
48
1
60
0
100
AcDbCircle
10
23.96741
20
9.918629
30
0
40
1.4
39
0
210
0
220
0
230
1
0
CIRCLE
5
E5
100
AcDbEntity
8
1
62
256
6
ByLayer
370
18
48
1
60
0
100
AcDbCircle
10
23.96741
20
9.918629
30
0
40
2.1
39
0
210
0
220
0
230
1
0
CIRCLE
5
E6
100
AcDbEntity
8
1
62
256
6
ByLayer
370
18
48
1
60
0
100
AcDbCircle
10
23.96741
20
9.918629
30
0
40
2.15037854103613
39
0
210
0
220
0
230
1
0
ELLIPSE
5
FD
100
AcDbEntity
8
1
62
256
6
ByLayer
370
18
48
1
60
0
100
AcDbEllipse
10
23.96741
20
1.084485
30
0
11
-1.2
21
1.21276686609884E-15
31
0
210
0
220
0
230
1
40
0.5
41
-3.09927971088671
42
-0.0424118998999229
0
ELLIPSE
5
FE
100
AcDbEntity
8
1
62
256
6
ByLayer
370
13
48
1
60
0
100
AcDbEllipse
10
22.90675
20
2.434674
30
0
11
-0.223606797749979
21
0.447213595499958
31
0
210
0
220
0
230
1
40
0.612372
41
0.886077123792588
42
2.4568734505875
0
ELLIPSE
5
FF
100
AcDbEntity
8
1
62
256
6
ByLayer
370
13
48
1
60
0
100
AcDbEllipse
10
23.96741
20
1.038318
30
0
11
1.4
21
0
31
0
210
0
220
0
230
1
40
0.5
41
0.314387969635358
42
2.8271714782626
0
ELLIPSE
5
100
100
AcDbEntity
8
1
62
256
6
ByLayer
370
13
48
1
60
0
100
AcDbEllipse
10
23.96741
20
1.471331
30
0
11
-1.5
21
1.51595858262354E-15
31
0
210
0
220
0
230
1
40
0.5
41
-2.35619449019234
42
-0.78539816339745
0
ELLIPSE
5
101
100
AcDbEntity
8
1
62
256
6
ByLayer
370
13
48
1
60
0
100
AcDbEllipse
10
18.037673
20
10.352854
30
0
11
0.890521287117534
21
0.890521287117532
31
0
210
0
220
6.32451267283211E-17
230
1
40
0.992546
41
3.14159265358979
42
-2.09136601126692
0
ELLIPSE
5
102
100
AcDbEntity
8
1
62
256
6
ByLayer
370
13
48
1
60
0
100
AcDbEllipse
10
18.194494
20
-3.257584
30
0
11
0.97581674568751
21
-0.781205273174623
31
0
210
0
220
0
230
1
40
0.760818
41
2.1208551005454
42
2.28166085048311
0
ELLIPSE
5
103
100
AcDbEntity
8
1
62
256
6
ByLayer
370
13
48
1
60
0
100
AcDbEllipse
10
-402.671853
20
209.87453
30
0
11
429.610395458034
21
-221.616295955985
31
0
210
0
220
0
230
1
40
0.156308
41
0.160354081042381
42
0.197548550632194
0
ELLIPSE
5
104
100
AcDbEntity
8
1
62
256
6
ByLayer
370
13
48
1
60
0
100
AcDbEllipse
10
23.96741
20
1.904344
30
0
11
2
21
0
31
0
210
0
220
0
230
1
40
0.5
41
0.785398163397448
42
2.35619449019234
0
ELLIPSE
5
105
100
AcDbEntity
8
1
62
256
6
ByLayer
370
13
48
1
60
0
100
AcDbEllipse
10
18.194494
20
10.509674
30
0
11
-0.883883476483183
21
0.883883476483186
31
0
210
0
220
0
230
1
40
0.992546
41
1.68017008892623
42
2.38420209188508
0
ELLIPSE
5
106
100
AcDbEntity
8
1
62
256
6
ByLayer
370
13
48
1
60
0
100
AcDbEllipse
10
29.553553
20
-2.231149
30
0
11
1
21
0
31
0
210
0
220
0
230
1
40
0.5
41
1.57434972486607
42
2.14824823121052
0
ELLIPSE
5
107
100
AcDbEntity
8
1
62
256
6
ByLayer
370
13
48
1
60
0
100
AcDbEllipse
10
18.210043
20
-3.238161
30
0
11
0.97581674568751
21
-0.781205273174623
31
0
210
0
220
0
230
1
40
0.760818
41
2.14404402945856
42
2.25702744261242
0
ELLIPSE
5
108
100
AcDbEntity
8
1
62
256
6
ByLayer
370
13
48
1
60
0
100
AcDbEllipse
10
23.96741
20
-10.240349
30
0
11
13.8126155740733
21
0
31
0
210
0
220
0
230
1
40
0.5
41
2.26370251939845
42
2.62275839979046
0
ELLIPSE
5
109
100
AcDbEntity
8
1
62
256
6
ByLayer
370
13
48
1
60
0
100
AcDbEllipse
10
23.96741
20
1.038318
30
0
11
1.3175
21
0
31
0
210
0
220
0
230
1
40
0.5
41
0.232410818091038
42
2.90914644268535
0
ELLIPSE
5
10A
100
AcDbEntity
8
1
62
256
6
ByLayer
370
13
48
1
60
0
100
AcDbEllipse
10
26.522663
20
0
30
0
11
9.9641912419767
21
-9.8151029150073
31
0
210
0
220
0
230
1
40
0.086167
41
2.83116756244578
42
3.00356862257425
0
ELLIPSE
5
10B
100
AcDbEntity
8
1
62
256
6
ByLayer
370
13
48
1
60
0
100
AcDbEllipse
10
26.522663
20
0
30
0
11
9.09492830939567
21
8.88654759677337
31
0
210
0
220
0
230
1
40
0.467813
41
2.31775431996259
42
2.49015538007573
0
ELLIPSE
5
10C
100
AcDbEntity
8
1
62
256
6
ByLayer
370
13
48
1
60
0
100
AcDbEllipse
10
18.194494
20
-3.257584
30
0
11
1.24309545837637
21
-0.131200919829294
31
0
210
0
220
0
230
1
40
0.570903
41
1.44953410409696
42
2.30326228956698
0
ELLIPSE
5
10D
100
AcDbEntity
8
1
62
256
6
ByLayer
370
13
48
1
60
0
100
AcDbEllipse
10
458.758322
20
213.950355
30
0
11
437.762103108813
21
225.69059759707
31
0
210
0
220
0
230
1
40
0.154882
41
2.9459306785654
42
2.98276856596149
0
ELLIPSE
5
10E
100
AcDbEntity
8
1
62
256
6
ByLayer
370
13
48
1
60
0
100
AcDbEllipse
10
18.194494
20
10.509674
30
0
11
-0.883883476483183
21
0.883883476483186
31
0
210
0
220
0
230
1
40
0.819152
41
2.09331510934961
42
2.25412085928727
0
ELLIPSE
5
10F
100
AcDbEntity
8
1
62
256
6
ByLayer
370
13
48
1
60
0
100
AcDbEllipse
10
23.96741
20
1.471331
30
0
11
1.4
21
0
31
0
210
0
220
0
230
1
40
0.5
41
0
42
6.28318530717959
0
ELLIPSE
5
110
100
AcDbEntity
8
1
62
256
6
ByLayer
370
13
48
1
60
0
100
AcDbEllipse
10
25.02807
20
2.434674
30
0
11
0.22360679774998
21
0.447213595499958
31
0
210
0
220
0
230
1
40
0.612372
41
-2.4568734505875
42
-0.886077123792615
0
ELLIPSE
5
111
100
AcDbEntity
8
1
62
256
6
ByLayer
370
13
48
1
60
0
100
AcDbEllipse
10
18.037673
20
-4.743414
30
0
11
1.25469851884028
21
-0.00625796895624084
31
0
210
0
220
0
230
1
40
0.499977
41
1.47046759303383
42
2.36242903115145
0
POINT
5
70
100
AcDbEntity
8
81
62
256
6
ByLayer
370
18
48
1
60
0
100
AcDbPoint
10
30
20
10.25
30
0
39
0
210
0
220
0
230
1
50
360
0
POINT
5
72
100
AcDbEntity
8
80
62
256
6
ByLayer
370
18
48
1
60
0
100
AcDbPoint
10
0
20
0
30
0
39
0
210
0
220
0
230
1
50
360
0
POINT
5
74
100
AcDbEntity
8
1
62
256
6
ByLayer
370
18
48
1
60
1
100
AcDbPoint
10
30
20
-10.25
30
0
39
0
210
0
220
0
230
1
50
360
0
POINT
5
76
100
AcDbEntity
8
1
62
256
6
ByLayer
370
18
48
1
60
1
100
AcDbPoint
10
30
20
10.25
30
0
39
0
210
0
220
0
230
1
50
360
0
POINT
5
77
100
AcDbEntity
8
1
62
256
6
ByLayer
370
18
48
1
60
1
100
AcDbPoint
10
30
20
-10.25
30
0
39
0
210
0
220
0
230
1
50
360
0
POINT
5
78
100
AcDbEntity
8
1
62
256
6
ByLayer
370
18
48
1
60
1
100
AcDbPoint
10
0
20
0
30
0
39
0
210
0
220
0
230
1
50
360
0
POINT
5
79
100
AcDbEntity
8
1
62
256
6
ByLayer
370
18
48
1
60
1
100
AcDbPoint
10
0
20
10
30
0
39
0
210
0
220
0
230
1
50
360
0
POINT
5
7A
100
AcDbEntity
8
1
62
256
6
ByLayer
370
18
48
1
60
1
100
AcDbPoint
10
30
20
10.25
30
0
39
0
210
0
220
0
230
1
50
360
0
POINT
5
7B
100
AcDbEntity
8
1
62
256
6
ByLayer
370
18
48
1
60
1
100
AcDbPoint
10
0
20
10
30
0
39
0
210
0
220
0
230
1
50
360
0
POINT
5
7C
100
AcDbEntity
8
1
62
256
6
ByLayer
370
18
48
1
60
1
100
AcDbPoint
10
23.96
20
15.95
30
0
39
0
210
0
220
0
230
1
50
360
0
POINT
5
7D
100
AcDbEntity
8
1
62
256
6
ByLayer
370
18
48
1
60
1
100
AcDbPoint
10
23.96
20
-15.95
30
0
39
0
210
0
220
0
230
1
50
360
0
POINT
5
7E
100
AcDbEntity
8
1
62
256
6
ByLayer
370
18
48
1
60
1
100
AcDbPoint
10
23.96
20
15.95
30
0
39
0
210
0
220
0
230
1
50
360
0
POINT
5
7F
100
AcDbEntity
8
1
62
256
6
ByLayer
370
18
48
1
60
1
100
AcDbPoint
10
0
20
10
30
0
39
0
210
0
220
0
230
1
50
360
0
POINT
5
80
100
AcDbEntity
8
1
62
256
6
ByLayer
370
18
48
1
60
1
100
AcDbPoint
10
0
20
-10
30
0
39
0
210
0
220
0
230
1
50
360
0
SPLINE
5
112
100
AcDbEntity
8
1
62
256
6
ByLayer
370
18
48
1
60
0
100
AcDbSpline
70
4
71
3
72
8
73
4
40
0
40
0
40
0
40
0
40
1
40
1
40
1
40
1
41
1
10
18.1691342134872
20
-5.24215728752409
30
0
41
1
10
19.0412325769515
20
-5.67820646925628
30
0
41
1
10
19.9133309403925
20
-6.11425565097679
30
0
41
1
10
20.7854293038801
20
-6.55030483272057
30
0
0
SPLINE
5
113
100
AcDbEntity
8
1
62
256
6
ByLayer
370
18
48
1
60
0
100
AcDbSpline
70
4
71
3
72
8
73
4
40
0
40
0
40
0
40
0
40
1
40
1
40
1
40
1
41
1
10
23.4017243942692
20
-7.85845237791364
30
0
41
1
10
23.4017243942687
20
-6.76537187158357
30
0
41
1
10
23.401724394269
20
-5.6722913652539
30
0
41
1
10
23.4017243942694
20
-4.57921085892426
30
0
0
SPLINE
5
114
100
AcDbEntity
8
1
62
256
6
ByLayer
370
18
48
1
60
0
100
AcDbSpline
70
4
71
3
72
8
73
4
40
0
40
0
40
0
40
0
40
1
40
1
40
1
40
1
41
1
10
21.1981267363426
20
-3.47741202996284
30
0
41
1
10
20.4635941836897
20
-3.1101457536364
30
0
41
1
10
19.7290616310559
20
-2.74287947731946
30
0
41
1
10
18.9945290784168
20
-2.37561320099994
30
0
0
SPLINE
5
115
100
AcDbEntity
8
1
62
256
6
ByLayer
370
18
48
1
60
0
100
AcDbSpline
70
4
71
3
72
8
73
4
40
0
40
0
40
0
40
0
40
1
40
1
40
1
40
1
41
1
10
18.9945290784176
20
-2.3756132009982
30
0
41
1
10
18.7193974567766
20
-3.3311278965075
30
0
41
1
10
18.4442658351355
20
-4.28664259201676
30
0
41
1
10
18.1691342134936
20
-5.24215728752563
30
0
0
SPLINE
5
116
100
AcDbEntity
8
1
62
256
6
ByLayer
370
18
48
1
60
0
100
AcDbSpline
70
4
71
3
72
8
73
4
40
0
40
0
40
0
40
0
40
1
40
1
40
1
40
1
41
1
10
23.4017243942697
20
-4.57921085892639
30
0
41
1
10
22.6671918416302
20
-4.21194458260663
30
0
41
1
10
21.9326592889959
20
-3.84467830628947
30
0
41
1
10
21.1981267363426
20
-3.47741202996284
30
0
0
SPLINE
5
117
100
AcDbEntity
8
1
62
256
6
ByLayer
370
18
48
1
60
0
100
AcDbSpline
70
4
71
3
72
8
73
4
40
0
40
0
40
0
40
0
40
1
40
1
40
1
40
1
41
1
10
24.5330952441661
20
-7.85845237791705
30
0
41
1
10
25.4051936076305
20
-7.42240319618483
30
0
41
1
10
26.2772919710715
20
-6.98635401446435
30
0
41
1
10
27.149390334559
20
-6.55030483272057
30
0
0
SPLINE
5
118
100
AcDbEntity
8
1
62
256
6
ByLayer
370
18
48
1
60
0
100
AcDbSpline
70
4
71
3
72
8
73
4
40
0
40
0
40
0
40
0
40
1
40
1
40
1
40
1
41
1
10
20.7854293038801
20
-6.55030483272057
30
0
41
1
10
21.6575276673676
20
-6.98635401446435
30
0
41
1
10
22.5296260308086
20
-7.42240319618483
30
0
41
1
10
23.401724394273
20
-7.85845237791702
30
0
0
SPLINE
5
119
100
AcDbEntity
8
1
62
256
6
ByLayer
370
18
48
1
60
0
100
AcDbSpline
70
4
71
3
72
8
73
4
40
0
40
0
40
0
40
0
40
1
40
1
40
1
40
1
41
1
10
29.7656854249477
20
-5.24215728752469
30
0
41
1
10
29.4905538033055
20
-4.28664259201597
30
0
41
1
10
29.2154221816642
20
-3.33112789650684
30
0
41
1
10
28.9402905600228
20
-2.37561320099769
30
0
0
SPLINE
5
11A
100
AcDbEntity
8
1
62
256
6
ByLayer
370
18
48
1
60
0
100
AcDbSpline
70
4
71
3
72
8
73
4
40
0
40
0
40
0
40
0
40
1
40
1
40
1
40
1
41
1
10
27.149390334559
20
-6.55030483272057
30
0
41
1
10
28.0214886980466
20
-6.11425565097679
30
0
41
1
10
28.8935870614876
20
-5.67820646925631
30
0
41
1
10
29.7656854249519
20
-5.24215728752409
30
0
0
SPLINE
5
11B
100
AcDbEntity
8
1
62
256
6
ByLayer
370
18
48
1
60
0
100
AcDbSpline
70
4
71
3
72
8
73
4
40
0
40
0
40
0
40
0
40
1
40
1
40
1
40
1
41
1
10
24.533095244171
20
-4.57921085892346
30
0
41
1
10
24.5330952441717
20
-5.67229136525293
30
0
41
1
10
24.5330952441723
20
-6.7653718715824
30
0
41
1
10
24.5330952441721
20
-7.8584523779123
30
0
0
SPLINE
5
11C
100
AcDbEntity
8
1
62
256
6
ByLayer
370
18
48
1
60
0
100
AcDbSpline
70
4
71
1
72
4
73
2
40
0
40
0
40
1
40
1
41
1
10
20.7854293038801
20
-6.55030483272057
30
0
41
1
10
21.1981267363426
20
-3.47741202996284
30
0
0
SPLINE
5
11D
100
AcDbEntity
8
1
62
256
6
ByLayer
370
18
48
1
60
0
100
AcDbSpline
70
4
71
3
72
17
73
13
40
0
40
0
40
0
40
0
40
0.0625
40
0.125
40
0.25
40
0.375
40
0.5
40
0.625
40
0.75
40
0.875
40
0.9375
40
1
40
1
40
1
40
1
41
1
10
24.5330952441702
20
-4.57921085892565
30
0
41
1
10
24.5145838282194
20
-4.58846656690108
30
0
41
1
10
24.4757338015464
20
-4.60606416563559
30
0
41
1
10
24.3915054602439
20
-4.63727964127162
30
0
41
1
10
24.2755074355754
20
-4.66827634343645
30
0
41
1
10
24.1244818150698
20
-4.69120283735836
30
0
41
1
10
23.9674095742763
20
-4.69895077590454
30
0
41
1
10
23.8103367672086
20
-4.69120299006872
30
0
41
1
10
23.6593126285198
20
-4.66827563638506
30
0
41
1
10
23.5433139488065
20
-4.63727962831041
30
0
41
1
10
23.4590862635241
20
-4.60606380616062
30
0
41
1
10
23.4202358102197
20
-4.5884665669013
30
0
41
1
10
23.4017243942689
20
-4.57921085892593
30
0
0
SPLINE
5
11E
100
AcDbEntity
8
1
62
256
6
ByLayer
370
18
48
1
60
0
100
AcDbSpline
70
4
71
3
72
8
73
4
40
0
40
0
40
0
40
0
40
1
40
1
40
1
40
1
41
1
10
28.9402905600236
20
-2.37561320099928
30
0
41
1
10
28.2057580073841
20
-2.74287947731904
30
0
41
1
10
27.4712254547498
20
-3.1101457536362
30
0
41
1
10
26.7366929020965
20
-3.47741202996284
30
0
0
SPLINE
5
11F
100
AcDbEntity
8
1
62
256
6
ByLayer
370
18
48
1
60
0
100
AcDbSpline
70
4
71
1
72
4
73
2
40
0
40
0
40
1
40
1
41
1
10
27.149390334559
20
-6.55030483272057
30
0
41
1
10
26.7366929020965
20
-3.47741202996284
30
0
0
SPLINE
5
120
100
AcDbEntity
8
1
62
256
6
ByLayer
370
18
48
1
60
0
100
AcDbSpline
70
4
71
3
72
17
73
13
40
0
40
0
40
0
40
0
40
0.0625
40
0.125
40
0.25
40
0.375
40
0.5
40
0.625
40
0.75
40
0.875
40
0.9375
40
1
40
1
40
1
40
1
41
1
10
23.4017243942703
20
-7.85845253945712
30
0
41
1
10
23.4202364064708
20
-7.86770854555735
30
0
41
1
10
23.4590795375652
20
-7.88531088332041
30
0
41
1
10
23.5432907948632
20
-7.91654078957126
30
0
41
1
10
23.6592893884118
20
-7.94754377902686
30
0
41
1
10
23.8103312509512
20
-7.97045282210883
30
0
41
1
10
23.9674096221003
20
-7.97818830831088
30
0
41
1
10
24.1244877314793
20
-7.97045277727705
30
0
41
1
10
24.2755305024925
20
-7.94754426094721
30
0
41
1
10
24.3915287326839
20
-7.91654081522861
30
0
41
1
10
24.4757403625294
20
-7.88531110659682
30
0
41
1
10
24.5145832319682
20
-7.86770854555698
30
0
41
1
10
24.5330952441688
20
-7.85845253945669
30
0
0
SPLINE
5
121
100
AcDbEntity
8
1
62
256
6
ByLayer
370
18
48
1
60
0
100
AcDbSpline
70
4
71
3
72
17
73
13
40
0
40
0
40
0
40
0
40
0.0625
40
0.125
40
0.25
40
0.375
40
0.5
40
0.625
40
0.75
40
0.875
40
0.9375
40
1
40
1
40
1
40
1
41
1
10
28.9402905600227
20
-1.80992777604871
30
0
41
1
10
28.9588019759736
20
-1.81918348402414
30
0
41
1
10
28.9939971734426
20
-1.83860849736064
30
0
41
1
10
29.0564281247146
20
-1.88072266801194
30
0
41
1
10
29.1184215290441
20
-1.93872168034622
30
0
41
1
10
29.1642745168878
20
-2.01423449059911
30
0
41
1
10
29.1797703939801
20
-2.09277061099587
30
0
41
1
10
29.1642748223085
20
-2.17130701452973
30
0
41
1
10
29.1184201149411
20
-2.24681908387416
30
0
41
1
10
29.0564280987918
20
-2.30481842373081
30
0
41
1
10
28.9939964544922
20
-2.34693226637199
30
0
41
1
10
28.9588019759736
20
-2.36635749302422
30
0
41
1
10
28.9402905600228
20
-2.37561320099962
30
0
0
SPLINE
5
122
100
AcDbEntity
8
1
62
256
6
ByLayer
370
18
48
1
60
0
100
AcDbSpline
70
4
71
3
72
8
73
4
40
0
40
0
40
0
40
0
40
1
40
1
40
1
40
1
41
1
10
26.7366929020965
20
-3.47741202996284
30
0
41
1
10
26.0021603494437
20
-3.84467830628924
30
0
41
1
10
25.2676277968098
20
-4.21194458260618
30
0
41
1
10
24.5330952441707
20
-4.57921085892573
30
0
0
SPLINE
5
123
100
AcDbEntity
8
1
62
256
6
ByLayer
370
18
48
1
60
0
100
AcDbSpline
70
4
71
3
72
8
73
4
40
0
40
0
40
0
40
0
40
1
40
1
40
1
40
1
41
1
10
23.3896855142602
20
10.9214281212184
30
0
41
1
10
23.3913069353645
20
10.9149618496352
30
0
41
1
10
23.3929286131904
20
10.9084945542395
30
0
41
1
10
23.3945505608088
20
10.902026182904
30
0
0
SPLINE
5
124
100
AcDbEntity
8
1
62
256
6
ByLayer
370
18
48
1
60
0
100
AcDbSpline
70
4
71
3
72
8
73
4
40
0
40
0
40
0
40
0
40
1
40
1
40
1
40
1
41
1
10
25.1247213555753
20
9.91755358902159
30
0
41
1
10
25.1183106895644
20
9.9193825329466
30
0
41
1
10
25.111899008545
20
9.92121176645051
30
0
41
1
10
25.1054862608381
20
9.92304130427715
30
0
0
SPLINE
5
125
100
AcDbEntity
8
1
62
256
6
ByLayer
370
18
48
1
60
0
100
AcDbSpline
70
4
71
3
72
8
73
4
40
0
40
0
40
0
40
0
40
1
40
1
40
1
40
1
41
1
10
24.5451341241789
20
8.91583017898469
30
0
41
1
10
24.5435127030746
20
8.92229645056784
30
0
41
1
10
24.5418910252487
20
8.92876374596355
30
0
41
1
10
24.5402690776303
20
8.93523211729905
30
0
0
SPLINE
5
126
100
AcDbEntity
8
1
62
256
6
ByLayer
370
18
48
1
60
0
100
AcDbSpline
70
4
71
3
72
16
73
12
40
0
40
0
40
0
40
0
40
0.125
40
0.125
40
0.25
40
0.25
40
0.5
40
0.5
40
0.75
40
0.75
40
1
40
1
40
1
40
1
41
1
10
24.9702087903364
20
9.34090484514215
30
0
41
1
10
24.9824105077765
20
9.33285160100118
30
0
41
1
10
24.9966911321029
20
9.32845052429047
30
0
41
1
10
25.0264790781966
20
9.32865118270038
30
0
41
1
10
25.0417575514948
20
9.33317214645894
30
0
41
1
10
25.084089810708
20
9.3548042273776
30
0
41
1
10
25.1079367272845
20
9.37875687642909
30
0
41
1
10
25.1481601888909
20
9.43123074932743
30
0
41
1
10
25.1648160311971
20
9.46042206722089
30
0
41
1
10
25.1926682202591
20
9.52108085832353
30
0
41
1
10
25.2038810200901
20
9.55269574833449
30
0
41
1
10
25.2125365055975
20
9.58499846001212
30
0
0
SPLINE
5
127
100
AcDbEntity
8
1
62
256
6
ByLayer
370
18
48
1
60
0
100
AcDbSpline
70
4
71
3
72
8
73
4
40
0
40
0
40
0
40
0
40
1
40
1
40
1
40
1
41
1
10
24.546997050616
20
10.9203525601384
30
0
41
1
10
24.5422078057093
20
10.9157152324803
30
0
41
1
10
24.5374178025159
20
10.9110771705885
30
0
41
1
10
24.5326270024273
20
10.9064383370796
30
0
0
SPLINE
5
128
100
AcDbEntity
8
1
62
256
6
ByLayer
370
18
48
1
60
0
100
AcDbSpline
70
4
71
3
72
8
73
4
40
0
40
0
40
0
40
0
40
1
40
1
40
1
40
1
41
1
10
24.9552190061976
20
10.4838463333093
30
0
41
1
10
24.9598578397065
20
10.4886371333978
30
0
41
1
10
24.9644959015984
20
10.4934271365913
30
0
41
1
10
24.9691332292565
20
10.4982163814979
30
0
0
SPLINE
5
129
100
AcDbEntity
8
1
62
256
6
ByLayer
370
18
48
1
60
0
100
AcDbSpline
70
4
71
3
72
8
73
4
40
0
40
0
40
0
40
0
40
1
40
1
40
1
40
1
41
1
10
24.950806852022
20
9.34576989169071
30
0
41
1
10
24.9572752233576
20
9.34414794407235
30
0
41
1
10
24.9637425187532
20
9.34252626624649
30
0
41
1
10
24.9702087903364
20
9.34090484514215
30
0
0
SPLINE
5
12A
100
AcDbEntity
8
1
62
256
6
ByLayer
370
18
48
1
60
0
100
AcDbSpline
70
4
71
3
72
16
73
12
40
0
40
0
40
0
40
0
40
0.125
40
0.125
40
0.25
40
0.25
40
0.5
40
0.5
40
0.75
40
0.75
40
1
40
1
40
1
40
1
41
1
10
23.9684853802995
20
8.76131761374577
30
0
41
1
10
23.9676119250106
20
8.74672399440234
30
0
41
1
10
23.9709407929383
20
8.73215607259843
30
0
41
1
10
23.9860085412656
20
8.7064592837597
30
0
41
1
10
23.9975630473792
20
8.6954882196317
30
0
41
1
10
24.0374631085981
20
8.66964344821284
30
0
41
1
10
24.0701301694529
20
8.66096773718132
30
0
41
1
10
24.1356856072209
20
8.65237013405124
30
0
41
1
10
24.1692939512397
20
8.6525414104394
30
0
41
1
10
24.2357520998285
20
8.65875010271199
30
0
41
1
10
24.2687377976313
20
8.66484697821625
30
0
41
1
10
24.301040509309
20
8.67350246372359
30
0
0
SPLINE
5
12B
100
AcDbEntity
8
1
62
256
6
ByLayer
370
18
48
1
60
0
100
AcDbSpline
70
4
71
3
72
18
73
14
40
0
40
0
40
0
40
0
40
0.25
40
0.25
40
0.5
40
0.5
40
0.625
40
0.625
40
0.75
40
0.75
40
0.875
40
0.875
40
1
40
1
40
1
40
1
41
1
10
24.301040509309
20
8.67350246372359
30
0
41
1
10
24.3333278813122
20
8.6821538389776
30
0
41
1
10
24.3649056962623
20
8.69335017413135
30
0
41
1
10
24.4255751859511
20
8.7212002971788
30
0
41
1
10
24.4546942990933
20
8.73780082790111
30
0
41
1
10
24.4941274888617
20
8.76801400722769
30
0
41
1
10
24.5064687160597
20
8.77892911641851
30
0
41
1
10
24.5284856832553
20
8.80276265046803
30
0
41
1
10
24.5383593814646
20
8.81593708118851
30
0
41
1
10
24.5527928714685
20
8.84409163350196
30
0
41
1
10
24.5573612596622
20
8.85929410506049
30
0
41
1
10
24.5576130411662
20
8.88935807731013
30
0
41
1
10
24.5531910897355
20
8.90362282311344
30
0
41
1
10
24.5451341241789
20
8.91583017898469
30
0
0
SPLINE
5
12C
100
AcDbEntity
8
1
62
256
6
ByLayer
370
18
48
1
60
0
100
AcDbSpline
70
4
71
3
72
8
73
4
40
0
40
0
40
0
40
0
40
1
40
1
40
1
40
1
41
1
10
23.9718219733952
20
11.0567055917201
30
0
41
1
10
23.9699924355685
20
11.0631183394269
30
0
41
1
10
23.9681632020647
20
11.0695300204463
30
0
41
1
10
23.9663342581397
20
11.0759406864573
30
0
0
SPLINE
5
12D
100
AcDbEntity
8
1
62
256
6
ByLayer
370
18
48
1
60
0
100
AcDbSpline
70
4
71
3
72
8
73
4
40
0
40
0
40
0
40
0
40
1
40
1
40
1
40
1
41
1
10
22.8100982828638
20
9.91970471118142
30
0
41
1
10
22.8165089488747
20
9.91787576725642
30
0
41
1
10
22.8229206298942
20
9.91604653375254
30
0
41
1
10
22.829333377601
20
9.9142169959259
30
0
0
SPLINE
5
12E
100
AcDbEntity
8
1
62
256
6
ByLayer
370
18
48
1
60
0
100
AcDbSpline
70
4
71
3
72
18
73
14
40
0
40
0
40
0
40
0
40
0.25
40
0.25
40
0.5
40
0.5
40
0.625
40
0.625
40
0.75
40
0.75
40
0.875
40
0.875
40
1
40
1
40
1
40
1
41
1
10
25.2125365055975
20
9.58499846001212
30
0
41
1
10
25.2211878808515
20
9.6172858320154
30
0
41
1
10
25.2272804776541
20
9.65023118953502
30
0
41
1
10
25.2334963084409
20
9.71669757036392
30
0
41
1
10
25.2336793836901
20
9.75021572744183
30
0
41
1
10
25.2272305977484
20
9.79947246119681
30
0
41
1
10
25.223948449503
20
9.81561783205953
30
0
41
1
10
25.2143164871521
20
9.84660185199004
30
0
41
1
10
25.2078439445724
20
9.86173994082881
30
0
41
1
10
25.1906781320387
20
9.88831698599415
30
0
41
1
10
25.1797965995656
20
9.89987456200359
30
0
41
1
10
25.1538863266107
20
9.91512459730706
30
0
41
1
10
25.1393217186512
20
9.91842744793544
30
0
41
1
10
25.1247213555753
20
9.91755358902159
30
0
0
SPLINE
5
12F
100
AcDbEntity
8
1
62
256
6
ByLayer
370
18
48
1
60
0
100
AcDbSpline
70
4
71
3
72
18
73
14
40
0
40
0
40
0
40
0
40
0.125
40
0.125
40
0.249999999999999
40
0.249999999999999
40
0.5
40
0.5
40
0.75
40
0.75
40
0.875
40
0.875
40
1
40
1
40
1
40
1
41
1
10
25.1054862608381
20
9.92304130427715
30
0
41
1
10
25.0818657928663
20
9.92978015345895
30
0
41
1
10
25.0609165040503
20
9.94453803944279
30
0
41
1
10
25.0234970689339
20
9.98034692161497
30
0
41
1
10
25.0071285186952
20
10.0015504464578
30
0
41
1
10
24.9638031859569
20
10.0699601353786
30
0
41
1
10
24.942389035172
20
10.1220294032222
30
0
41
1
10
24.9134723088075
20
10.2299367833877
30
0
41
1
10
24.9059832886388
20
10.2857508583426
30
0
41
1
10
24.9092869974415
20
10.3666058437429
30
0
41
1
10
24.9128446025058
20
10.3931280317882
30
0
41
1
10
24.9273641461809
20
10.4429471126581
30
0
41
1
10
24.9381415668671
20
10.4662094429791
30
0
41
1
10
24.9552190061976
20
10.4838463333093
30
0
0
SPLINE
5
130
100
AcDbEntity
8
1
62
256
6
ByLayer
370
18
48
1
60
0
100
AcDbSpline
70
4
71
3
72
16
73
12
40
0
40
0
40
0
40
0
40
0.125
40
0.125
40
0.25
40
0.25
40
0.5
40
0.5
40
0.75
40
0.75
40
1
40
1
40
1
40
1
41
1
10
24.9691332292565
20
10.4982163814979
30
0
41
1
10
24.9822084019855
20
10.5047567567004
30
0
41
1
10
24.9931601583842
20
10.5149236017936
30
0
41
1
10
25.0078803561506
20
10.5408210490422
30
0
41
1
10
25.0116043233352
20
10.5563130769288
30
0
41
1
10
25.0140365213294
20
10.6037899292663
30
0
41
1
10
25.0052163770512
20
10.6364182893493
30
0
41
1
10
24.9798844008895
20
10.6974897653777
30
0
41
1
10
24.9629318991769
20
10.726509806883
30
0
41
1
10
24.9243259396502
20
10.780959905713
30
0
41
1
10
24.9025530416783
20
10.8064779202198
30
0
41
1
10
24.8789058155081
20
10.83012514639
30
0
0
SPLINE
5
131
100
AcDbEntity
8
1
62
256
6
ByLayer
370
18
48
1
60
0
100
AcDbSpline
70
4
71
3
72
18
73
14
40
0
40
0
40
0
40
0
40
0.25
40
0.25
40
0.5
40
0.5
40
0.625
40
0.625
40
0.75
40
0.75
40
0.875
40
0.875
40
1
40
1
40
1
40
1
41
1
10
24.8789058155081
20
10.83012514639
30
0
41
1
10
24.8552698187588
20
10.8537611431393
30
0
41
1
10
24.8297846006113
20
10.8755101655052
30
0
41
1
10
24.7753309417093
20
10.9141264232866
30
0
41
1
10
24.7463949038165
20
10.9310440496422
30
0
41
1
10
24.7005129281063
20
10.9500876040706
30
0
41
1
10
24.684889552663
20
10.9553178657425
30
0
41
1
10
24.6532406231163
20
10.9624683516235
30
0
41
1
10
24.6368943823273
20
10.9644320097418
30
0
41
1
10
24.6052950797898
20
10.9628545025937
30
0
41
1
10
24.5898451591229
20
10.9592096070446
30
0
41
1
10
24.5636831046641
20
10.9443956700984
30
0
41
1
10
24.5535404481352
20
10.9334337749235
30
0
41
1
10
24.546997050616
20
10.9203525601384
30
0
0
SPLINE
5
132
100
AcDbEntity
8
1
62
256
6
ByLayer
370
18
48
1
60
0
100
AcDbSpline
70
4
71
3
72
16
73
12
40
0
40
0
40
0
40
0
40
0.125
40
0.125
40
0.25
40
0.25
40
0.5
40
0.5
40
0.75
40
0.75
40
1
40
1
40
1
40
1
41
1
10
22.9646108481027
20
10.4963534550609
30
0
41
1
10
22.9524091306626
20
10.5044066992018
30
0
41
1
10
22.9381285063362
20
10.5088077759126
30
0
41
1
10
22.9083405602426
20
10.5086071175026
30
0
41
1
10
22.8930620869443
20
10.5040861537441
30
0
41
1
10
22.8507298277312
20
10.4824540728254
30
0
41
1
10
22.8268829111546
20
10.4585014237739
30
0
41
1
10
22.7866594495483
20
10.4060275508756
30
0
41
1
10
22.7700036072421
20
10.3768362329822
30
0
41
1
10
22.7421514181801
20
10.3161774418795
30
0
41
1
10
22.730938618349
20
10.2845625518686
30
0
41
1
10
22.7222831328417
20
10.2522598401909
30
0
0
SPLINE
5
133
100
AcDbEntity
8
1
62
256
6
ByLayer
370
18
48
1
60
0
100
AcDbSpline
70
4
71
3
72
18
73
14
40
0
40
0
40
0
40
0
40
0.25
40
0.25
40
0.5
40
0.5
40
0.625
40
0.625
40
0.75
40
0.75
40
0.875
40
0.875
40
1
40
1
40
1
40
1
41
1
10
22.7222831328417
20
10.2522598401909
30
0
41
1
10
22.7136317575876
20
10.2199724681877
30
0
41
1
10
22.7075391607851
20
10.187027110668
30
0
41
1
10
22.7013233299982
20
10.1205607298391
30
0
41
1
10
22.701140254749
20
10.0870425727612
30
0
41
1
10
22.7075890406907
20
10.0377858390062
30
0
41
1
10
22.710871188936
20
10.0216404681435
30
0
41
1
10
22.7205031512871
20
9.990656448213
30
0
41
1
10
22.7269756938667
20
9.97551835937423
30
0
41
1
10
22.7441415064005
20
9.94894131420887
30
0
41
1
10
22.7550230388736
20
9.93738373819946
30
0
41
1
10
22.7809333118284
20
9.92213370289599
30
0
41
1
10
22.795497919788
20
9.91883085226758
30
0
41
1
10
22.8100982828638
20
9.91970471118142
30
0
0
SPLINE
5
134
100
AcDbEntity
8
1
62
256
6
ByLayer
370
18
48
1
60
0
100
AcDbSpline
70
4
71
3
72
8
73
4
40
0
40
0
40
0
40
0
40
1
40
1
40
1
40
1
41
1
10
23.9629976650439
20
8.78055270848296
30
0
41
1
10
23.9648272028706
20
8.7741399607761
30
0
41
1
10
23.9666564363745
20
8.76772827975671
30
0
41
1
10
23.9684853802995
20
8.76131761374577
30
0
0
SPLINE
5
135
100
AcDbEntity
8
1
62
256
6
ByLayer
370
18
48
1
60
0
100
AcDbSpline
70
4
71
3
72
8
73
4
40
0
40
0
40
0
40
0
40
1
40
1
40
1
40
1
41
1
10
22.9840127864171
20
10.4914884085123
30
0
41
1
10
22.9775444150816
20
10.4931103561307
30
0
41
1
10
22.9710771196859
20
10.4947320339566
30
0
41
1
10
22.9646108481027
20
10.4963534550609
30
0
0
SPLINE
5
136
100
AcDbEntity
8
1
62
256
6
ByLayer
370
18
48
1
60
0
100
AcDbSpline
70
4
71
3
72
18
73
14
40
0
40
0
40
0
40
0
40
0.125
40
0.125
40
0.250000000000001
40
0.250000000000001
40
0.500000000000001
40
0.500000000000001
40
0.75
40
0.75
40
0.875
40
0.875
40
1
40
1
40
1
40
1
41
1
10
24.5326270024273
20
10.9064383370796
30
0
41
1
10
24.5149807538577
20
10.8893518363576
30
0
41
1
10
24.4917254052816
20
10.8785881630437
30
0
41
1
10
24.4420042860811
20
10.8640864227237
30
0
41
1
10
24.4154572197981
20
10.8605126048153
30
0
41
1
10
24.3345500249586
20
10.8571966104969
30
0
41
1
10
24.2787496408571
20
10.8646860458385
30
0
41
1
10
24.1708407451957
20
10.8935971162953
30
0
41
1
10
24.1187598283117
20
10.9150184720573
30
0
41
1
10
24.0503892113337
20
10.9583070605072
30
0
41
1
10
24.0291991252548
20
10.9746491308922
30
0
41
1
10
23.9933143074657
20
11.0121329650011
30
0
41
1
10
23.9785572487996
20
11.0330976502631
30
0
41
1
10
23.9718219733952
20
11.0567055917201
30
0
0
SPLINE
5
137
100
AcDbEntity
8
1
62
256
6
ByLayer
370
18
48
1
60
0
100
AcDbSpline
70
4
71
3
72
16
73
12
40
0
40
0
40
0
40
0
40
0.125
40
0.125
40
0.25
40
0.25
40
0.5
40
0.5
40
0.75
40
0.75
40
1
40
1
40
1
40
1
41
1
10
23.9663342581397
20
11.0759406864573
30
0
41
1
10
23.9672077134285
20
11.0905343058007
30
0
41
1
10
23.9638788455009
20
11.1051022276046
30
0
41
1
10
23.9488110971736
20
11.1307990164433
30
0
41
1
10
23.93725659106
20
11.1417700805713
30
0
41
1
10
23.8973565298411
20
11.1676148519902
30
0
41
1
10
23.8646894689863
20
11.1762905630217
30
0
41
1
10
23.7991340312182
20
11.1848881661518
30
0
41
1
10
23.7655256871994
20
11.1847168897636
30
0
41
1
10
23.6990675386107
20
11.178508197491
30
0
41
1
10
23.6660818408078
20
11.1724113219868
30
0
41
1
10
23.6337791291302
20
11.1637558364794
30
0
0
SPLINE
5
138
100
AcDbEntity
8
1
62
256
6
ByLayer
370
18
48
1
60
0
100
AcDbSpline
70
4
71
3
72
18
73
14
40
0
40
0
40
0
40
0
40
0.25
40
0.25
40
0.5
40
0.5
40
0.625
40
0.625
40
0.75
40
0.75
40
0.875
40
0.875
40
1
40
1
40
1
40
1
41
1
10
23.6337791291302
20
11.1637558364794
30
0
41
1
10
23.6014917571269
20
11.1551044612255
30
0
41
1
10
23.5699139421769
20
11.1439081260717
30
0
41
1
10
23.509244452488
20
11.1160580030243
30
0
41
1
10
23.4801253393459
20
11.0994574723019
30
0
41
1
10
23.4406921495774
20
11.0692442929753
30
0
41
1
10
23.4283509223795
20
11.0583291837845
30
0
41
1
10
23.4063339551838
20
11.034495649735
30
0
41
1
10
23.3964602569745
20
11.0213212190145
30
0
41
1
10
23.3820267669707
20
10.9931666667011
30
0
41
1
10
23.3774583787769
20
10.9779641951425
30
0
41
1
10
23.3772065972729
20
10.9479002228929
30
0
41
1
10
23.3816285487036
20
10.9336354770896
30
0
41
1
10
23.3896855142602
20
10.9214281212184
30
0
0
SPLINE
5
139
100
AcDbEntity
8
1
62
256
6
ByLayer
370
18
48
1
60
0
100
AcDbSpline
70
4
71
3
72
18
73
14
40
0
40
0
40
0
40
0
40
0.125000000000001
40
0.125000000000001
40
0.250000000000001
40
0.250000000000001
40
0.5
40
0.5
40
0.75
40
0.75
40
0.875
40
0.875
40
1
40
1
40
1
40
1
41
1
10
24.5402690776303
20
8.93523211729905
30
0
41
1
10
24.5342948582282
20
8.95905746720285
30
0
41
1
10
24.5366009179883
20
8.98457902650065
30
0
41
1
10
24.5489026020723
20
9.03488964899285
30
0
41
1
10
24.5590811181166
20
9.05966699174405
30
0
41
1
10
24.596662980218
20
9.1313926749832
30
0
41
1
10
24.6310492135345
20
9.17597250748523
30
0
41
1
10
24.7100413828314
20
9.25496881719394
30
0
41
1
10
24.7546332795467
20
9.28936153638688
30
0
41
1
10
24.8263076053273
20
9.32692793333723
30
0
41
1
10
24.8510552964706
20
9.3371080509975
30
0
41
1
10
24.9014596579348
20
9.34944329775851
30
0
41
1
10
24.9269941372871
20
9.35174094281749
30
0
41
1
10
24.950806852022
20
9.34576989169071
30
0
0
SPLINE
5
13A
100
AcDbEntity
8
1
62
256
6
ByLayer
370
18
48
1
60
0
100
AcDbSpline
70
4
71
3
72
18
73
14
40
0
40
0
40
0
40
0
40
0.125000000000001
40
0.125000000000001
40
0.250000000000001
40
0.250000000000001
40
0.500000000000001
40
0.500000000000001
40
0.75
40
0.75
40
0.875
40
0.875
40
1
40
1
40
1
40
1
41
1
10
23.3945505608088
20
10.902026182904
30
0
41
1
10
23.400524780211
20
10.8782008330002
30
0
41
1
10
23.3982187204508
20
10.8526792737024
30
0
41
1
10
23.3859170363668
20
10.8023686512102
30
0
41
1
10
23.3757385203225
20
10.777591308459
30
0
41
1
10
23.3381566582212
20
10.7058656252198
30
0
41
1
10
23.3037704249047
20
10.6612857927178
30
0
41
1
10
23.2247782556078
20
10.5822894830091
30
0
41
1
10
23.1801863588924
20
10.5478967638162
30
0
41
1
10
23.1085120331118
20
10.5103303668658
30
0
41
1
10
23.0837643419685
20
10.5001502492055
30
0
41
1
10
23.0333599805044
20
10.4878150024445
30
0
41
1
10
23.0078255011521
20
10.4855173573856
30
0
41
1
10
22.9840127864171
20
10.4914884085123
30
0
0
SPLINE
5
13B
100
AcDbEntity
8
1
62
256
6
ByLayer
370
18
48
1
60
0
100
AcDbSpline
70
4
71
3
72
16
73
12
40
0
40
0
40
0
40
0
40
0.124999999999999
40
0.124999999999999
40
0.249999999999998
40
0.249999999999998
40
0.499999999999998
40
0.499999999999998
40
0.749999999999999
40
0.749999999999999
40
1
40
1
40
1
40
1
41
1
10
23.3878225878232
20
8.91690574006458
30
0
41
1
10
23.3812822126207
20
8.90383056733558
30
0
41
1
10
23.3711153675275
20
8.89287881093691
30
0
41
1
10
23.3452179202789
20
8.87815861317054
30
0
41
1
10
23.3297258923923
20
8.87443464598593
30
0
41
1
10
23.2822490400548
20
8.8720024479916
30
0
41
1
10
23.2496206799718
20
8.88082259226985
30
0
41
1
10
23.1885492039434
20
8.90615456843156
30
0
41
1
10
23.1595291624381
20
8.92310707014417
30
0
41
1
10
23.1050790636081
20
8.9617130296709
30
0
41
1
10
23.0795610491013
20
8.98348592764273
30
0
41
1
10
23.055913822931
20
9.00713315381299
30
0
0
SPLINE
5
13C
100
AcDbEntity
8
1
62
256
6
ByLayer
370
18
48
1
60
0
100
AcDbSpline
70
4
71
3
72
8
73
4
40
0
40
0
40
0
40
0
40
1
40
1
40
1
40
1
41
1
10
22.9656864091826
20
9.33904191870514
30
0
41
1
10
22.9703237368408
20
9.34383116361175
30
0
41
1
10
22.9749617987326
20
9.34862116680526
30
0
41
1
10
22.9796006322415
20
9.35341196689376
30
0
0
SPLINE
5
13D
100
AcDbEntity
8
1
62
256
6
ByLayer
370
18
48
1
60
0
100
AcDbSpline
70
4
71
3
72
16
73
12
40
0
40
0
40
0
40
0
40
0.25
40
0.25
40
0.5
40
0.5
40
0.749999999999999
40
0.749999999999999
40
0.875
40
0.875
40
1
40
1
40
1
40
1
41
1
10
23.055913822931
20
9.00713315381299
30
0
41
1
10
23.0322694540953
20
9.03077752264878
30
0
41
1
10
23.0105133855959
20
9.05627235683622
30
0
41
1
10
22.9718869314073
20
9.11074790482073
30
0
41
1
10
22.9549662408291
20
9.1396957288631
30
0
41
1
10
22.9295782425856
20
9.20089838962392
30
0
41
1
10
22.9207748629749
20
9.23319336153921
30
0
41
1
10
22.9232175624809
20
9.28104597055716
30
0
41
1
10
22.9269683944302
20
9.29648215592843
30
0
41
1
10
22.9416141696132
20
9.32226128877201
30
0
41
1
10
22.9526160267573
20
9.3325039396762
30
0
41
1
10
22.9656864091826
20
9.33904191870514
30
0
0
SPLINE
5
13E
100
AcDbEntity
8
1
62
256
6
ByLayer
370
18
48
1
60
0
100
AcDbSpline
70
4
71
3
72
18
73
14
40
0
40
0
40
0
40
0
40
0.125
40
0.125
40
0.25
40
0.25
40
0.499999999999999
40
0.499999999999999
40
0.749999999999999
40
0.749999999999999
40
0.874999999999999
40
0.874999999999999
40
1
40
1
40
1
40
1
41
1
10
23.9629976650439
20
8.78055270848296
30
0
41
1
10
23.9562197367196
20
8.80431015349794
30
0
41
1
10
23.9412410433611
20
8.82543641106088
30
0
41
1
10
23.9055661428724
20
8.86263063626811
30
0
41
1
10
23.8842487491722
20
8.87907237443406
30
0
41
1
10
23.8162152699101
20
8.92212915922607
30
0
41
1
10
23.7644110885043
20
8.94350800623795
30
0
41
1
10
23.6564095033143
20
8.9725184109094
30
0
41
1
10
23.6005293066223
20
8.98004301696298
30
0
41
1
10
23.5195781364895
20
8.97676910109408
30
0
41
1
10
23.49302465492
20
8.9732180359172
30
0
41
1
10
23.443141802417
20
8.95869882187728
30
0
41
1
10
23.4198488378317
20
8.94791610137358
30
0
41
1
10
23.4021926360118
20
8.93081996312344
30
0
0
SPLINE
5
13F
100
AcDbEntity
8
1
62
256
6
ByLayer
370
18
48
1
60
0
100
AcDbSpline
70
4
71
3
72
8
73
4
40
0
40
0
40
0
40
0
40
1
40
1
40
1
40
1
41
1
10
23.4021926360118
20
8.93081996312344
30
0
41
1
10
23.3974018359233
20
8.92618112961455
30
0
41
1
10
23.3926118327298
20
8.92154306772275
30
0
41
1
10
23.3878225878232
20
8.91690574006458
30
0
0
SPLINE
5
140
100
AcDbEntity
8
1
62
256
6
ByLayer
370
18
48
1
60
0
100
AcDbSpline
70
4
71
3
72
20
73
16
40
0
40
0
40
0
40
0
40
0.125
40
0.125
40
0.25
40
0.25
40
0.5
40
0.5
40
0.625
40
0.625
40
0.75
40
0.75
40
0.875
40
0.875
40
1
40
1
40
1
40
1
41
1
10
22.9796006322415
20
9.35341196689376
30
0
41
1
10
22.9967048602616
20
9.3710765235017
30
0
41
1
10
23.007473553202
20
9.39436097947984
30
0
41
1
10
23.0219749124911
20
9.44414203823973
30
0
41
1
10
23.0255486232666
20
9.47074598132224
30
0
41
1
10
23.028827763812
20
9.55189573587484
30
0
41
1
10
23.0212717526788
20
9.60778865457289
30
0
41
1
10
22.9994897178906
20
9.68879279551936
30
0
41
1
10
22.990549035348
20
9.71490872399679
30
0
41
1
10
22.9692100232412
20
9.76534454548278
30
0
41
1
10
22.9566724560212
20
9.78991796117217
30
0
41
1
10
22.9278548447786
20
9.83547811266564
30
0
41
1
10
22.9116194098512
20
9.85657187372541
30
0
41
1
10
22.8741458826697
20
9.89254260870746
30
0
41
1
10
22.8530455069432
20
9.90745199602804
30
0
41
1
10
22.829333377601
20
9.9142169959259
30
0
0
SPLINE
5
141
100
AcDbEntity
8
1
62
256
6
ByLayer
370
18
48
1
60
0
100
AcDbSpline
70
4
71
3
72
17
73
13
40
0
40
0
40
0
40
0
40
0.0625
40
0.125
40
0.25
40
0.375
40
0.5
40
0.625
40
0.75
40
0.875
40
0.9375
40
1
40
1
40
1
40
1
41
1
10
18.1691341728294
20
9.3529437251523
30
0
41
1
10
18.1506221606289
20
9.37145573735279
30
0
41
1
10
18.1154174851027
20
9.41029886844714
30
0
41
1
10
18.052957672601
20
9.49451012574519
30
0
41
1
10
17.9909516936897
20
9.61050871929373
30
0
41
1
10
17.9451336075258
20
9.76155058183318
30
0
41
1
10
17.9296626351215
20
9.91862895298229
30
0
41
1
10
17.9451336971891
20
10.0757070623613
30
0
41
1
10
17.9909507298487
20
10.2267498333745
30
0
41
1
10
18.0529576212858
20
10.3427480635659
30
0
41
1
10
18.1154170385494
20
10.4269596934114
30
0
41
1
10
18.150622160629
20
10.4658025628502
30
0
41
1
10
18.1691341728295
20
10.4843145750508
30
0
0
SPLINE
5
142
100
AcDbEntity
8
1
62
256
6
ByLayer
370
18
48
1
60
0
100
AcDbSpline
70
4
71
3
72
8
73
4
40
0
40
0
40
0
40
0
40
1
40
1
40
1
40
1
41
1
10
18.1691342134872
20
10.4843145750481
30
0
41
1
10
19.0412325769516
20
11.3564129385125
30
0
41
1
10
19.9133309403925
20
12.2285113019534
30
0
41
1
10
20.7854293038801
20
13.100609665441
30
0
0
SPLINE
5
143
100
AcDbEntity
8
1
62
256
6
ByLayer
370
18
48
1
60
0
100
AcDbSpline
70
4
71
3
72
8
73
4
40
0
40
0
40
0
40
0
40
1
40
1
40
1
40
1
41
1
10
24.5330952441688
20
15.7169047558312
30
0
41
1
10
24.5888897725148
20
14.7215144545549
30
0
41
1
10
24.6446843008608
20
13.7261241532787
30
0
41
1
10
24.7004788292068
20
12.7307338520024
30
0
0
SPLINE
5
144
100
AcDbEntity
8
1
62
256
6
ByLayer
370
18
48
1
60
0
100
AcDbSpline
70
4
71
3
72
8
73
4
40
0
40
0
40
0
40
0
40
1
40
1
40
1
40
1
41
1
10
27.149390334559
20
6.73664863476202
30
0
41
1
10
26.7578571696022
20
7.12818179971356
30
0
41
1
10
26.3663240046453
20
7.51971496466513
30
0
41
1
10
25.9747908396885
20
7.91124812961667
30
0
0
SPLINE
5
145
100
AcDbEntity
8
1
62
256
6
ByLayer
370
18
48
1
60
0
100
AcDbSpline
70
4
71
3
72
10
73
6
40
0
40
0
40
0
40
0
40
0.375000000000406
40
0.750000000000812
40
1
40
1
40
1
40
1
41
1
10
25.9747908397044
20
11.9260101705704
30
0
41
1
10
25.839681461308
20
12.061119548969
30
0
41
1
10
25.5468708766629
20
12.3087421077032
30
0
41
1
10
25.1091180717776
20
12.5680606307866
30
0
41
1
10
24.8185395050563
20
12.689133918771
30
0
41
1
10
24.7004788292083
20
12.7307338520019
30
0
0
SPLINE
5
146
100
AcDbEntity
8
1
62
256
6
ByLayer
370
18
48
1
60
0
100
AcDbSpline
70
4
71
3
72
10
73
6
40
0
40
0
40
0
40
0
40
0.249999999999985
40
0.624999999999992
40
1
40
1
40
1
40
1
41
1
10
21.1553051173188
20
9.18556014013018
30
0
41
1
10
21.1969050505479
20
9.06749946428076
30
0
41
1
10
21.3179783385265
20
8.77692089755556
30
0
41
1
10
21.5772968616179
20
8.33916809267555
30
0
41
1
10
21.8249194203445
20
8.04635750802214
30
0
41
1
10
21.9600287987427
20
7.91124812962462
30
0
0
SPLINE
5
147
100
AcDbEntity
8
1
62
256
6
ByLayer
370
18
48
1
60
0
100
AcDbSpline
70
4
71
3
72
8
73
4
40
0
40
0
40
0
40
0
40
1
40
1
40
1
40
1
41
1
10
29.7656854249519
20
10.484314575048
30
0
41
1
10
28.7702951236747
20
10.5401091033896
30
0
41
1
10
27.7749048223975
20
10.5959036317312
30
0
41
1
10
26.7795145211203
20
10.6516981600728
30
0
0
SPLINE
5
148
100
AcDbEntity
8
1
62
256
6
ByLayer
370
18
48
1
60
0
100
AcDbSpline
70
4
71
3
72
8
73
4
40
0
40
0
40
0
40
0
40
1
40
1
40
1
40
1
41
1
10
20.7854293038801
20
6.73664863476208
30
0
41
1
10
21.1769624688343
20
7.12818179971626
30
0
41
1
10
21.5684956337885
20
7.51971496467044
30
0
41
1
10
21.9600287987427
20
7.91124812962462
30
0
0
SPLINE
5
149
100
AcDbEntity
8
1
62
256
6
ByLayer
370
18
48
1
60
0
100
AcDbSpline
70
4
71
3
72
8
73
4
40
0
40
0
40
0
40
0
40
1
40
1
40
1
40
1
41
1
10
18.1691342134872
20
9.35294372515497
30
0
41
1
10
19.1645245147644
20
9.29714919681339
30
0
41
1
10
20.1599148160416
20
9.24135466847181
30
0
41
1
10
21.1553051173189
20
9.18556014013021
30
0
0
SPLINE
5
14A
100
AcDbEntity
8
1
62
256
6
ByLayer
370
18
48
1
60
0
100
AcDbSpline
70
4
71
3
72
17
73
13
40
0
40
0
40
0
40
0
40
0.0625
40
0.125
40
0.25
40
0.375
40
0.5
40
0.625
40
0.75
40
0.875
40
0.9375
40
1
40
1
40
1
40
1
41
1
10
29.7656854656097
20
10.4843145750507
30
0
41
1
10
29.7841974778102
20
10.4658025628503
30
0
41
1
10
29.8194021533364
20
10.4269594317559
30
0
41
1
10
29.8818619658381
20
10.3427481744578
30
0
41
1
10
29.9438679447494
20
10.2267495809093
30
0
41
1
10
29.9896860309134
20
10.0757077183698
30
0
41
1
10
30.0051570033176
20
9.91862934722076
30
0
41
1
10
29.9896859412501
20
9.76155123784173
30
0
41
1
10
29.9438689085904
20
9.61050846682852
30
0
41
1
10
29.8818620171534
20
9.49451023663713
30
0
41
1
10
29.8194025998898
20
9.41029860679168
30
0
41
1
10
29.7841974778101
20
9.37145573735282
30
0
41
1
10
29.7656854656096
20
9.35294372515227
30
0
0
SPLINE
5
14B
100
AcDbEntity
8
1
62
256
6
ByLayer
370
18
48
1
60
0
100
AcDbSpline
70
4
71
3
72
8
73
4
40
0
40
0
40
0
40
0
40
1
40
1
40
1
40
1
41
1
10
24.5330952441661
20
15.7169047558339
30
0
41
1
10
25.4051936076305
20
14.8448063923695
30
0
41
1
10
26.2772919710715
20
13.9727080289285
30
0
41
1
10
27.149390334559
20
13.100609665441
30
0
0
SPLINE
5
14C
100
AcDbEntity
8
1
62
256
6
ByLayer
370
18
48
1
60
0
100
AcDbSpline
70
4
71
3
72
8
73
4
40
0
40
0
40
0
40
0
40
1
40
1
40
1
40
1
41
1
10
20.7854293038801
20
6.73664863476208
30
0
41
1
10
19.9133309403925
20
7.60874699824962
30
0
41
1
10
19.0412325769516
20
8.4808453616906
30
0
41
1
10
18.1691342134872
20
9.35294372515497
30
0
0
SPLINE
5
14D
100
AcDbEntity
8
1
62
256
6
ByLayer
370
18
48
1
60
0
100
AcDbSpline
70
4
71
3
72
8
73
4
40
0
40
0
40
0
40
0
40
1
40
1
40
1
40
1
41
1
10
20.7854293038801
20
13.100609665441
30
0
41
1
10
21.6575276673677
20
13.9727080289285
30
0
41
1
10
22.5296260308086
20
14.8448063923695
30
0
41
1
10
23.4017243942731
20
15.7169047558339
30
0
0
SPLINE
5
14E
100
AcDbEntity
8
1
62
256
6
ByLayer
370
18
48
1
60
0
100
AcDbSpline
70
4
71
3
72
8
73
4
40
0
40
0
40
0
40
0
40
1
40
1
40
1
40
1
41
1
10
18.1691342134899
20
10.4843145750508
30
0
41
1
10
19.1645245147661
20
10.5401091033968
30
0
41
1
10
20.1599148160424
20
10.5959036317427
30
0
41
1
10
21.1553051173187
20
10.6516981600887
30
0
0
SPLINE
5
14F
100
AcDbEntity
8
1
62
256
6
ByLayer
370
18
48
1
60
0
100
AcDbSpline
70
4
71
3
72
8
73
4
40
0
40
0
40
0
40
0
40
1
40
1
40
1
40
1
41
1
10
25.9747908397044
20
11.9260101705704
30
0
41
1
10
26.366324004656
20
12.3175433355273
30
0
41
1
10
26.7578571696075
20
12.7090765004841
30
0
41
1
10
27.149390334559
20
13.100609665441
30
0
0
SPLINE
5
150
100
AcDbEntity
8
1
62
256
6
ByLayer
370
18
48
1
60
0
100
AcDbSpline
70
4
71
3
72
8
73
4
40
0
40
0
40
0
40
0
40
1
40
1
40
1
40
1
41
1
10
27.149390334559
20
13.100609665441
30
0
41
1
10
28.0214886980466
20
12.2285113019534
30
0
41
1
10
28.8935870614876
20
11.3564129385125
30
0
41
1
10
29.7656854249519
20
10.484314575048
30
0
0
SPLINE
5
151
100
AcDbEntity
8
1
62
256
6
ByLayer
370
18
48
1
60
0
100
AcDbSpline
70
4
71
3
72
10
73
6
40
0
40
0
40
0
40
0
40
0.375000000000406
40
0.750000000000812
40
1
40
1
40
1
40
1
41
1
10
21.9600287987507
20
11.9260101705864
30
0
41
1
10
21.8249194203521
20
11.7909007921899
30
0
41
1
10
21.5772968616179
20
11.4980902075448
30
0
41
1
10
21.3179783385345
20
11.0603374026595
30
0
41
1
10
21.1969050505501
20
10.7697588359382
30
0
41
1
10
21.1553051173192
20
10.6516981600902
30
0
0
SPLINE
5
152
100
AcDbEntity
8
1
62
256
6
ByLayer
370
18
48
1
60
0
100
AcDbSpline
70
4
71
3
72
10
73
6
40
0
40
0
40
0
40
0
40
0.375000000000406
40
0.750000000000812
40
1
40
1
40
1
40
1
41
1
10
25.9747908396885
20
7.91124812961667
30
0
41
1
10
26.109900218087
20
8.0463575080131
30
0
41
1
10
26.3575227768213
20
8.33916809265818
30
0
41
1
10
26.6168412999046
20
8.7769208975435
30
0
41
1
10
26.7379145878891
20
9.06749946426481
30
0
41
1
10
26.77951452112
20
9.18556014011278
30
0
0
SPLINE
5
153
100
AcDbEntity
8
1
62
256
6
ByLayer
370
18
48
1
60
0
100
AcDbSpline
70
4
71
3
72
8
73
4
40
0
40
0
40
0
40
0
40
1
40
1
40
1
40
1
41
1
10
29.7656854249493
20
9.35294372515224
30
0
41
1
10
28.770295123673
20
9.29714919680626
30
0
41
1
10
27.7749048223967
20
9.2413546684603
30
0
41
1
10
26.7795145211205
20
9.18556014011432
30
0
0
SPLINE
5
154
100
AcDbEntity
8
1
62
256
6
ByLayer
370
18
48
1
60
0
100
AcDbSpline
70
4
71
3
72
10
73
6
40
0
40
0
40
0
40
0
40
0.249999999999984
40
0.624999999999992
40
1
40
1
40
1
40
1
41
1
10
23.2343408092482
20
12.7307338520023
30
0
41
1
10
23.1162801333988
20
12.6891339187732
30
0
41
1
10
22.8257015666736
20
12.5680606307946
30
0
41
1
10
22.3879487617936
20
12.3087421077032
30
0
41
1
10
22.0951381771402
20
12.0611195489766
30
0
41
1
10
21.9600287987427
20
11.9260101705784
30
0
0
SPLINE
5
155
100
AcDbEntity
8
1
62
256
6
ByLayer
370
18
48
1
60
0
100
AcDbSpline
70
4
71
3
72
29
73
25
40
0
40
0
40
0
40
0
40
0.125000000000946
40
0.171875000000894
40
0.218750000000842
40
0.242187500000817
40
0.265625000000791
40
0.277343750000778
40
0.289062500000765
40
0.312500000000739
40
0.359375000000687
40
0.406250000000635
40
0.500000000000532
40
0.593750000000428
40
0.640625000000376
40
0.687500000000324
40
0.710937500000298
40
0.722656250000285
40
0.734375000000272
40
0.757812500000247
40
0.781250000000221
40
0.828125000000169
40
0.875000000000117
40
1
40
1
40
1
40
1
41
1
10
21.1553051173192
20
10.6516981600902
30
0
41
1
10
21.1345051507035
20
10.5926678221655
30
0
41
1
10
21.1082527966567
20
10.5108723031205
30
0
41
1
10
21.0790299968509
20
10.4059356136376
30
0
41
1
10
21.0646002889517
20
10.3495082420659
30
0
41
1
10
21.0538013789
20
10.3042500368899
30
0
41
1
10
21.0473562754514
20
10.2759254842842
30
0
41
1
10
21.0423740499072
20
10.2532540719528
30
0
41
1
10
21.0375818758529
20
10.2305018756088
30
0
41
1
10
21.0298182831011
20
10.1903755126191
30
0
41
1
10
21.020529633444
20
10.1322832640762
30
0
41
1
10
21.0097643872466
20
10.0380490973901
30
0
41
1
10
21.0042943123043
20
9.91862916337661
30
0
41
1
10
21.0097644274595
20
9.79920923425325
30
0
41
1
10
21.0205296865691
20
9.70497507474568
30
0
41
1
10
21.0298183100955
20
9.64688281117881
30
0
41
1
10
21.037581879282
20
9.60675642801348
30
0
41
1
10
21.0423740493104
20
9.58400422767932
30
0
41
1
10
21.0473562756931
20
9.56133281616061
30
0
41
1
10
21.0538013791662
20
9.53300826358219
30
0
41
1
10
21.0646002888231
20
9.48775005802739
30
0
41
1
10
21.0790299968538
20
9.43132268658215
30
0
41
1
10
21.1082527966589
20
9.32638599709992
30
0
41
1
10
21.1345051507043
20
9.2445904780549
30
0
41
1
10
21.1553051173188
20
9.18556014013018
30
0
0
SPLINE
5
156
100
AcDbEntity
8
1
62
256
6
ByLayer
370
18
48
1
60
0
100
AcDbSpline
70
4
71
3
72
29
73
25
40
0
40
0
40
0
40
0
40
0.125000000000945
40
0.171875000000894
40
0.218750000000842
40
0.242187500000816
40
0.26562500000079
40
0.277343750000777
40
0.289062500000764
40
0.312500000000738
40
0.359375000000687
40
0.406250000000635
40
0.500000000000531
40
0.593750000000427
40
0.640625000000376
40
0.687500000000324
40
0.710937500000298
40
0.722656250000285
40
0.734375000000272
40
0.757812500000246
40
0.78125000000022
40
0.828125000000168
40
0.875000000000117
40
1
40
1
40
1
40
1
41
1
10
24.7004788292083
20
12.7307338520019
30
0
41
1
10
24.6414484912835
20
12.7515338186176
30
0
41
1
10
24.5596529722385
20
12.7777861726643
30
0
41
1
10
24.4547162827557
20
12.8070089724702
30
0
41
1
10
24.3982889111839
20
12.8214386803694
30
0
41
1
10
24.353030706008
20
12.8322375904211
30
0
41
1
10
24.3247061534022
20
12.8386826938697
30
0
41
1
10
24.3020347410709
20
12.8436649194139
30
0
41
1
10
24.2792825447269
20
12.8484570934681
30
0
41
1
10
24.2391561817371
20
12.85622068622
30
0
41
1
10
24.1810639331942
20
12.8655093358771
30
0
41
1
10
24.0868297665082
20
12.8762745820745
30
0
41
1
10
23.9674098324946
20
12.8817446570167
30
0
41
1
10
23.8479899033713
20
12.8762745418616
30
0
41
1
10
23.7537557438637
20
12.865509282752
30
0
41
1
10
23.6956634802968
20
12.8562206592256
30
0
41
1
10
23.6555370971315
20
12.8484570900391
30
0
41
1
10
23.6327848967974
20
12.8436649200106
30
0
41
1
10
23.6101134852786
20
12.838682693628
30
0
41
1
10
23.5817889327002
20
12.8322375901549
30
0
41
1
10
23.5365307271454
20
12.821438680498
30
0
41
1
10
23.4801033557002
20
12.8070089724673
30
0
41
1
10
23.375166666218
20
12.7777861726622
30
0
41
1
10
23.2933711471729
20
12.7515338186168
30
0
41
1
10
23.2343408092482
20
12.7307338520023
30
0
0
SPLINE
5
157
100
AcDbEntity
8
1
62
256
6
ByLayer
370
18
48
1
60
0
100
AcDbSpline
70
4
71
3
72
8
73
4
40
0
40
0
40
0
40
0
40
1
40
1
40
1
40
1
41
1
10
20.7854293038801
20
13.100609665441
30
0
41
1
10
21.176962468837
20
12.7090765004895
30
0
41
1
10
21.5684956337938
20
12.3175433355379
30
0
41
1
10
21.9600287987507
20
11.9260101705864
30
0
0
SPLINE
5
158
100
AcDbEntity
8
1
62
256
6
ByLayer
370
18
48
1
60
0
100
AcDbSpline
70
4
71
3
72
29
73
25
40
0
40
0
40
0
40
0
40
0.125000000000945
40
0.171875000000893
40
0.218750000000841
40
0.242187500000815
40
0.26562500000079
40
0.277343750000777
40
0.289062500000764
40
0.312500000000738
40
0.359375000000686
40
0.406250000000634
40
0.50000000000053
40
0.593750000000427
40
0.640625000000375
40
0.687500000000323
40
0.710937500000297
40
0.722656250000284
40
0.734375000000271
40
0.757812500000245
40
0.781250000000219
40
0.828125000000168
40
0.875000000000116
40
1
40
1
40
1
40
1
41
1
10
26.77951452112
20
9.18556014011278
30
0
41
1
10
26.8003144877357
20
9.24459047803754
30
0
41
1
10
26.8265668417824
20
9.32638599708255
30
0
41
1
10
26.8557896415883
20
9.43132268656538
30
0
41
1
10
26.8702193494875
20
9.48775005813715
30
0
41
1
10
26.8810182595391
20
9.53300826331309
30
0
41
1
10
26.8874633629878
20
9.56133281591886
30
0
41
1
10
26.8924455885319
20
9.58400422825019
30
0
41
1
10
26.8972377625862
20
9.60675642459418
30
0
41
1
10
26.905001355338
20
9.64688278758396
30
0
41
1
10
26.9142900049951
20
9.70497503612683
30
0
41
1
10
26.9250552511925
20
9.7992092028129
30
0
41
1
10
26.9305253261348
20
9.91862913682641
30
0
41
1
10
26.9250552109797
20
10.0380490659498
30
0
41
1
10
26.9142899518701
20
10.1322832254573
30
0
41
1
10
26.9050013283436
20
10.1903754890242
30
0
41
1
10
26.8972377591572
20
10.2305018721895
30
0
41
1
10
26.8924455891287
20
10.2532540725237
30
0
41
1
10
26.8874633627461
20
10.2759254840424
30
0
41
1
10
26.8810182592729
20
10.3042500366208
30
0
41
1
10
26.870219349616
20
10.3495082421756
30
0
41
1
10
26.8557896415853
20
10.4059356136209
30
0
41
1
10
26.8265668417802
20
10.5108723031031
30
0
41
1
10
26.8003144877348
20
10.5926678221481
30
0
41
1
10
26.7795145211204
20
10.6516981600728
30
0
0
SPLINE
5
159
100
AcDbEntity
8
1
62
256
6
ByLayer
370
18
48
1
60
0
100
AcDbSpline
70
4
71
3
72
10
73
6
40
0
40
0
40
0
40
0
40
0.249999999999984
40
0.624999999999992
40
1
40
1
40
1
40
1
41
1
10
26.7795145211203
20
10.6516981600728
30
0
41
1
10
26.7379145878913
20
10.7697588359223
30
0
41
1
10
26.6168412999127
20
11.0603374026475
30
0
41
1
10
26.3575227768213
20
11.4980902075275
30
0
41
1
10
26.1099002180946
20
11.7909007921809
30
0
41
1
10
25.9747908396964
20
11.9260101705784
30
0
0
SPLINE
5
15A
100
AcDbEntity
8
1
62
256
6
ByLayer
370
18
48
1
60
0
100
AcDbSpline
70
4
71
3
72
17
73
13
40
0
40
0
40
0
40
0
40
0.0625
40
0.125
40
0.25
40
0.375
40
0.5
40
0.625
40
0.75
40
0.875
40
0.9375
40
1
40
1
40
1
40
1
41
1
10
23.4017243942703
20
15.7169047964917
30
0
41
1
10
23.4202364064708
20
15.7354168086922
30
0
41
1
10
23.4590795375652
20
15.7706214842183
30
0
41
1
10
23.5432907948633
20
15.83308129672
30
0
41
1
10
23.6592893884118
20
15.8950872756313
30
0
41
1
10
23.8103312509512
20
15.9409053617954
30
0
41
1
10
23.9674096221003
20
15.9563763341995
30
0
41
1
10
24.1244877314793
20
15.940905272132
30
0
41
1
10
24.2755305024925
20
15.8950882394724
30
0
41
1
10
24.3915287326839
20
15.8330813480353
30
0
41
1
10
24.4757403625294
20
15.7706219307717
30
0
41
1
10
24.5145832319683
20
15.7354168086921
30
0
41
1
10
24.5330952441688
20
15.7169047964915
30
0
0
SPLINE
5
15B
100
AcDbEntity
8
1
62
256
6
ByLayer
370
18
48
1
60
0
100
AcDbSpline
70
4
71
3
72
8
73
4
40
0
40
0
40
0
40
0
40
1
40
1
40
1
40
1
41
1
10
23.4017243942731
20
15.7169047558339
30
0
41
1
10
23.3459298659314
20
14.7215144545567
30
0
41
1
10
23.2901353375898
20
13.7261241532795
30
0
41
1
10
23.2343408092482
20
12.7307338520023
30
0
0
SPLINE
5
15C
100
AcDbEntity
8
1
62
256
6
ByLayer
370
18
48
1
60
0
100
AcDbSpline
70
4
71
3
72
8
73
4
40
0
40
0
40
0
40
0
40
1
40
1
40
1
40
1
41
1
10
29.7656854249519
20
9.35294372515497
30
0
41
1
10
28.8935870614876
20
8.48084536169057
30
0
41
1
10
28.0214886980466
20
7.60874699824959
30
0
41
1
10
27.149390334559
20
6.73664863476205
30
0
0
SPLINE
5
15D
100
AcDbEntity
8
1
62
256
6
ByLayer
370
18
48
1
60
0
100
AcDbSpline
70
4
71
3
72
13
73
9
40
0
40
0
40
0
40
0
40
0.105758546601246
40
0.211517093202493
40
0.423034186404986
40
0.634551279607479
40
0.846068372809971
40
1
40
1
40
1
40
1
41
1
10
29.7656854656097
20
-5.24215742873665
30
0
41
1
10
29.7841974778101
20
-5.23290142263639
30
0
41
1
10
29.8194021533363
20
-5.2134798570892
30
0
41
1
10
29.8818619658381
20
-5.17137422844016
30
0
41
1
10
29.9438679447493
20
-5.11337493166585
30
0
41
1
10
29.9896860309134
20
-5.03785400039607
30
0
41
1
10
30.0037530140984
20
-4.96644223816281
30
0
41
1
10
29.9972687198944
20
-4.92121026957236
30
0
41
1
10
29.9918444874612
20
-4.90235184574129
30
0
0
SPLINE
5
15E
100
AcDbEntity
8
1
62
256
6
ByLayer
370
18
48
1
60
0
100
AcDbSpline
70
4
71
3
72
13
73
9
40
0
40
0
40
0
40
0
40
0.153955008087056
40
0.365466256065292
40
0.576977504043528
40
0.788488752021764
40
0.894244376010882
40
1
40
1
40
1
40
1
41
1
10
17.9429780809053
20
-4.90234143307623
30
0
41
1
10
17.9375518558182
20
-4.92120316475479
30
0
41
1
10
17.931065958693
20
-4.96643860868892
30
0
41
1
10
17.9451336971891
20
-5.03785367239169
30
0
41
1
10
17.9909507298487
20
-5.11337505789822
30
0
41
1
10
18.0529576212858
20
-5.17137417299389
30
0
41
1
10
18.1154170385493
20
-5.2134799879166
30
0
41
1
10
18.1506221606289
20
-5.23290142263602
30
0
41
1
10
18.1691341728295
20
-5.24215742873628
30
0
0
SPLINE
5
15F
100
AcDbEntity
8
1
62
256
6
ByLayer
370
18
48
1
60
0
100
AcDbSpline
70
4
71
3
72
8
73
4
40
0
40
0
40
0
40
0
40
1
40
1
40
1
40
1
41
1
10
28.838614760231
20
-1.75908987615307
30
0
41
1
10
28.8725066934948
20
-1.77603584278495
30
0
41
1
10
28.9063986267585
20
-1.79298180941683
30
0
41
1
10
28.9402905600223
20
-1.80992777604874
30
0
0
SPLINE
5
160
100
AcDbEntity
8
1
62
256
6
ByLayer
370
18
48
1
60
0
100
AcDbSpline
70
4
71
3
72
15
73
11
40
0
40
0
40
0
40
0
40
0.081162606605122
40
0.162325213210244
40
0.324650426420488
40
0.486975639630732
40
0.649300852840976
40
0.81162606605122
40
0.973951279261464
40
1
40
1
40
1
40
1
41
1
10
18.9945290784163
20
-2.37561320099934
30
0
41
1
10
18.9760176624655
20
-2.36635749302394
30
0
41
1
10
18.9408224649965
20
-2.34693247968747
30
0
41
1
10
18.8783915137245
20
-2.30481830903628
30
0
41
1
10
18.816398109395
20
-2.24681929670209
30
0
41
1
10
18.7705451215513
20
-2.17130648644931
30
0
41
1
10
18.755049244459
20
-2.0927703660526
30
0
41
1
10
18.7705448161307
20
-2.01423396251877
30
0
41
1
10
18.8035674264179
20
-1.95985338130663
30
0
41
1
10
18.8277099569811
20
-1.93197062794886
30
0
41
1
10
18.8311689368206
20
-1.92814215391306
30
0
0
SPLINE
5
161
100
AcDbEntity
8
1
62
256
6
ByLayer
370
18
48
1
60
0
100
AcDbSpline
70
4
71
3
72
10
73
6
40
0
40
0
40
0
40
0
40
0.351335778628283
40
0.834018803514101
40
1
40
1
40
1
40
1
41
1
10
29.9918415575344
20
-5.01628771702332
30
0
41
1
10
29.9972677826211
20
-4.99742598534544
30
0
41
1
10
30.003753679746
20
-4.95219054141205
30
0
41
1
10
29.993069606714
20
-4.89795270095206
30
0
41
1
10
29.9770051338085
20
-4.86367886883198
30
0
41
1
10
29.9723083654199
20
-4.85498798604854
30
0
0
SPLINE
5
162
100
AcDbEntity
8
1
62
256
6
ByLayer
370
18
48
1
60
0
100
AcDbSpline
70
4
71
3
72
8
73
4
40
0
40
0
40
0
40
0
40
1
40
1
40
1
40
1
41
1
10
29.5499994107744
20
-5.42553572854135
30
0
41
1
10
29.5584683251728
20
-5.39612372524485
30
0
41
1
10
29.5669372395712
20
-5.36671172194835
30
0
41
1
10
29.5754061539696
20
-5.33729971865188
30
0
0
SPLINE
5
163
100
AcDbEntity
8
1
62
256
6
ByLayer
370
18
48
1
60
0
100
AcDbSpline
70
4
71
3
72
8
73
4
40
0
40
0
40
0
40
0
40
1
40
1
40
1
40
1
41
1
10
27.149390334559
20
6.73664863476202
30
0
41
1
10
27.0825249031162
20
6.66978320331921
30
0
41
1
10
27.0156594716737
20
6.60291777187666
30
0
41
1
10
26.9487940402314
20
6.53605234043434
30
0
0
SPLINE
5
164
100
AcDbEntity
8
1
62
256
6
ByLayer
370
18
48
1
60
0
100
AcDbSpline
70
4
71
3
72
9
73
5
40
0
40
0
40
0
40
0
40
0.576240456471781
40
1
40
1
40
1
40
1
41
1
10
21.9600287987347
20
7.91124812963261
30
0
41
1
10
22.0951381771312
20
7.77613875123407
30
0
41
1
10
22.3492079680982
20
7.56127830890205
30
0
41
1
10
22.6300084407719
20
7.38642176371343
30
0
41
1
10
22.7527019401249
20
7.32009555866418
30
0
0
SPLINE
5
165
100
AcDbEntity
8
1
62
256
6
ByLayer
370
18
48
1
60
0
100
AcDbSpline
70
4
71
3
72
9
73
5
40
0
40
0
40
0
40
0
40
0.465543366824506
40
1
40
1
40
1
40
1
41
1
10
25.113838919273
20
7.28418289532297
30
0
41
1
10
25.2607418508829
20
7.35932570023124
30
0
41
1
10
25.5657484923004
20
7.54448051802672
30
0
41
1
10
25.8396814612989
20
7.77613875122645
30
0
41
1
10
25.9747908396964
20
7.91124812962462
30
0
0
SPLINE
5
166
100
AcDbEntity
8
1
62
256
6
ByLayer
370
13
48
1
60
0
100
AcDbSpline
70
4
71
3
72
14
73
10
40
0
40
0
40
0
40
0
40
0.25
40
0.25
40
0.5
40
0.5
40
0.75
40
0.75
40
1
40
1
40
1
40
1
41
1
10
29.2476905692979
20
5.58410934080266
30
0
41
1
10
29.2954460863193
20
5.56427987666672
30
0
41
1
10
29.3382430592476
20
5.54257956424058
30
0
41
1
10
29.4137667945556
20
5.49537947006169
30
0
41
1
10
29.445850961512
20
5.47018948938401
30
0
41
1
10
29.4973015974317
20
5.41808126416822
30
0
41
1
10
29.5170909180775
20
5.39074226025332
30
0
41
1
10
29.5434852004441
20
5.33485241620406
30
0
41
1
10
29.55
20
5.30673887790769
30
0
41
1
10
29.55
20
5.27846095094739
30
0
0
SPLINE
5
167
100
AcDbEntity
8
1
62
256
6
ByLayer
370
13
48
1
60
0
100
AcDbSpline
70
4
71
3
72
8
73
4
40
0
40
0
40
0
40
0
40
1
40
1
40
1
40
1
41
1
10
24.5254809612425
20
-0.197599233737208
30
0
41
1
10
25.2983185374006
20
0.233695710335525
30
0
41
1
10
26.0612789470266
20
0.669245238767473
30
0
41
1
10
26.8066476108672
20
1.11237240256949
30
0
0
SPLINE
5
168
100
AcDbEntity
8
1
62
256
6
ByLayer
370
13
48
1
60
0
100
AcDbSpline
70
4
71
3
72
16
73
12
40
0
40
0
40
0
40
0
40
0.124999999999998
40
0.124999999999998
40
0.249999999999995
40
0.249999999999995
40
0.499999999999997
40
0.499999999999997
40
0.749999999999998
40
0.749999999999998
40
1
40
1
40
1
40
1
41
1
10
2.25
20
-5.39652666073275
30
0
41
1
10
2.23062206817497
20
-5.39652666073275
30
0
41
1
10
2.21167958257234
20
-5.39221338364251
30
0
41
1
10
2.1777366847619
20
-5.37769306287043
30
0
41
1
10
2.162498565622
20
-5.36750017709196
30
0
41
1
10
2.1230879482024
20
-5.33310768765114
30
0
41
1
10
2.10399258362355
20
-5.30473801856436
30
0
41
1
10
2.07534306448559
20
-5.24588694945319
30
0
41
1
10
2.06554776508887
20
-5.21452667628245
30
0
41
1
10
2.05293670086769
20
-5.15165978457244
30
0
41
1
10
2.04999999999996
20
-5.11977828660136
30
0
41
1
10
2.04999999999996
20
-5.08748464371141
30
0
0
SPLINE
5
169
100
AcDbEntity
8
1
62
256
6
ByLayer
370
13
48
1
60
0
100
AcDbSpline
70
4
71
3
72
8
73
4
40
0
40
0
40
0
40
0
40
1
40
1
40
1
40
1
41
1
10
17.2930652737545
20
9.60824563531543
30
0
41
1
10
17.3309001941062
20
9.58681080141929
30
0
41
1
10
17.3723683570858
20
9.56433778529194
30
0
41
1
10
17.4189215496223
20
9.54113984854357
30
0
0
SPLINE
5
16A
100
AcDbEntity
8
1
62
256
6
ByLayer
370
13
48
1
60
0
100
AcDbSpline
70
4
71
3
72
34
73
30
40
0
40
0
40
0
40
0
40
0.124999999999999
40
0.124999999999999
40
0.187499999999998
40
0.187499999999998
40
0.249999999999998
40
0.249999999999998
40
0.374999999999998
40
0.374999999999998
40
0.499999999999998
40
0.499999999999998
40
0.562499999999998
40
0.562499999999998
40
0.624999999999998
40
0.624999999999998
40
0.656249999999998
40
0.656249999999998
40
0.687499999999998
40
0.687499999999998
40
0.749999999999998
40
0.749999999999998
40
0.812499999999998
40
0.812499999999998
40
0.874999999999999
40
0.874999999999999
40
0.937499999999999
40
0.937499999999999
40
1
40
1
40
1
40
1
41
1
10
13.9314654079607
20
9.83988916632634
30
0
41
1
10
13.7522018291066
20
9.83988916632634
30
0
41
1
10
13.5741151019494
20
9.84078066567764
30
0
41
1
10
13.3088675175865
20
9.84313386226592
30
0
41
1
10
13.2203165431771
20
9.84408763839727
30
0
41
1
10
13.0479284358832
20
9.84612167065572
30
0
41
1
10
12.9637149571788
20
9.84720401097934
30
0
41
1
10
12.7171611327224
20
9.85029878219387
30
0
41
1
10
12.5607706856978
20
9.85222118826925
30
0
41
1
10
12.2672976624814
20
9.85286030230657
30
0
41
1
10
12.1361999340933
20
9.85153567374758
30
0
41
1
10
11.9682129286819
20
9.84410216934347
30
0
41
1
10
11.9168534599422
20
9.84066161554045
30
0
41
1
10
11.8281366280392
20
9.83161424050419
30
0
41
1
10
11.7902397050042
20
9.8259965881426
30
0
41
1
10
11.7434854478561
20
9.81559414381283
30
0
41
1
10
11.7295881530497
20
9.81179676282929
30
0
41
1
10
11.7053114300302
20
9.80347688034735
30
0
41
1
10
11.6948955409699
20
9.7989265196893
30
0
41
1
10
11.6696363508917
20
9.78435179448223
30
0
41
1
10
11.6605838290561
20
9.77339400704466
30
0
41
1
10
11.6574457880932
20
9.74894543951311
30
0
41
1
10
11.663444690069
20
9.7353706892288
30
0
41
1
10
11.6902645451846
20
9.70600349414659
30
0
41
1
10
11.7107896777063
20
9.69044442555338
30
0
41
1
10
11.7647901958597
20
9.65782211815835
30
0
41
1
10
11.7984282152562
20
9.64069085051869
30
0
41
1
10
11.8774422883546
20
9.60547579687403
30
0
41
1
10
11.9224710100443
20
9.58752937193313
30
0
41
1
10
11.9725644831571
20
9.56939310795181
30
0
0
SPLINE
5
16B
100
AcDbEntity
8
1
62
256
6
ByLayer
370
13
48
1
60
0
100
AcDbSpline
70
4
71
3
72
10
73
6
40
0
40
0
40
0
40
0
40
0.5
40
0.5
40
1
40
1
40
1
40
1
41
1
10
23.4090329585031
20
-4.42982069721918
30
0
41
1
10
22.6885773408498
20
-4.06990881153985
30
0
41
1
10
21.9693933354999
20
-3.70936618623278
30
0
41
1
10
20.5351169734661
20
-2.98625141376732
30
0
41
1
10
19.8199820710086
20
-2.62370036997928
30
0
41
1
10
19.1083809342609
20
-2.25939652302768
30
0
0
SPLINE
5
16C
100
AcDbEntity
8
1
62
256
6
ByLayer
370
13
48
1
60
0
100
AcDbSpline
70
4
71
3
72
10
73
6
40
0
40
0
40
0
40
0
40
0.5
40
0.5
40
1
40
1
40
1
40
1
41
1
10
17.7571429313055
20
-2.3003447495264
30
0
41
1
10
17.7979896605821
20
-2.27788206166051
30
0
41
1
10
17.8394433492916
20
-2.25711717180823
30
0
41
1
10
17.923340015966
20
-2.21874446900915
30
0
41
1
10
17.9660328008035
20
-2.2010554845825
30
0
41
1
10
18.0081850230771
20
-2.18525228650708
30
0
0
SPLINE
5
16D
100
AcDbEntity
8
1
62
256
6
ByLayer
370
13
48
1
60
0
100
AcDbSpline
70
4
71
3
72
10
73
6
40
0
40
0
40
0
40
0
40
0.5
40
0.5
40
1
40
1
40
1
40
1
41
1
10
17.7571429313057
20
-9.67322388832241
30
0
41
1
10
17.8880746893385
20
-9.68502328765817
30
0
41
1
10
18.0135024887107
20
-9.72095018985627
30
0
41
1
10
18.2531523558495
20
-9.83911615396107
30
0
41
1
10
18.3607633130366
20
-9.91812925094263
30
0
41
1
10
18.4550123654315
20
-10.0181448482909
30
0
0
SPLINE
5
16E
100
AcDbEntity
8
1
62
256
6
ByLayer
370
13
48
1
60
0
100
AcDbSpline
70
4
71
3
72
8
73
4
40
0
40
0
40
0
40
0
40
1
40
1
40
1
40
1
41
1
10
29.0899041348891
20
-5.57995455465274
30
0
41
1
10
29.2077388677819
20
-5.82194388543221
30
0
41
1
10
29.3259659233042
20
-6.06375377884441
30
0
41
1
10
29.4444271909999
20
-6.3054565501775
30
0
0
SPLINE
5
16F
100
AcDbEntity
8
1
62
256
6
ByLayer
370
13
48
1
60
0
100
AcDbSpline
70
4
71
3
72
12
73
8
40
0
40
0
40
0
40
0
40
0.25
40
0.25
40
0.5
40
0.5
40
1
40
1
40
1
40
1
41
1
10
18.4550123654315
20
6.34582831512947
30
0
41
1
10
18.843997836686
20
6.38755276574958
30
0
41
1
10
19.2421516488315
20
6.44185189805538
30
0
41
1
10
20.0517802438924
20
6.57994647377998
30
0
41
1
10
20.4637830614922
20
6.66382654328007
30
0
41
1
10
21.7105862640353
20
6.96201276927803
30
0
41
1
10
22.5556842740928
20
7.22261428139399
30
0
41
1
10
23.4090329585033
20
7.54838555414366
30
0
0
SPLINE
5
170
100
AcDbEntity
8
1
62
256
6
ByLayer
370
13
48
1
60
0
100
AcDbSpline
70
4
71
3
72
8
73
4
40
0
40
0
40
0
40
0
40
1
40
1
40
1
40
1
41
1
10
18.1801401911619
20
-2.19072419632406
30
0
41
1
10
18.1720374504918
20
-2.16916972735254
30
0
41
1
10
18.1656541570413
20
-2.14908840336449
30
0
41
1
10
18.1609986164494
20
-2.13050365899426
30
0
0
SPLINE
5
171
100
AcDbEntity
8
1
62
256
6
ByLayer
370
13
48
1
60
0
100
AcDbSpline
70
4
71
3
72
14
73
10
40
0
40
0
40
0
40
0
40
0.25
40
0.25
40
0.5
40
0.5
40
0.75
40
0.75
40
1
40
1
40
1
40
1
41
1
10
7.94999999999999
20
-5.08748464371141
30
0
41
1
10
7.94999999999999
20
-5.11992676885461
30
0
41
1
10
7.94703433444789
20
-5.15185476182108
30
0
41
1
10
7.93442677656674
20
-5.21460278201349
30
0
41
1
10
7.92473159456785
20
-5.24574448718221
30
0
41
1
10
7.89589184719313
20
-5.30496450184765
30
0
41
1
10
7.87680172890748
20
-5.3332345462955
30
0
41
1
10
7.82427731362429
20
-5.37900978088231
30
0
41
1
10
7.78873964190632
20
-5.39652666073275
30
0
41
1
10
7.75
20
-5.39652666073275
30
0
0
SPLINE
5
172
100
AcDbEntity
8
1
62
256
6
ByLayer
370
13
48
1
60
0
100
AcDbSpline
70
4
71
3
72
12
73
8
40
0
40
0
40
0
40
0
40
0.500000000000002
40
0.500000000000002
40
0.750000000000001
40
0.750000000000001
40
1
40
1
40
1
40
1
41
1
10
23.4090329585031
20
7.16073454485414
30
0
41
1
10
23.2436776207869
20
6.94778359850696
30
0
41
1
10
23.0887186300711
20
6.72226866981202
30
0
41
1
10
22.872520858126
20
6.36563848589893
30
0
41
1
10
22.8035006628547
20
6.24414311311989
30
0
41
1
10
22.673006471261
20
5.99851139302967
30
0
41
1
10
22.6113039263079
20
5.87400271664993
30
0
41
1
10
22.5531962568464
20
5.74778657208489
30
0
0
SPLINE
5
173
100
AcDbEntity
8
1
62
256
6
ByLayer
370
13
48
1
60
0
100
AcDbSpline
70
4
71
3
72
22
73
18
40
0
40
0
40
0
40
0
40
0.125
40
0.125
40
0.25
40
0.25
40
0.375
40
0.375
40
0.5
40
0.5
40
0.625
40
0.625
40
0.75
40
0.75
40
0.875
40
0.875
40
1
40
1
40
1
40
1
41
1
10
23.4090329585009
20
7.16073454485561
30
0
41
1
10
23.4418855923342
20
7.20304342681524
30
0
41
1
10
23.4786885912242
20
7.24376315964301
30
0
41
1
10
23.5593283557712
20
7.31789097174806
30
0
41
1
10
23.6028404839046
20
7.35115312485652
30
0
41
1
10
23.6978232704269
20
7.40797923174876
30
0
41
1
10
23.7489523345368
20
7.4311147833414
30
0
41
1
10
23.855296363868
20
7.46262599573697
30
0
41
1
10
23.911667602998
20
7.47111027826108
30
0
41
1
10
24.0225097350275
20
7.47116168410483
30
0
41
1
10
24.0787046435461
20
7.46278172976332
30
0
41
1
10
24.1853999208873
20
7.43127051805521
30
0
41
1
10
24.2365999078374
20
7.40811681144629
30
0
41
1
10
24.3315717853202
20
7.35135475824507
30
0
41
1
10
24.3750373422137
20
7.31815299950469
30
0
41
1
10
24.4555500768924
20
7.24422951296577
30
0
41
1
10
24.4925036773925
20
7.20341428025759
30
0
41
1
10
24.5254809612433
20
7.16096740662366
30
0
0
SPLINE
5
174
100
AcDbEntity
8
1
62
256
6
ByLayer
370
13
48
1
60
0
100
AcDbSpline
70
4
71
3
72
12
73
8
40
0
40
0
40
0
40
0
40
0.25
40
0.25
40
0.5
40
0.5
40
1
40
1
40
1
40
1
41
1
10
18.4550123654315
20
-10.0181448482909
30
0
41
1
10
18.843997836686
20
-10.4309300517362
30
0
41
1
10
19.2421516488315
20
-10.8410913036775
30
0
41
1
10
20.0517802438925
20
-11.6617770659874
30
0
41
1
10
20.4637830614923
20
-12.0727668972148
30
0
41
1
10
21.7105862640354
20
-13.3067735323691
30
0
41
1
10
22.5556842740929
20
-14.131191712209
30
0
41
1
10
23.4090329585035
20
-14.9632185978018
30
0
0
SPLINE
5
175
100
AcDbEntity
8
1
62
256
6
ByLayer
370
13
48
1
60
0
100
AcDbSpline
70
4
71
3
72
12
73
8
40
0
40
0
40
0
40
0
40
0.461844018440308
40
0.461844018440308
40
0.923688036880616
40
0.923688036880616
40
1
40
1
40
1
40
1
41
1
10
29.0076626173812
20
-1.81222050400217
30
0
41
1
10
28.9960297646876
20
-1.78346882723557
30
0
41
1
10
28.9842543092994
20
-1.75703349756202
30
0
41
1
10
28.9603967242157
20
-1.70876460331883
30
0
41
1
10
28.9483324591762
20
-1.68701492526515
30
0
41
1
10
28.9345556076936
20
-1.66502157294249
30
0
41
1
10
28.9326061112355
20
-1.66197612201955
30
0
41
1
10
28.9306610864206
20
-1.65900353200362
30
0
0
SPLINE
5
176
100
AcDbEntity
8
1
62
256
6
ByLayer
370
13
48
1
60
0
100
AcDbSpline
70
4
71
3
72
20
73
16
40
0
40
0
40
0
40
0
40
0.249999999999998
40
0.249999999999998
40
0.312499999999998
40
0.312499999999998
40
0.374999999999998
40
0.374999999999998
40
0.499999999999998
40
0.499999999999998
40
0.624999999999999
40
0.624999999999999
40
0.749999999999999
40
0.749999999999999
40
1
40
1
40
1
40
1
41
1
10
11.9725644831576
20
-6.81573096119385
30
0
41
1
10
12.2377298296137
20
-7.3010622246731
30
0
41
1
10
12.5567044440544
20
-7.71072996426889
30
0
41
1
10
13.0351724710574
20
-8.14361913581067
30
0
41
1
10
13.1348613668646
20
-8.22621570242529
30
0
41
1
10
13.3425745121444
20
-8.38376474790715
30
0
41
1
10
13.4509692035081
20
-8.45892817239368
30
0
41
1
10
13.7850842745717
20
-8.67094727512648
30
0
41
1
10
14.0203341077952
20
-8.79502031646544
30
0
41
1
10
14.5155731596235
20
-9.01453219872863
30
0
41
1
10
14.7755611754243
20
-9.10995823438387
30
0
41
1
10
15.3201548950896
20
-9.27707426713255
30
0
41
1
10
15.6059567800544
20
-9.34894324473879
30
0
41
1
10
16.486364705994
20
-9.53273505022844
30
0
41
1
10
17.1063147075722
20
-9.6145720972961
30
0
41
1
10
17.7571429313065
20
-9.67322388832207
30
0
0
SPLINE
5
177
100
AcDbEntity
8
1
62
256
6
ByLayer
370
13
48
1
60
0
100
AcDbSpline
70
4
71
3
72
12
73
8
40
0
40
0
40
0
40
0
40
0.250000000000002
40
0.250000000000002
40
0.500000000000003
40
0.500000000000003
40
1
40
1
40
1
40
1
41
1
10
18.1609986164456
20
-2.13050365899451
30
0
41
1
10
18.180567490587
20
-2.09942354918672
30
0
41
1
10
18.2022753913713
20
-2.06964881238866
30
0
41
1
10
18.2480237052936
20
-2.01488427607538
30
0
41
1
10
18.2720899723946
20
-1.98977888769923
30
0
41
1
10
18.3471592162095
20
-1.92174172534581
30
0
41
1
10
18.4020811070005
20
-1.88565173264365
30
0
41
1
10
18.4550123654315
20
-1.86504699323621
30
0
0
SPLINE
5
178
100
AcDbEntity
8
1
62
256
6
ByLayer
370
13
48
1
60
0
100
AcDbSpline
70
4
71
3
72
8
73
4
40
0
40
0
40
0
40
0
40
1
40
1
40
1
40
1
41
1
10
29.2476905692982
20
-10.3540010025957
30
0
41
1
10
27.6757209661421
20
-11.892607412543
30
0
41
1
10
26.1010021845732
20
-13.428415791617
30
0
41
1
10
24.5254809612425
20
-14.9634074696674
30
0
0
SPLINE
5
179
100
AcDbEntity
8
1
62
256
6
ByLayer
370
13
48
1
60
0
100
AcDbSpline
70
4
71
3
72
8
73
4
40
0
40
0
40
0
40
0
40
1
40
1
40
1
40
1
41
1
10
29.2521700409227
20
-1.36797999773989
30
0
41
1
10
29.2506804945493
20
-1.36912406622594
30
0
41
1
10
29.2491873263212
20
-1.37026853431874
30
0
41
1
10
29.2476905692983
20
-1.37141344964189
30
0
0
SPLINE
5
17A
100
AcDbEntity
8
1
62
256
6
ByLayer
370
13
48
1
60
0
100
AcDbSpline
70
4
71
3
72
34
73
30
40
0
40
0
40
0
40
0
40
0.125000000000002
40
0.125000000000002
40
0.187500000000002
40
0.187500000000002
40
0.250000000000002
40
0.250000000000002
40
0.375000000000003
40
0.375000000000003
40
0.437500000000003
40
0.437500000000003
40
0.500000000000002
40
0.500000000000002
40
0.562500000000002
40
0.562500000000002
40
0.625000000000002
40
0.625000000000002
40
0.687500000000001
40
0.687500000000001
40
0.750000000000001
40
0.750000000000001
40
0.812500000000001
40
0.812500000000001
40
0.875000000000001
40
0.875000000000001
40
0.9375
40
0.9375
40
1
40
1
40
1
40
1
41
1
10
13.9314654079608
20
-4.486931881271
30
0
41
1
10
13.7509483643422
20
-4.486931881271
30
0
41
1
10
13.5728075780081
20
-4.502000638688
30
0
41
1
10
13.3092485015723
20
-4.54757721991604
30
0
41
1
10
13.2220094126748
20
-4.56662796777016
30
0
41
1
10
13.0488513956628
20
-4.6129459399273
30
0
41
1
10
12.9632391707795
20
-4.64019080268903
30
0
41
1
10
12.7146644648792
20
-4.73279391591069
30
0
41
1
10
12.5578590096979
20
-4.80930261776777
30
0
41
1
10
12.3383527383738
20
-4.94906257059762
30
0
41
1
10
12.2686978332904
20
-4.99938054790954
30
0
41
1
10
12.1387988843734
20
-5.10619012067295
30
0
41
1
10
12.0782272429443
20
-5.16288036236958
30
0
41
1
10
11.9666406100322
20
-5.28320825615731
30
0
41
1
10
11.9153874736968
20
-5.34735028923174
30
0
41
1
10
11.8268789290418
20
-5.47842464242606
30
0
41
1
10
11.7891402119191
20
-5.54575797067508
30
0
41
1
10
11.7271548119083
20
-5.68394341566076
30
0
41
1
10
11.7027950296964
20
-5.75528159511657
30
0
41
1
10
11.6693278696662
20
-5.89947486582741
30
0
41
1
10
11.660415659581
20
-5.97103428853029
30
0
41
1
10
11.6575367853179
20
-6.11303670877439
30
0
41
1
10
11.6636187596384
20
-6.18370675919155
30
0
41
1
10
11.6906686357861
20
-6.32294964610213
30
0
41
1
10
11.7113029875957
20
-6.39011557988604
30
0
41
1
10
11.7654512973043
20
-6.52005867304769
30
0
41
1
10
11.799099937013
20
-6.58302270450687
30
0
41
1
10
11.8781798042235
20
-6.70405807258791
30
0
41
1
10
11.9230144156408
20
-6.76130801420939
30
0
41
1
10
11.9725644831575
20
-6.81573096119385
30
0
0
SPLINE
5
17B
100
AcDbEntity
8
1
62
256
6
ByLayer
370
13
48
1
60
0
100
AcDbSpline
70
4
71
3
72
10
73
6
40
0
40
0
40
0
40
0
40
0.5
40
0.5
40
1
40
1
40
1
40
1
41
1
10
17.418921549622
20
9.54113984854368
30
0
41
1
10
17.4559781261966
20
9.52267417363183
30
0
41
1
10
17.5040017528094
20
9.50497108798268
30
0
41
1
10
17.6193944023318
20
9.47265603567644
30
0
41
1
10
17.6846266928384
20
9.45858810374202
30
0
41
1
10
17.7571429313047
20
9.44694130183245
30
0
0
SPLINE
5
17C
100
AcDbEntity
8
1
62
256
6
ByLayer
370
13
48
1
60
0
100
AcDbSpline
70
4
71
3
72
20
73
16
40
0
40
0
40
0
40
0
40
0.125000000000001
40
0.125000000000001
40
0.250000000000001
40
0.250000000000001
40
0.5
40
0.5
40
0.625
40
0.625
40
0.75
40
0.75
40
0.875
40
0.875
40
1
40
1
40
1
40
1
41
1
10
21.1287026516911
20
1.11263771462907
30
0
41
1
10
21.1062388192474
20
1.12599952563812
30
0
41
1
10
21.0848644878881
20
1.14320076679849
30
0
41
1
10
21.04581794082
20
1.18399168019724
30
0
41
1
10
21.0283288623207
20
1.20727018446115
30
0
41
1
10
20.9817027622173
20
1.28526967095379
30
0
41
1
10
20.959358109415
20
1.3470010827601
30
0
41
1
10
20.9400570232565
20
1.44629841652602
30
0
41
1
10
20.9360247008823
20
1.48008739614596
30
0
41
1
10
20.9324606487921
20
1.54895013546701
30
0
41
1
10
20.9329782349101
20
1.58428674685058
30
0
41
1
10
20.9384105276769
20
1.65394255213357
30
0
41
1
10
20.9432831574197
20
1.68848078143489
30
0
41
1
10
20.9572726454314
20
1.75698714800515
30
0
41
1
10
20.9664645192684
20
1.79104287537345
30
0
41
1
10
20.9774736492616
20
1.82358930589888
30
0
0
SPLINE
5
17D
100
AcDbEntity
8
1
62
256
6
ByLayer
370
13
48
1
60
0
100
AcDbSpline
70
4
71
3
72
10
73
6
40
0
40
0
40
0
40
0
40
0.656101193144646
40
0.656101193144646
40
1
40
1
40
1
40
1
41
1
10
29.55
20
-1.27758008435293
30
0
41
1
10
29.55
20
-1.26734881171561
30
0
41
1
10
29.5485848889589
20
-1.25879242582886
30
0
41
1
10
29.5439487443845
20
-1.24833644147634
30
0
41
1
10
29.5418898639508
20
-1.24520546605851
30
0
41
1
10
29.5393713071942
20
-1.24256769321096
30
0
0
SPLINE
5
17E
100
AcDbEntity
8
1
62
256
6
ByLayer
370
13
48
1
60
0
100
AcDbSpline
70
4
71
3
72
14
73
10
40
0
40
0
40
0
40
0
40
0.190827835268228
40
0.190827835268228
40
0.595413917634118
40
0.595413917634118
40
0.797706958817059
40
0.797706958817059
40
1
40
1
40
1
40
1
41
1
10
29.5055392847535
20
-1.23227471424366
30
0
41
1
10
29.4961578615528
20
-1.23279065655248
30
0
41
1
10
29.4852387418862
20
-1.2349326662507
30
0
41
1
10
29.4461450146347
20
-1.24677292574114
30
0
41
1
10
29.4137486950267
20
-1.26182939211793
30
0
41
1
10
29.3572831100312
20
-1.29468898728453
30
0
41
1
10
29.3371687929346
20
-1.30738418729916
30
0
41
1
10
29.2957332790849
20
-1.33550320060524
30
0
41
1
10
29.2742657993123
20
-1.35100901831865
30
0
41
1
10
29.2521700409225
20
-1.36797999773918
30
0
0
SPLINE
5
17F
100
AcDbEntity
8
1
62
256
6
ByLayer
370
13
48
1
60
0
100
AcDbSpline
70
4
71
3
72
8
73
4
40
0
40
0
40
0
40
0
40
1
40
1
40
1
40
1
41
1
10
29.4444271909999
20
6.33941931092446
30
0
41
1
10
29.3291841059692
20
6.10821735669057
30
0
41
1
10
29.2139688766194
20
5.87700163203257
30
0
41
1
10
29.0987995759012
20
5.64576320260781
30
0
0
SPLINE
5
180
100
AcDbEntity
8
1
62
256
6
ByLayer
370
13
48
1
60
0
100
AcDbSpline
70
4
71
3
72
8
73
4
40
0
40
0
40
0
40
0
40
1
40
1
40
1
40
1
41
1
10
17.2930652737545
20
-2.91566419677889
30
0
41
1
10
17.3309001941061
20
-2.82315342719312
30
0
41
1
10
17.3723683570852
20
-2.73177069476262
30
0
41
1
10
17.4189215496216
20
-2.64217806723852
30
0
0
SPLINE
5
181
100
AcDbEntity
8
1
62
256
6
ByLayer
370
13
48
1
60
0
100
AcDbSpline
70
4
71
3
72
16
73
12
40
0
40
0
40
0
40
0
40
0.250000000000002
40
0.250000000000002
40
0.500000000000003
40
0.500000000000003
40
0.750000000000005
40
0.750000000000005
40
0.875000000000002
40
0.875000000000002
40
1
40
1
40
1
40
1
41
1
10
2.05000000000001
20
5.08748464371152
30
0
41
1
10
2.05000000000001
20
5.11961835364286
30
0
41
1
10
2.05290172546103
20
5.15154885864484
30
0
41
1
10
2.06565029296735
20
5.21497401793741
30
0
41
1
10
2.07535568614668
20
5.24597217388856
30
0
41
1
10
2.10420350532411
20
5.30511152929716
30
0
41
1
10
2.12313555385458
20
5.33322222444895
30
0
41
1
10
2.16282692022651
20
5.36774973806709
30
0
41
1
10
2.1779680361854
20
5.37782801094292
30
0
41
1
10
2.21195483140264
20
5.39229461199255
30
0
41
1
10
2.23101115419934
20
5.39652666073289
30
0
41
1
10
2.25
20
5.39652666073289
30
0
0
SPLINE
5
182
100
AcDbEntity
8
1
62
256
6
ByLayer
370
13
48
1
60
0
100
AcDbSpline
70
4
71
3
72
14
73
10
40
0
40
0
40
0
40
0
40
0.25
40
0.25
40
0.5
40
0.5
40
0.75
40
0.75
40
1
40
1
40
1
40
1
41
1
10
23.9674098192195
20
-15.1903646667812
30
0
41
1
10
24.0191574346254
20
-15.1903594056139
30
0
41
1
10
24.0702200565975
20
-15.1853788009895
30
0
41
1
10
24.1710070268682
20
-15.1656972486848
30
0
41
1
10
24.2212112743451
20
-15.1507404936148
30
0
41
1
10
24.3164837195956
20
-15.1119616222006
30
0
41
1
10
24.3618635265706
20
-15.0881840107467
30
0
41
1
10
24.4480901788012
20
-15.0318132876113
30
0
41
1
10
24.4888022773582
20
-14.9991426115941
30
0
41
1
10
24.5254809612425
20
-14.9634074696674
30
0
0
SPLINE
5
183
100
AcDbEntity
8
1
62
256
6
ByLayer
370
13
48
1
60
0
100
AcDbSpline
70
4
71
3
72
8
73
4
40
0
40
0
40
0
40
0
40
1
40
1
40
1
40
1
41
1
10
18.1910819339673
20
-2.21631114323682
30
0
41
1
10
18.1870020662085
20
-2.20774904590334
30
0
41
1
10
18.1833347588437
20
-2.19922221110434
30
0
41
1
10
18.1801401911619
20
-2.19072419632406
30
0
0
SPLINE
5
184
100
AcDbEntity
8
1
62
256
6
ByLayer
370
13
48
1
60
0
100
AcDbSpline
70
4
71
3
72
8
73
4
40
0
40
0
40
0
40
0
40
1
40
1
40
1
40
1
41
1
10
18.0081850230772
20
9.44113581823433
30
0
41
1
10
18.0227604541332
20
9.44283306933275
30
0
41
1
10
18.0372200745522
20
9.44480629064719
30
0
41
1
10
18.0515574748231
20
9.44704420054032
30
0
0
SPLINE
5
185
100
AcDbEntity
8
1
62
256
6
ByLayer
370
13
48
1
60
0
100
AcDbSpline
70
4
71
3
72
8
73
4
40
0
40
0
40
0
40
0
40
1
40
1
40
1
40
1
41
1
10
21.1287026516911
20
1.11263771462907
30
0
41
1
10
21.8741885997233
20
0.669211937994845
30
0
41
1
10
22.636814502866
20
0.233646679561588
30
0
41
1
10
23.4090329585031
20
-0.19751935886265
30
0
0
SPLINE
5
186
100
AcDbEntity
8
1
62
256
6
ByLayer
370
13
48
1
60
0
100
AcDbSpline
70
4
71
3
72
20
73
16
40
0
40
0
40
0
40
0
40
0.25
40
0.25
40
0.375
40
0.375
40
0.5
40
0.5
40
0.625
40
0.625
40
0.75
40
0.75
40
0.875
40
0.875
40
1
40
1
40
1
40
1
41
1
10
26.9579288940861
20
1.8232978534455
30
0
41
1
10
26.9800331543688
20
1.75796325083877
30
0
41
1
10
26.9944660875207
20
1.68757227588031
30
0
41
1
10
27.0024960536847
20
1.58244142076052
30
0
41
1
10
27.0029378936567
20
1.5477599358552
30
0
41
1
10
26.9993142626731
20
1.47912851461558
30
0
41
1
10
26.9951762768708
20
1.44483669969944
30
0
41
1
10
26.9822378566798
20
1.37885951517694
30
0
41
1
10
26.9735325820535
20
1.34735237924107
30
0
41
1
10
26.951511289458
20
1.28742104615236
30
0
41
1
10
26.9379713618133
20
1.25866184008163
30
0
41
1
10
26.9069427514167
20
1.20684723254385
30
0
41
1
10
26.8895117396814
20
1.18368005393839
30
0
41
1
10
26.8506773278192
20
1.14310480084254
30
0
41
1
10
26.8291139411033
20
1.12572880146516
30
0
41
1
10
26.8066476108671
20
1.11237240256949
30
0
0
SPLINE
5
187
100
AcDbEntity
8
1
62
256
6
ByLayer
370
13
48
1
60
0
100
AcDbSpline
70
4
71
3
72
10
73
6
40
0
40
0
40
0
40
0
40
0.855750158332877
40
0.855750158332877
40
1
40
1
40
1
40
1
41
1
10
29.55
20
8.92085763991884
30
0
41
1
10
29.55
20
8.96669240234357
30
0
41
1
10
29.5440918535353
20
9.01859043992178
30
0
41
1
10
29.5292364963224
20
9.08187085925809
30
0
41
1
10
29.5269052229475
20
9.09107167933189
30
0
41
1
10
29.524381840452
20
9.10034464323468
30
0
0
SPLINE
5
188
100
AcDbEntity
8
1
62
256
6
ByLayer
370
13
48
1
60
0
100
AcDbSpline
70
4
71
3
72
14
73
10
40
0
40
0
40
0
40
0
40
0.25
40
0.25
40
0.5
40
0.5
40
0.75
40
0.75
40
1
40
1
40
1
40
1
41
1
10
23.9674098192196
20
7.63585244766631
30
0
41
1
10
24.0188108283296
20
7.6358502306573
30
0
41
1
10
24.0709481844132
20
7.63369682411829
30
0
41
1
10
24.1716941520399
20
7.62531065599188
30
0
41
1
10
24.2208132981868
20
7.61910515842413
30
0
41
1
10
24.3164976243196
20
7.60259503935129
30
0
41
1
10
24.3625069954539
20
7.59233946307282
30
0
41
1
10
24.4481639743912
20
7.56855536025628
30
0
41
1
10
24.4883962364504
20
7.55489764359146
30
0
41
1
10
24.5254809612425
20
7.53956980701631
30
0
0
SPLINE
5
189
100
AcDbEntity
8
1
62
256
6
ByLayer
370
13
48
1
60
0
100
AcDbSpline
70
4
71
3
72
10
73
6
40
0
40
0
40
0
40
0
40
0.179064821741868
40
0.179064821741868
40
1
40
1
40
1
40
1
41
1
10
18.565883800845
20
-2.72418341055561
30
0
41
1
10
18.5562544484934
20
-2.71527918691098
30
0
41
1
10
18.546770760077
20
-2.70632245554188
30
0
41
1
10
18.4947258011491
20
-2.65606213598269
30
0
41
1
10
18.4550326701245
20
-2.61362073125898
30
0
41
1
10
18.4192177798758
20
-2.56898005843851
30
0
0
SPLINE
5
18A
100
AcDbEntity
8
1
62
256
6
ByLayer
370
13
48
1
60
0
100
AcDbSpline
70
4
71
3
72
14
73
10
40
0
40
0
40
0
40
0
40
0.25
40
0.25
40
0.5
40
0.5
40
0.75
40
0.75
40
1
40
1
40
1
40
1
41
1
10
29.2476905692982
20
-10.3540010025957
30
0
41
1
10
29.2959251922974
20
-10.3067901023474
30
0
41
1
10
29.3386318685542
20
-10.2555418586721
30
0
41
1
10
29.4134496370543
20
-10.1453068721168
30
0
41
1
10
29.4458124678182
20
-10.0855877102056
30
0
41
1
10
29.497459018136
20
-9.96223776851895
30
0
41
1
10
29.5169472258717
20
-9.89863831853432
30
0
41
1
10
29.5433085369007
20
-9.76760717752583
30
0
41
1
10
29.55
20
-9.70006975863379
30
0
41
1
10
29.55
20
-9.63352739078391
30
0
0
SPLINE
5
18B
100
AcDbEntity
8
1
62
256
6
ByLayer
370
13
48
1
60
0
100
AcDbSpline
70
4
71
3
72
12
73
8
40
0
40
0
40
0
40
0
40
0.500000000000003
40
0.500000000000003
40
0.750000000000001
40
0.750000000000001
40
1
40
1
40
1
40
1
41
1
10
29.4444271909999
20
6.33941931092446
30
0
41
1
10
29.4790777537642
20
6.40893565391607
30
0
41
1
10
29.5056951642911
20
6.48285707078111
30
0
41
1
10
29.5321296586538
20
6.59531189057577
30
0
41
1
10
29.5387812976709
20
6.63324235772723
30
0
41
1
10
29.5477200666954
20
6.71000358573988
30
0
41
1
10
29.55
20
6.74909038845058
30
0
41
1
10
29.55
20
6.78793010312017
30
0
0
SPLINE
5
18C
100
AcDbEntity
8
1
62
256
6
ByLayer
370
13
48
1
60
0
100
AcDbSpline
70
4
71
3
72
8
73
4
40
0
40
0
40
0
40
0
40
1
40
1
40
1
40
1
41
1
10
18.008185023077
20
-2.18525228650682
30
0
41
1
10
18.0227687414178
20
-2.17978473634733
30
0
41
1
10
18.0372282159057
20
-2.17430811854402
30
0
41
1
10
18.051557474823
20
-2.16880361757015
30
0
0
SPLINE
5
18D
100
AcDbEntity
8
1
62
256
6
ByLayer
370
13
48
1
60
0
100
AcDbSpline
70
4
71
3
72
20
73
16
40
0
40
0
40
0
40
0
40
0.250000000000001
40
0.250000000000001
40
0.312500000000001
40
0.312500000000001
40
0.375000000000002
40
0.375000000000002
40
0.500000000000001
40
0.500000000000001
40
0.625000000000001
40
0.625000000000001
40
0.750000000000001
40
0.750000000000001
40
1
40
1
40
1
40
1
41
1
10
11.9725644831576
20
9.56939310795181
30
0
41
1
10
12.2377298296137
20
9.40941257152627
30
0
41
1
10
12.5567044440545
20
9.19250592546214
30
0
41
1
10
13.0351724710575
20
8.87630070185028
30
0
41
1
10
13.1348613668646
20
8.81078525675724
30
0
41
1
10
13.3425745121444
20
8.67579897470537
30
0
41
1
10
13.4509692035082
20
8.60609719457329
30
0
41
1
10
13.7850842745717
20
8.39452274294567
30
0
41
1
10
14.0203341077953
20
8.24979635793605
30
0
41
1
10
14.5155731596236
20
7.95807074006308
30
0
41
1
10
14.7755611754243
20
7.81105878982501
30
0
41
1
10
15.3201548950898
20
7.51907161353321
30
0
41
1
10
15.6059567800545
20
7.3735596793137
30
0
41
1
10
16.4863647059941
20
6.95235798040909
30
0
41
1
10
17.1063147075716
20
6.6905226766907
30
0
41
1
10
17.757142931306
20
6.45729661706511
30
0
0
SPLINE
5
18E
100
AcDbEntity
8
1
62
256
6
ByLayer
370
13
48
1
60
0
100
AcDbSpline
70
4
71
3
72
16
73
12
40
0
40
0
40
0
40
0
40
0.125
40
0.125
40
0.25
40
0.25
40
0.5
40
0.5
40
0.75
40
0.75
40
1
40
1
40
1
40
1
41
1
10
28.2528389551088
20
-2.55316499567977
30
0
41
1
10
28.2817627251608
20
-2.48735126119885
30
0
41
1
10
28.3146789349425
20
-2.42353863964669
30
0
41
1
10
28.3843311005296
20
-2.30206272178708
30
0
41
1
10
28.4211579356356
20
-2.24415344718346
30
0
41
1
10
28.5360604093658
20
-2.07667434062515
30
0
41
1
10
28.6189300502771
20
-1.97276163358441
30
0
41
1
10
28.7907166948185
20
-1.77875768776227
30
0
41
1
10
28.8791823366449
20
-1.68920508414035
30
0
41
1
10
29.0602996797771
20
-1.52173500907776
30
0
41
1
10
29.1529680756151
20
-1.44386958834849
30
0
41
1
10
29.2476905692983
20
-1.37141344964192
30
0
0
SPLINE
5
18F
100
AcDbEntity
8
1
62
256
6
ByLayer
370
13
48
1
60
0
100
AcDbSpline
70
4
71
3
72
10
73
6
40
0
40
0
40
0
40
0
40
0.5
40
0.5
40
1
40
1
40
1
40
1
41
1
10
17.7571429313057
20
6.45729661706506
30
0
41
1
10
17.8880746893386
20
6.41037686636551
30
0
41
1
10
18.0135024887105
20
6.37792643948899
30
0
41
1
10
18.2531523558494
20
6.34007191748557
30
0
41
1
10
18.3607633130366
20
6.3357187089276
30
0
41
1
10
18.4550123654315
20
6.34582831512947
30
0
0
SPLINE
5
190
100
AcDbEntity
8
1
62
256
6
ByLayer
370
13
48
1
60
0
100
AcDbSpline
70
4
71
3
72
8
73
4
40
0
40
0
40
0
40
0
40
1
40
1
40
1
40
1
41
1
10
19.1083809342609
20
-2.25939652302768
30
0
41
1
10
19.0916593674984
20
-2.23034366695063
30
0
41
1
10
19.0749919762602
20
-2.20127374732542
30
0
41
1
10
19.0583796085111
20
-2.17218649707038
30
0
0
SPLINE
5
191
100
AcDbEntity
8
1
62
256
6
ByLayer
370
13
48
1
60
0
100
AcDbSpline
70
4
71
3
72
22
73
18
40
0
40
0
40
0
40
0
40
0.125
40
0.125
40
0.25
40
0.25
40
0.375
40
0.375
40
0.5
40
0.5
40
0.625
40
0.625
40
0.75
40
0.75
40
0.875
40
0.875
40
1
40
1
40
1
40
1
41
1
10
18.4550123654317
20
-1.86504699323615
30
0
41
1
10
18.4806457511872
20
-1.85506859390693
30
0
41
1
10
18.5071656571587
20
-1.84798449270807
30
0
41
1
10
18.5606397987649
20
-1.83986460765874
30
0
41
1
10
18.5877815870778
20
-1.83875063456264
30
0
41
1
10
18.6428788626606
20
-1.84256414364623
30
0
41
1
10
18.6709288198827
20
-1.84757765736811
30
0
41
1
10
18.7258476728467
20
-1.86340671810416
30
0
41
1
10
18.7529654964813
20
-1.87421456297142
30
0
41
1
10
18.8065328263393
20
-1.90162220414516
30
0
41
1
10
18.8331805625642
20
-1.91840549192474
30
0
41
1
10
18.8841361889835
20
-1.95680129198891
30
0
41
1
10
18.9086010568268
20
-1.97844560189714
30
0
41
1
10
18.955579021536
20
-2.02653499852391
30
0
41
1
10
18.9782714753571
20
-2.05324159902292
30
0
41
1
10
19.0205697195083
20
-2.11017867730379
30
0
41
1
10
19.0402002764113
20
-2.1403555870977
30
0
41
1
10
19.0583796085111
20
-2.17218649707038
30
0
0
SPLINE
5
192
100
AcDbEntity
8
1
62
256
6
ByLayer
370
13
48
1
60
0
100
AcDbSpline
70
4
71
3
72
12
73
8
40
0
40
0
40
0
40
0
40
0.500000000000003
40
0.500000000000003
40
0.750000000000001
40
0.750000000000001
40
1
40
1
40
1
40
1
41
1
10
29.55
20
-6.7609652433801
30
0
41
1
10
29.55
20
-6.68208705911928
30
0
41
1
10
29.541097419591
20
-6.60432769726879
30
0
41
1
10
29.5145158241968
20
-6.489351034864
30
0
41
1
10
29.5033324589396
20
-6.45107664477456
30
0
41
1
10
29.4769009260954
20
-6.37676316886834
30
0
41
1
10
29.4616586908997
20
-6.34061488809692
30
0
41
1
10
29.4444271909999
20
-6.3054565501775
30
0
0
SPLINE
5
193
100
AcDbEntity
8
1
62
256
6
ByLayer
370
13
48
1
60
0
100
AcDbSpline
70
4
71
3
72
16
73
12
40
0
40
0
40
0
40
0
40
0.124999999999999
40
0.124999999999999
40
0.249999999999998
40
0.249999999999998
40
0.499999999999998
40
0.499999999999998
40
0.749999999999999
40
0.749999999999999
40
1
40
1
40
1
40
1
41
1
10
7.75
20
5.39652666073289
30
0
41
1
10
7.76899327750522
20
5.39652666073289
30
0
41
1
10
7.78808350696016
20
5.3923039326655
30
0
41
1
10
7.82235094195153
20
5.37766632850895
30
0
41
1
10
7.8372754573794
20
5.36767801477873
30
0
41
1
10
7.87699413702296
20
5.33307451659161
30
0
41
1
10
7.89589770890456
20
5.30490750862793
30
0
41
1
10
7.9245562550085
20
5.24614922381383
30
0
41
1
10
7.9342282409728
20
5.21541414097595
30
0
41
1
10
7.94704580972001
20
5.15197183797235
30
0
41
1
10
7.94999999999999
20
5.11996486466148
30
0
41
1
10
7.94999999999999
20
5.08748464371152
30
0
0
SPLINE
5
194
100
AcDbEntity
8
1
62
256
6
ByLayer
370
13
48
1
60
0
100
AcDbSpline
70
4
71
3
72
14
73
10
40
0
40
0
40
0
40
0
40
0.326641563237064
40
0.326641563237064
40
0.653283126474127
40
0.653283126474127
40
0.979924689711191
40
0.979924689711191
40
1
40
1
40
1
40
1
41
1
10
15.1442441445636
20
-4.92668507506909
30
0
41
1
10
15.0902027750178
20
-4.88977619723133
30
0
41
1
10
15.0395291933007
20
-4.84965679392039
30
0
41
1
10
14.9459690439959
20
-4.7624114621712
30
0
41
1
10
14.9028632564351
20
-4.715014278583
30
0
41
1
10
14.8271275206624
20
-4.61318588431143
30
0
41
1
10
14.7950237159542
20
-4.55955215041848
30
0
41
1
10
14.7677888446408
20
-4.49949456235416
30
0
41
1
10
14.7662358919728
20
-4.49600301065297
30
0
41
1
10
14.7647073033301
20
-4.49249794804615
30
0
0
SPLINE
5
195
100
AcDbEntity
8
1
62
256
6
ByLayer
370
13
48
1
60
0
100
AcDbSpline
70
4
71
3
72
14
73
10
40
0
40
0
40
0
40
0
40
0.25
40
0.25
40
0.5
40
0.5
40
0.75
40
0.75
40
1
40
1
40
1
40
1
41
1
10
23.9674098192196
20
7.63585244766631
30
0
41
1
10
23.915388565313
20
7.63585469142748
30
0
41
1
10
23.8642337149865
20
7.63395528634874
30
0
41
1
10
23.76358294071
20
7.6264892855564
30
0
41
1
10
23.7135798940549
20
7.62083514917182
30
0
41
1
10
23.6180596782279
20
7.60598214971918
30
0
41
1
10
23.5727272150241
20
7.59686450354715
30
0
41
1
10
23.4868369906841
20
7.57519112714223
30
0
41
1
10
23.4461335517331
20
7.56254894092442
30
0
41
1
10
23.4090329585033
20
7.54838555414355
30
0
0
SPLINE
5
196
100
AcDbEntity
8
1
62
256
6
ByLayer
370
13
48
1
60
0
100
AcDbSpline
70
4
71
3
72
8
73
4
40
0
40
0
40
0
40
0
40
1
40
1
40
1
40
1
41
1
10
29.247690569298
20
5.5841093408026
30
0
41
1
10
27.6757193678304
20
6.23683699420215
30
0
41
1
10
26.101001077593
20
6.88837676191034
30
0
41
1
10
24.5254809612425
20
7.53956980701631
30
0
0
SPLINE
5
197
100
AcDbEntity
8
1
62
256
6
ByLayer
370
13
48
1
60
0
100
AcDbSpline
70
4
71
3
72
8
73
4
40
0
40
0
40
0
40
0
40
1
40
1
40
1
40
1
41
1
10
18.0515574748212
20
-2.16880361756611
30
0
41
1
10
18.0885431816285
20
-2.15459577469628
30
0
41
1
10
18.1250533385243
20
-2.14186045472664
30
0
41
1
10
18.1609986164449
20
-2.13050365899068
30
0
0
SPLINE
5
198
100
AcDbEntity
8
1
62
256
6
ByLayer
370
13
48
1
60
0
100
AcDbSpline
70
4
71
3
72
22
73
18
40
0
40
0
40
0
40
0
40
0.125
40
0.125
40
0.25
40
0.25
40
0.375
40
0.375
40
0.5
40
0.5
40
0.625
40
0.625
40
0.75
40
0.75
40
0.875
40
0.875
40
1
40
1
40
1
40
1
41
1
10
23.4090329585031
20
-4.42982069721921
30
0
41
1
10
23.4454789142714
20
-4.44802769338187
30
0
41
1
10
23.4860845247965
20
-4.46475006381121
30
0
41
1
10
23.5717801024872
20
-4.4935241075857
30
0
41
1
10
23.6170371340189
20
-4.50573141663367
30
0
41
1
10
23.7124561319998
20
-4.52570839560107
30
0
41
1
10
23.7626661311884
20
-4.53340534706797
30
0
41
1
10
23.8636020606809
20
-4.54356314485489
30
0
41
1
10
23.9148737108962
20
-4.54615775332562
30
0
41
1
10
24.0190882565517
20
-4.54618094616214
30
0
41
1
10
24.0706435443693
20
-4.54359038470204
30
0
41
1
10
24.1715775969304
20
-4.53346098555565
30
0
41
1
10
24.2216376130597
20
-4.52580935786708
30
0
41
1
10
24.3173087228823
20
-4.50581336937105
30
0
41
1
10
24.3626318376359
20
-4.49359592395817
30
0
41
1
10
24.4483725823745
20
-4.46482760300026
30
0
41
1
10
24.4889842473131
20
-4.4481154006084
30
0
41
1
10
24.5254809612424
20
-4.42989216253343
30
0
0
SPLINE
5
199
100
AcDbEntity
8
1
62
256
6
ByLayer
370
13
48
1
60
0
100
AcDbSpline
70
4
71
3
72
22
73
18
40
0
40
0
40
0
40
0
40
0.125
40
0.125
40
0.25
40
0.25
40
0.375
40
0.375
40
0.5
40
0.5
40
0.625
40
0.625
40
0.75
40
0.75
40
0.875
40
0.875
40
1
40
1
40
1
40
1
41
1
10
24.5254809612425
20
-0.197599233737208
30
0
41
1
10
24.4905104362598
20
-0.217115120492565
30
0
41
1
10
24.4521965324453
20
-0.234936918373506
30
0
41
1
10
24.3682287980233
20
-0.26686137581936
30
0
41
1
10
24.3223312032016
20
-0.280931391568146
30
0
41
1
10
24.2274625024612
20
-0.303495056802916
30
0
41
1
10
24.1779576115537
20
-0.312231917621659
30
0
41
1
10
24.074466595493
20
-0.324197601829638
30
0
41
1
10
24.0213752453767
20
-0.327252013139656
30
0
41
1
10
23.9161218566886
20
-0.327358579127434
30
0
41
1
10
23.8627695709079
20
-0.324390963647204
30
0
41
1
10
23.7593426456375
20
-0.312637207236662
30
0
41
1
10
23.709531833366
20
-0.303971827288933
30
0
41
1
10
23.6135545940139
20
-0.281299899805021
30
0
41
1
10
23.5678481887663
20
-0.267330993451878
30
0
41
1
10
23.4836905462116
20
-0.235472665006085
30
0
41
1
10
23.444443244909
20
-0.217290594317689
30
0
41
1
10
23.4090329585031
20
-0.19751935886265
30
0
0
SPLINE
5
19A
100
AcDbEntity
8
1
62
256
6
ByLayer
370
13
48
1
60
0
100
AcDbSpline
70
4
71
3
72
14
73
10
40
0
40
0
40
0
40
0
40
0.25
40
0.25
40
0.5
40
0.5
40
0.75
40
0.75
40
1
40
1
40
1
40
1
41
1
10
17.4189215496215
20
-2.64217806723866
30
0
41
1
10
17.4373362545617
20
-2.60673856866103
30
0
41
1
10
17.4585011490103
20
-2.57267324800102
30
0
41
1
10
17.5063514044274
20
-2.50732695133678
30
0
41
1
10
17.5331005507522
20
-2.47607716877135
30
0
41
1
10
17.590280314034
20
-2.41846099683994
30
0
41
1
10
17.6209087735258
20
-2.3917982344276
30
0
41
1
10
17.6861745808788
20
-2.34271781471568
30
0
41
1
10
17.7211038277857
20
-2.32016359788145
30
0
41
1
10
17.7571429313054
20
-2.3003447495264
30
0
0
SPLINE
5
19B
100
AcDbEntity
8
1
62
256
6
ByLayer
370
13
48
1
60
0
100
AcDbSpline
70
4
71
3
72
12
73
8
40
0
40
0
40
0
40
0
40
0.250000000000001
40
0.250000000000001
40
0.500000000000002
40
0.500000000000002
40
1
40
1
40
1
40
1
41
1
10
25.3816233815927
20
5.74806289834825
30
0
41
1
10
25.3235537662163
20
5.87416453235079
30
0
41
1
10
25.2618283053288
20
5.99870238896085
30
0
41
1
10
25.1311140594832
20
6.24466324016029
30
0
41
1
10
25.06181934276
20
6.36656538981964
30
0
41
1
10
24.8458049886609
20
6.72269473986813
30
0
41
1
10
24.6909003108637
20
6.94804707450194
30
0
41
1
10
24.5254809612425
20
7.16096740662314
30
0
0
SPLINE
5
19C
100
AcDbEntity
8
1
62
256
6
ByLayer
370
13
48
1
60
0
100
AcDbSpline
70
4
71
3
72
10
73
6
40
0
40
0
40
0
40
0
40
0.5
40
0.5
40
1
40
1
40
1
40
1
41
1
10
17.7571429313055
20
9.4469413018326
30
0
41
1
10
17.7983794320447
20
9.44031832516268
30
0
41
1
10
17.8405470186414
20
9.43639143889087
30
0
41
1
10
17.9243883017744
20
9.43439132296132
30
0
41
1
10
17.9663341211547
20
9.43626244680641
30
0
41
1
10
18.0081850230772
20
9.44113581823433
30
0
0
SPLINE
5
19D
100
AcDbEntity
8
1
62
256
6
ByLayer
370
13
48
1
60
0
100
AcDbSpline
70
4
71
3
72
8
73
4
40
0
40
0
40
0
40
0
40
1
40
1
40
1
40
1
41
1
10
28.2528389551088
20
-2.55316499567977
30
0
41
1
10
27.0173498972812
20
-3.18220198365063
30
0
41
1
10
25.773157135519
20
-3.80691278942001
30
0
41
1
10
24.5254809612424
20
-4.42989216253341
30
0
0
SPLINE
5
19E
100
AcDbEntity
8
1
62
256
6
ByLayer
370
13
48
1
60
0
100
AcDbSpline
70
4
71
3
72
14
73
10
40
0
40
0
40
0
40
0
40
0.25
40
0.25
40
0.5
40
0.5
40
0.75
40
0.75
40
1
40
1
40
1
40
1
41
1
10
23.9674098192195
20
-15.1903646667813
30
0
41
1
10
23.915388565313
20
-15.1903699557694
30
0
41
1
10
23.8642337149865
20
-15.1853472975086
30
0
41
1
10
23.7635829407101
20
-15.1656709704838
30
0
41
1
10
23.7135798940549
20
-15.1507875163307
30
0
41
1
10
23.618059678228
20
-15.1119017212888
30
0
41
1
10
23.5727272150243
20
-15.0881119618652
30
0
41
1
10
23.4868369906843
20
-15.0319670478751
30
0
41
1
10
23.4461335517332
20
-14.9993921943658
30
0
41
1
10
23.4090329585034
20
-14.9632185978014
30
0
0
SPLINE
5
19F
100
AcDbEntity
8
1
62
256
6
ByLayer
370
13
48
1
60
0
100
AcDbSpline
70
4
71
3
72
12
73
8
40
0
40
0
40
0
40
0
40
0.500000000000001
40
0.500000000000001
40
0.750000000000001
40
0.750000000000001
40
1
40
1
40
1
40
1
41
1
10
18.4192177798758
20
-2.56898005843851
30
0
41
1
10
18.3661185911316
20
-2.50279575645388
30
0
41
1
10
18.3209079817074
20
-2.43912420654826
30
0
41
1
10
18.263680421307
20
-2.34949146478712
30
0
41
1
10
18.2462241870358
20
-2.32029545246255
30
0
41
1
10
18.2156724625099
20
-2.26571826459138
30
0
41
1
10
18.2024473227551
20
-2.24016279010092
30
0
41
1
10
18.1910819339673
20
-2.21631114323685
30
0
0
SPLINE
5
1A0
100
AcDbEntity
8
1
62
256
6
ByLayer
370
13
48
1
60
0
100
AcDbSpline
70
4
71
3
72
28
73
24
40
0
40
0
40
0
40
0
40
0.094804446344471
40
0.094804446344471
40
0.15946127160558
40
0.15946127160558
40
0.224118096866688
40
0.224118096866688
40
0.353431747388902
40
0.353431747388902
40
0.418088572650011
40
0.418088572650011
40
0.482745397911119
40
0.482745397911119
40
0.612059048433339
40
0.612059048433339
40
0.676715873694449
40
0.676715873694449
40
0.741372698955559
40
0.741372698955559
40
0.87068634947778
40
0.87068634947778
40
1
40
1
40
1
40
1
41
1
10
17.1304181864363
20
-4.31734862076587
30
0
41
1
10
17.0981268751225
20
-4.39563851932081
30
0
41
1
10
17.059188535258
20
-4.46972601533139
30
0
41
1
10
16.983051506851
20
-4.58754081802113
30
0
41
1
10
16.9489654755856
20
-4.63364246457374
30
0
41
1
10
16.8769045689437
20
-4.71955424990128
30
0
41
1
10
16.8387812451891
20
-4.75966759334096
30
0
41
1
10
16.7185986488346
20
-4.87198140529651
30
0
41
1
10
16.6298318628172
20
-4.93654472121546
30
0
41
1
10
16.4922770083787
20
-5.01440356669474
30
0
41
1
10
16.445499483843
20
-5.03739317672756
30
0
41
1
10
16.3502253928588
20
-5.07770027722074
30
0
41
1
10
16.3014705024404
20
-5.09507927846232
30
0
41
1
10
16.1552235397552
20
-5.13807354654367
30
0
41
1
10
16.057529565453
20
-5.15491083278349
30
0
41
1
10
15.9108668502723
20
-5.16373111554736
30
0
41
1
10
15.8617261129263
20
-5.1638781382953
30
0
41
1
10
15.765019772835
20
-5.15868113367443
30
0
41
1
10
15.7173599161459
20
-5.15337162087727
30
0
41
1
10
15.5763735202964
20
-5.12960068543819
30
0
41
1
10
15.4849113900803
20
-5.10332974139229
30
0
41
1
10
15.3076585810318
20
-5.0296934723666
30
0
41
1
10
15.2236996980086
20
-4.98311503749565
30
0
41
1
10
15.1442441445637
20
-4.92668507506903
30
0
0
SPLINE
5
1A1
100
AcDbEntity
8
1
62
256
6
ByLayer
370
18
48
1
60
0
100
AcDbSpline
70
4
71
1
72
4
73
2
40
0
40
0
40
1
40
1
41
1
10
29.9918283022607
20
-4.90229560300369
30
0
41
1
10
29.1664272767964
20
-2.03576966457274
30
0
0
SPLINE
5
1A2
100
AcDbEntity
8
1
62
256
6
ByLayer
370
18
48
1
60
0
100
AcDbSpline
70
4
71
1
72
4
73
2
40
0
40
0
40
1
40
1
41
1
10
18.7683924003899
20
-2.03576882353622
30
0
41
1
10
17.9429913814508
20
-4.90229521908293
30
0
0
SPLINE
5
1A3
100
AcDbEntity
8
1
62
256
6
ByLayer
370
18
48
1
60
0
100
AcDbSpline
70
4
71
1
72
4
73
2
40
0
40
0
40
1
40
1
41
1
10
29.5500066797048
20
-6.55073137461918
30
0
41
1
10
29.9918282569883
20
-5.01633393101869
30
0
0
LINE
5
81
100
AcDbEntity
8
1
62
256
6
ByLayer
370
13
48
1
60
0
100
AcDbLine
10
29.247691
20
-1.371413
30
0
11
29.247691
21
5.584109
31
0
39
0
210
0
220
0
230
1
0
LINE
5
82
100
AcDbEntity
8
1
62
256
6
ByLayer
370
13
48
1
60
0
100
AcDbLine
10
17.757143
20
-2.300345
30
0
11
17.757143
21
6.457297
31
0
39
0
210
0
220
0
230
1
0
LINE
5
83
100
AcDbEntity
8
1
62
256
6
ByLayer
370
13
48
1
60
0
100
AcDbLine
10
29.55
20
-6.760965
30
0
11
29.55
21
-9.633527
31
0
39
0
210
0
220
0
230
1
0
LINE
5
84
100
AcDbEntity
8
1
62
256
6
ByLayer
370
13
48
1
60
0
100
AcDbLine
10
29.55
20
-6.760959
30
0
11
29.55
21
-5.380544
31
0
39
0
210
0
220
0
230
1
0
LINE
5
85
100
AcDbEntity
8
1
62
256
6
ByLayer
370
13
48
1
60
0
100
AcDbLine
10
13.931465
20
9.839889
30
0
11
16.769596
21
9.839889
31
0
39
0
210
0
220
0
230
1
0
LINE
5
86
100
AcDbEntity
8
1
62
256
6
ByLayer
370
13
48
1
60
0
100
AcDbLine
10
2.05
20
5.087485
30
0
11
2.05
21
-5.087485
31
0
39
0
210
0
220
0
230
1
0
LINE
5
87
100
AcDbEntity
8
1
62
256
6
ByLayer
370
13
48
1
60
0
100
AcDbLine
10
24.525481
20
7.53957
30
0
11
24.525481
21
7.160967
31
0
39
0
210
0
220
0
230
1
0
LINE
5
88
100
AcDbEntity
8
1
62
256
6
ByLayer
370
13
48
1
60
0
100
AcDbLine
10
29.55
20
6.78793
30
0
11
29.55
21
5.294904
31
0
39
0
210
0
220
0
230
1
0
LINE
5
89
100
AcDbEntity
8
1
62
256
6
ByLayer
370
13
48
1
60
0
100
AcDbLine
10
21.128703
20
1.112638
30
0
11
22.90675
21
2.001661
31
0
39
0
210
0
220
0
230
1
0
LINE
5
8A
100
AcDbEntity
8
1
62
256
6
ByLayer
370
13
48
1
60
0
100
AcDbLine
10
7.95
20
-5.087485
30
0
11
7.95
21
5.087485
31
0
39
0
210
0
220
0
230
1
0
LINE
5
8B
100
AcDbEntity
8
1
62
256
6
ByLayer
370
13
48
1
60
0
100
AcDbLine
10
29.55
20
5.278461
30
0
11
29.55
21
-1.27758
31
0
39
0
210
0
220
0
230
1
0
LINE
5
8C
100
AcDbEntity
8
1
62
256
6
ByLayer
370
13
48
1
60
0
100
AcDbLine
10
10
20
9.65
30
0
11
10
21
-9.65
31
0
39
0
210
0
220
0
230
1
0
LINE
5
8D
100
AcDbEntity
8
1
62
256
6
ByLayer
370
13
48
1
60
0
100
AcDbLine
10
23.409033
20
-4.429821
30
0
11
23.409033
21
-0.197519
31
0
39
0
210
0
220
0
230
1
0
LINE
5
8E
100
AcDbEntity
8
1
62
256
6
ByLayer
370
13
48
1
60
0
100
AcDbLine
10
2.25
20
-5.396527
30
0
11
7.75
21
-5.396527
31
0
39
0
210
0
220
0
230
1
0
LINE
5
8F
100
AcDbEntity
8
1
62
256
6
ByLayer
370
13
48
1
60
0
100
AcDbLine
10
24.525481
20
-0.197599
30
0
11
24.525481
21
-4.429892
31
0
39
0
210
0
220
0
230
1
0
LINE
5
90
100
AcDbEntity
8
1
62
256
6
ByLayer
370
13
48
1
60
0
100
AcDbLine
10
29.55
20
-1.731152
30
0
11
29.55
21
-3.367872
31
0
39
0
210
0
220
0
230
1
0
LINE
5
91
100
AcDbEntity
8
1
62
256
6
ByLayer
370
13
48
1
60
0
100
AcDbLine
10
7.75
20
5.396527
30
0
11
2.25
21
5.396527
31
0
39
0
210
0
220
0
230
1
0
LINE
5
92
100
AcDbEntity
8
1
62
256
6
ByLayer
370
13
48
1
60
0
100
AcDbLine
10
7.75
20
-5.396527
30
0
11
7.75
21
5.396527
31
0
39
0
210
0
220
0
230
1
0
LINE
5
93
100
AcDbEntity
8
1
62
256
6
ByLayer
370
13
48
1
60
0
100
AcDbLine
10
29.55
20
8.658456
30
0
11
29.55
21
8.920858
31
0
39
0
210
0
220
0
230
1
0
LINE
5
94
100
AcDbEntity
8
1
62
256
6
ByLayer
370
13
48
1
60
0
100
AcDbLine
10
22.553196
20
2.611451
30
0
11
20.977474
21
1.823589
31
0
39
0
210
0
220
0
230
1
0
LINE
5
95
100
AcDbEntity
8
1
62
256
6
ByLayer
370
13
48
1
60
0
100
AcDbLine
10
26.957929
20
1.823298
30
0
11
25.381623
21
2.611451
31
0
39
0
210
0
220
0
230
1
0
LINE
5
96
100
AcDbEntity
8
1
62
256
6
ByLayer
370
13
48
1
60
0
100
AcDbLine
10
25.381623
20
5.748063
30
0
11
25.381623
21
2.611451
31
0
39
0
210
0
220
0
230
1
0
LINE
5
97
100
AcDbEntity
8
1
62
256
6
ByLayer
370
13
48
1
60
0
100
AcDbLine
10
29.247691
20
-10.354001
30
0
11
29.247691
21
-10.364667
31
0
39
0
210
0
220
0
230
1
0
LINE
5
98
100
AcDbEntity
8
1
62
256
6
ByLayer
370
13
48
1
60
0
100
AcDbLine
10
29.55
20
-1.27758
30
0
11
29.55
21
-1.731152
31
0
39
0
210
0
220
0
230
1
0
LINE
5
99
100
AcDbEntity
8
1
62
256
6
ByLayer
370
13
48
1
60
0
100
AcDbLine
10
18.455012
20
-10.136359
30
0
11
18.455012
21
-10.018145
31
0
39
0
210
0
220
0
230
1
0
LINE
5
9A
100
AcDbEntity
8
1
62
256
6
ByLayer
370
13
48
1
60
0
100
AcDbLine
10
28.330813
20
-2.407664
30
0
11
28.252839
21
-2.553165
31
0
39
0
210
0
220
0
230
1
0
LINE
5
9B
100
AcDbEntity
8
1
62
256
6
ByLayer
370
13
48
1
60
0
100
AcDbLine
10
22.553196
20
5.747787
30
0
11
22.553196
21
2.611451
31
0
39
0
210
0
220
0
230
1
0
LINE
5
9C
100
AcDbEntity
8
1
62
256
6
ByLayer
370
13
48
1
60
0
100
AcDbLine
10
29.55
20
-9.648268
30
0
11
29.55
21
-9.633527
31
0
39
0
210
0
220
0
230
1
0
LINE
5
9D
100
AcDbEntity
8
1
62
256
6
ByLayer
370
13
48
1
60
0
100
AcDbLine
10
29.444427
20
5.466788
30
0
11
29.444427
21
6.339419
31
0
39
0
210
0
220
0
230
1
0
LINE
5
9E
100
AcDbEntity
8
1
62
256
6
ByLayer
370
13
48
1
60
0
100
AcDbLine
10
23.96741
20
-15.190365
30
0
11
23.96741
21
-7.975792
31
0
39
0
210
0
220
0
230
1
0
LINE
5
9F
100
AcDbEntity
8
1
62
256
6
ByLayer
370
13
48
1
60
0
100
AcDbLine
10
13.931465
20
-4.486932
30
0
11
16.769596
21
-4.486932
31
0
39
0
210
0
220
0
230
1
0
LINE
5
A0
100
AcDbEntity
8
1
62
256
6
ByLayer
370
13
48
1
60
0
100
AcDbLine
10
0
20
9.65
30
0
11
0
21
-9.65
31
0
39
0
210
0
220
0
230
1
0
LINE
5
A1
100
AcDbEntity
8
1
62
256
6
ByLayer
370
13
48
1
60
0
100
AcDbLine
10
18.455012
20
6.345828
30
0
11
18.455012
21
-1.865047
31
0
39
0
210
0
220
0
230
1
0
LINE
5
A2
100
AcDbEntity
8
1
62
256
6
ByLayer
370
13
48
1
60
0
100
AcDbLine
10
10.056138
20
-9.706138
30
0
11
10.056138
21
9.706138
31
0
39
0
210
0
220
0
230
1
0
LINE
5
A3
100
AcDbEntity
8
1
62
256
6
ByLayer
370
13
48
1
60
0
100
AcDbLine
10
23.409033
20
7.160735
30
0
11
23.409033
21
7.548386
31
0
39
0
210
0
220
0
230
1
0
LINE
5
A4
100
AcDbEntity
8
1
62
256
6
ByLayer
370
13
48
1
60
0
100
AcDbLine
10
17.293065
20
9.608246
30
0
11
17.147152
21
9.462333
31
0
39
0
210
0
220
0
230
1
0
LINE
5
A5
100
AcDbEntity
8
1
62
256
6
ByLayer
370
13
48
1
60
0
100
AcDbLine
10
17.147152
20
-4.298154
30
0
11
16.769596
21
-4.486932
31
0
39
0
210
0
220
0
230
1
0
LINE
5
A6
100
AcDbEntity
8
1
62
256
6
ByLayer
370
13
48
1
60
0
100
AcDbLine
10
23.409033
20
-14.963417
30
0
11
23.409033
21
-14.963219
31
0
39
0
210
0
220
0
230
1
0
LINE
5
A7
100
AcDbEntity
8
1
62
256
6
ByLayer
370
13
48
1
60
0
100
AcDbLine
10
17.147152
20
-4.298154
30
0
11
17.293065
21
-2.915664
31
0
39
0
210
0
220
0
230
1
0
LINE
5
A8
100
AcDbEntity
8
1
62
256
6
ByLayer
370
13
48
1
60
0
100
AcDbLine
10
2.25
20
5.396527
30
0
11
2.25
21
-5.396527
31
0
39
0
210
0
220
0
230
1
0
LINE
5
A9
100
AcDbEntity
8
1
62
256
6
ByLayer
370
13
48
1
60
0
100
AcDbLine
10
29.55
20
8.658456
30
0
11
29.55
21
6.78793
31
0
39
0
210
0
220
0
230
1
0
LINE
5
AA
100
AcDbEntity
8
1
62
256
6
ByLayer
370
13
48
1
60
0
100
AcDbLine
10
25.02807
20
2.001661
30
0
11
26.806648
21
1.112372
31
0
39
0
210
0
220
0
230
1
0
LINE
5
AB
100
AcDbEntity
8
1
62
256
6
ByLayer
370
13
48
1
60
0
100
AcDbLine
10
24.525481
20
-14.963557
30
0
11
24.525481
21
-14.963407
31
0
39
0
210
0
220
0
230
1
0
LINE
5
AC
100
AcDbEntity
8
1
62
256
6
ByLayer
370
13
48
1
60
0
100
AcDbLine
10
17.147152
20
9.462333
30
0
11
16.769596
21
9.839889
31
0
39
0
210
0
220
0
230
1
0
LINE
5
AD
100
AcDbEntity
8
1
62
256
6
ByLayer
370
13
48
1
60
0
100
AcDbLine
10
10.409691
20
-9.852584
30
0
11
10.409691
21
9.852584
31
0
39
0
210
0
220
0
230
1
0
LINE
5
AE
100
AcDbEntity
8
1
62
256
6
ByLayer
370
13
48
1
60
0
100
AcDbLine
10
29.444427
20
-6.319043
30
0
11
29.444427
21
-5.413683
31
0
39
0
210
0
220
0
230
1
0
LINE
5
AF
100
AcDbEntity
8
1
62
256
6
ByLayer
370
13
48
1
60
0
100
AcDbLine
10
17.757143
20
-9.673224
30
0
11
17.757143
21
-9.852584
31
0
39
0
210
0
220
0
230
1
0
LINE
5
B0
100
AcDbEntity
8
SK1
62
256
6
ByLayer
370
13
48
1
60
0
100
AcDbLine
10
-19.5
20
4.4
30
0
11
-19.5
21
-4.4
31
0
39
0
210
0
220
0
230
1
0
LINE
5
B2
100
AcDbEntity
8
SK1
62
256
6
ByLayer
370
13
48
1
60
0
100
AcDbLine
10
-15.5
20
5.969417
30
0
11
-15.5
21
-5.969417
31
0
39
0
210
0
220
0
230
1
0
LINE
5
B3
100
AcDbEntity
8
SK1
62
256
6
ByLayer
370
13
48
1
60
0
100
AcDbLine
10
-0.384645
20
7.350348
30
0
11
-0.384645
21
-7.350348
31
0
39
0
210
0
220
0
230
1
0
LINE
5
B4
100
AcDbEntity
8
SK1
62
256
6
ByLayer
370
13
48
1
60
0
100
AcDbLine
10
-19.3
20
4.6
30
0
11
-19.3
21
-4.6
31
0
39
0
210
0
220
0
230
1
0
LINE
5
B5
100
AcDbEntity
8
SK1
62
256
6
ByLayer
370
13
48
1
60
0
100
AcDbLine
10
-3.5
20
7.230668
30
0
11
-3.5
21
-7.230668
31
0
39
0
210
0
220
0
230
1
0
LINE
5
B6
100
AcDbEntity
8
SK1
62
256
6
ByLayer
370
13
48
1
60
0
100
AcDbLine
10
-16
20
4.6
30
0
11
-16
21
-4.6
31
0
39
0
210
0
220
0
230
1
0
LINE
5
B7
100
AcDbEntity
8
81
62
256
6
ByLayer
370
18
48
1
60
0
100
AcDbLine
10
30
20
10.25
30
0
11
35
21
10.25
31
0
39
0
210
0
220
0
230
1
0
LINE
5
B8
100
AcDbEntity
8
SK4
62
256
6
ByLayer
370
18
48
0.05
60
0
100
AcDbLine
10
-5
20
0
30
0
11
35
21
0
31
0
39
0
210
0
220
0
230
1
0
LINE
5
BA
100
AcDbEntity
8
80
62
256
6
ByLayer
370
18
48
1
60
0
100
AcDbLine
10
0
20
0
30
0
11
-5
21
0
31
0
39
0
210
0
220
0
230
1
0
LINE
5
BB
100
AcDbEntity
8
1
62
256
6
ByLayer
370
18
48
1
60
0
100
AcDbLine
10
22.987614
20
1.430896
30
0
11
22.742665
21
1.25769
31
0
39
0
210
0
220
0
230
1
0
LINE
5
BC
100
AcDbEntity
8
1
62
256
6
ByLayer
370
18
48
1
60
0
100
AcDbLine
10
25.192155
20
1.25769
30
0
11
24.947206
21
1.430896
31
0
39
0
210
0
220
0
230
1
0
LINE
5
BD
100
AcDbEntity
8
1
62
256
6
ByLayer
370
13
48
1
60
0
100
AcDbLine
10
24.525481
20
-14.963557
30
0
11
29.247691
21
-10.364667
31
0
39
0
210
0
220
0
230
1
0
LINE
5
BE
100
AcDbEntity
8
1
62
256
6
ByLayer
370
13
48
1
60
0
100
AcDbLine
10
18.455012
20
-10.136359
30
0
11
23.409033
21
-14.963417
31
0
39
0
210
0
220
0
230
1
0
LINE
5
BF
100
AcDbEntity
8
SK1
62
256
6
ByLayer
370
13
48
1
60
0
100
AcDbLine
10
-19.5
20
-4.4
30
0
11
-19.3
21
-4.6
31
0
39
0
210
0
220
0
230
1
0
LINE
5
C0
100
AcDbEntity
8
SK1
62
256
6
ByLayer
370
13
48
1
60
0
100
AcDbLine
10
-19.3
20
4.6
30
0
11
-19.5
21
4.4
31
0
39
0
210
0
220
0
230
1
0
LINE
5
C1
100
AcDbEntity
8
SK1
62
256
6
ByLayer
370
13
48
1
60
0
100
AcDbLine
10
-19.3
20
-4.6
30
0
11
-16
21
-4.6
31
0
39
0
210
0
220
0
230
1
0
LINE
5
C2
100
AcDbEntity
8
SK1
62
256
6
ByLayer
370
13
48
1
60
0
100
AcDbLine
10
-16
20
4.6
30
0
11
-19.3
21
4.6
31
0
39
0
210
0
220
0
230
1
0
LINE
5
C3
100
AcDbEntity
8
SK1
62
256
6
ByLayer
370
13
48
1
60
0
100
AcDbLine
10
-15.5
20
-5.969417
30
0
11
-3.5
21
-7.230668
31
0
39
0
210
0
220
0
230
1
0
LINE
5
C4
100
AcDbEntity
8
SK1
62
256
6
ByLayer
370
13
48
1
60
0
100
AcDbLine
10
-3.5
20
7.230668
30
0
11
-15.5
21
5.969417
31
0
39
0
210
0
220
0
230
1
0
LINE
5
C5
100
AcDbEntity
8
SK1
62
256
6
ByLayer
370
13
48
1
60
0
100
AcDbLine
10
-3.5
20
-7.230668
30
0
11
-0.384645
21
-7.350348
31
0
39
0
210
0
220
0
230
1
0
LINE
5
C6
100
AcDbEntity
8
SK1
62
256
6
ByLayer
370
13
48
1
60
0
100
AcDbLine
10
-0.384645
20
7.350348
30
0
11
-3.5
21
7.230668
31
0
39
0
210
0
220
0
230
1
0
LINE
5
C7
100
AcDbEntity
8
1
62
256
6
ByLayer
370
13
48
1
60
0
100
AcDbLine
10
0
20
-9.65
30
0
11
10
21
-9.65
31
0
39
0
210
0
220
0
230
1
0
LINE
5
C8
100
AcDbEntity
8
1
62
256
6
ByLayer
370
13
48
1
60
0
100
AcDbLine
10
10
20
9.65
30
0
11
0
21
9.65
31
0
39
0
210
0
220
0
230
1
0
LINE
5
C9
100
AcDbEntity
8
1
62
256
6
ByLayer
370
13
48
1
60
0
100
AcDbLine
10
10
20
-9.65
30
0
11
10.056138
21
-9.706138
31
0
39
0
210
0
220
0
230
1
0
LINE
5
CA
100
AcDbEntity
8
1
62
256
6
ByLayer
370
13
48
1
60
0
100
AcDbLine
10
10.056138
20
9.706138
30
0
11
10
21
9.65
31
0
39
0
210
0
220
0
230
1
0
LINE
5
CB
100
AcDbEntity
8
1
62
256
6
ByLayer
370
13
48
1
60
0
100
AcDbLine
10
10.409691
20
-9.852584
30
0
11
17.757143
21
-9.852584
31
0
39
0
210
0
220
0
230
1
0
LINE
5
CC
100
AcDbEntity
8
1
62
256
6
ByLayer
370
13
48
1
60
0
100
AcDbLine
10
12.381759
20
9.852584
30
0
11
10.409691
21
9.852584
31
0
39
0
210
0
220
0
230
1
0
LINE
5
CD
100
AcDbEntity
8
4
62
256
6
ByLayer
370
18
48
0.05
60
0
100
AcDbLine
10
0
20
0
30
0
11
35
21
0
31
0
39
0
210
0
220
0
230
1
0
LINE
5
CF
100
AcDbEntity
8
SK2
62
256
6
ByLayer
370
13
48
1
60
0
100
AcDbLine
10
23.644878
20
16.605122
30
0
11
18.582128
21
21.667872
31
0
39
0
210
0
220
0
230
1
0
LINE
5
D1
100
AcDbEntity
8
SK2
62
256
6
ByLayer
370
13
48
1
60
0
100
AcDbLine
10
30
20
11.8375
30
0
11
30
21
26.39731
31
0
39
0
210
0
220
0
230
1
0
LINE
5
D2
100
AcDbEntity
8
1
62
256
6
ByLayer
370
13
48
1
60
0
100
AcDbLine
10
20.827192
20
19.422808
30
0
11
22.927666
21
21.840109
31
0
39
0
210
0
220
0
230
1
0
LINE
5
D3
100
AcDbEntity
8
1
62
256
6
ByLayer
370
13
48
1
60
0
100
AcDbLine
10
20.827192
20
19.422808
30
0
11
23.48174
21
21.214101
31
0
39
0
210
0
220
0
230
1
0
LINE
5
D4
100
AcDbEntity
8
1
62
256
6
ByLayer
370
13
48
1
60
0
100
AcDbLine
10
22.927666
20
21.840109
30
0
11
23.48174
21
21.214101
31
0
39
0
210
0
220
0
230
1
0
LINE
5
D5
100
AcDbEntity
8
1
62
256
6
ByLayer
370
13
48
1
60
0
100
AcDbLine
10
30
20
23.22231
30
0
11
26.856319
21
22.611896
31
0
39
0
210
0
220
0
230
1
0
LINE
5
D6
100
AcDbEntity
8
1
62
256
6
ByLayer
370
13
48
1
60
0
100
AcDbLine
10
30
20
23.22231
30
0
11
26.805447
21
23.44634
31
0
39
0
210
0
220
0
230
1
0
LINE
5
D7
100
AcDbEntity
8
1
62
256
6
ByLayer
370
13
48
1
60
0
100
AcDbLine
10
26.856319
20
22.611896
30
0
11
26.805447
21
23.44634
31
0
39
0
210
0
220
0
230
1
0
MTEXT
5
1A4
100
AcDbEntity
8
SK2
62
256
6
ByLayer
370
18
48
1
60
0
100
AcDbMText
10
36.52191
20
24.037266
30
0
210
0
220
0
230
1
1
\W1.0427;45%%d
40
4.5
41
0
44
1.084337
50
315.545984196369
71
7
72
5
7
iso_b_vert
0
MTEXT
5
1A7
100
AcDbEntity
8
SK6
62
256
6
ByLayer
370
18
48
1
60
0
100
AcDbMText
10
-91.038153
20
-19.462022
30
0
210
0
220
0
230
1
1
\W0.7697;495-020EH20-4509M
40
4
41
0
44
1.084337
50
89.9999999999998
71
7
72
5
7
iso_b_vert
0
DIMENSION
5
1AA
100
AcDbEntity
8
2
62
256
6
ByLayer
370
18
48
1
60
0
100
AcDbDimension
2
_U0
10
54.896875
20
10.25
30
0
11
54.896875
21
32.38239
31
0
70
32
71
1
72
1
41
1
210
0
220
0
230
1
3
Standard
100
AcDbAlignedDimension
13
30
23
-10.25
33
0
14
30
24
10.25
34
0
50
90
100
AcDbRotatedDimension
1001
ACAD
1000
DSTYLE
1002
{
1070
   371
1070
    13
1070
   372
1070
    13
1070
   170
1070
     0
1070
   144
1040
1.0
1070
   277
1070
     2
1070
   284
1070
     8
1070
   278
1070
    46
1070
   146
1040
0.777778
1070
   345
1005
16
1070
   347
1005
16
1070
   346
1005
16
1070
   344
1005
1AB
1070
   343
1005
1AB
1070
   172
1070
     1
1070
    76
1070
     0
1070
    75
1070
     0
1070
   282
1070
     0
1070
   281
1070
     0
1070
    71
1070
     0
1070
    74
1070
     0
1070
   279
1070
     0
1070
   173
1070
     1
1070
   340
1005
1A5
1070
   271
1070
     2
1070
   272
1070
     2
1070
    77
1070
     1
1070
    73
1070
     0
1070
   171
1070
     3
1070
   274
1070
     4
1070
   177
1070
   150
1070
   176
1070
     9
1070
   178
1070
    43
1070
    78
1070
     8
1070
    48
1040
-0.1
1070
    41
1040
3.175
1070
   147
1040
2.25
1070
    42
1040
1.5875
1070
    44
1040
3.175
1070
   140
1040
4.5
1002
}
1001
ACAD_DSTYLE_DIM_LINETYPE
1070
   380
1005
16
1001
ACAD_DSTYLE_DIM_EXT1_LINETYPE
1070
   381
1005
16
1001
ACAD_DSTYLE_DIM_EXT2_LINETYPE
1070
   382
1005
16
0
DIMENSION
5
1D2
100
AcDbEntity
8
SK2
62
256
6
ByLayer
370
18
48
1
60
0
100
AcDbDimension
2
_U1
10
0
20
-34.75
30
0
11
15
21
-34.75
31
0
70
32
71
1
72
1
41
1
210
0
220
0
230
1
3
Standard
100
AcDbAlignedDimension
13
30
23
-10.25
33
0
14
0
24
0
34
0
50
0
100
AcDbRotatedDimension
1001
ACAD
1000
DSTYLE
1002
{
1070
   371
1070
    13
1070
   372
1070
    13
1070
   170
1070
     0
1070
   144
1040
1.0
1070
   277
1070
     2
1070
   284
1070
     8
1070
   278
1070
    46
1070
   146
1040
0.777778
1070
   345
1005
16
1070
   347
1005
16
1070
   346
1005
16
1070
   344
1005
1AB
1070
   343
1005
1AB
1070
   172
1070
     1
1070
    76
1070
     0
1070
    75
1070
     0
1070
   282
1070
     0
1070
   281
1070
     0
1070
    71
1070
     0
1070
    74
1070
     0
1070
   279
1070
     0
1070
   173
1070
     1
1070
   340
1005
1A5
1070
   271
1070
     2
1070
   272
1070
     2
1070
    77
1070
     1
1070
    73
1070
     1
1070
   171
1070
     3
1070
   274
1070
     4
1070
   177
1070
   150
1070
   176
1070
     9
1070
   178
1070
    43
1070
    78
1070
     8
1070
    48
1040
-0.1
1070
    41
1040
3.175
1070
   147
1040
2.25
1070
    42
1040
1.5875
1070
    44
1040
3.175
1070
   140
1040
4.5
1002
}
1001
ACAD_DSTYLE_DIM_LINETYPE
1070
   380
1005
16
1001
ACAD_DSTYLE_DIM_EXT1_LINETYPE
1070
   381
1005
16
1001
ACAD_DSTYLE_DIM_EXT2_LINETYPE
1070
   382
1005
16
0
DIMENSION
5
1EE
100
AcDbEntity
8
2
62
256
6
ByLayer
370
18
48
1
60
0
100
AcDbDimension
2
_U2
10
30
20
30.75
30
0
11
15
21
30.75
31
0
70
32
71
1
72
1
41
1
210
0
220
0
230
1
3
Standard
100
AcDbAlignedDimension
13
0
23
10
33
0
14
30
24
10.25
34
0
50
0
100
AcDbRotatedDimension
1001
ACAD
1000
DSTYLE
1002
{
1070
   371
1070
    13
1070
   372
1070
    13
1070
   170
1070
     0
1070
   144
1040
1.0
1070
   277
1070
     2
1070
   284
1070
     8
1070
   278
1070
    46
1070
   146
1040
0.777778
1070
   345
1005
16
1070
   347
1005
16
1070
   346
1005
16
1070
   344
1005
1AB
1070
   343
1005
1AB
1070
   172
1070
     1
1070
    76
1070
     0
1070
    75
1070
     0
1070
   282
1070
     0
1070
   281
1070
     0
1070
    71
1070
     0
1070
    74
1070
     0
1070
   279
1070
     0
1070
   173
1070
     1
1070
   340
1005
1A5
1070
   271
1070
     2
1070
   272
1070
     2
1070
    77
1070
     1
1070
    73
1070
     1
1070
   171
1070
     3
1070
   274
1070
     4
1070
   177
1070
   150
1070
   176
1070
     9
1070
   178
1070
    43
1070
    78
1070
     8
1070
    48
1040
-0.1
1070
    41
1040
3.175
1070
   147
1040
2.25
1070
    42
1040
1.5875
1070
    44
1040
3.175
1070
   140
1040
4.5
1002
}
1001
ACAD_DSTYLE_DIM_LINETYPE
1070
   380
1005
16
1001
ACAD_DSTYLE_DIM_EXT1_LINETYPE
1070
   381
1005
16
1001
ACAD_DSTYLE_DIM_EXT2_LINETYPE
1070
   382
1005
16
0
DIMENSION
5
20A
100
AcDbEntity
8
SK2
62
256
6
ByLayer
370
18
48
1
60
0
100
AcDbDimension
2
_U3
10
23.96
20
20.75
30
0
11
11.98
21
20.75
31
0
70
32
71
1
72
1
41
1
210
0
220
0
230
1
3
Standard
100
AcDbAlignedDimension
13
0
23
10
33
0
14
23.96
24
15.95
34
0
50
0
100
AcDbRotatedDimension
1001
ACAD
1000
DSTYLE
1002
{
1070
   371
1070
    13
1070
   372
1070
    13
1070
   170
1070
     0
1070
   144
1040
1.0
1070
   277
1070
     2
1070
   284
1070
     8
1070
   278
1070
    46
1070
   146
1040
0.777778
1070
   345
1005
16
1070
   347
1005
16
1070
   346
1005
16
1070
   344
1005
1AB
1070
   343
1005
1AB
1070
   172
1070
     1
1070
    76
1070
     0
1070
    75
1070
     0
1070
   282
1070
     0
1070
   281
1070
     0
1070
    71
1070
     0
1070
    74
1070
     0
1070
   279
1070
     0
1070
   173
1070
     1
1070
   340
1005
1A5
1070
   271
1070
     2
1070
   272
1070
     2
1070
    77
1070
     1
1070
    73
1070
     1
1070
   171
1070
     3
1070
   274
1070
     4
1070
   177
1070
   150
1070
   176
1070
     9
1070
   178
1070
    43
1070
    78
1070
     8
1070
    48
1040
-0.1
1070
    41
1040
3.175
1070
   147
1040
2.25
1070
    42
1040
1.5875
1070
    44
1040
3.175
1070
   140
1040
4.5
1002
}
1001
ACAD_DSTYLE_DIM_LINETYPE
1070
   380
1005
16
1001
ACAD_DSTYLE_DIM_EXT1_LINETYPE
1070
   381
1005
16
1001
ACAD_DSTYLE_DIM_EXT2_LINETYPE
1070
   382
1005
16
0
DIMENSION
5
226
100
AcDbEntity
8
SK2
62
256
6
ByLayer
370
18
48
1
60
0
100
AcDbDimension
2
_U4
10
65.75
20
15.95
30
0
11
65.75
21
0
31
0
70
32
71
1
72
1
41
1
210
0
220
0
230
1
3
Standard
100
AcDbAlignedDimension
13
23.96
23
-15.95
33
0
14
23.96
24
15.95
34
0
50
90
100
AcDbRotatedDimension
1001
ACAD
1000
DSTYLE
1002
{
1070
   371
1070
    13
1070
   372
1070
    13
1070
   170
1070
     0
1070
   144
1040
1.0
1070
   277
1070
     2
1070
   284
1070
     8
1070
   278
1070
    46
1070
   146
1040
0.777778
1070
   345
1005
16
1070
   347
1005
16
1070
   346
1005
16
1070
   344
1005
1AB
1070
   343
1005
1AB
1070
   172
1070
     1
1070
    76
1070
     0
1070
    75
1070
     0
1070
   282
1070
     0
1070
   281
1070
     0
1070
    71
1070
     0
1070
    74
1070
     0
1070
   279
1070
     0
1070
   173
1070
     1
1070
   340
1005
1A5
1070
   271
1070
     2
1070
   272
1070
     2
1070
    77
1070
     1
1070
    73
1070
     0
1070
   171
1070
     3
1070
   274
1070
     4
1070
   177
1070
   150
1070
   176
1070
     9
1070
   178
1070
    43
1070
    78
1070
     8
1070
    48
1040
-0.1
1070
    41
1040
3.175
1070
   147
1040
2.25
1070
    42
1040
1.5875
1070
    44
1040
3.175
1070
   140
1040
4.5
1002
}
1001
ACAD_DSTYLE_DIM_LINETYPE
1070
   380
1005
16
1001
ACAD_DSTYLE_DIM_EXT1_LINETYPE
1070
   381
1005
16
1001
ACAD_DSTYLE_DIM_EXT2_LINETYPE
1070
   382
1005
16
0
DIMENSION
5
243
100
AcDbEntity
8
SK2
62
256
6
ByLayer
370
18
48
1
60
0
100
AcDbDimension
2
_U5
10
-25.103125
20
-10
30
0
11
-25.103125
21
0
31
0
70
32
71
1
72
1
41
1
210
0
220
0
230
1
3
Standard
100
AcDbAlignedDimension
13
0
23
10
33
0
14
0
24
-10
34
0
50
90
100
AcDbRotatedDimension
1001
ACAD
1000
DSTYLE
1002
{
1070
   371
1070
    13
1070
   372
1070
    13
1070
   170
1070
     0
1070
   144
1040
1.0
1070
   277
1070
     2
1070
   284
1070
     8
1070
   278
1070
    46
1070
   146
1040
0.777778
1070
   345
1005
16
1070
   347
1005
16
1070
   346
1005
16
1070
   344
1005
1AB
1070
   343
1005
1AB
1070
   172
1070
     1
1070
    76
1070
     0
1070
    75
1070
     0
1070
   282
1070
     0
1070
   281
1070
     0
1070
    71
1070
     0
1070
    74
1070
     0
1070
   279
1070
     0
1070
   173
1070
     1
1070
   340
1005
1A5
1070
   271
1070
     2
1070
   272
1070
     2
1070
    77
1070
     1
1070
    73
1070
     0
1070
   171
1070
     3
1070
   274
1070
     4
1070
   177
1070
   150
1070
   176
1070
     9
1070
   178
1070
    43
1070
    78
1070
     8
1070
    48
1040
-0.1
1070
    41
1040
3.175
1070
   147
1040
2.25
1070
    42
1040
1.5875
1070
    44
1040
3.175
1070
   140
1040
4.5
1002
}
1001
ACAD_DSTYLE_DIM_LINETYPE
1070
   380
1005
16
1001
ACAD_DSTYLE_DIM_EXT1_LINETYPE
1070
   381
1005
16
1001
ACAD_DSTYLE_DIM_EXT2_LINETYPE
1070
   382
1005
16
0
ENDSEC
0
SECTION
2
OBJECTS
0
DICTIONARY
5
2d1
330
0
100
AcDbDictionary
280
0
281
1
3
ACAD_GROUP
350
2d2
3
ACAD_MLINESTYLE
350
2d3
0
DICTIONARY
5
2d2
330
0
100
AcDbDictionary
280
0
281
1
0
DICTIONARY
5
2d3
330
0
100
AcDbDictionary
280
0
281
1
3
Standard
350
18
0
MLINESTYLE
5
18
330
2d3
100
AcDbMlineStyle
2
Standard
70
0
3

62
256
51
90
52
90
71
2
49
-0.5
62
256
6
ByLayer
49
0.5
62
256
6
ByLayer
0
RASTERVARIABLES
5
2bf
330

100
AcDbRasterVariables
90
0
70
1
71
1
72
1
0
ENDSEC
0
EOF
