0
SECTION
2
HEADER
9
$ACADVER
1
AC1015
9
$DWGCODEPAGE
3
ANSI_1252
9
$HANDSEED
5
1a2
9
$ANGBASE
50
0
9
$ANGDIR
70
0
9
$ATTMODE
70
1
9
$AUNITS
70
0
9
$AUPREC
70
0
9
$CECOLOR
62
256
9
$CELTSCALE
40
1
9
$CELTYPE
6
ByLayer
9
$CELWEIGHT
370
18
9
$CLAYER
8
0
9
$CMLJUST
70
0
9
$CMLSCALE
40
1
9
$CMLSTYLE
2
Standard
9
$DIMSTYLE
2
Standard
9
$TEXTSIZE
40
0.2
9
$TEXTSTYLE
7
Standard
9
$LUNITS
70
2
9
$LUPREC
70
4
9
$EXTNAMES
290
1
9
$INSUNITS
70
4
9
$LTSCALE
40
1
9
$LWDISPLAY
290
1
9
$PDMODE
70
0
9
$PDSIZE
40
0
9
$PLINEGEN
70
0
0
ENDSEC
0
SECTION
2
CLASSES
0
CLASS
1
RASTERVARIABLES
2
AcDbRasterVariables
3
ISM
90
0
280
0
281
0
0
ENDSEC
0
SECTION
2
TABLES
0
TABLE
2
VPORT
5
198
100
AcDbSymbolTable
0
VPORT
5
1
100
AcDbSymbolTableRecord
100
AcDbViewportTableRecord
2
*Active
70
0
10
0
20
0
11
1
21
1
12
-1
22
1
13
0
23
0
14
0.5
24
0.5
15
10
25
10
16
0
26
0
36
1
17
0
27
0
37
0
0
ENDTAB
0
TABLE
2
LTYPE
5
199
100
AcDbSymbolTable
0
LTYPE
5
14
100
AcDbSymbolTableRecord
100
AcDbLinetypeTableRecord
70
0
2
ByBlock
3

72
65
73
0
40
0
0
LTYPE
5
15
100
AcDbSymbolTableRecord
100
AcDbLinetypeTableRecord
70
0
2
ByLayer
3

72
65
73
0
40
0
0
LTYPE
5
16
100
AcDbSymbolTableRecord
100
AcDbLinetypeTableRecord
70
0
2
CONTINUOUS
3
Solid line
72
65
73
0
40
0
0
LTYPE
5
6A
100
AcDbSymbolTableRecord
100
AcDbLinetypeTableRecord
70
0
2
CENTER
3
____ _ ____ _ ____ _ ____
72
65
73
4
40
47.5
49
22
74
0
49
-8.5
74
0
49
8.5
74
0
49
-8.5
74
0
0
LTYPE
5
6B
100
AcDbSymbolTableRecord
100
AcDbLinetypeTableRecord
70
0
2
DASHED
3
__ __ __ __ __ __ __ __ __
72
65
73
2
40
25.72
49
12.86
74
0
49
-12.86
74
0
0
ENDTAB
0
TABLE
2
LAYER
5
19a
100
AcDbSymbolTable
0
LAYER
5
10
100
AcDbSymbolTableRecord
100
AcDbLayerTableRecord
2
0
70
0
62
7
6
CONTINUOUS
290
1
370
-3
390
0
0
LAYER
5
6D
100
AcDbSymbolTableRecord
100
AcDbLayerTableRecord
2
81
70
0
62
-3
6
CONTINUOUS
290
1
370
-3
390
0
0
LAYER
5
6F
100
AcDbSymbolTableRecord
100
AcDbLayerTableRecord
2
80
70
0
62
-6
6
CONTINUOUS
290
1
370
-3
390
0
0
LAYER
5
74
100
AcDbSymbolTableRecord
100
AcDbLayerTableRecord
2
2
70
0
62
7
6
CONTINUOUS
290
1
370
-3
390
0
0
LAYER
5
78
100
AcDbSymbolTableRecord
100
AcDbLayerTableRecord
2
1
70
0
62
4
6
CONTINUOUS
290
1
370
-3
390
0
0
LAYER
5
86
100
AcDbSymbolTableRecord
100
AcDbLayerTableRecord
2
4
70
0
62
-2
6
CENTER
290
1
370
-3
390
0
0
LAYER
5
184
100
AcDbSymbolTableRecord
100
AcDbLayerTableRecord
2
SK2
70
0
62
7
6
CONTINUOUS
290
1
370
-3
390
0
0
LAYER
5
185
100
AcDbSymbolTableRecord
100
AcDbLayerTableRecord
2
SK1
70
0
62
4
6
CONTINUOUS
290
1
370
-3
390
0
0
LAYER
5
186
100
AcDbSymbolTableRecord
100
AcDbLayerTableRecord
2
SK4
70
0
62
2
6
CENTER
290
1
370
-3
390
0
0
LAYER
5
187
100
AcDbSymbolTableRecord
100
AcDbLayerTableRecord
2
SK6
70
0
62
5
6
CONTINUOUS
290
1
370
-3
390
0
0
ENDTAB
0
TABLE
2
STYLE
5
19b
100
AcDbSymbolTable
0
STYLE
5
11
100
AcDbSymbolTableRecord
100
AcDbTextStyleTableRecord
2
Standard
3
txt
70
0
71
0
40
0
41
1
42
0
50
0
0
STYLE
5
E0
100
AcDbSymbolTableRecord
100
AcDbTextStyleTableRecord
2
iso_b_vert
3
simplex.shx
70
0
71
0
40
0
41
1
42
0
50
0
0
STYLE
5
E1
100
AcDbSymbolTableRecord
100
AcDbTextStyleTableRecord
2
DWGDirectTextStyle
3
simplex
70
0
71
0
40
0
41
1
42
0
50
0
0
ENDTAB
0
TABLE
2
DIMSTYLE
5
19c
100
AcDbSymbolTable
100
AcDbDimStyleTable
0
DIMSTYLE
105
27
100
AcDbSymbolTableRecord
100
AcDbDimStyleTableRecord
2
Standard
70
0
3
<>
41
0.18
42
0.0625
44
0.18
140
0.18
147
0.09
73
0
74
0
77
1
271
2
275
0
278
52
280
0
340
11
0
ENDTAB
0
TABLE
2
VIEW
5
19d
100
AcDbSymbolTable
0
ENDTAB
0
TABLE
2
UCS
5
19e
100
AcDbSymbolTable
0
ENDTAB
0
TABLE
2
APPID
5
19f
100
AcDbSymbolTable
0
APPID
5
12
100
AcDbSymbolTableRecord
100
AcDbRegAppTableRecord
2
ACAD
70
0
0
ENDTAB
0
TABLE
2
BLOCK_RECORD
5
1a0
100
AcDbSymbolTable
0
BLOCK_RECORD
5
1F
100
AcDbSymbolTableRecord
100
AcDbBlockTableRecord
2
*Model_Space
340
0
70
0
0
BLOCK_RECORD
5
1B
100
AcDbSymbolTableRecord
100
AcDbBlockTableRecord
2
*Paper_Space
340
0
70
0
0
BLOCK_RECORD
5
23
100
AcDbSymbolTableRecord
100
AcDbBlockTableRecord
2
*Paper_Space0
340
0
70
0
0
BLOCK_RECORD
5
E3
100
AcDbSymbolTableRecord
100
AcDbBlockTableRecord
2
DimnDraft3D1
340
0
70
0
0
BLOCK_RECORD
5
ED
100
AcDbSymbolTableRecord
100
AcDbBlockTableRecord
2
DimnDraft3D2
340
0
70
0
0
BLOCK_RECORD
5
F7
100
AcDbSymbolTableRecord
100
AcDbBlockTableRecord
2
DimnDraft3D3
340
0
70
0
0
BLOCK_RECORD
5
101
100
AcDbSymbolTableRecord
100
AcDbBlockTableRecord
2
DimnDraft3D4
340
0
70
0
0
BLOCK_RECORD
5
10B
100
AcDbSymbolTableRecord
100
AcDbBlockTableRecord
2
DimnDraft3D5
340
0
70
0
0
BLOCK_RECORD
5
115
100
AcDbSymbolTableRecord
100
AcDbBlockTableRecord
2
DimnDraft3D6
340
0
70
0
0
BLOCK_RECORD
5
120
100
AcDbSymbolTableRecord
100
AcDbBlockTableRecord
2
DimnDraft3D7
340
0
70
0
0
ENDTAB
0
ENDSEC
0
SECTION
2
BLOCKS
0
BLOCK
5
20
100
AcDbEntity
8
0
100
AcDbBlockBegin
2
*Model_Space
70
0
10
0
20
0
30
0
3
*Model_Space
0
ENDBLK
5
21
100
AcDbEntity
8
0
100
AcDbBlockEnd
0
BLOCK
5
1C
100
AcDbEntity
8
0
100
AcDbBlockBegin
2
*Paper_Space
70
0
10
0
20
0
30
0
3
*Paper_Space
0
ENDBLK
5
1D
100
AcDbEntity
8
0
100
AcDbBlockEnd
0
BLOCK
5
24
100
AcDbEntity
8
0
100
AcDbBlockBegin
2
*Paper_Space0
70
0
10
0
20
0
30
0
3
*Paper_Space0
0
ENDBLK
5
25
100
AcDbEntity
8
0
100
AcDbBlockEnd
0
BLOCK
5
EA
100
AcDbEntity
8
0
100
AcDbBlockBegin
2
DimnDraft3D1
70
0
10
0
20
0
30
0
3
DimnDraft3D1
0
MTEXT
5
E4
100
AcDbEntity
8
SK2
62
256
6
ByLayer
370
13
48
1
60
0
100
AcDbMText
10
42.99048
20
-18.963398
30
0
210
0
220
0
230
1
1
\W0.6440;100,12
40
3.5
41
0
44
1.084337
50
0
71
7
72
5
7
iso_b_vert
0
LINE
5
E5
100
AcDbEntity
8
SK2
62
256
6
ByLayer
370
13
48
1
60
0
100
AcDbLine
10
0
20
-1.5875
30
0
11
0
21
-21.838398
31
0
39
0
210
0
220
0
230
1
0
LINE
5
E6
100
AcDbEntity
8
SK2
62
256
6
ByLayer
370
13
48
1
60
0
100
AcDbLine
10
100.122
20
-11.2125
30
0
11
100.122
21
-21.838398
31
0
39
0
210
0
220
0
230
1
0
LINE
5
E7
100
AcDbEntity
8
SK2
62
256
6
ByLayer
370
13
48
1
60
0
100
AcDbLine
10
0
20
-19.838398
30
0
11
100.122
21
-19.838398
31
0
39
0
210
0
220
0
230
1
0
SOLID
5
E8
100
AcDbEntity
8
SK2
62
256
6
ByLayer
370
13
48
1
60
0
100
AcDbTrace
10
0
20
-19.838398
30
0
11
3.499998
21
-19.377615
31
0
12
3.500002
22
-20.299182
32
0
13
0
23
-19.838398
33
0
39
0
210
0
220
0
230
1
0
SOLID
5
E9
100
AcDbEntity
8
SK2
62
256
6
ByLayer
370
13
48
1
60
0
100
AcDbTrace
10
100.122
20
-19.838398
30
0
11
96.622002
21
-20.299182
31
0
12
96.621998
22
-19.377615
32
0
13
100.122
23
-19.838398
33
0
39
0
210
0
220
0
230
1
0
ENDBLK
5
EB
100
AcDbEntity
8
0
100
AcDbBlockEnd
0
BLOCK
5
F4
100
AcDbEntity
8
0
100
AcDbBlockBegin
2
DimnDraft3D2
70
0
10
0
20
0
30
0
3
DimnDraft3D2
0
MTEXT
5
EE
100
AcDbEntity
8
SK2
62
256
6
ByLayer
370
13
48
1
60
0
100
AcDbMText
10
19.644221
20
-37.817985
30
0
210
0
220
0
230
1
1
\W0.6930;153,00
40
3.5
41
0
44
1.084337
50
0
71
7
72
5
7
iso_b_vert
0
LINE
5
EF
100
AcDbEntity
8
SK2
62
256
6
ByLayer
370
13
48
1
60
0
100
AcDbLine
10
-50
20
-11.5875
30
0
11
-50
21
-40.692985
31
0
39
0
210
0
220
0
230
1
0
LINE
5
F0
100
AcDbEntity
8
SK2
62
256
6
ByLayer
370
13
48
1
60
0
100
AcDbLine
10
103
20
-1.5875
30
0
11
103
21
-40.692985
31
0
39
0
210
0
220
0
230
1
0
LINE
5
F1
100
AcDbEntity
8
SK2
62
256
6
ByLayer
370
13
48
1
60
0
100
AcDbLine
10
-50
20
-38.692985
30
0
11
103
21
-38.692985
31
0
39
0
210
0
220
0
230
1
0
SOLID
5
F2
100
AcDbEntity
8
SK2
62
256
6
ByLayer
370
13
48
1
60
0
100
AcDbTrace
10
-50
20
-38.692985
30
0
11
-46.500002
21
-38.232202
31
0
12
-46.499998
22
-39.153769
32
0
13
-50
23
-38.692985
33
0
39
0
210
0
220
0
230
1
0
SOLID
5
F3
100
AcDbEntity
8
SK2
62
256
6
ByLayer
370
13
48
1
60
0
100
AcDbTrace
10
103
20
-38.692985
30
0
11
99.500002
21
-39.153769
31
0
12
99.499998
22
-38.232202
32
0
13
103
23
-38.692985
33
0
39
0
210
0
220
0
230
1
0
ENDBLK
5
F5
100
AcDbEntity
8
0
100
AcDbBlockEnd
0
BLOCK
5
FE
100
AcDbEntity
8
0
100
AcDbBlockBegin
2
DimnDraft3D3
70
0
10
0
20
0
30
0
3
DimnDraft3D3
0
MTEXT
5
F8
100
AcDbEntity
8
SK2
62
256
6
ByLayer
370
13
48
1
60
0
100
AcDbMText
10
49.428816
20
22.109119
30
0
210
0
220
0
230
1
1
\W0.6713;99,12
40
3.5
41
0
44
1.084337
50
0
71
7
72
5
7
iso_b_vert
0
LINE
5
F9
100
AcDbEntity
8
SK2
62
256
6
ByLayer
370
13
48
1
60
0
100
AcDbLine
10
3.88
20
11.2125
30
0
11
3.88
21
23.234119
31
0
39
0
210
0
220
0
230
1
0
LINE
5
FA
100
AcDbEntity
8
SK2
62
256
6
ByLayer
370
13
48
1
60
0
100
AcDbLine
10
103
20
1.5875
30
0
11
103
21
23.234119
31
0
39
0
210
0
220
0
230
1
0
LINE
5
FB
100
AcDbEntity
8
SK2
62
256
6
ByLayer
370
13
48
1
60
0
100
AcDbLine
10
3.88
20
21.234119
30
0
11
103
21
21.234119
31
0
39
0
210
0
220
0
230
1
0
SOLID
5
FC
100
AcDbEntity
8
SK2
62
256
6
ByLayer
370
13
48
1
60
0
100
AcDbTrace
10
3.88
20
21.234119
30
0
11
7.379998
21
21.694903
31
0
12
7.380002
22
20.773335
32
0
13
3.88
23
21.234119
33
0
39
0
210
0
220
0
230
1
0
SOLID
5
FD
100
AcDbEntity
8
SK2
62
256
6
ByLayer
370
13
48
1
60
0
100
AcDbTrace
10
103
20
21.234119
30
0
11
99.500002
21
20.773335
31
0
12
99.499998
22
21.694903
32
0
13
103
23
21.234119
33
0
39
0
210
0
220
0
230
1
0
ENDBLK
5
FF
100
AcDbEntity
8
0
100
AcDbBlockEnd
0
BLOCK
5
108
100
AcDbEntity
8
0
100
AcDbBlockBegin
2
DimnDraft3D4
70
0
10
0
20
0
30
0
3
DimnDraft3D4
0
MTEXT
5
102
100
AcDbEntity
8
SK2
62
256
6
ByLayer
370
13
48
1
60
0
100
AcDbMText
10
109.840636
20
-21.552503
30
0
210
0
220
0
230
1
1
\W0.7150;2,88
40
3.5
41
0
44
1.084337
50
0
71
7
72
5
7
iso_b_vert
0
LINE
5
103
100
AcDbEntity
8
SK2
62
256
6
ByLayer
370
13
48
1
60
0
100
AcDbLine
10
103
20
-1.5875
30
0
11
103
21
-24.427503
31
0
39
0
210
0
220
0
230
1
0
LINE
5
104
100
AcDbEntity
8
SK2
62
256
6
ByLayer
370
13
48
1
60
0
100
AcDbLine
10
100.122
20
-11.2125
30
0
11
100.122
21
-24.427503
31
0
39
0
210
0
220
0
230
1
0
LINE
5
105
100
AcDbEntity
8
SK2
62
256
6
ByLayer
370
13
48
1
60
0
100
AcDbLine
10
91.372
20
-22.427503
30
0
11
116.997215
21
-22.427503
31
0
39
0
210
0
220
0
230
1
0
SOLID
5
106
100
AcDbEntity
8
SK2
62
256
6
ByLayer
370
13
48
1
60
0
100
AcDbTrace
10
103
20
-22.427503
30
0
11
106.499998
21
-21.966719
31
0
12
106.500002
22
-22.888287
32
0
13
103
23
-22.427503
33
0
39
0
210
0
220
0
230
1
0
SOLID
5
107
100
AcDbEntity
8
SK2
62
256
6
ByLayer
370
13
48
1
60
0
100
AcDbTrace
10
100.122
20
-22.427503
30
0
11
96.622002
21
-22.888287
31
0
12
96.621998
22
-21.966719
32
0
13
100.122
23
-22.427503
33
0
39
0
210
0
220
0
230
1
0
ENDBLK
5
109
100
AcDbEntity
8
0
100
AcDbBlockEnd
0
BLOCK
5
112
100
AcDbEntity
8
0
100
AcDbBlockBegin
2
DimnDraft3D5
70
0
10
0
20
0
30
0
3
DimnDraft3D5
0
MTEXT
5
10C
100
AcDbEntity
8
SK2
62
256
6
ByLayer
370
13
48
1
60
0
100
AcDbMText
10
17.001097
20
-27.468428
30
0
210
0
220
0
230
1
1
\W0.6440;150,12
40
3.5
41
0
44
1.084337
50
0
71
7
72
5
7
iso_b_vert
0
LINE
5
10D
100
AcDbEntity
8
SK2
62
256
6
ByLayer
370
13
48
1
60
0
100
AcDbLine
10
-50
20
-11.5875
30
0
11
-50
21
-30.343428
31
0
39
0
210
0
220
0
230
1
0
LINE
5
10E
100
AcDbEntity
8
SK2
62
256
6
ByLayer
370
13
48
1
60
0
100
AcDbLine
10
100.122
20
-11.2125
30
0
11
100.122
21
-30.343428
31
0
39
0
210
0
220
0
230
1
0
LINE
5
10F
100
AcDbEntity
8
SK2
62
256
6
ByLayer
370
13
48
1
60
0
100
AcDbLine
10
-50
20
-28.343428
30
0
11
100.122
21
-28.343428
31
0
39
0
210
0
220
0
230
1
0
SOLID
5
110
100
AcDbEntity
8
SK2
62
256
6
ByLayer
370
13
48
1
60
0
100
AcDbTrace
10
-50
20
-28.343428
30
0
11
-46.500002
21
-27.882645
31
0
12
-46.499998
22
-28.804212
32
0
13
-50
23
-28.343428
33
0
39
0
210
0
220
0
230
1
0
SOLID
5
111
100
AcDbEntity
8
SK2
62
256
6
ByLayer
370
13
48
1
60
0
100
AcDbTrace
10
100.122
20
-28.343428
30
0
11
96.622002
21
-28.804212
31
0
12
96.621998
22
-27.882645
32
0
13
100.122
23
-28.343428
33
0
39
0
210
0
220
0
230
1
0
ENDBLK
5
113
100
AcDbEntity
8
0
100
AcDbBlockEnd
0
BLOCK
5
11D
100
AcDbEntity
8
0
100
AcDbBlockBegin
2
DimnDraft3D6
70
0
10
0
20
0
30
0
3
DimnDraft3D6
0
MTEXT
5
116
100
AcDbEntity
8
SK2
62
256
6
ByLayer
370
13
48
1
60
0
100
AcDbMText
10
-60.375163
20
29.34918
30
0
210
0
220
0
230
1
1
\W0.7421;20,000
40
3.5
41
0
44
1.084337
50
90
71
7
72
5
7
iso_b_vert
0
MTEXT
5
117
100
AcDbEntity
8
SK2
62
256
6
ByLayer
370
13
48
1
60
0
100
AcDbMText
10
-60.375163
20
24.126524
30
0
210
0
220
0
230
1
1
%%c
40
3.5
41
0
44
1.084337
50
90
71
7
72
5
7
iso_b_vert
0
LINE
5
118
100
AcDbEntity
8
SK2
62
256
6
ByLayer
370
13
48
1
60
0
100
AcDbLine
10
-51.5875
20
-10
30
0
11
-60.625163
21
-10
31
0
39
0
210
0
220
0
230
1
0
LINE
5
119
100
AcDbEntity
8
SK2
62
256
6
ByLayer
370
13
48
1
60
0
100
AcDbLine
10
-51.5875
20
10
30
0
11
-60.625163
21
10
31
0
39
0
210
0
220
0
230
1
0
LINE
5
11A
100
AcDbEntity
8
SK2
62
256
6
ByLayer
370
13
48
1
60
0
100
AcDbLine
10
-58.625163
20
-10
30
0
11
-58.625163
21
41.737338
31
0
39
0
210
0
220
0
230
1
0
SOLID
5
11B
100
AcDbEntity
8
SK2
62
256
6
ByLayer
370
13
48
1
60
0
100
AcDbTrace
10
-58.625163
20
-10
30
0
11
-59.085946
21
-6.500002
31
0
12
-58.164379
22
-6.499998
32
0
13
-58.625163
23
-10
33
0
39
0
210
0
220
0
230
1
0
SOLID
5
11C
100
AcDbEntity
8
SK2
62
256
6
ByLayer
370
13
48
1
60
0
100
AcDbTrace
10
-58.625163
20
10
30
0
11
-58.164379
21
6.500002
31
0
12
-59.085946
22
6.499998
32
0
13
-58.625163
23
10
33
0
39
0
210
0
220
0
230
1
0
ENDBLK
5
11E
100
AcDbEntity
8
0
100
AcDbBlockEnd
0
BLOCK
5
128
100
AcDbEntity
8
0
100
AcDbBlockBegin
2
DimnDraft3D7
70
0
10
0
20
0
30
0
3
DimnDraft3D7
0
MTEXT
5
121
100
AcDbEntity
8
2
62
256
6
ByLayer
370
13
48
1
60
0
100
AcDbMText
10
113.333343
20
27.567266
30
0
210
0
220
0
230
1
1
\W0.6930;19,250
40
3.5
41
0
44
1.084337
50
90
71
7
72
5
7
iso_b_vert
0
MTEXT
5
122
100
AcDbEntity
8
2
62
256
6
ByLayer
370
13
48
1
60
0
100
AcDbMText
10
113.333343
20
22.34461
30
0
210
0
220
0
230
1
1
%%c
40
3.5
41
0
44
1.084337
50
90
71
7
72
5
7
iso_b_vert
0
LINE
5
123
100
AcDbEntity
8
2
62
256
6
ByLayer
370
13
48
1
60
0
100
AcDbLine
10
101.7095
20
-9.625
30
0
11
117.083343
21
-9.625
31
0
39
0
210
0
220
0
230
1
0
LINE
5
124
100
AcDbEntity
8
2
62
256
6
ByLayer
370
13
48
1
60
0
100
AcDbLine
10
101.7095
20
9.625
30
0
11
117.083343
21
9.625
31
0
39
0
210
0
220
0
230
1
0
LINE
5
125
100
AcDbEntity
8
2
62
256
6
ByLayer
370
13
48
1
60
0
100
AcDbLine
10
115.083343
20
-9.625
30
0
11
115.083343
21
39.080424
31
0
39
0
210
0
220
0
230
1
0
SOLID
5
126
100
AcDbEntity
8
2
62
256
6
ByLayer
370
13
48
1
60
0
100
AcDbTrace
10
115.083343
20
-9.625
30
0
11
114.622559
21
-6.125002
31
0
12
115.544126
22
-6.124998
32
0
13
115.083343
23
-9.625
33
0
39
0
210
0
220
0
230
1
0
SOLID
5
127
100
AcDbEntity
8
2
62
256
6
ByLayer
370
13
48
1
60
0
100
AcDbTrace
10
115.083343
20
9.625
30
0
11
115.544126
21
6.125002
31
0
12
114.622559
22
6.124998
32
0
13
115.083343
23
9.625
33
0
39
0
210
0
220
0
230
1
0
ENDBLK
5
129
100
AcDbEntity
8
0
100
AcDbBlockEnd
0
ENDSEC
0
SECTION
2
ENTITIES
0
ARC
5
94
100
AcDbEntity
8
1
62
256
6
ByLayer
370
18
48
1
60
0
100
AcDbCircle
39
0
10
-0.25
20
9.812557
30
0
40
0.250000000000007
210
0
220
0
230
-1
100
AcDbArc
50
269.96419
51
0
0
ARC
5
95
100
AcDbEntity
8
1
62
256
6
ByLayer
370
18
48
1
60
0
100
AcDbCircle
39
0
10
-0.25
20
-9.812557
30
0
40
0.250000000000007
210
0
220
0
230
-1
100
AcDbArc
50
0
51
90.03581
0
ELLIPSE
5
96
100
AcDbEntity
8
1
62
256
6
ByLayer
370
18
48
1
60
0
100
AcDbEllipse
10
1.408596
20
-9.332635
30
0
11
-0.25
21
3.06151588455594E-17
31
0
210
0
220
0
230
1
40
0.999997
41
-1.55633367830578
42
-0.0316670150249341
0
ELLIPSE
5
97
100
AcDbEntity
8
1
62
256
6
ByLayer
370
18
48
1
60
0
100
AcDbEllipse
10
1.408596
20
9.332635
30
0
11
-0.25
21
3.06151588455594E-17
31
0
210
0
220
0
230
1
40
0.999997
41
0.0316670150248275
42
1.59120004171979
0
POINT
5
6C
100
AcDbEntity
8
81
62
256
6
ByLayer
370
18
48
1
60
0
100
AcDbPoint
10
103
20
0
30
0
39
0
210
0
220
0
230
1
50
360
0
POINT
5
6E
100
AcDbEntity
8
80
62
256
6
ByLayer
370
18
48
1
60
0
100
AcDbPoint
10
0
20
0
30
0
39
0
210
0
220
0
230
1
50
360
0
POINT
5
70
100
AcDbEntity
8
SK2
62
256
6
ByLayer
370
18
48
1
60
1
100
AcDbPoint
10
-50
20
-10
30
0
39
0
210
0
220
0
230
1
50
360
0
POINT
5
72
100
AcDbEntity
8
SK2
62
256
6
ByLayer
370
18
48
1
60
1
100
AcDbPoint
10
-50
20
10
30
0
39
0
210
0
220
0
230
1
50
360
0
POINT
5
73
100
AcDbEntity
8
2
62
256
6
ByLayer
370
18
48
1
60
1
100
AcDbPoint
10
100.122
20
-9.625
30
0
39
0
210
0
220
0
230
1
50
360
0
POINT
5
75
100
AcDbEntity
8
2
62
256
6
ByLayer
370
18
48
1
60
1
100
AcDbPoint
10
100.122
20
9.625
30
0
39
0
210
0
220
0
230
1
50
360
0
SPLINE
5
98
100
AcDbEntity
8
1
62
256
6
ByLayer
370
18
48
1
60
0
100
AcDbSpline
70
4
71
3
72
26
73
22
40
0
40
0
40
0
40
0
40
0.0619609926034595
40
0.125509044826185
40
0.174373187622995
40
0.213734958846024
40
0.251419779222542
40
0.287531029357473
40
0.363191979580631
40
0.43282097378728
40
0.497208214524857
40
0.557224294168074
40
0.61416400456844
40
0.676004962056164
40
0.749564457454526
40
0.816033082551804
40
0.850101211728184
40
0.892279683125383
40
0.943647372144492
40
0.988710520344637
40
1
40
1
40
1
40
1
41
1
10
1.4092542536664
20
-9.08251321668558
30
0
41
1
10
1.72368141432102
20
-9.08351681014344
30
0
41
1
10
2.36055593109043
20
-9.08515737228961
30
0
41
1
10
3.2453848968197
20
-9.08617256208279
30
0
41
1
10
4.01531665705772
20
-9.0864417553621
30
0
41
1
10
4.65388536416984
20
-9.08638616508418
30
0
41
1
10
5.22802239454597
20
-9.08633091106941
30
0
41
1
10
5.98647790083174
20
-9.08640655358855
30
0
41
1
10
6.9067174024303
20
-9.08745318158788
30
0
41
1
10
7.97035314359107
20
-9.08907919422862
30
0
41
1
10
8.95500225153978
20
-9.08930600721487
30
0
41
1
10
9.8752048592396
20
-9.08974009821691
30
0
41
1
10
10.7824992780276
20
-9.09110562429697
30
0
41
1
10
11.7585162089142
20
-9.09106051825515
30
0
41
1
10
12.7828896151488
20
-9.09134060550056
30
0
41
1
10
13.6663305694832
20
-9.0927318321381
30
0
41
1
10
14.3905294691712
20
-9.09281611029735
30
0
41
1
10
15.0380939213593
20
-9.0925722775805
30
0
41
1
10
15.7414576043259
20
-9.09280030003657
30
0
41
1
10
16.2880791781194
20
-9.09351384279734
30
0
41
1
10
16.5740348125767
20
-9.09375789086639
30
0
41
1
10
16.6313220625865
20
-9.09380682456427
30
0
0
SPLINE
5
99
100
AcDbEntity
8
1
62
256
6
ByLayer
370
18
48
1
60
0
100
AcDbSpline
70
4
71
2
72
6
73
3
40
0
40
0
40
0
40
1
40
1
40
1
41
1
10
71.6219874579953
20
-9.04878353651E-05
30
0
41
1
10
71.6219990469074
20
-8.40760389735E-05
30
0
41
1
10
71.6220106357878
20
-7.79237169013E-05
30
0
0
SPLINE
5
9A
100
AcDbEntity
8
1
62
256
6
ByLayer
370
18
48
1
60
0
100
AcDbSpline
70
4
71
2
72
6
73
3
40
0
40
0
40
0
40
1
40
1
40
1
41
1
10
99.0445956190907
20
-9.14319192846031
30
0
41
1
10
99.4239780268219
20
-9.14236452639514
30
0
41
1
10
99.8030258794815
20
-9.14377163842894
30
0
0
SPLINE
5
9B
100
AcDbEntity
8
1
62
256
6
ByLayer
370
18
48
1
60
0
100
AcDbSpline
70
4
71
3
72
35
73
31
40
0
40
0
40
0
40
0
40
0.0424948851338332
40
0.0850849377857725
40
0.123615561469438
40
0.157479367001623
40
0.185664073277958
40
0.208661408453188
40
0.234011109131109
40
0.262754436407965
40
0.295663205004633
40
0.33128219070516
40
0.363255082591479
40
0.391192990811369
40
0.419367710419231
40
0.473752346113844
40
0.529627521029791
40
0.580164835671511
40
0.628755481945894
40
0.679014159182274
40
0.734440318035037
40
0.775487038966201
40
0.811891151302056
40
0.8453591891899
40
0.881136069594947
40
0.91926171889967
40
0.946758810317005
40
0.973777669850628
40
0.996483747889914
40
1
40
1
40
1
40
1
41
1
10
44.5842552840556
20
-9.10847408067312
30
0
41
1
10
44.9402522251465
20
-9.10764710171978
30
0
41
1
10
45.6577137791794
20
-9.10672711448481
30
0
41
1
10
46.7259166520447
20
-9.10366432982539
30
0
41
1
10
47.7098744478597
20
-9.10956419107089
30
0
41
1
10
48.5522696512435
20
-9.11175163502867
30
0
41
1
10
49.2688410427812
20
-9.11144739825852
30
0
41
1
10
49.9047925887804
20
-9.10672683890684
30
0
41
1
10
50.5800567988204
20
-9.1075469864218
30
0
41
1
10
51.3014772073447
20
-9.11302118958363
30
0
41
1
10
52.1349027905382
20
-9.11362423261903
30
0
41
1
10
53.0007672652056
20
-9.11485611660527
30
0
41
1
10
53.8229806412018
20
-9.11484047230115
30
0
41
1
10
54.5734871854596
20
-9.11365110350528
30
0
41
1
10
55.5230896268239
20
-9.11366760324165
30
0
41
1
10
56.7164781748596
20
-9.1153055600079
30
0
41
1
10
58.0925188034691
20
-9.11709976706072
30
0
41
1
10
59.4280592623081
20
-9.11771020609905
30
0
41
1
10
60.7133916909192
20
-9.11808768797877
30
0
41
1
10
62.0426807980154
20
-9.11978228468081
30
0
41
1
10
63.2995430395908
20
-9.11825621773707
30
0
41
1
10
64.4412994174381
20
-9.11812124690965
30
0
41
1
10
65.3981462929519
20
-9.11922662562191
30
0
41
1
10
66.2971526595728
20
-9.12109910633728
30
0
41
1
10
67.2212161113658
20
-9.12243245617009
30
0
41
1
10
68.0945039640771
20
-9.12308632195609
30
0
41
1
10
68.8885417256728
20
-9.12251722217195
30
0
41
1
10
69.5058178270204
20
-9.11663636909941
30
0
41
1
10
69.9722925489083
20
-9.11191844193465
30
0
41
1
10
70.1927665690989
20
-9.11428328365679
30
0
41
1
10
70.2223300210975
20
-9.11464413836148
30
0
0
SPLINE
5
9C
100
AcDbEntity
8
1
62
256
6
ByLayer
370
18
48
1
60
0
100
AcDbSpline
70
4
71
3
72
26
73
22
40
0
40
0
40
0
40
0
40
0.0125006709831399
40
0.0627311703147132
40
0.123670579705222
40
0.19117347401322
40
0.256923866029631
40
0.326476325650612
40
0.391332709277433
40
0.44652824114144
40
0.500015660900933
40
0.558780879640147
40
0.622509116432626
40
0.663697176227262
40
0.701517987113071
40
0.736621798372213
40
0.769947380742393
40
0.81081927480945
40
0.865191695996035
40
0.93357377228815
40
1
40
1
40
1
40
1
41
1
10
16.6283915871538
20
9.09375959025664
30
0
41
1
10
16.5645807908587
20
9.09372106475575
30
0
41
1
10
16.2443639882411
20
9.09352289462319
30
0
41
1
10
15.613079677804
20
9.09260289699535
30
0
41
1
10
14.7010278716288
20
9.09269049940889
30
0
41
1
10
13.7097546769269
20
9.0928853449814
30
0
41
1
10
12.6745175596545
20
9.09121076384744
30
0
41
1
10
11.6527844861269
20
9.09111124215681
30
0
41
1
10
10.6849530067839
20
9.09099840579393
30
0
41
1
10
9.79904557448802
20
9.08968047286993
30
0
41
1
10
8.94451330078056
20
9.08929615401192
30
0
41
1
10
8.05537854361239
20
9.08809790819285
30
0
41
1
10
7.24969635448173
20
9.07951463507112
30
0
41
1
10
6.52822489961346
20
9.07205334655274
30
0
41
1
10
5.94503710986166
20
9.07059608002311
30
0
41
1
10
5.40138485419016
20
9.073846509367
30
0
41
1
10
4.8716698590589
20
9.08200490035586
30
0
41
1
10
4.23245546439077
20
9.08549757540951
30
0
41
1
10
3.40098841454477
20
9.08621392586926
30
0
41
1
10
2.4366367608755
20
9.0853254072089
30
0
41
1
10
1.74861350258189
20
9.08362227907449
30
0
41
1
10
1.40926450237268
20
9.08250093399806
30
0
0
SPLINE
5
9D
100
AcDbEntity
8
1
62
256
6
ByLayer
370
18
48
1
60
0
100
AcDbSpline
70
4
71
3
72
28
73
24
40
0
40
0
40
0
40
0
40
0.0189523873410938
40
0.0438812948141887
40
0.0709810351355592
40
0.0982633482916282
40
0.141931335678696
40
0.183466744418186
40
0.229280296511439
40
0.278081883767077
40
0.333663026186984
40
0.409474846309446
40
0.477872286104834
40
0.544684347708889
40
0.616398412249253
40
0.693956764457133
40
0.764994553290238
40
0.837968614672956
40
0.882727920071468
40
0.924540062017179
40
0.961241674303941
40
0.991249578012566
40
1
40
1
40
1
40
1
41
1
10
70.2081919443292
20
9.11437761327582
30
0
41
1
10
70.0768520525453
20
9.11372747908297
30
0
41
1
10
69.7764228887212
20
9.11314712917778
30
0
41
1
10
69.3097476557806
20
9.1192486281673
30
0
41
1
10
68.7935558159405
20
9.12231578487896
30
0
41
1
10
68.1294171625122
20
9.1231074676156
30
0
41
1
10
67.3591783290871
20
9.12265753343161
30
0
41
1
10
66.4634483091033
20
9.12124886904957
30
0
41
1
10
65.5426268009746
20
9.11958895563703
30
0
41
1
10
64.5151132593952
20
9.11808578963965
30
0
41
1
10
63.2848711756753
20
9.11825377668904
30
0
41
1
10
61.9257410679556
20
9.11988963585765
30
0
41
1
10
60.4818192604105
20
9.11768789855816
30
0
41
1
10
59.0676418811273
20
9.11796164424331
30
0
41
1
10
57.5909684922991
20
9.11615796059709
30
0
41
1
10
56.0930648241832
20
9.11434391783132
30
0
41
1
10
54.575160564769
20
9.11325780376023
30
0
41
1
10
53.2947053048857
20
9.11535008047142
30
0
41
1
10
52.2024598431258
20
9.11369047863349
30
0
41
1
10
51.3613662321188
20
9.11317464186214
30
0
41
1
10
50.6483861553161
20
9.10814708875634
30
0
41
1
10
50.1250270269562
20
9.10666189828547
30
0
41
1
10
49.8637151764953
20
9.10777106049099
30
0
41
1
10
49.804971602527
20
9.10806693715597
30
0
0
SPLINE
5
9E
100
AcDbEntity
8
1
62
256
6
ByLayer
370
18
48
1
60
0
100
AcDbSpline
70
4
71
2
72
6
73
3
40
0
40
0
40
0
40
1
40
1
40
1
41
1
10
71.6220106357842
20
7.7923718834E-05
30
0
41
1
10
71.6219990472532
20
8.40758554261E-05
30
0
41
1
10
71.6219874586906
20
9.04874507057E-05
30
0
0
SPLINE
5
9F
100
AcDbEntity
8
1
62
256
6
ByLayer
370
18
48
1
60
0
100
AcDbSpline
70
4
71
1
72
4
73
2
40
0
40
0
40
1
40
1
41
1
10
17.2117048467038
20
0.0055712660031872
30
0
41
1
10
17.2116892212695
20
0.005579200122753
30
0
0
SPLINE
5
A0
100
AcDbEntity
8
SK1
62
256
6
ByLayer
370
18
48
1
60
0
100
AcDbSpline
70
4
71
3
72
10
73
6
40
0
40
0
40
0
40
0
40
0.821946263920409
40
0.821946263920409
40
1
40
1
40
1
40
1
41
1
10
-49.9326497003076
20
4.45294892031532
30
0
41
1
10
-49.828611147904
20
4.50281510765865
30
0
41
1
10
-49.7260709420873
20
4.55807556813622
30
0
41
1
10
-49.6086433257885
20
4.63519710589324
30
0
41
1
10
-49.5880296858121
20
4.64930703605498
30
0
41
1
10
-49.5677713201707
20
4.6638727133103
30
0
0
SPLINE
5
A1
100
AcDbEntity
8
SK1
62
256
6
ByLayer
370
18
48
1
60
0
100
AcDbSpline
70
4
71
3
72
10
73
6
40
0
40
0
40
0
40
0
40
0.28392360086985
40
0.28392360086985
40
1
40
1
40
1
40
1
41
1
10
-49.2518886242761
20
5.26104333239547
30
0
41
1
10
-49.2588523615235
20
5.28295060957797
30
0
41
1
10
-49.2677090367189
20
5.30415284757481
30
0
41
1
10
-49.3046123719584
20
5.37670216897598
30
0
41
1
10
-49.3401455407895
20
5.4228531338758
30
0
41
1
10
-49.3803334577255
20
5.46471171709803
30
0
0
SPLINE
5
A2
100
AcDbEntity
8
SK1
62
256
6
ByLayer
370
18
48
1
60
0
100
AcDbSpline
70
4
71
3
72
10
73
6
40
0
40
0
40
0
40
0
40
0.5
40
0.5
40
1
40
1
40
1
40
1
41
1
10
-47.6
20
-8.62792539456197
30
0
41
1
10
-47.8994584109409
20
-8.10223016924422
30
0
41
1
10
-48.1980939139546
20
-7.57606454078444
30
0
41
1
10
-48.7922772368195
20
-6.52206026340991
30
0
41
1
10
-49.0879009188309
20
-5.99425687838917
30
0
41
1
10
-49.3803334577261
20
-5.46471171709771
30
0
0
SPLINE
5
A3
100
AcDbEntity
8
SK1
62
256
6
ByLayer
370
18
48
1
60
0
100
AcDbSpline
70
4
71
3
72
10
73
6
40
0
40
0
40
0
40
0
40
0.5
40
0.5
40
1
40
1
40
1
40
1
41
1
10
-47.6
20
8.62792539456194
30
0
41
1
10
-47.8994584109409
20
8.10223016924419
30
0
41
1
10
-48.1980939139546
20
7.57606454078439
30
0
41
1
10
-48.7922772368196
20
6.52206026340985
30
0
41
1
10
-49.087900918831
20
5.99425687838908
30
0
41
1
10
-49.3803334577261
20
5.46471171709763
30
0
0
SPLINE
5
A4
100
AcDbEntity
8
SK1
62
256
6
ByLayer
370
18
48
1
60
0
100
AcDbSpline
70
4
71
3
72
14
73
10
40
0
40
0
40
0
40
0
40
0.25
40
0.25
40
0.5
40
0.5
40
0.75
40
0.75
40
1
40
1
40
1
40
1
41
1
10
-49.3803334577262
20
5.46471171709763
30
0
41
1
10
-49.420551775847
20
5.38491976050855
30
0
41
1
10
-49.4625426101743
20
5.30268349258989
30
0
41
1
10
-49.5496065737617
20
5.13528272204877
30
0
41
1
10
-49.5948612891755
20
5.04975766962681
30
0
41
1
10
-49.689111517519
20
4.87573941484064
30
0
41
1
10
-49.7367912349684
20
4.78968053007978
30
0
41
1
10
-49.8335758984614
20
4.61964910810309
30
0
41
1
10
-49.882805819096
20
4.53546517825438
30
0
41
1
10
-49.9326497003076
20
4.45294892031532
30
0
0
SPLINE
5
A5
100
AcDbEntity
8
SK1
62
256
6
ByLayer
370
18
48
1
60
0
100
AcDbSpline
70
4
71
3
72
14
73
10
40
0
40
0
40
0
40
0
40
0.125000000000007
40
0.125000000000007
40
0.250000000000014
40
0.250000000000014
40
0.500000000000014
40
0.500000000000014
40
1
40
1
40
1
40
1
41
1
10
-47.5
20
8.81073707369154
30
0
41
1
10
-47.5
20
8.81002200087619
30
0
41
1
10
-47.5017107697461
20
8.80634239089645
30
0
41
1
10
-47.5068845888983
20
8.79606900223411
30
0
41
1
10
-47.5102281895671
20
8.78969177923722
30
0
41
1
10
-47.521528237522
20
8.76848100295999
30
0
41
1
10
-47.5303630420009
20
8.75229556098412
30
0
41
1
10
-47.558525242781
20
8.70123612378032
30
0
41
1
10
-47.5788396428357
20
8.66507211784932
30
0
41
1
10
-47.6
20
8.62792539456194
30
0
0
SPLINE
5
A6
100
AcDbEntity
8
SK1
62
256
6
ByLayer
370
18
48
1
60
0
100
AcDbSpline
70
4
71
3
72
14
73
10
40
0
40
0
40
0
40
0
40
0.125000000000007
40
0.125000000000007
40
0.250000000000014
40
0.250000000000014
40
0.500000000000014
40
0.500000000000014
40
1
40
1
40
1
40
1
41
1
10
-47.5
20
-8.81073707369154
30
0
41
1
10
-47.5
20
-8.81002200087619
30
0
41
1
10
-47.5017107697461
20
-8.80634239089645
30
0
41
1
10
-47.5068845888983
20
-8.79606900223413
30
0
41
1
10
-47.5102281895671
20
-8.78969177923722
30
0
41
1
10
-47.5215282375219
20
-8.76848100295999
30
0
41
1
10
-47.5303630420009
20
-8.75229556098415
30
0
41
1
10
-47.5585252427809
20
-8.70123612378032
30
0
41
1
10
-47.5788396428357
20
-8.66507211784932
30
0
41
1
10
-47.6
20
-8.62792539456197
30
0
0
SPLINE
5
A7
100
AcDbEntity
8
SK1
62
256
6
ByLayer
370
18
48
1
60
0
100
AcDbSpline
70
4
71
3
72
8
73
4
40
0
40
0
40
0
40
0
40
1
40
1
40
1
40
1
41
1
10
-49.9326497003076
20
4.45294892031532
30
0
41
1
10
-49.9551377065728
20
4.41116853381661
30
0
41
1
10
-49.9775888281577
20
4.36936801507727
30
0
41
1
10
-50
20
4.32754569113808
30
0
0
SPLINE
5
A8
100
AcDbEntity
8
SK1
62
256
6
ByLayer
370
18
48
1
60
0
100
AcDbSpline
70
4
71
3
72
14
73
10
40
0
40
0
40
0
40
0
40
0.25
40
0.25
40
0.5
40
0.5
40
0.75
40
0.75
40
1
40
1
40
1
40
1
41
1
10
-49.3803334577261
20
-5.46471171709771
30
0
41
1
10
-49.420551775847
20
-5.38491976050864
30
0
41
1
10
-49.4625426101742
20
-5.30268349258998
30
0
41
1
10
-49.5496065737616
20
-5.1352827220488
30
0
41
1
10
-49.5948612891755
20
-5.04975766962681
30
0
41
1
10
-49.689111517519
20
-4.87573941484061
30
0
41
1
10
-49.7367912349685
20
-4.78968053007972
30
0
41
1
10
-49.8335758984614
20
-4.61964910810298
30
0
41
1
10
-49.882805819096
20
-4.53546517825427
30
0
41
1
10
-49.9326497003077
20
-4.45294892031521
30
0
0
SPLINE
5
A9
100
AcDbEntity
8
SK1
62
256
6
ByLayer
370
18
48
1
60
0
100
AcDbSpline
70
4
71
3
72
14
73
10
40
0
40
0
40
0
40
0
40
0.499999999999999
40
0.499999999999999
40
0.749999999999991
40
0.749999999999991
40
0.874999999999996
40
0.874999999999996
40
1
40
1
40
1
40
1
41
1
10
-47.6
20
8.20308655532133
30
0
41
1
10
-47.5789465118595
20
8.24004567147023
30
0
41
1
10
-47.5585985142981
20
8.27771592786613
30
0
41
1
10
-47.5303873672755
20
8.33402704102633
30
0
41
1
10
-47.5214287539013
20
8.35267819380519
30
0
41
1
10
-47.5102864584886
20
8.37815110155759
30
0
41
1
10
-47.50688945626
20
8.38638301775586
30
0
41
1
10
-47.5017228477084
20
8.40077556971215
30
0
41
1
10
-47.5
20
8.40686508979258
30
0
41
1
10
-47.5
20
8.4101747395504
30
0
0
SPLINE
5
AA
100
AcDbEntity
8
SK1
62
256
6
ByLayer
370
18
48
1
60
0
100
AcDbSpline
70
4
71
3
72
8
73
4
40
0
40
0
40
0
40
0
40
1
40
1
40
1
40
1
41
1
10
-49.9326497003077
20
-4.45294892031521
30
0
41
1
10
-49.9551377065729
20
-4.41116853381652
30
0
41
1
10
-49.9775888281577
20
-4.36936801507724
30
0
41
1
10
-50
20
-4.32754569113808
30
0
0
SPLINE
5
AB
100
AcDbEntity
8
SK1
62
256
6
ByLayer
370
18
48
1
60
0
100
AcDbSpline
70
4
71
3
72
10
73
6
40
0
40
0
40
0
40
0
40
0.5
40
0.5
40
1
40
1
40
1
40
1
41
1
10
-50
20
3.90270685189745
30
0
41
1
10
-49.6125332873841
20
4.62577294075189
30
0
41
1
10
-49.214029386103
20
5.34350436503286
30
0
41
1
10
-48.4112271373742
20
6.775672898669
30
0
41
1
10
-48.0063281113468
20
7.48978300383234
30
0
41
1
10
-47.6
20
8.20308655532133
30
0
0
SPLINE
5
AC
100
AcDbEntity
8
1
62
256
6
ByLayer
370
18
48
1
60
0
100
AcDbSpline
70
4
71
3
72
12
73
8
40
0
40
0
40
0
40
0
40
0.5
40
0.5
40
0.75
40
0.75
40
1
40
1
40
1
40
1
41
1
10
100.158258164491
20
-9.35508151025741
30
0
41
1
10
100.094925002591
20
-9.42388009469383
30
0
41
1
10
100.030082175888
20
-9.47984823161076
30
0
41
1
10
99.9301815934076
20
-9.54409409117159
30
0
41
1
10
99.8964213682085
20
-9.56220743796621
30
0
41
1
10
99.8286524318158
20
-9.59149866481249
30
0
41
1
10
99.794560378966
20
-9.60273755366325
30
0
41
1
10
99.760242526523
20
-9.6106318417589
30
0
0
SPLINE
5
AD
100
AcDbEntity
8
1
62
256
6
ByLayer
370
18
48
1
60
0
100
AcDbSpline
70
4
71
3
72
14
73
10
40
0
40
0
40
0
40
0
40
0.25
40
0.25
40
0.5
40
0.5
40
0.75
40
0.75
40
1
40
1
40
1
40
1
41
1
10
99.9208430303426
20
-9.13166266379659
30
0
41
1
10
99.9241973882016
20
-9.13094585065289
30
0
41
1
10
99.9269137122989
20
-9.13192113098691
30
0
41
1
10
99.9306720098964
20
-9.13833097762421
30
0
41
1
10
99.9316602512874
20
-9.14384495078588
30
0
41
1
10
99.9307761302596
20
-9.1605211635933
30
0
41
1
10
99.9288279225287
20
-9.17172749195194
30
0
41
1
10
99.922036018762
20
-9.19733993108429
30
0
41
1
10
99.9172644384045
20
-9.21150227808354
30
0
41
1
10
99.9120074052149
20
-9.22493572316426
30
0
0
SPLINE
5
AE
100
AcDbEntity
8
1
62
256
6
ByLayer
370
18
48
1
60
0
100
AcDbSpline
70
4
71
3
72
8
73
4
40
0
40
0
40
0
40
0
40
1
40
1
40
1
40
1
41
1
10
102.983962040505
20
-0.216409603709224
30
0
41
1
10
102.982373597685
20
-0.174232050232973
30
0
41
1
10
102.988704960738
20
-0.119476143054243
30
0
41
1
10
102.999739822919
20
-0.0620965171360695
30
0
0
SPLINE
5
AF
100
AcDbEntity
8
1
62
256
6
ByLayer
370
18
48
1
60
0
100
AcDbSpline
70
4
71
3
72
8
73
4
40
0
40
0
40
0
40
0
40
1
40
1
40
1
40
1
41
1
10
102.988001180146
20
-0.42258603330157
30
0
41
1
10
102.987868769525
20
-0.353842633906311
30
0
41
1
10
102.98654961074
20
-0.28511675548728
30
0
41
1
10
102.983962040505
20
-0.216409603709309
30
0
0
SPLINE
5
B0
100
AcDbEntity
8
1
62
256
6
ByLayer
370
18
48
1
60
0
100
AcDbSpline
70
4
71
3
72
34
73
30
40
0
40
0
40
0
40
0
40
0.0625000000000018
40
0.0625000000000018
40
0.0937500000000027
40
0.0937500000000027
40
0.125000000000004
40
0.125000000000004
40
0.187500000000005
40
0.187500000000005
40
0.250000000000007
40
0.250000000000007
40
0.375000000000011
40
0.375000000000011
40
0.40625000000001
40
0.40625000000001
40
0.437500000000009
40
0.437500000000009
40
0.500000000000008
40
0.500000000000008
40
0.625000000000009
40
0.625000000000009
40
0.687500000000008
40
0.687500000000008
40
0.750000000000006
40
0.750000000000006
40
0.875000000000003
40
0.875000000000003
40
1
40
1
40
1
40
1
41
1
10
90.6483220952027
20
3.85891048075345
30
0
41
1
10
90.6051233414009
20
3.58934357851689
30
0
41
1
10
90.5812324318991
20
3.31207785334692
30
0
41
1
10
90.5758766934948
20
2.88402540016494
30
0
41
1
10
90.5792399506275
20
2.7385729059776
30
0
41
1
10
90.5962196795498
20
2.44773730829982
30
0
41
1
10
90.6097636819504
20
2.30244249982095
30
0
41
1
10
90.6648876019773
20
1.86691072909954
30
0
41
1
10
90.7209182110902
20
1.577025418468
30
0
41
1
10
90.8690881787378
20
0.998133488713648
30
0
41
1
10
90.9621101298459
20
0.707330732496757
30
0
41
1
10
91.2828007058606
20
-0.13847066549971
30
0
41
1
10
91.5526299638071
20
-0.67444029568847
30
0
41
1
10
91.9445007100169
20
-1.3172269453961
30
0
41
1
10
92.0256323454115
20
-1.44435873278164
30
0
41
1
10
92.1912722513704
20
-1.69332288557018
30
0
41
1
10
92.276000807318
20
-1.81552867352514
30
0
41
1
10
92.535442625501
20
-2.17587730866322
30
0
41
1
10
92.7153938216717
20
-2.40777315284936
30
0
41
1
10
93.2733880957416
20
-3.0818252622708
30
0
41
1
10
93.6693065390176
20
-3.50266253752579
30
0
41
1
10
94.2927163593241
20
-4.09869703190043
30
0
41
1
10
94.5041735182361
20
-4.28996042414983
30
0
41
1
10
94.931468475951
20
-4.65695966106497
30
0
41
1
10
95.1476491364546
20
-4.83314659780547
30
0
41
1
10
95.8027797796227
20
-5.34268753800924
30
0
41
1
10
96.2483043636296
20
-5.65706226017818
30
0
41
1
10
97.1543102610194
20
-6.24263525026524
30
0
41
1
10
97.6148142994286
20
-6.51376791653851
30
0
41
1
10
98.0820504085949
20
-6.76546672546533
30
0
0
SPLINE
5
B1
100
AcDbEntity
8
1
62
256
6
ByLayer
370
18
48
1
60
0
100
AcDbSpline
70
4
71
3
72
12
73
8
40
0
40
0
40
0
40
0
40
0.5
40
0.5
40
0.75
40
0.75
40
1
40
1
40
1
40
1
41
1
10
102.444532116082
20
2.20271516142193
30
0
41
1
10
102.58968695332
20
1.91347178207951
30
0
41
1
10
102.707135799822
20
1.61998664611696
30
0
41
1
10
102.842493896731
20
1.17351018423256
30
0
41
1
10
102.88090729327
20
1.023310691653
30
0
41
1
10
102.944310610777
20
0.722486507435804
30
0
41
1
10
102.969230395432
20
0.572392203868986
30
0
41
1
10
102.988001180146
20
0.422586033301514
30
0
0
SPLINE
5
B2
100
AcDbEntity
8
1
62
256
6
ByLayer
370
18
48
1
60
0
100
AcDbSpline
70
4
71
3
72
44
73
40
40
0
40
0
40
0
40
0
40
0.0312500000000002
40
0.0312500000000002
40
0.0468750000000002
40
0.0468750000000002
40
0.0625000000000003
40
0.0625000000000003
40
0.0781250000000003
40
0.0781250000000003
40
0.0937500000000004
40
0.0937500000000004
40
0.125000000000001
40
0.125000000000001
40
0.156250000000001
40
0.156250000000001
40
0.187500000000001
40
0.187500000000001
40
0.250000000000002
40
0.250000000000002
40
0.312500000000002
40
0.312500000000002
40
0.375000000000003
40
0.375000000000003
40
0.437500000000004
40
0.437500000000004
40
0.500000000000004
40
0.500000000000004
40
0.562500000000005
40
0.562500000000005
40
0.625000000000006
40
0.625000000000006
40
0.687500000000005
40
0.687500000000005
40
0.750000000000004
40
0.750000000000004
40
0.875000000000002
40
0.875000000000002
40
1
40
1
40
1
40
1
41
1
10
2.89033658579575
20
-1.98909566607685
30
0
41
1
10
2.81653304528982
20
-2.21769235726657
30
0
41
1
10
2.77302205881111
20
-2.4481675747443
30
0
41
1
10
2.75426000014477
20
-2.79644571084705
30
0
41
1
10
2.7559135527485
20
-2.91370478474727
30
0
41
1
10
2.77436977897472
20
-3.142974489669
30
0
41
1
10
2.79103262861255
20
-3.25552053509858
30
0
41
1
10
2.83785490292235
20
-3.47676241990874
30
0
41
1
10
2.8680041903632
20
-3.58545968009508
30
0
41
1
10
2.94067808789217
20
-3.79926800630378
30
0
41
1
10
2.98280303611969
20
-3.90313631216711
30
0
41
1
10
3.12293070348591
20
-4.20456407006714
30
0
41
1
10
3.23492705598758
20
-4.3931927199215
30
0
41
1
10
3.48669849183034
20
-4.75162278119836
30
0
41
1
10
3.62716767459685
20
-4.92178970811256
30
0
41
1
10
3.92298052993428
20
-5.23982635816461
30
0
41
1
10
4.07908291920313
20
-5.38885264945878
30
0
41
1
10
4.56586202972176
20
-5.81283688907035
30
0
41
1
10
4.91500065892674
20
-6.06525896915844
30
0
41
1
10
5.6431001385954
20
-6.52802839661499
30
0
41
1
10
6.01681971109304
20
-6.7348325645267
30
0
41
1
10
6.77653278912297
20
-7.11412576973748
30
0
41
1
10
7.16257593240655
20
-7.28661811907756
30
0
41
1
10
7.94372934412971
20
-7.60305543480609
30
0
41
1
10
8.3388920980567
20
-7.74679530417876
30
0
41
1
10
9.1361567425966
20
-8.01011580999625
30
0
41
1
10
9.538268691214
20
-8.12968656206758
30
0
41
1
10
10.3482323985563
20
-8.34752025755242
30
0
41
1
10
10.756223219336
20
-8.44563755021611
30
0
41
1
10
11.5774110972801
20
-8.62006079038713
30
0
41
1
10
11.9881304442761
20
-8.696084445987
30
0
41
1
10
12.8101036243632
20
-8.82821493558939
30
0
41
1
10
13.2213588262516
20
-8.88434180489381
30
0
41
1
10
14.0448903628575
20
-8.97638375458772
30
0
41
1
10
14.4571562823129
20
-9.01197911540078
30
0
41
1
10
15.6967956658864
20
-9.09021102355368
30
0
41
1
10
16.5269360420204
20
-9.10551077519838
30
0
41
1
10
18.2039732919936
20
-9.0645308287697
30
0
41
1
10
19.0509781546071
20
-9.01015867769368
30
0
41
1
10
19.9121086993562
20
-8.92843530737593
30
0
0
SPLINE
5
B3
100
AcDbEntity
8
1
62
256
6
ByLayer
370
18
48
1
60
0
100
AcDbSpline
70
4
71
3
72
12
73
8
40
0
40
0
40
0
40
0
40
0.499999999999985
40
0.499999999999985
40
0.749999999999992
40
0.749999999999992
40
1
40
1
40
1
40
1
41
1
10
99.7284936883196
20
2.27719904862624
30
0
41
1
10
100.181380805963
20
2.26274665827583
30
0
41
1
10
100.634253875005
20
2.24842805577245
30
0
41
1
10
101.313246818102
20
2.22996577730979
30
0
41
1
10
101.539502597945
20
2.22452784149553
30
0
41
1
10
101.992032069952
20
2.21348138699997
30
0
41
1
10
102.218290221698
20
2.20802086304641
30
0
41
1
10
102.444532116082
20
2.20271516142193
30
0
0
SPLINE
5
B4
100
AcDbEntity
8
1
62
256
6
ByLayer
370
18
48
1
60
0
100
AcDbSpline
70
4
71
3
72
8
73
4
40
0
40
0
40
0
40
0
40
1
40
1
40
1
40
1
41
1
10
102.556276670878
20
2.77094969507061
30
0
41
1
10
102.524238254227
20
2.57996575978308
30
0
41
1
10
102.486754950116
20
2.39059833508196
30
0
41
1
10
102.444532116082
20
2.20271516142193
30
0
0
SPLINE
5
B5
100
AcDbEntity
8
1
62
256
6
ByLayer
370
18
48
1
60
0
100
AcDbSpline
70
4
71
3
72
8
73
4
40
0
40
0
40
0
40
0
40
1
40
1
40
1
40
1
41
1
10
99.7442581311124
20
-4.61452328850058
30
0
41
1
10
99.1965285432559
20
-5.33878573242043
30
0
41
1
10
98.6416774341203
20
-6.05486887683057
30
0
41
1
10
98.0820504085948
20
-6.76546672546539
30
0
0
SPLINE
5
B6
100
AcDbEntity
8
1
62
256
6
ByLayer
370
18
48
1
60
0
100
AcDbSpline
70
4
71
3
72
8
73
4
40
0
40
0
40
0
40
0
40
1
40
1
40
1
40
1
41
1
10
99.7602425265229
20
9.6106318417589
30
0
41
1
10
99.4468694033397
20
9.61987525112778
30
0
41
1
10
99.1333854523538
20
9.62436945099577
30
0
41
1
10
98.8198983009151
20
9.62413557175276
30
0
0
SPLINE
5
B7
100
AcDbEntity
8
1
62
256
6
ByLayer
370
18
48
1
60
0
100
AcDbSpline
70
4
71
3
72
54
73
50
40
0
40
0
40
0
40
0
40
0.0484648331705043
40
0.0484648331705043
40
0.0801826720648207
40
0.0801826720648207
40
0.111900510959137
40
0.111900510959137
40
0.17533618874777
40
0.17533618874777
40
0.207054027642087
40
0.207054027642087
40
0.238771866536403
40
0.238771866536403
40
0.270489705430719
40
0.270489705430719
40
0.302207544325036
40
0.302207544325036
40
0.365643222113669
40
0.365643222113669
40
0.429078899902302
40
0.429078899902302
40
0.492514577690936
40
0.492514577690936
40
0.524232416585252
40
0.524232416585252
40
0.555950255479569
40
0.555950255479569
40
0.587668094373885
40
0.587668094373885
40
0.619385933268202
40
0.619385933268202
40
0.682821611056835
40
0.682821611056835
40
0.714539449951151
40
0.714539449951151
40
0.746257288845468
40
0.746257288845468
40
0.809692966634101
40
0.809692966634101
40
0.841410805528418
40
0.841410805528418
40
0.873128644422734
40
0.873128644422734
40
0.90484648331705
40
0.90484648331705
40
0.936564322211367
40
0.936564322211367
40
1
40
1
40
1
40
1
41
1
10
49.8170008174659
20
-9.13163203768306
30
0
41
1
10
49.0337596692424
20
-9.26418853264488
30
0
41
1
10
48.251200595515
20
-9.3685790109904
30
0
41
1
10
46.9548948939278
20
-9.49345077271065
30
0
41
1
10
46.441223944042
20
-9.53047003461992
30
0
41
1
10
45.4142212593309
20
-9.57923770466462
30
0
41
1
10
44.901451630652
20
-9.59098522188043
30
0
41
1
10
43.3637767507626
20
-9.58840965921218
30
0
41
1
10
42.3396022849893
20
-9.53626668960143
30
0
41
1
10
40.7990047644985
20
-9.3829713121479
30
0
41
1
10
40.2852839965878
20
-9.31939835515368
30
0
41
1
10
39.2595866756611
20
-9.16813287298598
30
0
41
1
10
38.7471688802787
20
-9.08039587108414
30
0
41
1
10
37.7221788245767
20
-8.88133643031185
30
0
41
1
10
37.2095948731779
20
-8.77002624580098
30
0
41
1
10
36.1834241391645
20
-8.52435422957163
30
0
41
1
10
35.6693354720093
20
-8.38983430520915
30
0
41
1
10
34.1295402745245
20
-7.95435960078544
30
0
41
1
10
33.1053401020819
20
-7.62135900278585
30
0
41
1
10
31.0541345404117
20
-6.87822798274939
30
0
41
1
10
30.0257036097706
20
-6.46723039114323
30
0
41
1
10
27.9746101133208
20
-5.58421288083179
30
0
41
1
10
26.9503365240255
20
-5.1115430241243
30
0
41
1
10
25.4100033462357
20
-4.36444510151929
30
0
41
1
10
24.8958518045106
20
-4.10899093252922
30
0
41
1
10
23.8696549729287
20
-3.58890236253572
30
0
41
1
10
23.3570582039522
20
-3.32404262841638
30
0
41
1
10
22.331839996821
20
-2.786462858932
30
0
41
1
10
21.8192286796635
20
-2.51372676764615
30
0
41
1
10
20.7931349382763
20
-1.96185682555452
30
0
41
1
10
20.2791365142589
20
-1.68245846593584
30
0
41
1
10
18.7382897062304
20
-0.839534863325042
30
0
41
1
10
17.7137816863131
20
-0.271733041125685
30
0
41
1
10
16.1753512550721
20
0.578305149170291
30
0
41
1
10
15.6622574719088
20
0.861363587645712
30
0
41
1
10
14.6345940624281
20
1.42525560862137
30
0
41
1
10
14.1208645299646
20
1.70560629525178
30
0
41
1
10
12.5818011576066
20
2.53749583672212
30
0
41
1
10
11.5573856860286
20
3.08086611532241
30
0
41
1
10
10.0172653262427
20
3.86874261217656
30
0
41
1
10
9.50294639630573
20
4.12707228945712
30
0
41
1
10
8.47586970918414
20
4.6314260510016
30
0
41
1
10
7.96275687282636
20
4.8775979899375
30
0
41
1
10
6.9363250239717
20
5.35630961127805
30
0
41
1
10
6.42306608327453
20
5.5889435874283
30
0
41
1
10
5.39555691656699
20
6.03936616002972
30
0
41
1
10
4.88142450410521
20
6.25702725354691
30
0
41
1
10
3.34121236486737
20
6.88333022361061
30
0
41
1
10
2.31555658048981
20
7.26603277393716
30
0
41
1
10
1.28766904305328
20
7.6095882307481
30
0
0
SPLINE
5
B8
100
AcDbEntity
8
1
62
256
6
ByLayer
370
18
48
1
60
0
100
AcDbSpline
70
4
71
3
72
20
73
16
40
0
40
0
40
0
40
0
40
0.254129681071248
40
0.254129681071248
40
0.38119452160687
40
0.38119452160687
40
0.508259362142492
40
0.508259362142492
40
0.635324202678114
40
0.635324202678114
40
0.762389043213737
40
0.762389043213737
40
0.889453883749359
40
0.889453883749359
40
1
40
1
40
1
40
1
41
1
10
19.9121086993562
20
-8.92843530737593
30
0
41
1
10
20.6503661612118
20
-8.85485032266888
30
0
41
1
10
21.3874089976139
20
-8.75651180877878
30
0
41
1
10
22.4914793842942
20
-8.57540984075595
30
0
41
1
10
22.8593015504661
20
-8.50923543557963
30
0
41
1
10
23.5946345432066
20
-8.36465298047884
30
0
41
1
10
23.9624738440806
20
-8.28656999819691
30
0
41
1
10
24.6988705477129
20
-8.12023200771597
30
0
41
1
10
25.067356088035
20
-8.03220997047231
30
0
41
1
10
25.804817936584
20
-7.84344962504798
30
0
41
1
10
26.1741177178614
20
-7.74283973332317
30
0
41
1
10
26.9115639168119
20
-7.53137395979883
30
0
41
1
10
27.2798189414685
20
-7.42052733378381
30
0
41
1
10
27.9686734416196
20
-7.20572984007924
30
0
41
1
10
28.2890897450092
20
-7.10245963129634
30
0
41
1
10
28.609365163805
20
-6.99519575405492
30
0
0
SPLINE
5
B9
100
AcDbEntity
8
1
62
256
6
ByLayer
370
18
48
1
60
0
100
AcDbSpline
70
4
71
3
72
40
73
36
40
0
40
0
40
0
40
0
40
0.0270269914935232
40
0.0270269914935232
40
0.135135103549798
40
0.135135103549798
40
0.189189159577936
40
0.189189159577936
40
0.243243215606073
40
0.243243215606073
40
0.29729727163421
40
0.29729727163421
40
0.351351327662348
40
0.351351327662348
40
0.405405383690485
40
0.405405383690485
40
0.459459439718623
40
0.459459439718623
40
0.51351349574676
40
0.51351349574676
40
0.567567551774898
40
0.567567551774898
40
0.621621607803035
40
0.621621607803035
40
0.675675663831173
40
0.675675663831173
40
0.72972971985931
40
0.72972971985931
40
0.783783775887448
40
0.783783775887448
40
0.837837831915585
40
0.837837831915585
40
0.891891887943722
40
0.891891887943722
40
1
40
1
40
1
40
1
41
1
10
70.2004051335272
20
9.11419403393626
30
0
41
1
10
70.3848484382914
20
9.11890947681422
30
0
41
1
10
70.5692254618809
20
9.12205690221597
30
0
41
1
10
71.4906897300766
20
9.12941482462065
30
0
41
1
10
72.2264163895234
20
9.10922426839957
30
0
41
1
10
73.3299664729719
20
9.04587087823367
30
0
41
1
10
73.6980824042159
20
9.01845910956857
30
0
41
1
10
74.4347504934554
20
8.9500733885933
30
0
41
1
10
74.803336379128
20
8.90954312399805
30
0
41
1
10
75.5410778433802
20
8.81643769777995
30
0
41
1
10
75.9104361555272
20
8.76382126199653
30
0
41
1
10
76.6476779788995
20
8.64736531000551
30
0
41
1
10
77.0160994870916
20
8.58324030285883
30
0
41
1
10
77.7527463804864
20
8.44327016020557
30
0
41
1
10
78.1209548508623
20
8.36760673541494
30
0
41
1
10
78.8572410670251
20
8.20625216584043
30
0
41
1
10
79.2253209213883
20
8.1208473432055
30
0
41
1
10
79.9611978901807
20
7.93762565176311
30
0
41
1
10
80.3291238229589
20
7.83973836454163
30
0
41
1
10
81.0660748066576
20
7.63288079418155
30
0
41
1
10
81.434949318511
20
7.52385225964596
30
0
41
1
10
82.1735410241822
20
7.29554399441358
30
0
41
1
10
82.5425449562405
20
7.17641690738338
30
0
41
1
10
83.2795216087073
20
6.92888911582372
30
0
41
1
10
83.6475304546057
20
6.80037517874487
30
0
41
1
10
84.3840206908665
20
6.53614125038439
30
0
41
1
10
84.7523632745734
20
6.40049358004012
30
0
41
1
10
85.4889480628331
20
6.12011754824098
30
0
41
1
10
85.8571820948634
20
5.97514182691177
30
0
41
1
10
86.593684678063
20
5.67615747144521
30
0
41
1
10
86.961811380128
20
5.52192024290241
30
0
41
1
10
87.6992918043501
20
5.20660843415953
30
0
41
1
10
88.068888751033
20
5.04537411265392
30
0
41
1
10
89.1762265529925
20
4.55250121259857
30
0
41
1
10
89.9125477569046
20
4.21072769658588
30
0
41
1
10
90.6483220952026
20
3.85891048075339
30
0
0
SPLINE
5
BA
100
AcDbEntity
8
1
62
256
6
ByLayer
370
18
48
1
60
0
100
AcDbSpline
70
4
71
3
72
114
73
110
40
0
40
0
40
0
40
0
40
0.0016988645767367
40
0.0016988645767367
40
0.0192129195841635
40
0.0192129195841635
40
0.0367269745915903
40
0.0367269745915903
40
0.0542410295990171
40
0.0542410295990171
40
0.0717550846064439
40
0.0717550846064439
40
0.0892691396138707
40
0.0892691396138707
40
0.124297249628723
40
0.124297249628723
40
0.141811304636149
40
0.141811304636149
40
0.159325359643575
40
0.159325359643575
40
0.194353469658426
40
0.194353469658426
40
0.211867524665852
40
0.211867524665852
40
0.229381579673277
40
0.229381579673277
40
0.246895634680703
40
0.246895634680703
40
0.264409689688128
40
0.264409689688128
40
0.281923744695554
40
0.281923744695554
40
0.299437799702979
40
0.299437799702979
40
0.316951854710405
40
0.316951854710405
40
0.33446590971783
40
0.33446590971783
40
0.369494019732681
40
0.369494019732681
40
0.387008074740107
40
0.387008074740107
40
0.404522129747532
40
0.404522129747532
40
0.422036184754958
40
0.422036184754958
40
0.439550239762383
40
0.439550239762383
40
0.457064294769809
40
0.457064294769809
40
0.474578349777234
40
0.474578349777234
40
0.49209240478466
40
0.49209240478466
40
0.509606459792085
40
0.509606459792085
40
0.527120514799511
40
0.527120514799511
40
0.544634569806936
40
0.544634569806936
40
0.562148624814362
40
0.562148624814362
40
0.579662679821788
40
0.579662679821788
40
0.597176734829213
40
0.597176734829213
40
0.614690789836639
40
0.614690789836639
40
0.632204844844064
40
0.632204844844064
40
0.64971889985149
40
0.64971889985149
40
0.667232954858915
40
0.667232954858915
40
0.684747009866341
40
0.684747009866341
40
0.702261064873766
40
0.702261064873766
40
0.719775119881192
40
0.719775119881192
40
0.737289174888618
40
0.737289174888618
40
0.754803229896043
40
0.754803229896043
40
0.772317284903469
40
0.772317284903469
40
0.789831339910894
40
0.789831339910894
40
0.80734539491832
40
0.80734539491832
40
0.824859449925745
40
0.824859449925745
40
0.842373504933171
40
0.842373504933171
40
0.859887559940596
40
0.859887559940596
40
0.877401614948022
40
0.877401614948022
40
0.894915669955447
40
0.894915669955447
40
0.912429724962873
40
0.912429724962873
40
0.929943779970299
40
0.929943779970299
40
0.947457834977724
40
0.947457834977724
40
0.96497188998515
40
0.96497188998515
40
1
40
1
40
1
40
1
41
1
10
83.0175857899725
20
-7.01672958573604
30
0
41
1
10
82.981866802044
20
-7.02881706589881
30
0
41
1
10
82.946144513513
20
-7.04086074177036
30
0
41
1
10
82.5421067917471
20
-7.17655873628078
30
0
41
1
10
82.1734301223087
20
-7.29557745266885
30
0
41
1
10
81.4352405428733
20
-7.52376306117256
30
0
41
1
10
81.0656464613535
20
-7.63300874005978
30
0
41
1
10
80.3280099519591
20
-7.84004329307444
30
0
41
1
10
79.9598202733888
20
-7.93798658082923
30
0
41
1
10
79.2235746284878
20
-8.12126414188083
30
0
41
1
10
78.8553892116026
20
-8.20667550953843
30
0
41
1
10
78.1190131534336
20
-8.36801464519257
30
0
41
1
10
77.750823960262
20
-8.44365432771181
30
0
41
1
10
76.6461280335525
20
-8.65350059286507
30
0
41
1
10
75.9097184161967
20
-8.76993704714283
30
0
41
1
10
74.8018725871484
20
-8.90971632699495
30
0
41
1
10
74.4329482249849
20
-8.95026464957658
30
0
41
1
10
73.6957549095718
20
-9.01865108454084
30
0
41
1
10
73.327456989029
20
-9.0460417820407
30
0
41
1
10
72.2235889075617
20
-9.10933262813802
30
0
41
1
10
71.4879013084925
20
-9.12945058762003
30
0
41
1
10
70.3826658933559
20
-9.12053805924313
30
0
41
1
10
70.0139956149922
20
-9.11087241750795
30
0
41
1
10
69.2764080966642
20
-9.07988841833043
30
0
41
1
10
68.9072928799478
20
-9.05846924013761
30
0
41
1
10
68.1696308197173
20
-9.00366071664359
30
0
41
1
10
67.8010311570931
20
-8.97015224135998
30
0
41
1
10
67.0641719095926
20
-8.89009257766304
30
0
41
1
10
66.6959107991725
20
-8.84383253977413
30
0
41
1
10
65.9598584350836
20
-8.74012084869699
30
0
41
1
10
65.592224223489
20
-8.6824373971215
30
0
41
1
10
64.8562521891909
20
-8.55542112284243
30
0
41
1
10
64.4879604651351
20
-8.48595528942153
30
0
41
1
10
63.7506543339424
20
-8.3351153510668
30
0
41
1
10
63.381689244185
20
-8.25411309579144
30
0
41
1
10
62.643218369205
20
-8.08109158450469
30
0
41
1
10
62.2744318596018
20
-7.98896082947081
30
0
41
1
10
61.169175199886
20
-7.69642792432563
30
0
41
1
10
60.4326649380685
20
-7.48008518285337
30
0
41
1
10
59.3283618066856
20
-7.12743776959923
30
0
41
1
10
58.9603975675045
20
-7.00488669649087
30
0
41
1
10
58.2243762744397
20
-6.74934135154578
30
0
41
1
10
57.8559041816576
20
-6.61665844711092
30
0
41
1
10
57.1182392500321
20
-6.34356704315695
30
0
41
1
10
56.7487349612579
20
-6.20283338073972
30
0
41
1
10
56.010587891889
20
-5.91287512833563
30
0
41
1
10
55.6419572824131
20
-5.76375024926929
30
0
41
1
10
54.9056358331702
20
-5.45694157608821
30
0
41
1
10
54.537691772859
20
-5.29976869291701
30
0
41
1
10
53.8016010953004
20
-4.97995092861433
30
0
41
1
10
53.4335322916983
20
-4.81689680386305
30
0
41
1
10
52.6972110917545
20
-4.48409098023916
30
0
41
1
10
52.3288924134774
20
-4.31416620160076
30
0
41
1
10
51.5921685920528
20
-3.9680132192386
30
0
41
1
10
51.2238445286974
20
-3.79179230781168
30
0
41
1
10
50.4858601614147
20
-3.43516859766407
30
0
41
1
10
50.1165103143784
20
-3.25455967807665
30
0
41
1
10
49.3789869271393
20
-2.88968442061554
30
0
41
1
10
49.0104938669777
20
-2.70521949036106
30
0
41
1
10
48.2742102029376
20
-2.33273204298916
30
0
41
1
10
47.9065682954895
20
-2.14433214977237
30
0
41
1
10
47.1708269117615
20
-1.76577097109239
30
0
41
1
10
46.8027805978905
20
-1.57547365161793
30
0
41
1
10
46.0661786141545
20
-1.19303684461488
30
0
41
1
10
45.6976592201375
20
-1.00091842362934
30
0
41
1
10
44.9603260465894
20
-0.614782124680204
30
0
41
1
10
44.5914352720584
20
-0.420300638859516
30
0
41
1
10
43.8537062634067
20
-0.0314612397235123
30
0
41
1
10
43.4850668123813
20
0.162363063559866
30
0
41
1
10
42.7481042238966
20
0.548870127778855
30
0
41
1
10
42.3798214454283
20
0.741716022308538
30
0
41
1
10
41.6436663418691
20
1.12650595359173
30
0
41
1
10
41.2758663722159
20
1.3185983204288
30
0
41
1
10
40.5403793178227
20
1.70108787632284
30
0
41
1
10
40.172271977396
20
1.89062827944519
30
0
41
1
10
39.4355166997012
20
2.26715968881152
30
0
41
1
10
39.0668805868415
20
2.45414867040009
30
0
41
1
10
38.3289828847425
20
2.82521855524757
30
0
41
1
10
37.9596155270154
20
3.00940810639818
30
0
41
1
10
37.2226524917525
20
3.37271688113566
30
0
41
1
10
36.8544764764154
20
3.55159834087303
30
0
41
1
10
36.1181300427017
20
3.90442099768686
30
0
41
1
10
35.7500514503349
20
4.07830042357679
30
0
41
1
10
35.0140162185789
20
4.42035245208541
30
0
41
1
10
34.6460521185406
20
4.58846786249046
30
0
41
1
10
33.9100763079582
20
4.91791332078668
30
0
41
1
10
33.542162689485
20
5.07978802281434
30
0
41
1
10
32.805299974085
20
5.39655105703332
30
0
41
1
10
32.4364068495842
20
5.55151538391343
30
0
41
1
10
31.6979105773025
20
5.85369972695574
30
0
41
1
10
31.3290802966184
20
6.00031281934486
30
0
41
1
10
30.5922418026646
20
6.28506297243115
30
0
41
1
10
30.224413771639
20
6.42397168131421
30
0
41
1
10
29.4885342767204
20
6.69258024734063
30
0
41
1
10
29.120553564177
20
6.82232061546765
30
0
41
1
10
28.3843523388834
20
7.07168517107496
30
0
41
1
10
28.0160799429513
20
7.19095106232024
30
0
41
1
10
27.2794088763255
20
7.4206517548127
30
0
41
1
10
26.9112138566538
20
7.53147689678019
30
0
41
1
10
26.1739382977978
20
7.74288862516792
30
0
41
1
10
25.8046383805345
20
7.84349774556188
30
0
41
1
10
25.0671452794171
20
8.0322617663484
30
0
41
1
10
24.6986506831152
20
8.12028372380146
30
0
41
1
10
23.9622460721506
20
8.28661939342962
30
0
41
1
10
23.5944083391124
20
8.36469986083151
30
0
41
1
10
22.8590896369094
20
8.50927469725116
30
0
41
1
10
22.4912806062815
20
8.5754443519113
30
0
41
1
10
21.3872665345483
20
8.75653136503885
30
0
41
1
10
20.650282872181
20
8.85485862440956
30
0
41
1
10
19.9121086993562
20
8.92843530737588
30
0
0
SPLINE
5
BB
100
AcDbEntity
8
1
62
256
6
ByLayer
370
18
48
1
60
0
100
AcDbSpline
70
4
71
3
72
60
73
56
40
0
40
0
40
0
40
0
40
0.0555910718872139
40
0.0555910718872139
40
0.111182143774428
40
0.111182143774428
40
0.138977679718035
40
0.138977679718035
40
0.166773215661642
40
0.166773215661642
40
0.194568751605249
40
0.194568751605249
40
0.222364287548856
40
0.222364287548856
40
0.277955359436071
40
0.277955359436071
40
0.305750895379678
40
0.305750895379678
40
0.333546431323286
40
0.333546431323286
40
0.389137503210501
40
0.389137503210501
40
0.416933039154108
40
0.416933039154108
40
0.444728575097715
40
0.444728575097715
40
0.500319646984928
40
0.500319646984928
40
0.55591071887214
40
0.55591071887214
40
0.583706254815746
40
0.583706254815746
40
0.611501790759352
40
0.611501790759352
40
0.667092862646565
40
0.667092862646565
40
0.694888398590171
40
0.694888398590171
40
0.722683934533777
40
0.722683934533777
40
0.77827500642099
40
0.77827500642099
40
0.806070542364596
40
0.806070542364596
40
0.833866078308203
40
0.833866078308203
40
0.861661614251809
40
0.861661614251809
40
0.889457150195415
40
0.889457150195415
40
0.945048222082628
40
0.945048222082628
40
0.972843758026234
40
0.972843758026234
40
1
40
1
40
1
40
1
41
1
10
99.760242526523
20
-9.6106318417589
30
0
41
1
10
98.7343620796888
20
-9.64089172121913
30
0
41
1
10
97.7072255708191
20
-9.6202558647314
30
0
41
1
10
95.6580407088359
20
-9.47864336290925
30
0
41
1
10
94.6348046775022
20
-9.35781368478206
30
0
41
1
10
93.096419420007
20
-9.1034171023598
30
0
41
1
10
92.5827528177763
20
-9.00635763619459
30
0
41
1
10
91.5574150440077
20
-8.78925746646613
30
0
41
1
10
91.0452801223191
20
-8.66912735778629
30
0
41
1
10
90.0211311658886
20
-8.40650226019778
30
0
41
1
10
89.5091026675431
20
-8.26401944067041
30
0
41
1
10
88.4841974938964
20
-7.95752263428233
30
0
41
1
10
87.9708894911566
20
-7.79335974158226
30
0
41
1
10
86.4314172857024
20
-7.27080662230378
30
0
41
1
10
85.4079162062014
20
-6.88334768071391
30
0
41
1
10
83.87125244202
20
-6.25076271521422
30
0
41
1
10
83.3587751838692
20
-6.03136307615938
30
0
41
1
10
82.3323676587231
20
-5.57671706567979
30
0
41
1
10
81.8189423602878
20
-5.3416823844276
30
0
41
1
10
80.2812363683058
20
-4.61781767525551
30
0
41
1
10
79.2578671621438
20
-4.10918309389683
30
0
41
1
10
77.7197435256749
20
-3.31628637005039
30
0
41
1
10
77.2059897486254
20
-3.04676500705691
30
0
41
1
10
76.1800376561562
20
-2.50148116916293
30
0
41
1
10
75.667629597844
20
-2.22559813109731
30
0
41
1
10
74.1308641847693
20
-1.39044637735228
30
0
41
1
10
73.1067323622593
20
-0.823753871604509
30
0
41
1
10
71.0527274501643
20
0.315901748299666
30
0
41
1
10
70.0286906627214
20
0.884857687233222
30
0
41
1
10
68.491855189819
20
1.72760149400165
30
0
41
1
10
67.9794186341671
20
2.00668312252461
30
0
41
1
10
66.9531851467799
20
2.55931077241141
30
0
41
1
10
66.4393490788792
20
2.83300312902807
30
0
41
1
10
64.9010100020627
20
3.64025058982287
30
0
41
1
10
63.8773229860849
20
4.16075343438592
30
0
41
1
10
62.3392488254854
20
4.90619226731874
30
0
41
1
10
61.8255968334417
20
5.1489541005636
30
0
41
1
10
60.7989573173989
20
5.61976262473709
30
0
41
1
10
60.2863436762999
20
5.84777455966849
30
0
41
1
10
58.7491575726284
20
6.50761818626643
30
0
41
1
10
57.7251013734626
20
6.91507156488953
30
0
41
1
10
56.1846601542525
20
7.47022804409511
30
0
41
1
10
55.6712385513532
20
7.64561741046197
30
0
41
1
10
54.6458666312699
20
7.97529164645238
30
0
41
1
10
54.1335688313901
20
8.1297169552399
30
0
41
1
10
53.1088092836362
20
8.41685989367645
30
0
41
1
10
52.5963413209727
20
8.5495723409251
30
0
41
1
10
51.5703100262159
20
8.79242109653086
30
0
41
1
10
51.0562833767119
20
8.90261094500264
30
0
41
1
10
49.5170105441568
20
9.19696406209422
30
0
41
1
10
48.4930795528596
20
9.34527822763559
30
0
41
1
10
46.9550104325185
20
9.49344006217058
30
0
41
1
10
46.4416880146298
20
9.5304430255739
30
0
41
1
10
45.4261788039111
20
9.57867475062977
30
0
41
1
10
44.9250800898005
20
9.59043842693774
30
0
41
1
10
44.4242443897923
20
9.59016592418118
30
0
0
SPLINE
5
BC
100
AcDbEntity
8
1
62
256
6
ByLayer
370
18
48
1
60
0
100
AcDbSpline
70
4
71
3
72
10
73
6
40
0
40
0
40
0
40
0
40
0.5
40
0.5
40
1
40
1
40
1
40
1
41
1
10
102.949560190454
20
-0.0632388556999501
30
0
41
1
10
102.649597306478
20
-0.535334749372851
30
0
41
1
10
102.341705513847
20
-0.999193286953584
30
0
41
1
10
101.715001574314
20
-1.91556518830532
30
0
41
1
10
101.396148378356
20
-2.36803590614693
30
0
41
1
10
101.073306331246
20
-2.81636260004055
30
0
0
SPLINE
5
BD
100
AcDbEntity
8
1
62
256
6
ByLayer
370
18
48
1
60
0
100
AcDbSpline
70
4
71
3
72
46
73
42
40
0
40
0
40
0
40
0
40
0.125000000000017
40
0.125000000000017
40
0.187500000000025
40
0.187500000000025
40
0.250000000000034
40
0.250000000000034
40
0.312500000000042
40
0.312500000000042
40
0.343750000000046
40
0.343750000000046
40
0.375000000000051
40
0.375000000000051
40
0.390625000000051
40
0.390625000000051
40
0.406250000000051
40
0.406250000000051
40
0.421875000000051
40
0.421875000000051
40
0.437500000000051
40
0.437500000000051
40
0.453125000000051
40
0.453125000000051
40
0.468750000000052
40
0.468750000000052
40
0.500000000000052
40
0.500000000000052
40
0.531250000000052
40
0.531250000000052
40
0.562500000000052
40
0.562500000000052
40
0.625000000000045
40
0.625000000000045
40
0.687500000000037
40
0.687500000000037
40
0.75000000000003
40
0.75000000000003
40
0.875000000000015
40
0.875000000000015
40
1
40
1
40
1
40
1
41
1
10
99.7442581311122
20
-4.61452328850061
30
0
41
1
10
99.4688083359659
20
-4.50106304749227
30
0
41
1
10
99.198048540084
20
-4.36854883909726
30
0
41
1
10
98.8003254752565
20
-4.13558345410485
30
0
41
1
10
98.6691727076387
20
-4.0521528710255
30
0
41
1
10
98.4104643253961
20
-3.87067762244237
30
0
41
1
10
98.2821527608315
20
-3.7720402417344
30
0
41
1
10
98.0370234926127
20
-3.55904004854372
30
0
41
1
10
97.9195117581514
20
-3.44476458698568
30
0
41
1
10
97.7565095041772
20
-3.25293877476543
30
0
41
1
10
97.7040944994467
20
-3.18508261887442
30
0
41
1
10
97.6079152269603
20
-3.04038138206474
30
0
41
1
10
97.564760316208
20
-2.96480595127324
30
0
41
1
10
97.512639177114
20
-2.84320144673114
30
0
41
1
10
97.4977370746913
20
-2.80192941973922
30
0
41
1
10
97.4745162451135
20
-2.71828601444812
30
0
41
1
10
97.4661135703585
20
-2.675235335243
30
0
41
1
10
97.4582986152274
20
-2.59086855785677
30
0
41
1
10
97.458790032241
20
-2.54939996161653
30
0
41
1
10
97.4696622321735
20
-2.46914549620183
30
0
41
1
10
97.4797935355489
20
-2.43191669100804
30
0
41
1
10
97.5084736832798
20
-2.3626553693104
30
0
41
1
10
97.5269932256306
20
-2.33098687552965
30
0
41
1
10
97.5691668785697
20
-2.27481739355633
30
0
41
1
10
97.5931261468575
20
-2.24976020353944
30
0
41
1
10
97.6708254251613
20
-2.18264544192596
30
0
41
1
10
97.7285853404768
20
-2.14949829255332
30
0
41
1
10
97.8509309264562
20
-2.09648358529481
30
0
41
1
10
97.9154766510474
20
-2.07699374818267
30
0
41
1
10
98.0459636195664
20
-2.04794003774612
30
0
41
1
10
98.1124393408814
20
-2.0382357378891
30
0
41
1
10
98.3145064478075
20
-2.01945467432418
30
0
41
1
10
98.4533988469925
20
-2.02064362129494
30
0
41
1
10
98.7300679100923
20
-2.03990211377311
30
0
41
1
10
98.868477808373
20
-2.05803864258624
30
0
41
1
10
99.1454055164382
20
-2.10649258751698
30
0
41
1
10
99.2839239886262
20
-2.13688477473249
30
0
41
1
10
99.6996134550885
20
-2.24319268615915
30
0
41
1
10
99.977227039616
20
-2.33403596757208
30
0
41
1
10
100.531480830747
20
-2.55031426378414
30
0
41
1
10
100.80464257273
20
-2.67433217256578
30
0
41
1
10
101.073306331246
20
-2.81636260004026
30
0
0
SPLINE
5
BE
100
AcDbEntity
8
1
62
256
6
ByLayer
370
18
48
1
60
0
100
AcDbSpline
70
4
71
3
72
20
73
16
40
0
40
0
40
0
40
0
40
0.0771787375277723
40
0.0771787375277723
40
0.1290461599858
40
0.1290461599858
40
0.180913582443828
40
0.180913582443828
40
0.59585296210805
40
0.59585296210805
40
0.80332265194016
40
0.80332265194016
40
0.907057496856216
40
0.907057496856216
40
1
40
1
40
1
40
1
41
1
10
17.1810695336691
20
0.0218333275828684
30
0
41
1
10
17.5627124170395
20
-0.180761275837511
30
0
41
1
10
17.9448305015358
20
-0.383656652945035
30
0
41
1
10
18.5848772154019
20
-0.722769366345801
30
0
41
1
10
18.8424372391589
20
-0.859028654132771
30
0
41
1
10
19.3582740160326
20
-1.13127219508706
30
0
41
1
10
19.6167143285024
20
-1.26734187627227
30
0
41
1
10
21.9366718143742
20
-2.4847709626849
30
0
41
1
10
23.9720534944848
20
-3.52318822100486
30
0
41
1
10
27.0272911866291
20
-4.94217069247685
30
0
41
1
10
28.0459253072879
20
-5.39229635017551
30
0
41
1
10
29.5795400653986
20
-6.0242509379637
30
0
41
1
10
30.0916442784416
20
-6.22774278981962
30
0
41
1
10
31.0652405791819
20
-6.59846886579061
30
0
41
1
10
31.5267889358085
20
-6.76739230992021
30
0
41
1
10
31.9891519041675
20
-6.92922230690385
30
0
0
SPLINE
5
BF
100
AcDbEntity
8
1
62
256
6
ByLayer
370
13
48
1
60
0
100
AcDbSpline
70
4
71
3
72
20
73
16
40
0
40
0
40
0
40
0
40
0.010754321484126
40
0.010754321484126
40
0.217493117526257
40
0.217493117526257
40
0.424231913568389
40
0.424231913568389
40
0.63097070961052
40
0.63097070961052
40
0.734340107631585
40
0.734340107631585
40
0.837709505652649
40
0.837709505652649
40
1
40
1
40
1
40
1
41
1
10
31.989151904298
20
-6.92922230694958
30
0
41
1
10
32.0428407872583
20
-6.94801375947074
30
0
41
1
10
32.0965406540362
20
-6.96670956749497
30
0
41
1
10
33.1827569955341
20
-7.34284919735612
30
0
41
1
10
34.2117739451996
20
-7.6619324599362
30
0
41
1
10
36.2699321886784
20
-8.21623180148799
30
0
41
1
10
37.2996758828808
20
-8.45144356218842
30
0
41
1
10
39.3645421421871
20
-8.8308275062503
30
0
41
1
10
40.3935044751294
20
-8.97375412398492
30
0
41
1
10
41.9371287993226
20
-9.11617918667341
30
0
41
1
10
42.4516983630448
20
-9.15162056804851
30
0
41
1
10
43.4817824652621
20
-9.19819939798305
30
0
41
1
10
43.9976031165242
20
-9.20936285904708
30
0
41
1
10
45.3240497675192
20
-9.20645927704487
30
0
41
1
10
46.132194369254
20
-9.17441335043148
30
0
41
1
10
46.9398984614004
20
-9.11267073747709
30
0
0
SPLINE
5
C0
100
AcDbEntity
8
1
62
256
6
ByLayer
370
18
48
1
60
0
100
AcDbSpline
70
4
71
3
72
10
73
6
40
0
40
0
40
0
40
0
40
0.5
40
0.5
40
1
40
1
40
1
40
1
41
1
10
102.983962040502
20
0.216409603713373
30
0
41
1
10
102.983168263338
20
0.19533262294064
30
0
41
1
10
102.984428504181
20
0.170812333908628
30
0
41
1
10
102.989968915269
20
0.11847312528991
30
0
41
1
10
102.994201340408
20
0.0908957943214261
30
0
41
1
10
102.999739822919
20
0.0620965171358989
30
0
0
SPLINE
5
C1
100
AcDbEntity
8
1
62
256
6
ByLayer
370
13
48
1
60
0
100
AcDbSpline
70
4
71
3
72
20
73
16
40
0
40
0
40
0
40
0
40
0.0080050384221429
40
0.0080050384221429
40
0.119185122815245
40
0.119185122815245
40
0.341545291601449
40
0.341545291601449
40
0.563905460387653
40
0.563905460387653
40
0.786265629173856
40
0.786265629173856
40
0.897445713566958
40
0.897445713566958
40
1
40
1
40
1
40
1
41
1
10
1.40891751020194
20
7.57468472725017
30
0
41
1
10
1.40891894717996
20
7.58255483327207
30
0
41
1
10
1.40892038066949
20
7.59039502009875
30
0
41
1
10
1.4089416712913
20
7.70667612829823
30
0
41
1
10
1.40896082905121
20
7.8091897366275
30
0
41
1
10
1.40901648121889
20
8.09927754557202
30
0
41
1
10
1.4090511597274
20
8.26946984853646
30
0
41
1
10
1.40911703236179
20
8.56388075108242
30
0
41
1
10
1.40914824136422
20
8.68816635147769
30
0
41
1
10
1.40920832591766
20
8.88857798205831
30
0
41
1
10
1.40923674952936
20
8.96319342804279
30
0
41
1
10
1.40927793397972
20
9.03696188693789
30
0
41
1
10
1.40929144509343
20
9.05517027300999
30
0
41
1
10
1.4093168245615
20
9.07757809887119
30
0
41
1
10
1.40932876405117
20
9.08282089299368
30
0
41
1
10
1.40934052025855
20
9.08265698529124
30
0
0
SPLINE
5
C2
100
AcDbEntity
8
1
62
256
6
ByLayer
370
18
48
1
60
0
100
AcDbSpline
70
4
71
3
72
12
73
8
40
0
40
0
40
0
40
0
40
0.5
40
0.5
40
0.75
40
0.75
40
1
40
1
40
1
40
1
41
1
10
100.158258164492
20
9.3550815102563
30
0
41
1
10
100.09492576333
20
9.42387926830563
30
0
41
1
10
100.030084464075
20
9.4798460826575
30
0
41
1
10
99.9301875498287
20
9.54409059928602
30
0
41
1
10
99.8964261732164
20
9.56220512260003
30
0
41
1
10
99.828654557605
20
9.59149798451114
30
0
41
1
10
99.7945613489001
20
9.60273733054498
30
0
41
1
10
99.760242526523
20
9.6106318417589
30
0
0
SPLINE
5
C3
100
AcDbEntity
8
1
62
256
6
ByLayer
370
18
48
1
60
0
100
AcDbSpline
70
4
71
3
72
46
73
42
40
0
40
0
40
0
40
0
40
0.0156250000000009
40
0.0156250000000009
40
0.0312500000000017
40
0.0312500000000017
40
0.0625000000000029
40
0.0625000000000029
40
0.093750000000004
40
0.093750000000004
40
0.125000000000005
40
0.125000000000005
40
0.140625000000006
40
0.140625000000006
40
0.144531250000006
40
0.144531250000006
40
0.148437500000007
40
0.148437500000007
40
0.152343750000007
40
0.152343750000007
40
0.156250000000008
40
0.156250000000008
40
0.187500000000008
40
0.187500000000008
40
0.250000000000008
40
0.250000000000008
40
0.312500000000007
40
0.312500000000007
40
0.375000000000007
40
0.375000000000007
40
0.500000000000004
40
0.500000000000004
40
0.625000000000002
40
0.625000000000002
40
0.75
40
0.75
40
0.8125
40
0.8125
40
0.875
40
0.875
40
1
40
1
40
1
40
1
41
1
10
2.24189436607131
20
-1.74011065073105
30
0
41
1
10
2.28138151710107
20
-1.64752791062574
30
0
41
1
10
2.32558586125327
20
-1.5556460363274
30
0
41
1
10
2.42074570780954
20
-1.37715061659438
30
0
41
1
10
2.47182087367886
20
-1.29016748398939
30
0
41
1
10
2.63434369196926
20
-1.03525669054065
30
0
41
1
10
2.75501258121741
20
-0.873317835695531
30
0
41
1
10
3.01655533018459
20
-0.562636392087114
30
0
41
1
10
3.15780248490441
20
-0.413673974181421
30
0
41
1
10
3.45253594100964
20
-0.131414571926172
30
0
41
1
10
3.60658482538292
20
0.0025545946860746
30
0
41
1
10
3.84590418977942
20
0.194613131300514
30
0
41
1
10
3.92690620085659
20
0.257018643932696
30
0
41
1
10
4.02956036424246
20
0.333185581533485
30
0
41
1
10
4.05034387908285
20
0.348300936301598
30
0
41
1
10
4.09523949619302
20
0.370788702676037
30
0
41
1
10
4.11883379418421
20
0.379434666890631
30
0
41
1
10
4.16762293911904
20
0.393100654929043
30
0
41
1
10
4.1926418790182
20
0.397982497870174
30
0
41
1
10
4.24242315963315
20
0.404349111572202
30
0
41
1
10
4.26741303139019
20
0.405546157870276
30
0
41
1
10
4.49247296098841
20
0.413295590995006
30
0
41
1
10
4.69262459787882
20
0.419116405633503
30
0
41
1
10
5.29311618909384
20
0.428807716129882
30
0
41
1
10
5.69328929622969
20
0.426862385373539
30
0
41
1
10
6.49333302558654
20
0.406524379335025
30
0
41
1
10
6.89363677159116
20
0.388117093607349
30
0
41
1
10
7.69181157737867
20
0.335291208101864
30
0
41
1
10
8.08926437899009
20
0.300934862935321
30
0
41
1
10
9.2768631353747
20
0.17477869184043
30
0
41
1
10
10.0622356822242
20
0.0598203586866362
30
0
41
1
10
11.6211170986501
20
-0.227291715846405
30
0
41
1
10
12.3945912088596
20
-0.399612617368973
30
0
41
1
10
13.9305585470178
20
-0.796675213405365
30
0
41
1
10
14.6930615169176
20
-1.02136772297464
30
0
41
1
10
15.8296016287083
20
-1.39234371892266
30
0
41
1
10
16.20759413081
20
-1.52176315651079
30
0
41
1
10
16.9589445320732
20
-1.78983916295221
30
0
41
1
10
17.3324602375074
20
-1.92852710247712
30
0
41
1
10
18.4471965313793
20
-2.35644015409994
30
0
41
1
10
19.1825643851972
20
-2.65760345459896
30
0
41
1
10
19.9121086993562
20
-2.96872607178256
30
0
0
SPLINE
5
C4
100
AcDbEntity
8
1
62
256
6
ByLayer
370
18
48
1
60
0
100
AcDbSpline
70
4
71
3
72
16
73
12
40
0
40
0
40
0
40
0
40
0.0053851942062564
40
0.0053851942062564
40
0.281551648286351
40
0.281551648286351
40
0.557718102366446
40
0.557718102366446
40
0.833884556446541
40
0.833884556446541
40
1
40
1
40
1
40
1
41
1
10
44.5916524691722
20
-9.10879405482132
30
0
41
1
10
44.5715404787648
20
-9.1087549179374
30
0
41
1
10
44.5514271869011
20
-9.10869732703725
30
0
41
1
10
43.4997837339195
20
-9.10472107437619
30
0
41
1
10
42.4708563667293
20
-9.05236087683096
30
0
41
1
10
40.4141658923296
20
-8.85275127220626
30
0
41
1
10
39.3858861564111
20
-8.70566416090969
30
0
41
1
10
37.3224991906469
20
-8.31940928016297
30
0
41
1
10
36.2936087981238
20
-8.08157859491683
30
0
41
1
10
34.6467147108386
20
-7.63469627135561
30
0
41
1
10
34.0281669822158
20
-7.45196921818157
30
0
41
1
10
33.4088745555985
20
-7.25511269318898
30
0
0
SPLINE
5
C5
100
AcDbEntity
8
1
62
256
6
ByLayer
370
13
48
1
60
0
100
AcDbSpline
70
4
71
3
72
26
73
22
40
0
40
0
40
0
40
0
40
0.060922718829436
40
0.060922718829436
40
0.137363685388848
40
0.137363685388848
40
0.213804651948261
40
0.213804651948261
40
0.366686585067087
40
0.366686585067087
40
0.672450451304739
40
0.672450451304739
40
0.710670934584445
40
0.710670934584445
40
0.748891417864151
40
0.748891417864151
40
0.825332384423565
40
0.825332384423565
40
0.978214317542392
40
0.978214317542392
40
1
40
1
40
1
40
1
41
1
10
33.4088745556753
20
-7.25511269321345
30
0
41
1
10
32.9985950783006
20
-7.12469580335667
30
0
41
1
10
32.5879887511184
20
-6.98807745307184
30
0
41
1
10
31.6609581003373
20
-6.66655324971416
30
0
41
1
10
31.146090604706
20
-6.47892020399215
30
0
41
1
10
30.119822685884
20
-6.08835960172573
30
0
41
1
10
29.6080685115295
20
-5.88530104120753
30
0
41
1
10
28.0754388630759
20
-5.25517687733492
30
0
41
1
10
27.057355961685
20
-4.80702504232016
30
0
41
1
10
24.003756849179
20
-3.39595016874762
30
0
41
1
10
21.9693377815092
20
-2.36566709614635
30
0
41
1
10
19.6509670376124
20
-1.16037832690307
30
0
41
1
10
19.3927237488375
20
-1.02571016113501
30
0
41
1
10
18.8772927591019
20
-0.756341144513982
30
0
41
1
10
18.6199280582347
20
-0.621548457815891
30
0
41
1
10
17.8487359526184
20
-0.217130924288284
30
0
41
1
10
17.3358040470384
20
0.0525209363299552
30
0
41
1
10
15.7991564088536
20
0.858804792771338
30
0
41
1
10
14.7776730599942
20
1.39293955824212
30
0
41
1
10
13.6100523534063
20
1.99181168425727
30
0
41
1
10
13.46441190114
20
2.06631076297347
30
0
41
1
10
13.3187536992538
20
2.14059367458029
30
0
0
SPLINE
5
C6
100
AcDbEntity
8
1
62
256
6
ByLayer
370
18
48
1
60
0
100
AcDbSpline
70
4
71
3
72
14
73
10
40
0
40
0
40
0
40
0
40
0.25
40
0.25
40
0.5
40
0.5
40
0.75
40
0.75
40
1
40
1
40
1
40
1
41
1
10
100.158258164492
20
9.35508151025627
30
0
41
1
10
100.349255771805
20
8.80609491800686
30
0
41
1
10
100.543050633035
20
8.25676348910898
30
0
41
1
10
100.935555047052
20
7.15774971890497
30
0
41
1
10
101.134290559079
20
6.60806296879699
30
0
41
1
10
101.535944676915
20
5.50847202661507
30
0
41
1
10
101.73852910039
20
4.95930586486847
30
0
41
1
10
102.145848904431
20
3.86368092502175
30
0
41
1
10
102.35069999076
20
3.31683709056512
30
0
41
1
10
102.556276670878
20
2.77094969507061
30
0
0
SPLINE
5
C7
100
AcDbEntity
8
1
62
256
6
ByLayer
370
18
48
1
60
0
100
AcDbSpline
70
4
71
3
72
12
73
8
40
0
40
0
40
0
40
0
40
0.25
40
0.25
40
0.5
40
0.5
40
1
40
1
40
1
40
1
41
1
10
100.158258164485
20
-9.35508151027562
30
0
41
1
10
100.35058642746
20
-8.80227019934378
30
0
41
1
10
100.545177020045
20
-8.25075337994241
30
0
41
1
10
100.93837564778
20
-7.14990895649069
30
0
41
1
10
101.137004167735
20
-6.60059375383267
30
0
41
1
10
101.73800365215
20
-4.9553852395232
30
0
41
1
10
102.145348559399
20
-3.86212636151794
30
0
41
1
10
102.556276670885
20
-2.77094969505237
30
0
0
SPLINE
5
C8
100
AcDbEntity
8
1
62
256
6
ByLayer
370
18
48
1
60
0
100
AcDbSpline
70
4
71
3
72
47
73
43
40
0
40
0
40
0
40
0
40
0.124999999999997
40
0.124999999999997
40
0.187499999999999
40
0.187499999999999
40
0.218749999999997
40
0.218749999999997
40
0.249999999999995
40
0.249999999999995
40
0.499999999999975
40
0.499999999999975
40
0.562499999999972
40
0.562499999999972
40
0.593749999999973
40
0.593749999999973
40
0.624999999999973
40
0.624999999999973
40
0.749999999999992
40
0.749999999999992
40
0.812499999999999
40
0.812499999999999
40
0.843750000000002
40
0.843750000000002
40
0.859375000000004
40
0.859375000000004
40
0.867187500000002
40
0.867187500000002
40
0.871093750000002
40
0.871093750000002
40
0.875000000000001
40
0.875000000000001
40
0.882812499999999
40
0.882812499999999
40
0.886718749999999
40
0.886718749999999
40
0.890624999999999
40
0.906249999999999
40
0.906249999999999
40
0.937499999999999
40
0.937499999999999
40
1
40
1
40
1
40
1
41
1
10
90.6483220952028
20
3.85891048075345
30
0
41
1
10
91.0178483678968
20
3.5012791003073
30
0
41
1
10
91.3997823745375
20
3.16645538292823
30
0
41
1
10
91.9909222684055
20
2.69774618005999
30
0
41
1
10
92.1910176838463
20
2.54711399676279
30
0
41
1
10
92.4958057482338
20
2.32970396537624
30
0
41
1
10
92.5981786178221
20
2.2586619425212
30
0
41
1
10
92.8045025563889
20
2.11947891323351
30
0
41
1
10
92.9086192679219
20
2.05123587212722
30
0
41
1
10
93.8471635428883
20
1.45396764770533
30
0
41
1
10
94.6975118878952
20
1.0368507460029
30
0
41
1
10
95.7830894037768
20
0.675611206598887
30
0
41
1
10
96.0013535669974
20
0.611488234041531
30
0
41
1
10
96.3306239126276
20
0.528560045291243
30
0
41
1
10
96.4406935021881
20
0.503129930494907
30
0
41
1
10
96.6614916442022
20
0.456930810961353
30
0
41
1
10
96.7722907702639
20
0.436159596582399
30
0
41
1
10
97.3237381485643
20
0.345289326942037
30
0
41
1
10
97.7600033957753
20
0.313415659337721
30
0
41
1
10
98.4055442340017
20
0.339505035864534
30
0
41
1
10
98.6190837351663
20
0.360419929201754
30
0
41
1
10
98.9337270816907
20
0.411642007831688
30
0
41
1
10
99.0377389127869
20
0.432033455671103
30
0
41
1
10
99.1919618522726
20
0.46774088519723
30
0
41
1
10
99.2430898229335
20
0.480500234695341
30
0
41
1
10
99.3193523092223
20
0.500955071547907
30
0
41
1
10
99.3447158610454
20
0.507948836030664
30
0
41
1
10
99.3826082375508
20
0.518908095917681
30
0
41
1
10
99.3951797605383
20
0.522742771922992
30
0
41
1
10
99.4194441296104
20
0.5331042210411
30
0
41
1
10
99.431168314158
20
0.540099583212765
30
0
41
1
10
99.4625295763189
20
0.566065840061441
30
0
41
1
10
99.4791562970285
20
0.591158503856207
30
0
41
1
10
99.4879423413167
20
0.638029243661776
30
0
41
1
10
99.4887519571326
20
0.654596893844626
30
0
41
1
10
99.4917378906449
20
0.687143659013657
30
0
41
1
10
99.4989461574361
20
0.76859891071615
30
0
41
1
10
99.504888593758
20
0.850507005335231
30
0
41
1
10
99.5168347469073
20
1.04771157432168
30
0
41
1
10
99.5217206831842
20
1.18007359542145
30
0
41
1
10
99.528074572265
20
1.57956682523584
30
0
41
1
10
99.5212290643795
20
1.84799303655532
30
0
41
1
10
99.5056039600327
20
2.11686793097593
30
0
0
SPLINE
5
C9
100
AcDbEntity
8
1
62
256
6
ByLayer
370
18
48
1
60
0
100
AcDbSpline
70
4
71
3
72
8
73
4
40
0
40
0
40
0
40
0
40
1
40
1
40
1
40
1
41
1
10
99.9120074052167
20
-9.22493572315963
30
0
41
1
10
99.861591699975
20
-9.35376439574807
30
0
41
1
10
99.8110047791295
20
-9.48233065062291
30
0
41
1
10
99.7602425265231
20
-9.61063184175893
30
0
0
SPLINE
5
CA
100
AcDbEntity
8
1
62
256
6
ByLayer
370
13
48
1
60
0
100
AcDbSpline
70
4
71
3
72
38
73
34
40
0
40
0
40
0
40
0
40
0.00371470511609
40
0.00371470511609
40
0.0942860955600818
40
0.0942860955600818
40
0.139571790782078
40
0.139571790782078
40
0.184857486004074
40
0.184857486004074
40
0.275428876448065
40
0.275428876448065
40
0.320714571670061
40
0.320714571670061
40
0.366000266892057
40
0.366000266892057
40
0.456571657336049
40
0.456571657336049
40
0.501857352558045
40
0.501857352558045
40
0.547143047780041
40
0.547143047780041
40
0.637714438224033
40
0.637714438224033
40
0.728285828668025
40
0.728285828668025
40
0.818857219112016
40
0.818857219112016
40
0.909428609556008
40
0.909428609556008
40
0.954714304778004
40
0.954714304778004
40
1
40
1
40
1
40
1
41
1
10
1.40934035032146
20
-9.08265897788323
30
0
41
1
10
1.40934139592971
20
-9.08264903521732
30
0
41
1
10
1.40934244008648
20
-9.08259633183584
30
0
41
1
10
1.40936890685569
20
-9.08017510146919
30
0
41
1
10
1.40939350102184
20
-9.05254971004311
30
0
41
1
10
1.40942977785465
20
-8.97326063785454
30
0
41
1
10
1.40944176508356
20
-8.94050292763842
30
0
41
1
10
1.40946560468964
20
-8.86210589089382
30
0
41
1
10
1.40947748932353
20
-8.81631438754962
30
0
41
1
10
1.4095127525807
20
-8.66028297285771
30
0
41
1
10
1.40953572848378
20
-8.5317638137488
30
0
41
1
10
1.40956955180826
20
-8.30221088244036
30
0
41
1
10
1.40958069767834
20
-8.21963281664765
30
0
41
1
10
1.40960254425283
20
-8.04390151720639
30
0
41
1
10
1.40961327165761
20
-7.95057249612577
30
0
41
1
10
1.40964483022819
20
-7.654406100399
30
0
41
1
10
1.40966505135401
20
-7.43545741340239
30
0
41
1
10
1.40969377344919
20
-7.07438332100725
30
0
41
1
10
1.40970310191767
20
-6.94817733337376
30
0
41
1
10
1.40972098146611
20
-6.68645585658396
30
0
41
1
10
1.40972950480162
20
-6.55140925581787
30
0
41
1
10
1.40975369315862
20
-6.13401151609557
30
0
41
1
10
1.4097679892765
20
-5.83945237458028
30
0
41
1
10
1.40979192328476
20
-5.21806974241247
30
0
41
1
10
1.40980156612338
20
-4.89121110606976
30
0
41
1
10
1.40981473800548
20
-4.20405232388191
30
0
41
1
10
1.40981811229102
20
-3.85131434544073
30
0
41
1
10
1.40981737677177
20
-3.12824805431538
30
0
41
1
10
1.40981326982006
20
-2.75791747663661
30
0
41
1
10
1.40980043791672
20
-2.18908897244384
30
0
41
1
10
1.40979504569992
20
-1.99725055517723
30
0
41
1
10
1.40978181104606
20
-1.60900617523782
30
0
41
1
10
1.40977397161143
20
-1.41296407336418
30
0
41
1
10
1.40976488949781
20
-1.21634510788758
30
0
0
SPLINE
5
CB
100
AcDbEntity
8
1
62
256
6
ByLayer
370
18
48
1
60
0
100
AcDbSpline
70
4
71
3
72
42
73
38
40
0
40
0
40
0
40
0
40
0.0312500000000003
40
0.0312500000000003
40
0.0625000000000006
40
0.0625000000000006
40
0.0937500000000009
40
0.0937500000000009
40
0.125000000000001
40
0.125000000000001
40
0.187500000000001
40
0.187500000000001
40
0.218750000000002
40
0.218750000000002
40
0.250000000000002
40
0.250000000000002
40
0.312500000000002
40
0.312500000000002
40
0.375000000000003
40
0.375000000000003
40
0.437500000000004
40
0.437500000000004
40
0.500000000000004
40
0.500000000000004
40
0.562500000000005
40
0.562500000000005
40
0.625000000000005
40
0.625000000000005
40
0.687500000000006
40
0.687500000000006
40
0.750000000000006
40
0.750000000000006
40
0.812500000000007
40
0.812500000000007
40
0.875000000000008
40
0.875000000000008
40
1
40
1
40
1
40
1
41
1
10
101.073306331246
20
-2.81636260004026
30
0
41
1
10
101.079723996523
20
-2.84341855959005
30
0
41
1
10
101.08508395895
20
-2.87223677816016
30
0
41
1
10
101.09329713635
20
-2.9320843920519
30
0
41
1
10
101.096191199987
20
-2.96323641552201
30
0
41
1
10
101.099498351875
20
-3.02811846108074
30
0
41
1
10
101.099912070414
20
-3.06184768936396
30
0
41
1
10
101.098133033117
20
-3.13208831122364
30
0
41
1
10
101.09591406066
20
-3.16863028007444
30
0
41
1
10
101.085493542956
20
-3.27938115178088
30
0
41
1
10
101.073567508051
20
-3.35572063876367
30
0
41
1
10
101.048309256628
20
-3.47419435381235
30
0
41
1
10
101.038683202248
20
-3.51412718309524
30
0
41
1
10
101.017587306035
20
-3.59306375357011
30
0
41
1
10
101.00606281027
20
-3.63233208112771
30
0
41
1
10
100.968714477432
20
-3.74957398506248
30
0
41
1
10
100.939883668949
20
-3.82741512685061
30
0
41
1
10
100.878066588767
20
-3.97484397416491
30
0
41
1
10
100.8445501488
20
-4.04585602553988
30
0
41
1
10
100.774422548089
20
-4.1794576036433
30
0
41
1
10
100.73820218735
20
-4.24142218365625
30
0
41
1
10
100.663602605191
20
-4.35673619304853
30
0
41
1
10
100.625132425935
20
-4.41008250095132
30
0
41
1
10
100.548359805862
20
-4.50556449435979
30
0
41
1
10
100.509755002221
20
-4.54819145704255
30
0
41
1
10
100.431942948487
20
-4.62380179294379
30
0
41
1
10
100.392948507675
20
-4.65650303477119
30
0
41
1
10
100.316218664157
20
-4.71105953466224
30
0
41
1
10
100.278236807189
20
-4.7331575533224
30
0
41
1
10
100.202828651647
20
-4.76724544265051
30
0
41
1
10
100.165325323543
20
-4.77917431381147
30
0
41
1
10
100.092656270189
20
-4.79238758325403
30
0
41
1
10
100.057237151481
20
-4.79381511134278
30
0
41
1
10
99.9880803218549
20
-4.78634275567237
30
0
41
1
10
99.9541888191576
20
-4.77737589063105
30
0
41
1
10
99.856080385482
20
-4.73436244730257
30
0
41
1
10
99.7968328722575
20
-4.68555537969638
30
0
41
1
10
99.7442581311123
20
-4.61452328850061
30
0
0
SPLINE
5
CC
100
AcDbEntity
8
1
62
256
6
ByLayer
370
18
48
1
60
0
100
AcDbSpline
70
4
71
3
72
104
73
100
40
0
40
0
40
0
40
0
40
0.0197468115226097
40
0.0197468115226097
40
0.0383407346554182
40
0.0383407346554182
40
0.0569346577882267
40
0.0569346577882267
40
0.0755285809210352
40
0.0755285809210352
40
0.0941225040538438
40
0.0941225040538438
40
0.13131035031946
40
0.13131035031946
40
0.149904273452269
40
0.149904273452269
40
0.168498196585077
40
0.168498196585077
40
0.187092119717886
40
0.187092119717886
40
0.205686042850694
40
0.205686042850694
40
0.224279965983503
40
0.224279965983503
40
0.233576927549907
40
0.233576927549907
40
0.242873889116311
40
0.242873889116311
40
0.280061735381928
40
0.280061735381928
40
0.298655658514736
40
0.298655658514736
40
0.317249581647545
40
0.317249581647545
40
0.335843504780353
40
0.335843504780353
40
0.354437427913161
40
0.354437427913161
40
0.391625274178778
40
0.391625274178778
40
0.410219197311586
40
0.410219197311586
40
0.428813120444394
40
0.428813120444394
40
0.447407043577203
40
0.447407043577203
40
0.466000966710011
40
0.466000966710011
40
0.484594889842819
40
0.484594889842819
40
0.503188812975627
40
0.503188812975627
40
0.540376659241244
40
0.540376659241244
40
0.558970582374052
40
0.558970582374052
40
0.57756450550686
40
0.57756450550686
40
0.586861467073264
40
0.586861467073264
40
0.596158428639668
40
0.596158428639668
40
0.614752351772476
40
0.614752351772476
40
0.651940198038091
40
0.651940198038091
40
0.670534121170899
40
0.670534121170899
40
0.689128044303706
40
0.689128044303706
40
0.707721967436513
40
0.707721967436513
40
0.72631589056932
40
0.72631589056932
40
0.763503736834936
40
0.763503736834936
40
0.782097659967744
40
0.782097659967744
40
0.800691583100552
40
0.800691583100552
40
0.81928550623336
40
0.81928550623336
40
0.837879429366168
40
0.837879429366168
40
0.856473352498976
40
0.856473352498976
40
0.875067275631784
40
0.875067275631784
40
0.912255121897401
40
0.912255121897401
40
0.930849045030209
40
0.930849045030209
40
0.949442968163017
40
0.949442968163017
40
0.968036891295825
40
0.968036891295825
40
0.986630814428633
40
0.986630814428633
40
1
40
1
40
1
40
1
41
1
10
28.6027362810779
20
6.98673214685616
30
0
41
1
10
29.0460973285522
20
7.15425775572487
30
0
41
1
10
29.4901595964463
20
7.31502240475325
30
0
41
1
10
30.3531897033931
20
7.61465363387998
30
0
41
1
10
30.7717237867819
20
7.7546086851705
30
0
41
1
10
31.6123670644406
20
8.01954393817039
30
0
41
1
10
32.0350515801418
20
8.14507394909387
30
0
41
1
10
32.877815065589
20
8.38096654382687
30
0
41
1
10
33.2980401490255
20
8.49134232779301
30
0
41
1
10
34.1356334782365
20
8.69746097413406
30
0
41
1
10
34.5530237624126
20
8.79310018258965
30
0
41
1
10
35.8057193947987
20
9.0545434675962
30
0
41
1
10
36.6398325378133
20
9.19667249743131
30
0
41
1
10
37.8864674627729
20
9.36325165137313
30
0
41
1
10
38.3019112110149
20
9.41060931468837
30
0
41
1
10
39.1342374799677
20
9.48861264416507
30
0
41
1
10
39.5507910624304
20
9.51940595702573
30
0
41
1
10
40.3842162127389
20
9.56465128578444
30
0
41
1
10
40.8010200927748
20
9.57910519624761
30
0
41
1
10
41.6348627370093
20
9.59123173175584
30
0
41
1
10
42.0529397676727
20
9.58885615955691
30
0
41
1
10
42.8914105297198
20
9.56737351956997
30
0
41
1
10
43.3116852020545
20
9.54826490186025
30
0
41
1
10
43.9434119068365
20
9.50678955112204
30
0
41
1
10
44.1544184791536
20
9.49080875376191
30
0
41
1
10
44.5756162015896
20
9.45456130247393
30
0
41
1
10
44.7856943120831
20
9.43427357875157
30
0
41
1
10
45.835566636072
20
9.32277700119118
30
0
41
1
10
46.6734505762601
20
9.20171654912829
30
0
41
1
10
47.9247157193304
20
8.97256683448046
30
0
41
1
10
48.3404062895743
20
8.88783125770792
30
0
41
1
10
49.1723849813473
20
8.70396750439764
30
0
41
1
10
49.5885962866761
20
8.60486081961636
30
0
41
1
10
50.4208906118812
20
8.3920600139445
30
0
41
1
10
50.8369947162711
20
8.27838137125636
30
0
41
1
10
51.6686695924276
20
8.03588663929517
30
0
41
1
10
52.0839715621342
20
7.90673061023355
30
0
41
1
10
53.3336286562319
20
7.50099428459026
30
0
41
1
10
54.1702231136727
20
7.20506151065021
30
0
41
1
10
55.427401452866
20
6.71819317375838
30
0
41
1
10
55.8471044640253
20
6.54896298982996
30
0
41
1
10
56.6904369985987
20
6.20023108196179
30
0
41
1
10
57.1119236328467
20
6.02088578684788
30
0
41
1
10
57.951832438973
20
5.65257424903334
30
0
41
1
10
58.3706298612656
20
5.46349058553642
30
0
41
1
10
59.2054752419321
20
5.07474976432786
30
0
41
1
10
59.6224665175753
20
4.87656848719655
30
0
41
1
10
60.4563319643239
20
4.47394180845905
30
0
41
1
10
60.8729896298973
20
4.26915373515715
30
0
41
1
10
61.7053489706491
20
3.851985091183
30
0
41
1
10
62.1208275313062
20
3.63922043754653
30
0
41
1
10
63.366576205504
20
2.990649379122
30
0
41
1
10
64.1996091293692
20
2.55063553088189
30
0
41
1
10
65.4503487546048
20
1.87467058488858
30
0
41
1
10
65.867015249481
20
1.64583467788842
30
0
41
1
10
66.7025657667751
20
1.18600718856226
30
0
41
1
10
67.1216736318885
20
0.955460305857713
30
0
41
1
10
67.7519640279456
20
0.607999690081215
30
0
41
1
10
67.9623246778975
20
0.491889871455129
30
0
41
1
10
68.383542932862
20
0.2590162296448
30
0
41
1
10
68.5946042307971
20
0.142153868022547
30
0
41
1
10
69.2263386570467
20
-0.208432700577959
30
0
41
1
10
69.6454870354573
20
-0.443085890014771
30
0
41
1
10
70.9022833685127
20
-1.13960583239432
30
0
41
1
10
71.7383199272646
20
-1.59607911797895
30
0
41
1
10
72.9867436094528
20
-2.27461427861459
30
0
41
1
10
73.4018959020028
20
-2.49980528322377
30
0
41
1
10
74.2335002127709
20
-2.94240969911039
30
0
41
1
10
74.6495316430129
20
-3.16059351746262
30
0
41
1
10
75.4814755081983
20
-3.59176691291825
30
0
41
1
10
75.8974599864768
20
-3.80463314093325
30
0
41
1
10
76.7287955635259
20
-4.22593315885479
30
0
41
1
10
77.1447282434787
20
-4.43337156794527
30
0
41
1
10
78.3962197470987
20
-5.04130841739195
30
0
41
1
10
79.2338675340412
20
-5.43019701016419
30
0
41
1
10
80.49338050784
20
-5.99129404232193
30
0
41
1
10
80.915487668624
20
-6.17317699440906
30
0
41
1
10
81.7569321374207
20
-6.52343585106959
30
0
41
1
10
82.1767060209867
20
-6.69229313522061
30
0
41
1
10
83.0140152232846
20
-7.01811209834446
30
0
41
1
10
83.4311813978976
20
-7.17551785518003
30
0
41
1
10
84.2644350185351
20
-7.47686625103086
30
0
41
1
10
84.6810476023537
20
-7.6202210686784
30
0
41
1
10
85.5138351370072
20
-7.89310773951672
30
0
41
1
10
85.9299616283126
20
-8.02268998210968
30
0
41
1
10
86.761357643788
20
-8.26842217085368
30
0
41
1
10
87.1761293437201
20
-8.38499091994234
30
0
41
1
10
88.4225213214567
20
-8.71117635703919
30
0
41
1
10
89.2561392322946
20
-8.8978433071251
30
0
41
1
10
90.5077981015002
20
-9.13337634703083
30
0
41
1
10
90.9249136374764
20
-9.20453446106512
30
0
41
1
10
91.7625495351565
20
-9.32991693089576
30
0
41
1
10
92.182745092263
20
-9.38439250642432
30
0
41
1
10
93.0253049155188
20
-9.47708376685532
30
0
41
1
10
93.4472396198454
20
-9.51519222860193
30
0
41
1
10
94.2873994513288
20
-9.57454096672217
30
0
41
1
10
94.706461135069
20
-9.59572663266457
30
0
41
1
10
95.4275496005383
20
-9.61739397714416
30
0
41
1
10
95.7291429213615
20
-9.62211453430297
30
0
41
1
10
96.0306318671066
20
-9.62247090214257
30
0
0
SPLINE
5
CD
100
AcDbEntity
8
1
62
256
6
ByLayer
370
18
48
1
60
0
100
AcDbSpline
70
4
71
3
72
20
73
16
40
0
40
0
40
0
40
0
40
0.0545827388323235
40
0.0545827388323235
40
0.203219944567182
40
0.203219944567182
40
0.500494356036898
40
0.500494356036898
40
0.649131561771756
40
0.649131561771756
40
0.723450164639185
40
0.723450164639185
40
0.797768767506614
40
0.797768767506614
40
1
40
1
40
1
40
1
41
1
10
19.9121086993562
20
-2.95822530744556
30
0
41
1
10
19.9121086993562
20
-3.05638496488376
30
0
41
1
10
19.9121086993562
20
-3.15538307765311
30
0
41
1
10
19.9121086993562
20
-3.52690548518595
30
0
41
1
10
19.9121086993562
20
-3.80498414029742
30
0
41
1
10
19.9121086993562
20
-4.650022969698
30
0
41
1
10
19.9121086993561
20
-5.22959842929194
30
0
41
1
10
19.9121086993561
20
-6.1243129796016
30
0
41
1
10
19.9121086993562
20
-6.42679709200976
30
0
41
1
10
19.9121086993562
20
-6.88724239052928
30
0
41
1
10
19.9121086993561
20
-7.04204728252344
30
0
41
1
10
19.9121086993561
20
-7.35133426427529
30
0
41
1
10
19.9121086993562
20
-7.50610685433836
30
0
41
1
10
19.9121086993562
20
-8.08251865238014
30
0
41
1
10
19.9121086993562
20
-8.50497905539152
30
0
41
1
10
19.9121086993562
20
-8.92843530738421
30
0
0
SPLINE
5
CE
100
AcDbEntity
8
1
62
256
6
ByLayer
370
18
48
1
60
0
100
AcDbSpline
70
4
71
3
72
10
73
6
40
0
40
0
40
0
40
0
40
0.5
40
0.5
40
1
40
1
40
1
40
1
41
1
10
102.99973982292
20
0.062096517136041
30
0
41
1
10
102.994473888443
20
0.039821186316459
30
0
41
1
10
102.987395090891
20
0.0167437122536001
30
0
41
1
10
102.969971854555
20
-0.0270392305280325
30
0
41
1
10
102.959928856235
20
-0.0469201549551883
30
0
41
1
10
102.949560190454
20
-0.0632388556999786
30
0
0
SPLINE
5
CF
100
AcDbEntity
8
1
62
256
6
ByLayer
370
18
48
1
60
0
100
AcDbSpline
70
4
71
3
72
8
73
4
40
0
40
0
40
0
40
0
40
1
40
1
40
1
40
1
41
1
10
2.24189436605212
20
-1.74011065072568
30
0
41
1
10
2.45460250809578
20
-1.82714887960577
30
0
41
1
10
2.67082070512959
20
-1.91017262765783
30
0
41
1
10
2.89033658579575
20
-1.98909566607688
30
0
0
SPLINE
5
D0
100
AcDbEntity
8
1
62
256
6
ByLayer
370
18
48
1
60
0
100
AcDbSpline
70
4
71
3
72
14
73
10
40
0
40
0
40
0
40
0
40
0.128386176446913
40
0.128386176446913
40
0.256772352893826
40
0.256772352893826
40
0.513544705787653
40
0.513544705787653
40
1
40
1
40
1
40
1
41
1
10
99.9208430303565
20
-9.13166266379622
30
0
41
1
10
99.4054733020138
20
-9.14535324280146
30
0
41
1
10
98.89023469999
20
-9.14680154472009
30
0
41
1
10
97.8638193119397
20
-9.12557380379937
30
0
41
1
10
97.3520257828154
20
-9.10292427928448
30
0
41
1
10
95.8196642684512
20
-8.99969530143349
30
0
41
1
10
94.8020136699197
20
-8.8838660906884
30
0
41
1
10
91.8582737003226
20
-8.41831257410342
30
0
41
1
10
89.9334968575582
20
-7.95170472442345
30
0
41
1
10
87.9875905535447
20
-7.33923132562
30
0
0
SPLINE
5
D1
100
AcDbEntity
8
1
62
256
6
ByLayer
370
13
48
1
60
0
100
AcDbSpline
70
4
71
3
72
28
73
24
40
0
40
0
40
0
40
0
40
0.0160334058428223
40
0.0160334058428223
40
0.0920212551886569
40
0.0920212551886569
40
0.168009104534491
40
0.168009104534491
40
0.319984803226161
40
0.319984803226161
40
0.395972652571994
40
0.395972652571994
40
0.471960501917827
40
0.471960501917827
40
0.623936200609496
40
0.623936200609496
40
0.69992404995533
40
0.69992404995533
40
0.775911899301165
40
0.775911899301165
40
0.927887597992836
40
0.927887597992836
40
1
40
1
40
1
40
1
41
1
10
87.9875907976887
20
-7.33923140246424
30
0
41
1
10
87.8792283295975
20
-7.30512435027171
30
0
41
1
10
87.7708003372152
20
-7.27056495634343
30
0
41
1
10
87.1480956872666
20
-7.06963639729361
30
0
41
1
10
86.6320009486588
20
-6.8934566826845
30
0
41
1
10
85.6026226257562
20
-6.52443001178324
30
0
41
1
10
85.0885105929188
20
-6.331317094551
30
0
41
1
10
83.5468325133544
20
-5.72775910345584
30
0
41
1
10
82.5197146458928
20
-5.29320678641648
30
0
41
1
10
80.9745928787264
20
-4.60143058280462
30
0
41
1
10
80.4586736908105
20
-4.36407387784394
30
0
41
1
10
79.4292505793075
20
-3.87947033059757
30
0
41
1
10
78.9151617793918
20
-3.63197426570079
30
0
41
1
10
77.3734758520841
20
-2.87622652723533
30
0
41
1
10
76.3462358267565
20
-2.35509398619277
30
0
41
1
10
74.8010321107392
20
-1.55684834514949
30
0
41
1
10
74.285065797742
20
-1.28784609566907
30
0
41
1
10
73.2571030745493
20
-0.749439294707685
30
0
41
1
10
72.7443736012613
20
-0.479523531082663
30
0
41
1
10
71.2087084295699
20
0.33001055857261
30
0
41
1
10
70.1878832900651
20
0.868579444990758
30
0
41
1
10
68.6825072449922
20
1.6524635323122
30
0
41
1
10
68.1979750104621
20
1.90301534976655
30
0
41
1
10
67.7130118401975
20
2.15122832722898
30
0
0
SPLINE
5
D2
100
AcDbEntity
8
1
62
256
6
ByLayer
370
18
48
1
60
0
100
AcDbSpline
70
4
71
3
72
8
73
4
40
0
40
0
40
0
40
0
40
1
40
1
40
1
40
1
41
1
10
1.15859579379227
20
-1.14055349534297
30
0
41
1
10
1.5193935748346
20
-1.3421847945794
30
0
41
1
10
1.88046931240382
20
-1.54206915935606
30
0
41
1
10
2.2418943660704
20
-1.74011065073316
30
0
0
SPLINE
5
D3
100
AcDbEntity
8
1
62
256
6
ByLayer
370
18
48
1
60
0
100
AcDbSpline
70
4
71
3
72
10
73
6
40
0
40
0
40
0
40
0
40
0.5
40
0.5
40
1
40
1
40
1
40
1
41
1
10
102.988001180146
20
0.422586033301428
30
0
41
1
10
102.966676865478
20
0.799709287388112
30
0
41
1
10
102.917089771989
20
1.17736474028084
30
0
41
1
10
102.769975635012
20
1.95397509337309
30
0
41
1
10
102.672637564987
20
2.35290294403984
30
0
41
1
10
102.556276670878
20
2.77094969507061
30
0
0
SPLINE
5
D4
100
AcDbEntity
8
1
62
256
6
ByLayer
370
18
48
1
60
0
100
AcDbSpline
70
4
71
3
72
22
73
18
40
0
40
0
40
0
40
0
40
0.249999999999998
40
0.249999999999998
40
0.374999999999997
40
0.374999999999997
40
0.437499999999997
40
0.437499999999997
40
0.499999999999996
40
0.499999999999996
40
0.749999999999994
40
0.749999999999994
40
0.812499999999995
40
0.812499999999995
40
0.874999999999996
40
0.874999999999996
40
1
40
1
40
1
40
1
41
1
10
98.0820504085948
20
-6.76546672546536
30
0
41
1
10
98.2328949378503
20
-7.17238430348698
30
0
41
1
10
98.386364987952
20
-7.52870340862918
30
0
41
1
10
98.6195522760901
20
-7.99027465296672
30
0
41
1
10
98.6977951795548
20
-8.13188630880552
30
0
41
1
10
98.8159489599075
20
-8.325473050852
30
0
41
1
10
98.8555736381259
20
-8.38700993772252
30
0
41
1
10
98.93447392935
20
-8.50274520152306
30
0
41
1
10
98.9737404697541
20
-8.55695429831781
30
0
41
1
10
99.1692030237386
20
-8.81002798129967
30
0
41
1
10
99.3227655523581
20
-8.95548199537089
30
0
41
1
10
99.5121817430378
20
-9.0659550691237
30
0
41
1
10
99.5499397079308
20
-9.08445098050024
30
0
41
1
10
99.625236879336
20
-9.11411392184638
30
0
41
1
10
99.6628407998959
20
-9.12529148633521
30
0
41
1
10
99.7748789027139
20
-9.14746329922966
30
0
41
1
10
99.8483684691911
20
-9.14715019380958
30
0
41
1
10
99.9208430303451
20
-9.13166266379608
30
0
0
SPLINE
5
D5
100
AcDbEntity
8
1
62
256
6
ByLayer
370
18
48
1
60
0
100
AcDbSpline
70
4
71
3
72
14
73
10
40
0
40
0
40
0
40
0
40
0.125
40
0.125
40
0.249999999999999
40
0.249999999999999
40
0.499999999999998
40
0.499999999999998
40
1
40
1
40
1
40
1
41
1
10
102.556276670882
20
-2.77094969505566
30
0
41
1
10
102.585593875384
20
-2.66562253866672
30
0
41
1
10
102.613872568049
20
-2.56085728928474
30
0
41
1
10
102.667683843308
20
-2.35408590493674
30
0
41
1
10
102.693243303552
20
-2.25199728557047
30
0
41
1
10
102.765712696564
20
-1.9491546798811
30
0
41
1
10
102.80841352662
20
-1.7518269590602
30
0
41
1
10
102.918235265154
20
-1.16974199954967
30
0
41
1
10
102.966945778708
20
-0.79495352225328
30
0
41
1
10
102.988001180146
20
-0.422586033301542
30
0
0
SPLINE
5
D6
100
AcDbEntity
8
1
62
256
6
ByLayer
370
18
48
1
60
0
100
AcDbSpline
70
4
71
3
72
22
73
18
40
0
40
0
40
0
40
0
40
0.0424188629684828
40
0.0424188629684828
40
0.153173132362021
40
0.153173132362021
40
0.263927401755558
40
0.263927401755558
40
0.485435940542633
40
0.485435940542633
40
0.596190209936171
40
0.596190209936171
40
0.706944479329709
40
0.706944479329709
40
0.928453018116783
40
0.928453018116783
40
1
40
1
40
1
40
1
41
1
10
71.6449707507733
20
-0.0121981195717638
30
0
41
1
10
71.8409655080046
20
-0.116632467793636
30
0
41
1
10
72.0370506874542
20
-0.221129514102728
30
0
41
1
10
72.745514153396
20
-0.598541227272676
30
0
41
1
10
73.2586481039731
20
-0.871377390373169
30
0
41
1
10
74.2875007614054
20
-1.41533259499917
30
0
41
1
10
74.8039374728562
20
-1.68695599522121
30
0
41
1
10
76.3501619321401
20
-2.49230288662295
30
0
41
1
10
77.3780714537741
20
-3.017474950598
30
0
41
1
10
78.9208763387029
20
-3.77813107268858
30
0
41
1
10
79.4353495593892
20
-4.02708458824719
30
0
41
1
10
80.4656122790602
20
-4.51419136407185
30
0
41
1
10
80.9819751851184
20
-4.75258720462946
30
0
41
1
10
82.5281093973935
20
-5.44672962554193
30
0
41
1
10
83.5559112370798
20
-5.88204263156183
30
0
41
1
10
84.9166497090184
20
-6.41430287312221
30
0
41
1
10
85.2489633303123
20
-6.54079045607907
30
0
41
1
10
85.5814759299427
20
-6.66367852154153
30
0
0
SPLINE
5
D7
100
AcDbEntity
8
1
62
256
6
ByLayer
370
13
48
1
60
0
100
AcDbSpline
70
4
71
3
72
14
73
10
40
0
40
0
40
0
40
0
40
0.0378450288729896
40
0.0378450288729896
40
0.144751136775991
40
0.144751136775991
40
0.572375568387996
40
0.572375568387996
40
1
40
1
40
1
40
1
41
1
10
85.5814759281373
20
-6.66367852087433
30
0
41
1
10
85.7636907021835
20
-6.73102039335834
30
0
41
1
10
85.9459652288226
20
-6.7972813416184
30
0
41
1
10
86.6434261078356
20
-7.04649609368053
30
0
41
1
10
87.1599782627435
20
-7.22200107971992
30
0
41
1
10
89.7316808131541
20
-8.04666984280752
30
0
41
1
10
91.7617784153717
20
-8.54090295452846
30
0
41
1
10
95.8225357230679
20
-9.16383830535713
30
0
41
1
10
97.8535521159012
20
-9.29317798707203
30
0
41
1
10
99.9120074052253
20
-9.22493572316392
30
0
0
SPLINE
5
D8
100
AcDbEntity
8
1
62
256
6
ByLayer
370
18
48
1
60
0
100
AcDbSpline
70
4
71
3
72
36
73
32
40
0
40
0
40
0
40
0
40
0.115406938511163
40
0.115406938511163
40
0.173110407766744
40
0.173110407766744
40
0.230813877022326
40
0.230813877022326
40
0.288517346277907
40
0.288517346277907
40
0.346220815533488
40
0.346220815533488
40
0.461627754044651
40
0.461627754044651
40
0.519331223300234
40
0.519331223300234
40
0.577034692555816
40
0.577034692555816
40
0.634738161811398
40
0.634738161811398
40
0.69244163106698
40
0.69244163106698
40
0.807848569578146
40
0.807848569578146
40
0.865552038833728
40
0.865552038833728
40
0.92325550808931
40
0.92325550808931
40
0.980958977344892
40
0.980958977344892
40
1
40
1
40
1
40
1
41
1
10
19.9121086993562
20
-2.96872607178256
30
0
41
1
10
20.7542961831794
20
-3.41597784934984
30
0
41
1
10
21.5948207430347
20
-3.8438987142668
30
0
41
1
10
22.8498781159808
20
-4.46435266210517
30
0
41
1
10
23.266919298194
20
-4.66812326326627
30
0
41
1
10
24.0998072133447
20
-5.06712220592016
30
0
41
1
10
24.5163907788569
20
-5.26119580230011
30
0
41
1
10
25.3494743959821
20
-5.63929518771349
30
0
41
1
10
25.765912386627
20
-5.8234142610728
30
0
41
1
10
26.5982593059076
20
-6.18222741400521
30
0
41
1
10
27.0136829722408
20
-6.3575754384772
30
0
41
1
10
28.2620105432553
20
-6.86524540059602
30
0
41
1
10
29.0975709250293
20
-7.17872145162195
30
0
41
1
10
30.3531897033931
20
-7.61465363387998
30
0
41
1
10
30.7717237867819
20
-7.75460868517052
30
0
41
1
10
31.6123670644405
20
-8.01954393817041
30
0
41
1
10
32.0350515801418
20
-8.1450739490939
30
0
41
1
10
32.877815065589
20
-8.3809665438269
30
0
41
1
10
33.2980401490255
20
-8.49134232779303
30
0
41
1
10
34.1356334782365
20
-8.69746097413406
30
0
41
1
10
34.5530237624126
20
-8.79310018258965
30
0
41
1
10
35.8057193947987
20
-9.0545434675962
30
0
41
1
10
36.6398325378133
20
-9.19667249743131
30
0
41
1
10
37.8864674627729
20
-9.36325165137313
30
0
41
1
10
38.3019112110149
20
-9.4106093146884
30
0
41
1
10
39.1342374799677
20
-9.48861264416507
30
0
41
1
10
39.5507910624304
20
-9.51940595702573
30
0
41
1
10
40.384216212739
20
-9.56465128578444
30
0
41
1
10
40.8010200927748
20
-9.57910519624761
30
0
41
1
10
41.3555173430338
20
-9.58716922444401
30
0
41
1
10
41.4932191130025
20
-9.58825110352876
30
0
41
1
10
41.6310468197204
20
-9.58841672750449
30
0
0
SPLINE
5
D9
100
AcDbEntity
8
1
62
256
6
ByLayer
370
18
48
1
60
0
100
AcDbSpline
70
4
71
3
72
30
73
26
40
0
40
0
40
0
40
0
40
0.049566724709607
40
0.049566724709607
40
0.122676976655021
40
0.122676976655021
40
0.195787228600436
40
0.195787228600436
40
0.26889748054585
40
0.26889748054585
40
0.415117984436682
40
0.415117984436682
40
0.488228236382095
40
0.488228236382095
40
0.561338488327509
40
0.561338488327509
40
0.634448740272923
40
0.634448740272923
40
0.707558992218336
40
0.707558992218336
40
0.853779496109168
40
0.853779496109168
40
0.926889748054584
40
0.926889748054584
40
1
40
1
40
1
40
1
41
1
10
82.9993844095179
20
7.01083347749957
30
0
41
1
10
83.2826374285705
20
7.11879205504064
30
0
41
1
10
83.5653467768273
20
7.22403912255629
30
0
41
1
10
84.2644350185351
20
7.47686625103086
30
0
41
1
10
84.6810476023538
20
7.62022106867843
30
0
41
1
10
85.5138351370072
20
7.89310773951672
30
0
41
1
10
85.9299616283125
20
8.02268998210968
30
0
41
1
10
86.761357643788
20
8.26842217085371
30
0
41
1
10
87.1761293437201
20
8.38499091994237
30
0
41
1
10
88.4225213214567
20
8.71117635703919
30
0
41
1
10
89.2561392322946
20
8.89784330712504
30
0
41
1
10
90.5077981015001
20
9.13337634703086
30
0
41
1
10
90.9249136374764
20
9.20453446106512
30
0
41
1
10
91.7625495351566
20
9.32991693089576
30
0
41
1
10
92.1827450922629
20
9.38439250642432
30
0
41
1
10
93.0253049155187
20
9.47708376685532
30
0
41
1
10
93.4472396198453
20
9.51519222860193
30
0
41
1
10
94.2873994513288
20
9.57454096672214
30
0
41
1
10
94.7064611350692
20
9.59572663266457
30
0
41
1
10
95.9648991321034
20
9.63354031419425
30
0
41
1
10
96.8037354515085
20
9.62515211371286
30
0
41
1
10
98.0589473037133
20
9.56146480594421
30
0
41
1
10
98.4777601180764
20
9.53177517410916
30
0
41
1
10
99.317162819386
20
9.45592391580576
30
0
41
1
10
99.737498621728
20
9.40971703513708
30
0
41
1
10
100.158258164492
20
9.3550815102563
30
0
0
SPLINE
5
DA
100
AcDbEntity
8
1
62
256
6
ByLayer
370
18
48
1
60
0
100
AcDbSpline
70
4
71
3
72
10
73
6
40
0
40
0
40
0
40
0
40
0.774294255069292
40
0.774294255069292
40
1
40
1
40
1
40
1
41
1
10
19.9121086993562
20
8.92843530737588
30
0
41
1
10
19.0509944911531
20
9.01015712731595
30
0
41
1
10
18.2018311549892
20
9.06476585752657
30
0
41
1
10
17.1131069405552
20
9.09113296914205
30
0
41
1
10
16.8678907606962
20
9.09402557162613
30
0
41
1
10
16.6230619949479
20
9.09379243012333
30
0
0
SPLINE
5
DB
100
AcDbEntity
8
1
62
256
6
ByLayer
370
18
48
1
60
0
100
AcDbSpline
70
4
71
3
72
12
73
8
40
0
40
0
40
0
40
0
40
0.250000000000009
40
0.250000000000009
40
0.500000000000019
40
0.500000000000019
40
1
40
1
40
1
40
1
41
1
10
1.2876690430532
20
7.60958823074813
30
0
41
1
10
1.26805462925421
20
7.61614404414928
30
0
41
1
10
1.2503132164411
20
7.62410817503721
30
0
41
1
10
1.21847070943039
20
7.64272728587486
30
0
41
1
10
1.20454666444783
20
7.65336423485013
30
0
41
1
10
1.17084220424772
20
7.68749073701744
30
0
41
1
10
1.15859579379227
20
7.71373371451276
30
0
41
1
10
1.15859579379224
20
7.74005743435467
30
0
0
SPLINE
5
DC
100
AcDbEntity
8
1
62
256
6
ByLayer
370
18
48
1
60
0
100
AcDbSpline
70
4
71
3
72
8
73
4
40
0
40
0
40
0
40
0
40
1
40
1
40
1
40
1
41
1
10
102.999739822919
20
-0.0620965171360126
30
0
41
1
10
103.000086507599
20
-0.0207210069836776
30
0
41
1
10
103.000086923621
20
0.0206713563545975
30
0
41
1
10
102.999739822919
20
0.0620965171358137
30
0
0
SPLINE
5
DD
100
AcDbEntity
8
1
62
256
6
ByLayer
370
18
48
1
60
0
100
AcDbSpline
70
4
71
3
72
14
73
10
40
0
40
0
40
0
40
0
40
0.25
40
0.25
40
0.5
40
0.5
40
0.75
40
0.75
40
1
40
1
40
1
40
1
41
1
10
99.5056039600328
20
2.11686793097593
30
0
41
1
10
99.504130160858
20
2.14222888785122
30
0
41
1
10
99.5094394041752
20
2.16793274918075
30
0
41
1
10
99.5347477136644
20
2.21256717794739
30
0
41
1
10
99.554717374877
20
2.23124040426831
30
0
41
1
10
99.5997050766711
20
2.25774451052104
30
0
41
1
10
99.6250802453915
20
2.26631252524959
30
0
41
1
10
99.6761336324056
20
2.27636944751529
30
0
41
1
10
99.7023462016524
20
2.27803345894458
30
0
41
1
10
99.7284936883197
20
2.27719904862624
30
0
0
SPLINE
5
DE
100
AcDbEntity
8
1
62
256
6
ByLayer
370
18
48
1
60
0
100
AcDbSpline
70
4
71
3
72
8
73
4
40
0
40
0
40
0
40
0
40
1
40
1
40
1
40
1
41
1
10
102.988001180146
20
0.422586033301514
30
0
41
1
10
102.987868683069
20
0.35379774848127
30
0
41
1
10
102.986547885601
20
0.285070948274495
30
0
41
1
10
102.983962040505
20
0.21640960370928
30
0
0
LINE
5
76
100
AcDbEntity
8
81
62
256
6
ByLayer
370
18
48
1
60
0
100
AcDbLine
10
103
20
0
30
0
11
108
21
0
31
0
39
0
210
0
220
0
230
1
0
LINE
5
77
100
AcDbEntity
8
1
62
256
6
ByLayer
370
18
48
1
60
0
100
AcDbLine
10
1.158596
20
9.563125
30
0
11
0.250156
21
9.562557
31
0
39
0
210
0
220
0
230
1
0
LINE
5
79
100
AcDbEntity
8
1
62
256
6
ByLayer
370
18
48
1
60
0
100
AcDbLine
10
44.421302
20
9.590164
30
0
11
41.65063
21
9.588433
31
0
39
0
210
0
220
0
230
1
0
LINE
5
7A
100
AcDbEntity
8
1
62
256
6
ByLayer
370
18
48
1
60
0
100
AcDbLine
10
98.822415
20
9.624165
30
0
11
96.047031
21
9.62243
31
0
39
0
210
0
220
0
230
1
0
LINE
5
7B
100
AcDbEntity
8
1
62
256
6
ByLayer
370
18
48
1
60
0
100
AcDbLine
10
96.047031
20
-9.62243
30
0
11
98.822374
21
-9.624165
31
0
39
0
210
0
220
0
230
1
0
LINE
5
7C
100
AcDbEntity
8
1
62
256
6
ByLayer
370
18
48
1
60
0
100
AcDbLine
10
41.65063
20
-9.588433
30
0
11
44.421205
21
-9.590164
31
0
39
0
210
0
220
0
230
1
0
LINE
5
7D
100
AcDbEntity
8
1
62
256
6
ByLayer
370
18
48
1
60
0
100
AcDbLine
10
0.250156
20
-9.562557
30
0
11
1.158596
21
-9.563125
31
0
39
0
210
0
220
0
230
1
0
LINE
5
7E
100
AcDbEntity
8
SK1
62
256
6
ByLayer
370
18
48
1
60
0
100
AcDbLine
10
0
20
10
30
0
11
-46.824574
21
10
31
0
39
0
210
0
220
0
230
1
0
LINE
5
80
100
AcDbEntity
8
SK1
62
256
6
ByLayer
370
18
48
1
60
0
100
AcDbLine
10
-46.824574
20
-10
30
0
11
0
21
-10
31
0
39
0
210
0
220
0
230
1
0
LINE
5
81
100
AcDbEntity
8
SK1
62
256
6
ByLayer
370
18
48
1
60
0
100
AcDbLine
10
-46.824574
20
10
30
0
11
-47.5
21
8.830127
31
0
39
0
210
0
220
0
230
1
0
LINE
5
82
100
AcDbEntity
8
SK1
62
256
6
ByLayer
370
18
48
1
60
0
100
AcDbLine
10
-47.5
20
-8.830127
30
0
11
-46.824574
21
-10
31
0
39
0
210
0
220
0
230
1
0
LINE
5
83
100
AcDbEntity
8
SK4
62
256
6
ByLayer
370
18
48
0.05
60
0
100
AcDbLine
10
108
20
0
30
0
11
-55
21
0
31
0
39
0
210
0
220
0
230
1
0
LINE
5
85
100
AcDbEntity
8
4
62
256
6
ByLayer
370
18
48
0.05
60
0
100
AcDbLine
10
103
20
0
30
0
11
0
21
0
31
0
39
0
210
0
220
0
230
1
0
LINE
5
87
100
AcDbEntity
8
80
62
256
6
ByLayer
370
18
48
1
60
0
100
AcDbLine
10
0
20
0
30
0
11
-5
21
0
31
0
39
0
210
0
220
0
230
1
0
LINE
5
88
100
AcDbEntity
8
SK1
62
256
6
ByLayer
370
18
48
1
60
0
100
AcDbLine
10
-50
20
3.902707
30
0
11
-50
21
-4.327546
31
0
39
0
210
0
220
0
230
1
0
LINE
5
89
100
AcDbEntity
8
SK1
62
256
6
ByLayer
370
13
48
1
60
0
100
AcDbLine
10
-47.6
20
8.627925
30
0
11
-47.6
21
8.202942
31
0
39
0
210
0
220
0
230
1
0
LINE
5
8A
100
AcDbEntity
8
SK1
62
256
6
ByLayer
370
18
48
1
60
0
100
AcDbLine
10
-47.5
20
-8.810737
30
0
11
-47.5
21
-8.830127
31
0
39
0
210
0
220
0
230
1
0
LINE
5
8B
100
AcDbEntity
8
SK1
62
256
6
ByLayer
370
18
48
1
60
0
100
AcDbLine
10
0
20
10
30
0
11
0
21
-10
31
0
39
0
210
0
220
0
230
1
0
LINE
5
8C
100
AcDbEntity
8
SK1
62
256
6
ByLayer
370
18
48
1
60
0
100
AcDbLine
10
-46.824574
20
10
30
0
11
-46.824574
21
-10
31
0
39
0
210
0
220
0
230
1
0
LINE
5
8D
100
AcDbEntity
8
SK1
62
256
6
ByLayer
370
18
48
1
60
0
100
AcDbLine
10
-50
20
4.327546
30
0
11
-50
21
3.902659
31
0
39
0
210
0
220
0
230
1
0
LINE
5
8E
100
AcDbEntity
8
SK1
62
256
6
ByLayer
370
18
48
1
60
0
100
AcDbLine
10
-47.5
20
8.830127
30
0
11
-47.5
21
8.410175
31
0
39
0
210
0
220
0
230
1
0
LINE
5
8F
100
AcDbEntity
8
1
62
256
6
ByLayer
370
13
48
1
60
0
100
AcDbLine
10
99.505604
20
2.116868
30
0
11
102.94956
21
-0.063239
31
0
39
0
210
0
220
0
230
1
0
LINE
5
90
100
AcDbEntity
8
1
62
256
6
ByLayer
370
18
48
1
60
0
100
AcDbLine
10
1.158596
20
9.563125
30
0
11
1.158596
21
7.740057
31
0
39
0
210
0
220
0
230
1
0
LINE
5
91
100
AcDbEntity
8
1
62
256
6
ByLayer
370
13
48
1
60
0
100
AcDbLine
10
99.728494
20
2.277199
30
0
11
102.983962
21
0.21641
31
0
39
0
210
0
220
0
230
1
0
LINE
5
92
100
AcDbEntity
8
1
62
256
6
ByLayer
370
13
48
1
60
0
100
AcDbLine
10
0.250156
20
9.562557
30
0
11
0.250156
21
-9.562557
31
0
39
0
210
0
220
0
230
1
0
LINE
5
93
100
AcDbEntity
8
1
62
256
6
ByLayer
370
18
48
1
60
0
100
AcDbLine
10
1.158596
20
-9.563125
30
0
11
1.158596
21
-1.140553
31
0
39
0
210
0
220
0
230
1
0
MTEXT
5
DF
100
AcDbEntity
8
SK6
62
256
6
ByLayer
370
13
48
1
60
0
100
AcDbMText
10
28.629169
20
42.007694
30
0
210
0
220
0
230
1
1
\W0.7431;460.1-1925-087A1-XM GC34
40
3.5
41
0
44
1.084337
50
0
71
8
72
5
7
iso_b_vert
0
DIMENSION
5
EC
100
AcDbEntity
8
SK2
62
256
6
ByLayer
370
13
48
1
60
0
100
AcDbDimension
2
DimnDraft3D1
10
100.122
20
-19.838398
30
0
11
47.872059
21
-19.838398
31
0
70
32
71
5
72
1
41
1
210
0
220
0
230
1
3
Standard
100
AcDbAlignedDimension
13
0
23
-1.5875
33
0
14
100.122
24
-11.2125
34
0
50
0
100
AcDbRotatedDimension
1001
ACAD
1000
DSTYLE
1002
{
1070
   279
1070
     0
1070
   172
1070
     1
1070
   173
1070
     1
1070
   340
1005
E0
1070
   271
1070
     2
1070
   272
1070
     2
1070
    77
1070
     1
1070
    73
1070
     0
1070
   171
1070
     3
1070
   274
1070
     4
1070
   177
1070
    35
1070
   176
1070
    35
1070
   178
1070
    35
1070
    48
1040
-0.005
1070
    41
1041
3.5
1070
   147
1041
1.75
1070
    42
1041
1.5875
1070
    44
1041
2.0
1070
   140
1041
3.5
1070
   343
1005
0
1070
   344
1005
0
1002
}
0
DIMENSION
5
F6
100
AcDbEntity
8
SK2
62
256
6
ByLayer
370
13
48
1
60
0
100
AcDbDimension
2
DimnDraft3D2
10
103
20
-38.692985
30
0
11
24.9633
21
-38.692985
31
0
70
32
71
5
72
1
41
1
210
0
220
0
230
1
3
Standard
100
AcDbAlignedDimension
13
-50
23
-11.5875
33
0
14
103
24
-1.5875
34
0
50
0
100
AcDbRotatedDimension
1001
ACAD
1000
DSTYLE
1002
{
1070
   279
1070
     0
1070
   172
1070
     1
1070
   173
1070
     1
1070
   340
1005
E0
1070
   271
1070
     2
1070
   272
1070
     2
1070
    77
1070
     1
1070
    73
1070
     0
1070
   171
1070
     3
1070
   274
1070
     4
1070
   177
1070
    35
1070
   176
1070
    35
1070
   178
1070
    35
1070
    48
1040
-0.005
1070
    41
1041
3.5
1070
   147
1041
1.75
1070
    42
1041
1.5875
1070
    44
1041
2.0
1070
   140
1041
3.5
1070
   343
1005
0
1070
   344
1005
0
1002
}
0
DIMENSION
5
100
100
AcDbEntity
8
SK2
62
256
6
ByLayer
370
13
48
1
60
0
100
AcDbDimension
2
DimnDraft3D3
10
103
20
21.234119
30
0
11
53.44
21
21.234119
31
0
70
32
71
5
72
1
41
1
210
0
220
0
230
1
3
Standard
100
AcDbAlignedDimension
13
3.88
23
11.2125
33
0
14
103
24
1.5875
34
0
50
0
100
AcDbRotatedDimension
1001
ACAD
1000
DSTYLE
1002
{
1070
   279
1070
     0
1070
   172
1070
     1
1070
   173
1070
     1
1070
   340
1005
E0
1070
   271
1070
     2
1070
   272
1070
     2
1070
    77
1070
     1
1070
    73
1070
     0
1070
   171
1070
     3
1070
   274
1070
     4
1070
   177
1070
    35
1070
   176
1070
    35
1070
   178
1070
    35
1070
    48
1040
-0.005
1070
    41
1041
3.5
1070
   147
1041
1.75
1070
    42
1041
1.5875
1070
    44
1041
2.0
1070
   140
1041
3.5
1070
   343
1005
0
1070
   344
1005
0
1002
}
0
DIMENSION
5
10A
100
AcDbEntity
8
SK2
62
256
6
ByLayer
370
13
48
1
60
0
100
AcDbDimension
2
DimnDraft3D4
10
100.122
20
-22.427503
30
0
11
112.981425
21
-22.427503
31
0
70
32
71
5
72
1
41
1
210
0
220
0
230
1
3
Standard
100
AcDbAlignedDimension
13
103
23
-1.5875
33
0
14
100.122
24
-11.2125
34
0
50
0
100
AcDbRotatedDimension
1001
ACAD
1000
DSTYLE
1002
{
1070
   279
1070
     0
1070
   172
1070
     1
1070
   173
1070
     1
1070
   340
1005
E0
1070
   271
1070
     2
1070
   272
1070
     2
1070
    77
1070
     1
1070
    73
1070
     0
1070
   171
1070
     3
1070
   274
1070
     4
1070
   177
1070
    35
1070
   176
1070
    35
1070
   178
1070
    35
1070
    48
1040
-0.005
1070
    41
1041
3.5
1070
   147
1041
1.75
1070
    42
1041
1.5875
1070
    44
1041
2.0
1070
   140
1041
3.5
1070
   343
1005
0
1070
   344
1005
0
1002
}
0
DIMENSION
5
114
100
AcDbEntity
8
SK2
62
256
6
ByLayer
370
13
48
1
60
0
100
AcDbDimension
2
DimnDraft3D5
10
100.122
20
-28.343428
30
0
11
21.882676
21
-28.343428
31
0
70
32
71
5
72
1
41
1
210
0
220
0
230
1
3
Standard
100
AcDbAlignedDimension
13
-50
23
-11.5875
33
0
14
100.122
24
-11.2125
34
0
50
0
100
AcDbRotatedDimension
1001
ACAD
1000
DSTYLE
1002
{
1070
   279
1070
     0
1070
   172
1070
     1
1070
   173
1070
     1
1070
   340
1005
E0
1070
   271
1070
     2
1070
   272
1070
     2
1070
    77
1070
     1
1070
    73
1070
     0
1070
   171
1070
     3
1070
   274
1070
     4
1070
   177
1070
    35
1070
   176
1070
    35
1070
   178
1070
    35
1070
    48
1040
-0.005
1070
    41
1041
3.5
1070
   147
1041
1.75
1070
    42
1041
1.5875
1070
    44
1041
2.0
1070
   140
1041
3.5
1070
   343
1005
0
1070
   344
1005
0
1002
}
0
DIMENSION
5
11F
100
AcDbEntity
8
SK2
62
256
6
ByLayer
370
13
48
1
60
0
100
AcDbDimension
2
DimnDraft3D6
10
-60.625163
20
10
30
0
11
-61.250163
21
28.47418
31
0
70
33
71
5
72
1
41
1
210
0
220
0
230
1
3
Standard
100
AcDbAlignedDimension
13
-51.5875
23
-10
33
0
14
-51.5875
24
10
34
0
1001
ACAD
1000
DSTYLE
1002
{
1070
   279
1070
     0
1070
    74
1070
     0
1070
   173
1070
     1
1070
   340
1005
E0
1070
   271
1070
     3
1070
   272
1070
     2
1070
    77
1070
     1
1070
    73
1070
     0
1070
   171
1070
     3
1070
   274
1070
     4
1070
   177
1070
    35
1070
   176
1070
    35
1070
   178
1070
    35
1070
    48
1040
-0.005
1070
    41
1041
3.5
1070
   147
1041
1.75
1070
    42
1041
1.5875
1070
    44
1041
2.0
1070
   140
1041
3.5
1070
   343
1005
0
1070
   344
1005
0
1002
}
0
DIMENSION
5
12A
100
AcDbEntity
8
2
62
256
6
ByLayer
370
13
48
1
60
0
100
AcDbDimension
2
DimnDraft3D7
10
117.083343
20
9.625
30
0
11
112.458343
21
26.692266
31
0
70
33
71
5
72
1
41
1
210
0
220
0
230
1
3
Standard
100
AcDbAlignedDimension
13
101.7095
23
-9.625
33
0
14
101.7095
24
9.625
34
0
1001
ACAD
1000
DSTYLE
1002
{
1070
   279
1070
     0
1070
    74
1070
     0
1070
   173
1070
     1
1070
   340
1005
E0
1070
   271
1070
     3
1070
   272
1070
     2
1070
    77
1070
     1
1070
    73
1070
     0
1070
   171
1070
     3
1070
   274
1070
     4
1070
   177
1070
    35
1070
   176
1070
    35
1070
   178
1070
    35
1070
    48
1040
-0.005
1070
    41
1041
3.5
1070
   147
1041
1.75
1070
    42
1041
1.5875
1070
    44
1041
2.0
1070
   140
1041
3.5
1070
   343
1005
0
1070
   344
1005
0
1002
}
0
ENDSEC
0
SECTION
2
OBJECTS
0
DICTIONARY
5
195
330
0
100
AcDbDictionary
280
0
281
1
3
ACAD_GROUP
350
196
3
ACAD_MLINESTYLE
350
197
0
DICTIONARY
5
196
330
0
100
AcDbDictionary
280
0
281
1
0
DICTIONARY
5
197
330
0
100
AcDbDictionary
280
0
281
1
3
Standard
350
18
0
MLINESTYLE
5
18
330
197
100
AcDbMlineStyle
2
Standard
70
0
3

62
256
51
90
52
90
71
2
49
-0.5
62
256
6
ByLayer
49
0.5
62
256
6
ByLayer
0
RASTERVARIABLES
5
183
330

100
AcDbRasterVariables
90
0
70
1
71
1
72
1
0
ENDSEC
0
EOF
