0
SECTION
2
HEADER
9
$ACADVER
1
AC1015
9
$DWGCODEPAGE
3
ANSI_1252
9
$HANDSEED
5
1a3
9
$ANGBASE
50
0
9
$ANGDIR
70
0
9
$ATTMODE
70
1
9
$AUNITS
70
0
9
$AUPREC
70
0
9
$CECOLOR
62
256
9
$CELTSCALE
40
1
9
$CELTYPE
6
ByLayer
9
$CELWEIGHT
370
18
9
$CLAYER
8
0
9
$CMLJUST
70
0
9
$CMLSCALE
40
1
9
$CMLSTYLE
2
Standard
9
$DIMSTYLE
2
Standard
9
$TEXTSIZE
40
0.2
9
$TEXTSTYLE
7
Standard
9
$LUNITS
70
2
9
$LUPREC
70
4
9
$EXTNAMES
290
1
9
$INSUNITS
70
4
9
$LTSCALE
40
1
9
$LWDISPLAY
290
1
9
$PDMODE
70
0
9
$PDSIZE
40
0
9
$PLINEGEN
70
0
0
ENDSEC
0
SECTION
2
CLASSES
0
CLASS
1
RASTERVARIABLES
2
AcDbRasterVariables
3
ISM
90
0
280
0
281
0
0
ENDSEC
0
SECTION
2
TABLES
0
TABLE
2
VPORT
5
199
100
AcDbSymbolTable
0
VPORT
5
1
100
AcDbSymbolTableRecord
100
AcDbViewportTableRecord
2
*Active
70
0
10
0
20
0
11
1
21
1
12
-1
22
1
13
0
23
0
14
0.5
24
0.5
15
10
25
10
16
0
26
0
36
1
17
0
27
0
37
0
0
ENDTAB
0
TABLE
2
LTYPE
5
19a
100
AcDbSymbolTable
0
LTYPE
5
14
100
AcDbSymbolTableRecord
100
AcDbLinetypeTableRecord
70
0
2
ByBlock
3

72
65
73
0
40
0
0
LTYPE
5
15
100
AcDbSymbolTableRecord
100
AcDbLinetypeTableRecord
70
0
2
ByLayer
3

72
65
73
0
40
0
0
LTYPE
5
16
100
AcDbSymbolTableRecord
100
AcDbLinetypeTableRecord
70
0
2
CONTINUOUS
3
Solid line
72
65
73
0
40
0
0
LTYPE
5
6A
100
AcDbSymbolTableRecord
100
AcDbLinetypeTableRecord
70
0
2
CENTER
3
____ _ ____ _ ____ _ ____
72
65
73
4
40
47.5
49
22
74
0
49
-8.5
74
0
49
8.5
74
0
49
-8.5
74
0
0
LTYPE
5
6B
100
AcDbSymbolTableRecord
100
AcDbLinetypeTableRecord
70
0
2
DASHED
3
__ __ __ __ __ __ __ __ __
72
65
73
2
40
25.72
49
12.86
74
0
49
-12.86
74
0
0
ENDTAB
0
TABLE
2
LAYER
5
19b
100
AcDbSymbolTable
0
LAYER
5
10
100
AcDbSymbolTableRecord
100
AcDbLayerTableRecord
2
0
70
0
62
7
6
CONTINUOUS
290
1
370
-3
390
0
0
LAYER
5
6D
100
AcDbSymbolTableRecord
100
AcDbLayerTableRecord
2
81
70
0
62
-3
6
CONTINUOUS
290
1
370
-3
390
0
0
LAYER
5
6F
100
AcDbSymbolTableRecord
100
AcDbLayerTableRecord
2
80
70
0
62
-6
6
CONTINUOUS
290
1
370
-3
390
0
0
LAYER
5
74
100
AcDbSymbolTableRecord
100
AcDbLayerTableRecord
2
2
70
0
62
7
6
CONTINUOUS
290
1
370
-3
390
0
0
LAYER
5
78
100
AcDbSymbolTableRecord
100
AcDbLayerTableRecord
2
1
70
0
62
4
6
CONTINUOUS
290
1
370
-3
390
0
0
LAYER
5
86
100
AcDbSymbolTableRecord
100
AcDbLayerTableRecord
2
4
70
0
62
-2
6
CENTER
290
1
370
-3
390
0
0
LAYER
5
185
100
AcDbSymbolTableRecord
100
AcDbLayerTableRecord
2
SK2
70
0
62
7
6
CONTINUOUS
290
1
370
-3
390
0
0
LAYER
5
186
100
AcDbSymbolTableRecord
100
AcDbLayerTableRecord
2
SK1
70
0
62
4
6
CONTINUOUS
290
1
370
-3
390
0
0
LAYER
5
187
100
AcDbSymbolTableRecord
100
AcDbLayerTableRecord
2
SK4
70
0
62
2
6
CENTER
290
1
370
-3
390
0
0
LAYER
5
188
100
AcDbSymbolTableRecord
100
AcDbLayerTableRecord
2
SK6
70
0
62
5
6
CONTINUOUS
290
1
370
-3
390
0
0
ENDTAB
0
TABLE
2
STYLE
5
19c
100
AcDbSymbolTable
0
STYLE
5
11
100
AcDbSymbolTableRecord
100
AcDbTextStyleTableRecord
2
Standard
3
txt
70
0
71
0
40
0
41
1
42
0
50
0
0
STYLE
5
E1
100
AcDbSymbolTableRecord
100
AcDbTextStyleTableRecord
2
iso_b_vert
3
simplex.shx
70
0
71
0
40
0
41
1
42
0
50
0
0
STYLE
5
E2
100
AcDbSymbolTableRecord
100
AcDbTextStyleTableRecord
2
DWGDirectTextStyle
3
simplex
70
0
71
0
40
0
41
1
42
0
50
0
0
ENDTAB
0
TABLE
2
DIMSTYLE
5
19d
100
AcDbSymbolTable
100
AcDbDimStyleTable
0
DIMSTYLE
105
27
100
AcDbSymbolTableRecord
100
AcDbDimStyleTableRecord
2
Standard
70
0
3
<>
41
0.18
42
0.0625
44
0.18
140
0.18
147
0.09
73
0
74
0
77
1
271
2
275
0
278
52
280
0
340
11
0
ENDTAB
0
TABLE
2
VIEW
5
19e
100
AcDbSymbolTable
0
ENDTAB
0
TABLE
2
UCS
5
19f
100
AcDbSymbolTable
0
ENDTAB
0
TABLE
2
APPID
5
1a0
100
AcDbSymbolTable
0
APPID
5
12
100
AcDbSymbolTableRecord
100
AcDbRegAppTableRecord
2
ACAD
70
0
0
ENDTAB
0
TABLE
2
BLOCK_RECORD
5
1a1
100
AcDbSymbolTable
0
BLOCK_RECORD
5
1F
100
AcDbSymbolTableRecord
100
AcDbBlockTableRecord
2
*Model_Space
340
0
70
0
0
BLOCK_RECORD
5
1B
100
AcDbSymbolTableRecord
100
AcDbBlockTableRecord
2
*Paper_Space
340
0
70
0
0
BLOCK_RECORD
5
23
100
AcDbSymbolTableRecord
100
AcDbBlockTableRecord
2
*Paper_Space0
340
0
70
0
0
BLOCK_RECORD
5
E4
100
AcDbSymbolTableRecord
100
AcDbBlockTableRecord
2
DimnDraft3D1
340
0
70
0
0
BLOCK_RECORD
5
EE
100
AcDbSymbolTableRecord
100
AcDbBlockTableRecord
2
DimnDraft3D2
340
0
70
0
0
BLOCK_RECORD
5
F8
100
AcDbSymbolTableRecord
100
AcDbBlockTableRecord
2
DimnDraft3D3
340
0
70
0
0
BLOCK_RECORD
5
102
100
AcDbSymbolTableRecord
100
AcDbBlockTableRecord
2
DimnDraft3D4
340
0
70
0
0
BLOCK_RECORD
5
10C
100
AcDbSymbolTableRecord
100
AcDbBlockTableRecord
2
DimnDraft3D5
340
0
70
0
0
BLOCK_RECORD
5
116
100
AcDbSymbolTableRecord
100
AcDbBlockTableRecord
2
DimnDraft3D6
340
0
70
0
0
BLOCK_RECORD
5
121
100
AcDbSymbolTableRecord
100
AcDbBlockTableRecord
2
DimnDraft3D7
340
0
70
0
0
ENDTAB
0
ENDSEC
0
SECTION
2
BLOCKS
0
BLOCK
5
20
100
AcDbEntity
8
0
100
AcDbBlockBegin
2
*Model_Space
70
0
10
0
20
0
30
0
3
*Model_Space
0
ENDBLK
5
21
100
AcDbEntity
8
0
100
AcDbBlockEnd
0
BLOCK
5
1C
100
AcDbEntity
8
0
100
AcDbBlockBegin
2
*Paper_Space
70
0
10
0
20
0
30
0
3
*Paper_Space
0
ENDBLK
5
1D
100
AcDbEntity
8
0
100
AcDbBlockEnd
0
BLOCK
5
24
100
AcDbEntity
8
0
100
AcDbBlockBegin
2
*Paper_Space0
70
0
10
0
20
0
30
0
3
*Paper_Space0
0
ENDBLK
5
25
100
AcDbEntity
8
0
100
AcDbBlockEnd
0
BLOCK
5
EB
100
AcDbEntity
8
0
100
AcDbBlockBegin
2
DimnDraft3D1
70
0
10
0
20
0
30
0
3
DimnDraft3D1
0
MTEXT
5
E5
100
AcDbEntity
8
SK2
62
256
6
ByLayer
370
13
48
1
60
0
100
AcDbMText
10
32.928675
20
-18.738398
30
0
210
0
220
0
230
1
1
\W0.6791;78,19
40
3.5
41
0
44
1.084337
50
0
71
7
72
5
7
iso_b_vert
0
LINE
5
E6
100
AcDbEntity
8
SK2
62
256
6
ByLayer
370
13
48
1
60
0
100
AcDbLine
10
0
20
-1.5875
30
0
11
0
21
-21.613398
31
0
39
0
210
0
220
0
230
1
0
LINE
5
E7
100
AcDbEntity
8
SK2
62
256
6
ByLayer
370
13
48
1
60
0
100
AcDbLine
10
78.1898
20
-10.9875
30
0
11
78.1898
21
-21.613398
31
0
39
0
210
0
220
0
230
1
0
LINE
5
E8
100
AcDbEntity
8
SK2
62
256
6
ByLayer
370
13
48
1
60
0
100
AcDbLine
10
0
20
-19.613398
30
0
11
78.1898
21
-19.613398
31
0
39
0
210
0
220
0
230
1
0
SOLID
5
E9
100
AcDbEntity
8
SK2
62
256
6
ByLayer
370
13
48
1
60
0
100
AcDbTrace
10
0
20
-19.613398
30
0
11
3.499998
21
-19.152615
31
0
12
3.500002
22
-20.074182
32
0
13
0
23
-19.613398
33
0
39
0
210
0
220
0
230
1
0
SOLID
5
EA
100
AcDbEntity
8
SK2
62
256
6
ByLayer
370
13
48
1
60
0
100
AcDbTrace
10
78.1898
20
-19.613398
30
0
11
74.689802
21
-20.074182
31
0
12
74.689798
22
-19.152615
32
0
13
78.1898
23
-19.613398
33
0
39
0
210
0
220
0
230
1
0
ENDBLK
5
EC
100
AcDbEntity
8
0
100
AcDbBlockEnd
0
BLOCK
5
F5
100
AcDbEntity
8
0
100
AcDbBlockBegin
2
DimnDraft3D2
70
0
10
0
20
0
30
0
3
DimnDraft3D2
0
MTEXT
5
EF
100
AcDbEntity
8
SK2
62
256
6
ByLayer
370
13
48
1
60
0
100
AcDbMText
10
9.149521
20
-37.817985
30
0
210
0
220
0
230
1
1
\W0.6440;131,00
40
3.5
41
0
44
1.084337
50
0
71
7
72
5
7
iso_b_vert
0
LINE
5
F0
100
AcDbEntity
8
SK2
62
256
6
ByLayer
370
13
48
1
60
0
100
AcDbLine
10
-50
20
-11.5875
30
0
11
-50
21
-40.692985
31
0
39
0
210
0
220
0
230
1
0
LINE
5
F1
100
AcDbEntity
8
SK2
62
256
6
ByLayer
370
13
48
1
60
0
100
AcDbLine
10
81
20
-1.5875
30
0
11
81
21
-40.692985
31
0
39
0
210
0
220
0
230
1
0
LINE
5
F2
100
AcDbEntity
8
SK2
62
256
6
ByLayer
370
13
48
1
60
0
100
AcDbLine
10
-50
20
-38.692985
30
0
11
81
21
-38.692985
31
0
39
0
210
0
220
0
230
1
0
SOLID
5
F3
100
AcDbEntity
8
SK2
62
256
6
ByLayer
370
13
48
1
60
0
100
AcDbTrace
10
-50
20
-38.692985
30
0
11
-46.500002
21
-38.232202
31
0
12
-46.499998
22
-39.153769
32
0
13
-50
23
-38.692985
33
0
39
0
210
0
220
0
230
1
0
SOLID
5
F4
100
AcDbEntity
8
SK2
62
256
6
ByLayer
370
13
48
1
60
0
100
AcDbTrace
10
81
20
-38.692985
30
0
11
77.500002
21
-39.153769
31
0
12
77.499998
22
-38.232202
32
0
13
81
23
-38.692985
33
0
39
0
210
0
220
0
230
1
0
ENDBLK
5
F6
100
AcDbEntity
8
0
100
AcDbBlockEnd
0
BLOCK
5
FF
100
AcDbEntity
8
0
100
AcDbBlockBegin
2
DimnDraft3D3
70
0
10
0
20
0
30
0
3
DimnDraft3D3
0
MTEXT
5
F9
100
AcDbEntity
8
SK2
62
256
6
ByLayer
370
13
48
1
60
0
100
AcDbMText
10
47.383816
20
21.884119
30
0
210
0
220
0
230
1
1
\W0.7211;59,21
40
3.5
41
0
44
1.084337
50
0
71
7
72
5
7
iso_b_vert
0
LINE
5
FA
100
AcDbEntity
8
SK2
62
256
6
ByLayer
370
13
48
1
60
0
100
AcDbLine
10
21.79
20
10.9875
30
0
11
21.79
21
23.009119
31
0
39
0
210
0
220
0
230
1
0
LINE
5
FB
100
AcDbEntity
8
SK2
62
256
6
ByLayer
370
13
48
1
60
0
100
AcDbLine
10
81
20
1.5875
30
0
11
81
21
23.009119
31
0
39
0
210
0
220
0
230
1
0
LINE
5
FC
100
AcDbEntity
8
SK2
62
256
6
ByLayer
370
13
48
1
60
0
100
AcDbLine
10
21.79
20
21.009119
30
0
11
81
21
21.009119
31
0
39
0
210
0
220
0
230
1
0
SOLID
5
FD
100
AcDbEntity
8
SK2
62
256
6
ByLayer
370
13
48
1
60
0
100
AcDbTrace
10
21.79
20
21.009119
30
0
11
25.289998
21
21.469903
31
0
12
25.290002
22
20.548335
32
0
13
21.79
23
21.009119
33
0
39
0
210
0
220
0
230
1
0
SOLID
5
FE
100
AcDbEntity
8
SK2
62
256
6
ByLayer
370
13
48
1
60
0
100
AcDbTrace
10
81
20
21.009119
30
0
11
77.500002
21
20.548335
31
0
12
77.499998
22
21.469903
32
0
13
81
23
21.009119
33
0
39
0
210
0
220
0
230
1
0
ENDBLK
5
100
100
AcDbEntity
8
0
100
AcDbBlockEnd
0
BLOCK
5
109
100
AcDbEntity
8
0
100
AcDbBlockBegin
2
DimnDraft3D4
70
0
10
0
20
0
30
0
3
DimnDraft3D4
0
MTEXT
5
103
100
AcDbEntity
8
SK2
62
256
6
ByLayer
370
13
48
1
60
0
100
AcDbMText
10
88.278136
20
-21.327503
30
0
210
0
220
0
230
1
1
\W0.6993;2,81
40
3.5
41
0
44
1.084337
50
0
71
7
72
5
7
iso_b_vert
0
LINE
5
104
100
AcDbEntity
8
SK2
62
256
6
ByLayer
370
13
48
1
60
0
100
AcDbLine
10
81
20
-1.5875
30
0
11
81
21
-24.202503
31
0
39
0
210
0
220
0
230
1
0
LINE
5
105
100
AcDbEntity
8
SK2
62
256
6
ByLayer
370
13
48
1
60
0
100
AcDbLine
10
78.1898
20
-10.9875
30
0
11
78.1898
21
-24.202503
31
0
39
0
210
0
220
0
230
1
0
LINE
5
106
100
AcDbEntity
8
SK2
62
256
6
ByLayer
370
13
48
1
60
0
100
AcDbLine
10
69.4398
20
-22.202503
30
0
11
94.559715
21
-22.202503
31
0
39
0
210
0
220
0
230
1
0
SOLID
5
107
100
AcDbEntity
8
SK2
62
256
6
ByLayer
370
13
48
1
60
0
100
AcDbTrace
10
81
20
-22.202503
30
0
11
84.499998
21
-21.741719
31
0
12
84.500002
22
-22.663287
32
0
13
81
23
-22.202503
33
0
39
0
210
0
220
0
230
1
0
SOLID
5
108
100
AcDbEntity
8
SK2
62
256
6
ByLayer
370
13
48
1
60
0
100
AcDbTrace
10
78.1898
20
-22.202503
30
0
11
74.689802
21
-22.663287
31
0
12
74.689798
22
-21.741719
32
0
13
78.1898
23
-22.202503
33
0
39
0
210
0
220
0
230
1
0
ENDBLK
5
10A
100
AcDbEntity
8
0
100
AcDbBlockEnd
0
BLOCK
5
113
100
AcDbEntity
8
0
100
AcDbBlockBegin
2
DimnDraft3D5
70
0
10
0
20
0
30
0
3
DimnDraft3D5
0
MTEXT
5
10D
100
AcDbEntity
8
SK2
62
256
6
ByLayer
370
13
48
1
60
0
100
AcDbMText
10
6.068897
20
-27.468428
30
0
210
0
220
0
230
1
1
\W0.6501;128,19
40
3.5
41
0
44
1.084337
50
0
71
7
72
5
7
iso_b_vert
0
LINE
5
10E
100
AcDbEntity
8
SK2
62
256
6
ByLayer
370
13
48
1
60
0
100
AcDbLine
10
-50
20
-11.5875
30
0
11
-50
21
-30.343428
31
0
39
0
210
0
220
0
230
1
0
LINE
5
10F
100
AcDbEntity
8
SK2
62
256
6
ByLayer
370
13
48
1
60
0
100
AcDbLine
10
78.1898
20
-10.9875
30
0
11
78.1898
21
-30.343428
31
0
39
0
210
0
220
0
230
1
0
LINE
5
110
100
AcDbEntity
8
SK2
62
256
6
ByLayer
370
13
48
1
60
0
100
AcDbLine
10
-50
20
-28.343428
30
0
11
78.1898
21
-28.343428
31
0
39
0
210
0
220
0
230
1
0
SOLID
5
111
100
AcDbEntity
8
SK2
62
256
6
ByLayer
370
13
48
1
60
0
100
AcDbTrace
10
-50
20
-28.343428
30
0
11
-46.500002
21
-27.882645
31
0
12
-46.499998
22
-28.804212
32
0
13
-50
23
-28.343428
33
0
39
0
210
0
220
0
230
1
0
SOLID
5
112
100
AcDbEntity
8
SK2
62
256
6
ByLayer
370
13
48
1
60
0
100
AcDbTrace
10
78.1898
20
-28.343428
30
0
11
74.689802
21
-28.804212
31
0
12
74.689798
22
-27.882645
32
0
13
78.1898
23
-28.343428
33
0
39
0
210
0
220
0
230
1
0
ENDBLK
5
114
100
AcDbEntity
8
0
100
AcDbBlockEnd
0
BLOCK
5
11E
100
AcDbEntity
8
0
100
AcDbBlockBegin
2
DimnDraft3D6
70
0
10
0
20
0
30
0
3
DimnDraft3D6
0
MTEXT
5
117
100
AcDbEntity
8
SK2
62
256
6
ByLayer
370
13
48
1
60
0
100
AcDbMText
10
-60.375163
20
29.34918
30
0
210
0
220
0
230
1
1
\W0.7421;20,000
40
3.5
41
0
44
1.084337
50
90
71
7
72
5
7
iso_b_vert
0
MTEXT
5
118
100
AcDbEntity
8
SK2
62
256
6
ByLayer
370
13
48
1
60
0
100
AcDbMText
10
-60.375163
20
24.126524
30
0
210
0
220
0
230
1
1
%%c
40
3.5
41
0
44
1.084337
50
90
71
7
72
5
7
iso_b_vert
0
LINE
5
119
100
AcDbEntity
8
SK2
62
256
6
ByLayer
370
13
48
1
60
0
100
AcDbLine
10
-51.5875
20
-10
30
0
11
-60.625163
21
-10
31
0
39
0
210
0
220
0
230
1
0
LINE
5
11A
100
AcDbEntity
8
SK2
62
256
6
ByLayer
370
13
48
1
60
0
100
AcDbLine
10
-51.5875
20
10
30
0
11
-60.625163
21
10
31
0
39
0
210
0
220
0
230
1
0
LINE
5
11B
100
AcDbEntity
8
SK2
62
256
6
ByLayer
370
13
48
1
60
0
100
AcDbLine
10
-58.625163
20
-10
30
0
11
-58.625163
21
41.737338
31
0
39
0
210
0
220
0
230
1
0
SOLID
5
11C
100
AcDbEntity
8
SK2
62
256
6
ByLayer
370
13
48
1
60
0
100
AcDbTrace
10
-58.625163
20
-10
30
0
11
-59.085946
21
-6.500002
31
0
12
-58.164379
22
-6.499998
32
0
13
-58.625163
23
-10
33
0
39
0
210
0
220
0
230
1
0
SOLID
5
11D
100
AcDbEntity
8
SK2
62
256
6
ByLayer
370
13
48
1
60
0
100
AcDbTrace
10
-58.625163
20
10
30
0
11
-58.164379
21
6.500002
31
0
12
-59.085946
22
6.499998
32
0
13
-58.625163
23
10
33
0
39
0
210
0
220
0
230
1
0
ENDBLK
5
11F
100
AcDbEntity
8
0
100
AcDbBlockEnd
0
BLOCK
5
129
100
AcDbEntity
8
0
100
AcDbBlockBegin
2
DimnDraft3D7
70
0
10
0
20
0
30
0
3
DimnDraft3D7
0
MTEXT
5
122
100
AcDbEntity
8
2
62
256
6
ByLayer
370
13
48
1
60
0
100
AcDbMText
10
91.333343
20
27.342266
30
0
210
0
220
0
230
1
1
\W0.6930;18,800
40
3.5
41
0
44
1.084337
50
90
71
7
72
5
7
iso_b_vert
0
MTEXT
5
123
100
AcDbEntity
8
2
62
256
6
ByLayer
370
13
48
1
60
0
100
AcDbMText
10
91.333343
20
22.11961
30
0
210
0
220
0
230
1
1
%%c
40
3.5
41
0
44
1.084337
50
90
71
7
72
5
7
iso_b_vert
0
LINE
5
124
100
AcDbEntity
8
2
62
256
6
ByLayer
370
13
48
1
60
0
100
AcDbLine
10
79.7773
20
-9.4
30
0
11
95.083343
21
-9.4
31
0
39
0
210
0
220
0
230
1
0
LINE
5
125
100
AcDbEntity
8
2
62
256
6
ByLayer
370
13
48
1
60
0
100
AcDbLine
10
79.7773
20
9.4
30
0
11
95.083343
21
9.4
31
0
39
0
210
0
220
0
230
1
0
LINE
5
126
100
AcDbEntity
8
2
62
256
6
ByLayer
370
13
48
1
60
0
100
AcDbLine
10
93.083343
20
-9.4
30
0
11
93.083343
21
38.855424
31
0
39
0
210
0
220
0
230
1
0
SOLID
5
127
100
AcDbEntity
8
2
62
256
6
ByLayer
370
13
48
1
60
0
100
AcDbTrace
10
93.083343
20
-9.4
30
0
11
92.622559
21
-5.900002
31
0
12
93.544126
22
-5.899998
32
0
13
93.083343
23
-9.4
33
0
39
0
210
0
220
0
230
1
0
SOLID
5
128
100
AcDbEntity
8
2
62
256
6
ByLayer
370
13
48
1
60
0
100
AcDbTrace
10
93.083343
20
9.4
30
0
11
93.544126
21
5.900002
31
0
12
92.622559
22
5.899998
32
0
13
93.083343
23
9.4
33
0
39
0
210
0
220
0
230
1
0
ENDBLK
5
12A
100
AcDbEntity
8
0
100
AcDbBlockEnd
0
ENDSEC
0
SECTION
2
ENTITIES
0
ARC
5
96
100
AcDbEntity
8
1
62
256
6
ByLayer
370
18
48
1
60
0
100
AcDbCircle
39
0
10
-0.35
20
9.701332
30
0
40
0.350000000000009
210
0
220
0
230
-1
100
AcDbArc
50
269.96419
51
0
0
ARC
5
97
100
AcDbEntity
8
1
62
256
6
ByLayer
370
18
48
1
60
0
100
AcDbCircle
39
0
10
-0.35
20
-9.701332
30
0
40
0.350000000000009
210
0
220
0
230
-1
100
AcDbArc
50
0
51
90.03581
0
ELLIPSE
5
98
100
AcDbEntity
8
1
62
256
6
ByLayer
370
18
48
1
60
0
100
AcDbEllipse
10
1.469535
20
9.131211
30
0
11
0.25
21
0
31
0
210
0
220
0
230
1
40
0.999852
41
-3.09372267959163
42
-1.56303125308417
0
ELLIPSE
5
99
100
AcDbEntity
8
1
62
256
6
ByLayer
370
13
48
1
60
0
100
AcDbEllipse
10
1.400385
20
-3.01619
30
0
11
-0.0296519148999188
21
-0.0955026907619256
31
0
210
0
220
0
230
1
40
0.534302
41
-1.71872030214743
42
-0.370060612084329
0
ELLIPSE
5
9A
100
AcDbEntity
8
1
62
256
6
ByLayer
370
13
48
1
60
0
100
AcDbEllipse
10
1.469661
20
-3.04419
30
0
11
0.043866218281944
21
0.0898652040204708
31
0
210
0
220
0
230
1
40
0.155327
41
1.2608934787795
42
2.82323998119187
0
POINT
5
6C
100
AcDbEntity
8
81
62
256
6
ByLayer
370
18
48
1
60
0
100
AcDbPoint
10
81
20
0
30
0
39
0
210
0
220
0
230
1
50
360
0
POINT
5
6E
100
AcDbEntity
8
80
62
256
6
ByLayer
370
18
48
1
60
0
100
AcDbPoint
10
0
20
0
30
0
39
0
210
0
220
0
230
1
50
360
0
POINT
5
70
100
AcDbEntity
8
SK2
62
256
6
ByLayer
370
18
48
1
60
1
100
AcDbPoint
10
-50
20
-10
30
0
39
0
210
0
220
0
230
1
50
360
0
POINT
5
72
100
AcDbEntity
8
SK2
62
256
6
ByLayer
370
18
48
1
60
1
100
AcDbPoint
10
-50
20
10
30
0
39
0
210
0
220
0
230
1
50
360
0
POINT
5
73
100
AcDbEntity
8
2
62
256
6
ByLayer
370
18
48
1
60
1
100
AcDbPoint
10
78.1898
20
-9.4
30
0
39
0
210
0
220
0
230
1
50
360
0
POINT
5
75
100
AcDbEntity
8
2
62
256
6
ByLayer
370
18
48
1
60
1
100
AcDbPoint
10
78.1898
20
9.4
30
0
39
0
210
0
220
0
230
1
50
360
0
SPLINE
5
9B
100
AcDbEntity
8
1
62
256
6
ByLayer
370
18
48
1
60
0
100
AcDbSpline
70
4
71
1
72
4
73
2
40
0
40
0
40
1
40
1
41
1
10
49.6679533526552
20
-0.0014104908709101
30
0
41
1
10
49.6679417557316
20
-0.0014002825468253
30
0
0
SPLINE
5
9C
100
AcDbEntity
8
1
62
256
6
ByLayer
370
18
48
1
60
0
100
AcDbSpline
70
4
71
3
72
30
73
26
40
0
40
0
40
0
40
0
40
0.0339083186197162
40
0.0675391453728963
40
0.0967989901147494
40
0.123906909632166
40
0.151892268240215
40
0.19032000901962
40
0.226947459787244
40
0.259097301898132
40
0.308356075334127
40
0.352792752941002
40
0.401119405923569
40
0.448982022685707
40
0.501458489440659
40
0.556422881157266
40
0.610404311460152
40
0.660307238934112
40
0.701948644749752
40
0.746456940111525
40
0.796004083782832
40
0.851429226784206
40
0.913406901767821
40
0.974611075622523
40
1
40
1
40
1
40
1
41
1
10
22.6242721875783
20
-8.89480633352352
30
0
41
1
10
22.9095407671048
20
-8.8940945639155
30
0
41
1
10
23.4839797901641
20
-8.89288436871703
30
0
41
1
10
24.3268457526251
20
-8.88766973999807
30
0
41
1
10
25.1228499424658
20
-8.8904151051066
30
0
41
1
10
25.8368502316601
20
-8.89650998219355
30
0
41
1
10
26.6505861727146
20
-8.89737872199552
30
0
41
1
10
27.5537251036017
20
-8.89785746466404
30
0
41
1
10
28.4939293706021
20
-8.89787253585396
30
0
41
1
10
29.5292750134272
20
-8.89988933343722
30
0
41
1
10
30.6322541978212
20
-8.90030964072494
30
0
41
1
10
31.8801175002783
20
-8.90029850504772
30
0
41
1
10
33.1040454724902
20
-8.89802107660637
30
0
41
1
10
34.4118500452406
20
-8.90200017506737
30
0
41
1
10
35.7658154810128
20
-8.90319593328041
30
0
41
1
10
37.1836760456171
20
-8.90142971348584
30
0
41
1
10
38.5763908672133
20
-8.90516003897508
30
0
41
1
10
39.8523864728467
20
-8.90650984126083
30
0
41
1
10
41.0463778409182
20
-8.90496312314144
30
0
41
1
10
42.2334845123326
20
-8.90391546915922
30
0
41
1
10
43.5413155519926
20
-8.90584994581451
30
0
41
1
10
45.0015431075322
20
-8.9089323394538
30
0
41
1
10
46.5687385206243
20
-8.908068368637
30
0
41
1
10
47.8716337557454
20
-8.90766888956608
30
0
41
1
10
48.6307377721333
20
-8.90858942379518
30
0
41
1
10
48.8532807602847
20
-8.90892206896018
30
0
0
SPLINE
5
9D
100
AcDbEntity
8
1
62
256
6
ByLayer
370
18
48
1
60
0
100
AcDbSpline
70
4
71
2
72
6
73
3
40
0
40
0
40
0
40
1
40
1
40
1
41
1
10
77.0772182877251
20
-8.92942921301693
30
0
41
1
10
77.4745968466343
20
-8.92915457642121
30
0
41
1
10
77.8714466794536
20
-8.92990372108852
30
0
0
SPLINE
5
9E
100
AcDbEntity
8
1
62
256
6
ByLayer
370
18
48
1
60
0
100
AcDbSpline
70
4
71
3
72
27
73
23
40
0
40
0
40
0
40
0
40
0.052269052699149
40
0.114030538740236
40
0.175163967825226
40
0.231200266375417
40
0.282410094699125
40
0.329474990296347
40
0.372689705794762
40
0.422161412182045
40
0.481199584783887
40
0.54524585060998
40
0.611104732505958
40
0.674541863747175
40
0.733105185170057
40
0.786505482587737
40
0.834796640074868
40
0.868398438161222
40
0.904661733937825
40
0.944497215216115
40
0.990578796129839
40
1
40
1
40
1
40
1
41
1
10
48.8516634444507
20
8.90871354554028
30
0
41
1
10
48.4851269666857
20
8.90829728844218
30
0
41
1
10
47.6853647219693
20
8.90766952582413
30
0
41
1
10
46.4577384054524
20
8.90824629946931
30
0
41
1
10
45.2005815931877
20
8.90864697609555
30
0
41
1
10
44.0272137263761
20
8.90756715642777
30
0
41
1
10
42.9408283400304
20
8.90354579243623
30
0
41
1
10
41.9569544037846
20
8.90467700041862
30
0
41
1
10
40.9767801181904
20
8.90493254294844
30
0
41
1
10
39.9125933605499
20
8.90632475339615
30
0
41
1
10
38.7023962769434
20
8.90594777348812
30
0
41
1
10
37.3776641102822
20
8.90131498245205
30
0
41
1
10
36.0195059268787
20
8.90289423993764
30
0
41
1
10
34.70931821174
20
8.90297115246904
30
0
41
1
10
33.4751625453778
20
8.89801006593379
30
0
41
1
10
32.3599458623619
20
8.89993061051339
30
0
41
1
10
31.4105987356873
20
8.90015362221945
30
0
41
1
10
30.5819387022262
20
8.90025099333315
30
0
41
1
10
29.8125525428265
20
8.90023711353822
30
0
41
1
10
28.9556643575843
20
8.89847037799947
30
0
41
1
10
28.2869577832133
20
8.89805164479347
30
0
41
1
10
27.8976975619897
20
8.89787478414647
30
0
41
1
10
27.8316270331768
20
8.89784627182738
30
0
0
SPLINE
5
9F
100
AcDbEntity
8
1
62
256
6
ByLayer
370
18
48
1
60
0
100
AcDbSpline
70
4
71
2
72
6
73
3
40
0
40
0
40
0
40
1
40
1
40
1
41
1
10
2.77268146114994
20
8.88412825575935
30
0
41
1
10
2.1205355731264
20
8.88410085985765
30
0
41
1
10
1.47015812409012
20
8.88237695895722
30
0
0
SPLINE
5
A0
100
AcDbEntity
8
SK1
62
256
6
ByLayer
370
18
48
1
60
0
100
AcDbSpline
70
4
71
3
72
14
73
10
40
0
40
0
40
0
40
0
40
0.499999999999987
40
0.499999999999987
40
0.749999999999987
40
0.749999999999987
40
0.874999999999994
40
0.874999999999994
40
1
40
1
40
1
40
1
41
1
10
-47.6
20
0.218869094051058
30
0
41
1
10
-47.5789465118596
20
0.212266491481216
30
0
41
1
10
-47.5585985142981
20
0.199786512495336
30
0
41
1
10
-47.5303873672755
20
0.169251390772132
30
0
41
1
10
-47.5214287539013
20
0.157062015015356
30
0
41
1
10
-47.5102864584886
20
0.134438470964938
30
0
41
1
10
-47.50688945626
20
0.126012866660943
30
0
41
1
10
-47.5017228477084
20
0.107049293919431
30
0
41
1
10
-47.5
20
0.0964874727983727
30
0
41
1
10
-47.5
20
0.0856268141280907
30
0
0
SPLINE
5
A1
100
AcDbEntity
8
SK1
62
256
6
ByLayer
370
18
48
1
60
0
100
AcDbSpline
70
4
71
3
72
24
73
20
40
0
40
0
40
0
40
0
40
0.250000000000002
40
0.250000000000002
40
0.375000000000002
40
0.375000000000002
40
0.500000000000002
40
0.500000000000002
40
0.625000000000002
40
0.625000000000002
40
0.687500000000002
40
0.687500000000002
40
0.750000000000001
40
0.750000000000001
40
0.8125
40
0.8125
40
0.875
40
0.875
40
1
40
1
40
1
40
1
41
1
10
-49.9325179706108
20
2.47986440394774
30
0
41
1
10
-49.828689804555
20
2.48875670566645
30
0
41
1
10
-49.7263805373319
20
2.49860363241569
30
0
41
1
10
-49.5815906166842
20
2.51558615348068
30
0
41
1
10
-49.5349687885368
20
2.52159901742451
30
0
41
1
10
-49.4465061669363
20
2.53465006287243
30
0
41
1
10
-49.4046026240909
20
2.54167478744787
30
0
41
1
10
-49.3286950904091
20
2.55741833629671
30
0
41
1
10
-49.2952940688998
20
2.56602282680677
30
0
41
1
10
-49.2591384177483
20
2.58031492143331
30
0
41
1
10
-49.2497361655999
20
2.58520358828036
30
0
41
1
10
-49.2371967785436
20
2.59523672091691
30
0
41
1
10
-49.2340661867872
20
2.60046206999721
30
0
41
1
10
-49.2351863699219
20
2.61085198047752
30
0
41
1
10
-49.239319314691
20
2.61595022289095
30
0
41
1
10
-49.2541844798487
20
2.62596807328686
30
0
41
1
10
-49.264996315278
20
2.63087777641778
30
0
41
1
10
-49.3042652374706
20
2.64470602495979
30
0
41
1
10
-49.3402945463313
20
2.65309376106356
30
0
41
1
10
-49.3803773638963
20
2.6605539731878
30
0
0
SPLINE
5
A2
100
AcDbEntity
8
SK1
62
256
6
ByLayer
370
18
48
1
60
0
100
AcDbSpline
70
4
71
3
72
14
73
10
40
0
40
0
40
0
40
0
40
0.25
40
0.25
40
0.5
40
0.5
40
0.75
40
0.75
40
1
40
1
40
1
40
1
41
1
10
-49.3803773638976
20
2.66055397318863
30
0
41
1
10
-49.4205494989819
20
2.678663623011
30
0
41
1
10
-49.462622600997
20
2.68837912503997
30
0
41
1
10
-49.5496694168311
20
2.69141354487317
30
0
41
1
10
-49.5948286561951
20
2.68482577280429
30
0
41
1
10
-49.6890654884869
20
2.65447677063526
30
0
41
1
10
-49.736820210358
20
2.63112572067513
30
0
41
1
10
-49.8335748451317
20
2.56822144553311
30
0
41
1
10
-49.8826655245076
20
2.52864773588624
30
0
41
1
10
-49.9325179706108
20
2.47986440394774
30
0
0
SPLINE
5
A3
100
AcDbEntity
8
SK1
62
256
6
ByLayer
370
18
48
1
60
0
100
AcDbSpline
70
4
71
3
72
10
73
6
40
0
40
0
40
0
40
0
40
0.5
40
0.5
40
1
40
1
40
1
40
1
41
1
10
-47.6
20
3.22566401592203
30
0
41
1
10
-47.8994673321157
20
3.13174780767099
30
0
41
1
10
-48.1981051455275
20
3.03774962593974
30
0
41
1
10
-48.7923009594692
20
2.84945184485426
30
0
41
1
10
-49.087932810181
20
2.75515918773584
30
0
41
1
10
-49.3803773638976
20
2.66055397318863
30
0
0
SPLINE
5
A4
100
AcDbEntity
8
SK1
62
256
6
ByLayer
370
18
48
1
60
0
100
AcDbSpline
70
4
71
3
72
8
73
4
40
0
40
0
40
0
40
0
40
1
40
1
40
1
40
1
41
1
10
-49.9325179706108
20
2.47986440394774
30
0
41
1
10
-49.9550499818786
20
2.47238595664285
30
0
41
1
10
-49.9775450181005
20
2.46490388343636
30
0
41
1
10
-50
20
2.4574178823637
30
0
0
SPLINE
5
A5
100
AcDbEntity
8
SK1
62
256
6
ByLayer
370
18
48
1
60
0
100
AcDbSpline
70
4
71
3
72
10
73
6
40
0
40
0
40
0
40
0
40
0.5
40
0.5
40
1
40
1
40
1
40
1
41
1
10
-50
20
-0.987115227609365
30
0
41
1
10
-49.6125317908938
20
-0.857941779954302
30
0
41
1
10
-49.2140462200599
20
-0.729727745408383
30
0
41
1
10
-48.4112359648425
20
-0.473873780509251
30
0
41
1
10
-48.0063325891968
20
-0.346299407723563
30
0
41
1
10
-47.6
20
-0.21886909405103
30
0
0
SPLINE
5
A6
100
AcDbEntity
8
SK1
62
256
6
ByLayer
370
18
48
1
60
0
100
AcDbSpline
70
4
71
3
72
10
73
6
40
0
40
0
40
0
40
0
40
0.5
40
0.5
40
1
40
1
40
1
40
1
41
1
10
-50
20
0.987115227609365
30
0
41
1
10
-49.6125317908938
20
0.857941779954331
30
0
41
1
10
-49.2140462200599
20
0.729727745408383
30
0
41
1
10
-48.4112359648425
20
0.47387378050928
30
0
41
1
10
-48.0063325891968
20
0.346299407723592
30
0
41
1
10
-47.6
20
0.218869094051058
30
0
0
SPLINE
5
A7
100
AcDbEntity
8
SK1
62
256
6
ByLayer
370
18
48
1
60
0
100
AcDbSpline
70
4
71
3
72
14
73
10
40
0
40
0
40
0
40
0
40
0.124999999999992
40
0.124999999999992
40
0.249999999999984
40
0.249999999999984
40
0.499999999999983
40
0.499999999999983
40
1
40
1
40
1
40
1
41
1
10
-47.5
20
3.16207583241797
30
0
41
1
10
-47.5
20
3.17215601537149
30
0
41
1
10
-47.5017107697461
20
3.18098712337039
30
0
41
1
10
-47.5068845888984
20
3.19558437119233
30
0
41
1
10
-47.5102281895671
20
3.20131086536696
30
0
41
1
10
-47.521528237522
20
3.21585508053641
30
0
41
1
10
-47.5303630420009
20
3.2216316802081
30
0
41
1
10
-47.558525242781
20
3.23297160026206
30
0
41
1
10
-47.5788396428357
20
3.23230013377861
30
0
41
1
10
-47.6
20
3.22566401592203
30
0
0
SPLINE
5
A8
100
AcDbEntity
8
SK1
62
256
6
ByLayer
370
18
48
1
60
0
100
AcDbSpline
70
4
71
3
72
14
73
10
40
0
40
0
40
0
40
0
40
0.5
40
0.5
40
0.750000000000006
40
0.750000000000006
40
0.875000000000003
40
0.875000000000003
40
1
40
1
40
1
40
1
41
1
10
-47.6
20
-0.21886909405103
30
0
41
1
10
-47.5789465118596
20
-0.212266491481188
30
0
41
1
10
-47.5585985142981
20
-0.199786512495308
30
0
41
1
10
-47.5303873672755
20
-0.169251390772132
30
0
41
1
10
-47.5214287539013
20
-0.157062015015356
30
0
41
1
10
-47.5102864584886
20
-0.134438470964909
30
0
41
1
10
-47.50688945626
20
-0.126012866660915
30
0
41
1
10
-47.5017228477084
20
-0.107049293919403
30
0
41
1
10
-47.5
20
-0.0964874727983442
30
0
41
1
10
-47.5
20
-0.0856268141280623
30
0
0
SPLINE
5
A9
100
AcDbEntity
8
1
62
256
6
ByLayer
370
18
48
1
60
0
100
AcDbSpline
70
4
71
3
72
14
73
10
40
0
40
0
40
0
40
0
40
0.25
40
0.25
40
0.5
40
0.5
40
0.75
40
0.75
40
1
40
1
40
1
40
1
41
1
10
77.5685064093507
20
2.07652897529698
30
0
41
1
10
77.5669048335371
20
2.10187619515469
30
0
41
1
10
77.572009638617
20
2.12760805400498
30
0
41
1
10
77.5969217607341
20
2.17241468610763
30
0
41
1
10
77.6167274032573
20
2.19123301414052
30
0
41
1
10
77.6615166793118
20
2.21796563392698
30
0
41
1
10
77.6868322675174
20
2.22661917557096
30
0
41
1
10
77.737792661562
20
2.2367946181661
30
0
41
1
10
77.7639784101011
20
2.23849509832888
30
0
41
1
10
77.7900925415925
20
2.2376853004688
30
0
0
SPLINE
5
AA
100
AcDbEntity
8
1
62
256
6
ByLayer
370
18
48
1
60
0
100
AcDbSpline
70
4
71
3
72
8
73
4
40
0
40
0
40
0
40
0
40
1
40
1
40
1
40
1
41
1
10
80.9997331071168
20
-0.0613914507064521
30
0
41
1
10
81.0000886851427
20
-0.0204918174863451
30
0
41
1
10
81.0000892206249
20
0.0204302247367991
30
0
41
1
10
80.9997331071168
20
0.0613914507059405
30
0
0
SPLINE
5
AB
100
AcDbEntity
8
1
62
256
6
ByLayer
370
18
48
1
60
0
100
AcDbSpline
70
4
71
3
72
12
73
8
40
0
40
0
40
0
40
0
40
0.250000000000001
40
0.250000000000001
40
0.500000000000002
40
0.500000000000002
40
1
40
1
40
1
40
1
41
1
10
78.2194063801316
20
-9.13586641157741
30
0
41
1
10
78.4068715140845
20
-8.59839319593033
30
0
41
1
10
78.5963707541276
20
-8.06211614863011
30
0
41
1
10
78.9790075058207
20
-6.99159763169968
30
0
41
1
10
79.1721540641712
20
-6.45736237322046
30
0
41
1
10
79.7562880351007
20
-4.85723728576201
30
0
41
1
10
80.152063878409
20
-3.79394655771719
30
0
41
1
10
80.5512231645989
20
-2.73271646686192
30
0
0
SPLINE
5
AC
100
AcDbEntity
8
1
62
256
6
ByLayer
370
18
48
1
60
0
100
AcDbSpline
70
4
71
3
72
32
73
28
40
0
40
0
40
0
40
0
40
0.0467615603620398
40
0.0467615603620398
40
0.152676942544037
40
0.152676942544037
40
0.258592324726034
40
0.258592324726034
40
0.364507706908031
40
0.364507706908031
40
0.41746539799903
40
0.41746539799903
40
0.470423089090028
40
0.470423089090028
40
0.523380780181027
40
0.523380780181027
40
0.576338471272025
40
0.576338471272025
40
0.682253853454022
40
0.682253853454022
40
0.73521154454502
40
0.73521154454502
40
0.788169235636018
40
0.788169235636018
40
0.894084617818009
40
0.894084617818009
40
1
40
1
40
1
40
1
41
1
10
61.0087608017958
20
6.82801703222768
30
0
41
1
10
61.2757760084352
20
6.92776113084949
30
0
41
1
10
61.5423816441857
20
7.02529296414016
30
0
41
1
10
62.41333656072
20
7.33421101395046
30
0
41
1
10
63.0179048551783
20
7.53418743414915
30
0
41
1
10
64.2263825114179
20
7.90735830223463
30
0
41
1
10
64.8295651666174
20
8.08113048006879
30
0
41
1
10
66.0400064836313
20
8.39671325466941
30
0
41
1
10
66.646736443472
20
8.53921330139488
30
0
41
1
10
67.5580010361877
20
8.73055992547188
30
0
41
1
10
67.8617871591463
20
8.79068965251258
30
0
41
1
10
68.4710327530812
20
8.90242723721104
30
0
41
1
10
68.7764027924869
20
8.95411964747169
30
0
41
1
10
69.3884741391164
20
9.04924773517507
30
0
41
1
10
69.6952198920834
20
9.092685161502
30
0
41
1
10
70.3068559371803
20
9.1709252426152
30
0
41
1
10
70.6120551218595
20
9.20581632227865
30
0
41
1
10
71.5259722772031
20
9.29764302402364
30
0
41
1
10
72.134868057786
20
9.34114813958297
30
0
41
1
10
73.0473594572969
20
9.38058392448752
30
0
41
1
10
73.3513567808199
20
9.38942060734169
30
0
41
1
10
73.9587599997494
20
9.39843789608111
30
0
41
1
10
74.2620309879353
20
9.39859365651918
30
0
41
1
10
75.1730357140347
20
9.38599018679344
30
0
41
1
10
75.7815050771945
20
9.36032880451728
30
0
41
1
10
76.9992797327436
20
9.27432478803098
30
0
41
1
10
77.6078932860179
20
9.21355187004352
30
0
41
1
10
78.2194063801477
20
9.13586641155771
30
0
0
SPLINE
5
AD
100
AcDbEntity
8
1
62
256
6
ByLayer
370
18
48
1
60
0
100
AcDbSpline
70
4
71
3
72
8
73
4
40
0
40
0
40
0
40
0
40
1
40
1
40
1
40
1
41
1
10
80.9838153656037
20
-0.215982253871857
30
0
41
1
10
80.9822858116972
20
-0.17372797857854
30
0
41
1
10
80.9886569572114
20
-0.118875619629023
30
0
41
1
10
80.9997331071165
20
-0.0613914507069353
30
0
0
SPLINE
5
AE
100
AcDbEntity
8
1
62
256
6
ByLayer
370
18
48
1
60
0
100
AcDbSpline
70
4
71
3
72
18
73
14
40
0
40
0
40
0
40
0
40
0.140409562388329
40
0.140409562388329
40
0.223986661777976
40
0.223986661777976
40
0.307563761167622
40
0.307563761167622
40
0.641872158726202
40
0.641872158726202
40
0.97618055628478
40
0.97618055628478
40
1
40
1
40
1
40
1
41
1
10
49.707373372953
20
-0.0219158602939444
30
0
41
1
10
50.3790415289858
20
-0.371472278832726
30
0
41
1
10
51.0504455538055
20
-0.720747098008104
30
0
41
1
10
52.1224204229491
20
-1.27487254381501
30
0
41
1
10
52.522640907939
20
-1.48091070469508
30
0
41
1
10
53.3239389213653
20
-1.89076986572033
30
0
41
1
10
53.7255508641942
20
-2.09485934466002
30
0
41
1
10
55.7298453510714
20
-3.10431635932335
30
0
41
1
10
57.3163973051501
20
-3.87366985806258
30
0
41
1
10
60.4807954820561
20
-5.29371796272082
30
0
41
1
10
62.0587096282804
20
-5.94461334644947
30
0
41
1
10
63.7576993469732
20
-6.55733616537958
30
0
41
1
10
63.8707407542103
20
-6.5976902480979
30
0
41
1
10
63.9838269875834
20
-6.63763803702454
30
0
0
SPLINE
5
AF
100
AcDbEntity
8
1
62
256
6
ByLayer
370
13
48
1
60
0
100
AcDbSpline
70
4
71
3
72
16
73
12
40
0
40
0
40
0
40
0
40
0.1463934806792
40
0.1463934806792
40
0.23175413261128
40
0.23175413261128
40
0.317114784543361
40
0.317114784543361
40
0.65855739227168
40
0.65855739227168
40
1
40
1
40
1
40
1
41
1
10
63.9838279306651
20
-6.63763837016882
30
0
41
1
10
64.6643299735871
20
-6.87802616598523
30
0
41
1
10
65.3464552119892
20
-7.10370169488794
30
0
41
1
10
66.4305941635312
20
-7.43506631384369
30
0
41
1
10
66.8308483293334
20
-7.55153380681384
30
0
41
1
10
67.6335384925025
20
-7.7727883981085
30
0
41
1
10
68.0339272769169
20
-7.8770138919426
30
0
41
1
10
70.0322552022776
20
-8.36540810781608
30
0
41
1
10
71.6189694676854
20
-8.65119841924113
30
0
41
1
10
74.7943337311128
20
-9.00033294868024
30
0
41
1
10
76.3830986563749
20
-9.06396908063314
30
0
41
1
10
77.9851639266811
20
-9.01061390171162
30
0
0
SPLINE
5
B0
100
AcDbEntity
8
1
62
256
6
ByLayer
370
18
48
1
60
0
100
AcDbSpline
70
4
71
3
72
38
73
34
40
0
40
0
40
0
40
0
40
0.007936521882029
40
0.007936521882029
40
0.0460928095019509
40
0.0460928095019509
40
0.0842490971218726
40
0.0842490971218726
40
0.160561672361717
40
0.160561672361717
40
0.236874247601561
40
0.236874247601561
40
0.275030535221483
40
0.275030535221483
40
0.313186822841405
40
0.313186822841405
40
0.389499398081249
40
0.389499398081249
40
0.465811973321092
40
0.465811973321092
40
0.542124548560937
40
0.542124548560937
40
0.61843712380078
40
0.61843712380078
40
0.694749699040624
40
0.694749699040624
40
0.771062274280468
40
0.771062274280468
40
0.847374849520312
40
0.847374849520312
40
0.923687424760156
40
0.923687424760156
40
1
40
1
40
1
40
1
41
1
10
48.8493098998758
20
8.9086903363152
30
0
41
1
10
48.9023308146898
20
8.90887079941896
30
0
41
1
10
48.9553568799122
20
8.9089292610027
30
0
41
1
10
49.2633532028969
20
8.90856134046311
30
0
41
1
10
49.5184519883961
20
8.90547778772219
30
0
41
1
10
50.028889146224
20
8.89403037727038
30
0
41
1
10
50.2842245734386
20
8.88582431958372
30
0
41
1
10
51.0505180742711
20
8.85093009352158
30
0
41
1
10
51.5619402248259
20
8.81383971506273
30
0
41
1
10
52.5831244075644
20
8.71741412605792
30
0
41
1
10
53.09345742765
20
8.65793191874812
30
0
41
1
10
53.8585731012264
20
8.55352814409733
30
0
41
1
10
54.1135512413389
20
8.51622112045015
30
0
41
1
10
54.6233983760816
20
8.43673385726711
30
0
41
1
10
54.8782263061476
20
8.39466084292971
30
0
41
1
10
55.6430462068719
20
8.25898164548917
30
0
41
1
10
56.1533410900261
20
8.15573611557053
30
0
41
1
10
57.1750256206049
20
7.92767533399339
30
0
41
1
10
57.6866882548322
20
7.80252503859205
30
0
41
1
10
58.7081574547548
20
7.53411285099233
30
0
41
1
10
59.2188272911344
20
7.39185511100655
30
0
41
1
10
60.2393951712024
20
7.0883375853351
30
0
41
1
10
60.7491069883526
20
6.92582049051472
30
0
41
1
10
61.7684642673517
20
6.58130703305776
30
0
41
1
10
62.2787566704235
20
6.40053351645892
30
0
41
1
10
63.3005428252554
20
6.02308990761367
30
0
41
1
10
63.8124943584658
20
5.82633664231511
30
0
41
1
10
64.8340646129003
20
5.41863363745773
30
0
41
1
10
65.3444501327701
20
5.20796086928945
30
0
41
1
10
66.3648039570715
20
4.77409108546448
30
0
41
1
10
66.8747017410047
20
4.5510738805134
30
0
41
1
10
67.8939695297044
20
4.09085985635721
30
0
41
1
10
68.4038834056151
20
3.85462912321284
30
0
41
1
10
68.9146143571373
20
3.61402051089334
30
0
0
SPLINE
5
B1
100
AcDbEntity
8
1
62
256
6
ByLayer
370
18
48
1
60
0
100
AcDbSpline
70
4
71
3
72
8
73
4
40
0
40
0
40
0
40
0
40
1
40
1
40
1
40
1
41
1
10
1.21953516203556
20
-9.20123344421737
30
0
41
1
10
1.56420018911049
20
-9.23503069771533
30
0
41
1
10
1.90905419302627
20
-9.2631260900979
30
0
41
1
10
2.2540820241687
20
-9.28562943277524
30
0
0
SPLINE
5
B2
100
AcDbEntity
8
1
62
256
6
ByLayer
370
18
48
1
60
0
100
AcDbSpline
70
4
71
3
72
46
73
42
40
0
40
0
40
0
40
0
40
0.0312500000000046
40
0.0312500000000046
40
0.0625000000000093
40
0.0625000000000093
40
0.0937500000000139
40
0.0937500000000139
40
0.125000000000019
40
0.125000000000019
40
0.13281250000002
40
0.13281250000002
40
0.13671875000002
40
0.13671875000002
40
0.140625000000021
40
0.140625000000021
40
0.144531250000021
40
0.144531250000021
40
0.148437500000022
40
0.148437500000022
40
0.152343750000022
40
0.152343750000022
40
0.156250000000023
40
0.156250000000023
40
0.171875000000023
40
0.171875000000023
40
0.187500000000023
40
0.187500000000023
40
0.250000000000021
40
0.250000000000021
40
0.375000000000018
40
0.375000000000018
40
0.437500000000016
40
0.437500000000016
40
0.500000000000014
40
0.500000000000014
40
0.750000000000006
40
0.750000000000006
40
0.875000000000003
40
0.875000000000003
40
1
40
1
40
1
40
1
41
1
10
2.25408202416852
20
9.28562943277529
30
0
41
1
10
2.33394129165103
20
9.26382484578642
30
0
41
1
10
2.42912508887548
20
9.23789837564357
30
0
41
1
10
2.6440252753269
20
9.18007414207761
30
0
41
1
10
2.76414324022923
20
9.14806873271735
30
0
41
1
10
3.0235256589977
20
9.08004553929186
30
0
41
1
10
3.16160443447018
20
9.04432922437948
30
0
41
1
10
3.4513184646996
20
8.9706983086063
30
0
41
1
10
3.60294560599556
20
8.93278068340535
30
0
41
1
10
3.79825716925382
20
8.88484739529184
30
0
41
1
10
3.83762700504855
20
8.8752289831497
30
0
41
1
10
3.89712289528654
20
8.86076138446037
30
0
41
1
10
3.91702078784681
20
8.85593403603443
30
0
41
1
10
3.95694086362258
20
8.84627193182374
30
0
41
1
10
3.9767405349632
20
8.84132836245155
30
0
41
1
10
4.01747661313814
20
8.83192785236841
30
0
41
1
10
4.03925285716804
20
8.82788076401567
30
0
41
1
10
4.08638941839581
20
8.82152028353312
30
0
41
1
10
4.11048015308631
20
8.81915141117958
30
0
41
1
10
4.15911323952292
20
8.81559770064013
30
0
41
1
10
4.18371773341349
20
8.81441586345065
30
0
41
1
10
4.23341598920564
20
8.81307279746503
30
0
41
1
10
4.25847089652848
20
8.81283027295396
30
0
41
1
10
4.38368588241065
20
8.81149366325153
30
0
41
1
10
4.48383381627926
20
8.81022825041313
30
0
41
1
10
4.68418925606198
20
8.80838282983095
30
0
41
1
10
4.78437965905241
20
8.80763431167449
30
0
41
1
10
5.28539466907745
20
8.80476256302757
30
0
41
1
10
5.68625366180623
20
8.8052634683641
30
0
41
1
10
6.88711378674151
20
8.81492272680924
30
0
41
1
10
7.68611906754512
20
8.83232783102056
30
0
41
1
10
8.88236571518132
20
8.87213926225019
30
0
41
1
10
9.27969461640305
20
8.88763969885233
30
0
41
1
10
10.0696762335124
20
8.92217022058009
30
0
41
1
10
10.4626434930916
20
8.94120634618793
30
0
41
1
10
12.4177222710751
20
9.04271433930188
30
0
41
1
10
13.9502051216608
20
9.14526570226548
30
0
41
1
10
16.2105781575259
20
9.2682105347441
30
0
41
1
10
16.9576875862082
20
9.3038378006855
30
0
41
1
10
18.441527294468
20
9.35282670286009
30
0
41
1
10
19.1782464874876
20
9.36615886975761
30
0
41
1
10
19.911163935048
20
9.36293315712422
30
0
0
SPLINE
5
B3
100
AcDbEntity
8
1
62
256
6
ByLayer
370
18
48
1
60
0
100
AcDbSpline
70
4
71
3
72
36
73
32
40
0
40
0
40
0
40
0
40
0.0625000000000004
40
0.0625000000000004
40
0.0937500000000006
40
0.0937500000000006
40
0.125000000000001
40
0.125000000000001
40
0.187500000000001
40
0.187500000000001
40
0.218750000000001
40
0.218750000000001
40
0.250000000000001
40
0.250000000000001
40
0.375
40
0.375
40
0.40625
40
0.40625
40
0.4375
40
0.4375
40
0.500000000000001
40
0.500000000000001
40
0.625000000000002
40
0.625000000000002
40
0.687500000000001
40
0.687500000000001
40
0.75
40
0.75
40
0.874999999999999
40
0.874999999999999
40
1
40
1
40
1
40
1
41
1
10
68.9146143571372
20
3.61402051089297
30
0
41
1
10
68.8801617173713
20
3.35136668315221
30
0
41
1
10
68.8643831002025
20
3.08207820065442
30
0
41
1
10
68.8698271347177
20
2.66780234892454
30
0
41
1
10
68.8765573609017
20
2.52738944989744
30
0
41
1
10
68.8997780326365
20
2.2458872995536
30
0
41
1
10
68.916164765155
20
2.1054800872389
30
0
41
1
10
68.9789383422664
20
1.68523850616802
30
0
41
1
10
69.038900983494
20
1.40638148761133
30
0
41
1
10
69.1539661486729
20
0.989904488126768
30
0
41
1
10
69.1965181991569
20
0.851380972174212
30
0
41
1
10
69.2897810497465
20
0.574921305842196
30
0
41
1
10
69.340397595408
20
0.437361526499785
30
0
41
1
10
69.60884445058
20
-0.238823064490504
30
0
41
1
10
69.8746830640133
20
-0.751255248505544
30
0
41
1
10
70.2554504445505
20
-1.36473811921945
30
0
41
1
10
70.3342337409655
20
-1.4862988065741
30
0
41
1
10
70.4957156180947
20
-1.72566197371373
30
0
41
1
10
70.5781700422722
20
-1.84312727783691
30
0
41
1
10
70.8302404426911
20
-2.18943483398803
30
0
41
1
10
71.004503144413
20
-2.41226685628394
30
0
41
1
10
71.5438437859337
20
-3.05935332052528
30
0
41
1
10
71.9260316877686
20
-3.46147716685556
30
0
41
1
10
72.5258772182699
20
-4.03030458949544
30
0
41
1
10
72.7308973953548
20
-4.21459524579384
30
0
41
1
10
73.1449368985799
20
-4.56875613913837
30
0
41
1
10
73.3542285510915
20
-4.73897826620873
30
0
41
1
10
73.9882133562331
20
-5.23120049449548
30
0
41
1
10
74.419019852071
20
-5.53474589041437
30
0
41
1
10
75.2946723538266
20
-6.09945479524902
30
0
41
1
10
75.7394557489627
20
-6.36080731097834
30
0
41
1
10
76.1903487015255
20
-6.60371654976845
30
0
0
SPLINE
5
B4
100
AcDbEntity
8
1
62
256
6
ByLayer
370
18
48
1
60
0
100
AcDbSpline
70
4
71
3
72
12
73
8
40
0
40
0
40
0
40
0
40
0.249999999999989
40
0.249999999999989
40
0.499999999999977
40
0.499999999999977
40
1
40
1
40
1
40
1
41
1
10
1.35073587265612
20
-3.21945450467032
30
0
41
1
10
1.3308392729125
20
-3.20936145897497
30
0
41
1
10
1.31282578018312
20
-3.19700277746955
30
0
41
1
10
1.2804613727651
20
-3.16785814052903
30
0
41
1
10
1.26630967842755
20
-3.15111626162121
30
0
41
1
10
1.23201386634466
20
-3.09697852594442
30
0
41
1
10
1.21953516203544
20
-3.05482672848854
30
0
41
1
10
1.21953516203547
20
-3.01201092325351
30
0
0
SPLINE
5
B5
100
AcDbEntity
8
1
62
256
6
ByLayer
370
18
48
1
60
0
100
AcDbSpline
70
4
71
3
72
38
73
34
40
0
40
0
40
0
40
0
40
0.0624999999999922
40
0.0624999999999922
40
0.0937499999999877
40
0.0937499999999877
40
0.124999999999983
40
0.124999999999983
40
0.187499999999976
40
0.187499999999976
40
0.218749999999975
40
0.218749999999975
40
0.249999999999973
40
0.249999999999973
40
0.312499999999977
40
0.312499999999977
40
0.374999999999981
40
0.374999999999981
40
0.437499999999985
40
0.437499999999985
40
0.499999999999988
40
0.499999999999988
40
0.562499999999992
40
0.562499999999992
40
0.624999999999996
40
0.624999999999996
40
0.6875
40
0.6875
40
0.750000000000003
40
0.750000000000003
40
0.875000000000002
40
0.875000000000002
40
1
40
1
40
1
40
1
41
1
10
79.0697195308131
20
-2.8150092075764
30
0
41
1
10
79.0829850785385
20
-2.86893033620311
30
0
41
1
10
79.0918881168409
20
-2.92959751879479
30
0
41
1
10
79.0974153680686
20
-3.02711614807322
30
0
41
1
10
79.0979984642975
20
-3.06085393408438
30
0
41
1
10
79.0965514931567
20
-3.13095804019605
30
0
41
1
10
79.0944889078245
20
-3.16760974569792
30
0
41
1
10
79.0844019500511
20
-3.27916139840741
30
0
41
1
10
79.0726097267849
20
-3.35576703335903
30
0
41
1
10
79.0476238590124
20
-3.47414334924591
30
0
41
1
10
79.0380042639408
20
-3.51437783119573
30
0
41
1
10
79.016894918472
20
-3.59380466696066
30
0
41
1
10
79.0053631974149
20
-3.63324399774822
30
0
41
1
10
78.9680246265167
20
-3.75079390103025
30
0
41
1
10
78.9391396258798
20
-3.82888865381656
30
0
41
1
10
78.877064115179
20
-3.97693132018262
30
0
41
1
10
78.8436235822445
20
-4.0477268649208
30
0
41
1
10
78.7730055198371
20
-4.18203408030948
30
0
41
1
10
78.7365973994853
20
-4.24412973715096
30
0
41
1
10
78.6617468125194
20
-4.35943187986729
30
0
41
1
10
78.6230571155733
20
-4.41286352646054
30
0
41
1
10
78.5457974429206
20
-4.50843917457294
30
0
41
1
10
78.5070066895677
20
-4.55098059059071
30
0
41
1
10
78.4289278072068
20
-4.62627179094773
30
0
41
1
10
78.3895814946678
20
-4.65897473227739
30
0
41
1
10
78.3123084783209
20
-4.71327995659431
30
0
41
1
10
78.2741062819675
20
-4.73517009979503
30
0
41
1
10
78.1983436005074
20
-4.76877660479801
30
0
41
1
10
78.1605593444496
20
-4.78049267256881
30
0
41
1
10
78.0505299402582
20
-4.7995730047235
30
0
41
1
10
77.9809597528449
20
-4.79174825359044
30
0
41
1
10
77.848669840589
20
-4.73304389664398
30
0
41
1
10
77.7885751462633
20
-4.68327585097458
30
0
41
1
10
77.7354547663616
20
-4.61173195252971
30
0
0
SPLINE
5
B6
100
AcDbEntity
8
1
62
256
6
ByLayer
370
18
48
1
60
0
100
AcDbSpline
70
4
71
3
72
8
73
4
40
0
40
0
40
0
40
0
40
1
40
1
40
1
40
1
41
1
10
80.987384324503
20
-0.423060508949192
30
0
41
1
10
80.9874727539209
20
-0.354016778204283
30
0
41
1
10
80.9863133729157
20
-0.284990275231649
30
0
41
1
10
80.9838153656037
20
-0.215982253871886
30
0
0
SPLINE
5
B7
100
AcDbEntity
8
1
62
256
6
ByLayer
370
18
48
1
60
0
100
AcDbSpline
70
4
71
3
72
14
73
10
40
0
40
0
40
0
40
0
40
0.419419062880174
40
0.419419062880174
40
0.838838125760348
40
0.838838125760348
40
0.94369289148039
40
0.94369289148039
40
1
40
1
40
1
40
1
41
1
10
77.9943578277489
20
-8.91750101630021
30
0
41
1
10
76.3931075296964
20
-8.96031786820174
30
0
41
1
10
74.8049440287324
20
-8.88765052155554
30
0
41
1
10
71.6306414457212
20
-8.52351446170096
30
0
41
1
10
70.0443678258181
20
-8.23183407200028
30
0
41
1
10
68.0468889774256
20
-7.73833597832743
30
0
41
1
10
67.6465805194842
20
-7.63318171664002
30
0
41
1
10
67.0301668625405
20
-7.46199417683783
30
0
41
1
10
66.8151130286009
20
-7.40053510735223
30
0
41
1
10
66.6003440445198
20
-7.33746547709214
30
0
0
SPLINE
5
B8
100
AcDbEntity
8
1
62
256
6
ByLayer
370
13
48
1
60
0
100
AcDbSpline
70
4
71
3
72
24
73
20
40
0
40
0
40
0
40
0
40
0.0264374493090633
40
0.0264374493090633
40
0.140638316464076
40
0.140638316464076
40
0.369040050774102
40
0.369040050774102
40
0.597441785084128
40
0.597441785084128
40
0.654542218661634
40
0.654542218661634
40
0.71164265223914
40
0.71164265223914
40
0.82584351939415
40
0.82584351939415
40
0.94004438654916
40
0.94004438654916
40
1
40
1
40
1
40
1
41
1
10
66.6003441002742
20
-7.33746549346509
30
0
41
1
10
66.4151715290052
20
-7.28308722464791
30
0
41
1
10
66.230210709092
20
-7.22751169904572
30
0
41
1
10
65.2473215371547
20
-6.92563128200115
30
0
41
1
10
64.4527703054948
20
-6.6587251503511
30
0
41
1
10
62.0748663308352
20
-5.80042195062185
30
0
41
1
10
60.4974685158758
20
-5.15104631714243
30
0
41
1
10
57.3340477933438
20
-3.73771502337169
30
0
41
1
10
55.7480161019244
20
-2.97344759811958
30
0
41
1
10
53.7446361071658
20
-1.97270353958507
30
0
41
1
10
53.3433195642673
20
-1.7705079732483
30
0
41
1
10
52.5425266654061
20
-1.364568967173
30
0
41
1
10
52.1425485118618
20
-1.16057471997033
30
0
41
1
10
50.9432786281129
20
-0.546670464745347
30
0
41
1
10
50.1445313063774
20
-0.135074688227519
30
0
41
1
10
48.5458443325855
20
0.687442126531948
30
0
41
1
10
47.7457510194145
20
1.09806668784338
30
0
41
1
10
46.5220485334245
20
1.71856632918536
30
0
41
1
10
46.1014218293226
20
1.93050494046494
30
0
41
1
10
45.6812188357992
20
2.14032546885082
30
0
0
SPLINE
5
B9
100
AcDbEntity
8
1
62
256
6
ByLayer
370
13
48
1
60
0
100
AcDbSpline
70
4
71
3
72
8
73
4
40
0
40
0
40
0
40
0
40
1
40
1
40
1
40
1
41
1
10
1.35428571122571
20
-3.09949720212811
30
0
41
1
10
1.37605749009003
20
-3.10622634161533
30
0
41
1
10
1.39966187055737
20
-3.11575065228576
30
0
41
1
10
1.42363035366253
20
-3.12740733967323
30
0
0
SPLINE
5
BA
100
AcDbEntity
8
1
62
256
6
ByLayer
370
13
48
1
60
0
100
AcDbSpline
70
4
71
3
72
10
73
6
40
0
40
0
40
0
40
0
40
0.5
40
0.5
40
1
40
1
40
1
40
1
41
1
10
1.21953516203553
20
-2.93630155950331
30
0
41
1
10
1.21953516203556
20
-2.94639710148522
30
0
41
1
10
1.23128907603709
20
-2.95659798965164
30
0
41
1
10
1.27652270602832
20
-2.97395005200795
30
0
41
1
10
1.31054966653826
20
-2.98146801641406
30
0
41
1
10
1.35428571122571
20
-2.98644378805108
30
0
0
SPLINE
5
BB
100
AcDbEntity
8
1
62
256
6
ByLayer
370
18
48
1
60
0
100
AcDbSpline
70
4
71
3
72
8
73
4
40
0
40
0
40
0
40
0
40
1
40
1
40
1
40
1
41
1
10
1.21953516203556
20
9.20123344421739
30
0
41
1
10
1.56420018911044
20
9.23503069771536
30
0
41
1
10
1.90905419302618
20
9.26312609009793
30
0
41
1
10
2.25408202416861
20
9.28562943277527
30
0
0
SPLINE
5
BC
100
AcDbEntity
8
1
62
256
6
ByLayer
370
18
48
1
60
0
100
AcDbSpline
70
4
71
3
72
14
73
10
40
0
40
0
40
0
40
0
40
0.25
40
0.25
40
0.5
40
0.5
40
0.75
40
0.75
40
1
40
1
40
1
40
1
41
1
10
78.219406380138
20
9.13586641155894
30
0
41
1
10
78.4056441967875
20
8.60191198451943
30
0
41
1
10
78.5944066225907
20
8.06766031878888
30
0
41
1
10
78.9763967839481
20
6.99885330009926
30
0
41
1
10
79.1696366111233
20
6.46429493408422
30
0
41
1
10
79.5599672961729
20
5.39498491674965
30
0
41
1
10
79.7567992653442
20
4.86090508332288
30
0
41
1
10
80.1525260835831
20
3.79539401707243
30
0
41
1
10
80.351545472681
20
3.26359219108349
30
0
41
1
10
80.5512231645919
20
2.73271646688085
30
0
0
SPLINE
5
BD
100
AcDbEntity
8
1
62
256
6
ByLayer
370
18
48
1
60
0
100
AcDbSpline
70
4
71
3
72
46
73
42
40
0
40
0
40
0
40
0
40
0.125000000000017
40
0.125000000000017
40
0.187500000000025
40
0.187500000000025
40
0.250000000000033
40
0.250000000000033
40
0.312500000000042
40
0.312500000000042
40
0.343750000000043
40
0.343750000000043
40
0.359375000000041
40
0.359375000000041
40
0.375000000000038
40
0.375000000000038
40
0.390625000000036
40
0.390625000000036
40
0.406250000000034
40
0.406250000000034
40
0.421875000000031
40
0.421875000000031
40
0.437500000000029
40
0.437500000000029
40
0.468750000000024
40
0.468750000000024
40
0.50000000000002
40
0.50000000000002
40
0.531250000000015
40
0.531250000000015
40
0.562500000000011
40
0.562500000000011
40
0.625000000000009
40
0.625000000000009
40
0.687500000000008
40
0.687500000000008
40
0.750000000000006
40
0.750000000000006
40
0.875000000000003
40
0.875000000000003
40
1
40
1
40
1
40
1
41
1
10
77.7354547663605
20
-4.61173195253031
30
0
41
1
10
77.4629218085556
20
-4.49894640993315
30
0
41
1
10
77.1938835980566
20
-4.36704508199969
30
0
41
1
10
76.7967813213444
20
-4.13388491762996
30
0
41
1
10
76.6649644759989
20
-4.049813105314
30
0
41
1
10
76.406769646556
20
-3.86818003195134
30
0
41
1
10
76.2809530642829
20
-3.77117316835839
30
0
41
1
10
76.0383482268692
20
-3.56012464976104
30
0
41
1
10
75.9213437405277
20
-3.44649098322998
30
0
41
1
10
75.7576449491502
20
-3.25376107771723
30
0
41
1
10
75.7051667312913
20
-3.18566038008297
30
0
41
1
10
75.6338633594582
20
-3.07836657898926
30
0
41
1
10
75.6112486897417
20
-3.0416281148317
30
0
41
1
10
75.5690005515339
20
-2.96563342454803
30
0
41
1
10
75.5493816720306
20
-2.92634312009278
30
0
41
1
10
75.5150552756196
20
-2.84650639729597
30
0
41
1
10
75.5002088949631
20
-2.80575765856773
30
0
41
1
10
75.4767152665243
20
-2.7220383318311
30
0
41
1
10
75.4683151512185
20
-2.67967916961433
30
0
41
1
10
75.4601237422403
20
-2.59603504621933
30
0
41
1
10
75.4604045982236
20
-2.55392660770536
30
0
41
1
10
75.4704790935175
20
-2.4750490478979
30
0
41
1
10
75.4802090651598
20
-2.43757767605049
30
0
41
1
10
75.5222874852125
20
-2.33307533372317
30
0
41
1
10
75.5663271159773
20
-2.27680904507517
30
0
41
1
10
75.6675882914644
20
-2.18767357726711
30
0
41
1
10
75.7255818999177
20
-2.15360238492138
30
0
41
1
10
75.8474457709277
20
-2.09988071014502
30
0
41
1
10
75.9118415796299
20
-2.08008148977308
30
0
41
1
10
76.0423071547184
20
-2.05047391647045
30
0
41
1
10
76.1086490286324
20
-2.04057872514497
30
0
41
1
10
76.3100178659645
20
-2.02126375661601
30
0
41
1
10
76.447557642256
20
-2.02205331575735
30
0
41
1
10
76.7256685527083
20
-2.04084300294366
30
0
41
1
10
76.8644981125527
20
-2.05885968104809
30
0
41
1
10
77.1418386518988
20
-2.10705241373688
30
0
41
1
10
77.2803474907864
20
-2.13731016995089
30
0
41
1
10
77.6954817523117
20
-2.24305478885964
30
0
41
1
10
77.9717232134479
20
-2.33319645545467
30
0
41
1
10
78.5233111234207
20
-2.54764006173801
30
0
41
1
10
78.7992419718919
20
-2.67235666373068
30
0
41
1
10
79.0697195308131
20
-2.81500920757637
30
0
0
SPLINE
5
BE
100
AcDbEntity
8
1
62
256
6
ByLayer
370
18
48
1
60
0
100
AcDbSpline
70
4
71
3
72
46
73
42
40
0
40
0
40
0
40
0
40
0.0317319276679853
40
0.0317319276679853
40
0.0634638553359706
40
0.0634638553359706
40
0.0951957830039559
40
0.0951957830039559
40
0.126927710671941
40
0.126927710671941
40
0.134860692588937
40
0.134860692588937
40
0.138827183547435
40
0.138827183547435
40
0.142793674505933
40
0.142793674505933
40
0.146760165464431
40
0.146760165464431
40
0.150726656422928
40
0.150726656422928
40
0.154693147381426
40
0.154693147381426
40
0.158659638339924
40
0.158659638339924
40
0.174525602173912
40
0.174525602173912
40
0.190391566007901
40
0.190391566007901
40
0.253855421343856
40
0.253855421343856
40
0.380783132015765
40
0.380783132015765
40
0.44424698735172
40
0.44424698735172
40
0.507710842687675
40
0.507710842687675
40
0.761566264031497
40
0.761566264031497
40
0.888493974703409
40
0.888493974703409
40
1
40
1
40
1
40
1
41
1
10
2.2540820241687
20
-9.28562943277524
30
0
41
1
10
2.3339412916512
20
-9.26382484578639
30
0
41
1
10
2.42912508887565
20
-9.23789837564351
30
0
41
1
10
2.64402527532701
20
-9.18007414207759
30
0
41
1
10
2.76414324022937
20
-9.14806873271735
30
0
41
1
10
3.02352565899778
20
-9.08004553929186
30
0
41
1
10
3.16160443447021
20
-9.04432922437945
30
0
41
1
10
3.45131846469963
20
-8.97069830860633
30
0
41
1
10
3.6029456059955
20
-8.93278068340538
30
0
41
1
10
3.7982571692537
20
-8.88484739529187
30
0
41
1
10
3.83762700504843
20
-8.87522898314973
30
0
41
1
10
3.89712289528646
20
-8.8607613844604
30
0
41
1
10
3.91702078784672
20
-8.85593403603445
30
0
41
1
10
3.95694086362246
20
-8.84627193182376
30
0
41
1
10
3.97674053496306
20
-8.84132836245161
30
0
41
1
10
4.01747661313803
20
-8.83192785236844
30
0
41
1
10
4.03925285716792
20
-8.8278807640157
30
0
41
1
10
4.08638941839567
20
-8.82152028353315
30
0
41
1
10
4.11048015308614
20
-8.8191514111796
30
0
41
1
10
4.15911323952275
20
-8.81559770064015
30
0
41
1
10
4.18371773341332
20
-8.81441586345068
30
0
41
1
10
4.2334159892055
20
-8.81307279746503
30
0
41
1
10
4.25847089652831
20
-8.81283027295399
30
0
41
1
10
4.38368588241048
20
-8.81149366325153
30
0
41
1
10
4.48383381627909
20
-8.81022825041313
30
0
41
1
10
4.68418925606187
20
-8.80838282983095
30
0
41
1
10
4.78437965905226
20
-8.80763431167449
30
0
41
1
10
5.28539466907739
20
-8.80476256302757
30
0
41
1
10
5.68625366180618
20
-8.8052634683641
30
0
41
1
10
6.88711378674156
20
-8.81492272680924
30
0
41
1
10
7.68611906754529
20
-8.83232783102056
30
0
41
1
10
8.88236571518166
20
-8.87213926225022
30
0
41
1
10
9.2796946164033
20
-8.88763969885235
30
0
41
1
10
10.0696762335125
20
-8.92217022058011
30
0
41
1
10
10.4626434930917
20
-8.94120634618793
30
0
41
1
10
12.4177222710751
20
-9.04271433930188
30
0
41
1
10
13.9502051216608
20
-9.14526570226548
30
0
41
1
10
16.2105781575259
20
-9.2682105347441
30
0
41
1
10
16.9576875862082
20
-9.3038378006855
30
0
41
1
10
18.351384216148
20
-9.34985063312632
30
0
41
1
10
18.999147315772
20
-9.36275438005563
30
0
41
1
10
19.6438451952238
20
-9.36338531285398
30
0
0
SPLINE
5
BF
100
AcDbEntity
8
1
62
256
6
ByLayer
370
18
48
1
60
0
100
AcDbSpline
70
4
71
3
72
14
73
10
40
0
40
0
40
0
40
0
40
0.230235136057117
40
0.230235136057117
40
0.455181191278298
40
0.455181191278298
40
0.680127246499478
40
0.680127246499478
40
1
40
1
40
1
40
1
41
1
10
23.0316494567284
20
-8.8936047064403
30
0
41
1
10
22.2170557806019
20
-8.90156660721894
30
0
41
1
10
21.4037331899066
20
-8.88002069476596
30
0
41
1
10
19.7948733934624
20
-8.77941552685931
30
0
41
1
10
18.9994032207695
20
-8.70171875917146
30
0
41
1
10
17.4046231929936
20
-8.49124886816028
30
0
41
1
10
16.6049852722681
20
-8.35838511576637
30
0
41
1
10
14.6609449172852
20
-7.97104858850653
30
0
41
1
10
13.5280008981552
20
-7.69186640726426
30
0
41
1
10
12.3987880288716
20
-7.36692678894596
30
0
0
SPLINE
5
C0
100
AcDbEntity
8
1
62
256
6
ByLayer
370
13
48
1
60
0
100
AcDbSpline
70
4
71
3
72
16
73
12
40
0
40
0
40
0
40
0
40
0.126256462691251
40
0.126256462691251
40
0.563128231345625
40
0.563128231345625
40
0.781564115672813
40
0.781564115672813
40
0.890782057836407
40
0.890782057836407
40
1
40
1
40
1
40
1
41
1
10
12.3987880296151
20
-7.36692678915989
30
0
41
1
10
11.9397944779998
20
-7.23484789285965
30
0
41
1
10
11.4814173854187
20
-7.09520897173599
30
0
41
1
10
9.43830707260787
20
-6.44047420058968
30
0
41
1
10
7.85765820956701
20
-5.84612864036188
30
0
41
1
10
5.47376798105245
20
-4.85204090016205
30
0
41
1
10
4.677102209628
20
-4.5034049612299
30
0
41
1
10
3.47675988518213
20
-3.95804125048403
30
0
41
1
10
3.07531253678579
20
-3.77237342188317
30
0
41
1
10
2.27252105712975
20
-3.39538290371928
30
0
41
1
10
1.87119493298098
20
-3.20407535663233
30
0
41
1
10
1.46974560991353
20
-3.01029546531012
30
0
0
SPLINE
5
C1
100
AcDbEntity
8
1
62
256
6
ByLayer
370
18
48
1
60
0
100
AcDbSpline
70
4
71
3
72
44
73
40
40
0
40
0
40
0
40
0
40
0.131553848754154
40
0.131553848754154
40
0.197330773131231
40
0.197330773131231
40
0.263107697508308
40
0.263107697508308
40
0.394661546262464
40
0.394661546262464
40
0.460438470639541
40
0.460438470639541
40
0.526215395016618
40
0.526215395016618
40
0.591992319393696
40
0.591992319393696
40
0.657769243770773
40
0.657769243770773
40
0.690657705959312
40
0.690657705959312
40
0.72354616814785
40
0.72354616814785
40
0.789323092524928
40
0.789323092524928
40
0.822211554713466
40
0.822211554713466
40
0.855100016902005
40
0.855100016902005
40
0.887988479090544
40
0.887988479090544
40
0.920876941279083
40
0.920876941279083
40
0.953765403467621
40
0.953765403467621
40
0.970209634561891
40
0.970209634561891
40
0.98665386565616
40
0.98665386565616
40
1
40
1
40
1
40
1
41
1
10
19.911163935048
20
0.93098954241745
30
0
41
1
10
19.0503158352785
20
1.3461068074933
30
0
41
1
10
18.2009452940325
20
1.77724310260663
30
0
41
1
10
16.935722740465
20
2.42893719644937
30
0
41
1
10
16.5154820709721
20
2.64714427305052
30
0
41
1
10
15.6766947386876
20
3.08259328787673
30
0
41
1
10
15.2597183694295
20
3.29884404354883
30
0
41
1
10
14.0156887719503
20
3.94074836345308
30
0
41
1
10
13.1946429764968
20
4.36040724438527
30
0
41
1
10
11.9722967613176
20
4.96645197188812
30
0
41
1
10
11.5664072894414
20
5.16467125941853
30
0
41
1
10
10.7577204737647
20
5.55209576395328
30
0
41
1
10
10.3549586949107
20
5.74105367813345
30
0
41
1
10
9.5525416027578
20
6.11154978696439
30
0
41
1
10
9.15293610093738
20
6.2927038520985
30
0
41
1
10
8.35781304578558
20
6.64614133236506
30
0
41
1
10
7.96227745977171
20
6.81845800695646
30
0
41
1
10
7.37327716685331
20
7.06976796759346
30
0
41
1
10
7.17766676927198
20
7.15234614502248
30
0
41
1
10
6.78822641505641
20
7.31497565986297
30
0
41
1
10
6.5940417420363
20
7.39516837862797
30
0
41
1
10
6.01806416176191
20
7.63038287159654
30
0
41
1
10
5.64283818784935
20
7.7799204344139
30
0
41
1
10
5.09784380643134
20
7.99370074315129
30
0
41
1
10
4.91881022572747
20
8.06327046873659
30
0
41
1
10
4.57160557766224
20
8.19695893760925
30
0
41
1
10
4.40325057949926
20
8.26116556573871
30
0
41
1
10
4.07963005727973
20
8.38362976798331
30
0
41
1
10
3.92433865903931
20
8.44189516084504
30
0
41
1
10
3.63074919121431
20
8.55139191997282
30
0
41
1
10
3.49239056163953
20
8.60264197060965
30
0
41
1
10
3.23909405543367
20
8.69623810504271
30
0
41
1
10
3.12356431964938
20
8.73878746883977
30
0
41
1
10
2.98217873202535
20
8.79139790924796
30
0
41
1
10
2.94011559653836
20
8.8071636335994
30
0
41
1
10
2.86764122026753
20
8.83475919961899
30
0
41
1
10
2.83709680651793
20
8.84664776481225
30
0
41
1
10
2.79484185908302
20
8.86387843913963
30
0
41
1
10
2.78065565485301
20
8.87003119596483
30
0
41
1
10
2.77142941355928
20
8.87459618220072
30
0
0
SPLINE
5
C2
100
AcDbEntity
8
1
62
256
6
ByLayer
370
18
48
1
60
0
100
AcDbSpline
70
4
71
3
72
10
73
6
40
0
40
0
40
0
40
0
40
0.303568249985735
40
0.303568249985735
40
1
40
1
40
1
40
1
41
1
10
2.78328967499058
20
8.88172536784148
30
0
41
1
10
2.79038625261345
20
8.88043917076192
30
0
41
1
10
2.79901444161536
20
8.87869022773464
30
0
41
1
10
2.83240834308845
20
8.87144103714925
30
0
41
1
10
2.86350809082404
20
8.86405104388976
30
0
41
1
10
2.90211131781641
20
8.85452526579331
30
0
0
SPLINE
5
C3
100
AcDbEntity
8
1
62
256
6
ByLayer
370
18
48
1
60
0
100
AcDbSpline
70
4
71
3
72
12
73
8
40
0
40
0
40
0
40
0
40
0.500000000000004
40
0.500000000000004
40
0.750000000000002
40
0.750000000000002
40
1
40
1
40
1
40
1
41
1
10
80.4422481290509
20
2.15984009047278
30
0
41
1
10
80.5876836821402
20
1.87816462056043
30
0
41
1
10
80.7056032709206
20
1.5919365690871
30
0
41
1
10
80.8415495574623
20
1.15582201394912
30
0
41
1
10
80.8801604028787
20
1.00886037114853
30
0
41
1
10
80.9436537363985
20
0.715520334678331
30
0
41
1
10
80.9685987798708
20
0.569153253193548
30
0
41
1
10
80.987384324503
20
0.42306050894905
30
0
0
SPLINE
5
C4
100
AcDbEntity
8
1
62
256
6
ByLayer
370
18
48
1
60
0
100
AcDbSpline
70
4
71
3
72
10
73
6
40
0
40
0
40
0
40
0
40
0.5
40
0.5
40
1
40
1
40
1
40
1
41
1
10
80.987384324503
20
0.42306050894905
30
0
41
1
10
80.9655487556819
20
0.790917874635568
30
0
41
1
10
80.9155085808291
20
1.16025882286698
30
0
41
1
10
80.7670993945538
20
1.92346001087651
30
0
41
1
10
80.6689284280171
20
2.31727547636845
30
0
41
1
10
80.5512231645919
20
2.73271646688085
30
0
0
SPLINE
5
C5
100
AcDbEntity
8
1
62
256
6
ByLayer
370
18
48
1
60
0
100
AcDbSpline
70
4
71
3
72
8
73
4
40
0
40
0
40
0
40
0
40
1
40
1
40
1
40
1
41
1
10
77.9851639266853
20
-9.01061390171358
30
0
41
1
10
77.9364729046696
20
-9.13562046238951
30
0
41
1
10
77.8876216846945
20
-9.26039053465587
30
0
41
1
10
77.8386067017609
20
-9.3849218733364
30
0
0
SPLINE
5
C6
100
AcDbEntity
8
1
62
256
6
ByLayer
370
18
48
1
60
0
100
AcDbSpline
70
4
71
3
72
10
73
6
40
0
40
0
40
0
40
0
40
0.5
40
0.5
40
1
40
1
40
1
40
1
41
1
10
78.2194063801372
20
-9.1358664115599
30
0
41
1
10
78.1589819650255
20
-9.20243295599354
30
0
41
1
10
78.09712730462
20
-9.25663731860072
30
0
41
1
10
77.9701174381778
20
-9.33994033294792
30
0
41
1
10
77.9046833014596
20
-9.3690160758961
30
0
41
1
10
77.8386067017609
20
-9.3849218733364
30
0
0
SPLINE
5
C7
100
AcDbEntity
8
1
62
256
6
ByLayer
370
18
48
1
60
0
100
AcDbSpline
70
4
71
3
72
8
73
4
40
0
40
0
40
0
40
0
40
1
40
1
40
1
40
1
41
1
10
80.5512231645919
20
2.73271646688085
30
0
41
1
10
80.5204439448974
20
2.54012067783859
30
0
41
1
10
80.4838582948241
20
2.34920871734928
30
0
41
1
10
80.4422481290508
20
2.15984009047278
30
0
0
SPLINE
5
C8
100
AcDbEntity
8
1
62
256
6
ByLayer
370
13
48
1
60
0
100
AcDbSpline
70
4
71
3
72
8
73
4
40
0
40
0
40
0
40
0
40
1
40
1
40
1
40
1
41
1
10
1.46974560991322
20
-3.01029546530998
30
0
41
1
10
1.42962807439693
20
-2.99867201158941
30
0
41
1
10
1.39024022524359
20
-2.99053426885126
30
0
41
1
10
1.35428571122571
20
-2.98644378805108
30
0
0
SPLINE
5
C9
100
AcDbEntity
8
1
62
256
6
ByLayer
370
18
48
1
60
0
100
AcDbSpline
70
4
71
3
72
14
73
10
40
0
40
0
40
0
40
0
40
0.125
40
0.125
40
0.250000000000001
40
0.250000000000001
40
0.500000000000002
40
0.500000000000002
40
1
40
1
40
1
40
1
41
1
10
80.5512231645964
20
-2.73271646686504
30
0
41
1
10
80.5807154276846
20
-2.62862345833406
30
0
41
1
10
80.6091232223972
20
-2.5253445705103
30
0
41
1
10
80.6631607928554
20
-2.32184824163474
30
0
41
1
10
80.6888570904941
20
-2.2213989349662
30
0
41
1
10
80.7617951171848
20
-1.923479657722
30
0
41
1
10
80.804886629421
20
-1.72944212176705
30
0
41
1
10
80.9159777208904
20
-1.15722915568625
30
0
41
1
10
80.9656602436697
20
-0.789039669499033
30
0
41
1
10
80.987384324503
20
-0.423060508949192
30
0
0
SPLINE
5
CA
100
AcDbEntity
8
1
62
256
6
ByLayer
370
18
48
1
60
0
100
AcDbSpline
70
4
71
3
72
32
73
28
40
0
40
0
40
0
40
0
40
0.148200659169871
40
0.148200659169871
40
0.252201144778783
40
0.252201144778783
40
0.356201630387694
40
0.356201630387694
40
0.564202601605516
40
0.564202601605516
40
0.772203572823338
40
0.772203572823338
40
0.876204058432249
40
0.876204058432249
40
0.928204301236704
40
0.928204301236704
40
0.954204422638932
40
0.960704452989489
40
0.960704452989489
40
0.967204483340046
40
0.967204483340046
40
0.98020454404116
40
0.98020454404116
40
0.986704574391717
40
0.986704574391717
40
0.993204604742273
40
1
40
1
40
1
40
1
41
1
10
19.911163935048
20
9.36293315712012
30
0
41
1
10
19.911163935048
20
8.91981501449931
30
0
41
1
10
19.911163935048
20
8.47466323009633
30
0
41
1
10
19.911163935048
20
7.71374626067274
30
0
41
1
10
19.911163935048
20
7.39885846863118
30
0
41
1
10
19.911163935048
20
6.76760745941255
30
0
41
1
10
19.911163935048
20
6.45527702283081
30
0
41
1
10
19.911163935048
20
5.52765578217853
30
0
41
1
10
19.911163935048
20
4.92168584325606
30
0
41
1
10
19.911163935048
20
3.73331256430808
30
0
41
1
10
19.911163935048
20
3.15051706216883
30
0
41
1
10
19.911163935048
20
2.29538450015645
30
0
41
1
10
19.911163935048
20
2.01542997704914
30
0
41
1
10
19.911163935048
20
1.60300343063295
30
0
41
1
10
19.911163935048
20
1.46677938064926
30
0
41
1
10
19.911163935048
20
1.26431792987674
30
0
41
1
10
19.911163935048
20
1.18039502664516
30
0
41
1
10
19.911163935048
20
1.09701536251481
30
0
41
1
10
19.911163935048
20
1.06370693183788
30
0
41
1
10
19.911163935048
20
1.04672460140964
30
0
41
1
10
19.911163935048
20
0.998370839155967
30
0
41
1
10
19.911163935048
20
0.972064983796713
30
0
41
1
10
19.911163935048
20
0.94506201044544
30
0
41
1
10
19.911163935048
20
0.938951094874398
30
0
41
1
10
19.911163935048
20
0.928545827803049
30
0
41
1
10
19.911163935048
20
0.917992034491789
30
0
41
1
10
19.911163935048
20
0.907618217980541
30
0
41
1
10
19.911163935048
20
0.902363157160323
30
0
0
SPLINE
5
CB
100
AcDbEntity
8
1
62
256
6
ByLayer
370
18
48
1
60
0
100
AcDbSpline
70
4
71
3
72
45
73
41
40
0
40
0
40
0
40
0
40
0.124999999999991
40
0.124999999999991
40
0.187499999999988
40
0.187499999999988
40
0.249999999999985
40
0.249999999999985
40
0.374999999999979
40
0.374999999999979
40
0.499999999999972
40
0.499999999999972
40
0.562499999999971
40
0.562499999999971
40
0.593749999999971
40
0.593749999999971
40
0.624999999999972
40
0.624999999999972
40
0.749999999999979
40
0.749999999999979
40
0.812499999999982
40
0.812499999999982
40
0.843749999999982
40
0.843749999999982
40
0.859374999999984
40
0.859374999999984
40
0.867187499999985
40
0.867187499999985
40
0.874999999999986
40
0.874999999999986
40
0.878906249999986
40
0.878906249999986
40
0.882812499999987
40
0.882812499999987
40
0.890624999999987
40
0.906249999999989
40
0.906249999999989
40
0.937499999999993
40
0.937499999999993
40
1
40
1
40
1
40
1
41
1
10
68.9146143571374
20
3.61402051089325
30
0
41
1
10
69.2822850328333
20
3.27175699781978
30
0
41
1
10
69.6611636412315
20
2.95136276503624
30
0
41
1
10
70.2461061322618
20
2.50320983025063
30
0
41
1
10
70.4438635653081
20
2.35924331552977
30
0
41
1
10
70.8451176578752
20
2.0825088501542
30
0
41
1
10
71.0492312398894
20
1.94950468035543
30
0
41
1
10
71.6667845131733
20
1.57086920779318
30
0
41
1
10
72.0819648536342
20
1.34718034788381
30
0
41
1
10
72.9192625663672
20
0.957112884272334
30
0
41
1
10
73.3413594951808
20
0.790565387031307
30
0
41
1
10
73.9802582885823
20
0.588275830142777
30
0
41
1
10
74.1942123211126
20
0.529006419129445
30
0
41
1
10
74.5167479445609
20
0.453358488679015
30
0
41
1
10
74.6245250960044
20
0.430334096245161
30
0
41
1
10
74.8406345273592
20
0.388871502646168
30
0
41
1
10
74.9491796044093
20
0.370403031394858
30
0
41
1
10
75.4903110912535
20
0.290581819288803
30
0
41
1
10
75.9176690444363
20
0.266181150095036
30
0
41
1
10
76.5488816090837
20
0.299458745690686
30
0
41
1
10
76.7579447929988
20
0.322408048811411
30
0
41
1
10
77.0651595401646
20
0.376324408871767
30
0
41
1
10
77.1666313853344
20
0.397552869511969
30
0
41
1
10
77.3173384545325
20
0.434632876831301
30
0
41
1
10
77.3673411211573
20
0.44786657520001
30
0
41
1
10
77.4419140546492
20
0.469015697584467
30
0
41
1
10
77.4671983493045
20
0.474935089707884
30
0
41
1
10
77.5132292000736
20
0.498795609743581
30
0
41
1
10
77.5332637602737
20
0.517487031393443
30
0
41
1
10
77.5515831155711
20
0.555592681066486
30
0
41
1
10
77.5554447305819
20
0.570399574023355
30
0
41
1
10
77.5593576705901
20
0.60128631232854
30
0
41
1
10
77.5601036828984
20
0.617242521797863
30
0
41
1
10
77.5641154706352
20
0.664390718580478
30
0
41
1
10
77.5715696602157
20
0.758881595327182
30
0
41
1
10
77.5773573118673
20
0.853930976948192
30
0
41
1
10
77.5868153032037
20
1.04457713001722
30
0
41
1
10
77.5903047713047
20
1.17246043349513
30
0
41
1
10
77.5931470886829
20
1.5582386811291
30
0
41
1
10
77.5848939333507
20
1.81717305206664
30
0
41
1
10
77.5685064093507
20
2.07652897529698
30
0
0
SPLINE
5
CC
100
AcDbEntity
8
1
62
256
6
ByLayer
370
18
48
1
60
0
100
AcDbSpline
70
4
71
3
72
66
73
62
40
0
40
0
40
0
40
0
40
0.0215796276849079
40
0.0215796276849079
40
0.0431592553698159
40
0.0431592553698159
40
0.0863185107396312
40
0.0863185107396312
40
0.107898138424539
40
0.107898138424539
40
0.129477766109447
40
0.129477766109447
40
0.172637021479262
40
0.172637021479262
40
0.215796276849077
40
0.215796276849077
40
0.258955532218892
40
0.258955532218892
40
0.302114787588708
40
0.302114787588708
40
0.323694415273615
40
0.323694415273615
40
0.345274042958523
40
0.345274042958523
40
0.388433298328338
40
0.388433298328338
40
0.431592553698154
40
0.431592553698154
40
0.474751809067969
40
0.474751809067969
40
0.496331436752876
40
0.496331436752876
40
0.517911064437784
40
0.517911064437784
40
0.561070319807598
40
0.561070319807598
40
0.582649947492506
40
0.582649947492506
40
0.604229575177414
40
0.604229575177414
40
0.647388830547229
40
0.647388830547229
40
0.690548085917044
40
0.690548085917044
40
0.776866596656675
40
0.776866596656675
40
0.798446224341583
40
0.798446224341583
40
0.820025852026491
40
0.820025852026491
40
0.863185107396306
40
0.863185107396306
40
0.884764735081214
40
0.884764735081214
40
0.906344362766123
40
0.906344362766123
40
0.949503618135939
40
0.949503618135939
40
0.992662873505755
40
0.992662873505755
40
1
40
1
40
1
40
1
41
1
10
77.8386067017609
20
-9.3849218733364
30
0
41
1
10
77.4400281326639
20
-9.39683563073248
30
0
41
1
10
77.0414854534744
20
-9.40127225835101
30
0
41
1
10
76.2440783600058
20
-9.39519599936074
30
0
41
1
10
75.8450715178775
20
-9.38466878494282
30
0
41
1
10
74.6496738057326
20
-9.33082335361161
30
0
41
1
10
73.8541272760666
20
-9.26525218373067
30
0
41
1
10
72.660402401077
20
-9.12323528922227
30
0
41
1
10
72.2624291890243
20
-9.06861641566491
30
0
41
1
10
71.4658421015619
20
-8.945020175998
30
0
41
1
10
71.0670098312398
20
-8.87597171831837
30
0
41
1
10
69.8707968735795
20
-8.64789818079561
30
0
41
1
10
69.0749626912643
20
-8.46822937737596
30
0
41
1
10
67.4832644323848
20
-8.05656550281398
30
0
41
1
10
66.6874049359601
20
-7.82456243616545
30
0
41
1
10
65.0922462502729
20
-7.31124397734331
30
0
41
1
10
64.2955909188975
20
-7.03076409778552
30
0
41
1
10
62.7036837842189
20
-6.42795927224967
30
0
41
1
10
61.9079534520966
20
-6.10544265661963
30
0
41
1
10
60.7122836709743
20
-5.5931884245602
30
0
41
1
10
60.3131548340567
20
-5.4175617314572
30
0
41
1
10
59.5160227215643
20
-5.05859744272544
30
0
41
1
10
59.1178134159724
20
-4.87512697323839
30
0
41
1
10
57.9235849297824
20
-4.31385105960752
30
0
41
1
10
57.1279608931262
20
-3.92519131832685
30
0
41
1
10
55.5345548530608
20
-3.12421137154041
30
0
41
1
10
54.7361037833629
20
-2.71167192249078
30
0
41
1
10
53.143214615463
20
-1.87424778531778
30
0
41
1
10
52.3475662302713
20
-1.44890497324454
30
0
41
1
10
51.152908284842
20
-0.805287666390427
30
0
41
1
10
50.7544831593577
20
-0.589829409232152
30
0
41
1
10
49.9567371691991
20
-0.157962272020114
30
0
41
1
10
49.5577626487485
20
0.0583695659007617
30
0
41
1
10
48.3624980379316
20
0.705763113235662
30
0
41
1
10
47.5667722625692
20
1.13569996946481
30
0
41
1
10
46.3723564772967
20
1.7735184121872
30
0
41
1
10
45.9740817001839
20
1.9849464648631
30
0
41
1
10
45.1768316395103
20
2.40466023577019
30
0
41
1
10
44.7775838919233
20
2.61308446910201
30
0
41
1
10
43.5815106119797
20
3.2307614977386
30
0
41
1
10
42.7856205072565
20
3.63280127867617
30
0
41
1
10
41.193255532274
20
4.41135189888851
30
0
41
1
10
40.3964118481411
20
4.78800883472951
30
0
41
1
10
38.002279850981
20
5.87037810102464
30
0
41
1
10
36.4134105412149
20
6.52309813013861
30
0
41
1
10
34.4187687601911
20
7.22856085777818
30
0
41
1
10
34.0196291961752
20
7.36409694838295
30
0
41
1
10
33.2225618994
20
7.62286505660131
30
0
41
1
10
32.824336793996
20
7.74619150479253
30
0
41
1
10
31.6298451110305
20
8.09727643509603
30
0
41
1
10
30.8337858418663
20
8.30617351306304
30
0
41
1
10
29.6376799250931
20
8.5794974713325
30
0
41
1
10
29.2383565694323
20
8.66399563116065
30
0
41
1
10
28.4407545944956
20
8.81887240080871
30
0
41
1
10
28.042345302473
20
8.88928195116847
30
0
41
1
10
26.8475180967132
20
9.07905047431967
30
0
41
1
10
26.0515496800007
20
9.17698437444341
30
0
41
1
10
24.4574633279361
20
9.31427358749281
30
0
41
1
10
23.658639200763
20
9.35357641562243
30
0
41
1
10
22.7262649763344
20
9.36453961126799
30
0
41
1
10
22.5908176449988
20
9.3652722993636
30
0
41
1
10
22.4553886294844
20
9.36514564693513
30
0
0
SPLINE
5
CD
100
AcDbEntity
8
1
62
256
6
ByLayer
370
18
48
1
60
0
100
AcDbSpline
70
4
71
3
72
14
73
10
40
0
40
0
40
0
40
0
40
0.14967820954097
40
0.14967820954097
40
0.29935641908194
40
0.29935641908194
40
0.59871283816388
40
0.59871283816388
40
1
40
1
40
1
40
1
41
1
10
1.42363035366256
20
-3.12740733967323
30
0
41
1
10
1.82533751478235
20
-3.3227711754987
30
0
41
1
10
2.22691716664861
20
-3.5155603972662
30
0
41
1
10
3.03021061577752
20
-3.8953136000238
30
0
41
1
10
3.43190430938188
20
-4.0822605196754
30
0
41
1
10
4.63291116719182
20
-4.63112159293578
30
0
41
1
10
5.42994282254895
20
-4.98163991269311
30
0
41
1
10
7.29055700833544
20
-5.76051774325722
30
0
41
1
10
8.35227694508069
20
-6.17510354107304
30
0
41
1
10
9.41404530651928
20
-6.55275250067774
30
0
0
SPLINE
5
CE
100
AcDbEntity
8
1
62
256
6
ByLayer
370
13
48
1
60
0
100
AcDbSpline
70
4
71
3
72
14
73
10
40
0
40
0
40
0
40
0
40
0.102725991677816
40
0.102725991677816
40
0.414252581121018
40
0.414252581121018
40
0.725779170564219
40
0.725779170564219
40
1
40
1
40
1
40
1
41
1
10
9.41404473536511
20
-6.55275229753005
30
0
41
1
10
9.93641483137523
20
-6.73854850070771
30
0
41
1
10
10.4587966481929
20
-6.91540430780285
30
0
41
1
10
12.5673098796136
20
-7.58993323212803
30
0
41
1
10
14.1566492416762
20
-8.00981771144833
30
0
41
1
10
17.3693490071246
20
-8.64123470520624
30
0
41
1
10
18.9621301841643
20
-8.84670335904039
30
0
41
1
10
21.9533607542319
20
-9.01977190379677
30
0
41
1
10
23.3523598528899
20
-9.01286016650147
30
0
41
1
10
24.7589743991526
20
-8.91726971900385
30
0
0
SPLINE
5
CF
100
AcDbEntity
8
1
62
256
6
ByLayer
370
18
48
1
60
0
100
AcDbSpline
70
4
71
3
72
22
73
18
40
0
40
0
40
0
40
0
40
0.250000000000001
40
0.250000000000001
40
0.375
40
0.375
40
0.4375
40
0.4375
40
0.5
40
0.5
40
0.750000000000001
40
0.750000000000001
40
0.812500000000001
40
0.812500000000001
40
0.875000000000001
40
0.875000000000001
40
1
40
1
40
1
40
1
41
1
10
76.1903487015255
20
-6.60371654976845
30
0
41
1
10
76.3397707721684
20
-7.00214946734948
30
0
41
1
10
76.4913636100363
20
-7.35106179930736
30
0
41
1
10
76.7211616735271
20
-7.80299551256269
30
0
41
1
10
76.7981779016634
20
-7.94164222924533
30
0
41
1
10
76.9143490309342
20
-8.13115146547767
30
0
41
1
10
76.9532874756064
20
-8.19138801990428
30
0
41
1
10
77.0307673670686
20
-8.30465008704746
30
0
41
1
10
77.0693049395322
20
-8.35769361175778
30
0
41
1
10
77.2610321376781
20
-8.60528327762219
30
0
41
1
10
77.4113203687413
20
-8.74744404204029
30
0
41
1
10
77.5963013360778
20
-8.8550585992727
30
0
41
1
10
77.6331549126442
20
-8.87304608116972
30
0
41
1
10
77.7066080746666
20
-8.90181732512309
30
0
41
1
10
77.7432730517133
20
-8.91261118188515
30
0
41
1
10
77.8524216928507
20
-8.93381844672945
30
0
41
1
10
77.9239270606388
20
-8.93312122853101
30
0
41
1
10
77.9943578277489
20
-8.91750101630021
30
0
0
SPLINE
5
D0
100
AcDbEntity
8
1
62
256
6
ByLayer
370
18
48
1
60
0
100
AcDbSpline
70
4
71
3
72
10
73
6
40
0
40
0
40
0
40
0
40
0.5
40
0.5
40
1
40
1
40
1
40
1
41
1
10
80.9838153656017
20
0.215982253875154
30
0
41
1
10
80.9830530404931
20
0.194922848993201
30
0
41
1
10
80.9843468467418
20
0.170219407176404
30
0
41
1
10
80.9898981570081
20
0.118069627469197
30
0
41
1
10
80.9941390014395
20
0.0904243293208538
30
0
41
1
10
80.9997331071168
20
0.0613914507059405
30
0
0
SPLINE
5
D1
100
AcDbEntity
8
1
62
256
6
ByLayer
370
18
48
1
60
0
100
AcDbSpline
70
4
71
3
72
10
73
6
40
0
40
0
40
0
40
0
40
0.5
40
0.5
40
1
40
1
40
1
40
1
41
1
10
78.219406380138
20
9.13586641155896
30
0
41
1
10
78.1589788133203
20
9.20243642806903
30
0
41
1
10
78.0971319631753
20
9.25663061920437
30
0
41
1
10
77.970163602682
20
9.33991369714451
30
0
41
1
10
77.9047301451099
20
9.36900479980721
30
0
41
1
10
77.8386067017609
20
9.3849218733364
30
0
0
SPLINE
5
D2
100
AcDbEntity
8
1
62
256
6
ByLayer
370
18
48
1
60
0
100
AcDbSpline
70
4
71
3
72
10
73
6
40
0
40
0
40
0
40
0
40
0.5
40
0.5
40
1
40
1
40
1
40
1
41
1
10
80.9997331071168
20
0.0613914507059405
30
0
41
1
10
80.9944631585481
20
0.0391159547257587
30
0
41
1
10
80.9872966516077
20
0.0158637387195313
30
0
41
1
10
80.9701809074805
20
-0.027171856345575
30
0
41
1
10
80.960080739167
20
-0.04729847527787
30
0
41
1
10
80.9496054047456
20
-0.063787675992927
30
0
0
SPLINE
5
D3
100
AcDbEntity
8
1
62
256
6
ByLayer
370
18
48
1
60
0
100
AcDbSpline
70
4
71
3
72
92
73
88
40
0
40
0
40
0
40
0
40
0.0336224879371952
40
0.0336224879371952
40
0.050433731905793
40
0.050433731905793
40
0.0672449758743909
40
0.0672449758743909
40
0.100867463811587
40
0.100867463811587
40
0.134489951748782
40
0.134489951748782
40
0.168112439685978
40
0.168112439685978
40
0.184923683654576
40
0.184923683654576
40
0.201734927623175
40
0.201734927623175
40
0.218546171591773
40
0.218546171591773
40
0.235357415560371
40
0.235357415560371
40
0.268979903497567
40
0.268979903497567
40
0.285791147466166
40
0.285791147466166
40
0.302602391434764
40
0.302602391434764
40
0.33622487937196
40
0.33622487937196
40
0.369847367309156
40
0.369847367309156
40
0.403469855246353
40
0.403469855246353
40
0.420281099214951
40
0.420281099214951
40
0.437092343183549
40
0.437092343183549
40
0.453903587152147
40
0.453903587152147
40
0.470714831120745
40
0.470714831120745
40
0.504337319057942
40
0.504337319057942
40
0.52114856302654
40
0.52114856302654
40
0.537959806995139
40
0.537959806995139
40
0.571582294932336
40
0.571582294932336
40
0.605204782869534
40
0.605204782869534
40
0.638827270806731
40
0.638827270806731
40
0.65563851477533
40
0.65563851477533
40
0.672449758743929
40
0.672449758743929
40
0.689261002712528
40
0.689261002712528
40
0.706072246681126
40
0.706072246681126
40
0.739694734618324
40
0.739694734618324
40
0.756505978586923
40
0.756505978586923
40
0.773317222555522
40
0.773317222555522
40
0.806939710492719
40
0.806939710492719
40
0.840562198429917
40
0.840562198429917
40
0.874184686367114
40
0.874184686367114
40
0.890995930335713
40
0.890995930335713
40
0.907807174304312
40
0.907807174304312
40
0.92461841827291
40
0.92461841827291
40
0.941429662241509
40
0.941429662241509
40
0.975052150178707
40
0.975052150178707
40
0.991863394147306
40
0.991863394147306
40
1
40
1
40
1
40
1
41
1
10
19.911163935048
20
9.36293315712422
30
0
41
1
10
20.5231868697252
20
9.35946292414954
30
0
41
1
10
21.1341378073222
20
9.33831367752813
30
0
41
1
10
22.0479441649562
20
9.28119189921117
30
0
41
1
10
22.3520795133245
20
9.2578939191599
30
0
41
1
10
22.9591041390269
20
9.20267413662339
30
0
41
1
10
23.2618671442155
20
9.17068030478393
30
0
41
1
10
24.170333410695
20
9.06249288176778
30
0
41
1
10
24.7759099535997
20
8.97414469974555
30
0
41
1
10
25.9855506590789
20
8.76476566552475
30
0
41
1
10
26.5888601999711
20
8.64304346159363
30
0
41
1
10
27.7985999149931
20
8.36973778494368
30
0
41
1
10
28.4045499133436
20
8.21800927017094
30
0
41
1
10
29.3139930436814
20
7.96652918176343
30
0
41
1
10
29.6170446368215
20
7.87849678947995
30
0
41
1
10
30.2245486723251
20
7.69557540969254
30
0
41
1
10
30.5289350272706
20
7.60064341820265
30
0
41
1
10
31.1388187993606
20
7.4036763972079
30
0
41
1
10
31.4443015570322
20
7.30162406975629
30
0
41
1
10
32.056218147966
20
7.09011295700719
30
0
41
1
10
32.3629508137621
20
6.98045593274324
30
0
41
1
10
33.2797371651603
20
6.6417205588177
30
0
41
1
10
33.8893937321515
20
6.40501969605799
30
0
41
1
10
34.8015775048323
20
6.03411671507413
30
0
41
1
10
35.1052180997797
20
5.9077829156171
30
0
41
1
10
35.7114214269983
20
5.6493578476807
30
0
41
1
10
36.0138245464996
20
5.51701102916621
30
0
41
1
10
36.9213589599823
20
5.11429476154595
30
0
41
1
10
37.5264742068681
20
4.83780868582005
30
0
41
1
10
38.7355044094185
20
4.26680731720234
30
0
41
1
10
39.3386769985887
20
3.97094970218407
30
0
41
1
10
40.5484955349785
20
3.36889649788972
30
0
41
1
10
41.1546397188107
20
3.06194597153197
30
0
41
1
10
42.0646080198176
20
2.59048808010519
30
0
41
1
10
42.3678810313494
20
2.43115148796585
30
0
41
1
10
42.9759302810904
20
2.11105235942011
30
0
41
1
10
43.2806300793686
20
1.95015999838523
30
0
41
1
10
43.8912197144355
20
1.62638748003977
30
0
41
1
10
44.1970955404149
20
1.46348009413035
30
0
41
1
10
44.8098825208225
20
1.13531418509183
30
0
41
1
10
45.1159737856882
20
0.970353782276959
30
0
41
1
10
46.031154722447
20
0.474235543275512
30
0
41
1
10
46.6399288664004
20
0.144930440861742
30
0
41
1
10
47.5509693095472
20
-0.347271155901211
30
0
41
1
10
47.8542643036668
20
-0.511104942169567
30
0
41
1
10
48.4598420465492
20
-0.838763433930211
30
0
41
1
10
48.7619730067426
20
-1.0028699252253
30
0
41
1
10
49.668820141498
20
-1.49143711997022
30
0
41
1
10
50.2736173882469
20
-1.81288922088967
30
0
41
1
10
51.4822866053935
20
-2.44994252106559
30
0
41
1
10
52.0854251980228
20
-2.76683483443094
30
0
41
1
10
53.2954862818463
20
-3.38610407008895
30
0
41
1
10
53.9018910273828
20
-3.68946543608055
30
0
41
1
10
54.8124614735574
20
-4.13694736827006
30
0
41
1
10
55.115976701002
20
-4.28513177562175
30
0
41
1
10
55.7245986760222
20
-4.57673613896796
30
0
41
1
10
56.0296214423294
20
-4.72030774232783
30
0
41
1
10
56.6409283959918
20
-5.0032676589982
30
0
41
1
10
56.9476125993521
20
-5.14286269296946
30
0
41
1
10
57.559881058829
20
-5.41710759404364
30
0
41
1
10
57.8652209742307
20
-5.55178072012723
30
0
41
1
10
58.7789921605437
20
-5.94820079513397
30
0
41
1
10
59.3869958704437
20
-6.19954795468925
30
0
41
1
10
60.2970614955805
20
-6.55814701839489
30
0
41
1
10
60.6000655286018
20
-6.67464182375016
30
0
41
1
10
61.2051255688294
20
-6.90186304387254
30
0
41
1
10
61.5070354391075
20
-7.01275605719619
30
0
41
1
10
62.4133365607201
20
-7.33421101395049
30
0
41
1
10
63.0179048551783
20
-7.53418743414912
30
0
41
1
10
64.2263825114179
20
-7.90735830223463
30
0
41
1
10
64.8295651666174
20
-8.08113048006877
30
0
41
1
10
66.0400064836313
20
-8.39671325466938
30
0
41
1
10
66.6467364434721
20
-8.53921330139488
30
0
41
1
10
67.5580010361878
20
-8.73055992547188
30
0
41
1
10
67.8617871591463
20
-8.79068965251258
30
0
41
1
10
68.4710327530812
20
-8.90242723721104
30
0
41
1
10
68.7764027924869
20
-8.95411964747166
30
0
41
1
10
69.3884741391163
20
-9.04924773517504
30
0
41
1
10
69.6952198920833
20
-9.092685161502
30
0
41
1
10
70.3068559371803
20
-9.1709252426152
30
0
41
1
10
70.6120551218595
20
-9.20581632227865
30
0
41
1
10
71.525972277203
20
-9.29764302402367
30
0
41
1
10
72.134868057786
20
-9.34114813958297
30
0
41
1
10
73.0473594572969
20
-9.38058392448752
30
0
41
1
10
73.3513567808199
20
-9.38942060734166
30
0
41
1
10
73.8020493147909
20
-9.39611142587023
30
0
41
1
10
73.948939364577
20
-9.39727391993102
30
0
41
1
10
74.0958224027918
20
-9.39741627662946
30
0
0
SPLINE
5
D4
100
AcDbEntity
8
1
62
256
6
ByLayer
370
13
48
1
60
0
100
AcDbSpline
70
4
71
3
72
48
73
44
40
0
40
0
40
0
40
0
40
0.034248320996337
40
0.034248320996337
40
0.068496641992674
40
0.068496641992674
40
0.136993283985348
40
0.136993283985348
40
0.205489925978022
40
0.205489925978022
40
0.273986567970696
40
0.273986567970696
40
0.308234888967033
40
0.308234888967033
40
0.34248320996337
40
0.34248320996337
40
0.410979851956044
40
0.410979851956044
40
0.445228172952381
40
0.445228172952381
40
0.479476493948718
40
0.479476493948718
40
0.547973135941392
40
0.547973135941392
40
0.582221456937729
40
0.582221456937729
40
0.616469777934066
40
0.616469777934066
40
0.684966419926741
40
0.684966419926741
40
0.719214740923078
40
0.719214740923078
40
0.753463061919415
40
0.753463061919415
40
0.821959703912089
40
0.821959703912089
40
0.890456345904763
40
0.890456345904763
40
0.924704666901101
40
0.924704666901101
40
0.958952987897438
40
0.958952987897438
40
1
40
1
40
1
40
1
41
1
10
1.46974560991322
20
-3.01029546530998
30
0
41
1
10
1.46975043444473
20
-2.82757861884798
30
0
41
1
10
1.4697544429992
20
-2.64249041962495
30
0
41
1
10
1.46976100354431
20
-2.27014940156127
30
0
41
1
10
1.46976355476494
20
-2.08316762316468
30
0
41
1
10
1.46976941018522
20
-1.51984556078557
30
0
41
1
10
1.46977092055403
20
-1.1411382464083
30
0
41
1
10
1.46977106108938
20
-0.377462484644809
30
0
41
1
10
1.46976968486069
20
0.007776653782031
30
0
41
1
10
1.46976586952619
20
0.783676645633506
30
0
41
1
10
1.46976347014555
20
1.16845838060348
30
0
41
1
10
1.46976048907396
20
1.74090646050246
30
0
41
1
10
1.4697595960549
20
1.93131230553146
30
0
41
1
10
1.46975823358235
20
2.30662424415755
30
0
41
1
10
1.46975776138976
20
2.49194178258355
30
0
41
1
10
1.46975722830081
20
3.04101968368502
30
0
41
1
10
1.46975805799963
20
3.39793349414455
30
0
41
1
10
1.4697619468408
20
3.91962965793826
30
0
41
1
10
1.46976368189684
20
4.09124222794421
30
0
41
1
10
1.46976815410898
20
4.42981296032187
30
0
41
1
10
1.46977090116397
20
4.59722022525349
30
0
41
1
10
1.46978073288523
20
5.0883665524382
30
0
41
1
10
1.46978939727208
20
5.40089737932922
30
0
41
1
10
1.46980576924773
20
5.84732086403116
30
0
41
1
10
1.4698117793354
20
5.99207067774975
30
0
41
1
10
1.46982476826381
20
6.27109583138179
30
0
41
1
10
1.46983176027317
20
6.40574675944552
30
0
41
1
10
1.46985413945825
20
6.79535280529498
30
0
41
1
10
1.46987093888185
20
7.03602049136947
30
0
41
1
10
1.46989844618869
20
7.36827376035657
30
0
41
1
10
1.46990799781633
20
7.4742187295108
30
0
41
1
10
1.46992775105548
20
7.67628646174745
30
0
41
1
10
1.46993796345379
20
7.77243716380613
30
0
41
1
10
1.46996887978696
20
8.04178529131559
30
0
41
1
10
1.4699900161425
20
8.19755913562733
30
0
41
1
10
1.47003184985204
20
8.46288263329936
30
0
41
1
10
1.47005255160803
20
8.57243081358141
30
0
41
1
10
1.47008196597233
20
8.70133126281908
30
0
41
1
10
1.47009150889127
20
8.73842191774864
30
0
41
1
10
1.47010972886207
20
8.80020401809486
30
0
41
1
10
1.47011833103576
20
8.82466008096296
30
0
41
1
10
1.47013589281437
20
8.86462995217073
30
0
41
1
10
1.4701445867336
20
8.87743248158807
30
0
41
1
10
1.47015220569816
20
8.88131049994644
30
0
0
SPLINE
5
D5
100
AcDbEntity
8
1
62
256
6
ByLayer
370
18
48
1
60
0
100
AcDbSpline
70
4
71
3
72
72
73
68
40
0
40
0
40
0
40
0
40
0.0315131757083852
40
0.0315131757083852
40
0.0687626689503693
40
0.0687626689503693
40
0.106012162192353
40
0.106012162192353
40
0.143261655434337
40
0.143261655434337
40
0.16188640205533
40
0.16188640205533
40
0.180511148676322
40
0.180511148676322
40
0.217760641918306
40
0.217760641918306
40
0.255010135160291
40
0.255010135160291
40
0.273634881781284
40
0.273634881781284
40
0.292259628402276
40
0.292259628402276
40
0.329509121644261
40
0.329509121644261
40
0.366758614886246
40
0.366758614886246
40
0.404008108128231
40
0.404008108128231
40
0.422632854749223
40
0.422632854749223
40
0.441257601370216
40
0.441257601370216
40
0.4785070946122
40
0.4785070946122
40
0.515756587854185
40
0.515756587854185
40
0.534381334475177
40
0.534381334475177
40
0.553006081096169
40
0.553006081096169
40
0.590255574338154
40
0.590255574338154
40
0.627505067580139
40
0.627505067580139
40
0.646129814201132
40
0.646129814201132
40
0.664754560822124
40
0.664754560822124
40
0.70200405406411
40
0.70200405406411
40
0.739253547306095
40
0.739253547306095
40
0.757878293927088
40
0.757878293927088
40
0.776503040548081
40
0.776503040548081
40
0.813752533790068
40
0.813752533790068
40
0.851002027032054
40
0.851002027032054
40
0.888251520274041
40
0.888251520274041
40
0.925501013516027
40
0.925501013516027
40
0.962750506758013
40
0.962750506758013
40
1
40
1
40
1
40
1
41
1
10
61.0247908997018
20
-6.83195723336675
30
0
41
1
10
60.5933848313915
20
-6.97520967520811
30
0
41
1
10
60.1615260602254
20
-7.11149858905247
30
0
41
1
10
59.2174621999051
20
-7.3922579188536
30
0
41
1
10
58.705226183832
20
-7.53491568496369
30
0
41
1
10
57.6838945467737
20
-7.80322637827928
30
0
41
1
10
57.1738066472313
20
-7.92795516197037
30
0
41
1
10
56.153451097459
20
-8.15570382295877
30
0
41
1
10
55.6433479196448
20
-8.25892911194714
30
0
41
1
10
54.8779847697714
20
-8.39470319626065
30
0
41
1
10
54.6228388796997
20
-8.43682743018624
30
0
41
1
10
54.1121628798483
20
-8.51643120232868
30
0
41
1
10
53.8566682005795
20
-8.55380479549393
30
0
41
1
10
53.0896867850636
20
-8.65841275551043
30
0
41
1
10
52.577452611141
20
-8.71803546646527
30
0
41
1
10
51.5559218590979
20
-8.81432123411119
30
0
41
1
10
51.0460814290771
20
-8.85119908094762
30
0
41
1
10
50.2807967780729
20
-8.88594655774617
30
0
41
1
10
50.0256612954358
20
-8.894124128778
30
0
41
1
10
49.5154264311934
20
-8.90552401598214
30
0
41
1
10
49.2603235298108
20
-8.90858762629293
30
0
41
1
10
48.4950875376375
20
-8.90943332589143
30
0
41
1
10
47.9850787366327
20
-8.89872252809604
30
0
41
1
10
46.9629547717162
20
-8.8543034529194
30
0
41
1
10
46.450681535135
20
-8.82097575534956
30
0
41
1
10
45.4287676213823
20
-8.73094416316516
30
0
41
1
10
44.9188571232664
20
-8.67380603633265
30
0
41
1
10
44.153713398234
20
-8.57196734295616
30
0
41
1
10
43.8986679562307
20
-8.53521717000802
30
0
41
1
10
43.3884866360574
20
-8.45545586311104
30
0
41
1
10
43.1333296612753
20
-8.41228585324282
30
0
41
1
10
42.367955260966
20
-8.27580130746369
30
0
41
1
10
41.858098241873
20
-8.17511806598284
30
0
41
1
10
40.8365002569646
20
-7.95284494159463
30
0
41
1
10
40.3243713653857
20
-7.83145093135263
30
0
41
1
10
39.557772742515
20
-7.63386553396717
30
0
41
1
10
39.3024582441495
20
-7.56542623614166
30
0
41
1
10
38.7922080683129
20
-7.4227142932281
30
0
41
1
10
38.5371831247736
20
-7.34824005760009
30
0
41
1
10
37.771969976156
20
-7.11910497973236
30
0
41
1
10
37.2618813596788
20
-6.95890606268202
30
0
41
1
10
36.2416534237379
20
-6.62035303680349
30
0
41
1
10
35.7318284878985
20
-6.44183661472348
30
0
41
1
10
34.9659025245091
20
-6.16156500072591
30
0
41
1
10
34.7103944923458
20
-6.06616828843229
30
0
41
1
10
34.1987492506623
20
-5.87075990401431
30
0
41
1
10
33.942703789922
20
-5.77061881810073
30
0
41
1
10
33.1755688015228
20
-5.46575344930352
30
0
41
1
10
32.6651568706609
20
-5.25576919575195
30
0
41
1
10
31.6448225220019
20
-4.82331626746407
30
0
41
1
10
31.1346586309086
20
-4.60123892370976
30
0
41
1
10
30.369206152971
20
-4.25918921831646
30
0
41
1
10
30.1140352663975
20
-4.14370008477709
30
0
41
1
10
29.6036068127154
20
-3.9095649528839
30
0
41
1
10
29.3483538107823
20
-3.79068039070526
30
0
41
1
10
28.5819136089855
20
-3.43060193366338
30
0
41
1
10
28.0696205307899
20
-3.1863584502033
30
0
41
1
10
27.0470653435097
20
-2.69113132935183
30
0
41
1
10
26.5368754122776
20
-2.43992865030458
30
0
41
1
10
25.5180912220642
20
-1.93147509225634
30
0
41
1
10
25.0089698115663
20
-1.67525117207086
30
0
41
1
10
23.9906380589809
20
-1.15954108294093
30
0
41
1
10
23.4816496832884
20
-0.899961668708812
30
0
41
1
10
22.4638861357839
20
-0.377362744578846
30
0
41
1
10
21.9545008736734
20
-0.115494245623154
30
0
41
1
10
20.9341645736658
20
0.408043520697476
30
0
41
1
10
20.4230991455063
20
0.669584907181104
30
0
41
1
10
19.911163935048
20
0.93098954241745
30
0
0
SPLINE
5
D6
100
AcDbEntity
8
1
62
256
6
ByLayer
370
18
48
1
60
0
100
AcDbSpline
70
4
71
3
72
8
73
4
40
0
40
0
40
0
40
0
40
1
40
1
40
1
40
1
41
1
10
2.90211131781638
20
8.85452526579331
30
0
41
1
10
2.6828771016161
20
8.99731772521554
30
0
41
1
10
2.46679499737206
20
9.14092347710854
30
0
41
1
10
2.25408202416861
20
9.28562943277527
30
0
0
SPLINE
5
D7
100
AcDbEntity
8
1
62
256
6
ByLayer
370
18
48
1
60
0
100
AcDbSpline
70
4
71
3
72
14
73
10
40
0
40
0
40
0
40
0
40
0.25
40
0.25
40
0.5
40
0.5
40
0.75
40
0.75
40
1
40
1
40
1
40
1
41
1
10
77.9943578277489
20
-8.91750101630021
30
0
41
1
10
77.9976719041759
20
-8.9167660168211
30
0
41
1
10
78.0003388627077
20
-8.91774356499437
30
0
41
1
10
78.0039842160028
20
-8.92418646788175
30
0
41
1
10
78.0049074022855
20
-8.92973613797213
30
0
41
1
10
78.0039070588456
20
-8.94645365961293
30
0
41
1
10
78.0019134517582
20
-8.95764855826434
30
0
41
1
10
77.9951184058577
20
-8.98313600671881
30
0
41
1
10
77.9903809707324
20
-8.9972199595405
30
0
41
1
10
77.9851639266861
20
-9.01061390171148
30
0
0
SPLINE
5
D8
100
AcDbEntity
8
1
62
256
6
ByLayer
370
18
48
1
60
0
100
AcDbSpline
70
4
71
3
72
10
73
6
40
0
40
0
40
0
40
0
40
0.5
40
0.5
40
1
40
1
40
1
40
1
41
1
10
77.7900925415925
20
2.23768530046874
30
0
41
1
10
78.2321890246728
20
2.22397591150948
30
0
41
1
10
78.6743120523579
20
2.20998991379139
30
0
41
1
10
79.5584390785078
20
2.18325826550426
30
0
41
1
10
80.0004626247749
20
2.17030891654454
30
0
41
1
10
80.4422481290509
20
2.15984009047278
30
0
0
SPLINE
5
D9
100
AcDbEntity
8
1
62
256
6
ByLayer
370
18
48
1
60
0
100
AcDbSpline
70
4
71
3
72
8
73
4
40
0
40
0
40
0
40
0
40
1
40
1
40
1
40
1
41
1
10
80.987384324503
20
0.42306050894905
30
0
41
1
10
80.9874728175428
20
0.353967103609278
30
0
41
1
10
80.9863115357917
20
0.284939524263564
30
0
41
1
10
80.9838153656037
20
0.215982253871886
30
0
0
SPLINE
5
DA
100
AcDbEntity
8
1
62
256
6
ByLayer
370
13
48
1
60
0
100
AcDbSpline
70
4
71
3
72
10
73
6
40
0
40
0
40
0
40
0
40
0.166733277396769
40
0.166733277396769
40
1
40
1
40
1
40
1
41
1
10
1.35073587265589
20
-3.21945450467754
30
0
41
1
10
1.3509306546016
20
-3.21279007976295
30
0
41
1
10
1.35112585450725
20
-3.20612524024745
30
0
41
1
10
1.35229909464536
20
-3.16614966962607
30
0
41
1
10
1.35328716476516
20
-3.13282890577403
30
0
41
1
10
1.35428571122574
20
-3.09949720212811
30
0
0
SPLINE
5
DB
100
AcDbEntity
8
1
62
256
6
ByLayer
370
18
48
1
60
0
100
AcDbSpline
70
4
71
3
72
8
73
4
40
0
40
0
40
0
40
0
40
1
40
1
40
1
40
1
41
1
10
77.8386067017609
20
9.3849218733364
30
0
41
1
10
77.513771788397
20
9.3946313877249
30
0
41
1
10
77.1889459095913
20
9.39937505041314
30
0
41
1
10
76.8640225466983
20
9.39915278820624
30
0
0
SPLINE
5
DC
100
AcDbEntity
8
1
62
256
6
ByLayer
370
18
48
1
60
0
100
AcDbSpline
70
4
71
3
72
30
73
26
40
0
40
0
40
0
40
0
40
0.0069513450436284
40
0.0069513450436284
40
0.0972284954942084
40
0.0972284954942084
40
0.187505645944788
40
0.187505645944788
40
0.277782796395368
40
0.277782796395368
40
0.368059946845948
40
0.368059946845948
40
0.458337097296528
40
0.458337097296528
40
0.503475672521818
40
0.503475672521818
40
0.548614247747108
40
0.548614247747108
40
0.638891398197687
40
0.638891398197687
40
0.729168548648265
40
0.729168548648265
40
0.819445699098843
40
0.819445699098843
40
1
40
1
40
1
40
1
41
1
10
27.8275055452998
20
-8.92290023266193
30
0
41
1
10
27.7661687575039
20
-8.93297865538145
30
0
41
1
10
27.7048355528053
20
-8.94288799554775
30
0
41
1
10
26.8470046715789
20
-9.07911854526813
30
0
41
1
10
26.0509988480348
20
-9.17704845242577
30
0
41
1
10
24.4566598247986
20
-9.3143261362294
30
0
41
1
10
23.6578773843482
20
-9.35360228216587
30
0
41
1
10
22.0642412987756
20
-9.37230700348076
30
0
41
1
10
21.2682578698682
20
-9.35190001197071
30
0
41
1
10
19.6745534039616
20
-9.2519041385475
30
0
41
1
10
18.8756825582902
20
-9.17209807270436
30
0
41
1
10
17.2812159615366
20
-8.95504896569884
30
0
41
1
10
16.4851163526263
20
-8.8178817656835
30
0
41
1
10
15.2901070216018
20
-8.57080056701056
30
0
41
1
10
14.8916244639202
20
-8.48155563972549
30
0
41
1
10
14.0939954556541
20
-8.28952748032097
30
0
41
1
10
13.6945825968931
20
-8.18666611255233
30
0
41
1
10
12.4979806795564
20
-7.8592669227385
30
0
41
1
10
11.7016247648292
20
-7.61577953550304
30
0
41
1
10
10.1083620791046
20
-7.08211202799797
30
0
41
1
10
9.31113574997244
20
-6.79153957153096
30
0
41
1
10
7.71461566120286
20
-6.16848082514699
30
0
41
1
10
6.91883051044928
20
-5.83742223036765
30
0
41
1
10
4.53394960511679
20
-4.79347582527257
30
0
41
1
10
2.94751891129022
20
-4.02946246493445
30
0
41
1
10
1.35073587265407
20
-3.2194545046693
30
0
0
SPLINE
5
DD
100
AcDbEntity
8
1
62
256
6
ByLayer
370
18
48
1
60
0
100
AcDbSpline
70
4
71
3
72
10
73
6
40
0
40
0
40
0
40
0
40
0.5
40
0.5
40
1
40
1
40
1
40
1
41
1
10
1.21953516203556
20
-2.93630155950331
30
0
41
1
10
1.21953516203556
20
-2.9682837727764
30
0
41
1
10
1.23130439708737
20
-3.00111967650821
30
0
41
1
10
1.27653564690144
20
-3.05780200056125
30
0
41
1
10
1.31054215272343
20
-3.0828151632156
30
0
41
1
10
1.35428571122571
20
-3.09949720212811
30
0
0
SPLINE
5
DE
100
AcDbEntity
8
1
62
256
6
ByLayer
370
18
48
1
60
0
100
AcDbSpline
70
4
71
3
72
10
73
6
40
0
40
0
40
0
40
0
40
0.5
40
0.5
40
1
40
1
40
1
40
1
41
1
10
80.9496054047456
20
-0.063787675992927
30
0
41
1
10
80.6495488832526
20
-0.53610598200018
30
0
41
1
10
80.341175979685
20
-0.999779464976598
30
0
41
1
10
79.713163663052
20
-1.91541497035539
30
0
41
1
10
79.393476408743
20
-2.36732726210784
30
0
41
1
10
79.0697195308131
20
-2.81500920757645
30
0
0
SPLINE
5
DF
100
AcDbEntity
8
1
62
256
6
ByLayer
370
18
48
1
60
0
100
AcDbSpline
70
4
71
3
72
8
73
4
40
0
40
0
40
0
40
0
40
1
40
1
40
1
40
1
41
1
10
77.7354547663617
20
-4.61173195252965
30
0
41
1
10
77.2259461561379
20
-5.28208351649289
30
0
41
1
10
76.7102559952151
20
-5.94532524378261
30
0
41
1
10
76.1903487015255
20
-6.60371654976845
30
0
0
LINE
5
76
100
AcDbEntity
8
81
62
256
6
ByLayer
370
18
48
1
60
0
100
AcDbLine
10
81
20
0
30
0
11
86
21
0
31
0
39
0
210
0
220
0
230
1
0
LINE
5
77
100
AcDbEntity
8
1
62
256
6
ByLayer
370
18
48
1
60
0
100
AcDbLine
10
1.219535
20
9.351875
30
0
11
0.350219
21
9.351332
31
0
39
0
210
0
220
0
230
1
0
LINE
5
79
100
AcDbEntity
8
1
62
256
6
ByLayer
370
18
48
1
60
0
100
AcDbLine
10
22.464743
20
9.365153
30
0
11
19.642322
21
9.363389
31
0
39
0
210
0
220
0
230
1
0
LINE
5
7A
100
AcDbEntity
8
1
62
256
6
ByLayer
370
18
48
1
60
0
100
AcDbLine
10
76.865633
20
9.399154
30
0
11
74.107541
21
9.39743
31
0
39
0
210
0
220
0
230
1
0
LINE
5
7B
100
AcDbEntity
8
1
62
256
6
ByLayer
370
18
48
1
60
0
100
AcDbLine
10
74.107541
20
-9.39743
30
0
11
76.865612
21
-9.399154
31
0
39
0
210
0
220
0
230
1
0
LINE
5
7C
100
AcDbEntity
8
1
62
256
6
ByLayer
370
18
48
1
60
0
100
AcDbLine
10
19.642322
20
-9.363389
30
0
11
22.464678
21
-9.365153
31
0
39
0
210
0
220
0
230
1
0
LINE
5
7D
100
AcDbEntity
8
1
62
256
6
ByLayer
370
18
48
1
60
0
100
AcDbLine
10
0.350219
20
-9.351332
30
0
11
1.219535
21
-9.351875
31
0
39
0
210
0
220
0
230
1
0
LINE
5
7E
100
AcDbEntity
8
SK1
62
256
6
ByLayer
370
18
48
1
60
0
100
AcDbLine
10
-46.824574
20
10
30
0
11
-50
21
4.5
31
0
39
0
210
0
220
0
230
1
0
LINE
5
80
100
AcDbEntity
8
SK1
62
256
6
ByLayer
370
18
48
1
60
0
100
AcDbLine
10
-50
20
-4.5
30
0
11
-46.824574
21
-10
31
0
39
0
210
0
220
0
230
1
0
LINE
5
81
100
AcDbEntity
8
SK1
62
256
6
ByLayer
370
18
48
1
60
0
100
AcDbLine
10
0
20
10
30
0
11
-46.824574
21
10
31
0
39
0
210
0
220
0
230
1
0
LINE
5
82
100
AcDbEntity
8
SK1
62
256
6
ByLayer
370
18
48
1
60
0
100
AcDbLine
10
-46.824574
20
-10
30
0
11
0
21
-10
31
0
39
0
210
0
220
0
230
1
0
LINE
5
83
100
AcDbEntity
8
SK4
62
256
6
ByLayer
370
18
48
0.05
60
0
100
AcDbLine
10
86
20
0
30
0
11
-55
21
0
31
0
39
0
210
0
220
0
230
1
0
LINE
5
85
100
AcDbEntity
8
4
62
256
6
ByLayer
370
18
48
0.05
60
0
100
AcDbLine
10
81
20
0
30
0
11
0
21
0
31
0
39
0
210
0
220
0
230
1
0
LINE
5
87
100
AcDbEntity
8
80
62
256
6
ByLayer
370
18
48
1
60
0
100
AcDbLine
10
0
20
0
30
0
11
-5
21
0
31
0
39
0
210
0
220
0
230
1
0
LINE
5
88
100
AcDbEntity
8
SK1
62
256
6
ByLayer
370
18
48
1
60
0
100
AcDbLine
10
-47.5
20
-0.085627
30
0
11
-47.5
21
3.162076
31
0
39
0
210
0
220
0
230
1
0
LINE
5
89
100
AcDbEntity
8
SK1
62
256
6
ByLayer
370
18
48
1
60
0
100
AcDbLine
10
-50
20
2.457418
30
0
11
-50
21
0.987115
31
0
39
0
210
0
220
0
230
1
0
LINE
5
8A
100
AcDbEntity
8
SK1
62
256
6
ByLayer
370
18
48
1
60
0
100
AcDbLine
10
-46.824574
20
10
30
0
11
-46.824574
21
-10
31
0
39
0
210
0
220
0
230
1
0
LINE
5
8B
100
AcDbEntity
8
SK1
62
256
6
ByLayer
370
18
48
1
60
0
100
AcDbLine
10
-50
20
-0.987115
30
0
11
-50
21
-4.5
31
0
39
0
210
0
220
0
230
1
0
LINE
5
8C
100
AcDbEntity
8
SK1
62
256
6
ByLayer
370
18
48
1
60
0
100
AcDbLine
10
-50
20
4.5
30
0
11
-50
21
2.457418
31
0
39
0
210
0
220
0
230
1
0
LINE
5
8D
100
AcDbEntity
8
SK1
62
256
6
ByLayer
370
18
48
1
60
0
100
AcDbLine
10
0
20
10
30
0
11
0
21
-10
31
0
39
0
210
0
220
0
230
1
0
LINE
5
8E
100
AcDbEntity
8
SK1
62
256
6
ByLayer
370
13
48
1
60
0
100
AcDbLine
10
-47.6
20
3.225664
30
0
11
-47.6
21
0.218869
31
0
39
0
210
0
220
0
230
1
0
LINE
5
8F
100
AcDbEntity
8
1
62
256
6
ByLayer
370
13
48
1
60
0
100
AcDbLine
10
0.350219
20
9.351332
30
0
11
0.350219
21
-9.351332
31
0
39
0
210
0
220
0
230
1
0
LINE
5
90
100
AcDbEntity
8
1
62
256
6
ByLayer
370
18
48
1
60
0
100
AcDbLine
10
2.763623
20
8.878776
30
0
11
2.759741
21
8.884059
31
0
39
0
210
0
220
0
230
1
0
LINE
5
91
100
AcDbEntity
8
1
62
256
6
ByLayer
370
13
48
1
60
0
100
AcDbLine
10
77.568506
20
2.076529
30
0
11
80.949605
21
-0.063788
31
0
39
0
210
0
220
0
230
1
0
LINE
5
92
100
AcDbEntity
8
1
62
256
6
ByLayer
370
13
48
1
60
0
100
AcDbLine
10
77.790093
20
2.237685
30
0
11
80.983815
21
0.215982
31
0
39
0
210
0
220
0
230
1
0
LINE
5
93
100
AcDbEntity
8
1
62
256
6
ByLayer
370
18
48
1
60
0
100
AcDbLine
10
1.470152
20
8.88131
30
0
11
1.470157
21
8.882572
31
0
39
0
210
0
220
0
230
1
0
LINE
5
94
100
AcDbEntity
8
1
62
256
6
ByLayer
370
18
48
1
60
0
100
AcDbLine
10
1.219535
20
-9.351875
30
0
11
1.219535
21
-9.201233
31
0
39
0
210
0
220
0
230
1
0
LINE
5
95
100
AcDbEntity
8
1
62
256
6
ByLayer
370
18
48
1
60
0
100
AcDbLine
10
1.219535
20
-3.012011
30
0
11
1.219535
21
9.351875
31
0
39
0
210
0
220
0
230
1
0
MTEXT
5
E0
100
AcDbEntity
8
SK6
62
256
6
ByLayer
370
13
48
1
60
0
100
AcDbMText
10
17.629169
20
41.782694
30
0
210
0
220
0
230
1
1
\W0.7431;460.1-1880-056A1-XM GC34
40
3.5
41
0
44
1.084337
50
0
71
8
72
5
7
iso_b_vert
0
DIMENSION
5
ED
100
AcDbEntity
8
SK2
62
256
6
ByLayer
370
13
48
1
60
0
100
AcDbDimension
2
DimnDraft3D1
10
78.1898
20
-19.613398
30
0
11
36.939859
21
-19.613398
31
0
70
32
71
5
72
1
41
1
210
0
220
0
230
1
3
Standard
100
AcDbAlignedDimension
13
0
23
-1.5875
33
0
14
78.1898
24
-10.9875
34
0
50
0
100
AcDbRotatedDimension
1001
ACAD
1000
DSTYLE
1002
{
1070
   279
1070
     0
1070
   172
1070
     1
1070
   173
1070
     1
1070
   340
1005
E1
1070
   271
1070
     2
1070
   272
1070
     2
1070
    77
1070
     1
1070
    73
1070
     0
1070
   171
1070
     3
1070
   274
1070
     4
1070
   177
1070
    35
1070
   176
1070
    35
1070
   178
1070
    35
1070
    48
1040
-0.005
1070
    41
1041
3.5
1070
   147
1041
1.75
1070
    42
1041
1.5875
1070
    44
1041
2.0
1070
   140
1041
3.5
1070
   343
1005
0
1070
   344
1005
0
1002
}
0
DIMENSION
5
F7
100
AcDbEntity
8
SK2
62
256
6
ByLayer
370
13
48
1
60
0
100
AcDbDimension
2
DimnDraft3D2
10
81
20
-38.692985
30
0
11
14.0311
21
-38.692985
31
0
70
32
71
5
72
1
41
1
210
0
220
0
230
1
3
Standard
100
AcDbAlignedDimension
13
-50
23
-11.5875
33
0
14
81
24
-1.5875
34
0
50
0
100
AcDbRotatedDimension
1001
ACAD
1000
DSTYLE
1002
{
1070
   279
1070
     0
1070
   172
1070
     1
1070
   173
1070
     1
1070
   340
1005
E1
1070
   271
1070
     2
1070
   272
1070
     2
1070
    77
1070
     1
1070
    73
1070
     0
1070
   171
1070
     3
1070
   274
1070
     4
1070
   177
1070
    35
1070
   176
1070
    35
1070
   178
1070
    35
1070
    48
1040
-0.005
1070
    41
1041
3.5
1070
   147
1041
1.75
1070
    42
1041
1.5875
1070
    44
1041
2.0
1070
   140
1041
3.5
1070
   343
1005
0
1070
   344
1005
0
1002
}
0
DIMENSION
5
101
100
AcDbEntity
8
SK2
62
256
6
ByLayer
370
13
48
1
60
0
100
AcDbDimension
2
DimnDraft3D3
10
81
20
21.009119
30
0
11
51.395
21
21.009119
31
0
70
32
71
5
72
1
41
1
210
0
220
0
230
1
3
Standard
100
AcDbAlignedDimension
13
21.79
23
10.9875
33
0
14
81
24
1.5875
34
0
50
0
100
AcDbRotatedDimension
1001
ACAD
1000
DSTYLE
1002
{
1070
   279
1070
     0
1070
   172
1070
     1
1070
   173
1070
     1
1070
   340
1005
E1
1070
   271
1070
     2
1070
   272
1070
     2
1070
    77
1070
     1
1070
    73
1070
     0
1070
   171
1070
     3
1070
   274
1070
     4
1070
   177
1070
    35
1070
   176
1070
    35
1070
   178
1070
    35
1070
    48
1040
-0.005
1070
    41
1041
3.5
1070
   147
1041
1.75
1070
    42
1041
1.5875
1070
    44
1041
2.0
1070
   140
1041
3.5
1070
   343
1005
0
1070
   344
1005
0
1002
}
0
DIMENSION
5
10B
100
AcDbEntity
8
SK2
62
256
6
ByLayer
370
13
48
1
60
0
100
AcDbDimension
2
DimnDraft3D4
10
78.1898
20
-22.202503
30
0
11
90.981425
21
-22.202503
31
0
70
32
71
5
72
1
41
1
210
0
220
0
230
1
3
Standard
100
AcDbAlignedDimension
13
81
23
-1.5875
33
0
14
78.1898
24
-10.9875
34
0
50
0
100
AcDbRotatedDimension
1001
ACAD
1000
DSTYLE
1002
{
1070
   279
1070
     0
1070
   172
1070
     1
1070
   173
1070
     1
1070
   340
1005
E1
1070
   271
1070
     2
1070
   272
1070
     2
1070
    77
1070
     1
1070
    73
1070
     0
1070
   171
1070
     3
1070
   274
1070
     4
1070
   177
1070
    35
1070
   176
1070
    35
1070
   178
1070
    35
1070
    48
1040
-0.005
1070
    41
1041
3.5
1070
   147
1041
1.75
1070
    42
1041
1.5875
1070
    44
1041
2.0
1070
   140
1041
3.5
1070
   343
1005
0
1070
   344
1005
0
1002
}
0
DIMENSION
5
115
100
AcDbEntity
8
SK2
62
256
6
ByLayer
370
13
48
1
60
0
100
AcDbDimension
2
DimnDraft3D5
10
78.1898
20
-28.343428
30
0
11
10.950476
21
-28.343428
31
0
70
32
71
5
72
1
41
1
210
0
220
0
230
1
3
Standard
100
AcDbAlignedDimension
13
-50
23
-11.5875
33
0
14
78.1898
24
-10.9875
34
0
50
0
100
AcDbRotatedDimension
1001
ACAD
1000
DSTYLE
1002
{
1070
   279
1070
     0
1070
   172
1070
     1
1070
   173
1070
     1
1070
   340
1005
E1
1070
   271
1070
     2
1070
   272
1070
     2
1070
    77
1070
     1
1070
    73
1070
     0
1070
   171
1070
     3
1070
   274
1070
     4
1070
   177
1070
    35
1070
   176
1070
    35
1070
   178
1070
    35
1070
    48
1040
-0.005
1070
    41
1041
3.5
1070
   147
1041
1.75
1070
    42
1041
1.5875
1070
    44
1041
2.0
1070
   140
1041
3.5
1070
   343
1005
0
1070
   344
1005
0
1002
}
0
DIMENSION
5
120
100
AcDbEntity
8
SK2
62
256
6
ByLayer
370
13
48
1
60
0
100
AcDbDimension
2
DimnDraft3D6
10
-60.625163
20
10
30
0
11
-61.250163
21
28.47418
31
0
70
33
71
5
72
1
41
1
210
0
220
0
230
1
3
Standard
100
AcDbAlignedDimension
13
-51.5875
23
-10
33
0
14
-51.5875
24
10
34
0
1001
ACAD
1000
DSTYLE
1002
{
1070
   279
1070
     0
1070
    74
1070
     0
1070
   173
1070
     1
1070
   340
1005
E1
1070
   271
1070
     3
1070
   272
1070
     2
1070
    77
1070
     1
1070
    73
1070
     0
1070
   171
1070
     3
1070
   274
1070
     4
1070
   177
1070
    35
1070
   176
1070
    35
1070
   178
1070
    35
1070
    48
1040
-0.005
1070
    41
1041
3.5
1070
   147
1041
1.75
1070
    42
1041
1.5875
1070
    44
1041
2.0
1070
   140
1041
3.5
1070
   343
1005
0
1070
   344
1005
0
1002
}
0
DIMENSION
5
12B
100
AcDbEntity
8
2
62
256
6
ByLayer
370
13
48
1
60
0
100
AcDbDimension
2
DimnDraft3D7
10
95.083343
20
9.4
30
0
11
90.458343
21
26.467266
31
0
70
33
71
5
72
1
41
1
210
0
220
0
230
1
3
Standard
100
AcDbAlignedDimension
13
79.7773
23
-9.4
33
0
14
79.7773
24
9.4
34
0
1001
ACAD
1000
DSTYLE
1002
{
1070
   279
1070
     0
1070
    74
1070
     0
1070
   173
1070
     1
1070
   340
1005
E1
1070
   271
1070
     3
1070
   272
1070
     2
1070
    77
1070
     1
1070
    73
1070
     0
1070
   171
1070
     3
1070
   274
1070
     4
1070
   177
1070
    35
1070
   176
1070
    35
1070
   178
1070
    35
1070
    48
1040
-0.005
1070
    41
1041
3.5
1070
   147
1041
1.75
1070
    42
1041
1.5875
1070
    44
1041
2.0
1070
   140
1041
3.5
1070
   343
1005
0
1070
   344
1005
0
1002
}
0
ENDSEC
0
SECTION
2
OBJECTS
0
DICTIONARY
5
196
330
0
100
AcDbDictionary
280
0
281
1
3
ACAD_GROUP
350
197
3
ACAD_MLINESTYLE
350
198
0
DICTIONARY
5
197
330
0
100
AcDbDictionary
280
0
281
1
0
DICTIONARY
5
198
330
0
100
AcDbDictionary
280
0
281
1
3
Standard
350
18
0
MLINESTYLE
5
18
330
198
100
AcDbMlineStyle
2
Standard
70
0
3

62
256
51
90
52
90
71
2
49
-0.5
62
256
6
ByLayer
49
0.5
62
256
6
ByLayer
0
RASTERVARIABLES
5
184
330

100
AcDbRasterVariables
90
0
70
1
71
1
72
1
0
ENDSEC
0
EOF
