0
SECTION
2
HEADER
9
$ACADVER
1
AC1015
9
$DWGCODEPAGE
3
ANSI_1252
9
$HANDSEED
5
19d
9
$ANGBASE
50
0
9
$ANGDIR
70
0
9
$ATTMODE
70
1
9
$AUNITS
70
0
9
$AUPREC
70
0
9
$CECOLOR
62
256
9
$CELTSCALE
40
1
9
$CELTYPE
6
ByLayer
9
$CELWEIGHT
370
18
9
$CLAYER
8
0
9
$CMLJUST
70
0
9
$CMLSCALE
40
1
9
$CMLSTYLE
2
Standard
9
$DIMSTYLE
2
Standard
9
$TEXTSIZE
40
0.2
9
$TEXTSTYLE
7
Standard
9
$LUNITS
70
2
9
$LUPREC
70
4
9
$EXTNAMES
290
1
9
$INSUNITS
70
4
9
$LTSCALE
40
1
9
$LWDISPLAY
290
1
9
$PDMODE
70
0
9
$PDSIZE
40
0
9
$PLINEGEN
70
0
0
ENDSEC
0
SECTION
2
CLASSES
0
CLASS
1
RASTERVARIABLES
2
AcDbRasterVariables
3
ISM
90
0
280
0
281
0
0
ENDSEC
0
SECTION
2
TABLES
0
TABLE
2
VPORT
5
193
100
AcDbSymbolTable
0
VPORT
5
1
100
AcDbSymbolTableRecord
100
AcDbViewportTableRecord
2
*Active
70
0
10
0
20
0
11
1
21
1
12
-1
22
1
13
0
23
0
14
0.5
24
0.5
15
10
25
10
16
0
26
0
36
1
17
0
27
0
37
0
0
ENDTAB
0
TABLE
2
LTYPE
5
194
100
AcDbSymbolTable
0
LTYPE
5
14
100
AcDbSymbolTableRecord
100
AcDbLinetypeTableRecord
70
0
2
ByBlock
3

72
65
73
0
40
0
0
LTYPE
5
15
100
AcDbSymbolTableRecord
100
AcDbLinetypeTableRecord
70
0
2
ByLayer
3

72
65
73
0
40
0
0
LTYPE
5
16
100
AcDbSymbolTableRecord
100
AcDbLinetypeTableRecord
70
0
2
CONTINUOUS
3
Solid line
72
65
73
0
40
0
0
LTYPE
5
6A
100
AcDbSymbolTableRecord
100
AcDbLinetypeTableRecord
70
0
2
CENTER
3
____ _ ____ _ ____ _ ____
72
65
73
4
40
47.5
49
22
74
0
49
-8.5
74
0
49
8.5
74
0
49
-8.5
74
0
0
LTYPE
5
6B
100
AcDbSymbolTableRecord
100
AcDbLinetypeTableRecord
70
0
2
DASHED
3
__ __ __ __ __ __ __ __ __
72
65
73
2
40
25.72
49
12.86
74
0
49
-12.86
74
0
0
ENDTAB
0
TABLE
2
LAYER
5
195
100
AcDbSymbolTable
0
LAYER
5
10
100
AcDbSymbolTableRecord
100
AcDbLayerTableRecord
2
0
70
0
62
7
6
CONTINUOUS
290
1
370
-3
390
0
0
LAYER
5
6D
100
AcDbSymbolTableRecord
100
AcDbLayerTableRecord
2
81
70
0
62
-3
6
CONTINUOUS
290
1
370
-3
390
0
0
LAYER
5
6F
100
AcDbSymbolTableRecord
100
AcDbLayerTableRecord
2
80
70
0
62
-6
6
CONTINUOUS
290
1
370
-3
390
0
0
LAYER
5
74
100
AcDbSymbolTableRecord
100
AcDbLayerTableRecord
2
2
70
0
62
7
6
CONTINUOUS
290
1
370
-3
390
0
0
LAYER
5
78
100
AcDbSymbolTableRecord
100
AcDbLayerTableRecord
2
1
70
0
62
4
6
CONTINUOUS
290
1
370
-3
390
0
0
LAYER
5
86
100
AcDbSymbolTableRecord
100
AcDbLayerTableRecord
2
4
70
0
62
-2
6
CENTER
290
1
370
-3
390
0
0
LAYER
5
17f
100
AcDbSymbolTableRecord
100
AcDbLayerTableRecord
2
SK2
70
0
62
7
6
CONTINUOUS
290
1
370
-3
390
0
0
LAYER
5
180
100
AcDbSymbolTableRecord
100
AcDbLayerTableRecord
2
SK1
70
0
62
4
6
CONTINUOUS
290
1
370
-3
390
0
0
LAYER
5
181
100
AcDbSymbolTableRecord
100
AcDbLayerTableRecord
2
SK4
70
0
62
2
6
CENTER
290
1
370
-3
390
0
0
LAYER
5
182
100
AcDbSymbolTableRecord
100
AcDbLayerTableRecord
2
SK6
70
0
62
5
6
CONTINUOUS
290
1
370
-3
390
0
0
ENDTAB
0
TABLE
2
STYLE
5
196
100
AcDbSymbolTable
0
STYLE
5
11
100
AcDbSymbolTableRecord
100
AcDbTextStyleTableRecord
2
Standard
3
txt
70
0
71
0
40
0
41
1
42
0
50
0
0
STYLE
5
DB
100
AcDbSymbolTableRecord
100
AcDbTextStyleTableRecord
2
iso_b_vert
3
simplex.shx
70
0
71
0
40
0
41
1
42
0
50
0
0
STYLE
5
DC
100
AcDbSymbolTableRecord
100
AcDbTextStyleTableRecord
2
DWGDirectTextStyle
3
simplex
70
0
71
0
40
0
41
1
42
0
50
0
0
ENDTAB
0
TABLE
2
DIMSTYLE
5
197
100
AcDbSymbolTable
100
AcDbDimStyleTable
0
DIMSTYLE
105
27
100
AcDbSymbolTableRecord
100
AcDbDimStyleTableRecord
2
Standard
70
0
3
<>
41
0.18
42
0.0625
44
0.18
140
0.18
147
0.09
73
0
74
0
77
1
271
2
275
0
278
52
280
0
340
11
0
ENDTAB
0
TABLE
2
VIEW
5
198
100
AcDbSymbolTable
0
ENDTAB
0
TABLE
2
UCS
5
199
100
AcDbSymbolTable
0
ENDTAB
0
TABLE
2
APPID
5
19a
100
AcDbSymbolTable
0
APPID
5
12
100
AcDbSymbolTableRecord
100
AcDbRegAppTableRecord
2
ACAD
70
0
0
ENDTAB
0
TABLE
2
BLOCK_RECORD
5
19b
100
AcDbSymbolTable
0
BLOCK_RECORD
5
1F
100
AcDbSymbolTableRecord
100
AcDbBlockTableRecord
2
*Model_Space
340
0
70
0
0
BLOCK_RECORD
5
1B
100
AcDbSymbolTableRecord
100
AcDbBlockTableRecord
2
*Paper_Space
340
0
70
0
0
BLOCK_RECORD
5
23
100
AcDbSymbolTableRecord
100
AcDbBlockTableRecord
2
*Paper_Space0
340
0
70
0
0
BLOCK_RECORD
5
DE
100
AcDbSymbolTableRecord
100
AcDbBlockTableRecord
2
DimnDraft3D1
340
0
70
0
0
BLOCK_RECORD
5
E8
100
AcDbSymbolTableRecord
100
AcDbBlockTableRecord
2
DimnDraft3D2
340
0
70
0
0
BLOCK_RECORD
5
F2
100
AcDbSymbolTableRecord
100
AcDbBlockTableRecord
2
DimnDraft3D3
340
0
70
0
0
BLOCK_RECORD
5
FC
100
AcDbSymbolTableRecord
100
AcDbBlockTableRecord
2
DimnDraft3D4
340
0
70
0
0
BLOCK_RECORD
5
106
100
AcDbSymbolTableRecord
100
AcDbBlockTableRecord
2
DimnDraft3D5
340
0
70
0
0
BLOCK_RECORD
5
110
100
AcDbSymbolTableRecord
100
AcDbBlockTableRecord
2
DimnDraft3D6
340
0
70
0
0
BLOCK_RECORD
5
11B
100
AcDbSymbolTableRecord
100
AcDbBlockTableRecord
2
DimnDraft3D7
340
0
70
0
0
ENDTAB
0
ENDSEC
0
SECTION
2
BLOCKS
0
BLOCK
5
20
100
AcDbEntity
8
0
100
AcDbBlockBegin
2
*Model_Space
70
0
10
0
20
0
30
0
3
*Model_Space
0
ENDBLK
5
21
100
AcDbEntity
8
0
100
AcDbBlockEnd
0
BLOCK
5
1C
100
AcDbEntity
8
0
100
AcDbBlockBegin
2
*Paper_Space
70
0
10
0
20
0
30
0
3
*Paper_Space
0
ENDBLK
5
1D
100
AcDbEntity
8
0
100
AcDbBlockEnd
0
BLOCK
5
24
100
AcDbEntity
8
0
100
AcDbBlockBegin
2
*Paper_Space0
70
0
10
0
20
0
30
0
3
*Paper_Space0
0
ENDBLK
5
25
100
AcDbEntity
8
0
100
AcDbBlockEnd
0
BLOCK
5
E5
100
AcDbEntity
8
0
100
AcDbBlockBegin
2
DimnDraft3D1
70
0
10
0
20
0
30
0
3
DimnDraft3D1
0
MTEXT
5
DF
100
AcDbEntity
8
SK2
62
256
6
ByLayer
370
13
48
1
60
0
100
AcDbMText
10
32.352164
20
-18.588398
30
0
210
0
220
0
230
1
1
\W0.7495;78,24
40
3.5
41
0
44
1.084337
50
0
71
7
72
5
7
iso_b_vert
0
LINE
5
E0
100
AcDbEntity
8
SK2
62
256
6
ByLayer
370
13
48
1
60
0
100
AcDbLine
10
0
20
-1.5875
30
0
11
0
21
-21.463398
31
0
39
0
210
0
220
0
230
1
0
LINE
5
E1
100
AcDbEntity
8
SK2
62
256
6
ByLayer
370
13
48
1
60
0
100
AcDbLine
10
78.235
20
-10.8375
30
0
11
78.235
21
-21.463398
31
0
39
0
210
0
220
0
230
1
0
LINE
5
E2
100
AcDbEntity
8
SK2
62
256
6
ByLayer
370
13
48
1
60
0
100
AcDbLine
10
0
20
-19.463398
30
0
11
78.235
21
-19.463398
31
0
39
0
210
0
220
0
230
1
0
SOLID
5
E3
100
AcDbEntity
8
SK2
62
256
6
ByLayer
370
13
48
1
60
0
100
AcDbTrace
10
0
20
-19.463398
30
0
11
3.499998
21
-19.002615
31
0
12
3.500002
22
-19.924182
32
0
13
0
23
-19.463398
33
0
39
0
210
0
220
0
230
1
0
SOLID
5
E4
100
AcDbEntity
8
SK2
62
256
6
ByLayer
370
13
48
1
60
0
100
AcDbTrace
10
78.235
20
-19.463398
30
0
11
74.735002
21
-19.924182
31
0
12
74.734998
22
-19.002615
32
0
13
78.235
23
-19.463398
33
0
39
0
210
0
220
0
230
1
0
ENDBLK
5
E6
100
AcDbEntity
8
0
100
AcDbBlockEnd
0
BLOCK
5
EF
100
AcDbEntity
8
0
100
AcDbBlockBegin
2
DimnDraft3D2
70
0
10
0
20
0
30
0
3
DimnDraft3D2
0
MTEXT
5
E9
100
AcDbEntity
8
SK2
62
256
6
ByLayer
370
13
48
1
60
0
100
AcDbMText
10
9.194721
20
-37.817985
30
0
210
0
220
0
230
1
1
\W0.6440;131,00
40
3.5
41
0
44
1.084337
50
0
71
7
72
5
7
iso_b_vert
0
LINE
5
EA
100
AcDbEntity
8
SK2
62
256
6
ByLayer
370
13
48
1
60
0
100
AcDbLine
10
-50
20
-11.5875
30
0
11
-50
21
-40.692985
31
0
39
0
210
0
220
0
230
1
0
LINE
5
EB
100
AcDbEntity
8
SK2
62
256
6
ByLayer
370
13
48
1
60
0
100
AcDbLine
10
81
20
-1.5875
30
0
11
81
21
-40.692985
31
0
39
0
210
0
220
0
230
1
0
LINE
5
EC
100
AcDbEntity
8
SK2
62
256
6
ByLayer
370
13
48
1
60
0
100
AcDbLine
10
-50
20
-38.692985
30
0
11
81
21
-38.692985
31
0
39
0
210
0
220
0
230
1
0
SOLID
5
ED
100
AcDbEntity
8
SK2
62
256
6
ByLayer
370
13
48
1
60
0
100
AcDbTrace
10
-50
20
-38.692985
30
0
11
-46.500002
21
-38.232202
31
0
12
-46.499998
22
-39.153769
32
0
13
-50
23
-38.692985
33
0
39
0
210
0
220
0
230
1
0
SOLID
5
EE
100
AcDbEntity
8
SK2
62
256
6
ByLayer
370
13
48
1
60
0
100
AcDbTrace
10
81
20
-38.692985
30
0
11
77.500002
21
-39.153769
31
0
12
77.499998
22
-38.232202
32
0
13
81
23
-38.692985
33
0
39
0
210
0
220
0
230
1
0
ENDBLK
5
F0
100
AcDbEntity
8
0
100
AcDbBlockEnd
0
BLOCK
5
F9
100
AcDbEntity
8
0
100
AcDbBlockBegin
2
DimnDraft3D3
70
0
10
0
20
0
30
0
3
DimnDraft3D3
0
MTEXT
5
F3
100
AcDbEntity
8
SK2
62
256
6
ByLayer
370
13
48
1
60
0
100
AcDbMText
10
47.421316
20
21.734119
30
0
210
0
220
0
230
1
1
\W0.7317;58,26
40
3.5
41
0
44
1.084337
50
0
71
7
72
5
7
iso_b_vert
0
LINE
5
F4
100
AcDbEntity
8
SK2
62
256
6
ByLayer
370
13
48
1
60
0
100
AcDbLine
10
22.74
20
10.8375
30
0
11
22.74
21
22.859119
31
0
39
0
210
0
220
0
230
1
0
LINE
5
F5
100
AcDbEntity
8
SK2
62
256
6
ByLayer
370
13
48
1
60
0
100
AcDbLine
10
81
20
1.5875
30
0
11
81
21
22.859119
31
0
39
0
210
0
220
0
230
1
0
LINE
5
F6
100
AcDbEntity
8
SK2
62
256
6
ByLayer
370
13
48
1
60
0
100
AcDbLine
10
22.74
20
20.859119
30
0
11
81
21
20.859119
31
0
39
0
210
0
220
0
230
1
0
SOLID
5
F7
100
AcDbEntity
8
SK2
62
256
6
ByLayer
370
13
48
1
60
0
100
AcDbTrace
10
22.74
20
20.859119
30
0
11
26.239998
21
21.319903
31
0
12
26.240002
22
20.398335
32
0
13
22.74
23
20.859119
33
0
39
0
210
0
220
0
230
1
0
SOLID
5
F8
100
AcDbEntity
8
SK2
62
256
6
ByLayer
370
13
48
1
60
0
100
AcDbTrace
10
81
20
20.859119
30
0
11
77.500002
21
20.398335
31
0
12
77.499998
22
21.319903
32
0
13
81
23
20.859119
33
0
39
0
210
0
220
0
230
1
0
ENDBLK
5
FA
100
AcDbEntity
8
0
100
AcDbBlockEnd
0
BLOCK
5
103
100
AcDbEntity
8
0
100
AcDbBlockBegin
2
DimnDraft3D4
70
0
10
0
20
0
30
0
3
DimnDraft3D4
0
MTEXT
5
FD
100
AcDbEntity
8
SK2
62
256
6
ByLayer
370
13
48
1
60
0
100
AcDbMText
10
87.840636
20
-21.177503
30
0
210
0
220
0
230
1
1
\W0.7150;2,76
40
3.5
41
0
44
1.084337
50
0
71
7
72
5
7
iso_b_vert
0
LINE
5
FE
100
AcDbEntity
8
SK2
62
256
6
ByLayer
370
13
48
1
60
0
100
AcDbLine
10
81
20
-1.5875
30
0
11
81
21
-24.052503
31
0
39
0
210
0
220
0
230
1
0
LINE
5
FF
100
AcDbEntity
8
SK2
62
256
6
ByLayer
370
13
48
1
60
0
100
AcDbLine
10
78.235
20
-10.8375
30
0
11
78.235
21
-24.052503
31
0
39
0
210
0
220
0
230
1
0
LINE
5
100
100
AcDbEntity
8
SK2
62
256
6
ByLayer
370
13
48
1
60
0
100
AcDbLine
10
69.485
20
-22.052503
30
0
11
94.997215
21
-22.052503
31
0
39
0
210
0
220
0
230
1
0
SOLID
5
101
100
AcDbEntity
8
SK2
62
256
6
ByLayer
370
13
48
1
60
0
100
AcDbTrace
10
81
20
-22.052503
30
0
11
84.499998
21
-21.591719
31
0
12
84.500002
22
-22.513287
32
0
13
81
23
-22.052503
33
0
39
0
210
0
220
0
230
1
0
SOLID
5
102
100
AcDbEntity
8
SK2
62
256
6
ByLayer
370
13
48
1
60
0
100
AcDbTrace
10
78.235
20
-22.052503
30
0
11
74.735002
21
-22.513287
31
0
12
74.734998
22
-21.591719
32
0
13
78.235
23
-22.052503
33
0
39
0
210
0
220
0
230
1
0
ENDBLK
5
104
100
AcDbEntity
8
0
100
AcDbBlockEnd
0
BLOCK
5
10D
100
AcDbEntity
8
0
100
AcDbBlockBegin
2
DimnDraft3D5
70
0
10
0
20
0
30
0
3
DimnDraft3D5
0
MTEXT
5
107
100
AcDbEntity
8
SK2
62
256
6
ByLayer
370
13
48
1
60
0
100
AcDbMText
10
5.492387
20
-27.468428
30
0
210
0
220
0
230
1
1
\W0.7079;128,24
40
3.5
41
0
44
1.084337
50
0
71
7
72
5
7
iso_b_vert
0
LINE
5
108
100
AcDbEntity
8
SK2
62
256
6
ByLayer
370
13
48
1
60
0
100
AcDbLine
10
-50
20
-11.5875
30
0
11
-50
21
-30.343428
31
0
39
0
210
0
220
0
230
1
0
LINE
5
109
100
AcDbEntity
8
SK2
62
256
6
ByLayer
370
13
48
1
60
0
100
AcDbLine
10
78.235
20
-10.8375
30
0
11
78.235
21
-30.343428
31
0
39
0
210
0
220
0
230
1
0
LINE
5
10A
100
AcDbEntity
8
SK2
62
256
6
ByLayer
370
13
48
1
60
0
100
AcDbLine
10
-50
20
-28.343428
30
0
11
78.235
21
-28.343428
31
0
39
0
210
0
220
0
230
1
0
SOLID
5
10B
100
AcDbEntity
8
SK2
62
256
6
ByLayer
370
13
48
1
60
0
100
AcDbTrace
10
-50
20
-28.343428
30
0
11
-46.500002
21
-27.882645
31
0
12
-46.499998
22
-28.804212
32
0
13
-50
23
-28.343428
33
0
39
0
210
0
220
0
230
1
0
SOLID
5
10C
100
AcDbEntity
8
SK2
62
256
6
ByLayer
370
13
48
1
60
0
100
AcDbTrace
10
78.235
20
-28.343428
30
0
11
74.735002
21
-28.804212
31
0
12
74.734998
22
-27.882645
32
0
13
78.235
23
-28.343428
33
0
39
0
210
0
220
0
230
1
0
ENDBLK
5
10E
100
AcDbEntity
8
0
100
AcDbBlockEnd
0
BLOCK
5
118
100
AcDbEntity
8
0
100
AcDbBlockBegin
2
DimnDraft3D6
70
0
10
0
20
0
30
0
3
DimnDraft3D6
0
MTEXT
5
111
100
AcDbEntity
8
SK2
62
256
6
ByLayer
370
13
48
1
60
0
100
AcDbMText
10
-60.375163
20
29.34918
30
0
210
0
220
0
230
1
1
\W0.7421;20,000
40
3.5
41
0
44
1.084337
50
90
71
7
72
5
7
iso_b_vert
0
MTEXT
5
112
100
AcDbEntity
8
SK2
62
256
6
ByLayer
370
13
48
1
60
0
100
AcDbMText
10
-60.375163
20
24.126524
30
0
210
0
220
0
230
1
1
%%c
40
3.5
41
0
44
1.084337
50
90
71
7
72
5
7
iso_b_vert
0
LINE
5
113
100
AcDbEntity
8
SK2
62
256
6
ByLayer
370
13
48
1
60
0
100
AcDbLine
10
-51.5875
20
-10
30
0
11
-60.625163
21
-10
31
0
39
0
210
0
220
0
230
1
0
LINE
5
114
100
AcDbEntity
8
SK2
62
256
6
ByLayer
370
13
48
1
60
0
100
AcDbLine
10
-51.5875
20
10
30
0
11
-60.625163
21
10
31
0
39
0
210
0
220
0
230
1
0
LINE
5
115
100
AcDbEntity
8
SK2
62
256
6
ByLayer
370
13
48
1
60
0
100
AcDbLine
10
-58.625163
20
-10
30
0
11
-58.625163
21
41.737338
31
0
39
0
210
0
220
0
230
1
0
SOLID
5
116
100
AcDbEntity
8
SK2
62
256
6
ByLayer
370
13
48
1
60
0
100
AcDbTrace
10
-58.625163
20
-10
30
0
11
-59.085946
21
-6.500002
31
0
12
-58.164379
22
-6.499998
32
0
13
-58.625163
23
-10
33
0
39
0
210
0
220
0
230
1
0
SOLID
5
117
100
AcDbEntity
8
SK2
62
256
6
ByLayer
370
13
48
1
60
0
100
AcDbTrace
10
-58.625163
20
10
30
0
11
-58.164379
21
6.500002
31
0
12
-59.085946
22
6.499998
32
0
13
-58.625163
23
10
33
0
39
0
210
0
220
0
230
1
0
ENDBLK
5
119
100
AcDbEntity
8
0
100
AcDbBlockEnd
0
BLOCK
5
123
100
AcDbEntity
8
0
100
AcDbBlockBegin
2
DimnDraft3D7
70
0
10
0
20
0
30
0
3
DimnDraft3D7
0
MTEXT
5
11C
100
AcDbEntity
8
2
62
256
6
ByLayer
370
13
48
1
60
0
100
AcDbMText
10
91.333343
20
27.192266
30
0
210
0
220
0
230
1
1
\W0.6930;18,500
40
3.5
41
0
44
1.084337
50
90
71
7
72
5
7
iso_b_vert
0
MTEXT
5
11D
100
AcDbEntity
8
2
62
256
6
ByLayer
370
13
48
1
60
0
100
AcDbMText
10
91.333343
20
21.96961
30
0
210
0
220
0
230
1
1
%%c
40
3.5
41
0
44
1.084337
50
90
71
7
72
5
7
iso_b_vert
0
LINE
5
11E
100
AcDbEntity
8
2
62
256
6
ByLayer
370
13
48
1
60
0
100
AcDbLine
10
79.8225
20
-9.25
30
0
11
95.083343
21
-9.25
31
0
39
0
210
0
220
0
230
1
0
LINE
5
11F
100
AcDbEntity
8
2
62
256
6
ByLayer
370
13
48
1
60
0
100
AcDbLine
10
79.8225
20
9.25
30
0
11
95.083343
21
9.25
31
0
39
0
210
0
220
0
230
1
0
LINE
5
120
100
AcDbEntity
8
2
62
256
6
ByLayer
370
13
48
1
60
0
100
AcDbLine
10
93.083343
20
-9.25
30
0
11
93.083343
21
38.705424
31
0
39
0
210
0
220
0
230
1
0
SOLID
5
121
100
AcDbEntity
8
2
62
256
6
ByLayer
370
13
48
1
60
0
100
AcDbTrace
10
93.083343
20
-9.25
30
0
11
92.622559
21
-5.750002
31
0
12
93.544126
22
-5.749998
32
0
13
93.083343
23
-9.25
33
0
39
0
210
0
220
0
230
1
0
SOLID
5
122
100
AcDbEntity
8
2
62
256
6
ByLayer
370
13
48
1
60
0
100
AcDbTrace
10
93.083343
20
9.25
30
0
11
93.544126
21
5.750002
31
0
12
92.622559
22
5.749998
32
0
13
93.083343
23
9.25
33
0
39
0
210
0
220
0
230
1
0
ENDBLK
5
124
100
AcDbEntity
8
0
100
AcDbBlockEnd
0
ENDSEC
0
SECTION
2
ENTITIES
0
ARC
5
95
100
AcDbEntity
8
1
62
256
6
ByLayer
370
18
48
1
60
0
100
AcDbCircle
39
0
10
-0.35
20
9.551328
30
0
40
0.350000000000001
210
0
220
0
230
-1
100
AcDbArc
50
269.96419
51
0
0
ARC
5
96
100
AcDbEntity
8
1
62
256
6
ByLayer
370
18
48
1
60
0
100
AcDbCircle
39
0
10
-0.35
20
-9.551328
30
0
40
0.350000000000001
210
0
220
0
230
-1
100
AcDbArc
50
0
51
90.03581
0
ELLIPSE
5
97
100
AcDbEntity
8
1
62
256
6
ByLayer
370
18
48
1
60
0
100
AcDbEllipse
10
1.475689
20
8.989031
30
0
11
0.25
21
0
31
0
210
0
220
0
230
1
40
0.999885
41
-3.11626719423018
42
-1.5623990278065
0
ELLIPSE
5
98
100
AcDbEntity
8
1
62
256
6
ByLayer
370
13
48
1
60
0
100
AcDbEllipse
10
1.407408
20
-2.972986
30
0
11
-0.0291813371759718
21
-0.0956475277287513
31
0
210
0
220
0
230
1
40
0.528858
41
-1.72448818930484
42
-0.370599356602608
0
ELLIPSE
5
99
100
AcDbEntity
8
1
62
256
6
ByLayer
370
13
48
1
60
0
100
AcDbEllipse
10
1.475815
20
-3.000169
30
0
11
0.0432957022543299
21
0.0901414564243579
31
0
210
0
220
0
230
1
40
0.153588
41
1.25945691555617
42
2.82159747752603
0
POINT
5
6C
100
AcDbEntity
8
81
62
256
6
ByLayer
370
18
48
1
60
0
100
AcDbPoint
10
81
20
0
30
0
39
0
210
0
220
0
230
1
50
360
0
POINT
5
6E
100
AcDbEntity
8
80
62
256
6
ByLayer
370
18
48
1
60
0
100
AcDbPoint
10
0
20
0
30
0
39
0
210
0
220
0
230
1
50
360
0
POINT
5
70
100
AcDbEntity
8
SK2
62
256
6
ByLayer
370
18
48
1
60
1
100
AcDbPoint
10
-50
20
-10
30
0
39
0
210
0
220
0
230
1
50
360
0
POINT
5
72
100
AcDbEntity
8
SK2
62
256
6
ByLayer
370
18
48
1
60
1
100
AcDbPoint
10
-50
20
10
30
0
39
0
210
0
220
0
230
1
50
360
0
POINT
5
73
100
AcDbEntity
8
2
62
256
6
ByLayer
370
18
48
1
60
1
100
AcDbPoint
10
78.235
20
-9.25
30
0
39
0
210
0
220
0
230
1
50
360
0
POINT
5
75
100
AcDbEntity
8
2
62
256
6
ByLayer
370
18
48
1
60
1
100
AcDbPoint
10
78.235
20
9.25
30
0
39
0
210
0
220
0
230
1
50
360
0
SPLINE
5
9A
100
AcDbEntity
8
1
62
256
6
ByLayer
370
18
48
1
60
0
100
AcDbSpline
70
4
71
1
72
4
73
2
40
0
40
0
40
1
40
1
41
1
10
49.6624972922895
20
-0.0014176538825268
30
0
41
1
10
49.6624911183395
20
-0.0014094560315527
30
0
0
SPLINE
5
9B
100
AcDbEntity
8
1
62
256
6
ByLayer
370
18
48
1
60
0
100
AcDbSpline
70
4
71
2
72
6
73
3
40
0
40
0
40
0
40
1
40
1
40
1
41
1
10
77.090534826415
20
-8.78691527182335
30
0
41
1
10
77.4442236452535
20
-8.78693445575598
30
0
41
1
10
77.7972082395548
20
-8.78715854720247
30
0
0
SPLINE
5
9C
100
AcDbEntity
8
1
62
256
6
ByLayer
370
18
48
1
60
0
100
AcDbSpline
70
4
71
3
72
31
73
27
40
0
40
0
40
0
40
0
40
0.03368657007339
40
0.0671623712084511
40
0.0963712475117987
40
0.12356848962725
40
0.15177436901073
40
0.190647859263465
40
0.227466737598232
40
0.259436091813357
40
0.308163434714378
40
0.352660409925953
40
0.401296394151688
40
0.449486058174486
40
0.502344591438803
40
0.558061052227978
40
0.612096536748874
40
0.661239492675162
40
0.702550652722561
40
0.737313851485084
40
0.775202070196143
40
0.816443044944359
40
0.861875987214496
40
0.913423650765368
40
0.963680023995472
40
1
40
1
40
1
40
1
41
1
10
22.6206053420813
20
-8.75227948006969
30
0
41
1
10
22.9036179693693
20
-8.75155342152289
30
0
41
1
10
23.4741211848042
20
-8.75032320451987
30
0
41
1
10
24.3127242836048
20
-8.7450374698206
30
0
41
1
10
25.1067312923045
20
-8.74788327890573
30
0
41
1
10
25.8228820685734
20
-8.75397683862766
30
0
41
1
10
26.6428890153889
20
-8.75485602964494
30
0
41
1
10
27.5527261681296
20
-8.75535401140741
30
0
41
1
10
28.4961079401665
20
-8.75536942725469
30
0
41
1
10
29.5259920064041
20
-8.75734648814452
30
0
41
1
10
30.6223311630908
20
-8.75779476892998
30
0
41
1
10
31.8676289881013
20
-8.75782915864158
30
0
41
1
10
33.0967265141149
20
-8.75547327003289
30
0
41
1
10
34.4123586579703
20
-8.75954600434486
30
0
41
1
10
35.7781523873452
20
-8.76070220192972
30
0
41
1
10
37.2052385413244
20
-8.75890651228676
30
0
41
1
10
38.5971048915708
20
-8.76271623446172
30
0
41
1
10
39.8630656169716
20
-8.76400532683675
30
0
41
1
10
40.9604532111623
20
-8.76243712898531
30
0
41
1
10
41.9586897674017
20
-8.76218487672998
30
0
41
1
10
42.9489300040943
20
-8.76101639110959
30
0
41
1
10
44.0442390656045
20
-8.76521565746739
30
0
41
1
10
45.2479353788318
20
-8.76619582473549
30
0
41
1
10
46.5397590475501
20
-8.76568521914621
30
0
41
1
10
47.749667012666
20
-8.7655269500259
30
0
41
1
10
48.508376032306
20
-8.76602669144336
30
0
41
1
10
48.8266349097486
20
-8.76631408518713
30
0
0
SPLINE
5
9D
100
AcDbEntity
8
1
62
256
6
ByLayer
370
18
48
1
60
0
100
AcDbSpline
70
4
71
3
72
25
73
21
40
0
40
0
40
0
40
0
40
0.0218529154292225
40
0.0846224919475388
40
0.140770772263134
40
0.197131607621905
40
0.262612420302016
40
0.339629373565891
40
0.407468267888174
40
0.469199051573606
40
0.525161403125267
40
0.576167588734953
40
0.623528003922602
40
0.678362898846787
40
0.7412426815876
40
0.806765135564891
40
0.864231966866981
40
0.91994900895609
40
0.971795584845386
40
1
40
1
40
1
40
1
41
1
10
48.6890296603453
20
8.76596258976102
30
0
41
1
10
48.5370697811135
20
8.76569909827157
30
0
41
1
10
47.9486427774376
20
8.76485933541727
30
0
41
1
10
46.9700987940951
20
8.76541802391611
30
0
41
1
10
45.7513983173371
20
8.76627967018806
30
0
41
1
10
44.5126804454413
20
8.76614373895592
30
0
41
1
10
43.1296132320859
20
8.76375266704954
30
0
41
1
10
41.6664982565745
20
8.76147039567442
30
0
41
1
10
40.2276328191616
20
8.76358924829086
30
0
41
1
10
38.9430639421588
20
8.76254275167034
30
0
41
1
10
37.766804863755
20
8.75838515445622
30
0
41
1
10
36.7007907375874
20
8.76026585716096
30
0
41
1
10
35.6330832358005
20
8.76013354506702
30
0
41
1
10
34.485038025887
20
8.76119559743765
30
0
41
1
10
33.209886629851
20
8.75656344644378
30
0
41
1
10
31.9167576058964
20
8.75751963925501
30
0
41
1
10
30.6730080799944
20
8.7579267295061
30
0
41
1
10
29.5270582690511
20
8.75686794321049
30
0
41
1
10
28.5808273753044
20
8.755486192993
30
0
41
1
10
28.0271300581967
20
8.75529854155309
30
0
41
1
10
27.8317821872632
20
8.7552427009426
30
0
0
SPLINE
5
9E
100
AcDbEntity
8
1
62
256
6
ByLayer
370
18
48
1
60
0
100
AcDbSpline
70
4
71
2
72
6
73
3
40
0
40
0
40
0
40
1
40
1
40
1
41
1
10
2.76272858061179
20
8.74161771950705
30
0
41
1
10
2.11864048554469
20
8.74158854755154
30
0
41
1
10
1.47630907702393
20
8.73987795479866
30
0
0
SPLINE
5
9F
100
AcDbEntity
8
SK1
62
256
6
ByLayer
370
18
48
1
60
0
100
AcDbSpline
70
4
71
3
72
10
73
6
40
0
40
0
40
0
40
0
40
0.5
40
0.5
40
1
40
1
40
1
40
1
41
1
10
-50
20
0.890168579446851
30
0
41
1
10
-49.6125321825318
20
0.74523524985014
30
0
41
1
10
-49.2140432261766
20
0.601377018135906
30
0
41
1
10
-48.4112344692055
20
0.314307699427587
30
0
41
1
10
-48.0063318430157
20
0.171168661805695
30
0
41
1
10
-47.6
20
0.0281912563162905
30
0
0
SPLINE
5
A0
100
AcDbEntity
8
SK1
62
256
6
ByLayer
370
18
48
1
60
0
100
AcDbSpline
70
4
71
3
72
10
73
6
40
0
40
0
40
0
40
0
40
0.5
40
0.5
40
1
40
1
40
1
40
1
41
1
10
-50
20
-0.890168579446851
30
0
41
1
10
-49.6125321825318
20
-0.74523524985014
30
0
41
1
10
-49.2140432261766
20
-0.601377018135878
30
0
41
1
10
-48.4112344692055
20
-0.314307699427559
30
0
41
1
10
-48.0063318430157
20
-0.171168661805666
30
0
41
1
10
-47.6
20
-0.0281912563162621
30
0
0
SPLINE
5
A1
100
AcDbEntity
8
SK1
62
256
6
ByLayer
370
18
48
1
60
0
100
AcDbSpline
70
4
71
3
72
14
73
10
40
0
40
0
40
0
40
0
40
0.500000000000006
40
0.500000000000006
40
0.750000000000008
40
0.750000000000008
40
0.875000000000004
40
0.875000000000004
40
1
40
1
40
1
40
1
41
1
10
-47.6
20
-0.0281912563162905
30
0
41
1
10
-47.5789465118596
20
-0.0207830918749323
30
0
41
1
10
-47.558598514298
20
-0.007522620542801
30
0
41
1
10
-47.5303873672755
20
0.0240954026393183
30
0
41
1
10
-47.5214287539013
20
0.0366288088537772
30
0
41
1
10
-47.5102864584886
20
0.0596800537200863
30
0
41
1
10
-47.50688945626
20
0.0682360123806802
30
0
41
1
10
-47.5017228477084
20
0.08739763447781
30
0
41
1
10
-47.5
20
0.0980253426414777
30
0
41
1
10
-47.5
20
0.108885686192082
30
0
0
SPLINE
5
A2
100
AcDbEntity
8
SK1
62
256
6
ByLayer
370
18
48
1
60
0
100
AcDbSpline
70
4
71
3
72
8
73
4
40
0
40
0
40
0
40
0
40
1
40
1
40
1
40
1
41
1
10
-47.6
20
0.0281912563163189
30
0
41
1
10
-47.5851989131662
20
0.0229831461711285
30
0
41
1
10
-47.5707465089612
20
0.0148825838624873
30
0
41
1
10
-47.5569329453199
20
0.0032064904069102
30
0
0
SPLINE
5
A3
100
AcDbEntity
8
SK1
62
256
6
ByLayer
370
18
48
1
60
0
100
AcDbSpline
70
4
71
3
72
14
73
10
40
0
40
0
40
0
40
0
40
0.124999999999998
40
0.124999999999998
40
0.249999999999996
40
0.249999999999996
40
0.499999999999991
40
0.499999999999991
40
1
40
1
40
1
40
1
41
1
10
-47.5
20
3.34291078071698
30
0
41
1
10
-47.5
20
3.35290335930517
30
0
41
1
10
-47.5017107697461
20
3.36158732380167
30
0
41
1
10
-47.5068845888983
20
3.37584471822424
30
0
41
1
10
-47.5102281895671
20
3.38138377520397
30
0
41
1
10
-47.521528237522
20
3.39533633429741
30
0
41
1
10
-47.5303630420009
20
3.40069900100943
30
0
41
1
10
-47.558525242781
20
3.4107816690252
30
0
41
1
10
-47.5788396428357
20
3.40928112790712
30
0
41
1
10
-47.6
20
3.40183535908889
30
0
0
SPLINE
5
A4
100
AcDbEntity
8
SK1
62
256
6
ByLayer
370
18
48
1
60
0
100
AcDbSpline
70
4
71
3
72
12
73
8
40
0
40
0
40
0
40
0
40
0.500000000000001
40
0.500000000000001
40
0.75
40
0.75
40
1
40
1
40
1
40
1
41
1
10
-49.3803918107697
20
2.76777285084785
30
0
41
1
10
-49.4608031664385
20
2.80010881569268
30
0
41
1
10
-49.5477426727379
20
2.79940192203756
30
0
41
1
10
-49.6890678481244
20
2.74819003756298
30
0
41
1
10
-49.7367316397655
20
2.72306834333563
30
0
41
1
10
-49.8334857359028
20
2.65670220673746
30
0
41
1
10
-49.882703655281
20
2.61536048042007
30
0
41
1
10
-49.9325303086496
20
2.56503858931873
30
0
0
SPLINE
5
A5
100
AcDbEntity
8
SK1
62
256
6
ByLayer
370
18
48
1
60
0
100
AcDbSpline
70
4
71
3
72
10
73
6
40
0
40
0
40
0
40
0
40
0.5
40
0.5
40
1
40
1
40
1
40
1
41
1
10
-47.6
20
3.40183535908889
30
0
41
1
10
-47.8994699711284
20
3.29645981387901
30
0
41
1
10
-48.1981092329335
20
3.19099270844666
30
0
41
1
10
-48.792309732285
20
2.97971964572193
30
0
41
1
10
-49.087944178119
20
2.87392170683395
30
0
41
1
10
-49.3803918107697
20
2.76777285084785
30
0
0
SPLINE
5
A6
100
AcDbEntity
8
SK1
62
256
6
ByLayer
370
18
48
1
60
0
100
AcDbSpline
70
4
71
3
72
26
73
22
40
0
40
0
40
0
40
0
40
0.249999999999999
40
0.249999999999999
40
0.374999999999998
40
0.374999999999998
40
0.499999999999997
40
0.499999999999997
40
0.562499999999998
40
0.562499999999998
40
0.624999999999998
40
0.624999999999998
40
0.687499999999998
40
0.687499999999998
40
0.749999999999999
40
0.749999999999999
40
0.812499999999999
40
0.812499999999999
40
0.875
40
0.875
40
1
40
1
40
1
40
1
41
1
10
-49.9325303086496
20
2.56503858931873
30
0
41
1
10
-49.8285183337044
20
2.57503107959906
30
0
41
1
10
-49.7260027526035
20
2.58610363687703
30
0
41
1
10
-49.5812545466281
20
2.60515521173318
30
0
41
1
10
-49.5345747188454
20
2.61190930060701
30
0
41
1
10
-49.445841929852
20
2.62660712355176
30
0
41
1
10
-49.4034573521927
20
2.63459798643007
30
0
41
1
10
-49.3466415098371
20
2.64786650547052
30
0
41
1
10
-49.3289755049041
20
2.65247410798307
30
0
41
1
10
-49.2969456259186
20
2.66216873046145
30
0
41
1
10
-49.2825130861617
20
2.6672955923045
30
0
41
1
10
-49.2588576259938
20
2.67784440671218
30
0
41
1
10
-49.2495208651378
20
2.68328900757439
30
0
41
1
10
-49.2369995793501
20
2.69459855632598
30
0
41
1
10
-49.2339435006614
20
2.7004848282003
30
0
41
1
10
-49.2351395800014
20
2.71204603114842
30
0
41
1
10
-49.2393647394383
20
2.7178661353006
30
0
41
1
10
-49.2543971735917
20
2.72912692112777
30
0
41
1
10
-49.2650355340458
20
2.73452414457259
30
0
41
1
10
-49.3046802619461
20
2.75013854558935
30
0
41
1
10
-49.3402104124485
20
2.75938541433135
30
0
41
1
10
-49.3803918107691
20
2.76777285084751
30
0
0
SPLINE
5
A7
100
AcDbEntity
8
SK1
62
256
6
ByLayer
370
18
48
1
60
0
100
AcDbSpline
70
4
71
3
72
8
73
4
40
0
40
0
40
0
40
0
40
1
40
1
40
1
40
1
41
1
10
-49.9325303086496
20
2.56503858931873
30
0
41
1
10
-49.9550581868439
20
2.55664925383215
30
0
41
1
10
-49.977549109672
20
2.54825584899194
30
0
41
1
10
-50
20
2.53985803595833
30
0
0
SPLINE
5
A8
100
AcDbEntity
8
1
62
256
6
ByLayer
370
18
48
1
60
0
100
AcDbSpline
70
4
71
3
72
8
73
4
40
0
40
0
40
0
40
0
40
1
40
1
40
1
40
1
41
1
10
1.22568892967004
20
9.05475557266709
30
0
41
1
10
1.56991168795366
20
9.08785217218491
30
0
41
1
10
1.91432223823281
20
9.11534997369452
30
0
41
1
10
2.2589041644446
20
9.13735852212707
30
0
0
SPLINE
5
A9
100
AcDbEntity
8
1
62
256
6
ByLayer
370
18
48
1
60
0
100
AcDbSpline
70
4
71
3
72
14
73
10
40
0
40
0
40
0
40
0
40
0.25
40
0.25
40
0.5
40
0.5
40
0.75
40
0.75
40
1
40
1
40
1
40
1
41
1
10
78.2254970272457
20
8.98987594159422
30
0
41
1
10
78.4317421792383
20
8.41392426147911
30
0
41
1
10
78.6422845131651
20
7.83863089556397
30
0
41
1
10
79.0710270657933
20
6.68947308461716
30
0
41
1
10
79.289289920445
20
6.11561982167785
30
0
41
1
10
79.732854861636
20
4.96942660262906
30
0
41
1
10
79.9580009118855
20
4.39756505322239
30
0
41
1
10
80.4136007045173
20
3.25868975698941
30
0
41
1
10
80.6442367463019
20
2.69126152685939
30
0
41
1
10
80.8773827485174
20
2.12546739723558
30
0
0
SPLINE
5
AA
100
AcDbEntity
8
1
62
256
6
ByLayer
370
18
48
1
60
0
100
AcDbSpline
70
4
71
3
72
42
73
38
40
0
40
0
40
0
40
0
40
0.0312500000000006
40
0.0312500000000006
40
0.0468750000000007
40
0.0468750000000007
40
0.0625000000000007
40
0.0625000000000007
40
0.125000000000001
40
0.125000000000001
40
0.1328125
40
0.1328125
40
0.13671875
40
0.13671875
40
0.140625
40
0.140625
40
0.14453125
40
0.14453125
40
0.148437499999999
40
0.148437499999999
40
0.152343749999999
40
0.152343749999999
40
0.156249999999999
40
0.156249999999999
40
0.187499999999999
40
0.187499999999999
40
0.249999999999999
40
0.249999999999999
40
0.312499999999999
40
0.312499999999999
40
0.374999999999999
40
0.374999999999999
40
0.499999999999999
40
0.499999999999999
40
0.75
40
0.75
40
1
40
1
40
1
40
1
41
1
10
2.25890416446421
20
9.13735852212835
30
0
41
1
10
2.34027793420384
20
9.1156712952214
30
0
41
1
10
2.43724035456933
20
9.08978401336441
30
0
41
1
10
2.60139746276875
20
9.04640472611948
30
0
41
1
10
2.65925726233999
20
9.03117884734658
30
0
41
1
10
2.78068829438135
20
8.99941068228341
30
0
41
1
10
2.84441653703448
20
8.98282784484408
30
0
41
1
10
3.17335627893206
20
8.89784060590512
30
0
41
1
10
3.47081440876715
20
8.8228902611213
30
0
41
1
10
3.82625203768544
20
8.73669002458649
30
0
41
1
10
3.86606001469519
20
8.7270783881099
30
0
41
1
10
3.92618142574747
20
8.71262819083643
30
0
41
1
10
3.94623371060763
20
8.70778252499309
30
0
41
1
10
3.98664456473182
20
8.69819094274339
30
0
41
1
10
4.00794046455638
20
8.69395827231517
30
0
41
1
10
4.05403876065745
20
8.68740542520314
30
0
41
1
10
4.07875074555849
20
8.68484041545375
30
0
41
1
10
4.12809523476298
20
8.68102659108564
30
0
41
1
10
4.15287175829198
20
8.67974695048201
30
0
41
1
10
4.20259616997879
20
8.67822930253683
30
0
41
1
10
4.22754203881925
20
8.67797881848352
30
0
41
1
10
4.27741785065217
20
8.67738112156866
30
0
41
1
10
4.30235292042201
20
8.67706486044179
30
0
41
1
10
4.52677561007266
20
8.67426015998157
30
0
41
1
10
4.72640984443893
20
8.67244347926874
30
0
41
1
10
5.32541172221673
20
8.66903276121158
30
0
41
1
10
5.72450908225218
20
8.66948739850406
30
0
41
1
10
6.52224214804747
20
8.67569801847915
30
0
41
1
10
6.92087770014922
20
8.6814552232353
30
0
41
1
10
7.71769614456883
20
8.69793141709462
30
0
41
1
10
8.1162318835635
20
8.70866424836987
30
0
41
1
10
9.30459281775563
20
8.74725302232179
30
0
41
1
10
10.089144385969
20
8.78162255684896
30
0
41
1
10
12.4213547444036
20
8.89980331772597
30
0
41
1
10
13.9472761624093
20
8.99944987863736
30
0
41
1
10
16.95201697744
20
9.15943649775969
30
0
41
1
10
18.4307797030137
20
9.21862041025639
30
0
41
1
10
19.8952041829543
20
9.2130458281118
30
0
0
SPLINE
5
AB
100
AcDbEntity
8
1
62
256
6
ByLayer
370
18
48
1
60
0
100
AcDbSpline
70
4
71
3
72
8
73
4
40
0
40
0
40
0
40
0
40
1
40
1
40
1
40
1
41
1
10
2.90437280546792
20
8.71282477217071
30
0
41
1
10
2.68605942033614
20
8.85341429125705
30
0
41
1
10
2.47083213280857
20
8.99483272587807
30
0
41
1
10
2.25890416444457
20
9.13735852214154
30
0
0
SPLINE
5
AC
100
AcDbEntity
8
1
62
256
6
ByLayer
370
18
48
1
60
0
100
AcDbSpline
70
4
71
3
72
10
73
6
40
0
40
0
40
0
40
0
40
0.5
40
0.5
40
1
40
1
40
1
40
1
41
1
10
80.9999579556286
20
0.0642644545950759
30
0
41
1
10
80.993719766415
20
0.0447842611849865
30
0
41
1
10
80.9864844820356
20
0.0255359198082772
30
0
41
1
10
80.9701558897191
20
-0.0113354474029848
30
0
41
1
10
80.9614565582754
20
-0.028051168659772
30
0
41
1
10
80.9525458230277
20
-0.0426193537434756
30
0
0
SPLINE
5
AD
100
AcDbEntity
8
1
62
256
6
ByLayer
370
18
48
1
60
0
100
AcDbSpline
70
4
71
3
72
34
73
30
40
0
40
0
40
0
40
0
40
0.0625000000000005
40
0.0625000000000005
40
0.125000000000001
40
0.125000000000001
40
0.187500000000001
40
0.187500000000001
40
0.250000000000002
40
0.250000000000002
40
0.312500000000002
40
0.312500000000002
40
0.375000000000003
40
0.375000000000003
40
0.437500000000003
40
0.437500000000003
40
0.500000000000004
40
0.500000000000004
40
0.625000000000005
40
0.625000000000005
40
0.687500000000006
40
0.687500000000006
40
0.750000000000007
40
0.750000000000007
40
0.875
40
0.875
40
0.9375
40
0.9375
40
1
40
1
40
1
40
1
41
1
10
79.2705914725256
20
-2.91218448707903
30
0
41
1
10
79.2649614326177
20
-2.96318202576171
30
0
41
1
10
79.2566955580833
20
-3.01853972748333
30
0
41
1
10
79.2352474723577
20
-3.13405502833416
30
0
41
1
10
79.2222132147288
20
-3.19369189781315
30
0
41
1
10
79.1916491410724
20
-3.31666385883727
30
0
41
1
10
79.1738936335763
20
-3.38068349725623
30
0
41
1
10
79.1351637113174
20
-3.50791723038992
30
0
41
1
10
79.1141703306016
20
-3.57136943414392
30
0
41
1
10
79.0691232288623
20
-3.69797583037183
30
0
41
1
10
79.045021556646
20
-3.76115735237778
30
0
41
1
10
78.995632687312
20
-3.88282422940623
30
0
41
1
10
78.9701385212878
20
-3.94191186273974
30
0
41
1
10
78.9176621292353
20
-4.05677221262511
30
0
41
1
10
78.8908990903368
20
-4.11202160497589
30
0
41
1
10
78.8375054838552
20
-4.2163100918244
30
0
41
1
10
78.8107077610367
20
-4.26571440045993
30
0
41
1
10
78.7300455322031
20
-4.40601101136144
30
0
41
1
10
78.6763960842869
20
-4.48787956094063
30
0
41
1
10
78.6009541434097
20
-4.58754924313251
30
0
41
1
10
78.5764674309816
20
-4.61722053937436
30
0
41
1
10
78.5287778385726
20
-4.66957529447413
30
0
41
1
10
78.505462423896
20
-4.69235155701682
30
0
41
1
10
78.4382689746523
20
-4.74907183311259
30
0
41
1
10
78.3979308057204
20
-4.77106639746123
30
0
41
1
10
78.3440477983418
20
-4.77981383793545
30
0
41
1
10
78.3271286198201
20
-4.77854558397399
30
0
41
1
10
78.2966149586658
20
-4.76743421245186
30
0
41
1
10
78.2828958520065
20
-4.7576590107399
30
0
41
1
10
78.2707404999217
20
-4.74353935795236
30
0
0
SPLINE
5
AE
100
AcDbEntity
8
1
62
256
6
ByLayer
370
18
48
1
60
0
100
AcDbSpline
70
4
71
3
72
12
73
8
40
0
40
0
40
0
40
0
40
0.249999999999999
40
0.249999999999999
40
0.499999999999998
40
0.499999999999998
40
1
40
1
40
1
40
1
41
1
10
78.2254970272388
20
-8.98987594161349
30
0
41
1
10
78.4323527724881
20
-8.41221914402652
30
0
41
1
10
78.6431947261066
20
-7.83615855217701
30
0
41
1
10
79.0720092840927
20
-6.68687329295568
30
0
41
1
10
79.2900404202285
20
-6.11367195211787
30
0
41
1
10
79.9540082140786
20
-4.39797276540122
30
0
41
1
10
80.4102815578813
20
-3.25901937363958
30
0
41
1
10
80.8773827485176
20
-2.12546739723524
30
0
0
SPLINE
5
AF
100
AcDbEntity
8
1
62
256
6
ByLayer
370
18
48
1
60
0
100
AcDbSpline
70
4
71
3
72
30
73
26
40
0
40
0
40
0
40
0
40
0.117797931649655
40
0.117797931649655
40
0.327035617092034
40
0.327035617092034
40
0.431654459813225
40
0.431654459813225
40
0.536273302534415
40
0.536273302534415
40
0.745510987976795
40
0.745510987976795
40
0.850129830697985
40
0.850129830697985
40
0.954748673419175
40
0.954748673419175
40
0.967826028759324
40
0.967826028759324
40
0.974364706429399
40
0.974364706429399
40
0.980903384099473
40
0.980903384099473
40
0.993980739439622
40
0.993980739439622
40
1
40
1
40
1
40
1
41
1
10
19.8952041829543
20
9.21304582811297
30
0
41
1
10
19.8952041829543
20
8.86771181522425
30
0
41
1
10
19.8952041829543
20
8.52281625949533
30
0
41
1
10
19.8952041829543
20
7.56645774372032
30
0
41
1
10
19.8952041829543
20
6.95589334259958
30
0
41
1
10
19.8952041829543
20
6.04197751321666
30
0
41
1
10
19.8952041829543
20
5.7370439219641
30
0
41
1
10
19.8952041829543
20
5.13643015798442
30
0
41
1
10
19.8952041829543
20
4.83973161447426
30
0
41
1
10
19.8952041829543
20
3.96008053264285
30
0
41
1
10
19.8952041829543
20
3.38752294268807
30
0
41
1
10
19.8952041829543
20
2.54898284177392
30
0
41
1
10
19.8952041829543
20
2.27266290916475
30
0
41
1
10
19.8952041829543
20
1.72773345967764
30
0
41
1
10
19.8952041829543
20
1.46032102828971
30
0
41
1
10
19.8952041829543
20
1.16509772393059
30
0
41
1
10
19.8952041829543
20
1.13237563542594
30
0
41
1
10
19.8952041829543
20
1.08342874157361
30
0
41
1
10
19.8952041829543
20
1.06713506994677
30
0
41
1
10
19.8952041829543
20
1.03459159880751
30
0
41
1
10
19.8952041829543
20
1.01809082052495
30
0
41
1
10
19.8952041829543
20
0.970318876623452
30
0
41
1
10
19.8952041829543
20
0.943172446082912
30
0
41
1
10
19.8952041829543
20
0.91634085297801
30
0
41
1
10
19.8952041829543
20
0.910134903150265
30
0
41
1
10
19.8952041829543
20
0.905059828076418
30
0
0
SPLINE
5
B0
100
AcDbEntity
8
1
62
256
6
ByLayer
370
13
48
1
60
0
100
AcDbSpline
70
4
71
3
72
10
73
6
40
0
40
0
40
0
40
0
40
0.153972726452484
40
0.153972726452484
40
1
40
1
40
1
40
1
41
1
10
1.35837226276618
20
-3.17437494873269
30
0
41
1
10
1.35855046608384
20
-3.16832998150951
30
0
41
1
10
1.35872901239054
20
-3.16228466672064
30
0
41
1
10
1.35989083810193
20
-3.12302014682976
30
0
41
1
10
1.36088413646672
20
-3.08979071165143
30
0
41
1
10
1.3618878161171
20
-3.05655020969749
30
0
0
SPLINE
5
B1
100
AcDbEntity
8
1
62
256
6
ByLayer
370
18
48
1
60
0
100
AcDbSpline
70
4
71
3
72
14
73
10
40
0
40
0
40
0
40
0
40
0.43402774509539
40
0.43402774509539
40
0.868055490190781
40
0.868055490190781
40
0.97656242646463
40
0.97656242646463
40
1
40
1
40
1
40
1
41
1
10
77.9013242990857
20
-8.77744782144265
30
0
41
1
10
76.3011954844715
20
-8.81527225249465
30
0
41
1
10
74.7129270577172
20
-8.73969271959658
30
0
41
1
10
71.5365746033922
20
-8.37291675661598
30
0
41
1
10
69.9483260493579
20
-8.08153790231989
30
0
41
1
10
67.9475575476921
20
-7.59018579759788
30
0
41
1
10
67.5462668489109
20
-7.48545817401842
30
0
41
1
10
67.0600834708271
20
-7.35144301756213
30
0
41
1
10
66.973765212408
20
-7.32737564918799
30
0
41
1
10
66.8874887971993
20
-7.30304869725029
30
0
0
SPLINE
5
B2
100
AcDbEntity
8
1
62
256
6
ByLayer
370
13
48
1
60
0
100
AcDbSpline
70
4
71
3
72
22
73
18
40
0
40
0
40
0
40
0
40
0.0441391719941521
40
0.0441391719941521
40
0.156739119320897
40
0.156739119320897
40
0.381939013974384
40
0.381939013974384
40
0.494538961301129
40
0.494538961301129
40
0.550838934964501
40
0.550838934964501
40
0.607138908627873
40
0.607138908627873
40
0.832338803281364
40
0.832338803281364
40
1
40
1
40
1
40
1
41
1
10
66.8874894721607
20
-7.30304888756595
30
0
41
1
10
66.5743390966834
20
-7.21475136533044
30
0
41
1
10
66.261739968832
20
-7.12303405742395
30
0
41
1
10
65.1533716747261
20
-6.78560744657955
30
0
41
1
10
64.3601207598925
20
-6.5218295693947
30
0
41
1
10
61.9845958520297
20
-5.6736674876262
30
0
41
1
10
60.4067467133656
20
-5.03209669441793
30
0
41
1
10
58.0308727526433
20
-3.98445962293724
30
0
41
1
10
57.2374041664148
20
-3.62099331184894
30
0
41
1
10
56.0426618557993
20
-3.05818942155071
30
0
41
1
10
55.6436685689181
20
-2.86763967260046
30
0
41
1
10
54.8436922074578
20
-2.48154439204626
30
0
41
1
10
54.4422186332
20
-2.28568540401693
30
0
41
1
10
52.4423293452783
20
-1.30146907445285
30
0
41
1
10
50.8575199557018
20
-0.495169588889013
30
0
41
1
10
48.0980358283489
20
0.901669204730467
30
0
41
1
10
46.9219768522785
20
1.49460028774837
30
0
41
1
10
45.7426515685501
20
2.07455156639247
30
0
0
SPLINE
5
B3
100
AcDbEntity
8
1
62
256
6
ByLayer
370
18
48
1
60
0
100
AcDbSpline
70
4
71
3
72
37
73
33
40
0
40
0
40
0
40
0
40
0.0624999999999991
40
0.0624999999999991
40
0.0937499999999987
40
0.0937499999999987
40
0.124999999999998
40
0.124999999999998
40
0.187499999999998
40
0.187499999999998
40
0.218749999999997
40
0.218749999999997
40
0.249999999999997
40
0.249999999999997
40
0.374999999999995
40
0.374999999999995
40
0.406249999999994
40
0.406249999999994
40
0.437499999999993
40
0.437499999999993
40
0.499999999999992
40
0.499999999999992
40
0.624999999999991
40
0.624999999999991
40
0.656249999999992
40
0.656249999999992
40
0.687499999999992
40
0.687499999999992
40
0.749999999999994
40
0.874999999999997
40
0.874999999999997
40
1
40
1
40
1
40
1
41
1
10
69.1350860528503
20
3.41666404355834
30
0
41
1
10
69.1059329638992
20
3.13781178765757
30
0
41
1
10
69.0979571606724
20
2.85226215341172
30
0
41
1
10
69.1187320610903
20
2.41358402269233
30
0
41
1
10
69.1312360568838
20
2.2648397748552
30
0
41
1
10
69.1668668364517
20
1.96836044657232
30
0
41
1
10
69.1899073692678
20
1.82071861790283
30
0
41
1
10
69.2738168371981
20
1.37948508805337
30
0
41
1
10
69.3494269468416
20
1.08758000042246
30
0
41
1
10
69.4898323053656
20
0.652810455810538
30
0
41
1
10
69.5412875570634
20
0.50804009118275
30
0
41
1
10
69.652295877855
20
0.2211249635954
30
0
41
1
10
69.7114601611261
20
0.0799086757475038
30
0
41
1
10
70.0239174234966
20
-0.615985804534347
30
0
41
1
10
70.3262880328979
20
-1.1406113140342
30
0
41
1
10
70.7536782078114
20
-1.76612663464414
30
0
41
1
10
70.8415985611332
20
-1.88955060418667
30
0
41
1
10
71.0203486079424
20
-2.13107570042988
30
0
41
1
10
71.1114020841371
20
-2.24949969388541
30
0
41
1
10
71.3893078250524
20
-2.59816012559332
30
0
41
1
10
71.5809541772528
20
-2.8217170577484
30
0
41
1
10
72.1727762394186
20
-3.46886510059684
30
0
41
1
10
72.5890800788699
20
-3.86998521139947
30
0
41
1
10
73.1315270730605
20
-4.34063956911689
30
0
41
1
10
73.2412175232687
20
-4.43327304278287
30
0
41
1
10
73.4613486349132
20
-4.6144265479281
30
0
41
1
10
73.5719558211921
20
-4.70309376548522
30
0
41
1
10
73.905315629311
20
-4.96367227248564
30
0
41
1
10
74.5781773428885
20
-5.46317513134716
30
0
41
1
10
75.2678429893346
20
-5.90343520241322
30
0
41
1
10
76.1998344162985
20
-6.44660078343736
30
0
41
1
10
76.6720611432287
20
-6.69621594230347
30
0
41
1
10
77.150000778112
20
-6.92569006655572
30
0
0
SPLINE
5
B4
100
AcDbEntity
8
1
62
256
6
ByLayer
370
18
48
1
60
0
100
AcDbSpline
70
4
71
3
72
10
73
6
40
0
40
0
40
0
40
0
40
0.5
40
0.5
40
1
40
1
40
1
40
1
41
1
10
78.2254970272438
20
-8.98987594159567
30
0
41
1
10
78.1370485698166
20
-9.05657479157776
30
0
41
1
10
78.0524068927394
20
-9.11124552950008
30
0
41
1
10
77.8908202821605
20
-9.19479619526888
30
0
41
1
10
77.8152886313668
20
-9.22294074923028
30
0
41
1
10
77.7446712096361
20
-9.2376309798359
30
0
0
SPLINE
5
B5
100
AcDbEntity
8
1
62
256
6
ByLayer
370
18
48
1
60
0
100
AcDbSpline
70
4
71
3
72
16
73
12
40
0
40
0
40
0
40
0
40
0.231540977996855
40
0.231540977996855
40
0.456335368686888
40
0.456335368686888
40
0.568732564031904
40
0.568732564031904
40
0.68112975937692
40
0.68112975937692
40
1
40
1
40
1
40
1
41
1
10
23.0428678698529
20
-8.75097335466739
30
0
41
1
10
22.2233439018617
20
-8.75918166828134
30
0
41
1
10
21.405051440177
20
-8.73800534106203
30
0
41
1
10
19.7913609723465
20
-8.6386566102193
30
0
41
1
10
18.9960378607868
20
-8.56219652135403
30
0
41
1
10
17.8002010079094
20
-8.40688088756264
30
0
41
1
10
17.4010906489045
20
-8.3483301282277
30
0
41
1
10
16.6015235961411
20
-8.2177703744197
30
0
41
1
10
16.2007858458477
20
-8.14570613561523
30
0
41
1
10
14.6620494726903
20
-7.84403268499051
30
0
41
1
10
13.5325345013771
20
-7.57032341434925
30
0
41
1
10
12.4066740313424
20
-7.25182445782664
30
0
0
SPLINE
5
B6
100
AcDbEntity
8
1
62
256
6
ByLayer
370
13
48
1
60
0
100
AcDbSpline
70
4
71
3
72
16
73
12
40
0
40
0
40
0
40
0
40
0.126924007514194
40
0.126924007514194
40
0.563462003757097
40
0.563462003757097
40
0.781731001878549
40
0.781731001878549
40
0.890865500939275
40
0.890865500939275
40
1
40
1
40
1
40
1
41
1
10
12.4066740316416
20
-7.25182445791123
30
0
41
1
10
11.9451357034389
20
-7.12125812235146
30
0
41
1
10
11.4842115253286
20
-6.98316474339353
30
0
41
1
10
9.43933863546798
20
-6.33849732354679
30
0
41
1
10
7.85941929317653
20
-5.75407301642204
30
0
41
1
10
5.4770806000397
20
-4.77677595867672
30
0
41
1
10
4.68100246970312
20
-4.43406166097046
30
0
41
1
10
3.48172185415405
20
-3.89803564385102
30
0
41
1
10
3.08070451277118
20
-3.7155810514684
30
0
41
1
10
2.2782797571262
20
-3.3448813213021
30
0
41
1
10
1.87714452210244
20
-3.15676702292515
30
0
41
1
10
1.47589859370385
20
-2.96622513921815
30
0
0
SPLINE
5
B7
100
AcDbEntity
8
1
62
256
6
ByLayer
370
18
48
1
60
0
100
AcDbSpline
70
4
71
3
72
18
73
14
40
0
40
0
40
0
40
0
40
0.294741898031004
40
0.294741898031004
40
0.375759469587717
40
0.375759469587717
40
0.45677704114443
40
0.45677704114443
40
0.618812184257858
40
0.618812184257858
40
0.942882470484715
40
0.942882470484715
40
1
40
1
40
1
40
1
41
1
10
49.6836943727193
20
-0.0122793972680597
30
0
41
1
10
51.1235210980214
20
-0.749876943743146
30
0
41
1
10
52.5668493897941
20
-1.48928505985327
30
0
41
1
10
54.4232135458503
20
-2.41056285130415
30
0
41
1
10
54.8249369377345
20
-2.60812668694518
30
0
41
1
10
55.6252776111694
20
-2.99733084812354
30
0
41
1
10
56.0244464827028
20
-3.18930786739182
30
0
41
1
10
57.2196973982909
20
-3.75603031674709
30
0
41
1
10
58.0134686215748
20
-4.12166317482425
30
0
41
1
10
60.3901699279097
20
-5.1744884045512
30
0
41
1
10
61.968551572225
20
-5.81766165928659
30
0
41
1
10
63.8321879811098
20
-6.48257121179964
30
0
41
1
10
64.111616574647
20
-6.57979327281191
30
0
41
1
10
64.3912962983918
20
-6.67449883444286
30
0
0
SPLINE
5
B8
100
AcDbEntity
8
1
62
256
6
ByLayer
370
13
48
1
60
0
100
AcDbSpline
70
4
71
3
72
16
73
12
40
0
40
0
40
0
40
0
40
0.114652364155442
40
0.114652364155442
40
0.203187127739898
40
0.203187127739898
40
0.291721891324355
40
0.291721891324355
40
0.645860945662178
40
0.645860945662178
40
1
40
1
40
1
40
1
41
1
10
64.3912962981673
20
-6.67449883436683
30
0
41
1
10
64.9050322639972
20
-6.84846086680591
30
0
41
1
10
65.4196155683159
20
-7.0139319781297
30
0
41
1
10
66.3338481758735
20
-7.29094732929042
30
0
41
1
10
66.7329941194119
20
-7.40615963777634
30
0
41
1
10
67.5332004480646
20
-7.62512069401691
30
0
41
1
10
67.9347673941564
20
-7.72899274966835
30
0
41
1
10
69.9365112187545
20
-8.215367135267
30
0
41
1
10
71.5252836323585
20
-8.50093168832683
30
0
41
1
10
74.7028246496266
20
-8.85283687171329
30
0
41
1
10
76.2917428139392
20
-8.9194365861274
30
0
41
1
10
77.8927185645021
20
-8.87113231091078
30
0
0
SPLINE
5
B9
100
AcDbEntity
8
1
62
256
6
ByLayer
370
18
48
1
60
0
100
AcDbSpline
70
4
71
3
72
50
73
46
40
0
40
0
40
0
40
0
40
0.0624999999999919
40
0.0624999999999919
40
0.124999999999984
40
0.124999999999984
40
0.187499999999976
40
0.187499999999976
40
0.249999999999968
40
0.249999999999968
40
0.31249999999996
40
0.31249999999996
40
0.343749999999955
40
0.343749999999955
40
0.374999999999951
40
0.374999999999951
40
0.406249999999947
40
0.406249999999947
40
0.421874999999945
40
0.421874999999945
40
0.437499999999943
40
0.437499999999943
40
0.453124999999941
40
0.453124999999941
40
0.468749999999939
40
0.468749999999939
40
0.484374999999937
40
0.484374999999937
40
0.499999999999935
40
0.499999999999935
40
0.531249999999936
40
0.531249999999936
40
0.562499999999937
40
0.562499999999937
40
0.624999999999946
40
0.624999999999946
40
0.687499999999955
40
0.687499999999955
40
0.749999999999964
40
0.749999999999964
40
0.874999999999982
40
0.874999999999982
40
0.937499999999991
40
0.937499999999991
40
1
40
1
40
1
40
1
41
1
10
78.2707404999218
20
-4.74353935795219
30
0
41
1
10
78.1119919011288
20
-4.6967187415008
30
0
41
1
10
77.9534530056057
20
-4.64286408898207
30
0
41
1
10
77.6367890548362
20
-4.52127341989555
30
0
41
1
10
77.4781853518092
20
-4.45330766044205
30
0
41
1
10
77.1638238189589
20
-4.30349639774465
30
0
41
1
10
77.0084662274894
20
-4.22191006413675
30
0
41
1
10
76.7018787463386
20
-4.04361216356077
30
0
41
1
10
76.5506294322186
20
-3.94697177401318
30
0
41
1
10
76.2534335859947
20
-3.73425988783549
30
0
41
1
10
76.107577297872
20
-3.61837414815909
30
0
41
1
10
75.899435390916
20
-3.426170302001
30
0
41
1
10
75.8314815922668
20
-3.35862436887211
30
0
41
1
10
75.702124940107
20
-3.21679151001283
30
0
41
1
10
75.640504950823
20
-3.14244780180141
30
0
41
1
10
75.5265235301686
20
-2.98338492276341
30
0
41
1
10
75.4734953969541
20
-2.89769183696569
30
0
41
1
10
75.4100484995106
20
-2.76151566537078
30
0
41
1
10
75.391431267225
20
-2.71430333571683
30
0
41
1
10
75.3626778597194
20
-2.61929535629878
30
0
41
1
10
75.3523720714441
20
-2.57132069476395
30
0
41
1
10
75.3427183964524
20
-2.47410443909348
30
0
41
1
10
75.343677179647
20
-2.42679744774569
30
0
41
1
10
75.3581903786302
20
-2.33657049393253
30
0
41
1
10
75.3717292189616
20
-2.29443989929521
30
0
41
1
10
75.4087449708004
20
-2.21880071919057
30
0
41
1
10
75.432327887305
20
-2.18498109004579
30
0
41
1
10
75.4850772046647
20
-2.12625042690485
30
0
41
1
10
75.5146954008366
20
-2.10067439790629
30
0
41
1
10
75.6093563369759
20
-2.0337166483271
30
0
41
1
10
75.678497300035
20
-2.00248889685543
30
0
41
1
10
75.8234529965216
20
-1.95486685682204
30
0
41
1
10
75.8991256123881
20
-1.93894266484685
30
0
41
1
10
76.1271205125088
20
-1.90724300511459
30
0
41
1
10
76.2828254080522
20
-1.90641624040234
30
0
41
1
10
76.5983217707015
20
-1.92714046368815
30
0
41
1
10
76.7586221852002
20
-1.94935912799744
30
0
41
1
10
77.0768445496515
20
-2.00950706678475
30
0
41
1
10
77.2355334171743
20
-2.04756533866578
30
0
41
1
10
77.7105918268378
20
-2.18080109883132
30
0
41
1
10
78.0259802323266
20
-2.29452800478512
30
0
41
1
10
78.4972650700705
20
-2.4991071007733
30
0
41
1
10
78.6541780486854
20
-2.57321211347514
30
0
41
1
10
78.9646141033254
20
-2.73308972424798
30
0
41
1
10
79.1184590429842
20
-2.81894660453142
30
0
41
1
10
79.2705914725256
20
-2.91218448707903
30
0
0
SPLINE
5
BA
100
AcDbEntity
8
1
62
256
6
ByLayer
370
18
48
1
60
0
100
AcDbSpline
70
4
71
3
72
70
73
66
40
0
40
0
40
0
40
0
40
0.0263453103256258
40
0.0263453103256258
40
0.0637935676207957
40
0.0637935676207957
40
0.101241824915966
40
0.101241824915966
40
0.138690082211135
40
0.138690082211135
40
0.15741421085872
40
0.15741421085872
40
0.176138339506305
40
0.176138339506305
40
0.213586596801474
40
0.213586596801474
40
0.251034854096643
40
0.251034854096643
40
0.288483111391812
40
0.288483111391812
40
0.325931368686981
40
0.325931368686981
40
0.36337962598215
40
0.36337962598215
40
0.400827883277319
40
0.400827883277319
40
0.419552011924904
40
0.419552011924904
40
0.438276140572488
40
0.438276140572488
40
0.475724397867657
40
0.475724397867657
40
0.513172655162825
40
0.513172655162825
40
0.531896783810409
40
0.531896783810409
40
0.550620912457992
40
0.550620912457992
40
0.588069169753159
40
0.588069169753159
40
0.625517427048326
40
0.625517427048326
40
0.644241555695909
40
0.644241555695909
40
0.662965684343492
40
0.662965684343492
40
0.70041394163866
40
0.70041394163866
40
0.737862198933827
40
0.737862198933827
40
0.756586327581411
40
0.756586327581411
40
0.775310456228995
40
0.775310456228995
40
0.812758713524162
40
0.812758713524162
40
0.85020697081933
40
0.85020697081933
40
0.887655228114497
40
0.887655228114497
40
0.925103485409665
40
0.925103485409665
40
0.962551742704832
40
0.962551742704832
40
1
40
1
40
1
40
1
41
1
10
60.988707685479
20
-6.70846938470299
30
0
41
1
10
60.6282896562361
20
-6.82656388881207
30
0
41
1
10
60.2676778540816
20
-6.94005092375241
30
0
41
1
10
59.3930303070847
20
-7.2016872132271
30
0
41
1
10
58.8782133694152
20
-7.34552877872031
30
0
41
1
10
57.8512550010781
20
-7.61676697557067
30
0
41
1
10
57.3387193284253
20
-7.74346912457327
30
0
41
1
10
56.3134397457416
20
-7.975329425355
30
0
41
1
10
55.8009424384896
20
-8.08095692541434
30
0
41
1
10
55.0320763702932
20
-8.22031637220869
30
0
41
1
10
54.7757983089763
20
-8.26347457721104
30
0
41
1
10
54.2630649819463
20
-8.34562554685905
30
0
41
1
10
54.0065684156768
20
-8.3843349015016
30
0
41
1
10
53.2365767559977
20
-8.4926438236447
30
0
41
1
10
52.7220372669301
20
-8.55470198134972
30
0
41
1
10
51.6947991816268
20
-8.656268006331
30
0
41
1
10
51.1823475832833
20
-8.69580882337957
30
0
41
1
10
50.1570661391723
20
-8.74836999789304
30
0
41
1
10
49.6443924754564
20
-8.76189840240522
30
0
41
1
10
48.619418407888
20
-8.76902467737045
30
0
41
1
10
48.107285675336
20
-8.7615006078446
30
0
41
1
10
47.0812346294343
20
-8.72350044412866
30
0
41
1
10
46.5670657914808
20
-8.6934449470381
30
0
41
1
10
45.5393671054857
20
-8.61019292433531
30
0
41
1
10
45.0267366194984
20
-8.55648739217315
30
0
41
1
10
44.2578149003383
20
-8.4597368925705
30
0
41
1
10
44.001542935589
20
-8.42477673760823
30
0
41
1
10
43.4889795240185
20
-8.34865267728389
30
0
41
1
10
43.2326694483756
20
-8.30733846123252
30
0
41
1
10
42.4638318615953
20
-8.17592274617331
30
0
41
1
10
41.9517783026255
20
-8.07884977794902
30
0
41
1
10
40.9262728893216
20
-7.86381428843137
30
0
41
1
10
40.4127123300017
20
-7.74625311326781
30
0
41
1
10
39.6416406076704
20
-7.55401292263906
30
0
41
1
10
39.3848636747123
20
-7.48739484193149
30
0
41
1
10
38.8717793656397
20
-7.34844197173962
30
0
41
1
10
38.6154583706402
20
-7.27582743714385
30
0
41
1
10
37.8464032660702
20
-7.05181076691804
30
0
41
1
10
37.3338621408473
20
-6.89513777750403
30
0
41
1
10
36.3089934609841
20
-6.56392962517762
30
0
41
1
10
35.7969521563281
20
-6.38923395146003
30
0
41
1
10
35.0281314167416
20
-6.11459635961296
30
0
41
1
10
34.7716978055433
20
-6.02109557706675
30
0
41
1
10
34.2583224611228
20
-5.82963025262271
30
0
41
1
10
34.0013138274967
20
-5.73142452276048
30
0
41
1
10
33.2297843550089
20
-5.4315945700763
30
0
41
1
10
32.7163742117405
20
-5.22507446326637
30
0
41
1
10
31.6909054027065
20
-4.79946204514138
30
0
41
1
10
31.1784063880103
20
-4.58089665719066
30
0
41
1
10
30.4098026140005
20
-4.24430724293137
30
0
41
1
10
30.1536369416549
20
-4.13066710145571
30
0
41
1
10
29.6413532812246
20
-3.90032098770024
30
0
41
1
10
29.3852481816612
20
-3.78338872269958
30
0
41
1
10
28.616527217453
20
-3.42897512146396
30
0
41
1
10
28.1035556311228
20
-3.18891154365707
30
0
41
1
10
27.0761350416919
20
-2.70040872313257
30
0
41
1
10
26.5614567103998
20
-2.45164568684177
30
0
41
1
10
25.5352148293768
20
-1.94835316527877
30
0
41
1
10
25.0225274852294
20
-1.69472660873569
30
0
41
1
10
23.9974241117256
20
-1.18431385787372
30
0
41
1
10
23.485178925287
20
-0.927448233390464
30
0
41
1
10
22.46125776313
20
-0.410286800921568
30
0
41
1
10
21.9489795437628
20
-0.151151967743971
30
0
41
1
10
20.9231648510897
20
0.36680260752135
30
0
41
1
10
20.4095271173559
20
0.625497023593283
30
0
41
1
10
19.8952041829543
20
0.884018015979734
30
0
0
SPLINE
5
BB
100
AcDbEntity
8
1
62
256
6
ByLayer
370
18
48
1
60
0
100
AcDbSpline
70
4
71
3
72
14
73
10
40
0
40
0
40
0
40
0
40
0.151057392978756
40
0.151057392978756
40
0.302114785957511
40
0.302114785957511
40
0.604229571915022
40
0.604229571915022
40
1
40
1
40
1
40
1
41
1
10
1.43036184097269
20
-3.08364240064529
30
0
41
1
10
1.83187011762533
20
-3.27576389425278
30
0
41
1
10
2.23326376678696
20
-3.46535547322984
30
0
41
1
10
3.03620099673617
20
-3.83880892140942
30
0
41
1
10
3.43746597926113
20
-4.02253533819101
30
0
41
1
10
4.63741893119891
20
-4.56203957499133
30
0
41
1
10
5.43386921437627
20
-4.90662433337732
30
0
41
1
10
7.26905743125457
20
-5.66239868327554
30
0
41
1
10
8.30617104993405
20
-6.06145172004253
30
0
41
1
10
9.34327471586565
20
-6.42593851920003
30
0
0
SPLINE
5
BC
100
AcDbEntity
8
1
62
256
6
ByLayer
370
13
48
1
60
0
100
AcDbSpline
70
4
71
3
72
18
73
14
40
0
40
0
40
0
40
0
40
0.106654309652939
40
0.106654309652939
40
0.415797327693238
40
0.415797327693238
40
0.493083082203313
40
0.493083082203313
40
0.570368836713388
40
0.570368836713388
40
0.724940345733537
40
0.724940345733537
40
1
40
1
40
1
40
1
41
1
10
9.34327474122483
20
-6.42593852811243
30
0
41
1
10
9.88953520834389
20
-6.61792003912163
30
0
41
1
10
10.4357929142689
20
-6.80031179945257
30
0
41
1
10
12.5674530972598
20
-7.47112955436455
30
0
41
1
10
14.15599295009
20
-7.88392510873484
30
0
41
1
10
16.1624324703457
20
-8.27183084508422
30
0
41
1
10
16.5633901435929
20
-8.34273819144897
30
0
41
1
10
17.3633957322776
20
-8.4707787861168
30
0
41
1
10
17.7627132991391
20
-8.52796395306751
30
0
41
1
10
18.9591510761534
20
-8.67888263746752
30
0
41
1
10
19.7548364960631
20
-8.75200492322924
30
0
41
1
10
21.9653195543544
20
-8.8777234612887
30
0
41
1
10
23.37906590573
20
-8.8698076683331
30
0
41
1
10
24.8003897882635
20
-8.77281386474627
30
0
0
SPLINE
5
BD
100
AcDbEntity
8
1
62
256
6
ByLayer
370
18
48
1
60
0
100
AcDbSpline
70
4
71
3
72
12
73
8
40
0
40
0
40
0
40
0
40
0.249999999999992
40
0.249999999999992
40
0.499999999999983
40
0.499999999999983
40
1
40
1
40
1
40
1
41
1
10
1.35837226276641
20
-3.17437494872601
30
0
41
1
10
1.33827984115501
20
-3.16434869799298
30
0
41
1
10
1.32007712190989
20
-3.15201780585377
30
0
41
1
10
1.28734895196024
20
-3.12284991412162
30
0
41
1
10
1.27303875936931
20
-3.10607035539149
30
0
41
1
10
1.23832963879926
20
-3.05171291064445
30
0
41
1
10
1.22568892966993
20
-3.00929743386527
30
0
41
1
10
1.22568892966993
20
-2.96622004106911
30
0
0
SPLINE
5
BE
100
AcDbEntity
8
1
62
256
6
ByLayer
370
18
48
1
60
0
100
AcDbSpline
70
4
71
3
72
46
73
42
40
0
40
0
40
0
40
0
40
0.129476985427055
40
0.129476985427055
40
0.194215478140583
40
0.194215478140583
40
0.25895397085411
40
0.25895397085411
40
0.388430956281165
40
0.388430956281165
40
0.453169448994693
40
0.453169448994693
40
0.51790794170822
40
0.51790794170822
40
0.582646434421747
40
0.582646434421747
40
0.61501568077851
40
0.61501568077851
40
0.647384927135273
40
0.647384927135273
40
0.712123419848799
40
0.712123419848799
40
0.776861912562325
40
0.776861912562325
40
0.84160040527585
40
0.84160040527585
40
0.873969651632613
40
0.873969651632613
40
0.906338897989376
40
0.906338897989376
40
0.922523521167757
40
0.922523521167757
40
0.938708144346139
40
0.938708144346139
40
0.971077390702901
40
0.971077390702901
40
0.979169702292092
40
0.979169702292092
40
0.987262013881283
40
0.987262013881283
40
1
40
1
40
1
40
1
41
1
10
19.8952041829543
20
0.884018015979763
30
0
41
1
10
19.0358668287773
20
1.2896369296509
30
0
41
1
10
18.1877511583088
20
1.71130852733376
30
0
41
1
10
16.9245142577904
20
2.3494791325079
30
0
41
1
10
16.504949514275
20
2.56328643613284
30
0
41
1
10
15.6676095381926
20
2.99022329555422
30
0
41
1
10
15.2502118995667
20
3.20299248470195
30
0
41
1
10
14.0054125632779
20
3.83485264677407
30
0
41
1
10
13.1832054613491
20
4.24897351037274
30
0
41
1
10
11.9581873118576
20
4.84842635862535
30
0
41
1
10
11.5512520292245
20
5.04472887029243
30
0
41
1
10
10.7401378291257
20
5.42885996828306
30
0
41
1
10
10.3359837326594
20
5.61647465553858
30
0
41
1
10
9.53047775323643
20
5.98476560236565
30
0
41
1
10
9.12916711214723
20
6.16504239493017
30
0
41
1
10
8.52998044516897
20
6.42914921532011
30
0
41
1
10
8.33071838279679
20
6.51613956294412
30
0
41
1
10
7.93329724290663
20
6.68793979629436
30
0
41
1
10
7.73492546709747
20
6.77283874916901
30
0
41
1
10
7.14407589875003
20
7.02316459867853
30
0
41
1
10
6.75545419157774
20
7.18439883572938
30
0
41
1
10
5.99305876234695
20
7.49410147033632
30
0
41
1
10
5.61833359811783
20
7.64283371042208
30
0
41
1
10
4.89806295059554
20
7.92454687387473
30
0
41
1
10
4.55188461613727
20
8.05739971826614
30
0
41
1
10
4.06649026354557
20
8.24103801114316
30
0
41
1
10
3.91040030989419
20
8.29963728888916
30
0
41
1
10
3.61374641547192
20
8.41044987626267
30
0
41
1
10
3.47461738395197
20
8.4621237929843
30
0
41
1
10
3.28628827309879
20
8.53204043103091
30
0
41
1
10
3.22682972494411
20
8.55410858849459
30
0
41
1
10
3.11573505550712
20
8.59544484092919
30
0
41
1
10
3.06403087788192
20
8.61474999619585
30
0
41
1
10
2.92537238867158
20
8.66692622369732
30
0
41
1
10
2.85369270284156
20
8.69445397814991
30
0
41
1
10
2.79754338434475
20
8.71806426623746
30
0
41
1
10
2.78799572133502
20
8.72224273299773
30
0
41
1
10
2.77251899653777
20
8.72945313050815
30
0
41
1
10
2.76659068816912
20
8.73248830492412
30
0
41
1
10
2.75645849470516
20
8.73866002041316
30
0
41
1
10
2.7551078112418
20
8.74089246950288
30
0
41
1
10
2.75863951365196
20
8.74161619755193
30
0
0
SPLINE
5
BF
100
AcDbEntity
8
1
62
256
6
ByLayer
370
18
48
1
60
0
100
AcDbSpline
70
4
71
3
72
8
73
4
40
0
40
0
40
0
40
0
40
1
40
1
40
1
40
1
41
1
10
80.9525458230277
20
-0.0426193537434756
30
0
41
1
10
80.376198044656
20
-0.984891890694229
30
0
41
1
10
79.8154629347546
20
-1.94133765524668
30
0
41
1
10
79.2705914725256
20
-2.91218448707897
30
0
0
SPLINE
5
C0
100
AcDbEntity
8
1
62
256
6
ByLayer
370
18
48
1
60
0
100
AcDbSpline
70
4
71
3
72
42
73
38
40
0
40
0
40
0
40
0
40
0.125000000000001
40
0.125000000000001
40
0.187500000000001
40
0.187500000000001
40
0.25
40
0.25
40
0.374999999999999
40
0.374999999999999
40
0.499999999999999
40
0.499999999999999
40
0.624999999999998
40
0.624999999999998
40
0.749999999999994
40
0.749999999999994
40
0.81249999999999
40
0.81249999999999
40
0.843749999999988
40
0.843749999999988
40
0.859374999999989
40
0.859374999999989
40
0.86718749999999
40
0.86718749999999
40
0.87499999999999
40
0.87499999999999
40
0.878906249999991
40
0.878906249999991
40
0.882812499999991
40
0.882812499999991
40
0.890624999999991
40
0.890624999999991
40
0.906249999999993
40
0.906249999999993
40
0.937499999999995
40
0.937499999999995
40
1
40
1
40
1
40
1
41
1
10
69.1350860528505
20
3.41666404355868
30
0
41
1
10
69.5016620412387
20
3.08520916866843
30
0
41
1
10
69.8787345605641
20
2.77519296844565
30
0
41
1
10
70.4600201394406
20
2.34218780039853
30
0
41
1
10
70.6563801555076
20
2.2031593576836
30
0
41
1
10
71.0546907930387
20
1.93652102291767
30
0
41
1
10
71.2570472064911
20
1.80862937363514
30
0
41
1
10
71.8698759268675
20
1.44412205383347
30
0
41
1
10
72.2813365403134
20
1.2292958760041
30
0
41
1
10
73.1100868858077
20
0.856125457462127
30
0
41
1
10
73.5273454475806
20
0.697479188662783
30
0
41
1
10
74.3684205875052
20
0.443731329765228
30
0
41
1
10
74.7922772390256
20
0.348800064999523
30
0
41
1
10
75.6476510323365
20
0.234037354903393
30
0
41
1
10
76.069079228499
20
0.215647039178691
30
0
41
1
10
76.6901730286609
20
0.2568925102413
30
0
41
1
10
76.8958671430191
20
0.28232266534576
30
0
41
1
10
77.1983943701769
20
0.340032376698957
30
0
41
1
10
77.2982888450376
20
0.362559775192864
30
0
41
1
10
77.4466255884807
20
0.401341281211586
30
0
41
1
10
77.495828511782
20
0.414959777942101
30
0
41
1
10
77.5690530883437
20
0.437039387232574
30
0
41
1
10
77.5928093519078
20
0.446991059932998
30
0
41
1
10
77.6307773840896
20
0.482810425470973
30
0
41
1
10
77.6446842147108
20
0.508270829533302
30
0
41
1
10
77.65027817522
20
0.553658801294262
30
0
41
1
10
77.6511005278079
20
0.569283057812072
30
0
41
1
10
77.6532305011755
20
0.600259145424872
30
0
41
1
10
77.654431024167
20
0.615703045116163
30
0
41
1
10
77.6576598972396
20
0.662156131079456
30
0
41
1
10
77.6596333591482
20
0.693183194404867
30
0
41
1
10
77.665029860109
20
0.786435013416224
30
0
41
1
10
77.667928119226
20
0.848811576497923
30
0
41
1
10
77.6746262697268
20
1.03638930062505
30
0
41
1
10
77.676434621251
20
1.16209716032773
30
0
41
1
10
77.6746640569795
20
1.5409973649092
30
0
41
1
10
77.6638685032636
20
1.79620550616031
30
0
41
1
10
77.6454036878998
20
2.05088083351461
30
0
0
SPLINE
5
C1
100
AcDbEntity
8
1
62
256
6
ByLayer
370
13
48
1
60
0
100
AcDbSpline
70
4
71
3
72
8
73
4
40
0
40
0
40
0
40
0
40
1
40
1
40
1
40
1
41
1
10
1.47589859370373
20
-2.9662251392181
30
0
41
1
10
1.43633381597749
20
-2.95494758452719
30
0
41
1
10
1.39744802666775
20
-2.94705794834115
30
0
41
1
10
1.36188781611708
20
-2.94309218522173
30
0
0
SPLINE
5
C2
100
AcDbEntity
8
1
62
256
6
ByLayer
370
18
48
1
60
0
100
AcDbSpline
70
4
71
3
72
18
73
14
40
0
40
0
40
0
40
0
40
0.249999999999999
40
0.249999999999999
40
0.374999999999999
40
0.374999999999999
40
0.499999999999999
40
0.499999999999999
40
0.749999999999999
40
0.749999999999999
40
0.875
40
0.875
40
1
40
1
40
1
40
1
41
1
10
77.150000778112
20
-6.92569006655572
30
0
41
1
10
77.1491021804982
20
-7.24918781575775
30
0
41
1
10
77.1635489899867
20
-7.53221780439657
30
0
41
1
10
77.20894766493
20
-7.89717807365261
30
0
41
1
10
77.2280666526215
20
-8.00884194166895
30
0
41
1
10
77.274794575589
20
-8.21165108207447
30
0
41
1
10
77.3021455650123
20
-8.3015505374637
30
0
41
1
10
77.3957257974076
20
-8.53637152828298
30
0
41
1
10
77.473567503244
20
-8.64748531013856
30
0
41
1
10
77.6154325843333
20
-8.7473024374716
30
0
41
1
10
77.6671421390404
20
-8.76937962704741
30
0
41
1
10
77.7783614624082
20
-8.79045396102907
30
0
41
1
10
77.8378385908776
20
-8.78956236424614
30
0
41
1
10
77.9013242988961
20
-8.77744782144052
30
0
0
SPLINE
5
C3
100
AcDbEntity
8
1
62
256
6
ByLayer
370
18
48
1
60
0
100
AcDbSpline
70
4
71
3
72
66
73
62
40
0
40
0
40
0
40
0
40
0.0215856831568926
40
0.0215856831568926
40
0.0431713663137851
40
0.0431713663137851
40
0.0863427326275703
40
0.0863427326275703
40
0.107928415784463
40
0.107928415784463
40
0.129514098941355
40
0.129514098941355
40
0.172685465255141
40
0.172685465255141
40
0.215856831568927
40
0.215856831568927
40
0.259028197882713
40
0.259028197882713
40
0.302199564196498
40
0.302199564196498
40
0.323785247353391
40
0.323785247353391
40
0.345370930510284
40
0.345370930510284
40
0.38854229682407
40
0.38854229682407
40
0.410127979980963
40
0.410127979980963
40
0.431713663137856
40
0.431713663137856
40
0.474885029451642
40
0.474885029451642
40
0.518056395765429
40
0.518056395765429
40
0.561227762079215
40
0.561227762079215
40
0.582813445236108
40
0.582813445236108
40
0.604399128393002
40
0.604399128393002
40
0.647570494706788
40
0.647570494706788
40
0.669156177863682
40
0.669156177863682
40
0.690741861020575
40
0.690741861020575
40
0.777084593648149
40
0.777084593648149
40
0.820255959961935
40
0.820255959961935
40
0.863427326275722
40
0.863427326275722
40
0.885013009432615
40
0.885013009432615
40
0.906598692589509
40
0.906598692589509
40
0.949770058903297
40
0.949770058903297
40
0.992941425217085
40
0.992941425217085
40
1
40
1
40
1
40
1
41
1
10
77.7446712096361
20
-9.2376309798359
30
0
41
1
10
77.3466313765874
20
-9.24824788522042
30
0
41
1
10
76.9486104224857
20
-9.25152726594189
30
0
41
1
10
76.152222382628
20
-9.24341431429448
30
0
41
1
10
75.7538044999675
20
-9.23200967403992
30
0
41
1
10
74.5601628950797
20
-9.17596797774823
30
0
41
1
10
73.7656822159367
20
-9.10950117936363
30
0
41
1
10
72.5734599184739
20
-8.96697470190773
30
0
41
1
10
72.1759665819938
20
-8.91232762486058
30
0
41
1
10
71.3803256030822
20
-8.78895197437905
30
0
41
1
10
70.9819216837399
20
-8.72014298374754
30
0
41
1
10
69.7875235797286
20
-8.49332616006535
30
0
41
1
10
68.9927817624646
20
-8.31504736426947
30
0
41
1
10
67.4031345073028
20
-7.90720482279357
30
0
41
1
10
66.608223356361
20
-7.67764283328245
30
0
41
1
10
65.014921570555
20
-7.17021856895175
30
0
41
1
10
64.2196695298423
20
-6.8933778492956
30
0
41
1
10
62.6298538938812
20
-6.29855762393282
30
0
41
1
10
61.8350939510971
20
-5.9804727873574
30
0
41
1
10
60.6408346932377
20
-5.47548163101584
30
0
41
1
10
60.2422718829345
20
-5.30243288926312
30
0
41
1
10
59.4463194114326
20
-4.94884842066452
30
0
41
1
10
59.0486732458084
20
-4.76815057607587
30
0
41
1
10
57.8560618313035
20
-4.21544278252921
30
0
41
1
10
57.0614318066322
20
-3.83280818778687
30
0
41
1
10
55.8677976953755
20
-3.24154915728266
30
0
41
1
10
55.4693611072017
20
-3.04143187015922
30
0
41
1
10
54.6728368369094
20
-2.63703164485821
30
0
41
1
10
54.274969496687
20
-2.43280858607923
30
0
41
1
10
53.0819272788266
20
-1.81522608845
30
0
41
1
10
52.2873040998536
20
-1.39696890737898
30
0
41
1
10
50.6963994140193
20
-0.553187692854181
30
0
41
1
10
49.8989360611606
20
-0.127292042839173
30
0
41
1
10
48.3075512297348
20
0.720779544268765
30
0
41
1
10
47.5128671187062
20
1.143157713748
30
0
41
1
10
46.3199258097897
20
1.76970408716952
30
0
41
1
10
45.9221272491088
20
1.97738471896017
30
0
41
1
10
45.1258117057729
20
2.38963424344979
30
0
41
1
10
44.7271131379918
20
2.59429242069271
30
0
41
1
10
43.5328354349517
20
3.20068424069405
30
0
41
1
10
42.7380199043733
20
3.59536896708053
30
0
41
1
10
41.5452506980137
20
4.1685526174827
30
0
41
1
10
41.1475692376378
20
4.35647313801593
30
0
41
1
10
40.3516198684858
20
4.72534547225197
30
0
41
1
10
39.9531000272134
20
4.90640879585473
30
0
41
1
10
37.9611003233681
20
5.79127583913115
30
0
41
1
10
36.3741883175093
20
6.43161148285697
30
0
41
1
10
33.9833862115954
20
7.26186600065813
30
0
41
1
10
33.187463115818
20
7.51616762336971
30
0
41
1
10
31.596926631204
20
7.97498376760493
30
0
41
1
10
30.8018417482738
20
8.17970189105759
30
0
41
1
10
29.6071368559005
20
8.44747586651005
30
0
41
1
10
29.2083435295727
20
8.53022765143891
30
0
41
1
10
28.4119505213012
20
8.68184110885031
30
0
41
1
10
28.0141127424716
20
8.75075362609397
30
0
41
1
10
26.820926137114
20
8.93643518266035
30
0
41
1
10
26.0259565696376
20
9.03218437762337
30
0
41
1
10
24.433766357696
20
9.16617402239015
30
0
41
1
10
23.6360975185196
20
9.20434831081585
30
0
41
1
10
22.7102208457644
20
9.21459905490192
30
0
41
1
10
22.5801336665414
20
9.21525878046344
30
0
41
1
10
22.450061100653
20
9.21513848695773
30
0
0
SPLINE
5
C4
100
AcDbEntity
8
1
62
256
6
ByLayer
370
18
48
1
60
0
100
AcDbSpline
70
4
71
3
72
32
73
28
40
0
40
0
40
0
40
0
40
0.0485251948627589
40
0.0485251948627589
40
0.154244617655784
40
0.154244617655784
40
0.259964040448808
40
0.259964040448808
40
0.365683463241833
40
0.365683463241833
40
0.418543174638346
40
0.418543174638346
40
0.47140288603486
40
0.47140288603486
40
0.524262597431373
40
0.524262597431373
40
0.577122308827887
40
0.577122308827887
40
0.682841731620915
40
0.682841731620915
40
0.735701443017429
40
0.735701443017429
40
0.788561154413943
40
0.788561154413943
40
0.894280577206971
40
0.894280577206971
40
1
40
1
40
1
40
1
41
1
10
60.99087779714
20
6.71086688688519
30
0
41
1
10
61.2688697166723
20
6.8132234139201
30
0
41
1
10
61.5464193552311
20
6.91317051465325
30
0
41
1
10
62.4291179204407
20
7.22083675088584
30
0
41
1
10
63.0342437042677
20
7.41760223607596
30
0
41
1
10
64.2433649819699
20
7.78477656654846
30
0
41
1
10
64.8467546084162
20
7.95563834695264
30
0
41
1
10
66.0573223318464
20
8.26565459527049
30
0
41
1
10
66.663842566811
20
8.40563036331744
30
0
41
1
10
67.5743294926268
20
8.59360967735907
30
0
41
1
10
67.8778750256191
20
8.65261575116227
30
0
41
1
10
68.4865874835648
20
8.76219282680432
30
0
41
1
10
68.7916167084508
20
8.81288062470784
30
0
41
1
10
69.4028330389948
20
8.90616600474101
30
0
41
1
10
69.7091874098726
20
8.94878880829913
30
0
41
1
10
70.3221780248583
20
9.02579934042146
30
0
41
1
10
70.6278694842907
20
9.06013996592463
30
0
41
1
10
71.54331762989
20
9.15029894899621
30
0
41
1
10
72.152908455983
20
9.19284651655931
30
0
41
1
10
73.065487425353
20
9.23129281327164
30
0
41
1
10
73.3693879957482
20
9.23986440120024
30
0
41
1
10
73.9762967873398
20
9.24848833291804
30
0
41
1
10
74.2793096426784
20
9.24851071377583
30
0
41
1
10
75.1892284367102
20
9.23578353198789
30
0
41
1
10
75.7963948807463
20
9.21038688255493
30
0
41
1
10
77.010429328337
20
9.12566985101483
30
0
41
1
10
77.6167631595472
20
9.06596183342899
30
0
41
1
10
78.2254970272456
20
8.98987594159425
30
0
0
SPLINE
5
C5
100
AcDbEntity
8
1
62
256
6
ByLayer
370
18
48
1
60
0
100
AcDbSpline
70
4
71
3
72
10
73
6
40
0
40
0
40
0
40
0
40
0.5
40
0.5
40
1
40
1
40
1
40
1
41
1
10
80.9692058184743
20
0.248260124599739
30
0
41
1
10
80.9699764285676
20
0.22293344509643
30
0
41
1
10
80.9734788750289
20
0.193865090476805
30
0
41
1
10
80.9842216911674
20
0.131108665332675
30
0
41
1
10
80.9913311149442
20
0.0983057661442501
30
0
41
1
10
80.9999579556334
20
0.0642644545967812
30
0
0
SPLINE
5
C6
100
AcDbEntity
8
1
62
256
6
ByLayer
370
18
48
1
60
0
100
AcDbSpline
70
4
71
3
72
10
73
6
40
0
40
0
40
0
40
0
40
0.5
40
0.5
40
1
40
1
40
1
40
1
41
1
10
1.22568892967004
20
-2.89294202472718
30
0
41
1
10
1.22568892967004
20
-2.92507805338036
30
0
41
1
10
1.23759144071192
20
-2.9580743097861
30
0
41
1
10
1.28333609625491
20
-3.01495036606551
30
0
41
1
10
1.31771959716985
20
-3.03998823230361
30
0
41
1
10
1.36188781611708
20
-3.05655020969749
30
0
0
SPLINE
5
C7
100
AcDbEntity
8
1
62
256
6
ByLayer
370
18
48
1
60
0
100
AcDbSpline
70
4
71
3
72
8
73
4
40
0
40
0
40
0
40
0
40
1
40
1
40
1
40
1
41
1
10
77.8927185645632
20
-8.87113231094079
30
0
41
1
10
77.8434820984185
20
-8.99352113369616
30
0
41
1
10
77.7941298360745
20
-9.11568584663112
30
0
41
1
10
77.7446712096361
20
-9.23763097983587
30
0
0
SPLINE
5
C8
100
AcDbEntity
8
1
62
256
6
ByLayer
370
18
48
1
60
0
100
AcDbSpline
70
4
71
3
72
92
73
88
40
0
40
0
40
0
40
0
40
0.0336230687256483
40
0.0336230687256483
40
0.0504346030884728
40
0.0504346030884728
40
0.0672461374512972
40
0.0672461374512972
40
0.100869206176946
40
0.100869206176946
40
0.134492274902595
40
0.134492274902595
40
0.168115343628244
40
0.168115343628244
40
0.184926877991069
40
0.184926877991069
40
0.201738412353894
40
0.201738412353894
40
0.218549946716718
40
0.218549946716718
40
0.235361481079543
40
0.235361481079543
40
0.268984549805192
40
0.268984549805192
40
0.285796084168017
40
0.285796084168017
40
0.302607618530841
40
0.302607618530841
40
0.336230687256492
40
0.336230687256492
40
0.369853755982142
40
0.369853755982142
40
0.403476824707792
40
0.403476824707792
40
0.420288359070617
40
0.420288359070617
40
0.437099893433443
40
0.437099893433443
40
0.453911427796268
40
0.453911427796268
40
0.470722962159093
40
0.470722962159093
40
0.504346030884744
40
0.504346030884744
40
0.521157565247569
40
0.521157565247569
40
0.537969099610395
40
0.537969099610395
40
0.571592168336045
40
0.571592168336045
40
0.605215237061696
40
0.605215237061696
40
0.638838305787347
40
0.638838305787347
40
0.655649840150172
40
0.655649840150172
40
0.672461374512997
40
0.672461374512997
40
0.689272908875822
40
0.689272908875822
40
0.706084443238647
40
0.706084443238647
40
0.739707511964297
40
0.739707511964297
40
0.756519046327122
40
0.756519046327122
40
0.773330580689947
40
0.773330580689947
40
0.806953649415597
40
0.806953649415597
40
0.840576718141247
40
0.840576718141247
40
0.874199786866897
40
0.874199786866897
40
0.891011321229722
40
0.891011321229722
40
0.907822855592547
40
0.907822855592547
40
0.924634389955371
40
0.924634389955371
40
0.941445924318196
40
0.941445924318196
40
0.975068993043846
40
0.975068993043846
40
0.991880527406672
40
0.991880527406672
40
1
40
1
40
1
40
1
41
1
10
19.8952041829543
20
9.21304582811175
30
0
41
1
10
20.507651273205
20
9.2100135873728
30
0
41
1
10
21.1190251780668
20
9.18955652129361
30
0
41
1
10
22.0334816892755
20
9.13383982106581
30
0
41
1
10
22.3378365453665
20
9.11107143155098
30
0
41
1
10
22.9453103685747
20
9.05703192354835
30
0
41
1
10
23.248309549765
20
9.02569048533024
30
0
41
1
10
24.1574716513244
20
8.91964187737966
30
0
41
1
10
24.7634827811427
20
8.83295431588618
30
0
41
1
10
25.9739513953445
20
8.62735810488434
30
0
41
1
10
26.5776798730982
20
8.50776748605961
30
0
41
1
10
27.7881591904242
20
8.23920967466032
30
0
41
1
10
28.3944170360879
20
8.09008165990605
30
0
41
1
10
29.3042327458075
20
7.8428341199228
30
0
41
1
10
29.6074081213539
20
7.75627955777992
30
0
41
1
10
30.215139935782
20
7.57646137954305
30
0
41
1
10
30.5196164009648
20
7.48313870726639
30
0
41
1
10
31.1296287001
20
7.28949989322555
30
0
41
1
10
31.4351506553475
20
7.18916697184352
30
0
41
1
10
32.0470999893818
20
6.98121122632386
30
0
41
1
10
32.3538916145415
20
6.87335076082061
30
0
41
1
10
33.2718926823617
20
6.53984635084552
30
0
41
1
10
33.8823734257876
20
6.30686652170436
30
0
41
1
10
34.7956508685235
20
5.94165208282823
30
0
41
1
10
35.099643732692
20
5.81724764218222
30
0
41
1
10
35.7065146531473
20
5.56272093511197
30
0
41
1
10
36.0092638941849
20
5.43238616180776
30
0
41
1
10
36.9178299474561
20
5.03590089911182
30
0
41
1
10
37.5235359084666
20
4.76367819606233
30
0
41
1
10
38.7335676172086
20
4.20139698215908
30
0
41
1
10
39.3372037265439
20
3.91006570561143
30
0
41
1
10
40.5478065830665
20
3.31747583970079
30
0
41
1
10
41.1542139073478
20
3.01534535912137
30
0
41
1
10
42.0643693489791
20
2.55119522278918
30
0
41
1
10
42.3677064787376
20
2.39437096165406
30
0
41
1
10
42.9758671512747
20
2.07946411039518
30
0
41
1
10
43.280583550599
20
1.92119075217386
30
0
41
1
10
43.8911160106609
20
1.60267436111641
30
0
41
1
10
44.1969203430101
20
1.44240805225465
30
0
41
1
10
44.8094851151645
20
1.1195624105118
30
0
41
1
10
45.1162211345128
20
0.956777471512709
30
0
41
1
10
46.0328918450102
20
0.467786788498216
30
0
41
1
10
46.6426677916979
20
0.14346268970786
30
0
41
1
10
47.5549225796132
20
-0.341546126696897
30
0
41
1
10
47.8585949284882
20
-0.50298861504109
30
0
41
1
10
48.4648465465798
20
-0.825935298129821
30
0
41
1
10
48.7673363110213
20
-0.987605572827931
30
0
41
1
10
49.6752435850124
20
-1.4687020288882
30
0
41
1
10
50.2805833077681
20
-1.7852464777479
30
0
41
1
10
51.4900239888971
20
-2.4126484454452
30
0
41
1
10
52.0934766765489
20
-2.7246561846822
30
0
41
1
10
53.3039675874794
20
-3.33398081852505
30
0
41
1
10
53.9103920181044
20
-3.63247573515059
30
0
41
1
10
54.820666734946
20
-4.07289149271537
30
0
41
1
10
55.1240929090292
20
-4.21864971211377
30
0
41
1
10
55.7325099123245
20
-4.50531175645133
30
0
41
1
10
56.0373751486525
20
-4.64644204590485
30
0
41
1
10
56.648238111757
20
-4.92461478763639
30
0
41
1
10
56.9542262050845
20
-5.061673617704
30
0
41
1
10
57.5672005976546
20
-5.33190014940141
30
0
41
1
10
57.8734143335752
20
-5.46494641286242
30
0
41
1
10
58.7891569175497
20
-5.85578267662601
30
0
41
1
10
59.3984480990443
20
-6.10329940062445
30
0
41
1
10
60.3100027153669
20
-6.4566385420957
30
0
41
1
10
60.613457089971
20
-6.5714187927143
30
0
41
1
10
61.2192866018271
20
-6.79534267130759
30
0
41
1
10
61.5216141362008
20
-6.90452460915526
30
0
41
1
10
62.4291179204407
20
-7.22083675088578
30
0
41
1
10
63.0342437042677
20
-7.41760223607596
30
0
41
1
10
64.2433649819699
20
-7.7847765665484
30
0
41
1
10
64.8467546084162
20
-7.95563834695264
30
0
41
1
10
66.0573223318464
20
-8.26565459527049
30
0
41
1
10
66.663842566811
20
-8.40563036331744
30
0
41
1
10
67.5743294926268
20
-8.59360967735907
30
0
41
1
10
67.8778750256191
20
-8.65261575116227
30
0
41
1
10
68.4865874835649
20
-8.76219282680432
30
0
41
1
10
68.7916167084509
20
-8.81288062470784
30
0
41
1
10
69.4028330389948
20
-8.90616600474101
30
0
41
1
10
69.7091874098726
20
-8.9487888082991
30
0
41
1
10
70.3221780248583
20
-9.02579934042146
30
0
41
1
10
70.6278694842907
20
-9.06013996592463
30
0
41
1
10
71.54331762989
20
-9.15029894899621
30
0
41
1
10
72.152908455983
20
-9.19284651655931
30
0
41
1
10
73.065487425353
20
-9.23129281327164
30
0
41
1
10
73.3693879957482
20
-9.23986440120024
30
0
41
1
10
73.8194018665339
20
-9.24625891870843
30
0
41
1
10
73.9658583476393
20
-9.24734088023084
30
0
41
1
10
74.1122946327133
20
-9.24742504669135
30
0
0
SPLINE
5
C9
100
AcDbEntity
8
1
62
256
6
ByLayer
370
13
48
1
60
0
100
AcDbSpline
70
4
71
3
72
10
73
6
40
0
40
0
40
0
40
0
40
0.5
40
0.5
40
1
40
1
40
1
40
1
41
1
10
1.22568892967001
20
-2.89294202472718
30
0
41
1
10
1.22568892967001
20
-2.90306832025541
30
0
41
1
10
1.23757574593356
20
-2.91329686108151
30
0
41
1
10
1.28332326304945
20
-2.9306646093373
30
0
41
1
10
1.3177278910907
20
-2.93816736055629
30
0
41
1
10
1.36188781611708
20
-2.94309218522173
30
0
0
SPLINE
5
CA
100
AcDbEntity
8
1
62
256
6
ByLayer
370
18
48
1
60
0
100
AcDbSpline
70
4
71
3
72
14
73
10
40
0
40
0
40
0
40
0
40
0.25
40
0.25
40
0.5
40
0.5
40
0.75
40
0.75
40
1
40
1
40
1
40
1
41
1
10
77.6454036878995
20
2.05088083351458
30
0
41
1
10
77.6435641843189
20
2.0762521230356
30
0
41
1
10
77.6483542238223
20
2.10207455419504
30
0
41
1
10
77.6727790397389
20
2.14717526374423
30
0
41
1
10
77.6924370918698
20
2.16617363040041
30
0
41
1
10
77.7370818075752
20
2.19312057518093
30
0
41
1
10
77.762382130048
20
2.2018247054921
30
0
41
1
10
77.8133170739669
20
2.21203478716441
30
0
41
1
10
77.8395245728914
20
2.21372480447064
30
0
41
1
10
77.8656346404537
20
2.21289501988915
30
0
0
SPLINE
5
CB
100
AcDbEntity
8
1
62
256
6
ByLayer
370
13
48
1
60
0
100
AcDbSpline
70
4
71
3
72
8
73
4
40
0
40
0
40
0
40
0
40
1
40
1
40
1
40
1
41
1
10
1.36188781611708
20
-3.05655020969749
30
0
41
1
10
1.38341254980031
20
-3.06308660641991
30
0
41
1
10
1.40671664035585
20
-3.07232818491568
30
0
41
1
10
1.43036184097269
20
-3.08364240064529
30
0
0
SPLINE
5
CC
100
AcDbEntity
8
1
62
256
6
ByLayer
370
18
48
1
60
0
100
AcDbSpline
70
4
71
3
72
10
73
6
40
0
40
0
40
0
40
0
40
0.5
40
0.5
40
1
40
1
40
1
40
1
41
1
10
80.9692058184743
20
-0.248260124599568
30
0
41
1
10
80.9699764285677
20
-0.222933445097198
30
0
41
1
10
80.9734788750288
20
-0.193865090478852
30
0
41
1
10
80.9842216911666
20
-0.131108665337308
30
0
41
1
10
80.9913311149429
20
-0.0983057661502755
30
0
41
1
10
80.9999579556315
20
-0.0642644546042561
30
0
0
SPLINE
5
CD
100
AcDbEntity
8
1
62
256
6
ByLayer
370
18
48
1
60
0
100
AcDbSpline
70
4
71
3
72
10
73
6
40
0
40
0
40
0
40
0
40
0.5
40
0.5
40
1
40
1
40
1
40
1
41
1
10
78.2254970272458
20
8.98987594159425
30
0
41
1
10
78.1370485698181
20
9.05657479157674
30
0
41
1
10
78.0524068927406
20
9.1112455294994
30
0
41
1
10
77.890820282161
20
9.19479619526871
30
0
41
1
10
77.815288631367
20
9.22294074923022
30
0
41
1
10
77.7446712096361
20
9.2376309798359
30
0
0
SPLINE
5
CE
100
AcDbEntity
8
1
62
256
6
ByLayer
370
18
48
1
60
0
100
AcDbSpline
70
4
71
3
72
12
73
8
40
0
40
0
40
0
40
0
40
0.499999999999986
40
0.499999999999986
40
0.749999999999993
40
0.749999999999993
40
1
40
1
40
1
40
1
41
1
10
77.8656346404537
20
2.21289501988912
30
0
41
1
10
78.367726617633
20
2.19693840927658
30
0
41
1
10
78.8698505459164
20
2.18065137598052
30
0
41
1
10
79.622877984652
20
2.1578594765547
30
0
41
1
10
79.8738652804019
20
2.15048814387501
30
0
41
1
10
80.3757060047562
20
2.13712986702672
30
0
41
1
10
80.6265501680926
20
2.13123873972546
30
0
41
1
10
80.8773827485167
20
2.12546739723524
30
0
0
SPLINE
5
CF
100
AcDbEntity
8
1
62
256
6
ByLayer
370
13
48
1
60
0
100
AcDbSpline
70
4
71
3
72
46
73
42
40
0
40
0
40
0
40
0
40
0.034199748206349
40
0.034199748206349
40
0.0683994964126979
40
0.0683994964126979
40
0.136798992825396
40
0.136798992825396
40
0.205198489238094
40
0.205198489238094
40
0.273597985650792
40
0.273597985650792
40
0.307797733857141
40
0.307797733857141
40
0.34199748206349
40
0.34199748206349
40
0.410396978476188
40
0.410396978476188
40
0.444596726682537
40
0.444596726682537
40
0.478796474888886
40
0.478796474888886
40
0.547195971301584
40
0.547195971301584
40
0.581395719507933
40
0.581395719507933
40
0.615595467714282
40
0.615595467714282
40
0.68399496412698
40
0.68399496412698
40
0.71819471233333
40
0.71819471233333
40
0.752394460539679
40
0.752394460539679
40
0.820793956952377
40
0.820793956952377
40
0.889193453365076
40
0.889193453365076
40
0.957592949777774
40
0.957592949777774
40
1
40
1
40
1
40
1
41
1
10
1.47589859370373
20
-2.96622513921807
30
0
41
1
10
1.47590370691748
20
-2.78648566504157
30
0
41
1
10
1.47590803510676
20
-2.60440958683677
30
0
41
1
10
1.4759152832319
20
-2.23812533212072
30
0
41
1
10
1.47591820182424
20
-2.05418152971444
30
0
41
1
10
1.47592521507039
20
-1.5000014770113
30
0
41
1
10
1.47592757147777
20
-1.12742616218523
30
0
41
1
10
1.47592947763764
20
-0.376088273919493
30
0
41
1
10
1.47592902183669
20
0.0029428116687882
30
0
41
1
10
1.47592704568638
20
0.766358496647626
30
0
41
1
10
1.47592555072941
20
1.14496347070599
30
0
41
1
10
1.47592385107447
20
1.70824388105251
30
0
41
1
10
1.47592337344204
20
1.89560374017464
30
0
41
1
10
1.47592280039663
20
2.26491867502762
30
0
41
1
10
1.47592270321641
20
2.44727886135533
30
0
41
1
10
1.4759232268934
20
2.98760565852851
30
0
41
1
10
1.47592466992177
20
3.33884617030603
30
0
41
1
10
1.47592930913564
20
3.85227294811006
30
0
41
1
10
1.47593126608993
20
4.02116927494109
30
0
41
1
10
1.47593612056255
20
4.35438941182051
30
0
41
1
10
1.47593902827757
20
4.51915520302063
30
0
41
1
10
1.47594923960432
20
5.00256636037906
30
0
41
1
10
1.47595802105337
20
5.31019288439134
30
0
41
1
10
1.4759743577053
20
5.74963914942671
30
0
41
1
10
1.47598032030396
20
5.89211446215126
30
0
41
1
10
1.47599313776493
20
6.16660860703664
30
0
41
1
10
1.47600000655757
20
6.29901859983411
30
0
41
1
10
1.47602190504568
20
6.68201329078047
30
0
41
1
10
1.47603823548206
20
6.9184208605154
30
0
41
1
10
1.47606482897552
20
7.24466371065171
30
0
41
1
10
1.47607404104625
20
7.34866869503483
30
0
41
1
10
1.47609304895062
20
7.54701470831449
30
0
41
1
10
1.4761028763802
20
7.64163099522463
30
0
41
1
10
1.47613280736422
20
7.90853900670066
30
0
41
1
10
1.47615319432501
20
8.06266545619889
30
0
41
1
10
1.47619339395413
20
8.32496614959121
30
0
41
1
10
1.47621321070176
20
8.43313632938478
30
0
41
1
10
1.47625059371725
20
8.60282326905735
30
0
41
1
10
1.47626822680019
20
8.664288251957
30
0
41
1
10
1.47629269056188
20
8.72273419987215
30
0
41
1
10
1.47630112696282
20
8.73562343900829
30
0
41
1
10
1.47630843005473
20
8.73910782821059
30
0
0
SPLINE
5
D0
100
AcDbEntity
8
1
62
256
6
ByLayer
370
18
48
1
60
0
100
AcDbSpline
70
4
71
3
72
8
73
4
40
0
40
0
40
0
40
0
40
1
40
1
40
1
40
1
41
1
10
80.8773827485177
20
2.12546739723518
30
0
41
1
10
80.9195746038834
20
1.49908671538256
30
0
41
1
10
80.9501863045558
20
0.873350734550741
30
0
41
1
10
80.9692058184743
20
0.248260124599739
30
0
0
SPLINE
5
D1
100
AcDbEntity
8
1
62
256
6
ByLayer
370
18
48
1
60
0
100
AcDbSpline
70
4
71
3
72
14
73
10
40
0
40
0
40
0
40
0
40
0.25
40
0.25
40
0.5
40
0.5
40
0.75
40
0.75
40
1
40
1
40
1
40
1
41
1
10
77.9013242988567
20
-8.77744782144805
30
0
41
1
10
77.9047857686777
20
-8.77678729287226
30
0
41
1
10
77.9076025836078
20
-8.7778319765084
30
0
41
1
10
77.9115380630252
20
-8.78440163018956
30
0
41
1
10
77.9126011115395
20
-8.79001250408098
30
0
41
1
10
77.9117869096298
20
-8.80685024671178
30
0
41
1
10
77.9098320825365
20
-8.81811222054168
30
0
41
1
10
77.9029424930146
20
-8.84370904149955
30
0
41
1
10
77.8980861129812
20
-8.85779000627491
30
0
41
1
10
77.8927185645761
20
-8.87113231090856
30
0
0
SPLINE
5
D2
100
AcDbEntity
8
1
62
256
6
ByLayer
370
18
48
1
60
0
100
AcDbSpline
70
4
71
3
72
8
73
4
40
0
40
0
40
0
40
0
40
1
40
1
40
1
40
1
41
1
10
78.2707404999218
20
-4.74353935795222
30
0
41
1
10
77.8886544702289
20
-5.46320104385489
30
0
41
1
10
77.5150467581656
20
-6.19055937211405
30
0
41
1
10
77.150000778112
20
-6.92569006655575
30
0
0
SPLINE
5
D3
100
AcDbEntity
8
1
62
256
6
ByLayer
370
18
48
1
60
0
100
AcDbSpline
70
4
71
3
72
8
73
4
40
0
40
0
40
0
40
0
40
1
40
1
40
1
40
1
41
1
10
80.9999579556315
20
0.0642644545998508
30
0
41
1
10
81.0000140169079
20
0.0214198661983573
30
0
41
1
10
81.0000140121251
20
-0.0214235214286305
30
0
41
1
10
80.9999579556315
20
-0.0642644546040003
30
0
0
SPLINE
5
D4
100
AcDbEntity
8
1
62
256
6
ByLayer
370
18
48
1
60
0
100
AcDbSpline
70
4
71
3
72
42
73
38
40
0
40
0
40
0
40
0
40
0.0316876826246114
40
0.0316876826246114
40
0.0475315239369171
40
0.0475315239369171
40
0.0633753652492228
40
0.0633753652492228
40
0.126750730498446
40
0.126750730498446
40
0.134672651154598
40
0.134672651154598
40
0.138633611482675
40
0.138633611482675
40
0.142594571810751
40
0.142594571810751
40
0.146555532138828
40
0.146555532138828
40
0.150516492466904
40
0.150516492466904
40
0.154477452794981
40
0.154477452794981
40
0.158438413123057
40
0.158438413123057
40
0.190126095747666
40
0.190126095747666
40
0.253501460996884
40
0.253501460996884
40
0.316876826246103
40
0.316876826246103
40
0.380252191495321
40
0.380252191495321
40
0.507002921993759
40
0.507002921993759
40
0.760504382990634
40
0.760504382990634
40
1
40
1
40
1
40
1
41
1
10
2.25890416446418
20
-9.13735852212835
30
0
41
1
10
2.34027793420381
20
-9.11567129522143
30
0
41
1
10
2.43724035456927
20
-9.08978401336444
30
0
41
1
10
2.60139746276866
20
-9.04640472611953
30
0
41
1
10
2.65925726233991
20
-9.03117884734661
30
0
41
1
10
2.78068829438118
20
-8.99941068228344
30
0
41
1
10
2.84441653703425
20
-8.98282784484414
30
0
41
1
10
3.17335627893172
20
-8.8978406059052
30
0
41
1
10
3.47081440876679
20
-8.82289026112139
30
0
41
1
10
3.82625203768495
20
-8.73669002458661
30
0
41
1
10
3.86606001469471
20
-8.72707838810999
30
0
41
1
10
3.92618142574696
20
-8.71262819083654
30
0
41
1
10
3.94623371060715
20
-8.70778252499323
30
0
41
1
10
3.98664456473128
20
-8.69819094274351
30
0
41
1
10
4.00794046455584
20
-8.69395827231526
30
0
41
1
10
4.05403876065685
20
-8.6874054252032
30
0
41
1
10
4.07875074555784
20
-8.68484041545381
30
0
41
1
10
4.12809523476236
20
-8.6810265910857
30
0
41
1
10
4.15287175829133
20
-8.67974695048204
30
0
41
1
10
4.20259616997814
20
-8.67822930253686
30
0
41
1
10
4.22754203881857
20
-8.67797881848352
30
0
41
1
10
4.27741785065152
20
-8.67738112156866
30
0
41
1
10
4.3023529204213
20
-8.67706486044179
30
0
41
1
10
4.52677561007192
20
-8.6742601599816
30
0
41
1
10
4.72640984443817
20
-8.67244347926874
30
0
41
1
10
5.32541172221585
20
-8.66903276121158
30
0
41
1
10
5.72450908225127
20
-8.66948739850406
30
0
41
1
10
6.52224214804642
20
-8.67569801847915
30
0
41
1
10
6.92087770014805
20
-8.68145522323533
30
0
41
1
10
7.71769614456747
20
-8.69793141709462
30
0
41
1
10
8.11623188356216
20
-8.70866424836984
30
0
41
1
10
9.30459281775467
20
-8.74725302232176
30
0
41
1
10
10.0891443859683
20
-8.78162255684893
30
0
41
1
10
12.4213547444034
20
-8.89980331772597
30
0
41
1
10
13.9472761624093
20
-8.99944987863736
30
0
41
1
10
16.8690116746054
20
-9.15501690266404
30
0
41
1
10
18.2673056626134
20
-9.21201711912531
30
0
41
1
10
19.6523448954019
20
-9.2133841911533
30
0
0
SPLINE
5
D5
100
AcDbEntity
8
1
62
256
6
ByLayer
370
18
48
1
60
0
100
AcDbSpline
70
4
71
3
72
36
73
32
40
0
40
0
40
0
40
0
40
0.0218218051731679
40
0.0218218051731679
40
0.0970662816983077
40
0.0970662816983077
40
0.172310758223448
40
0.172310758223448
40
0.247555234748588
40
0.247555234748588
40
0.285177473011157
40
0.285177473011157
40
0.322799711273727
40
0.322799711273727
40
0.398044187798869
40
0.398044187798869
40
0.47328866432401
40
0.47328866432401
40
0.548533140849152
40
0.548533140849152
40
0.623777617374293
40
0.623777617374293
40
0.699022093899434
40
0.699022093899434
40
0.774266570424576
40
0.774266570424576
40
0.849511046949717
40
0.849511046949717
40
0.924755523474859
40
0.924755523474859
40
1
40
1
40
1
40
1
41
1
10
48.6867272676326
20
8.76575821530375
30
0
41
1
10
48.8352638425736
20
8.76659627562114
30
0
41
1
10
48.983820591702
20
8.76649327219383
30
0
41
1
10
49.6448446941595
20
8.76188782188683
30
0
41
1
10
50.1576680013545
20
8.74835688015162
30
0
41
1
10
51.1838128789349
20
8.6957159322634
30
0
41
1
10
51.6975625798201
20
8.65603358023944
30
0
41
1
10
52.7246005636969
20
8.55440953981753
30
0
41
1
10
53.2376939102242
20
8.49249294289771
30
0
41
1
10
54.0067088589569
20
8.38431201167577
30
0
41
1
10
54.2629397754828
20
8.34564355350835
30
0
41
1
10
54.7752509985925
20
8.26356431961278
30
0
41
1
10
55.0313662795227
20
8.22043855118827
30
0
41
1
10
55.7999817236104
20
8.08114408230392
30
0
41
1
10
56.3126155845036
20
7.97550984376167
30
0
41
1
10
57.3386695781824
20
7.74348633048285
30
0
41
1
10
57.852277691206
20
7.61651123892557
30
0
41
1
10
58.8797896989916
20
7.34509803105746
30
0
41
1
10
59.3933079148086
20
7.20160030817971
30
0
41
1
10
60.4190572748208
20
6.89477214496935
30
0
41
1
10
60.9310219375927
20
6.73030708092617
30
0
41
1
10
61.9553924316124
20
6.38397877902062
30
0
41
1
10
62.4680113813611
20
6.2025412779264
30
0
41
1
10
63.4940006164772
20
5.82410161876192
30
0
41
1
10
64.0074230703358
20
5.62701851848331
30
0
41
1
10
65.0350482628157
20
5.21853580415697
30
0
41
1
10
65.5483306547852
20
5.00765883420985
30
0
41
1
10
66.5739502578264
20
4.5738413661293
30
0
41
1
10
67.0861301068612
20
4.35057905306044
30
0
41
1
10
68.110028727139
20
3.89109639054988
30
0
41
1
10
68.6223470786343
20
3.65608827863068
30
0
41
1
10
69.13508605285
20
3.41666404355885
30
0
0
SPLINE
5
D6
100
AcDbEntity
8
1
62
256
6
ByLayer
370
18
48
1
60
0
100
AcDbSpline
70
4
71
3
72
8
73
4
40
0
40
0
40
0
40
0
40
1
40
1
40
1
40
1
41
1
10
1.22568892967004
20
-9.05475557266706
30
0
41
1
10
1.5699116879602
20
-9.08785217218554
30
0
41
1
10
1.91432223824592
20
-9.11534997369557
30
0
41
1
10
2.25890416446421
20
-9.13735852212832
30
0
0
SPLINE
5
D7
100
AcDbEntity
8
1
62
256
6
ByLayer
370
18
48
1
60
0
100
AcDbSpline
70
4
71
3
72
8
73
4
40
0
40
0
40
0
40
0
40
1
40
1
40
1
40
1
41
1
10
80.8773827485176
20
-2.12546739723524
30
0
41
1
10
80.9195707483994
20
-1.4991439539335
30
0
41
1
10
80.9501845656365
20
-0.87340788543824
30
0
41
1
10
80.9692058184743
20
-0.248260124599739
30
0
0
SPLINE
5
D8
100
AcDbEntity
8
1
62
256
6
ByLayer
370
18
48
1
60
0
100
AcDbSpline
70
4
71
3
72
8
73
4
40
0
40
0
40
0
40
0
40
1
40
1
40
1
40
1
41
1
10
77.7446712096361
20
9.2376309798359
30
0
41
1
10
77.4493761074029
20
9.24550737787601
30
0
41
1
10
77.1539506853657
20
9.24933622715918
30
0
41
1
10
76.858519467264
20
9.24913036601572
30
0
0
SPLINE
5
D9
100
AcDbEntity
8
1
62
256
6
ByLayer
370
18
48
1
60
0
100
AcDbSpline
70
4
71
3
72
34
73
30
40
0
40
0
40
0
40
0
40
0.0084283648447325
40
0.0084283648447325
40
0.0985712407679383
40
0.0985712407679383
40
0.143642678729541
40
0.143642678729541
40
0.188714116691143
40
0.188714116691143
40
0.278856992614347
40
0.278856992614347
40
0.368999868537552
40
0.368999868537552
40
0.459142744460756
40
0.459142744460756
40
0.504214182422359
40
0.504214182422359
40
0.549285620383962
40
0.549285620383962
40
0.639428496307169
40
0.639428496307169
40
0.684499934268773
40
0.684499934268773
40
0.729571372230377
40
0.729571372230377
40
0.819714248153584
40
0.819714248153584
40
1
40
1
40
1
40
1
41
1
10
27.8382823837255
20
-8.77739069253497
30
0
41
1
10
27.7639079898321
20
-8.78945054384715
30
0
41
1
10
27.689537452992
20
-8.80126609127427
30
0
41
1
10
26.8197866926361
20
-8.93658399453759
30
0
41
1
10
26.0247117830381
20
-9.03232611195361
30
0
41
1
10
24.8301386349896
20
-9.13279904934973
30
0
41
1
10
24.4313380875832
20
-9.15911456879118
30
0
41
1
10
23.6346590289141
20
-9.19710136469752
30
0
41
1
10
23.2367023405655
20
-9.20878777365505
30
0
41
1
10
22.0432583361608
20
-9.22194795866739
30
0
41
1
10
21.2482661387861
20
-9.20152722135256
30
0
41
1
10
19.656235665654
20
-9.10255872265145
30
0
41
1
10
18.8583781313819
20
-9.02381534942069
30
0
41
1
10
17.2664380286877
20
-8.81006917871807
30
0
41
1
10
16.4713922913393
20
-8.67507727922384
30
0
41
1
10
15.2777201881346
20
-8.43197010087016
30
0
41
1
10
14.8796434793369
20
-8.34416810895797
30
0
41
1
10
14.0827571889083
20
-8.15525153951526
30
0
41
1
10
13.6839656200826
20
-8.05413057306987
30
0
41
1
10
12.4893749583489
20
-7.7323694977411
30
0
41
1
10
11.69413981245
20
-7.49307500029866
30
0
41
1
10
10.5006199398342
20
-7.0996721020187
30
0
41
1
10
10.1026947859737
20
-6.96276371366872
30
0
41
1
10
9.30625732885022
20
-6.67785835457445
30
0
41
1
10
8.90737181698438
20
-6.52971258663376
30
0
41
1
10
7.7124020518485
20
-6.07087506323887
30
0
41
1
10
6.91806627629549
20
-5.74578226304976
30
0
41
1
10
4.53719558247744
20
-4.72054838608364
30
0
41
1
10
2.95298189755908
20
-3.9700956601931
30
0
41
1
10
1.3583722627645
20
-3.17437494872505
30
0
0
LINE
5
76
100
AcDbEntity
8
81
62
256
6
ByLayer
370
18
48
1
60
0
100
AcDbLine
10
81
20
0
30
0
11
86
21
0
31
0
39
0
210
0
220
0
230
1
0
LINE
5
77
100
AcDbEntity
8
1
62
256
6
ByLayer
370
18
48
1
60
0
100
AcDbLine
10
1.225689
20
9.201875
30
0
11
0.350219
21
9.201328
31
0
39
0
210
0
220
0
230
1
0
LINE
5
79
100
AcDbEntity
8
1
62
256
6
ByLayer
370
18
48
1
60
0
100
AcDbLine
10
76.860198
20
9.249147
30
0
11
74.11078
21
9.247428
31
0
39
0
210
0
220
0
230
1
0
LINE
5
7A
100
AcDbEntity
8
1
62
256
6
ByLayer
370
18
48
1
60
0
100
AcDbLine
10
74.11078
20
-9.247428
30
0
11
76.860153
21
-9.249147
31
0
39
0
210
0
220
0
230
1
0
LINE
5
7B
100
AcDbEntity
8
1
62
256
6
ByLayer
370
18
48
1
60
0
100
AcDbLine
10
0.350219
20
-9.201328
30
0
11
1.225689
21
-9.201875
31
0
39
0
210
0
220
0
230
1
0
LINE
5
7C
100
AcDbEntity
8
1
62
256
6
ByLayer
370
18
48
1
60
0
100
AcDbLine
10
22.459175
20
9.215146
30
0
11
19.650613
21
9.213391
31
0
39
0
210
0
220
0
230
1
0
LINE
5
7D
100
AcDbEntity
8
1
62
256
6
ByLayer
370
18
48
1
60
0
100
AcDbLine
10
19.650613
20
-9.213391
30
0
11
22.459135
21
-9.215146
31
0
39
0
210
0
220
0
230
1
0
LINE
5
7E
100
AcDbEntity
8
SK1
62
256
6
ByLayer
370
18
48
1
60
0
100
AcDbLine
10
0
20
10
30
0
11
-46.824574
21
10
31
0
39
0
210
0
220
0
230
1
0
LINE
5
80
100
AcDbEntity
8
SK1
62
256
6
ByLayer
370
18
48
1
60
0
100
AcDbLine
10
-46.824574
20
-10
30
0
11
0
21
-10
31
0
39
0
210
0
220
0
230
1
0
LINE
5
81
100
AcDbEntity
8
SK1
62
256
6
ByLayer
370
18
48
1
60
0
100
AcDbLine
10
-46.824574
20
10
30
0
11
-50
21
4.5
31
0
39
0
210
0
220
0
230
1
0
LINE
5
82
100
AcDbEntity
8
SK1
62
256
6
ByLayer
370
18
48
1
60
0
100
AcDbLine
10
-50
20
-4.5
30
0
11
-46.824574
21
-10
31
0
39
0
210
0
220
0
230
1
0
LINE
5
83
100
AcDbEntity
8
SK4
62
256
6
ByLayer
370
18
48
0.05
60
0
100
AcDbLine
10
86
20
0
30
0
11
-55
21
0
31
0
39
0
210
0
220
0
230
1
0
LINE
5
85
100
AcDbEntity
8
4
62
256
6
ByLayer
370
18
48
0.05
60
0
100
AcDbLine
10
81
20
0
30
0
11
0
21
0
31
0
39
0
210
0
220
0
230
1
0
LINE
5
87
100
AcDbEntity
8
80
62
256
6
ByLayer
370
18
48
1
60
0
100
AcDbLine
10
0
20
0
30
0
11
-5
21
0
31
0
39
0
210
0
220
0
230
1
0
LINE
5
88
100
AcDbEntity
8
SK1
62
256
6
ByLayer
370
18
48
1
60
0
100
AcDbLine
10
-50
20
-0.890169
30
0
11
-50
21
-4.5
31
0
39
0
210
0
220
0
230
1
0
LINE
5
89
100
AcDbEntity
8
SK1
62
256
6
ByLayer
370
18
48
1
60
0
100
AcDbLine
10
-47.5
20
0.108886
30
0
11
-47.5
21
3.342911
31
0
39
0
210
0
220
0
230
1
0
LINE
5
8A
100
AcDbEntity
8
SK1
62
256
6
ByLayer
370
13
48
1
60
0
100
AcDbLine
10
-47.6
20
3.401835
30
0
11
-47.6
21
0.028191
31
0
39
0
210
0
220
0
230
1
0
LINE
5
8B
100
AcDbEntity
8
SK1
62
256
6
ByLayer
370
18
48
1
60
0
100
AcDbLine
10
0
20
10
30
0
11
0
21
-10
31
0
39
0
210
0
220
0
230
1
0
LINE
5
8C
100
AcDbEntity
8
SK1
62
256
6
ByLayer
370
18
48
1
60
0
100
AcDbLine
10
-50
20
2.539858
30
0
11
-50
21
0.890169
31
0
39
0
210
0
220
0
230
1
0
LINE
5
8D
100
AcDbEntity
8
SK1
62
256
6
ByLayer
370
18
48
1
60
0
100
AcDbLine
10
-46.824574
20
10
30
0
11
-46.824574
21
-10
31
0
39
0
210
0
220
0
230
1
0
LINE
5
8E
100
AcDbEntity
8
SK1
62
256
6
ByLayer
370
18
48
1
60
0
100
AcDbLine
10
-50
20
4.5
30
0
11
-50
21
2.539858
31
0
39
0
210
0
220
0
230
1
0
LINE
5
8F
100
AcDbEntity
8
1
62
256
6
ByLayer
370
13
48
1
60
0
100
AcDbLine
10
0.350219
20
9.201328
30
0
11
0.350219
21
-9.201328
31
0
39
0
210
0
220
0
230
1
0
LINE
5
90
100
AcDbEntity
8
1
62
256
6
ByLayer
370
13
48
1
60
0
100
AcDbLine
10
77.865635
20
2.212895
30
0
11
80.969206
21
0.24826
31
0
39
0
210
0
220
0
230
1
0
LINE
5
91
100
AcDbEntity
8
1
62
256
6
ByLayer
370
18
48
1
60
0
100
AcDbLine
10
1.225689
20
9.201875
30
0
11
1.225689
21
-2.96622
31
0
39
0
210
0
220
0
230
1
0
LINE
5
92
100
AcDbEntity
8
1
62
256
6
ByLayer
370
18
48
1
60
0
100
AcDbLine
10
1.476308
20
8.739108
30
0
11
1.476312
21
8.740073
31
0
39
0
210
0
220
0
230
1
0
LINE
5
93
100
AcDbEntity
8
1
62
256
6
ByLayer
370
18
48
1
60
0
100
AcDbLine
10
1.225689
20
-9.054756
30
0
11
1.225689
21
-9.201875
31
0
39
0
210
0
220
0
230
1
0
LINE
5
94
100
AcDbEntity
8
1
62
256
6
ByLayer
370
13
48
1
60
0
100
AcDbLine
10
77.645404
20
2.050881
30
0
11
80.952546
21
-0.042619
31
0
39
0
210
0
220
0
230
1
0
MTEXT
5
DA
100
AcDbEntity
8
SK6
62
256
6
ByLayer
370
13
48
1
60
0
100
AcDbMText
10
17.629169
20
41.632694
30
0
210
0
220
0
230
1
1
\W0.7431;460.1-1850-056A1-XM GC34
40
3.5
41
0
44
1.084337
50
0
71
8
72
5
7
iso_b_vert
0
DIMENSION
5
E7
100
AcDbEntity
8
SK2
62
256
6
ByLayer
370
13
48
1
60
0
100
AcDbDimension
2
DimnDraft3D1
10
78.235
20
-19.463398
30
0
11
36.985059
21
-19.463398
31
0
70
32
71
5
72
1
41
1
210
0
220
0
230
1
3
Standard
100
AcDbAlignedDimension
13
0
23
-1.5875
33
0
14
78.235
24
-10.8375
34
0
50
0
100
AcDbRotatedDimension
1001
ACAD
1000
DSTYLE
1002
{
1070
   279
1070
     0
1070
   172
1070
     1
1070
   173
1070
     1
1070
   340
1005
DB
1070
   271
1070
     2
1070
   272
1070
     2
1070
    77
1070
     1
1070
    73
1070
     0
1070
   171
1070
     3
1070
   274
1070
     4
1070
   177
1070
    35
1070
   176
1070
    35
1070
   178
1070
    35
1070
    48
1040
-0.005
1070
    41
1041
3.5
1070
   147
1041
1.75
1070
    42
1041
1.5875
1070
    44
1041
2.0
1070
   140
1041
3.5
1070
   343
1005
0
1070
   344
1005
0
1002
}
0
DIMENSION
5
F1
100
AcDbEntity
8
SK2
62
256
6
ByLayer
370
13
48
1
60
0
100
AcDbDimension
2
DimnDraft3D2
10
81
20
-38.692985
30
0
11
14.0763
21
-38.692985
31
0
70
32
71
5
72
1
41
1
210
0
220
0
230
1
3
Standard
100
AcDbAlignedDimension
13
-50
23
-11.5875
33
0
14
81
24
-1.5875
34
0
50
0
100
AcDbRotatedDimension
1001
ACAD
1000
DSTYLE
1002
{
1070
   279
1070
     0
1070
   172
1070
     1
1070
   173
1070
     1
1070
   340
1005
DB
1070
   271
1070
     2
1070
   272
1070
     2
1070
    77
1070
     1
1070
    73
1070
     0
1070
   171
1070
     3
1070
   274
1070
     4
1070
   177
1070
    35
1070
   176
1070
    35
1070
   178
1070
    35
1070
    48
1040
-0.005
1070
    41
1041
3.5
1070
   147
1041
1.75
1070
    42
1041
1.5875
1070
    44
1041
2.0
1070
   140
1041
3.5
1070
   343
1005
0
1070
   344
1005
0
1002
}
0
DIMENSION
5
FB
100
AcDbEntity
8
SK2
62
256
6
ByLayer
370
13
48
1
60
0
100
AcDbDimension
2
DimnDraft3D3
10
81
20
20.859119
30
0
11
51.87
21
20.859119
31
0
70
32
71
5
72
1
41
1
210
0
220
0
230
1
3
Standard
100
AcDbAlignedDimension
13
22.74
23
10.8375
33
0
14
81
24
1.5875
34
0
50
0
100
AcDbRotatedDimension
1001
ACAD
1000
DSTYLE
1002
{
1070
   279
1070
     0
1070
   172
1070
     1
1070
   173
1070
     1
1070
   340
1005
DB
1070
   271
1070
     2
1070
   272
1070
     2
1070
    77
1070
     1
1070
    73
1070
     0
1070
   171
1070
     3
1070
   274
1070
     4
1070
   177
1070
    35
1070
   176
1070
    35
1070
   178
1070
    35
1070
    48
1040
-0.005
1070
    41
1041
3.5
1070
   147
1041
1.75
1070
    42
1041
1.5875
1070
    44
1041
2.0
1070
   140
1041
3.5
1070
   343
1005
0
1070
   344
1005
0
1002
}
0
DIMENSION
5
105
100
AcDbEntity
8
SK2
62
256
6
ByLayer
370
13
48
1
60
0
100
AcDbDimension
2
DimnDraft3D4
10
78.235
20
-22.052503
30
0
11
90.981425
21
-22.052503
31
0
70
32
71
5
72
1
41
1
210
0
220
0
230
1
3
Standard
100
AcDbAlignedDimension
13
81
23
-1.5875
33
0
14
78.235
24
-10.8375
34
0
50
0
100
AcDbRotatedDimension
1001
ACAD
1000
DSTYLE
1002
{
1070
   279
1070
     0
1070
   172
1070
     1
1070
   173
1070
     1
1070
   340
1005
DB
1070
   271
1070
     2
1070
   272
1070
     2
1070
    77
1070
     1
1070
    73
1070
     0
1070
   171
1070
     3
1070
   274
1070
     4
1070
   177
1070
    35
1070
   176
1070
    35
1070
   178
1070
    35
1070
    48
1040
-0.005
1070
    41
1041
3.5
1070
   147
1041
1.75
1070
    42
1041
1.5875
1070
    44
1041
2.0
1070
   140
1041
3.5
1070
   343
1005
0
1070
   344
1005
0
1002
}
0
DIMENSION
5
10F
100
AcDbEntity
8
SK2
62
256
6
ByLayer
370
13
48
1
60
0
100
AcDbDimension
2
DimnDraft3D5
10
78.235
20
-28.343428
30
0
11
10.995676
21
-28.343428
31
0
70
32
71
5
72
1
41
1
210
0
220
0
230
1
3
Standard
100
AcDbAlignedDimension
13
-50
23
-11.5875
33
0
14
78.235
24
-10.8375
34
0
50
0
100
AcDbRotatedDimension
1001
ACAD
1000
DSTYLE
1002
{
1070
   279
1070
     0
1070
   172
1070
     1
1070
   173
1070
     1
1070
   340
1005
DB
1070
   271
1070
     2
1070
   272
1070
     2
1070
    77
1070
     1
1070
    73
1070
     0
1070
   171
1070
     3
1070
   274
1070
     4
1070
   177
1070
    35
1070
   176
1070
    35
1070
   178
1070
    35
1070
    48
1040
-0.005
1070
    41
1041
3.5
1070
   147
1041
1.75
1070
    42
1041
1.5875
1070
    44
1041
2.0
1070
   140
1041
3.5
1070
   343
1005
0
1070
   344
1005
0
1002
}
0
DIMENSION
5
11A
100
AcDbEntity
8
SK2
62
256
6
ByLayer
370
13
48
1
60
0
100
AcDbDimension
2
DimnDraft3D6
10
-60.625163
20
10
30
0
11
-61.250163
21
28.47418
31
0
70
33
71
5
72
1
41
1
210
0
220
0
230
1
3
Standard
100
AcDbAlignedDimension
13
-51.5875
23
-10
33
0
14
-51.5875
24
10
34
0
1001
ACAD
1000
DSTYLE
1002
{
1070
   279
1070
     0
1070
    74
1070
     0
1070
   173
1070
     1
1070
   340
1005
DB
1070
   271
1070
     3
1070
   272
1070
     2
1070
    77
1070
     1
1070
    73
1070
     0
1070
   171
1070
     3
1070
   274
1070
     4
1070
   177
1070
    35
1070
   176
1070
    35
1070
   178
1070
    35
1070
    48
1040
-0.005
1070
    41
1041
3.5
1070
   147
1041
1.75
1070
    42
1041
1.5875
1070
    44
1041
2.0
1070
   140
1041
3.5
1070
   343
1005
0
1070
   344
1005
0
1002
}
0
DIMENSION
5
125
100
AcDbEntity
8
2
62
256
6
ByLayer
370
13
48
1
60
0
100
AcDbDimension
2
DimnDraft3D7
10
95.083343
20
9.25
30
0
11
90.458343
21
26.317266
31
0
70
33
71
5
72
1
41
1
210
0
220
0
230
1
3
Standard
100
AcDbAlignedDimension
13
79.8225
23
-9.25
33
0
14
79.8225
24
9.25
34
0
1001
ACAD
1000
DSTYLE
1002
{
1070
   279
1070
     0
1070
    74
1070
     0
1070
   173
1070
     1
1070
   340
1005
DB
1070
   271
1070
     3
1070
   272
1070
     2
1070
    77
1070
     1
1070
    73
1070
     0
1070
   171
1070
     3
1070
   274
1070
     4
1070
   177
1070
    35
1070
   176
1070
    35
1070
   178
1070
    35
1070
    48
1040
-0.005
1070
    41
1041
3.5
1070
   147
1041
1.75
1070
    42
1041
1.5875
1070
    44
1041
2.0
1070
   140
1041
3.5
1070
   343
1005
0
1070
   344
1005
0
1002
}
0
ENDSEC
0
SECTION
2
OBJECTS
0
DICTIONARY
5
190
330
0
100
AcDbDictionary
280
0
281
1
3
ACAD_GROUP
350
191
3
ACAD_MLINESTYLE
350
192
0
DICTIONARY
5
191
330
0
100
AcDbDictionary
280
0
281
1
0
DICTIONARY
5
192
330
0
100
AcDbDictionary
280
0
281
1
3
Standard
350
18
0
MLINESTYLE
5
18
330
192
100
AcDbMlineStyle
2
Standard
70
0
3

62
256
51
90
52
90
71
2
49
-0.5
62
256
6
ByLayer
49
0.5
62
256
6
ByLayer
0
RASTERVARIABLES
5
17e
330

100
AcDbRasterVariables
90
0
70
1
71
1
72
1
0
ENDSEC
0
EOF
