0
SECTION
2
HEADER
9
$ACADVER
1
AC1015
9
$DWGCODEPAGE
3
ANSI_1252
9
$HANDSEED
5
1a3
9
$ANGBASE
50
0
9
$ANGDIR
70
0
9
$ATTMODE
70
1
9
$AUNITS
70
0
9
$AUPREC
70
0
9
$CECOLOR
62
256
9
$CELTSCALE
40
1
9
$CELTYPE
6
ByLayer
9
$CELWEIGHT
370
18
9
$CLAYER
8
0
9
$CMLJUST
70
0
9
$CMLSCALE
40
1
9
$CMLSTYLE
2
Standard
9
$DIMSTYLE
2
Standard
9
$TEXTSIZE
40
0.2
9
$TEXTSTYLE
7
Standard
9
$LUNITS
70
2
9
$LUPREC
70
4
9
$EXTNAMES
290
1
9
$INSUNITS
70
4
9
$LTSCALE
40
1
9
$LWDISPLAY
290
1
9
$PDMODE
70
0
9
$PDSIZE
40
0
9
$PLINEGEN
70
0
0
ENDSEC
0
SECTION
2
CLASSES
0
CLASS
1
RASTERVARIABLES
2
AcDbRasterVariables
3
ISM
90
0
280
0
281
0
0
ENDSEC
0
SECTION
2
TABLES
0
TABLE
2
VPORT
5
199
100
AcDbSymbolTable
0
VPORT
5
1
100
AcDbSymbolTableRecord
100
AcDbViewportTableRecord
2
*Active
70
0
10
0
20
0
11
1
21
1
12
-1
22
1
13
0
23
0
14
0.5
24
0.5
15
10
25
10
16
0
26
0
36
1
17
0
27
0
37
0
0
ENDTAB
0
TABLE
2
LTYPE
5
19a
100
AcDbSymbolTable
0
LTYPE
5
14
100
AcDbSymbolTableRecord
100
AcDbLinetypeTableRecord
70
0
2
ByBlock
3

72
65
73
0
40
0
0
LTYPE
5
15
100
AcDbSymbolTableRecord
100
AcDbLinetypeTableRecord
70
0
2
ByLayer
3

72
65
73
0
40
0
0
LTYPE
5
16
100
AcDbSymbolTableRecord
100
AcDbLinetypeTableRecord
70
0
2
CONTINUOUS
3
Solid line
72
65
73
0
40
0
0
LTYPE
5
6A
100
AcDbSymbolTableRecord
100
AcDbLinetypeTableRecord
70
0
2
CENTER
3
____ _ ____ _ ____ _ ____
72
65
73
4
40
47.5
49
22
74
0
49
-8.5
74
0
49
8.5
74
0
49
-8.5
74
0
0
LTYPE
5
6B
100
AcDbSymbolTableRecord
100
AcDbLinetypeTableRecord
70
0
2
DASHED
3
__ __ __ __ __ __ __ __ __
72
65
73
2
40
25.72
49
12.86
74
0
49
-12.86
74
0
0
ENDTAB
0
TABLE
2
LAYER
5
19b
100
AcDbSymbolTable
0
LAYER
5
10
100
AcDbSymbolTableRecord
100
AcDbLayerTableRecord
2
0
70
0
62
7
6
CONTINUOUS
290
1
370
-3
390
0
0
LAYER
5
6D
100
AcDbSymbolTableRecord
100
AcDbLayerTableRecord
2
81
70
0
62
-3
6
CONTINUOUS
290
1
370
-3
390
0
0
LAYER
5
6F
100
AcDbSymbolTableRecord
100
AcDbLayerTableRecord
2
80
70
0
62
-6
6
CONTINUOUS
290
1
370
-3
390
0
0
LAYER
5
74
100
AcDbSymbolTableRecord
100
AcDbLayerTableRecord
2
2
70
0
62
7
6
CONTINUOUS
290
1
370
-3
390
0
0
LAYER
5
78
100
AcDbSymbolTableRecord
100
AcDbLayerTableRecord
2
1
70
0
62
4
6
CONTINUOUS
290
1
370
-3
390
0
0
LAYER
5
86
100
AcDbSymbolTableRecord
100
AcDbLayerTableRecord
2
4
70
0
62
-2
6
CENTER
290
1
370
-3
390
0
0
LAYER
5
185
100
AcDbSymbolTableRecord
100
AcDbLayerTableRecord
2
SK2
70
0
62
7
6
CONTINUOUS
290
1
370
-3
390
0
0
LAYER
5
186
100
AcDbSymbolTableRecord
100
AcDbLayerTableRecord
2
SK1
70
0
62
4
6
CONTINUOUS
290
1
370
-3
390
0
0
LAYER
5
187
100
AcDbSymbolTableRecord
100
AcDbLayerTableRecord
2
SK4
70
0
62
2
6
CENTER
290
1
370
-3
390
0
0
LAYER
5
188
100
AcDbSymbolTableRecord
100
AcDbLayerTableRecord
2
SK6
70
0
62
5
6
CONTINUOUS
290
1
370
-3
390
0
0
ENDTAB
0
TABLE
2
STYLE
5
19c
100
AcDbSymbolTable
0
STYLE
5
11
100
AcDbSymbolTableRecord
100
AcDbTextStyleTableRecord
2
Standard
3
txt
70
0
71
0
40
0
41
1
42
0
50
0
0
STYLE
5
E1
100
AcDbSymbolTableRecord
100
AcDbTextStyleTableRecord
2
iso_b_vert
3
simplex.shx
70
0
71
0
40
0
41
1
42
0
50
0
0
STYLE
5
E2
100
AcDbSymbolTableRecord
100
AcDbTextStyleTableRecord
2
DWGDirectTextStyle
3
simplex
70
0
71
0
40
0
41
1
42
0
50
0
0
ENDTAB
0
TABLE
2
DIMSTYLE
5
19d
100
AcDbSymbolTable
100
AcDbDimStyleTable
0
DIMSTYLE
105
27
100
AcDbSymbolTableRecord
100
AcDbDimStyleTableRecord
2
Standard
70
0
3
<>
41
0.18
42
0.0625
44
0.18
140
0.18
147
0.09
73
0
74
0
77
1
271
2
275
0
278
52
280
0
340
11
0
ENDTAB
0
TABLE
2
VIEW
5
19e
100
AcDbSymbolTable
0
ENDTAB
0
TABLE
2
UCS
5
19f
100
AcDbSymbolTable
0
ENDTAB
0
TABLE
2
APPID
5
1a0
100
AcDbSymbolTable
0
APPID
5
12
100
AcDbSymbolTableRecord
100
AcDbRegAppTableRecord
2
ACAD
70
0
0
ENDTAB
0
TABLE
2
BLOCK_RECORD
5
1a1
100
AcDbSymbolTable
0
BLOCK_RECORD
5
1F
100
AcDbSymbolTableRecord
100
AcDbBlockTableRecord
2
*Model_Space
340
0
70
0
0
BLOCK_RECORD
5
1B
100
AcDbSymbolTableRecord
100
AcDbBlockTableRecord
2
*Paper_Space
340
0
70
0
0
BLOCK_RECORD
5
23
100
AcDbSymbolTableRecord
100
AcDbBlockTableRecord
2
*Paper_Space0
340
0
70
0
0
BLOCK_RECORD
5
E4
100
AcDbSymbolTableRecord
100
AcDbBlockTableRecord
2
DimnDraft3D1
340
0
70
0
0
BLOCK_RECORD
5
EE
100
AcDbSymbolTableRecord
100
AcDbBlockTableRecord
2
DimnDraft3D2
340
0
70
0
0
BLOCK_RECORD
5
F8
100
AcDbSymbolTableRecord
100
AcDbBlockTableRecord
2
DimnDraft3D3
340
0
70
0
0
BLOCK_RECORD
5
102
100
AcDbSymbolTableRecord
100
AcDbBlockTableRecord
2
DimnDraft3D4
340
0
70
0
0
BLOCK_RECORD
5
10C
100
AcDbSymbolTableRecord
100
AcDbBlockTableRecord
2
DimnDraft3D5
340
0
70
0
0
BLOCK_RECORD
5
116
100
AcDbSymbolTableRecord
100
AcDbBlockTableRecord
2
DimnDraft3D6
340
0
70
0
0
BLOCK_RECORD
5
121
100
AcDbSymbolTableRecord
100
AcDbBlockTableRecord
2
DimnDraft3D7
340
0
70
0
0
ENDTAB
0
ENDSEC
0
SECTION
2
BLOCKS
0
BLOCK
5
20
100
AcDbEntity
8
0
100
AcDbBlockBegin
2
*Model_Space
70
0
10
0
20
0
30
0
3
*Model_Space
0
ENDBLK
5
21
100
AcDbEntity
8
0
100
AcDbBlockEnd
0
BLOCK
5
1C
100
AcDbEntity
8
0
100
AcDbBlockBegin
2
*Paper_Space
70
0
10
0
20
0
30
0
3
*Paper_Space
0
ENDBLK
5
1D
100
AcDbEntity
8
0
100
AcDbBlockEnd
0
BLOCK
5
24
100
AcDbEntity
8
0
100
AcDbBlockBegin
2
*Paper_Space0
70
0
10
0
20
0
30
0
3
*Paper_Space0
0
ENDBLK
5
25
100
AcDbEntity
8
0
100
AcDbBlockEnd
0
BLOCK
5
EB
100
AcDbEntity
8
0
100
AcDbBlockBegin
2
DimnDraft3D1
70
0
10
0
20
0
30
0
3
DimnDraft3D1
0
MTEXT
5
E5
100
AcDbEntity
8
SK2
62
256
6
ByLayer
370
13
48
1
60
0
100
AcDbMText
10
42.978375
20
-18.466398
30
0
210
0
220
0
230
1
1
\W0.7317;99,68
40
3.5
41
0
44
1.084337
50
0
71
7
72
5
7
iso_b_vert
0
LINE
5
E6
100
AcDbEntity
8
SK2
62
256
6
ByLayer
370
13
48
1
60
0
100
AcDbLine
10
0
20
-1.5875
30
0
11
0
21
-21.341398
31
0
39
0
210
0
220
0
230
1
0
LINE
5
E7
100
AcDbEntity
8
SK2
62
256
6
ByLayer
370
13
48
1
60
0
100
AcDbLine
10
99.677
20
-10.7155
30
0
11
99.677
21
-21.341398
31
0
39
0
210
0
220
0
230
1
0
LINE
5
E8
100
AcDbEntity
8
SK2
62
256
6
ByLayer
370
13
48
1
60
0
100
AcDbLine
10
0
20
-19.341398
30
0
11
99.677
21
-19.341398
31
0
39
0
210
0
220
0
230
1
0
SOLID
5
E9
100
AcDbEntity
8
SK2
62
256
6
ByLayer
370
13
48
1
60
0
100
AcDbTrace
10
0
20
-19.341398
30
0
11
3.499998
21
-18.880615
31
0
12
3.500002
22
-19.802182
32
0
13
0
23
-19.341398
33
0
39
0
210
0
220
0
230
1
0
SOLID
5
EA
100
AcDbEntity
8
SK2
62
256
6
ByLayer
370
13
48
1
60
0
100
AcDbTrace
10
99.677
20
-19.341398
30
0
11
96.177002
21
-19.802182
31
0
12
96.176998
22
-18.880615
32
0
13
99.677
23
-19.341398
33
0
39
0
210
0
220
0
230
1
0
ENDBLK
5
EC
100
AcDbEntity
8
0
100
AcDbBlockEnd
0
BLOCK
5
F5
100
AcDbEntity
8
0
100
AcDbBlockBegin
2
DimnDraft3D2
70
0
10
0
20
0
30
0
3
DimnDraft3D2
0
MTEXT
5
EF
100
AcDbEntity
8
SK2
62
256
6
ByLayer
370
13
48
1
60
0
100
AcDbMText
10
19.199221
20
-37.817985
30
0
210
0
220
0
230
1
1
\W0.6930;153,00
40
3.5
41
0
44
1.084337
50
0
71
7
72
5
7
iso_b_vert
0
LINE
5
F0
100
AcDbEntity
8
SK2
62
256
6
ByLayer
370
13
48
1
60
0
100
AcDbLine
10
-50
20
-11.5875
30
0
11
-50
21
-40.692985
31
0
39
0
210
0
220
0
230
1
0
LINE
5
F1
100
AcDbEntity
8
SK2
62
256
6
ByLayer
370
13
48
1
60
0
100
AcDbLine
10
103
20
-1.5875
30
0
11
103
21
-40.692985
31
0
39
0
210
0
220
0
230
1
0
LINE
5
F2
100
AcDbEntity
8
SK2
62
256
6
ByLayer
370
13
48
1
60
0
100
AcDbLine
10
-50
20
-38.692985
30
0
11
103
21
-38.692985
31
0
39
0
210
0
220
0
230
1
0
SOLID
5
F3
100
AcDbEntity
8
SK2
62
256
6
ByLayer
370
13
48
1
60
0
100
AcDbTrace
10
-50
20
-38.692985
30
0
11
-46.500002
21
-38.232202
31
0
12
-46.499998
22
-39.153769
32
0
13
-50
23
-38.692985
33
0
39
0
210
0
220
0
230
1
0
SOLID
5
F4
100
AcDbEntity
8
SK2
62
256
6
ByLayer
370
13
48
1
60
0
100
AcDbTrace
10
103
20
-38.692985
30
0
11
99.500002
21
-39.153769
31
0
12
99.499998
22
-38.232202
32
0
13
103
23
-38.692985
33
0
39
0
210
0
220
0
230
1
0
ENDBLK
5
F6
100
AcDbEntity
8
0
100
AcDbBlockEnd
0
BLOCK
5
FF
100
AcDbEntity
8
0
100
AcDbBlockBegin
2
DimnDraft3D3
70
0
10
0
20
0
30
0
3
DimnDraft3D3
0
MTEXT
5
F9
100
AcDbEntity
8
SK2
62
256
6
ByLayer
370
13
48
1
60
0
100
AcDbMText
10
62.183816
20
21.612119
30
0
210
0
220
0
230
1
1
\W0.7211;73,61
40
3.5
41
0
44
1.084337
50
0
71
7
72
5
7
iso_b_vert
0
LINE
5
FA
100
AcDbEntity
8
SK2
62
256
6
ByLayer
370
13
48
1
60
0
100
AcDbLine
10
29.39
20
10.7155
30
0
11
29.39
21
22.737119
31
0
39
0
210
0
220
0
230
1
0
LINE
5
FB
100
AcDbEntity
8
SK2
62
256
6
ByLayer
370
13
48
1
60
0
100
AcDbLine
10
103
20
1.5875
30
0
11
103
21
22.737119
31
0
39
0
210
0
220
0
230
1
0
LINE
5
FC
100
AcDbEntity
8
SK2
62
256
6
ByLayer
370
13
48
1
60
0
100
AcDbLine
10
29.39
20
20.737119
30
0
11
103
21
20.737119
31
0
39
0
210
0
220
0
230
1
0
SOLID
5
FD
100
AcDbEntity
8
SK2
62
256
6
ByLayer
370
13
48
1
60
0
100
AcDbTrace
10
29.39
20
20.737119
30
0
11
32.889998
21
21.197903
31
0
12
32.890002
22
20.276335
32
0
13
29.39
23
20.737119
33
0
39
0
210
0
220
0
230
1
0
SOLID
5
FE
100
AcDbEntity
8
SK2
62
256
6
ByLayer
370
13
48
1
60
0
100
AcDbTrace
10
103
20
20.737119
30
0
11
99.500002
21
20.276335
31
0
12
99.499998
22
21.197903
32
0
13
103
23
20.737119
33
0
39
0
210
0
220
0
230
1
0
ENDBLK
5
100
100
AcDbEntity
8
0
100
AcDbBlockEnd
0
BLOCK
5
109
100
AcDbEntity
8
0
100
AcDbBlockBegin
2
DimnDraft3D4
70
0
10
0
20
0
30
0
3
DimnDraft3D4
0
MTEXT
5
103
100
AcDbEntity
8
SK2
62
256
6
ByLayer
370
13
48
1
60
0
100
AcDbMText
10
109.840636
20
-21.055503
30
0
210
0
220
0
230
1
1
\W0.7150;3,32
40
3.5
41
0
44
1.084337
50
0
71
7
72
5
7
iso_b_vert
0
LINE
5
104
100
AcDbEntity
8
SK2
62
256
6
ByLayer
370
13
48
1
60
0
100
AcDbLine
10
103
20
-1.5875
30
0
11
103
21
-23.930503
31
0
39
0
210
0
220
0
230
1
0
LINE
5
105
100
AcDbEntity
8
SK2
62
256
6
ByLayer
370
13
48
1
60
0
100
AcDbLine
10
99.677
20
-10.7155
30
0
11
99.677
21
-23.930503
31
0
39
0
210
0
220
0
230
1
0
LINE
5
106
100
AcDbEntity
8
SK2
62
256
6
ByLayer
370
13
48
1
60
0
100
AcDbLine
10
90.927
20
-21.930503
30
0
11
116.997215
21
-21.930503
31
0
39
0
210
0
220
0
230
1
0
SOLID
5
107
100
AcDbEntity
8
SK2
62
256
6
ByLayer
370
13
48
1
60
0
100
AcDbTrace
10
103
20
-21.930503
30
0
11
106.499998
21
-21.469719
31
0
12
106.500002
22
-22.391287
32
0
13
103
23
-21.930503
33
0
39
0
210
0
220
0
230
1
0
SOLID
5
108
100
AcDbEntity
8
SK2
62
256
6
ByLayer
370
13
48
1
60
0
100
AcDbTrace
10
99.677
20
-21.930503
30
0
11
96.177002
21
-22.391287
31
0
12
96.176998
22
-21.469719
32
0
13
99.677
23
-21.930503
33
0
39
0
210
0
220
0
230
1
0
ENDBLK
5
10A
100
AcDbEntity
8
0
100
AcDbBlockEnd
0
BLOCK
5
113
100
AcDbEntity
8
0
100
AcDbBlockBegin
2
DimnDraft3D5
70
0
10
0
20
0
30
0
3
DimnDraft3D5
0
MTEXT
5
10D
100
AcDbEntity
8
SK2
62
256
6
ByLayer
370
13
48
1
60
0
100
AcDbMText
10
15.934387
20
-27.468428
30
0
210
0
220
0
230
1
1
\W0.7145;149,68
40
3.5
41
0
44
1.084337
50
0
71
7
72
5
7
iso_b_vert
0
LINE
5
10E
100
AcDbEntity
8
SK2
62
256
6
ByLayer
370
13
48
1
60
0
100
AcDbLine
10
-50
20
-11.5875
30
0
11
-50
21
-30.343428
31
0
39
0
210
0
220
0
230
1
0
LINE
5
10F
100
AcDbEntity
8
SK2
62
256
6
ByLayer
370
13
48
1
60
0
100
AcDbLine
10
99.677
20
-10.7155
30
0
11
99.677
21
-30.343428
31
0
39
0
210
0
220
0
230
1
0
LINE
5
110
100
AcDbEntity
8
SK2
62
256
6
ByLayer
370
13
48
1
60
0
100
AcDbLine
10
-50
20
-28.343428
30
0
11
99.677
21
-28.343428
31
0
39
0
210
0
220
0
230
1
0
SOLID
5
111
100
AcDbEntity
8
SK2
62
256
6
ByLayer
370
13
48
1
60
0
100
AcDbTrace
10
-50
20
-28.343428
30
0
11
-46.500002
21
-27.882645
31
0
12
-46.499998
22
-28.804212
32
0
13
-50
23
-28.343428
33
0
39
0
210
0
220
0
230
1
0
SOLID
5
112
100
AcDbEntity
8
SK2
62
256
6
ByLayer
370
13
48
1
60
0
100
AcDbTrace
10
99.677
20
-28.343428
30
0
11
96.177002
21
-28.804212
31
0
12
96.176998
22
-27.882645
32
0
13
99.677
23
-28.343428
33
0
39
0
210
0
220
0
230
1
0
ENDBLK
5
114
100
AcDbEntity
8
0
100
AcDbBlockEnd
0
BLOCK
5
11E
100
AcDbEntity
8
0
100
AcDbBlockBegin
2
DimnDraft3D6
70
0
10
0
20
0
30
0
3
DimnDraft3D6
0
MTEXT
5
117
100
AcDbEntity
8
SK2
62
256
6
ByLayer
370
13
48
1
60
0
100
AcDbMText
10
-60.375163
20
29.34918
30
0
210
0
220
0
230
1
1
\W0.7421;20,000
40
3.5
41
0
44
1.084337
50
90
71
7
72
5
7
iso_b_vert
0
MTEXT
5
118
100
AcDbEntity
8
SK2
62
256
6
ByLayer
370
13
48
1
60
0
100
AcDbMText
10
-60.375163
20
24.126524
30
0
210
0
220
0
230
1
1
%%c
40
3.5
41
0
44
1.084337
50
90
71
7
72
5
7
iso_b_vert
0
LINE
5
119
100
AcDbEntity
8
SK2
62
256
6
ByLayer
370
13
48
1
60
0
100
AcDbLine
10
-51.5875
20
-10
30
0
11
-60.625163
21
-10
31
0
39
0
210
0
220
0
230
1
0
LINE
5
11A
100
AcDbEntity
8
SK2
62
256
6
ByLayer
370
13
48
1
60
0
100
AcDbLine
10
-51.5875
20
10
30
0
11
-60.625163
21
10
31
0
39
0
210
0
220
0
230
1
0
LINE
5
11B
100
AcDbEntity
8
SK2
62
256
6
ByLayer
370
13
48
1
60
0
100
AcDbLine
10
-58.625163
20
-10
30
0
11
-58.625163
21
41.737338
31
0
39
0
210
0
220
0
230
1
0
SOLID
5
11C
100
AcDbEntity
8
SK2
62
256
6
ByLayer
370
13
48
1
60
0
100
AcDbTrace
10
-58.625163
20
-10
30
0
11
-59.085946
21
-6.500002
31
0
12
-58.164379
22
-6.499998
32
0
13
-58.625163
23
-10
33
0
39
0
210
0
220
0
230
1
0
SOLID
5
11D
100
AcDbEntity
8
SK2
62
256
6
ByLayer
370
13
48
1
60
0
100
AcDbTrace
10
-58.625163
20
10
30
0
11
-58.164379
21
6.500002
31
0
12
-59.085946
22
6.499998
32
0
13
-58.625163
23
10
33
0
39
0
210
0
220
0
230
1
0
ENDBLK
5
11F
100
AcDbEntity
8
0
100
AcDbBlockEnd
0
BLOCK
5
129
100
AcDbEntity
8
0
100
AcDbBlockBegin
2
DimnDraft3D7
70
0
10
0
20
0
30
0
3
DimnDraft3D7
0
MTEXT
5
122
100
AcDbEntity
8
2
62
256
6
ByLayer
370
13
48
1
60
0
100
AcDbMText
10
113.333343
20
27.070266
30
0
210
0
220
0
230
1
1
\W0.6930;18,256
40
3.5
41
0
44
1.084337
50
90
71
7
72
5
7
iso_b_vert
0
MTEXT
5
123
100
AcDbEntity
8
2
62
256
6
ByLayer
370
13
48
1
60
0
100
AcDbMText
10
113.333343
20
21.84761
30
0
210
0
220
0
230
1
1
%%c
40
3.5
41
0
44
1.084337
50
90
71
7
72
5
7
iso_b_vert
0
LINE
5
124
100
AcDbEntity
8
2
62
256
6
ByLayer
370
13
48
1
60
0
100
AcDbLine
10
101.2645
20
-9.128
30
0
11
117.083343
21
-9.128
31
0
39
0
210
0
220
0
230
1
0
LINE
5
125
100
AcDbEntity
8
2
62
256
6
ByLayer
370
13
48
1
60
0
100
AcDbLine
10
101.2645
20
9.128
30
0
11
117.083343
21
9.128
31
0
39
0
210
0
220
0
230
1
0
LINE
5
126
100
AcDbEntity
8
2
62
256
6
ByLayer
370
13
48
1
60
0
100
AcDbLine
10
115.083343
20
-9.128
30
0
11
115.083343
21
38.583424
31
0
39
0
210
0
220
0
230
1
0
SOLID
5
127
100
AcDbEntity
8
2
62
256
6
ByLayer
370
13
48
1
60
0
100
AcDbTrace
10
115.083343
20
-9.128
30
0
11
114.622559
21
-5.628002
31
0
12
115.544126
22
-5.627998
32
0
13
115.083343
23
-9.128
33
0
39
0
210
0
220
0
230
1
0
SOLID
5
128
100
AcDbEntity
8
2
62
256
6
ByLayer
370
13
48
1
60
0
100
AcDbTrace
10
115.083343
20
9.128
30
0
11
115.544126
21
5.628002
31
0
12
114.622559
22
5.627998
32
0
13
115.083343
23
9.128
33
0
39
0
210
0
220
0
230
1
0
ENDBLK
5
12A
100
AcDbEntity
8
0
100
AcDbBlockEnd
0
ENDSEC
0
SECTION
2
ENTITIES
0
ARC
5
96
100
AcDbEntity
8
1
62
256
6
ByLayer
370
18
48
1
60
0
100
AcDbCircle
39
0
10
-0.35
20
9.415527
30
0
40
0.350000000000009
210
0
220
0
230
-1
100
AcDbArc
50
269.96419
51
0
0
ARC
5
97
100
AcDbEntity
8
1
62
256
6
ByLayer
370
18
48
1
60
0
100
AcDbCircle
39
0
10
-0.35
20
-9.415527
30
0
40
0.350000000000009
210
0
220
0
230
-1
100
AcDbArc
50
0
51
90.03581
0
ELLIPSE
5
98
100
AcDbEntity
8
1
62
256
6
ByLayer
370
18
48
1
60
0
100
AcDbEllipse
10
4.25
20
-8.862242
30
0
11
-0.25
21
3.06151588455594E-17
31
0
210
0
220
0
230
1
40
0.99999
41
-1.55598020448394
42
-0.0275756120904753
0
ELLIPSE
5
99
100
AcDbEntity
8
1
62
256
6
ByLayer
370
18
48
1
60
0
100
AcDbEllipse
10
4.25
20
8.862242
30
0
11
-0.25
21
3.06151588455594E-17
31
0
210
0
220
0
230
1
40
0.99999
41
0.0275756120905535
42
1.59254107077101
0
POINT
5
6C
100
AcDbEntity
8
81
62
256
6
ByLayer
370
18
48
1
60
0
100
AcDbPoint
10
103
20
0
30
0
39
0
210
0
220
0
230
1
50
360
0
POINT
5
6E
100
AcDbEntity
8
80
62
256
6
ByLayer
370
18
48
1
60
0
100
AcDbPoint
10
0
20
0
30
0
39
0
210
0
220
0
230
1
50
360
0
POINT
5
70
100
AcDbEntity
8
SK2
62
256
6
ByLayer
370
18
48
1
60
1
100
AcDbPoint
10
-50
20
-10
30
0
39
0
210
0
220
0
230
1
50
360
0
POINT
5
72
100
AcDbEntity
8
SK2
62
256
6
ByLayer
370
18
48
1
60
1
100
AcDbPoint
10
-50
20
10
30
0
39
0
210
0
220
0
230
1
50
360
0
POINT
5
73
100
AcDbEntity
8
2
62
256
6
ByLayer
370
18
48
1
60
1
100
AcDbPoint
10
99.677
20
-9.128
30
0
39
0
210
0
220
0
230
1
50
360
0
POINT
5
75
100
AcDbEntity
8
2
62
256
6
ByLayer
370
18
48
1
60
1
100
AcDbPoint
10
99.677
20
9.128
30
0
39
0
210
0
220
0
230
1
50
360
0
SPLINE
5
9A
100
AcDbEntity
8
1
62
256
6
ByLayer
370
18
48
1
60
0
100
AcDbSpline
70
4
71
2
72
6
73
3
40
0
40
0
40
0
40
1
40
1
40
1
41
1
10
71.7323757884422
20
4.94755073817E-05
30
0
41
1
10
71.7323643233057
20
5.50304191052E-05
30
0
41
1
10
71.7323528581917
20
6.0837327112E-05
30
0
0
SPLINE
5
9B
100
AcDbEntity
8
1
62
256
6
ByLayer
370
18
48
1
60
0
100
AcDbSpline
70
4
71
2
72
6
73
3
40
0
40
0
40
0
40
1
40
1
40
1
41
1
10
71.7323528590559
20
-6.08368893893E-05
30
0
41
1
10
71.7323643237348
20
-5.50302112288E-05
30
0
41
1
10
71.7323757884364
20
-4.94755102238E-05
30
0
0
SPLINE
5
9C
100
AcDbEntity
8
1
62
256
6
ByLayer
370
18
48
1
60
0
100
AcDbSpline
70
4
71
3
72
43
73
39
40
0
40
0
40
0
40
0
40
0.0406733500781482
40
0.0778176361711143
40
0.106672376022487
40
0.129263551038123
40
0.150158667102801
40
0.169680698770439
40
0.191186683299272
40
0.215456364245115
40
0.242770261004419
40
0.269444070453959
40
0.289971384435286
40
0.304335213970694
40
0.325411375791786
40
0.348814928720186
40
0.365293988184624
40
0.377406300269167
40
0.39821435141886
40
0.422683813922511
40
0.451153739800046
40
0.484426695919664
40
0.522536416125807
40
0.560010672837353
40
0.58889013709858
40
0.617847198273521
40
0.652590476770703
40
0.691293271841972
40
0.727643226672626
40
0.759979494309524
40
0.783630539570177
40
0.802576984431316
40
0.824576693610202
40
0.850330285690032
40
0.879409809786844
40
0.925061150174727
40
0.96498666853092
40
1
40
1
40
1
40
1
41
1
10
44.7354482508025
20
-8.63659820032356
30
0
41
1
10
45.0899262964189
20
-8.63674784562826
30
0
41
1
10
45.7688704767867
20
-8.63708396856825
30
0
41
1
10
46.7006742183107
20
-8.63696669862483
30
0
41
1
10
47.4771504707143
20
-8.63800708455474
30
0
41
1
10
48.100774967475
20
-8.63908777621563
30
0
41
1
10
48.6502802217008
20
-8.63912946020309
30
0
41
1
10
49.1921308850569
20
-8.63935099609617
30
0
41
1
10
49.7621015131137
20
-8.63985518237229
30
0
41
1
10
50.4009648718244
20
-8.64022576708476
30
0
41
1
10
51.0850967441647
20
-8.64119460217094
30
0
41
1
10
51.7365848260964
20
-8.641446977285
30
0
41
1
10
52.2748979399192
20
-8.64155433195552
30
0
41
1
10
52.7641942767208
20
-8.64161946358746
30
0
41
1
10
53.278693356452
20
-8.64189764502234
30
0
41
1
10
53.8116833488426
20
-8.64274688769126
30
0
41
1
10
54.2662969238252
20
-8.64324340769193
30
0
41
1
10
54.6982194308847
20
-8.64335647311603
30
0
41
1
10
55.2000033393714
20
-8.64338439614835
30
0
41
1
10
55.8448027520838
20
-8.64317634969453
30
0
41
1
10
56.5985913586177
20
-8.64428046128143
30
0
41
1
10
57.4716512528105
20
-8.64520707106533
30
0
41
1
10
58.423432477228
20
-8.64467231846353
30
0
41
1
10
59.3367897132783
20
-8.64555328905666
30
0
41
1
10
60.1701384192669
20
-8.6467380924507
30
0
41
1
10
60.9796045895632
20
-8.64680085555577
30
0
41
1
10
61.8749633708735
20
-8.64613989088173
30
0
41
1
10
62.8349574480163
20
-8.64815613599072
30
0
41
1
10
63.7739066808594
20
-8.64779805488308
30
0
41
1
10
64.5812530658829
20
-8.64800472958501
30
0
41
1
10
65.2364336579143
20
-8.64882686960479
30
0
41
1
10
65.8012335459796
20
-8.64940610173673
30
0
41
1
10
66.3844233278496
20
-8.64948332612184
30
0
41
1
10
67.0561929039363
20
-8.64943359215997
30
0
41
1
10
67.9348225984537
20
-8.6501022215256
30
0
41
1
10
68.9370123069299
20
-8.65171957950253
30
0
41
1
10
69.9923756641697
20
-8.65093111702865
30
0
41
1
10
70.6453809965598
20
-8.65144569336604
30
0
41
1
10
70.9501321002506
20
-8.65172638929556
30
0
0
SPLINE
5
9D
100
AcDbEntity
8
1
62
256
6
ByLayer
370
18
48
1
60
0
100
AcDbSpline
70
4
71
3
72
29
73
25
40
0
40
0
40
0
40
0
40
0.0609026705799035
40
0.126783603338435
40
0.177414381799861
40
0.212902876657631
40
0.237896581102971
40
0.275997662767124
40
0.321573172020869
40
0.372729412367036
40
0.456575462443317
40
0.534328610655568
40
0.628058250342805
40
0.663723003515383
40
0.694903186564334
40
0.721447569178109
40
0.743632390337847
40
0.772169649621131
40
0.812660911238537
40
0.867747729132052
40
0.913270937273532
40
0.948560119322999
40
0.977171236084794
40
1
40
1
40
1
40
1
41
1
10
4.25077054585608
20
-8.61217539727321
30
0
41
1
10
4.50069615378919
20
-8.61310917890512
30
0
41
1
10
5.02097803785756
20
-8.61471985066041
30
0
41
1
10
5.74904422238393
20
-8.61585002476676
30
0
41
1
10
6.37280997725065
20
-8.61628588923259
30
0
41
1
10
6.82878716752202
20
-8.6163871043031
30
0
41
1
10
7.23334888040711
20
-8.616398469687
30
0
41
1
10
7.67930370267516
20
-8.61635997490313
30
0
41
1
10
8.23262288521568
20
-8.61633369464295
30
0
41
1
10
8.97366759928366
20
-8.61646923518791
30
0
41
1
10
9.84676500112403
20
-8.61767042854095
30
0
41
1
10
10.8945557359542
20
-8.61895418825418
30
0
41
1
10
11.7446390878022
20
-8.61896503756651
30
0
41
1
10
12.4035967880902
20
-8.61932609519164
30
0
41
1
10
12.7868429142141
20
-8.61978232526801
30
0
41
1
10
13.1147707037255
20
-8.62021743891717
30
0
41
1
10
13.431853062398
20
-8.62050798389919
30
0
41
1
10
13.8061682099601
20
-8.62066091876727
30
0
41
1
10
14.3155071264838
20
-8.62067000034818
30
0
41
1
10
14.8945403867292
20
-8.62068801090987
30
0
41
1
10
15.4522727670226
20
-8.62110363671849
30
0
41
1
10
15.9011547323225
20
-8.62165876953483
30
0
41
1
10
16.2572440976348
20
-8.62211293807562
30
0
41
1
10
16.4669174728216
20
-8.62201080778604
30
0
41
1
10
16.5597865121515
20
-8.621918941633
30
0
0
SPLINE
5
9E
100
AcDbEntity
8
1
62
256
6
ByLayer
370
18
48
1
60
0
100
AcDbSpline
70
4
71
3
72
29
73
25
40
0
40
0
40
0
40
0
40
0.0017818863123162
40
0.0403047051885995
40
0.0835640610805537
40
0.123290038996251
40
0.171216753212635
40
0.217472925584869
40
0.250505370609936
40
0.273951643822156
40
0.301280313710855
40
0.333745939236407
40
0.371200710871579
40
0.444497084912986
40
0.507198879572998
40
0.566080965809591
40
0.631752715323189
40
0.700011032874914
40
0.738034632589951
40
0.770079290983218
40
0.802450412651814
40
0.854208391511983
40
0.926785561702052
40
1
40
1
40
1
40
1
41
1
10
16.5458600618445
20
8.62204199621445
30
0
41
1
10
16.5386306369501
20
8.62205199283866
30
0
41
1
10
16.375069177048
20
8.62226837548548
30
0
41
1
10
16.0321805829602
20
8.62179426058657
30
0
41
1
10
15.5344313867405
20
8.62119780477974
30
0
41
1
10
14.9977839112084
20
8.62074724459259
30
0
41
1
10
14.4489199067688
20
8.62065327086182
30
0
41
1
10
13.9274722952464
20
8.62068169153113
30
0
41
1
10
13.5063735631262
20
8.62055549812456
30
0
41
1
10
13.162854366347
20
8.62027564539002
30
0
41
1
10
12.8216589683637
20
8.61983025692467
30
0
41
1
10
12.4230439814788
20
8.61933741769769
30
0
41
1
10
11.83601123446
20
8.6190175680579
30
0
41
1
10
11.1250422755867
20
8.61889821801248
30
0
41
1
10
10.3262521712243
20
8.61842563963572
30
0
41
1
10
9.55871491508532
20
8.61712936261813
30
0
41
1
10
8.7683931511871
20
8.61638257016745
30
0
41
1
10
8.06357218105725
20
8.61632955464182
30
0
41
1
10
7.49658474471806
20
8.61637899844433
30
0
41
1
10
7.07669536928182
20
8.61640156920933
30
0
41
1
10
6.60050871578392
20
8.61636055321998
30
0
41
1
10
5.95819063265458
20
8.61606780580149
30
0
41
1
10
5.1484508208961
20
8.61504653062613
30
0
41
1
10
4.5508702025561
20
8.6132622578935
30
0
41
1
10
4.25077434674347
20
8.61214539461221
30
0
0
SPLINE
5
9F
100
AcDbEntity
8
1
62
256
6
ByLayer
370
18
48
1
60
0
100
AcDbSpline
70
4
71
2
72
6
73
3
40
0
40
0
40
0
40
1
40
1
40
1
41
1
10
99.1662905633785
20
-8.67101252293952
30
0
41
1
10
99.5714981251791
20
-8.67019894384453
30
0
41
1
10
99.9767699001808
20
-8.67169959173677
30
0
0
SPLINE
5
A0
100
AcDbEntity
8
1
62
256
6
ByLayer
370
18
48
1
60
0
100
AcDbSpline
70
4
71
3
72
37
73
33
40
0
40
0
40
0
40
0
40
0.0198218281130327
40
0.0613708864252765
40
0.0983325642841288
40
0.13034042190679
40
0.173694349523261
40
0.216901531438407
40
0.260155008068965
40
0.289731561586084
40
0.315394367512273
40
0.344797469818246
40
0.381266436300736
40
0.418960340704673
40
0.452916171417258
40
0.485214664176955
40
0.528930839818605
40
0.574989014565569
40
0.618532278216766
40
0.663610155412967
40
0.704783658151435
40
0.75078898853631
40
0.790329721830917
40
0.817664784114436
40
0.83468979580851
40
0.860264083422148
40
0.88724602064143
40
0.910241268874124
40
0.932621494765846
40
0.957040172193172
40
0.98335112825172
40
1
40
1
40
1
40
1
41
1
10
71.0789683212064
20
8.65110540530003
30
0
41
1
10
70.9402763047527
20
8.65118170034197
30
0
41
1
10
70.5102865050866
20
8.65138514519981
30
0
41
1
10
69.81579549554
20
8.65100883713777
30
0
41
1
10
69.0367089677614
20
8.65149830477324
30
0
41
1
10
68.2441272036309
20
8.65079125418472
30
0
41
1
10
67.4075354981329
20
8.64947421336612
30
0
41
1
10
66.4915758029388
20
8.64947991281235
30
0
41
1
10
65.6728322758031
20
8.6494106394774
30
0
41
1
10
64.9778754012856
20
8.64844774430287
30
0
41
1
10
64.3806577438631
20
8.64793792912246
30
0
41
1
10
63.7348021350256
20
8.64783892220748
30
0
41
1
10
63.0040518762098
20
8.64809562454343
30
0
41
1
10
62.2411792019729
20
8.64689725109679
30
0
41
1
10
61.5077320801051
20
8.64638712135761
30
0
41
1
10
60.7317928293849
20
8.64684071591952
30
0
41
1
10
59.8704603734999
20
8.64664780116951
30
0
41
1
10
58.9297866106989
20
8.64459320170428
30
0
41
1
10
57.9795083185156
20
8.64515509006102
30
0
41
1
10
57.0637051887155
20
8.64494953662154
30
0
41
1
10
56.1305184654916
20
8.64337329299912
30
0
41
1
10
55.236397130091
20
8.64330465922171
30
0
41
1
10
54.4399337528921
20
8.64344110363555
30
0
41
1
10
53.8479552054998
20
8.64276528628889
30
0
41
1
10
53.3544961168466
20
8.64202643192053
30
0
41
1
10
52.8641496463151
20
8.64158507027707
30
0
41
1
10
52.3310447870117
20
8.64143979079279
30
0
41
1
10
51.8206339946001
20
8.64141830817991
30
0
41
1
10
51.3285681123044
20
8.641287217192
30
0
41
1
10
50.8126241852714
20
8.64081406636348
30
0
41
1
10
50.3372551077025
20
8.64022318056973
30
0
41
1
10
50.0341340933309
20
8.64002883479569
30
0
41
1
10
49.9166602573426
20
8.63996490622719
30
0
0
SPLINE
5
A1
100
AcDbEntity
8
SK1
62
256
6
ByLayer
370
18
48
1
60
0
100
AcDbSpline
70
4
71
3
72
10
73
6
40
0
40
0
40
0
40
0
40
0.819127618206886
40
0.819127618206886
40
1
40
1
40
1
40
1
41
1
10
-49.9326496714756
20
4.45337323845723
30
0
41
1
10
-49.8286111257927
20
4.50323729581586
30
0
41
1
10
-49.7260709265386
20
4.55849539568086
30
0
41
1
10
-49.6082392455544
20
4.6358790049527
30
0
41
1
10
-49.5872330386116
20
4.65026845554627
30
0
41
1
10
-49.5665971852035
20
4.66513297661783
30
0
0
SPLINE
5
A2
100
AcDbEntity
8
SK1
62
256
6
ByLayer
370
18
48
1
60
0
100
AcDbSpline
70
4
71
3
72
10
73
6
40
0
40
0
40
0
40
0
40
0.286225583059584
40
0.286225583059584
40
1
40
1
40
1
40
1
41
1
10
-49.2516520675903
20
5.26068634960717
30
0
41
1
10
-49.2586513775665
20
5.28285773606498
30
0
41
1
10
-49.2675900322054
20
5.30430682964848
30
0
41
1
10
-49.3046123809011
20
5.37708701911217
30
0
41
1
10
-49.3401455470359
20
5.42323601237462
30
0
41
1
10
-49.3803334609988
20
5.46509280751891
30
0
0
SPLINE
5
A3
100
AcDbEntity
8
SK1
62
256
6
ByLayer
370
18
48
1
60
0
100
AcDbSpline
70
4
71
3
72
8
73
4
40
0
40
0
40
0
40
0
40
1
40
1
40
1
40
1
41
1
10
-49.9326496714757
20
4.45337323845723
30
0
41
1
10
-49.9551376873817
20
4.41159461674016
30
0
41
1
10
-49.9775888185785
20
4.3697958636225
30
0
41
1
10
-50
20
4.32797530621406
30
0
0
SPLINE
5
A4
100
AcDbEntity
8
SK1
62
256
6
ByLayer
370
18
48
1
60
0
100
AcDbSpline
70
4
71
3
72
14
73
10
40
0
40
0
40
0
40
0
40
0.25
40
0.25
40
0.5
40
0.5
40
0.75
40
0.75
40
1
40
1
40
1
40
1
41
1
10
-49.3803334609994
20
5.46509280751852
30
0
41
1
10
-49.4205517768904
20
5.38531607352445
30
0
41
1
10
-49.4625426086661
20
5.30309221430156
30
0
41
1
10
-49.5496065672668
20
5.13571061833454
30
0
41
1
10
-49.5948612802645
20
5.05019238605232
30
0
41
1
10
-49.689111502972
20
4.87618183458588
30
0
41
1
10
-49.7367912176084
20
4.79012373282521
30
0
41
1
10
-49.8335758754255
20
4.62008771012151
30
0
41
1
10
-49.882805793281
20
4.53589838627124
30
0
41
1
10
-49.9326496714756
20
4.45337323845723
30
0
0
SPLINE
5
A5
100
AcDbEntity
8
SK1
62
256
6
ByLayer
370
18
48
1
60
0
100
AcDbSpline
70
4
71
3
72
14
73
10
40
0
40
0
40
0
40
0
40
0.500000000000001
40
0.500000000000001
40
0.750000000000002
40
0.750000000000002
40
0.875000000000001
40
0.875000000000001
40
1
40
1
40
1
40
1
41
1
10
-47.6
20
8.20212230385562
30
0
41
1
10
-47.5789465118595
20
8.23907984309378
30
0
41
1
10
-47.5585985142981
20
8.27675058933161
30
0
41
1
10
-47.5303873672755
20
8.33306676707926
30
0
41
1
10
-47.5214287539013
20
8.35172035430176
30
0
41
1
10
-47.5102864584886
20
8.377198766243
30
0
41
1
10
-47.50688945626
20
8.38543286764221
30
0
41
1
10
-47.5017228477084
20
8.39983078367948
30
0
41
1
10
-47.5
20
8.40592349900632
30
0
41
1
10
-47.5
20
8.40923675271105
30
0
0
SPLINE
5
A6
100
AcDbEntity
8
SK1
62
256
6
ByLayer
370
18
48
1
60
0
100
AcDbSpline
70
4
71
3
72
8
73
4
40
0
40
0
40
0
40
0
40
1
40
1
40
1
40
1
41
1
10
-49.9326496714757
20
-4.4533732384572
30
0
41
1
10
-49.9551376873818
20
-4.41159461674013
30
0
41
1
10
-49.9775888185785
20
-4.3697958636225
30
0
41
1
10
-50
20
-4.32797530621406
30
0
0
SPLINE
5
A7
100
AcDbEntity
8
SK1
62
256
6
ByLayer
370
18
48
1
60
0
100
AcDbSpline
70
4
71
3
72
10
73
6
40
0
40
0
40
0
40
0
40
0.5
40
0.5
40
1
40
1
40
1
40
1
41
1
10
-47.6
20
8.62817152811573
30
0
41
1
10
-47.8994584115424
20
8.10249873124056
30
0
41
1
10
-48.1980939150237
20
7.57635555152214
30
0
41
1
10
-48.792277238896
20
6.52239624285434
30
0
41
1
10
-49.0879009214597
20
5.99461537627479
30
0
41
1
10
-49.3803334609994
20
5.46509280751852
30
0
0
SPLINE
5
A8
100
AcDbEntity
8
SK1
62
256
6
ByLayer
370
18
48
1
60
0
100
AcDbSpline
70
4
71
3
72
10
73
6
40
0
40
0
40
0
40
0
40
0.5
40
0.5
40
1
40
1
40
1
40
1
41
1
10
-50
20
3.90192608195397
30
0
41
1
10
-49.6125332924074
20
4.62496131084106
30
0
41
1
10
-49.2140293093794
20
5.34266225922084
30
0
41
1
10
-48.4112270980496
20
6.77476961904822
30
0
41
1
10
-48.0063280915516
20
7.48884922117705
30
0
41
1
10
-47.6
20
8.20212230385562
30
0
0
SPLINE
5
A9
100
AcDbEntity
8
SK1
62
256
6
ByLayer
370
18
48
1
60
0
100
AcDbSpline
70
4
71
3
72
14
73
10
40
0
40
0
40
0
40
0
40
0.25
40
0.25
40
0.5
40
0.5
40
0.75
40
0.75
40
1
40
1
40
1
40
1
41
1
10
-49.3803334609994
20
-5.46509280751849
30
0
41
1
10
-49.4205517768904
20
-5.38531607352442
30
0
41
1
10
-49.4625426086661
20
-5.30309221430156
30
0
41
1
10
-49.5496065672668
20
-5.13571061833454
30
0
41
1
10
-49.5948612802645
20
-5.05019238605229
30
0
41
1
10
-49.689111502972
20
-4.87618183458585
30
0
41
1
10
-49.7367912176085
20
-4.79012373282518
30
0
41
1
10
-49.8335758754255
20
-4.62008771012148
30
0
41
1
10
-49.882805793281
20
-4.53589838627124
30
0
41
1
10
-49.9326496714757
20
-4.4533732384572
30
0
0
SPLINE
5
AA
100
AcDbEntity
8
SK1
62
256
6
ByLayer
370
18
48
1
60
0
100
AcDbSpline
70
4
71
3
72
14
73
10
40
0
40
0
40
0
40
0
40
0.125000000000006
40
0.125000000000006
40
0.250000000000012
40
0.250000000000012
40
0.500000000000013
40
0.500000000000013
40
1
40
1
40
1
40
1
41
1
10
-47.5
20
-8.8109403070134
30
0
41
1
10
-47.5
20
-8.81022898744595
30
0
41
1
10
-47.5017107697461
20
-8.80655299481523
30
0
41
1
10
-47.5068845888983
20
-8.79628603728185
30
0
41
1
10
-47.5102281895671
20
-8.78991159025804
30
0
41
1
10
-47.521528237522
20
-8.76870840500516
30
0
41
1
10
-47.5303630420009
20
-8.75252681476786
30
0
41
1
10
-47.558525242781
20
-8.70147701820318
30
0
41
1
10
-47.5788396428357
20
-8.66531666648783
30
0
41
1
10
-47.6
20
-8.62817152811573
30
0
0
SPLINE
5
AB
100
AcDbEntity
8
SK1
62
256
6
ByLayer
370
18
48
1
60
0
100
AcDbSpline
70
4
71
3
72
14
73
10
40
0
40
0
40
0
40
0
40
0.125000000000007
40
0.125000000000007
40
0.250000000000013
40
0.250000000000013
40
0.500000000000014
40
0.500000000000014
40
1
40
1
40
1
40
1
41
1
10
-47.5
20
8.8109403070134
30
0
41
1
10
-47.5
20
8.81022898744595
30
0
41
1
10
-47.5017107697461
20
8.80655299481523
30
0
41
1
10
-47.5068845888983
20
8.79628603728185
30
0
41
1
10
-47.5102281895671
20
8.78991159025804
30
0
41
1
10
-47.521528237522
20
8.76870840500516
30
0
41
1
10
-47.5303630420009
20
8.75252681476783
30
0
41
1
10
-47.558525242781
20
8.70147701820315
30
0
41
1
10
-47.5788396428357
20
8.66531666648783
30
0
41
1
10
-47.6
20
8.62817152811573
30
0
0
SPLINE
5
AC
100
AcDbEntity
8
SK1
62
256
6
ByLayer
370
18
48
1
60
0
100
AcDbSpline
70
4
71
3
72
10
73
6
40
0
40
0
40
0
40
0
40
0.5
40
0.5
40
1
40
1
40
1
40
1
41
1
10
-47.6
20
-8.62817152811573
30
0
41
1
10
-47.8994584115424
20
-8.10249873124056
30
0
41
1
10
-48.1980939150237
20
-7.57635555152214
30
0
41
1
10
-48.792277238896
20
-6.52239624285434
30
0
41
1
10
-49.0879009214597
20
-5.99461537627477
30
0
41
1
10
-49.3803334609994
20
-5.46509280751849
30
0
0
SPLINE
5
AD
100
AcDbEntity
8
1
62
256
6
ByLayer
370
18
48
1
60
0
100
AcDbSpline
70
4
71
3
72
52
73
48
40
0
40
0
40
0
40
0
40
0.125000000000015
40
0.125000000000015
40
0.187500000000023
40
0.187500000000023
40
0.250000000000031
40
0.250000000000031
40
0.281250000000035
40
0.281250000000035
40
0.312500000000039
40
0.312500000000039
40
0.343750000000043
40
0.343750000000043
40
0.359375000000045
40
0.359375000000045
40
0.375000000000047
40
0.375000000000047
40
0.390625000000049
40
0.390625000000049
40
0.406250000000051
40
0.406250000000051
40
0.421875000000053
40
0.421875000000053
40
0.437500000000055
40
0.437500000000055
40
0.453125000000057
40
0.453125000000057
40
0.468750000000059
40
0.468750000000059
40
0.500000000000057
40
0.500000000000057
40
0.531250000000056
40
0.531250000000056
40
0.562500000000054
40
0.562500000000054
40
0.593750000000053
40
0.593750000000053
40
0.625000000000051
40
0.625000000000051
40
0.68750000000004
40
0.68750000000004
40
0.750000000000029
40
0.750000000000029
40
0.875000000000014
40
0.875000000000014
40
1
40
1
40
1
40
1
41
1
10
99.735028382089
20
-4.61122511459229
30
0
41
1
10
99.4604383505734
20
-4.49749023948061
30
0
41
1
10
99.1910953726601
20
-4.36501961760618
30
0
41
1
10
98.7963974555483
20
-4.13304691639391
30
0
41
1
10
98.666405124705
20
-4.05010365312333
30
0
41
1
10
98.4103681850398
20
-3.87012092599315
30
0
41
1
10
98.2842861197141
20
-3.77321520873244
30
0
41
1
10
98.0994724210756
20
-3.61246898463992
30
0
41
1
10
98.0384263333705
20
-3.55608716643766
30
0
41
1
10
97.9204387078065
20
-3.43855572074773
30
0
41
1
10
97.8632620906135
20
-3.37725635622073
30
0
41
1
10
97.7538940463652
20
-3.24770697991568
30
0
41
1
10
97.7014555499267
20
-3.17912505572309
30
0
41
1
10
97.6304325407917
20
-3.07109496050299
30
0
41
1
10
97.6079790311302
20
-3.03415105073651
30
0
41
1
10
97.5662057007767
20
-2.95786609880957
30
0
41
1
10
97.5467635868397
20
-2.91823485415014
30
0
41
1
10
97.5129231635281
20
-2.83758735606523
30
0
41
1
10
97.4984671102762
20
-2.79655877787033
30
0
41
1
10
97.4760189381138
20
-2.7126527268008
30
0
41
1
10
97.4681604566676
20
-2.66982982711684
30
0
41
1
10
97.4613886864453
20
-2.58612572177049
30
0
41
1
10
97.4624774554601
20
-2.5441493040384
30
0
41
1
10
97.4742440547706
20
-2.46547944763458
30
0
41
1
10
97.4847567393568
20
-2.4285698516133
30
0
41
1
10
97.5144081876272
20
-2.35961673106766
30
0
41
1
10
97.532899476288
20
-2.32894376323722
30
0
41
1
10
97.5755143470251
20
-2.2734422066651
30
0
41
1
10
97.5998629012033
20
-2.24849879379829
30
0
41
1
10
97.6772931818563
20
-2.18275647412707
30
0
41
1
10
97.7350803956119
20
-2.14989084756616
30
0
41
1
10
97.8580335701315
20
-2.09727615081343
30
0
41
1
10
97.9216667195622
20
-2.07832084014626
30
0
41
1
10
98.0516434059903
20
-2.04965698368932
30
0
41
1
10
98.1180162154241
20
-2.0400467976414
30
0
41
1
10
98.2527708396761
20
-2.0276781676034
30
0
41
1
10
98.3213274534969
20
-2.02496433827565
30
0
41
1
10
98.4582412275573
20
-2.024929852398
30
0
41
1
10
98.5268183948147
20
-2.02758812081348
30
0
41
1
10
98.7328364070042
20
-2.04193605895904
30
0
41
1
10
98.8705598402346
20
-2.05991161804471
30
0
41
1
10
99.1465552866637
20
-2.10806533980846
30
0
41
1
10
99.2848304000015
20
-2.1383124619276
30
0
41
1
10
99.7003425137008
20
-2.24433041060902
30
0
41
1
10
99.9793400629753
20
-2.33558465054838
30
0
41
1
10
100.529216657159
20
-2.54975710216104
30
0
41
1
10
100.801133085707
20
-2.67280237128153
30
0
41
1
10
101.069560708688
20
-2.8142726639737
30
0
0
SPLINE
5
AE
100
AcDbEntity
8
1
62
256
6
ByLayer
370
18
48
1
60
0
100
AcDbSpline
70
4
71
3
72
18
73
14
40
0
40
0
40
0
40
0
40
0.253517557502208
40
0.253517557502208
40
0.507035115004416
40
0.507035115004416
40
0.633793893755521
40
0.633793893755521
40
0.760552672506625
40
0.760552672506625
40
0.887311451257729
40
0.887311451257729
40
1
40
1
40
1
40
1
41
1
10
19.8089045314142
20
-8.46015513415145
30
0
41
1
10
20.5549747775233
20
-8.38820759443462
30
0
41
1
10
21.3000362932696
20
-8.29376091772792
30
0
41
1
10
22.7878372829678
20
-8.05919752636947
30
0
41
1
10
23.5304837929031
20
-7.91776263282861
30
0
41
1
10
24.6467422399699
20
-7.6758411530723
30
0
41
1
10
25.019063253682
20
-7.58996857032176
30
0
41
1
10
25.7641727406258
20
-7.40702888413423
30
0
41
1
10
26.1371796305737
20
-7.30997470996516
30
0
41
1
10
26.8827476252753
20
-7.10607549958942
30
0
41
1
10
27.2551885846852
20
-6.99976171246007
30
0
41
1
10
27.9584575137912
20
-6.78925109515779
30
0
41
1
10
28.2892514649258
20
-6.68618493051281
30
0
41
1
10
28.6199285238045
20
-6.57959244755781
30
0
0
SPLINE
5
AF
100
AcDbEntity
8
1
62
256
6
ByLayer
370
18
48
1
60
0
100
AcDbSpline
70
4
71
3
72
40
73
36
40
0
40
0
40
0
40
0
40
0.0040391893119948
40
0.0040391893119948
40
0.0593703454613278
40
0.0593703454613278
40
0.114701501610661
40
0.114701501610661
40
0.170032657759994
40
0.170032657759994
40
0.225363813909326
40
0.225363813909326
40
0.28069497005866
40
0.28069497005866
40
0.336026126207992
40
0.336026126207992
40
0.391357282357325
40
0.391357282357325
40
0.446688438506658
40
0.446688438506658
40
0.557350750805324
40
0.557350750805324
40
0.612681906954659
40
0.612681906954659
40
0.668013063103993
40
0.668013063103993
40
0.723344219253327
40
0.723344219253327
40
0.778675375402662
40
0.778675375402662
40
0.889337687701331
40
0.889337687701331
40
0.944668843850665
40
0.944668843850665
40
1
40
1
40
1
40
1
41
1
10
71.077016329521
20
8.65125970041277
30
0
41
1
10
71.104224122824
20
8.65111048278163
30
0
41
1
10
71.1314337558137
20
8.65093115605751
30
0
41
1
10
71.5314038059062
20
8.64785419237975
30
0
41
1
10
71.9041611312406
20
8.63870039073814
30
0
41
1
10
72.6481184523773
20
8.60786081500788
30
0
41
1
10
73.0197757849962
20
8.58640113980917
30
0
41
1
10
73.7633180388109
20
8.5327226880234
30
0
41
1
10
74.1350594385053
20
8.50045437661413
30
0
41
1
10
74.8783317890935
20
8.42351922957312
30
0
41
1
10
75.2498579157847
20
8.37866221616312
30
0
41
1
10
75.9928579667737
20
8.27708400477979
30
0
41
1
10
76.3643511836499
20
8.22043998398385
30
0
41
1
10
77.1085385599573
20
8.09665530950497
30
0
41
1
10
77.4811559528874
20
8.02935196028014
30
0
41
1
10
78.2268276867827
20
7.88281483891757
30
0
41
1
10
78.5991834644893
20
7.80391930067094
30
0
41
1
10
79.3431328196357
20
7.6362480023015
30
0
41
1
10
79.7146513671642
20
7.54757068428546
30
0
41
1
10
80.8296443896181
20
7.26721227824535
30
0
41
1
10
81.5727594748033
20
7.05780790159105
30
0
41
1
10
82.687722951729
20
6.71379274777573
30
0
41
1
10
83.0592817821462
20
6.59389031312011
30
0
41
1
10
83.8035533495162
20
6.34581569149412
30
0
41
1
10
84.1765035468825
20
6.21753345977032
30
0
41
1
10
84.9218356211368
20
5.95354305647422
30
0
41
1
10
85.2942118064143
20
5.81804957443998
30
0
41
1
10
86.0381536737733
20
5.53876143861689
30
0
41
1
10
86.4095580068442
20
5.39445145620184
30
0
41
1
10
87.5236635966527
20
4.95047411432921
30
0
41
1
10
88.2668849917985
20
4.64102669585949
30
0
41
1
10
89.3824129000998
20
4.15767653510153
30
0
41
1
10
89.7543403992671
20
3.99319854716447
30
0
41
1
10
90.4986736057688
20
3.65817278558833
30
0
41
1
10
90.8715998937113
20
3.48834569415305
30
0
41
1
10
91.2441373330422
20
3.31680615338138
30
0
0
SPLINE
5
B0
100
AcDbEntity
8
1
62
256
6
ByLayer
370
18
48
1
60
0
100
AcDbSpline
70
4
71
3
72
28
73
24
40
0
40
0
40
0
40
0
40
0.0624999999999984
40
0.0624999999999984
40
0.124999999999997
40
0.124999999999997
40
0.156249999999997
40
0.156249999999997
40
0.187499999999996
40
0.187499999999996
40
0.249999999999996
40
0.249999999999996
40
0.374999999999997
40
0.374999999999997
40
0.499999999999998
40
0.499999999999998
40
0.624999999999998
40
0.624999999999998
40
0.749999999999999
40
0.749999999999999
40
0.874999999999999
40
0.874999999999999
40
1
40
1
40
1
40
1
41
1
10
4.25122633735961
20
-5.28414209974423
30
0
41
1
10
4.51490526726951
20
-5.50622185888886
30
0
41
1
10
4.79241739080982
20
-5.70624675732526
30
0
41
1
10
5.36572514405469
20
-6.07565166714539
30
0
41
1
10
5.6616395020117
20
-6.24485510417728
30
0
41
1
10
6.11561978365228
20
-6.48080397174709
30
0
41
1
10
6.26865550232239
20
-6.5564443660096
30
0
41
1
10
6.57771736850404
20
-6.70231567157907
30
0
41
1
10
6.73390263447558
20
-6.7726060707752
30
0
41
1
10
7.20375366533449
20
-6.9749734158641
30
0
41
1
10
7.51949747932059
20
-7.09900582631658
30
0
41
1
10
8.47229255074325
20
-7.44436738489213
30
0
41
1
10
9.11475740099962
20
-7.63943828098118
30
0
41
1
10
10.4092647717989
20
-7.97539764285196
30
0
41
1
10
11.0615452809716
20
-8.11430599055547
30
0
41
1
10
12.375096999873
20
-8.34104776276433
30
0
41
1
10
13.0362801637292
20
-8.42988118911305
30
0
41
1
10
14.3695164717404
20
-8.557217325154
30
0
41
1
10
15.0423786972623
20
-8.59612285387797
30
0
41
1
10
16.390277950668
20
-8.62975121568513
30
0
41
1
10
17.0666411876056
20
-8.6225586371128
30
0
41
1
10
18.4291180351225
20
-8.56888113171883
30
0
41
1
10
19.1152586125298
20
-8.52289340567259
30
0
41
1
10
19.8089045314142
20
-8.46015513415145
30
0
0
SPLINE
5
B1
100
AcDbEntity
8
1
62
256
6
ByLayer
370
18
48
1
60
0
100
AcDbSpline
70
4
71
3
72
12
73
8
40
0
40
0
40
0
40
0
40
0.250000000000001
40
0.250000000000001
40
0.500000000000002
40
0.500000000000002
40
1
40
1
40
1
40
1
41
1
10
102.574402324661
20
-2.65026756816491
30
0
41
1
10
102.630076610558
20
-2.45064939133567
30
0
41
1
10
102.681641250103
20
-2.25387155811788
30
0
41
1
10
102.773711076377
20
-1.87070683720808
30
0
41
1
10
102.81445688084
20
-1.68348201914799
30
0
41
1
10
102.919485178603
20
-1.13130188217824
30
0
41
1
10
102.966439883567
20
-0.775905306889143
30
0
41
1
10
102.987384324503
20
-0.423060508944957
30
0
0
SPLINE
5
B2
100
AcDbEntity
8
1
62
256
6
ByLayer
370
18
48
1
60
0
100
AcDbSpline
70
4
71
3
72
22
73
18
40
0
40
0
40
0
40
0
40
0.250000000000007
40
0.250000000000007
40
0.375000000000011
40
0.375000000000011
40
0.437500000000011
40
0.437500000000011
40
0.500000000000011
40
0.500000000000011
40
0.750000000000011
40
0.750000000000011
40
0.812500000000009
40
0.812500000000009
40
0.875000000000007
40
0.875000000000007
40
1
40
1
40
1
40
1
41
1
10
98.3374065103413
20
-6.41604700763588
30
0
41
1
10
98.4807699160084
20
-6.8032900864888
30
0
41
1
10
98.6266892292994
20
-7.14220941727964
30
0
41
1
10
98.8484709747308
20
-7.58096516123581
30
0
41
1
10
98.9228983144998
20
-7.71552257410482
30
0
41
1
10
99.035306726248
20
-7.89937087903363
30
0
41
1
10
99.0730077782102
20
-7.95779426046144
30
0
41
1
10
99.1480514482558
20
-8.06759212915333
30
0
41
1
10
99.1854004123732
20
-8.1189998103161
30
0
41
1
10
99.371326279394
20
-8.35888629648309
30
0
41
1
10
99.5174233248284
20
-8.49639490772242
30
0
41
1
10
99.697673354793
20
-8.60013009617523
30
0
41
1
10
99.7336063654034
20
-8.61743930830127
30
0
41
1
10
99.8052691500221
20
-8.64505379153263
30
0
41
1
10
99.8410650346122
20
-8.65536826873625
30
0
41
1
10
99.9476492403427
20
-8.67544683935876
30
0
41
1
10
100.017564523088
20
-8.67442457877743
30
0
41
1
10
100.086519756475
20
-8.6589130230862
30
0
0
SPLINE
5
B3
100
AcDbEntity
8
1
62
256
6
ByLayer
370
13
48
1
60
0
100
AcDbSpline
70
4
71
3
72
25
73
21
40
0
40
0
40
0
40
0
40
0.0545178387179605
40
0.0545178387179605
40
0.113610473798088
40
0.113610473798088
40
0.172703108878215
40
0.231795743958343
40
0.231795743958343
40
0.29088837903847
40
0.29088837903847
40
0.52725891935898
40
0.52725891935898
40
0.586351554439108
40
0.586351554439108
40
0.645444189519235
40
0.645444189519235
40
0.76362945967949
40
0.76362945967949
40
1
40
1
40
1
40
1
41
1
10
4.2508698844365
20
-8.61232101287038
30
0
41
1
10
4.25087943824502
20
-8.61167738559129
30
0
41
1
10
4.25088889439346
20
-8.60755097543509
30
0
41
1
10
4.25090843337989
20
-8.59166497082768
30
0
41
1
10
4.25091851925058
20
-8.579205126982
30
0
41
1
10
4.25093837502604
20
-8.54602541455716
30
0
41
1
10
4.25095792130594
20
-8.5046292156037
30
0
41
1
10
4.25097689183283
20
-8.44689859701012
30
0
41
1
10
4.25099558494847
20
-8.38097898584783
30
0
41
1
10
4.25100481154189
20
-8.34383537437157
30
0
41
1
10
4.25105000080473
20
-8.13858275068458
30
0
41
1
10
4.25108311383735
20
-7.91352675391826
30
0
41
1
10
4.25112005896145
20
-7.55796537738416
30
0
41
1
10
4.25112721844272
20
-7.48310086798105
30
0
41
1
10
4.25114103213019
20
-7.3257506705655
30
0
41
1
10
4.25114770466092
20
-7.24300276524193
30
0
41
1
10
4.25116671010016
20
-6.98536351490995
30
0
41
1
10
4.25117804287987
20
-6.80124518319656
30
0
41
1
10
4.25120749383657
20
-6.212960168032
30
0
41
1
10
4.25122117214013
20
-5.77315241761698
30
0
41
1
10
4.25122633810241
20
-5.28414209979343
30
0
0
SPLINE
5
B4
100
AcDbEntity
8
1
62
256
6
ByLayer
370
18
48
1
60
0
100
AcDbSpline
70
4
71
3
72
10
73
6
40
0
40
0
40
0
40
0
40
0.5
40
0.5
40
1
40
1
40
1
40
1
41
1
10
100.307516395008
20
-8.87103503255474
30
0
41
1
10
100.248526730401
20
-8.93515846721832
30
0
41
1
10
100.188236677629
20
-8.98749711050655
30
0
41
1
10
100.064636896637
20
-9.06823140842772
30
0
41
1
10
100.001061291485
20
-9.0966068359418
30
0
41
1
10
99.9369503559948
20
-9.11241269536515
30
0
0
SPLINE
5
B5
100
AcDbEntity
8
1
62
256
6
ByLayer
370
18
48
1
60
0
100
AcDbSpline
70
4
71
3
72
8
73
4
40
0
40
0
40
0
40
0
40
1
40
1
40
1
40
1
41
1
10
102.987384324503
20
0.423060508944928
30
0
41
1
10
102.987472556476
20
0.354170939357317
30
0
41
1
10
102.986318371655
20
0.28534777873324
30
0
41
1
10
102.983837530187
20
0.216595529813929
30
0
0
SPLINE
5
B6
100
AcDbEntity
8
1
62
256
6
ByLayer
370
18
48
1
60
0
100
AcDbSpline
70
4
71
3
72
14
73
10
40
0
40
0
40
0
40
0
40
0.25
40
0.25
40
0.5
40
0.5
40
0.75
40
0.75
40
1
40
1
40
1
40
1
41
1
10
100.086519756475
20
-8.6589130230862
30
0
41
1
10
100.089846968039
20
-8.65816456318038
30
0
41
1
10
100.092520038074
20
-8.65914643753706
30
0
41
1
10
100.096168553305
20
-8.66561939284617
30
0
41
1
10
100.097087393571
20
-8.6711979153734
30
0
41
1
10
100.096083597652
20
-8.6879446932179
30
0
41
1
10
100.094094833127
20
-8.69912496465074
30
0
41
1
10
100.087355255779
20
-8.72450388784145
30
0
41
1
10
100.082660548044
20
-8.7385244965875
30
0
41
1
10
100.07747744687
20
-8.75188867185284
30
0
0
SPLINE
5
B7
100
AcDbEntity
8
1
62
256
6
ByLayer
370
18
48
1
60
0
100
AcDbSpline
70
4
71
3
72
12
73
8
40
0
40
0
40
0
40
0
40
0.499999999999995
40
0.499999999999995
40
0.749999999999997
40
0.749999999999997
40
1
40
1
40
1
40
1
41
1
10
100.307516395009
20
8.87103503255364
30
0
41
1
10
100.248519195164
20
8.93516665823461
30
0
41
1
10
100.18824280836
20
8.98748686469273
30
0
41
1
10
100.095600643106
20
9.04800927680554
30
0
41
1
10
100.064348425088
20
9.06518619673147
30
0
41
1
10
100.00104550057
20
9.09345201035964
30
0
41
1
10
99.9690526637089
20
9.10449821776444
30
0
41
1
10
99.9369503559948
20
9.11241269536512
30
0
0
SPLINE
5
B8
100
AcDbEntity
8
1
62
256
6
ByLayer
370
18
48
1
60
0
100
AcDbSpline
70
4
71
3
72
8
73
4
40
0
40
0
40
0
40
0
40
1
40
1
40
1
40
1
41
1
10
102.574402324661
20
2.65026756816471
30
0
41
1
10
102.543710684
20
2.46863186593743
30
0
41
1
10
102.507941749615
20
2.28852613048406
30
0
41
1
10
102.467760922891
20
2.1098240384141
30
0
0
SPLINE
5
B9
100
AcDbEntity
8
1
62
256
6
ByLayer
370
18
48
1
60
0
100
AcDbSpline
70
4
71
3
72
10
73
6
40
0
40
0
40
0
40
0
40
0.5
40
0.5
40
1
40
1
40
1
40
1
41
1
10
102.987384324503
20
0.423060508944843
30
0
41
1
10
102.966235517147
20
0.779348207492575
30
0
41
1
10
102.918654127873
20
1.13674195151469
30
0
41
1
10
102.778174649235
20
1.87314667381932
30
0
41
1
10
102.68544580195
20
2.25212512002642
30
0
41
1
10
102.574402324661
20
2.65026756816471
30
0
0
SPLINE
5
BA
100
AcDbEntity
8
1
62
256
6
ByLayer
370
18
48
1
60
0
100
AcDbSpline
70
4
71
3
72
8
73
4
40
0
40
0
40
0
40
0
40
1
40
1
40
1
40
1
41
1
10
100.077477446869
20
-8.75188867185449
30
0
41
1
10
100.030787592221
20
-8.87227439840265
30
0
41
1
10
99.9839461594961
20
-8.99244968084005
30
0
41
1
10
99.9369503559948
20
-9.11241269536512
30
0
0
SPLINE
5
BB
100
AcDbEntity
8
1
62
256
6
ByLayer
370
18
48
1
60
0
100
AcDbSpline
70
4
71
3
72
16
73
12
40
0
40
0
40
0
40
0
40
0.317315810381948
40
0.317315810381948
40
0.750216195761978
40
0.750216195761978
40
0.858441292106983
40
0.858441292106983
40
0.966666388451989
40
0.966666388451989
40
1
40
1
40
1
40
1
41
1
10
71.7474598580682
20
-0.0077202459713988
30
0
41
1
10
73.2103790842417
20
-0.747209200095313
30
0
41
1
10
74.6636496870972
20
-1.48189824577784
30
0
41
1
10
78.0987407030676
20
-3.16392963654036
30
0
41
1
10
80.080007540677
20
-4.09180953569779
30
0
41
1
10
82.5854598986963
20
-5.14012353962895
30
0
41
1
10
83.0884692299562
20
-5.34441810637918
30
0
41
1
10
84.0917184080408
20
-5.73800793126725
30
0
41
1
10
84.5926794627322
20
-5.92761638064809
30
0
41
1
10
85.2476031952409
20
-6.16544208451774
30
0
41
1
10
85.401797520413
20
-6.22070791468698
30
0
41
1
10
85.5559782628904
20
-6.27522310798184
30
0
0
SPLINE
5
BC
100
AcDbEntity
8
1
62
256
6
ByLayer
370
13
48
1
60
0
100
AcDbSpline
70
4
71
3
72
16
73
12
40
0
40
0
40
0
40
0
40
0.174576748914915
40
0.174576748914915
40
0.27775465530055
40
0.27775465530055
40
0.380932561686186
40
0.380932561686186
40
0.587288374457458
40
0.587288374457458
40
1
40
1
40
1
40
1
41
1
10
85.5559782623272
20
-6.27522310778269
30
0
41
1
10
86.4029627064224
20
-6.5746996827892
30
0
41
1
10
87.249537251821
20
-6.85152353045885
30
0
41
1
10
88.5985969377812
20
-7.25213353483974
30
0
41
1
10
89.1005236126755
20
-7.3922285862256
30
0
41
1
10
90.1049561480094
20
-7.65361428326023
30
0
41
1
10
90.6057961722993
20
-7.77447921461109
30
0
41
1
10
92.1053518204058
20
-8.10683668631634
30
0
41
1
10
93.1011922910627
20
-8.28817261183258
30
0
41
1
10
96.0856147142968
20
-8.70649290499134
30
0
41
1
10
98.0717454524391
20
-8.81816631886838
30
0
41
1
10
100.077477446866
20
-8.75188867185295
30
0
0
SPLINE
5
BD
100
AcDbEntity
8
1
62
256
6
ByLayer
370
18
48
1
60
0
100
AcDbSpline
70
4
71
3
72
36
73
32
40
0
40
0
40
0
40
0
40
0.0625000000000038
40
0.0625000000000038
40
0.0937500000000058
40
0.0937500000000058
40
0.125000000000008
40
0.125000000000008
40
0.187500000000012
40
0.187500000000012
40
0.218750000000014
40
0.218750000000014
40
0.250000000000016
40
0.250000000000016
40
0.375000000000021
40
0.375000000000021
40
0.406250000000022
40
0.406250000000022
40
0.437500000000023
40
0.437500000000023
40
0.50000000000002
40
0.50000000000002
40
0.625000000000015
40
0.625000000000015
40
0.687500000000013
40
0.687500000000013
40
0.75000000000001
40
0.75000000000001
40
0.875000000000005
40
0.875000000000005
40
1
40
1
40
1
40
1
41
1
10
91.2441373330596
20
3.31680615337288
30
0
41
1
10
91.220242048676
20
3.06226788674837
30
0
41
1
10
91.2140999287716
20
2.80242645675256
30
0
41
1
10
91.2320703712211
20
2.40454411491834
30
0
41
1
10
91.2426131261594
20
2.27043384982386
30
0
41
1
10
91.2729065549993
20
1.99996751634492
30
0
41
1
10
91.2924559407948
20
1.86531590472452
30
0
41
1
10
91.3635676167799
20
1.46300739374883
30
0
41
1
10
91.4275533336202
20
1.19699152247634
30
0
41
1
10
91.5462719855867
20
0.800971484618287
30
0
41
1
10
91.5896455758368
20
0.669466846023937
30
0
41
1
10
91.6837550774475
20
0.407430068294332
30
0
41
1
10
91.7346698125476
20
0.276515341830589
30
0
41
1
10
92.0034017253378
20
-0.36699226127277
30
0
41
1
10
92.2646730509289
20
-0.852376074985216
30
0
41
1
10
92.6345699999491
20
-1.43157658639831
30
0
41
1
10
92.7107508023551
20
-1.54601732732721
30
0
41
1
10
92.867291788394
20
-1.77224212203527
30
0
41
1
10
92.9477455898736
20
-1.88413258631363
30
0
41
1
10
93.1927648228827
20
-2.21298431523118
30
0
41
1
10
93.361675342954
20
-2.42421195993614
30
0
41
1
10
93.8827305043267
20
-3.0372839517423
30
0
41
1
10
94.2489151553201
20
-3.41892543040623
30
0
41
1
10
94.821526246848
20
-3.95781102940018
30
0
41
1
10
95.0164062080617
20
-4.13166995326298
30
0
41
1
10
95.4135421354637
20
-4.46877410047398
30
0
41
1
10
95.6155353820134
20
-4.63182859892862
30
0
41
1
10
96.2254394567409
20
-5.10216586272372
30
0
41
1
10
96.6393072343432
20
-5.39236002797102
30
0
41
1
10
97.4793953621644
20
-5.93302320913881
30
0
41
1
10
97.905632843048
20
-6.18343713384624
30
0
41
1
10
98.3374065103414
20
-6.41604700763588
30
0
0
SPLINE
5
BE
100
AcDbEntity
8
1
62
256
6
ByLayer
370
18
48
1
60
0
100
AcDbSpline
70
4
71
3
72
10
73
6
40
0
40
0
40
0
40
0
40
0.5
40
0.5
40
1
40
1
40
1
40
1
41
1
10
102.949560490624
20
-0.0631319376237798
30
0
41
1
10
102.649485857538
20
-0.535428240743784
30
0
41
1
10
102.34109435162
20
-0.99908513402201
30
0
41
1
10
101.713044000336
20
-1.91469462194772
30
0
41
1
10
101.393337319635
20
-2.36659752615589
30
0
41
1
10
101.069560708687
20
-2.81427266397367
30
0
0
SPLINE
5
BF
100
AcDbEntity
8
1
62
256
6
ByLayer
370
18
48
1
60
0
100
AcDbSpline
70
4
71
3
72
37
73
33
40
0
40
0
40
0
40
0
40
0.0625000000000075
40
0.0625000000000075
40
0.125000000000015
40
0.125000000000015
40
0.156250000000018
40
0.156250000000018
40
0.187500000000022
40
0.218750000000025
40
0.218750000000025
40
0.250000000000029
40
0.250000000000029
40
0.31250000000003
40
0.31250000000003
40
0.37500000000003
40
0.37500000000003
40
0.437500000000031
40
0.437500000000031
40
0.500000000000032
40
0.500000000000032
40
0.625000000000024
40
0.625000000000024
40
0.750000000000016
40
0.750000000000016
40
0.812500000000012
40
0.812500000000012
40
0.875000000000008
40
0.875000000000008
40
0.937500000000004
40
0.937500000000004
40
1
40
1
40
1
40
1
41
1
10
101.069560708688
20
-2.81427266397358
30
0
41
1
10
101.082837500097
20
-2.86802799489871
30
0
41
1
10
101.091807888052
20
-2.92873322591996
30
0
41
1
10
101.099269459014
20
-3.05861721349379
30
0
41
1
10
101.097971034894
20
-3.12788415928145
30
0
41
1
10
101.088108889241
20
-3.23900125967398
30
0
41
1
10
101.083439690056
20
-3.27750968746966
30
0
41
1
10
101.071687603544
20
-3.35470494165617
30
0
41
1
10
101.057512821853
20
-3.43252383514419
30
0
41
1
10
101.038709342645
20
-3.51159219875959
30
0
41
1
10
101.017617634946
20
-3.59130404300652
30
0
41
1
10
101.005931528851
20
-3.63140113461293
30
0
41
1
10
100.968538197494
20
-3.74939476394809
30
0
41
1
10
100.940175659198
20
-3.82629345698564
30
0
41
1
10
100.877585999814
20
-3.97586096009991
30
0
41
1
10
100.844267594107
20
-4.04640417392352
30
0
41
1
10
100.774095327647
20
-4.18009481525468
30
0
41
1
10
100.737106237554
20
-4.24330427351131
30
0
41
1
10
100.662275516116
20
-4.3586843195998
30
0
41
1
10
100.62411837435
20
-4.41148672575429
30
0
41
1
10
100.507318065736
20
-4.556188272789
30
0
41
1
10
100.429537118856
20
-4.63079963987829
30
0
41
1
10
100.273444411927
20
-4.74068177252681
30
0
41
1
10
100.198057943602
20
-4.77387698250522
30
0
41
1
10
100.087652170932
20
-4.79318440451499
30
0
41
1
10
100.051374119678
20
-4.79434712927818
30
0
41
1
10
99.9815439533836
20
-4.7862185703726
30
0
41
1
10
99.9477353529238
20
-4.77699003101722
30
0
41
1
10
99.88226577129
20
-4.74799197862865
30
0
41
1
10
99.8504257831693
20
-4.72807527647129
30
0
41
1
10
99.7898588655546
20
-4.6773502043597
30
0
41
1
10
99.7614682568968
20
-4.64690590371853
30
0
41
1
10
99.7350283820891
20
-4.61122511459229
30
0
0
SPLINE
5
C0
100
AcDbEntity
8
1
62
256
6
ByLayer
370
18
48
1
60
0
100
AcDbSpline
70
4
71
3
72
8
73
4
40
0
40
0
40
0
40
0
40
1
40
1
40
1
40
1
41
1
10
102.983837530187
20
-0.216595529813844
30
0
41
1
10
102.982314277732
20
-0.17438121125403
30
0
41
1
10
102.988673304277
20
-0.119615406738092
30
0
41
1
10
102.99972592923
20
-0.0622115963127783
30
0
0
SPLINE
5
C1
100
AcDbEntity
8
1
62
256
6
ByLayer
370
18
48
1
60
0
100
AcDbSpline
70
4
71
3
72
36
73
32
40
0
40
0
40
0
40
0
40
0.114488571800637
40
0.114488571800637
40
0.171732857700956
40
0.171732857700956
40
0.228977143601276
40
0.228977143601276
40
0.286221429501595
40
0.286221429501595
40
0.343465715401914
40
0.343465715401914
40
0.457954287202551
40
0.457954287202551
40
0.51519857310287
40
0.51519857310287
40
0.572442859003189
40
0.572442859003189
40
0.629687144903507
40
0.629687144903507
40
0.686931430803826
40
0.686931430803826
40
0.801420002604463
40
0.801420002604463
40
0.858664288504782
40
0.858664288504782
40
0.915908574405102
40
0.915908574405102
40
0.973152860305421
40
0.973152860305421
40
1
40
1
40
1
40
1
41
1
10
19.8089045314142
20
-2.69335046306333
30
0
41
1
10
20.6481475378997
20
-3.11783913339383
30
0
41
1
10
21.4882316434275
20
-3.52565726133113
30
0
41
1
10
22.7462344153076
20
-4.11932890413951
30
0
41
1
10
23.1648578338044
20
-4.31477224116713
30
0
41
1
10
24.0021737651771
20
-4.69809859892658
30
0
41
1
10
24.421528152388
20
-4.8848989427446
30
0
41
1
10
25.2612527507139
20
-5.24950219054483
30
0
41
1
10
25.6817010383001
20
-5.42745850709187
30
0
41
1
10
26.5226070337059
20
-5.77470296716518
30
0
41
1
10
26.9417007860174
20
-5.94430784046423
30
0
41
1
10
28.1993892239842
20
-6.43441233622715
30
0
41
1
10
29.0385332086069
20
-6.73643292223295
30
0
41
1
10
30.2954777826477
20
-7.15630904151843
30
0
41
1
10
30.7138747302843
20
-7.29097903618307
30
0
41
1
10
31.5529421941108
20
-7.5456931936194
30
0
41
1
10
31.97353983731
20
-7.66622974527977
30
0
41
1
10
32.8146574522404
20
-7.89389467390916
30
0
41
1
10
33.2346304485615
20
-8.00079463818963
30
0
41
1
10
34.0727748805108
20
-8.20117166360467
30
0
41
1
10
34.4912224941918
20
-8.29433995601448
30
0
41
1
10
35.7484755271729
20
-8.55004157845426
30
0
41
1
10
36.5875110260198
20
-8.690500585329
30
0
41
1
10
37.8447722970394
20
-8.85682352827874
30
0
41
1
10
38.2649152342054
20
-8.90436349993331
30
0
41
1
10
39.1056687643733
20
-8.98337699818401
30
0
41
1
10
39.5256937623387
20
-9.01491970110234
30
0
41
1
10
40.364657207976
20
-9.06225555955638
30
0
41
1
10
40.7833084864
20
-9.07806651275004
30
0
41
1
10
41.3980827430082
20
-9.08945872640498
30
0
41
1
10
41.5944676405543
20
-9.09132353134666
30
0
41
1
10
41.7909441205538
20
-9.09143061340907
30
0
0
SPLINE
5
C2
100
AcDbEntity
8
1
62
256
6
ByLayer
370
18
48
1
60
0
100
AcDbSpline
70
4
71
3
72
32
73
28
40
0
40
0
40
0
40
0
40
0.0546139197012338
40
0.0546139197012338
40
0.127335925878062
40
0.127335925878062
40
0.20005793205489
40
0.20005793205489
40
0.272779938231718
40
0.272779938231718
40
0.345501944408546
40
0.345501944408546
40
0.418223950585374
40
0.418223950585374
40
0.490945956762203
40
0.490945956762203
40
0.563667962939031
40
0.563667962939031
40
0.636389969115859
40
0.636389969115859
40
0.709111975292688
40
0.709111975292688
40
0.781833981469516
40
0.781833981469516
40
0.854555987646344
40
0.854555987646344
40
1
40
1
40
1
40
1
41
1
10
83.0245169937418
20
6.60681405626224
30
0
41
1
10
83.3390609929992
20
6.72155039397802
30
0
41
1
10
83.6532052286878
20
6.83317945479035
30
0
41
1
10
84.3864217425789
20
7.08403981037918
30
0
41
1
10
84.8054168047368
20
7.2206370655453
30
0
41
1
10
85.6433074578337
20
7.48132650129446
30
0
41
1
10
86.0622753665963
20
7.60533767303161
30
0
41
1
10
86.8996298835606
20
7.84112862285446
30
0
41
1
10
87.3183216899938
20
7.95254006948991
30
0
41
1
10
88.1581861484771
20
8.16010062502039
30
0
41
1
10
88.5786604966769
20
8.25657964235316
30
0
41
1
10
89.4176793778166
20
8.43488992099279
30
0
41
1
10
89.8365934102334
20
8.51680032589582
30
0
41
1
10
90.6728466885389
20
8.66616198380632
30
0
41
1
10
91.0911411143205
20
8.73298049269232
30
0
41
1
10
91.9285869765748
20
8.85089988204089
30
0
41
1
10
92.3475483124099
20
8.9021172920871
30
0
41
1
10
93.1855640437138
20
8.98917814792972
30
0
41
1
10
93.6043301156813
20
9.02509082281534
30
0
41
1
10
94.4427735387806
20
9.08091227681732
30
0
41
1
10
94.8631077080217
20
9.10068572394525
30
0
41
1
10
95.7022808267521
20
9.12420017171533
30
0
41
1
10
96.121479141645
20
9.12797792572067
30
0
41
1
10
96.9587882147504
20
9.11956784162902
30
0
41
1
10
97.3764181147817
20
9.10728376793332
30
0
41
1
10
98.6307945601448
20
9.04654121702407
30
0
41
1
10
99.4690714713102
20
8.97477724689645
30
0
41
1
10
100.307516395009
20
8.87103503255364
30
0
0
SPLINE
5
C3
100
AcDbEntity
8
1
62
256
6
ByLayer
370
18
48
1
60
0
100
AcDbSpline
70
4
71
3
72
16
73
12
40
0
40
0
40
0
40
0
40
0.0033401916594913
40
0.0033401916594913
40
0.131809904296468
40
0.131809904296468
40
0.38874932957042
40
0.38874932957042
40
0.902628180118329
40
0.902628180118329
40
1
40
1
40
1
40
1
41
1
10
44.7177282566956
20
-8.63660103149195
30
0
41
1
10
44.7046714580365
20
-8.63657959800443
30
0
41
1
10
44.6916142772265
20
-8.63655081190848
30
0
41
1
10
44.1763393686468
20
-8.63512467604269
30
0
41
1
10
43.6742069031539
20
-8.62280405360079
30
0
41
1
10
42.1736339407404
20
-8.55364352729907
30
0
41
1
10
41.1783848840501
20
-8.46476261061727
30
0
41
1
10
38.1994805153362
20
-8.07552489165934
30
0
41
1
10
36.2224535549367
20
-7.65264846281661
30
0
41
1
10
33.8543420519983
20
-6.97751058792298
30
0
41
1
10
33.4765396604147
20
-6.86475655023429
30
0
41
1
10
33.0980840091322
20
-6.74698108804273
30
0
0
SPLINE
5
C4
100
AcDbEntity
8
1
62
256
6
ByLayer
370
13
48
1
60
0
100
AcDbSpline
70
4
71
3
72
22
73
18
40
0
40
0
40
0
40
0
40
0.0937119816198217
40
0.0937119816198217
40
0.244609090636017
40
0.244609090636017
40
0.546403308668409
40
0.546403308668409
40
0.697300417684606
40
0.697300417684606
40
0.772748972192705
40
0.772748972192705
40
0.848197526700804
40
0.848197526700804
40
0.999094635717003
40
0.999094635717003
40
1
40
1
40
1
40
1
41
1
10
33.0980849636226
20
-6.74698138508035
30
0
41
1
10
32.4778922538571
20
-6.55397732299622
30
0
41
1
10
31.8559452227639
20
-6.34748828181247
30
0
41
1
10
30.2269187844476
20
-5.77541631588622
30
0
41
1
10
29.2283641857104
20
-5.39378991595686
30
0
41
1
10
26.2426241155515
20
-4.17934461046872
30
0
41
1
10
24.2656536972938
20
-3.27644758994168
30
0
41
1
10
21.285910564332
20
-1.84703256325747
30
0
41
1
10
20.2903114485294
20
-1.35802124386939
30
0
41
1
10
18.7890062837315
20
-0.614210270696958
30
0
41
1
10
18.286486713357
20
-0.364235145431451
30
0
41
1
10
17.2818740067854
20
0.135806702678934
30
0
41
1
10
16.7802899379928
20
0.385613323068441
30
0
41
1
10
15.2764849708319
20
1.13192967176789
30
0
41
1
10
14.275370024198
20
1.62566978576615
30
0
41
1
10
13.2665295877791
20
2.11225130533956
30
0
41
1
10
13.2605127069876
20
2.11515296173442
30
0
41
1
10
13.2544957644558
20
2.11805425529909
30
0
0
SPLINE
5
C5
100
AcDbEntity
8
1
62
256
6
ByLayer
370
18
48
1
60
0
100
AcDbSpline
70
4
71
3
72
62
73
58
40
0
40
0
40
0
40
0
40
0.0540190150415083
40
0.0540190150415083
40
0.108038030083017
40
0.108038030083017
40
0.135047537603771
40
0.135047537603771
40
0.162057045124526
40
0.162057045124526
40
0.216076060166034
40
0.216076060166034
40
0.270095075207543
40
0.270095075207543
40
0.297104582728297
40
0.297104582728297
40
0.324114090249051
40
0.324114090249051
40
0.378133105290558
40
0.378133105290558
40
0.405142612811312
40
0.405142612811312
40
0.432152120332065
40
0.432152120332065
40
0.486171135373572
40
0.486171135373572
40
0.513180642894326
40
0.513180642894326
40
0.540190150415079
40
0.540190150415079
40
0.567199657935832
40
0.567199657935832
40
0.594209165456585
40
0.594209165456585
40
0.648228180498092
40
0.648228180498092
40
0.675237688018845
40
0.675237688018845
40
0.702247195539598
40
0.702247195539598
40
0.756266210581103
40
0.756266210581103
40
0.783275718101856
40
0.783275718101856
40
0.810285225622608
40
0.810285225622608
40
0.864304240664113
40
0.864304240664113
40
0.891313748184865
40
0.891313748184865
40
0.918323255705618
40
0.918323255705618
40
0.94533276322637
40
0.94533276322637
40
0.972342270747123
40
0.972342270747123
40
1
40
1
40
1
40
1
41
1
10
99.9369503559948
20
-9.11241269536512
30
0
41
1
10
98.9388259920798
20
-9.14232073859199
30
0
41
1
10
97.939587218743
20
-9.12655945217566
30
0
41
1
10
95.9454865423513
20
-9.00481565409285
30
0
41
1
10
94.9496805968831
20
-8.89896589606713
30
0
41
1
10
93.4531779342998
20
-8.67436715599314
30
0
41
1
10
92.953462383002
20
-8.58845043172025
30
0
41
1
10
91.955581021589
20
-8.39576607751297
30
0
41
1
10
91.4571537332273
20
-8.28895135893816
30
0
41
1
10
89.9621982761055
20
-7.93813759981106
30
0
41
1
10
88.9659190699984
20
-7.66381920326739
30
0
41
1
10
86.9679145667313
20
-7.03995892351469
30
0
41
1
10
85.9716183125213
20
-6.69230879065407
30
0
41
1
10
84.4765132908875
20
-6.12357646775348
30
0
41
1
10
83.978031034149
20
-5.92612811494803
30
0
41
1
10
82.9800098222478
20
-5.51662499036783
30
0
41
1
10
82.4801878962477
20
-5.30443482705587
30
0
41
1
10
80.9833383174959
20
-4.65003067900219
30
0
41
1
10
79.9873724301775
20
-4.18927843786972
30
0
41
1
10
78.4915308850476
20
-3.46945788062797
30
0
41
1
10
77.9923790942245
20
-3.22467825110695
30
0
41
1
10
76.9933753040694
20
-2.72756278406209
30
0
41
1
10
76.4945133038807
20
-2.47568124420459
30
0
41
1
10
74.9987464825892
20
-1.71212467084985
30
0
41
1
10
74.0025665012829
20
-1.1927117025084
30
0
41
1
10
72.5051786890776
20
-0.406672714957807
30
0
41
1
10
72.0053712357129
20
-0.143515218016177
30
0
41
1
10
71.0074584481017
20
0.381328235047789
30
0
41
1
10
70.5089456142994
20
0.643348114793412
30
0
41
1
10
69.512059893848
20
1.16516467530016
30
0
41
1
10
69.0136596281945
20
1.4249089355348
30
0
41
1
10
68.0160553031417
20
1.94038715922659
30
0
41
1
10
67.5165639566439
20
2.19638986794874
30
0
41
1
10
66.0182135484169
20
2.9552504462516
30
0
41
1
10
65.0217296891252
20
3.44738049012926
30
0
41
1
10
63.5260636160581
20
4.15690314198139
30
0
41
1
10
63.027320928507
20
4.38857824447445
30
0
41
1
10
62.0286409711489
20
4.84084357841161
30
0
41
1
10
61.5288079046483
20
5.06139412974522
30
0
41
1
10
60.0319790304481
20
5.70220694763199
30
0
41
1
10
59.0357108444602
20
6.10231224265553
30
0
41
1
10
57.5389672660905
20
6.65491088590485
30
0
41
1
10
57.0392332104906
20
6.83132229636598
30
0
41
1
10
56.0403326890844
20
7.16639131971689
30
0
41
1
10
55.5414760008385
20
7.32497334640755
30
0
41
1
10
54.0454886113914
20
7.77261523827966
30
0
41
1
10
53.0489337088354
20
8.03355389953808
30
0
41
1
10
51.5504506539776
20
8.36389241755325
30
0
41
1
10
51.050689419858
20
8.46371468366931
30
0
41
1
10
50.0527498467175
20
8.64171850984312
30
0
41
1
10
49.5541853610096
20
8.7200086018274
30
0
41
1
10
48.5569728466334
20
8.85469977921173
30
0
41
1
10
48.0583232734439
20
8.91110413113103
30
0
41
1
10
47.0601949078398
20
9.00167375382506
30
0
41
1
10
46.5602641617258
20
9.0358540330854
30
0
41
1
10
45.5494166323998
20
9.08203712262315
30
0
41
1
10
45.0385914358495
20
9.09351600490604
30
0
41
1
10
44.5279237134644
20
9.09313412042141
30
0
0
SPLINE
5
C6
100
AcDbEntity
8
1
62
256
6
ByLayer
370
18
48
1
60
0
100
AcDbSpline
70
4
71
3
72
14
73
10
40
0
40
0
40
0
40
0
40
0.25
40
0.25
40
0.5
40
0.5
40
0.75
40
0.75
40
1
40
1
40
1
40
1
41
1
10
100.307516395009
20
8.87103503255364
30
0
41
1
10
100.488731111566
20
8.35206935271475
30
0
41
1
10
100.672362756605
20
7.83291704740381
30
0
41
1
10
101.043906499153
20
6.79447014486436
30
0
41
1
10
101.231790282391
20
6.2751742216183
30
0
41
1
10
101.611146218852
20
5.23652082165992
30
0
41
1
10
101.802419116621
20
4.71771275214289
30
0
41
1
10
102.186957677751
20
3.68263349654109
30
0
41
1
10
102.38032967627
20
3.1660127858745
30
0
41
1
10
102.574402324661
20
2.65026756816471
30
0
0
SPLINE
5
C7
100
AcDbEntity
8
1
62
256
6
ByLayer
370
18
48
1
60
0
100
AcDbSpline
70
4
71
3
72
14
73
10
40
0
40
0
40
0
40
0
40
0.25
40
0.25
40
0.5
40
0.5
40
0.75
40
0.75
40
1
40
1
40
1
40
1
41
1
10
99.6462099179932
20
2.02796809975445
30
0
41
1
10
99.6444523187562
20
2.05338430076094
30
0
41
1
10
99.649418449955
20
2.07921971449864
30
0
41
1
10
99.6742765213916
20
2.12419742121759
30
0
41
1
10
99.6941530724563
20
2.14303876391378
30
0
41
1
10
99.7390841763917
20
2.16968907939909
30
0
41
1
10
99.7644884436758
20
2.17826046351558
30
0
41
1
10
99.8155834895159
20
2.18826101489677
30
0
41
1
10
99.8418578501473
20
2.18987096425326
30
0
41
1
10
99.8680282618676
20
2.18897742940069
30
0
0
SPLINE
5
C8
100
AcDbEntity
8
1
62
256
6
ByLayer
370
18
48
1
60
0
100
AcDbSpline
70
4
71
3
72
20
73
16
40
0
40
0
40
0
40
0
40
0.112416742386831
40
0.112416742386831
40
0.265100349049815
40
0.265100349049815
40
0.570467562375784
40
0.570467562375784
40
0.723151169038768
40
0.723151169038768
40
0.79949297237026
40
0.79949297237026
40
0.875834775701752
40
0.875834775701752
40
1
40
1
40
1
40
1
41
1
10
19.8089045314142
20
-2.78995313419233
30
0
41
1
10
19.8089045314142
20
-2.98261896540782
30
0
41
1
10
19.8089045314142
20
-3.17833728879776
30
0
41
1
10
19.8089045314142
20
-3.64717506749031
30
0
41
1
10
19.8089045314142
20
-3.92338867514786
30
0
41
1
10
19.8089045314142
20
-4.76081011110495
30
0
41
1
10
19.8089045314142
20
-5.33320013224258
30
0
41
1
10
19.8089045314142
20
-6.21375356575984
30
0
41
1
10
19.8089045314142
20
-6.51095017013608
30
0
41
1
10
19.8089045314142
20
-6.96254778476461
30
0
41
1
10
19.8089045314142
20
-7.11432905587822
30
0
41
1
10
19.8089045314142
20
-7.41747406750869
30
0
41
1
10
19.8089045314142
20
-7.56904493675782
30
0
41
1
10
19.8089045314142
20
-7.96713215648606
30
0
41
1
10
19.8089045314142
20
-8.21364584549892
30
0
41
1
10
19.8089045314142
20
-8.4601551341355
30
0
0
SPLINE
5
C9
100
AcDbEntity
8
1
62
256
6
ByLayer
370
18
48
1
60
0
100
AcDbSpline
70
4
71
3
72
18
73
14
40
0
40
0
40
0
40
0
40
0.250000000000002
40
0.250000000000002
40
0.500000000000004
40
0.500000000000004
40
0.625000000000003
40
0.625000000000003
40
0.750000000000002
40
0.750000000000002
40
0.875000000000001
40
0.875000000000001
40
1
40
1
40
1
40
1
41
1
10
3.99999997647177
20
-5.49400868938153
30
0
41
1
10
3.99999997647177
20
-5.45348834281089
30
0
41
1
10
4.00346876956499
20
-5.41346996720722
30
0
41
1
10
4.02209310850751
20
-5.33514802452424
30
0
41
1
10
4.03730488428155
20
-5.296938713202
30
0
41
1
10
4.07540069937195
20
-5.25536653345199
30
0
41
1
10
4.09081943848634
20
-5.2445946576874
30
0
41
1
10
4.12411860206379
20
-5.23320714382803
30
0
41
1
10
4.14178521577924
20
-5.23253734677843
30
0
41
1
10
4.17556048798977
20
-5.2385369462431
30
0
41
1
10
4.1920588615553
20
-5.24511762760139
30
0
41
1
10
4.22281149679839
20
-5.26203208972308
30
0
41
1
10
4.23731401441887
20
-5.27242464728042
30
0
41
1
10
4.25122633810233
20
-5.28414210036976
30
0
0
SPLINE
5
CA
100
AcDbEntity
8
1
62
256
6
ByLayer
370
18
48
1
60
0
100
AcDbSpline
70
4
71
3
72
10
73
6
40
0
40
0
40
0
40
0
40
0.627109740675119
40
0.627109740675119
40
1
40
1
40
1
40
1
41
1
10
19.8089045314142
20
8.46015513415128
30
0
41
1
10
19.1151413948227
20
8.52290400767578
30
0
41
1
10
18.4285607711148
20
8.56892712712775
30
0
41
1
10
17.3410464872807
20
8.61173355854578
30
0
41
1
10
16.9371336924044
20
8.62073560326289
30
0
41
1
10
16.5343077889617
20
8.62184705545545
30
0
0
SPLINE
5
CB
100
AcDbEntity
8
1
62
256
6
ByLayer
370
18
48
1
60
0
100
AcDbSpline
70
4
71
3
72
12
73
8
40
0
40
0
40
0
40
0
40
0.249999999999989
40
0.249999999999989
40
0.499999999999977
40
0.499999999999977
40
1
40
1
40
1
40
1
41
1
10
4.13396119674618
20
6.26138412031577
30
0
41
1
10
4.11370053897997
20
6.26905502333415
30
0
41
1
10
4.0953349732101
20
6.27851259033963
30
0
41
1
10
4.06229322986064
20
6.30086142317322
30
0
41
1
10
4.04784652292108
20
6.31369793156978
30
0
41
1
10
4.01278037137925
20
6.35515998536027
30
0
41
1
10
3.99999997647163
20
6.38732320627616
30
0
41
1
10
3.99999997647163
20
6.41963275889037
30
0
0
SPLINE
5
CC
100
AcDbEntity
8
1
62
256
6
ByLayer
370
18
48
1
60
0
100
AcDbSpline
70
4
71
3
72
40
73
36
40
0
40
0
40
0
40
0
40
0.124999999999992
40
0.124999999999992
40
0.249999999999984
40
0.249999999999984
40
0.374999999999976
40
0.374999999999976
40
0.499999999999968
40
0.499999999999968
40
0.624999999999959
40
0.624999999999959
40
0.656249999999955
40
0.656249999999955
40
0.68749999999995
40
0.68749999999995
40
0.749999999999941
40
0.749999999999941
40
0.812499999999931
40
0.812499999999931
40
0.843749999999927
40
0.843749999999927
40
0.851562499999928
40
0.851562499999928
40
0.859374999999929
40
0.859374999999929
40
0.86718749999993
40
0.86718749999993
40
0.871093749999933
40
0.871093749999933
40
0.874999999999935
40
0.874999999999935
40
0.937499999999968
40
0.937499999999968
40
1
40
1
40
1
40
1
41
1
10
91.2441373330598
20
3.31680615337325
30
0
41
1
10
91.6079678763213
20
2.99349413258619
30
0
41
1
10
91.9818641044405
20
2.69149927035684
30
0
41
1
10
92.7495744515672
20
2.1296917564687
30
0
41
1
10
93.1435833791081
20
1.86972149322102
30
0
41
1
10
93.9520415153492
20
1.39537285848385
30
0
41
1
10
94.3588248625364
20
1.18657521737552
30
0
41
1
10
95.1774333610811
20
0.82499168680414
30
0
41
1
10
95.5892492873219
20
0.67210331122098
30
0
41
1
10
96.4183667878229
20
0.427269179815767
30
0
41
1
10
96.8356209741992
20
0.334796969914322
30
0
41
1
10
97.3614151457837
20
0.266160183314725
30
0
41
1
10
97.4668296477543
20
0.254905672426048
30
0
41
1
10
97.6763335956812
20
0.237461655923397
30
0
41
1
10
97.7806430727531
20
0.231256436488081
30
0
41
1
10
98.0922084588633
20
0.220393367501487
30
0
41
1
10
98.2981090784424
20
0.223443995496694
30
0
41
1
10
98.7059725622398
20
0.251942015937885
30
0
41
1
10
98.9083378413639
20
0.277466676522948
30
0
41
1
10
99.2070466733057
20
0.334316683975828
30
0
41
1
10
99.3057480982268
20
0.35634615554855
30
0
41
1
10
99.4278046918296
20
0.387865333555908
30
0
41
1
10
99.4521529191416
20
0.394369008453253
30
0
41
1
10
99.5007074218967
20
0.407776514101329
30
0
41
1
10
99.5250218885145
20
0.414373420386283
30
0
41
1
10
99.5730700997756
20
0.42923451046633
30
0
41
1
10
99.5956359196256
20
0.441549074275741
30
0
41
1
10
99.6218749983665
20
0.469767586276731
30
0
41
1
10
99.6293394725664
20
0.480816402840361
30
0
41
1
10
99.6399317746615
20
0.506986154516682
30
0
41
1
10
99.6427279508106
20
0.52139474706712
30
0
41
1
10
99.6647378119994
20
0.779856174364113
30
0
41
1
10
99.673907711072
20
1.02688312339413
30
0
41
1
10
99.6733486502405
20
1.52512149536793
30
0
41
1
10
99.6635796247436
20
1.77678913421806
30
0
41
1
10
99.6462099179936
20
2.0279680997545
30
0
0
SPLINE
5
CD
100
AcDbEntity
8
1
62
256
6
ByLayer
370
18
48
1
60
0
100
AcDbSpline
70
4
71
3
72
8
73
4
40
0
40
0
40
0
40
0
40
1
40
1
40
1
40
1
41
1
10
99.7350283820891
20
-4.61122511459237
30
0
41
1
10
99.2737373348892
20
-5.21809577203689
30
0
41
1
10
98.8073657976786
20
-5.81913161133906
30
0
41
1
10
98.3374065103415
20
-6.41604700763591
30
0
0
SPLINE
5
CE
100
AcDbEntity
8
1
62
256
6
ByLayer
370
18
48
1
60
0
100
AcDbSpline
70
4
71
3
72
68
73
64
40
0
40
0
40
0
40
0
40
0.0312500000000008
40
0.0312500000000008
40
0.0625000000000015
40
0.0625000000000015
40
0.0781250000000017
40
0.0781250000000017
40
0.0937500000000018
40
0.0937500000000018
40
0.125000000000002
40
0.125000000000002
40
0.140625000000002
40
0.140625000000002
40
0.156250000000002
40
0.156250000000002
40
0.171875000000002
40
0.171875000000002
40
0.179687500000002
40
0.179687500000002
40
0.187500000000002
40
0.187500000000002
40
0.203125000000002
40
0.203125000000002
40
0.210937500000002
40
0.210937500000002
40
0.218750000000002
40
0.218750000000002
40
0.250000000000002
40
0.250000000000002
40
0.265625000000002
40
0.265625000000002
40
0.281250000000002
40
0.281250000000002
40
0.312500000000003
40
0.312500000000003
40
0.320312500000002
40
0.324218750000002
40
0.324218750000002
40
0.328125000000002
40
0.328125000000002
40
0.332031250000002
40
0.332031250000002
40
0.335937500000002
40
0.335937500000002
40
0.339843750000002
40
0.339843750000002
40
0.343750000000002
40
0.375000000000001
40
0.375000000000001
40
0.437500000000001
40
0.437500000000001
40
0.500000000000001
40
0.500000000000001
40
0.625000000000001
40
0.625000000000001
40
0.750000000000001
40
0.750000000000001
40
0.8125
40
0.8125
40
0.875
40
0.875
40
1
40
1
40
1
40
1
41
1
10
3.9999999764832
20
-5.81412688009354
30
0
41
1
10
3.8148580320462
20
-5.67937467176654
30
0
41
1
10
3.63375783973152
20
-5.53647499464714
30
0
41
1
10
3.28782308235955
20
-5.23449584125751
30
0
41
1
10
3.12263834860238
20
-5.07528401920578
30
0
41
1
10
2.89031762216393
20
-4.82048922848361
30
0
41
1
10
2.81546997233735
20
-4.73287857562414
30
0
41
1
10
2.67188040745034
20
-4.55140757097061
30
0
41
1
10
2.60291809660839
20
-4.45721660088353
30
0
41
1
10
2.40867270756428
20
-4.16601064430679
30
0
41
1
10
2.29649373235713
20
-3.96164048970906
30
0
41
1
10
2.16315368131961
20
-3.63486312539027
30
0
41
1
10
2.12440651757143
20
-3.52196965464424
30
0
41
1
10
2.06162272710742
20
-3.29085079231959
30
0
41
1
10
2.03778739092462
20
-3.17364048431227
30
0
41
1
10
2.00640319920603
20
-2.93572542394145
30
0
41
1
10
1.9988524268106
20
-2.81502099193742
30
0
41
1
10
2.00079603083313
20
-2.6311667148706
30
0
41
1
10
2.00368853765599
20
-2.56916597210784
30
0
41
1
10
2.01390766809755
20
-2.44600554491726
30
0
41
1
10
2.02121811011941
20
-2.38473628125092
30
0
41
1
10
2.04958362846196
20
-2.20184774548258
30
0
41
1
10
2.07706802556294
20
-2.0811471597799
30
0
41
1
10
2.13057793386829
20
-1.9018904650803
30
0
41
1
10
2.15046305355455
20
-1.84243741007157
30
0
41
1
10
2.1942480192281
20
-1.72412407167781
30
0
41
1
10
2.2182323123904
20
-1.66509660839267
30
0
41
1
10
2.34617865829131
20
-1.37532783480415
30
0
41
1
10
2.47462719578442
20
-1.15794379319919
30
0
41
1
10
2.69677965759453
20
-0.848310122409487
30
0
41
1
10
2.77603434547743
20
-0.747624429938128
30
0
41
1
10
2.94237572822109
20
-0.552439220238995
30
0
41
1
10
3.0291518972011
20
-0.45825215243255
30
0
41
1
10
3.2988344663402
20
-0.184537989957448
30
0
41
1
10
3.49135891845117
20
-0.0135535460266851
30
0
41
1
10
3.74176293152516
20
0.186939667900504
30
0
41
1
10
3.81766197009335
20
0.246126178447014
30
0
41
1
10
3.89465897736028
20
0.303955740804554
30
0
41
1
10
3.9462274944398
20
0.342215682223042
30
0
41
1
10
3.97160064377991
20
0.362161302411408
30
0
41
1
10
4.02835851292815
20
0.390595282053994
30
0
41
1
10
4.05920208742026
20
0.401057517596456
30
0
41
1
10
4.12167195397947
20
0.415639428028356
30
0
41
1
10
4.15312133245567
20
0.419546073291684
30
0
41
1
10
4.21626782389208
20
0.423450257904079
30
0
41
1
10
4.24790844975817
20
0.424339097140205
30
0
41
1
10
4.31114001339193
20
0.426900823487358
30
0
41
1
10
4.59571144550287
20
0.437967688290115
30
0
41
1
10
4.88054348341541
20
0.444891373352391
30
0
41
1
10
5.63978641253419
20
0.453681740397116
30
0
41
1
10
6.14584669428973
20
0.446672811121033
30
0
41
1
10
7.15776940770931
20
0.407589912260477
30
0
41
1
10
7.6623323053675
20
0.37556839500607
30
0
41
1
10
9.16840293913174
20
0.24369937212424
30
0
41
1
10
10.1638160708361
20
0.107892457586928
30
0
41
1
10
12.138750484042
20
-0.25142761358137
30
0
41
1
10
13.1182109627659
20
-0.475274298348637
30
0
41
1
10
14.5767847519777
20
-0.869105476564528
30
0
41
1
10
15.0613050835469
20
-1.01007349184331
30
0
41
1
10
16.026738007002
20
-1.30935066410959
30
0
41
1
10
16.5061355264046
20
-1.46718557304851
30
0
41
1
10
17.9354350427822
20
-1.96158138330438
30
0
41
1
10
18.8764356393274
20
-2.31903006656631
30
0
41
1
10
19.8089045314142
20
-2.69335046306333
30
0
0
SPLINE
5
CF
100
AcDbEntity
8
1
62
256
6
ByLayer
370
18
48
1
60
0
100
AcDbSpline
70
4
71
3
72
12
73
8
40
0
40
0
40
0
40
0
40
0.5
40
0.5
40
0.75
40
0.75
40
1
40
1
40
1
40
1
41
1
10
102.467760922891
20
2.1098240384141
30
0
41
1
10
102.605827877702
20
1.83581097162187
30
0
41
1
10
102.717809590018
20
1.55773323901076
30
0
41
1
10
102.847277571921
20
1.13461676192787
30
0
41
1
10
102.884112919711
20
0.992236734468065
30
0
41
1
10
102.945067061461
20
0.707203857474184
30
0
41
1
10
102.969133682297
20
0.564993386401852
30
0
41
1
10
102.987384324503
20
0.423060508944928
30
0
0
SPLINE
5
D0
100
AcDbEntity
8
1
62
256
6
ByLayer
370
18
48
1
60
0
100
AcDbSpline
70
4
71
3
72
10
73
6
40
0
40
0
40
0
40
0
40
0.5
40
0.5
40
1
40
1
40
1
40
1
41
1
10
102.999725929231
20
0.0622115963127783
30
0
41
1
10
102.994462570959
20
0.0399258788447412
30
0
41
1
10
102.987369387825
20
0.0168078081454155
30
0
41
1
10
102.969994910442
20
-0.0268694049870248
30
0
41
1
10
102.959901797526
20
-0.0468554501081258
30
0
41
1
10
102.949560490624
20
-0.0631319376241777
30
0
0
SPLINE
5
D1
100
AcDbEntity
8
1
62
256
6
ByLayer
370
18
48
1
60
0
100
AcDbSpline
70
4
71
3
72
14
73
10
40
0
40
0
40
0
40
0
40
0.524244176707677
40
0.524244176707677
40
0.786366265061516
40
0.786366265061516
40
0.917427309238432
40
0.917427309238432
40
1
40
1
40
1
40
1
41
1
10
100.086519756475
20
-8.6589130230862
30
0
41
1
10
98.0815897148923
20
-8.71204616291161
30
0
41
1
10
96.0959210798365
20
-8.5894850362381
30
0
41
1
10
93.1121449672183
20
-8.15857155023187
30
0
41
1
10
92.1165344525773
20
-7.97365091998765
30
0
41
1
10
90.6174021128526
20
-7.63701266550299
30
0
41
1
10
90.1167234081123
20
-7.51489670796761
30
0
41
1
10
89.2983948604098
20
-7.3001240310569
30
0
41
1
10
88.9822790156684
20
-7.21346970827415
30
0
41
1
10
88.6664017950919
20
-7.1233267643355
30
0
0
SPLINE
5
D2
100
AcDbEntity
8
1
62
256
6
ByLayer
370
13
48
1
60
0
100
AcDbSpline
70
4
71
3
72
24
73
20
40
0
40
0
40
0
40
0
40
0.0263773745487705
40
0.0263773745487705
40
0.168970038803335
40
0.168970038803335
40
0.240266370930617
40
0.240266370930617
40
0.3115627030579
40
0.3115627030579
40
0.596748031567028
40
0.596748031567028
40
0.881933360076157
40
0.881933360076157
40
0.917581526139798
40
0.917581526139798
40
0.95322969220344
40
0.95322969220344
40
1
40
1
40
1
40
1
41
1
10
88.6664025196996
20
-7.1233269711193
30
0
41
1
10
88.4809127878297
20
-7.070393146193
30
0
41
1
10
88.295505340353
20
-7.01625634529003
30
0
41
1
10
87.108411661408
20
-6.66195510649783
30
0
41
1
10
86.1084340145338
20
-6.32871241550185
30
0
41
1
10
84.6069194468335
20
-5.78343237009412
30
0
41
1
10
84.1061603181637
20
-5.59407346760861
30
0
41
1
10
83.103328197514
20
-5.20135384618388
30
0
41
1
10
82.6005859141559
20
-4.99770062196558
30
0
41
1
10
80.0965424366335
20
-3.95353688791607
30
0
41
1
10
78.1158117805479
20
-3.031692390253
30
0
41
1
10
74.1524429477537
20
-1.10729957749561
30
0
41
1
10
72.1699938750876
20
-0.104286821200873
30
0
41
1
10
69.9128709481481
20
1.01767610085892
30
0
41
1
10
69.6615498220854
20
1.14231957207161
30
0
41
1
10
69.1601147245515
20
1.39016988663883
30
0
41
1
10
68.9097661508387
20
1.51349418206402
30
0
41
1
10
68.3316871319035
20
1.79698744355059
30
0
41
1
10
68.0041990316737
20
1.956685825634
30
0
41
1
10
67.6771815096324
20
2.1150500288301
30
0
0
SPLINE
5
D3
100
AcDbEntity
8
1
62
256
6
ByLayer
370
18
48
1
60
0
100
AcDbSpline
70
4
71
3
72
22
73
18
40
0
40
0
40
0
40
0
40
0.0216934758665917
40
0.0216934758665917
40
0.0654303590034155
40
0.0654303590034155
40
0.109167242140239
40
0.109167242140239
40
0.284114774687538
40
0.284114774687538
40
0.634009839782138
40
0.634009839782138
40
0.808957372329437
40
0.808957372329437
40
0.983904904876736
40
0.983904904876736
40
1
40
1
40
1
40
1
41
1
10
17.3719032841385
20
-0.0199652760960589
30
0
41
1
10
17.4964540233601
20
-0.0826785533302825
30
0
41
1
10
17.6210437421213
20
-0.145411243448535
30
0
41
1
10
17.9969589734565
20
-0.334642344676666
30
0
41
1
10
18.2485582037111
20
-0.46122865975758
30
0
41
1
10
18.750646233177
20
-0.713491533355977
30
0
41
1
10
19.0013047343928
20
-0.839253626970304
30
0
41
1
10
20.2528906747701
20
-1.46578594320721
30
0
41
1
10
21.2487897438283
20
-1.95956400200131
30
0
41
1
10
24.2293325458521
20
-3.40142884017843
30
0
41
1
10
26.2066661701335
20
-4.31023697164545
30
0
41
1
10
29.1934455218148
20
-5.52958546036143
30
0
41
1
10
30.1924012014962
20
-5.912238981922
30
0
41
1
10
32.2033785285287
20
-6.61867708338502
30
0
41
1
10
33.2029960675518
20
-6.93823602442541
30
0
41
1
10
34.290339981462
20
-7.2468510190883
30
0
41
1
10
34.3819174700567
20
-7.27253936588218
30
0
41
1
10
34.4734673895181
20
-7.29791385305339
30
0
0
SPLINE
5
D4
100
AcDbEntity
8
1
62
256
6
ByLayer
370
13
48
1
60
0
100
AcDbSpline
70
4
71
3
72
16
73
12
40
0
40
0
40
0
40
0
40
0.452616063816742
40
0.452616063816742
40
0.689836127579383
40
0.689836127579383
40
0.808446159460703
40
0.808446159460703
40
0.927056191342024
40
0.927056191342024
40
1
40
1
40
1
40
1
41
1
10
34.4734664259304
20
-7.29791358598004
30
0
41
1
10
36.3721421011808
20
-7.82416118867573
30
0
41
1
10
38.2589598466602
20
-8.21541273626198
30
0
41
1
10
41.1474019351065
20
-8.5816254762548
30
0
41
1
10
42.1429942287047
20
-8.6660814383844
30
0
41
1
10
43.6442838774375
20
-8.72769524225646
30
0
41
1
10
44.1467135215472
20
-8.73734774341941
30
0
41
1
10
45.1516145916365
20
-8.73451568754413
30
0
41
1
10
45.6534818083649
20
-8.72208860328817
30
0
41
1
10
46.4636518831833
20
-8.68434182779671
30
0
41
1
10
46.7720904192115
20
-8.66583226526296
30
0
41
1
10
47.0805411881978
20
-8.6432089142003
30
0
0
SPLINE
5
D5
100
AcDbEntity
8
1
62
256
6
ByLayer
370
18
48
1
60
0
100
AcDbSpline
70
4
71
3
72
108
73
104
40
0
40
0
40
0
40
0
40
0.0110551879027699
40
0.0110551879027699
40
0.0287149166902203
40
0.0287149166902203
40
0.0463746454776707
40
0.0463746454776707
40
0.0640343742651212
40
0.0640343742651212
40
0.0816941030525716
40
0.0816941030525716
40
0.0993538318400221
40
0.0993538318400221
40
0.117013560627472
40
0.117013560627472
40
0.134673289414923
40
0.134673289414923
40
0.152333018202373
40
0.152333018202373
40
0.187652475777275
40
0.187652475777275
40
0.222971933352176
40
0.222971933352176
40
0.240631662139627
40
0.240631662139627
40
0.258291390927077
40
0.258291390927077
40
0.275951119714528
40
0.275951119714528
40
0.293610848501979
40
0.293610848501979
40
0.32893030607688
40
0.32893030607688
40
0.346590034864331
40
0.346590034864331
40
0.364249763651782
40
0.364249763651782
40
0.381909492439232
40
0.381909492439232
40
0.399569221226683
40
0.399569221226683
40
0.417228950014134
40
0.417228950014134
40
0.434888678801584
40
0.434888678801584
40
0.452548407589035
40
0.452548407589035
40
0.470208136376486
40
0.470208136376486
40
0.487867865163936
40
0.487867865163936
40
0.505527593951387
40
0.505527593951387
40
0.523187322738838
40
0.523187322738838
40
0.540847051526289
40
0.540847051526289
40
0.558506780313739
40
0.558506780313739
40
0.57616650910119
40
0.57616650910119
40
0.593826237888641
40
0.593826237888641
40
0.611485966676091
40
0.611485966676091
40
0.646805424250992
40
0.646805424250992
40
0.664465153038443
40
0.664465153038443
40
0.682124881825893
40
0.682124881825893
40
0.699784610613344
40
0.699784610613344
40
0.717444339400794
40
0.717444339400794
40
0.735104068188244
40
0.735104068188244
40
0.752763796975695
40
0.752763796975695
40
0.770423525763145
40
0.770423525763145
40
0.788083254550596
40
0.788083254550596
40
0.805742983338046
40
0.805742983338046
40
0.823402712125497
40
0.823402712125497
40
0.841062440912947
40
0.841062440912947
40
0.858722169700397
40
0.858722169700397
40
0.876381898487848
40
0.876381898487848
40
0.894041627275298
40
0.894041627275298
40
0.911701356062749
40
0.911701356062749
40
0.929361084850199
40
0.929361084850199
40
0.964680542425099
40
0.964680542425099
40
1
40
1
40
1
40
1
41
1
10
83.0208990791146
20
-6.60501845630767
30
0
41
1
10
82.7884612785617
20
-6.68056827745497
30
0
41
1
10
82.5559904246026
20
-6.75439653313381
30
0
41
1
10
81.9516371120363
20
-6.9409721339122
30
0
41
1
10
81.5795785275153
20
-7.05081242278445
30
0
41
1
10
80.8345894799528
20
-7.26023980225764
30
0
41
1
10
80.4616255459256
20
-7.35971837058526
30
0
41
1
10
79.7172683998277
20
-7.5469424659893
30
0
41
1
10
79.3456959129596
20
-7.63564399056176
30
0
41
1
10
78.6024622763204
20
-7.80320645763192
30
0
41
1
10
78.230891135863
20
-7.88196159771141
30
0
41
1
10
77.4877531163057
20
-8.02810943138357
30
0
41
1
10
77.1161601144869
20
-8.09530916883062
30
0
41
1
10
76.3730309625211
20
-8.21907293521497
30
0
41
1
10
76.0016700684821
20
-8.27578751704269
30
0
41
1
10
75.2581228576699
20
-8.37762195617447
30
0
41
1
10
74.8859056477741
20
-8.42266169085121
30
0
41
1
10
74.1403482217293
20
-8.49997926180623
30
0
41
1
10
73.7676058933388
20
-8.53237426948465
30
0
41
1
10
72.6510763711946
20
-8.61309573691346
30
0
41
1
10
71.9087835029229
20
-8.64480231006212
30
0
41
1
10
70.4222665341797
20
-8.65653410503452
30
0
41
1
10
69.6788231137402
20
-8.64001276912578
30
0
41
1
10
68.5631023466962
20
-8.57822000597966
30
0
41
1
10
68.1904439392814
20
-8.55107855143237
30
0
41
1
10
67.4448544187563
20
-8.48549615569371
30
0
41
1
10
67.0723786705219
20
-8.44718488173544
30
0
41
1
10
66.3280761964457
20
-8.35920607237273
30
0
41
1
10
65.9562418342232
20
-8.30947723375289
30
0
41
1
10
65.2132674751595
20
-8.19757201910815
30
0
41
1
10
64.8418493561173
20
-8.1356863046305
30
0
41
1
10
63.7269414483792
20
-7.93489056035494
30
0
41
1
10
62.983126522229
20
-7.77998786798597
30
0
41
1
10
61.8661557491242
20
-7.51229696421859
30
0
41
1
10
61.4934453144398
20
-7.41793988748429
30
0
41
1
10
60.7484019823554
20
-7.21999667302376
30
0
41
1
10
60.3761343269177
20
-7.11613677694524
30
0
41
1
10
59.6320377664492
20
-6.89844327924823
30
0
41
1
10
59.2601799841661
20
-6.78435733453605
30
0
41
1
10
58.5170113697817
20
-6.54754270811736
30
0
41
1
10
58.1458247231485
20
-6.42464797802216
30
0
41
1
10
57.4027174108714
20
-6.17034211669136
30
0
41
1
10
57.0309180234604
20
-6.03889369301396
30
0
41
1
10
56.2867191916143
20
-5.7673362953405
30
0
41
1
10
55.9143338042967
20
-5.62739218223953
30
0
41
1
10
55.169286763568
20
-5.34000238846497
30
0
41
1
10
54.7966323674968
20
-5.19192671695859
30
0
41
1
10
54.0521761867194
20
-4.88959380727778
30
0
41
1
10
53.6801016211467
20
-4.73496673907002
30
0
41
1
10
52.9362380162199
20
-4.42017278038969
30
0
41
1
10
52.564470357178
20
-4.26002936194749
30
0
41
1
10
51.8212784609527
20
-3.93373456955047
30
0
41
1
10
51.4500089388616
20
-3.7673132275709
30
0
41
1
10
50.706983547644
20
-3.42927435249484
30
0
41
1
10
50.3351024215794
20
-3.25790664734365
30
0
41
1
10
49.5908294234212
20
-2.91139848974035
30
0
41
1
10
49.2183927062767
20
-2.73608288561505
30
0
41
1
10
48.4728551663647
20
-2.38113434210192
30
0
41
1
10
48.1002581271761
20
-2.20151226624168
30
0
41
1
10
47.3562780244727
20
-1.83953617037267
30
0
41
1
10
46.9844019918903
20
-1.65770892909128
30
0
41
1
10
46.2408102336258
20
-1.2925756775376
30
0
41
1
10
45.8691168409726
20
-1.10922432279182
30
0
41
1
10
45.1257568916233
20
-0.741057718835606
30
0
41
1
10
44.754058529004
20
-0.5562998823832
30
0
41
1
10
43.6394833469923
20
0.0006324171465621
30
0
41
1
10
42.8950542124427
20
0.372335941354777
30
0
41
1
10
41.7762289977771
20
0.926851276850016
30
0
41
1
10
41.403726643833
20
1.11103524309911
30
0
41
1
10
40.6597381826377
20
1.47855222497603
30
0
41
1
10
40.288137214706
20
1.66159402565626
30
0
41
1
10
39.5446468443624
20
2.02382673986446
30
0
41
1
10
39.1728432878574
20
2.20303240727617
30
0
41
1
10
38.4291667313175
20
2.55825825316458
30
0
41
1
10
38.0573463343577
20
2.73452032751283
30
0
41
1
10
37.313754103146
20
3.08406283123975
30
0
41
1
10
36.9420471087713
20
3.2574744707843
30
0
41
1
10
36.1972256009161
20
3.59813618831723
30
0
41
1
10
35.8239355750379
20
3.76562535841998
30
0
41
1
10
35.0782345138542
20
4.09565588091542
30
0
41
1
10
34.7057596971891
20
4.25804740645074
30
0
41
1
10
33.961609577971
20
4.57699185717357
30
0
41
1
10
33.5900726949324
20
4.73373161332171
30
0
41
1
10
32.8465836687915
20
5.03864775357462
30
0
41
1
10
32.4747377832651
20
5.18741817464505
30
0
41
1
10
31.730920977313
20
5.47835130722231
30
0
41
1
10
31.3589368013914
20
5.62035051086733
30
0
41
1
10
30.6147527464405
20
5.89666887341477
30
0
41
1
10
30.2426367860659
20
6.03073538962602
30
0
41
1
10
29.4973150283349
20
6.29002038625364
30
0
41
1
10
29.1240936595918
20
6.4158353577831
30
0
41
1
10
28.3784854233472
20
6.65828937636749
30
0
41
1
10
28.0058794377803
20
6.77500091382632
30
0
41
1
10
27.2609761817394
20
6.99808372702063
30
0
41
1
10
26.888770814814
20
7.10436983434479
30
0
41
1
10
26.1443114330091
20
7.30808170188024
30
0
41
1
10
25.7718525091951
20
7.40506988709893
30
0
41
1
10
25.0262814454469
20
7.58826835862408
30
0
41
1
10
24.6529423913877
20
7.67444779647408
30
0
41
1
10
23.5339939824137
20
7.91710008838245
30
0
41
1
10
22.789997143444
20
8.05882966803279
30
0
41
1
10
21.3004453478307
20
8.29372371953005
30
0
41
1
10
20.5549564747447
20
8.38820935946916
30
0
41
1
10
19.8089045314141
20
8.46015513415128
30
0
0
SPLINE
5
D6
100
AcDbEntity
8
1
62
256
6
ByLayer
370
18
48
1
60
0
100
AcDbSpline
70
4
71
3
72
106
73
102
40
0
40
0
40
0
40
0
40
0.0187605921814145
40
0.0187605921814145
40
0.0373721666510935
40
0.0373721666510935
40
0.0559837411207725
40
0.0559837411207725
40
0.0745953155904515
40
0.0745953155904515
40
0.0932068900601305
40
0.0932068900601305
40
0.130430038999489
40
0.130430038999489
40
0.149041613469168
40
0.149041613469168
40
0.167653187938847
40
0.167653187938847
40
0.186264762408526
40
0.186264762408526
40
0.204876336878205
40
0.204876336878205
40
0.223487911347884
40
0.223487911347884
40
0.242099485817563
40
0.242099485817563
40
0.279322634756921
40
0.279322634756921
40
0.2979342092266
40
0.2979342092266
40
0.316545783696279
40
0.316545783696279
40
0.335157358165957
40
0.335157358165957
40
0.353768932635636
40
0.353768932635636
40
0.390992081574994
40
0.390992081574994
40
0.409603656044673
40
0.409603656044673
40
0.428215230514352
40
0.428215230514352
40
0.44682680498403
40
0.44682680498403
40
0.465438379453709
40
0.465438379453709
40
0.484049953923388
40
0.484049953923388
40
0.502661528393067
40
0.502661528393067
40
0.521273102862745
40
0.521273102862745
40
0.539884677332424
40
0.539884677332424
40
0.558496251802103
40
0.558496251802103
40
0.577107826271782
40
0.577107826271782
40
0.59571940074146
40
0.59571940074146
40
0.614330975211139
40
0.614330975211139
40
0.651554124150496
40
0.651554124150496
40
0.670165698620175
40
0.670165698620175
40
0.688777273089853
40
0.688777273089853
40
0.707388847559532
40
0.707388847559532
40
0.726000422029211
40
0.726000422029211
40
0.74461199649889
40
0.74461199649889
40
0.763223570968568
40
0.763223570968568
40
0.781835145438247
40
0.781835145438247
40
0.800446719907926
40
0.800446719907926
40
0.819058294377604
40
0.819058294377604
40
0.837669868847283
40
0.837669868847283
40
0.856281443316962
40
0.856281443316962
40
0.874893017786641
40
0.874893017786641
40
0.893504592256319
40
0.893504592256319
40
0.912116166725998
40
0.912116166725998
40
0.930727741195677
40
0.930727741195677
40
0.949339315665355
40
0.949339315665355
40
0.967950890135034
40
0.967950890135034
40
0.986562464604713
40
0.986562464604713
40
1
40
1
40
1
40
1
41
1
10
28.6088266289094
20
6.57593400198846
30
0
41
1
10
29.0315238905676
20
6.72857706667099
30
0
41
1
10
29.4541600644939
20
6.8752710181401
30
0
41
1
10
30.2954777826477
20
7.1563090415184
30
0
41
1
10
30.7138747302843
20
7.29097903618305
30
0
41
1
10
31.5529421941108
20
7.54569319361937
30
0
41
1
10
31.97353983731
20
7.66622974527974
30
0
41
1
10
32.8146574522405
20
7.89389467390916
30
0
41
1
10
33.2346304485615
20
8.00079463818963
30
0
41
1
10
34.0727748805107
20
8.20117166360467
30
0
41
1
10
34.4912224941917
20
8.29433995601445
30
0
41
1
10
35.748475527173
20
8.55004157845426
30
0
41
1
10
36.5875110260198
20
8.690500585329
30
0
41
1
10
37.8447722970394
20
8.85682352827874
30
0
41
1
10
38.2649152342054
20
8.90436349993331
30
0
41
1
10
39.1056687643733
20
8.98337699818401
30
0
41
1
10
39.5256937623387
20
9.01491970110231
30
0
41
1
10
40.364657207976
20
9.06225555955635
30
0
41
1
10
40.7833084864
20
9.07806651275004
30
0
41
1
10
41.6203097159659
20
9.09357675367858
30
0
41
1
10
42.039316144452
20
9.09327433179055
30
0
41
1
10
42.8779592040972
20
9.07683679627084
30
0
41
1
10
43.2975372135142
20
9.06069576516421
30
0
41
1
10
44.1368989236717
20
9.0123640719884
30
0
41
1
10
44.5565850817606
20
8.97995346368646
30
0
41
1
10
45.816044170733
20
8.85933075774398
30
0
41
1
10
46.6555838270983
20
8.7484569978557
30
0
41
1
10
47.911953767706
20
8.53559819183738
30
0
41
1
10
48.3299758482341
20
8.45656895732117
30
0
41
1
10
49.1679294498028
20
8.28472054742613
30
0
41
1
10
49.5875323492464
20
8.19174317332624
30
0
41
1
10
50.4273837586822
20
7.99125086816773
30
0
41
1
10
50.8480986823796
20
7.88368763924183
30
0
41
1
10
51.6873291996838
20
7.65387830135961
30
0
41
1
10
52.1061492632565
20
7.53189271585995
30
0
41
1
10
53.3639239544784
20
7.14892982527036
30
0
41
1
10
54.2025318257985
20
6.86948559827343
30
0
41
1
10
55.4580144422047
20
6.410396652001
30
0
41
1
10
55.8770682347202
20
6.25192981922774
30
0
41
1
10
56.7168234626214
20
5.92502867660838
30
0
41
1
10
57.1377048674547
20
5.7561748517827
30
0
41
1
10
57.9776936650563
20
5.40842638826194
30
0
41
1
10
58.3966607629972
20
5.22900856701432
30
0
41
1
10
59.233953669291
20
4.86120991711505
30
0
41
1
10
59.6529150995565
20
4.67386422846539
30
0
41
1
10
60.4910860909884
20
4.29181651905506
30
0
41
1
10
60.9102382575648
20
4.09701807857977
30
0
41
1
10
61.7483645475028
20
3.69928432076927
30
0
41
1
10
62.1668596838916
20
3.49548109081701
30
0
41
1
10
63.0057718518506
20
3.08330259307516
30
0
41
1
10
63.4265277215816
20
2.87484589594464
30
0
41
1
10
64.2665696259279
20
2.45400691570077
30
0
41
1
10
64.6861369068173
20
2.24151611589582
30
0
41
1
10
65.5239359224674
20
1.81158214026976
30
0
41
1
10
65.9418859768975
20
1.59359890039485
30
0
41
1
10
66.7793215636377
20
1.1580612053539
30
0
41
1
10
67.1984753054894
20
0.939894031286144
30
0
41
1
10
68.0370480845987
20
0.501626630120342
30
0
41
1
10
68.4565395500958
20
0.281664985920827
30
0
41
1
10
69.295312831673
20
-0.161158264285689
30
0
41
1
10
69.715131340821
20
-0.383543947407247
30
0
41
1
10
70.9742901215367
20
-1.0437819445203
30
0
41
1
10
71.8130699787849
20
-1.47872914648164
30
0
41
1
10
73.0677013362714
20
-2.12806762960017
30
0
41
1
10
73.4862904481944
20
-2.34217326411525
30
0
41
1
10
74.3247309666176
20
-2.76482183395291
30
0
41
1
10
74.7443933714122
20
-2.97371691245863
30
0
41
1
10
75.584223816459
20
-3.38731771103971
30
0
41
1
10
76.0041900755115
20
-3.59258691786627
30
0
41
1
10
76.8423405981542
20
-3.99579927526094
30
0
41
1
10
77.2615434554519
20
-4.19285026878399
30
0
41
1
10
78.0998288438115
20
-4.57868225653888
30
0
41
1
10
78.5188544644158
20
-4.76755753380809
30
0
41
1
10
79.3563583638814
20
-5.13769891606876
30
0
41
1
10
79.7743570061994
20
-5.31969240361525
30
0
41
1
10
80.6119037461162
20
-5.67265460738034
30
0
41
1
10
81.031472846401
20
-5.84363579808874
30
0
41
1
10
81.8716481018743
20
-6.17549342676702
30
0
41
1
10
82.2921871516539
20
-6.33630858134197
30
0
41
1
10
83.130778514799
20
-6.64708202858949
30
0
41
1
10
83.5489365555123
20
-6.79750530406679
30
0
41
1
10
84.3864217425789
20
-7.08403981037918
30
0
41
1
10
84.8054168047368
20
-7.2206370655453
30
0
41
1
10
85.6433074578336
20
-7.48132650129446
30
0
41
1
10
86.0622753665963
20
-7.60533767303161
30
0
41
1
10
86.8996298835606
20
-7.84112862285446
30
0
41
1
10
87.3183216899939
20
-7.95254006948991
30
0
41
1
10
88.1581861484771
20
-8.16010062502036
30
0
41
1
10
88.5786604966769
20
-8.25657964235313
30
0
41
1
10
89.4176793778167
20
-8.43488992099276
30
0
41
1
10
89.8365934102335
20
-8.51680032589582
30
0
41
1
10
90.672846688539
20
-8.66616198380632
30
0
41
1
10
91.0911411143206
20
-8.73298049269232
30
0
41
1
10
91.9285869765748
20
-8.85089988204089
30
0
41
1
10
92.3475483124098
20
-8.90211729208707
30
0
41
1
10
93.1855640437137
20
-8.98917814792972
30
0
41
1
10
93.6043301156813
20
-9.02509082281534
30
0
41
1
10
94.4427735387806
20
-9.08091227681732
30
0
41
1
10
94.8631077080217
20
-9.10068572394522
30
0
41
1
10
95.585635281434
20
-9.12093164997435
30
0
41
1
10
95.8883739104933
20
-9.1252607953729
30
0
41
1
10
96.1908516170214
20
-9.12542913217047
30
0
0
SPLINE
5
D7
100
AcDbEntity
8
1
62
256
6
ByLayer
370
18
48
1
60
0
100
AcDbSpline
70
4
71
3
72
10
73
6
40
0
40
0
40
0
40
0
40
0.5
40
0.5
40
1
40
1
40
1
40
1
41
1
10
102.983837530187
20
0.216595529814128
30
0
41
1
10
102.983071275776
20
0.195360108415258
30
0
41
1
10
102.984337963973
20
0.171227024375355
30
0
41
1
10
102.989923228997
20
0.118668356980635
30
0
41
1
10
102.994211345478
20
0.0908525862693352
30
0
41
1
10
102.99972592923
20
0.0622115963129488
30
0
0
SPLINE
5
D8
100
AcDbEntity
8
1
62
256
6
ByLayer
370
18
48
1
60
0
100
AcDbSpline
70
4
71
3
72
8
73
4
40
0
40
0
40
0
40
0
40
1
40
1
40
1
40
1
41
1
10
99.9369503559949
20
9.11241269536512
30
0
41
1
10
99.6016165841973
20
9.1224607187427
30
0
41
1
10
99.2661614041523
20
9.12735373656335
30
0
41
1
10
98.9307111841334
20
9.12711350366254
30
0
0
SPLINE
5
D9
100
AcDbEntity
8
1
62
256
6
ByLayer
370
18
48
1
60
0
100
AcDbSpline
70
4
71
3
72
50
73
46
40
0
40
0
40
0
40
0
40
0.019094871539394
40
0.019094871539394
40
0.0517917091547481
40
0.0517917091547481
40
0.084488546770102
40
0.084488546770102
40
0.14988222200081
40
0.14988222200081
40
0.215275897231518
40
0.215275897231518
40
0.280669572462225
40
0.280669572462225
40
0.313366410077579
40
0.313366410077579
40
0.346063247692932
40
0.346063247692932
40
0.41145692292364
40
0.41145692292364
40
0.476850598154346
40
0.476850598154346
40
0.5095474357697
40
0.5095474357697
40
0.542244273385054
40
0.542244273385054
40
0.607637948615761
40
0.607637948615761
40
0.640334786231115
40
0.640334786231115
40
0.673031623846469
40
0.673031623846469
40
0.738425299077176
40
0.738425299077176
40
0.77112213669253
40
0.77112213669253
40
0.803818974307883
40
0.803818974307883
40
0.869212649538588
40
0.869212649538588
40
0.901909487153941
40
0.901909487153941
40
0.934606324769294
40
0.934606324769294
40
1
40
1
40
1
40
1
41
1
10
49.928986611019
20
-8.65824461563346
30
0
41
1
10
49.6377638640411
20
-8.70498798689087
30
0
41
1
10
49.3466005021167
20
-8.74804807310005
30
0
41
1
10
48.5567872165956
20
-8.85472233919688
30
0
41
1
10
48.0580785107295
20
-8.91113154533889
30
0
41
1
10
47.0597411861277
20
-9.00170971606991
30
0
41
1
10
46.559697950212
20
-9.03588666055308
30
0
41
1
10
45.0617604349022
20
-9.10430338532191
30
0
41
1
10
44.0652111042164
20
-9.10460084542297
30
0
41
1
10
42.0697956362206
20
-9.01485326446326
30
0
41
1
10
41.069467551702
20
-8.92449389314484
30
0
41
1
10
39.0738273089765
20
-8.65640384979395
30
0
41
1
10
38.0771998531012
20
-8.478753129647
30
0
41
1
10
36.5792495568762
20
-8.14984569059334
30
0
41
1
10
36.0790699001819
20
-8.029727266816
30
0
41
1
10
35.0804451574543
20
-7.77015441903023
30
0
41
1
10
34.5816383945896
20
-7.63063279295045
30
0
41
1
10
33.085400528775
20
-7.18432475270802
30
0
41
1
10
32.0880270007574
20
-6.8495478565064
30
0
41
1
10
30.0884246348049
20
-6.11369905253326
30
0
41
1
10
29.0913943653698
20
-5.71430092036661
30
0
41
1
10
27.5949349363976
20
-5.07565943671241
30
0
41
1
10
27.0959830350087
20
-4.85616222470375
30
0
41
1
10
26.0970654649148
20
-4.40507913602357
30
0
41
1
10
25.5968879629683
20
-4.17341554935692
30
0
41
1
10
24.0989488342852
20
-3.46511984396179
30
0
41
1
10
23.102129088022
20
-2.97424012314809
30
0
41
1
10
21.6047946954985
20
-2.21856104061581
30
0
41
1
10
21.105039775529
20
-1.96331023178283
30
0
41
1
10
20.1053346670884
20
-1.44840200718767
30
0
41
1
10
19.606132205708
20
-1.18915019133013
30
0
41
1
10
18.1091825709669
20
-0.408471487963311
30
0
41
1
10
17.1121546349204
20
0.115996287272822
30
0
41
1
10
15.6131947657185
20
0.899486351750454
30
0
41
1
10
15.1129808316823
20
1.16013549605623
30
0
41
1
10
14.1145456464685
20
1.67686994979425
30
0
41
1
10
13.6158254918273
20
1.93319026754557
30
0
41
1
10
12.1198807666665
20
2.69364457562807
30
0
41
1
10
11.1230635629339
20
3.18962020538117
30
0
41
1
10
9.6234086789874
20
3.90762042486117
30
0
41
1
10
9.12347129825127
20
4.1423651164171
30
0
41
1
10
8.12532614956518
20
4.60024276540295
30
0
41
1
10
7.62670212312776
20
4.82351077819465
30
0
41
1
10
6.13092585647635
20
5.47431643134573
30
0
41
1
10
5.13383752796591
20
5.88282018346575
30
0
41
1
10
4.13396119674553
20
6.26138412031602
30
0
0
SPLINE
5
DA
100
AcDbEntity
8
1
62
256
6
ByLayer
370
18
48
1
60
0
100
AcDbSpline
70
4
71
3
72
8
73
4
40
0
40
0
40
0
40
0
40
1
40
1
40
1
40
1
41
1
10
3.99999997647177
20
-5.81412688009331
30
0
41
1
10
3.99999997647177
20
-5.70761746996894
30
0
41
1
10
3.99999997647177
20
-5.60091206852394
30
0
41
1
10
3.99999997647177
20
-5.49400868938153
30
0
0
SPLINE
5
DB
100
AcDbEntity
8
1
62
256
6
ByLayer
370
18
48
1
60
0
100
AcDbSpline
70
4
71
3
72
12
73
8
40
0
40
0
40
0
40
0
40
0.25
40
0.25
40
0.5
40
0.5
40
1
40
1
40
1
40
1
41
1
10
99.8680282618676
20
2.18897742940033
30
0
41
1
10
100.08475117415
20
2.18157787155082
30
0
41
1
10
100.301465492682
20
2.17426624339359
30
0
41
1
10
100.734827800384
20
2.16032165708165
30
0
41
1
10
100.951453753973
20
2.15391416300489
30
0
41
1
10
101.601317670209
20
2.13483435867045
30
0
41
1
10
102.034571659664
20
2.12199806503543
30
0
41
1
10
102.467760922891
20
2.1098240384141
30
0
0
SPLINE
5
DC
100
AcDbEntity
8
1
62
256
6
ByLayer
370
18
48
1
60
0
100
AcDbSpline
70
4
71
3
72
8
73
4
40
0
40
0
40
0
40
0
40
1
40
1
40
1
40
1
41
1
10
102.987384324503
20
-0.423060508944985
30
0
41
1
10
102.987472495716
20
-0.354218379198983
30
0
41
1
10
102.986320120245
20
-0.285396237894076
30
0
41
1
10
102.983837530187
20
-0.216595529813958
30
0
0
SPLINE
5
DD
100
AcDbEntity
8
1
62
256
6
ByLayer
370
13
48
1
60
0
100
AcDbSpline
70
4
71
3
72
23
73
19
40
0
40
0
40
0
40
0
40
0.0903036632625067
40
0.0903036632625067
40
0.230417962881275
40
0.370532262500044
40
0.370532262500044
40
0.440589412309429
40
0.440589412309429
40
0.510646562118813
40
0.510646562118813
40
0.650760861737583
40
0.650760861737583
40
0.720818011546968
40
0.720818011546968
40
0.790875161356352
40
0.790875161356352
40
1
40
1
40
1
40
1
41
1
10
4.25029772034316
20
6.21753478958232
30
0
41
1
10
4.25032025551101
20
6.35554873457517
30
0
41
1
10
4.25034214236388
20
6.48834044044207
30
0
41
1
10
4.25039619274571
20
6.81181645856611
30
0
41
1
10
4.25045877009845
20
7.17770148154329
30
0
41
1
10
4.25051636318167
20
7.48956081449631
30
0
41
1
10
4.25055813642919
20
7.70287783403867
30
0
41
1
10
4.25057182347732
20
7.77054674384385
30
0
41
1
10
4.25059879342462
20
7.89886640283831
30
0
41
1
10
4.25061205659216
20
7.95940928353613
30
0
41
1
10
4.2506510007708
20
8.1288363583796
30
0
41
1
10
4.2506759547631
20
8.22610805304899
30
0
41
1
10
4.25071231456954
20
8.34840980153416
30
0
41
1
10
4.25072425389212
20
8.38520938137933
30
0
41
1
10
4.25074762866001
20
8.45030841051059
30
0
41
1
10
4.25075909212896
20
8.47870717444894
30
0
41
1
10
4.25080402015342
20
8.57561737160947
30
0
41
1
10
4.25083603663654
20
8.61223640599036
30
0
41
1
10
4.25086701228028
20
8.61240961450693
30
0
0
SPLINE
5
DE
100
AcDbEntity
8
1
62
256
6
ByLayer
370
18
48
1
60
0
100
AcDbSpline
70
4
71
3
72
12
73
8
40
0
40
0
40
0
40
0
40
0.250000000000001
40
0.250000000000001
40
0.500000000000003
40
0.500000000000003
40
1
40
1
40
1
40
1
41
1
10
100.307516395001
20
-8.87103503257379
30
0
41
1
10
100.489845786815
20
-8.34887712744089
30
0
41
1
10
100.674146047345
20
-7.82788920661511
30
0
41
1
10
101.046270559929
20
-6.78790682655531
30
0
41
1
10
101.234070257457
20
-6.26889976886056
30
0
41
1
10
101.801891352262
20
-4.71433680733588
30
0
41
1
10
102.186441230567
20
-3.68126848764246
30
0
41
1
10
102.574402324661
20
-2.65026756816485
30
0
0
SPLINE
5
DF
100
AcDbEntity
8
1
62
256
6
ByLayer
370
18
48
1
60
0
100
AcDbSpline
70
4
71
3
72
8
73
4
40
0
40
0
40
0
40
0
40
1
40
1
40
1
40
1
41
1
10
102.99972592923
20
-0.0622115963127214
30
0
41
1
10
103.000091122507
20
-0.020759531621394
30
0
41
1
10
103.00009156795
20
0.0207089706399302
30
0
41
1
10
102.99972592923
20
0.0622115963125509
30
0
0
LINE
5
76
100
AcDbEntity
8
81
62
256
6
ByLayer
370
18
48
1
60
0
100
AcDbLine
10
103
20
0
30
0
11
108
21
0
31
0
39
0
210
0
220
0
230
1
0
LINE
5
77
100
AcDbEntity
8
1
62
256
6
ByLayer
370
18
48
1
60
0
100
AcDbLine
10
4
20
9.067808
30
0
11
0.350219
21
9.065527
31
0
39
0
210
0
220
0
230
1
0
LINE
5
79
100
AcDbEntity
8
1
62
256
6
ByLayer
370
18
48
1
60
0
100
AcDbLine
10
44.531429
20
9.09314
30
0
11
41.788841
21
9.091426
31
0
39
0
210
0
220
0
230
1
0
LINE
5
7A
100
AcDbEntity
8
1
62
256
6
ByLayer
370
18
48
1
60
0
100
AcDbLine
10
98.932646
20
9.127141
30
0
11
96.186341
21
9.125424
31
0
39
0
210
0
220
0
230
1
0
LINE
5
7B
100
AcDbEntity
8
1
62
256
6
ByLayer
370
18
48
1
60
0
100
AcDbLine
10
96.186341
20
-9.125424
30
0
11
98.932596
21
-9.127141
31
0
39
0
210
0
220
0
230
1
0
LINE
5
7C
100
AcDbEntity
8
1
62
256
6
ByLayer
370
18
48
1
60
0
100
AcDbLine
10
41.788841
20
-9.091426
30
0
11
44.531472
21
-9.09314
31
0
39
0
210
0
220
0
230
1
0
LINE
5
7D
100
AcDbEntity
8
1
62
256
6
ByLayer
370
18
48
1
60
0
100
AcDbLine
10
0.350219
20
-9.065527
30
0
11
4
21
-9.067808
31
0
39
0
210
0
220
0
230
1
0
LINE
5
7E
100
AcDbEntity
8
SK1
62
256
6
ByLayer
370
18
48
1
60
0
100
AcDbLine
10
-46.824574
20
10
30
0
11
-47.5
21
8.830127
31
0
39
0
210
0
220
0
230
1
0
LINE
5
80
100
AcDbEntity
8
SK1
62
256
6
ByLayer
370
18
48
1
60
0
100
AcDbLine
10
-47.5
20
-8.830127
30
0
11
-46.824574
21
-10
31
0
39
0
210
0
220
0
230
1
0
LINE
5
81
100
AcDbEntity
8
SK1
62
256
6
ByLayer
370
18
48
1
60
0
100
AcDbLine
10
0
20
10
30
0
11
-46.824574
21
10
31
0
39
0
210
0
220
0
230
1
0
LINE
5
82
100
AcDbEntity
8
SK1
62
256
6
ByLayer
370
18
48
1
60
0
100
AcDbLine
10
-46.824574
20
-10
30
0
11
0
21
-10
31
0
39
0
210
0
220
0
230
1
0
LINE
5
83
100
AcDbEntity
8
SK4
62
256
6
ByLayer
370
18
48
0.05
60
0
100
AcDbLine
10
108
20
0
30
0
11
-55
21
0
31
0
39
0
210
0
220
0
230
1
0
LINE
5
85
100
AcDbEntity
8
4
62
256
6
ByLayer
370
18
48
0.05
60
0
100
AcDbLine
10
103
20
0
30
0
11
0
21
0
31
0
39
0
210
0
220
0
230
1
0
LINE
5
87
100
AcDbEntity
8
80
62
256
6
ByLayer
370
18
48
1
60
0
100
AcDbLine
10
0
20
0
30
0
11
-5
21
0
31
0
39
0
210
0
220
0
230
1
0
LINE
5
88
100
AcDbEntity
8
SK1
62
256
6
ByLayer
370
18
48
1
60
0
100
AcDbLine
10
0
20
10
30
0
11
0
21
-10
31
0
39
0
210
0
220
0
230
1
0
LINE
5
89
100
AcDbEntity
8
SK1
62
256
6
ByLayer
370
18
48
1
60
0
100
AcDbLine
10
-46.824574
20
10
30
0
11
-46.824574
21
-10
31
0
39
0
210
0
220
0
230
1
0
LINE
5
8A
100
AcDbEntity
8
SK1
62
256
6
ByLayer
370
18
48
1
60
0
100
AcDbLine
10
-47.5
20
-8.81094
30
0
11
-47.5
21
-8.830127
31
0
39
0
210
0
220
0
230
1
0
LINE
5
8B
100
AcDbEntity
8
SK1
62
256
6
ByLayer
370
18
48
1
60
0
100
AcDbLine
10
-47.5
20
8.830127
30
0
11
-47.5
21
8.409237
31
0
39
0
210
0
220
0
230
1
0
LINE
5
8C
100
AcDbEntity
8
SK1
62
256
6
ByLayer
370
13
48
1
60
0
100
AcDbLine
10
-47.6
20
8.628172
30
0
11
-47.6
21
8.201892
31
0
39
0
210
0
220
0
230
1
0
LINE
5
8D
100
AcDbEntity
8
SK1
62
256
6
ByLayer
370
18
48
1
60
0
100
AcDbLine
10
-50
20
3.901926
30
0
11
-50
21
-4.327975
31
0
39
0
210
0
220
0
230
1
0
LINE
5
8E
100
AcDbEntity
8
SK1
62
256
6
ByLayer
370
18
48
1
60
0
100
AcDbLine
10
-50
20
4.327975
30
0
11
-50
21
3.901821
31
0
39
0
210
0
220
0
230
1
0
LINE
5
8F
100
AcDbEntity
8
1
62
256
6
ByLayer
370
18
48
1
60
0
100
AcDbLine
10
4
20
-9.067808
30
0
11
4
21
-5.814127
31
0
39
0
210
0
220
0
230
1
0
LINE
5
90
100
AcDbEntity
8
1
62
256
6
ByLayer
370
18
48
1
60
0
100
AcDbLine
10
4.250867
20
-8.61241
30
0
11
4.25087
21
-8.612321
31
0
39
0
210
0
220
0
230
1
0
LINE
5
91
100
AcDbEntity
8
1
62
256
6
ByLayer
370
13
48
1
60
0
100
AcDbLine
10
99.64621
20
2.027968
30
0
11
102.94956
21
-0.063132
31
0
39
0
210
0
220
0
230
1
0
LINE
5
92
100
AcDbEntity
8
1
62
256
6
ByLayer
370
13
48
1
60
0
100
AcDbLine
10
0.350219
20
9.065527
30
0
11
0.350219
21
-9.065527
31
0
39
0
210
0
220
0
230
1
0
LINE
5
93
100
AcDbEntity
8
1
62
256
6
ByLayer
370
18
48
1
60
0
100
AcDbLine
10
4
20
9.067808
30
0
11
4
21
6.419633
31
0
39
0
210
0
220
0
230
1
0
LINE
5
94
100
AcDbEntity
8
1
62
256
6
ByLayer
370
13
48
1
60
0
100
AcDbLine
10
99.868028
20
2.188977
30
0
11
102.983838
21
0.216596
31
0
39
0
210
0
220
0
230
1
0
LINE
5
95
100
AcDbEntity
8
1
62
256
6
ByLayer
370
18
48
1
60
0
100
AcDbLine
10
4.250867
20
8.61241
30
0
11
4.25087
21
8.612321
31
0
39
0
210
0
220
0
230
1
0
MTEXT
5
E0
100
AcDbEntity
8
SK6
62
256
6
ByLayer
370
13
48
1
60
0
100
AcDbMText
10
28.629169
20
41.510694
30
0
210
0
220
0
230
1
1
\W0.7431;460.1-1826-082A1-XM GC34
40
3.5
41
0
44
1.084337
50
0
71
8
72
5
7
iso_b_vert
0
DIMENSION
5
ED
100
AcDbEntity
8
SK2
62
256
6
ByLayer
370
13
48
1
60
0
100
AcDbDimension
2
DimnDraft3D1
10
99.677
20
-19.341398
30
0
11
47.427059
21
-19.341398
31
0
70
32
71
5
72
1
41
1
210
0
220
0
230
1
3
Standard
100
AcDbAlignedDimension
13
0
23
-1.5875
33
0
14
99.677
24
-10.7155
34
0
50
0
100
AcDbRotatedDimension
1001
ACAD
1000
DSTYLE
1002
{
1070
   279
1070
     0
1070
   172
1070
     1
1070
   173
1070
     1
1070
   340
1005
E1
1070
   271
1070
     2
1070
   272
1070
     2
1070
    77
1070
     1
1070
    73
1070
     0
1070
   171
1070
     3
1070
   274
1070
     4
1070
   177
1070
    35
1070
   176
1070
    35
1070
   178
1070
    35
1070
    48
1040
-0.005
1070
    41
1041
3.5
1070
   147
1041
1.75
1070
    42
1041
1.5875
1070
    44
1041
2.0
1070
   140
1041
3.5
1070
   343
1005
0
1070
   344
1005
0
1002
}
0
DIMENSION
5
F7
100
AcDbEntity
8
SK2
62
256
6
ByLayer
370
13
48
1
60
0
100
AcDbDimension
2
DimnDraft3D2
10
103
20
-38.692985
30
0
11
24.5183
21
-38.692985
31
0
70
32
71
5
72
1
41
1
210
0
220
0
230
1
3
Standard
100
AcDbAlignedDimension
13
-50
23
-11.5875
33
0
14
103
24
-1.5875
34
0
50
0
100
AcDbRotatedDimension
1001
ACAD
1000
DSTYLE
1002
{
1070
   279
1070
     0
1070
   172
1070
     1
1070
   173
1070
     1
1070
   340
1005
E1
1070
   271
1070
     2
1070
   272
1070
     2
1070
    77
1070
     1
1070
    73
1070
     0
1070
   171
1070
     3
1070
   274
1070
     4
1070
   177
1070
    35
1070
   176
1070
    35
1070
   178
1070
    35
1070
    48
1040
-0.005
1070
    41
1041
3.5
1070
   147
1041
1.75
1070
    42
1041
1.5875
1070
    44
1041
2.0
1070
   140
1041
3.5
1070
   343
1005
0
1070
   344
1005
0
1002
}
0
DIMENSION
5
101
100
AcDbEntity
8
SK2
62
256
6
ByLayer
370
13
48
1
60
0
100
AcDbDimension
2
DimnDraft3D3
10
103
20
20.737119
30
0
11
66.195
21
20.737119
31
0
70
32
71
5
72
1
41
1
210
0
220
0
230
1
3
Standard
100
AcDbAlignedDimension
13
29.39
23
10.7155
33
0
14
103
24
1.5875
34
0
50
0
100
AcDbRotatedDimension
1001
ACAD
1000
DSTYLE
1002
{
1070
   279
1070
     0
1070
   172
1070
     1
1070
   173
1070
     1
1070
   340
1005
E1
1070
   271
1070
     2
1070
   272
1070
     2
1070
    77
1070
     1
1070
    73
1070
     0
1070
   171
1070
     3
1070
   274
1070
     4
1070
   177
1070
    35
1070
   176
1070
    35
1070
   178
1070
    35
1070
    48
1040
-0.005
1070
    41
1041
3.5
1070
   147
1041
1.75
1070
    42
1041
1.5875
1070
    44
1041
2.0
1070
   140
1041
3.5
1070
   343
1005
0
1070
   344
1005
0
1002
}
0
DIMENSION
5
10B
100
AcDbEntity
8
SK2
62
256
6
ByLayer
370
13
48
1
60
0
100
AcDbDimension
2
DimnDraft3D4
10
99.677
20
-21.930503
30
0
11
112.981425
21
-21.930503
31
0
70
32
71
5
72
1
41
1
210
0
220
0
230
1
3
Standard
100
AcDbAlignedDimension
13
103
23
-1.5875
33
0
14
99.677
24
-10.7155
34
0
50
0
100
AcDbRotatedDimension
1001
ACAD
1000
DSTYLE
1002
{
1070
   279
1070
     0
1070
   172
1070
     1
1070
   173
1070
     1
1070
   340
1005
E1
1070
   271
1070
     2
1070
   272
1070
     2
1070
    77
1070
     1
1070
    73
1070
     0
1070
   171
1070
     3
1070
   274
1070
     4
1070
   177
1070
    35
1070
   176
1070
    35
1070
   178
1070
    35
1070
    48
1040
-0.005
1070
    41
1041
3.5
1070
   147
1041
1.75
1070
    42
1041
1.5875
1070
    44
1041
2.0
1070
   140
1041
3.5
1070
   343
1005
0
1070
   344
1005
0
1002
}
0
DIMENSION
5
115
100
AcDbEntity
8
SK2
62
256
6
ByLayer
370
13
48
1
60
0
100
AcDbDimension
2
DimnDraft3D5
10
99.677
20
-28.343428
30
0
11
21.437676
21
-28.343428
31
0
70
32
71
5
72
1
41
1
210
0
220
0
230
1
3
Standard
100
AcDbAlignedDimension
13
-50
23
-11.5875
33
0
14
99.677
24
-10.7155
34
0
50
0
100
AcDbRotatedDimension
1001
ACAD
1000
DSTYLE
1002
{
1070
   279
1070
     0
1070
   172
1070
     1
1070
   173
1070
     1
1070
   340
1005
E1
1070
   271
1070
     2
1070
   272
1070
     2
1070
    77
1070
     1
1070
    73
1070
     0
1070
   171
1070
     3
1070
   274
1070
     4
1070
   177
1070
    35
1070
   176
1070
    35
1070
   178
1070
    35
1070
    48
1040
-0.005
1070
    41
1041
3.5
1070
   147
1041
1.75
1070
    42
1041
1.5875
1070
    44
1041
2.0
1070
   140
1041
3.5
1070
   343
1005
0
1070
   344
1005
0
1002
}
0
DIMENSION
5
120
100
AcDbEntity
8
SK2
62
256
6
ByLayer
370
13
48
1
60
0
100
AcDbDimension
2
DimnDraft3D6
10
-60.625163
20
10
30
0
11
-61.250163
21
28.47418
31
0
70
33
71
5
72
1
41
1
210
0
220
0
230
1
3
Standard
100
AcDbAlignedDimension
13
-51.5875
23
-10
33
0
14
-51.5875
24
10
34
0
1001
ACAD
1000
DSTYLE
1002
{
1070
   279
1070
     0
1070
    74
1070
     0
1070
   173
1070
     1
1070
   340
1005
E1
1070
   271
1070
     3
1070
   272
1070
     2
1070
    77
1070
     1
1070
    73
1070
     0
1070
   171
1070
     3
1070
   274
1070
     4
1070
   177
1070
    35
1070
   176
1070
    35
1070
   178
1070
    35
1070
    48
1040
-0.005
1070
    41
1041
3.5
1070
   147
1041
1.75
1070
    42
1041
1.5875
1070
    44
1041
2.0
1070
   140
1041
3.5
1070
   343
1005
0
1070
   344
1005
0
1002
}
0
DIMENSION
5
12B
100
AcDbEntity
8
2
62
256
6
ByLayer
370
13
48
1
60
0
100
AcDbDimension
2
DimnDraft3D7
10
117.083343
20
9.128
30
0
11
112.458343
21
26.195266
31
0
70
33
71
5
72
1
41
1
210
0
220
0
230
1
3
Standard
100
AcDbAlignedDimension
13
101.2645
23
-9.128
33
0
14
101.2645
24
9.128
34
0
1001
ACAD
1000
DSTYLE
1002
{
1070
   279
1070
     0
1070
    74
1070
     0
1070
   173
1070
     1
1070
   340
1005
E1
1070
   271
1070
     3
1070
   272
1070
     2
1070
    77
1070
     1
1070
    73
1070
     0
1070
   171
1070
     3
1070
   274
1070
     4
1070
   177
1070
    35
1070
   176
1070
    35
1070
   178
1070
    35
1070
    48
1040
-0.005
1070
    41
1041
3.5
1070
   147
1041
1.75
1070
    42
1041
1.5875
1070
    44
1041
2.0
1070
   140
1041
3.5
1070
   343
1005
0
1070
   344
1005
0
1002
}
0
ENDSEC
0
SECTION
2
OBJECTS
0
DICTIONARY
5
196
330
0
100
AcDbDictionary
280
0
281
1
3
ACAD_GROUP
350
197
3
ACAD_MLINESTYLE
350
198
0
DICTIONARY
5
197
330
0
100
AcDbDictionary
280
0
281
1
0
DICTIONARY
5
198
330
0
100
AcDbDictionary
280
0
281
1
3
Standard
350
18
0
MLINESTYLE
5
18
330
198
100
AcDbMlineStyle
2
Standard
70
0
3

62
256
51
90
52
90
71
2
49
-0.5
62
256
6
ByLayer
49
0.5
62
256
6
ByLayer
0
RASTERVARIABLES
5
184
330

100
AcDbRasterVariables
90
0
70
1
71
1
72
1
0
ENDSEC
0
EOF
