0
SECTION
2
HEADER
9
$ACADVER
1
AC1015
9
$DWGCODEPAGE
3
ANSI_1252
9
$HANDSEED
5
1af
9
$ANGBASE
50
0
9
$ANGDIR
70
0
9
$ATTMODE
70
1
9
$AUNITS
70
0
9
$AUPREC
70
0
9
$CECOLOR
62
256
9
$CELTSCALE
40
1
9
$CELTYPE
6
ByLayer
9
$CELWEIGHT
370
18
9
$CLAYER
8
0
9
$CMLJUST
70
0
9
$CMLSCALE
40
1
9
$CMLSTYLE
2
Standard
9
$DIMSTYLE
2
Standard
9
$TEXTSIZE
40
0.2
9
$TEXTSTYLE
7
Standard
9
$LUNITS
70
2
9
$LUPREC
70
4
9
$EXTNAMES
290
1
9
$INSUNITS
70
4
9
$LTSCALE
40
1
9
$LWDISPLAY
290
1
9
$PDMODE
70
0
9
$PDSIZE
40
0
9
$PLINEGEN
70
0
0
ENDSEC
0
SECTION
2
CLASSES
0
CLASS
1
RASTERVARIABLES
2
AcDbRasterVariables
3
ISM
90
0
280
0
281
0
0
ENDSEC
0
SECTION
2
TABLES
0
TABLE
2
VPORT
5
1a5
100
AcDbSymbolTable
0
VPORT
5
1
100
AcDbSymbolTableRecord
100
AcDbViewportTableRecord
2
*Active
70
0
10
0
20
0
11
1
21
1
12
-1
22
1
13
0
23
0
14
0.5
24
0.5
15
10
25
10
16
0
26
0
36
1
17
0
27
0
37
0
0
ENDTAB
0
TABLE
2
LTYPE
5
1a6
100
AcDbSymbolTable
0
LTYPE
5
14
100
AcDbSymbolTableRecord
100
AcDbLinetypeTableRecord
70
0
2
ByBlock
3

72
65
73
0
40
0
0
LTYPE
5
15
100
AcDbSymbolTableRecord
100
AcDbLinetypeTableRecord
70
0
2
ByLayer
3

72
65
73
0
40
0
0
LTYPE
5
16
100
AcDbSymbolTableRecord
100
AcDbLinetypeTableRecord
70
0
2
CONTINUOUS
3
Solid line
72
65
73
0
40
0
0
LTYPE
5
6A
100
AcDbSymbolTableRecord
100
AcDbLinetypeTableRecord
70
0
2
CENTER
3
____ _ ____ _ ____ _ ____
72
65
73
4
40
47.5
49
22
74
0
49
-8.5
74
0
49
8.5
74
0
49
-8.5
74
0
0
LTYPE
5
6B
100
AcDbSymbolTableRecord
100
AcDbLinetypeTableRecord
70
0
2
DASHED
3
__ __ __ __ __ __ __ __ __
72
65
73
2
40
25.72
49
12.86
74
0
49
-12.86
74
0
0
ENDTAB
0
TABLE
2
LAYER
5
1a7
100
AcDbSymbolTable
0
LAYER
5
10
100
AcDbSymbolTableRecord
100
AcDbLayerTableRecord
2
0
70
0
62
7
6
CONTINUOUS
290
1
370
-3
390
0
0
LAYER
5
6D
100
AcDbSymbolTableRecord
100
AcDbLayerTableRecord
2
81
70
0
62
-3
6
CONTINUOUS
290
1
370
-3
390
0
0
LAYER
5
6F
100
AcDbSymbolTableRecord
100
AcDbLayerTableRecord
2
80
70
0
62
-6
6
CONTINUOUS
290
1
370
-3
390
0
0
LAYER
5
74
100
AcDbSymbolTableRecord
100
AcDbLayerTableRecord
2
2
70
0
62
7
6
CONTINUOUS
290
1
370
-3
390
0
0
LAYER
5
78
100
AcDbSymbolTableRecord
100
AcDbLayerTableRecord
2
1
70
0
62
4
6
CONTINUOUS
290
1
370
-3
390
0
0
LAYER
5
8A
100
AcDbSymbolTableRecord
100
AcDbLayerTableRecord
2
4
70
0
62
-2
6
CENTER
290
1
370
-3
390
0
0
LAYER
5
191
100
AcDbSymbolTableRecord
100
AcDbLayerTableRecord
2
SK2
70
0
62
7
6
CONTINUOUS
290
1
370
-3
390
0
0
LAYER
5
192
100
AcDbSymbolTableRecord
100
AcDbLayerTableRecord
2
SK1
70
0
62
4
6
CONTINUOUS
290
1
370
-3
390
0
0
LAYER
5
193
100
AcDbSymbolTableRecord
100
AcDbLayerTableRecord
2
SK4
70
0
62
2
6
CENTER
290
1
370
-3
390
0
0
LAYER
5
194
100
AcDbSymbolTableRecord
100
AcDbLayerTableRecord
2
SK6
70
0
62
5
6
CONTINUOUS
290
1
370
-3
390
0
0
ENDTAB
0
TABLE
2
STYLE
5
1a8
100
AcDbSymbolTable
0
STYLE
5
11
100
AcDbSymbolTableRecord
100
AcDbTextStyleTableRecord
2
Standard
3
txt
70
0
71
0
40
0
41
1
42
0
50
0
0
STYLE
5
ED
100
AcDbSymbolTableRecord
100
AcDbTextStyleTableRecord
2
iso_b_vert
3
simplex.shx
70
0
71
0
40
0
41
1
42
0
50
0
0
STYLE
5
EE
100
AcDbSymbolTableRecord
100
AcDbTextStyleTableRecord
2
DWGDirectTextStyle
3
simplex
70
0
71
0
40
0
41
1
42
0
50
0
0
ENDTAB
0
TABLE
2
DIMSTYLE
5
1a9
100
AcDbSymbolTable
100
AcDbDimStyleTable
0
DIMSTYLE
105
27
100
AcDbSymbolTableRecord
100
AcDbDimStyleTableRecord
2
Standard
70
0
3
<>
41
0.18
42
0.0625
44
0.18
140
0.18
147
0.09
73
0
74
0
77
1
271
2
275
0
278
52
280
0
340
11
0
ENDTAB
0
TABLE
2
VIEW
5
1aa
100
AcDbSymbolTable
0
ENDTAB
0
TABLE
2
UCS
5
1ab
100
AcDbSymbolTable
0
ENDTAB
0
TABLE
2
APPID
5
1ac
100
AcDbSymbolTable
0
APPID
5
12
100
AcDbSymbolTableRecord
100
AcDbRegAppTableRecord
2
ACAD
70
0
0
ENDTAB
0
TABLE
2
BLOCK_RECORD
5
1ad
100
AcDbSymbolTable
0
BLOCK_RECORD
5
1F
100
AcDbSymbolTableRecord
100
AcDbBlockTableRecord
2
*Model_Space
340
0
70
0
0
BLOCK_RECORD
5
1B
100
AcDbSymbolTableRecord
100
AcDbBlockTableRecord
2
*Paper_Space
340
0
70
0
0
BLOCK_RECORD
5
23
100
AcDbSymbolTableRecord
100
AcDbBlockTableRecord
2
*Paper_Space0
340
0
70
0
0
BLOCK_RECORD
5
F0
100
AcDbSymbolTableRecord
100
AcDbBlockTableRecord
2
DimnDraft3D1
340
0
70
0
0
BLOCK_RECORD
5
FA
100
AcDbSymbolTableRecord
100
AcDbBlockTableRecord
2
DimnDraft3D2
340
0
70
0
0
BLOCK_RECORD
5
104
100
AcDbSymbolTableRecord
100
AcDbBlockTableRecord
2
DimnDraft3D3
340
0
70
0
0
BLOCK_RECORD
5
10E
100
AcDbSymbolTableRecord
100
AcDbBlockTableRecord
2
DimnDraft3D4
340
0
70
0
0
BLOCK_RECORD
5
118
100
AcDbSymbolTableRecord
100
AcDbBlockTableRecord
2
DimnDraft3D5
340
0
70
0
0
BLOCK_RECORD
5
122
100
AcDbSymbolTableRecord
100
AcDbBlockTableRecord
2
DimnDraft3D6
340
0
70
0
0
BLOCK_RECORD
5
12D
100
AcDbSymbolTableRecord
100
AcDbBlockTableRecord
2
DimnDraft3D7
340
0
70
0
0
ENDTAB
0
ENDSEC
0
SECTION
2
BLOCKS
0
BLOCK
5
20
100
AcDbEntity
8
0
100
AcDbBlockBegin
2
*Model_Space
70
0
10
0
20
0
30
0
3
*Model_Space
0
ENDBLK
5
21
100
AcDbEntity
8
0
100
AcDbBlockEnd
0
BLOCK
5
1C
100
AcDbEntity
8
0
100
AcDbBlockBegin
2
*Paper_Space
70
0
10
0
20
0
30
0
3
*Paper_Space
0
ENDBLK
5
1D
100
AcDbEntity
8
0
100
AcDbBlockEnd
0
BLOCK
5
24
100
AcDbEntity
8
0
100
AcDbBlockBegin
2
*Paper_Space0
70
0
10
0
20
0
30
0
3
*Paper_Space0
0
ENDBLK
5
25
100
AcDbEntity
8
0
100
AcDbBlockEnd
0
BLOCK
5
F7
100
AcDbEntity
8
0
100
AcDbBlockBegin
2
DimnDraft3D1
70
0
10
0
20
0
30
0
3
DimnDraft3D1
0
MTEXT
5
F1
100
AcDbEntity
8
SK2
62
256
6
ByLayer
370
13
48
1
60
0
100
AcDbMText
10
90.31668
20
-18.088398
30
0
210
0
220
0
230
1
1
\W0.6996;195,39
40
3.5
41
0
44
1.084337
50
0
71
7
72
5
7
iso_b_vert
0
LINE
5
F2
100
AcDbEntity
8
SK2
62
256
6
ByLayer
370
13
48
1
60
0
100
AcDbLine
10
0
20
-1.5875
30
0
11
0
21
-20.963398
31
0
39
0
210
0
220
0
230
1
0
LINE
5
F3
100
AcDbEntity
8
SK2
62
256
6
ByLayer
370
13
48
1
60
0
100
AcDbLine
10
195.3857
20
-10.3375
30
0
11
195.3857
21
-20.963398
31
0
39
0
210
0
220
0
230
1
0
LINE
5
F4
100
AcDbEntity
8
SK2
62
256
6
ByLayer
370
13
48
1
60
0
100
AcDbLine
10
0
20
-18.963398
30
0
11
195.3857
21
-18.963398
31
0
39
0
210
0
220
0
230
1
0
SOLID
5
F5
100
AcDbEntity
8
SK2
62
256
6
ByLayer
370
13
48
1
60
0
100
AcDbTrace
10
0
20
-18.963398
30
0
11
3.499998
21
-18.502615
31
0
12
3.500002
22
-19.424182
32
0
13
0
23
-18.963398
33
0
39
0
210
0
220
0
230
1
0
SOLID
5
F6
100
AcDbEntity
8
SK2
62
256
6
ByLayer
370
13
48
1
60
0
100
AcDbTrace
10
195.3857
20
-18.963398
30
0
11
191.885702
21
-19.424182
31
0
12
191.885698
22
-18.502615
32
0
13
195.3857
23
-18.963398
33
0
39
0
210
0
220
0
230
1
0
ENDBLK
5
F8
100
AcDbEntity
8
0
100
AcDbBlockEnd
0
BLOCK
5
101
100
AcDbEntity
8
0
100
AcDbBlockBegin
2
DimnDraft3D2
70
0
10
0
20
0
30
0
3
DimnDraft3D2
0
MTEXT
5
FB
100
AcDbEntity
8
SK2
62
256
6
ByLayer
370
13
48
1
60
0
100
AcDbMText
10
67.786211
20
-36.817985
30
0
210
0
220
0
230
1
1
\W0.7636;246,00
40
3.5
41
0
44
1.084337
50
0
71
7
72
5
7
iso_b_vert
0
LINE
5
FC
100
AcDbEntity
8
SK2
62
256
6
ByLayer
370
13
48
1
60
0
100
AcDbLine
10
-48
20
-10.5875
30
0
11
-48
21
-39.692985
31
0
39
0
210
0
220
0
230
1
0
LINE
5
FD
100
AcDbEntity
8
SK2
62
256
6
ByLayer
370
13
48
1
60
0
100
AcDbLine
10
198
20
-1.5875
30
0
11
198
21
-39.692985
31
0
39
0
210
0
220
0
230
1
0
LINE
5
FE
100
AcDbEntity
8
SK2
62
256
6
ByLayer
370
13
48
1
60
0
100
AcDbLine
10
-48
20
-37.692985
30
0
11
198
21
-37.692985
31
0
39
0
210
0
220
0
230
1
0
SOLID
5
FF
100
AcDbEntity
8
SK2
62
256
6
ByLayer
370
13
48
1
60
0
100
AcDbTrace
10
-48
20
-37.692985
30
0
11
-44.500002
21
-37.232202
31
0
12
-44.499998
22
-38.153769
32
0
13
-48
23
-37.692985
33
0
39
0
210
0
220
0
230
1
0
SOLID
5
100
100
AcDbEntity
8
SK2
62
256
6
ByLayer
370
13
48
1
60
0
100
AcDbTrace
10
198
20
-37.692985
30
0
11
194.500002
21
-38.153769
31
0
12
194.499998
22
-37.232202
32
0
13
198
23
-37.692985
33
0
39
0
210
0
220
0
230
1
0
ENDBLK
5
102
100
AcDbEntity
8
0
100
AcDbBlockEnd
0
BLOCK
5
10B
100
AcDbEntity
8
0
100
AcDbBlockBegin
2
DimnDraft3D3
70
0
10
0
20
0
30
0
3
DimnDraft3D3
0
MTEXT
5
105
100
AcDbEntity
8
SK2
62
256
6
ByLayer
370
13
48
1
60
0
100
AcDbMText
10
121.629211
20
21.234119
30
0
210
0
220
0
230
1
1
\W0.7050;142,61
40
3.5
41
0
44
1.084337
50
0
71
7
72
5
7
iso_b_vert
0
LINE
5
106
100
AcDbEntity
8
SK2
62
256
6
ByLayer
370
13
48
1
60
0
100
AcDbLine
10
55.39
20
10.3375
30
0
11
55.39
21
22.359119
31
0
39
0
210
0
220
0
230
1
0
LINE
5
107
100
AcDbEntity
8
SK2
62
256
6
ByLayer
370
13
48
1
60
0
100
AcDbLine
10
198
20
1.5875
30
0
11
198
21
22.359119
31
0
39
0
210
0
220
0
230
1
0
LINE
5
108
100
AcDbEntity
8
SK2
62
256
6
ByLayer
370
13
48
1
60
0
100
AcDbLine
10
55.39
20
20.359119
30
0
11
198
21
20.359119
31
0
39
0
210
0
220
0
230
1
0
SOLID
5
109
100
AcDbEntity
8
SK2
62
256
6
ByLayer
370
13
48
1
60
0
100
AcDbTrace
10
55.39
20
20.359119
30
0
11
58.889998
21
20.819903
31
0
12
58.890002
22
19.898335
32
0
13
55.39
23
20.359119
33
0
39
0
210
0
220
0
230
1
0
SOLID
5
10A
100
AcDbEntity
8
SK2
62
256
6
ByLayer
370
13
48
1
60
0
100
AcDbTrace
10
198
20
20.359119
30
0
11
194.500002
21
19.898335
31
0
12
194.499998
22
20.819903
32
0
13
198
23
20.359119
33
0
39
0
210
0
220
0
230
1
0
ENDBLK
5
10C
100
AcDbEntity
8
0
100
AcDbBlockEnd
0
BLOCK
5
115
100
AcDbEntity
8
0
100
AcDbBlockBegin
2
DimnDraft3D4
70
0
10
0
20
0
30
0
3
DimnDraft3D4
0
MTEXT
5
10F
100
AcDbEntity
8
SK2
62
256
6
ByLayer
370
13
48
1
60
0
100
AcDbMText
10
205.278136
20
-20.677503
30
0
210
0
220
0
230
1
1
\W0.6993;2,61
40
3.5
41
0
44
1.084337
50
0
71
7
72
5
7
iso_b_vert
0
LINE
5
110
100
AcDbEntity
8
SK2
62
256
6
ByLayer
370
13
48
1
60
0
100
AcDbLine
10
198
20
-1.5875
30
0
11
198
21
-23.552503
31
0
39
0
210
0
220
0
230
1
0
LINE
5
111
100
AcDbEntity
8
SK2
62
256
6
ByLayer
370
13
48
1
60
0
100
AcDbLine
10
195.3857
20
-10.3375
30
0
11
195.3857
21
-23.552503
31
0
39
0
210
0
220
0
230
1
0
LINE
5
112
100
AcDbEntity
8
SK2
62
256
6
ByLayer
370
13
48
1
60
0
100
AcDbLine
10
186.6357
20
-21.552503
30
0
11
211.559715
21
-21.552503
31
0
39
0
210
0
220
0
230
1
0
SOLID
5
113
100
AcDbEntity
8
SK2
62
256
6
ByLayer
370
13
48
1
60
0
100
AcDbTrace
10
198
20
-21.552503
30
0
11
201.499998
21
-21.091719
31
0
12
201.500002
22
-22.013287
32
0
13
198
23
-21.552503
33
0
39
0
210
0
220
0
230
1
0
SOLID
5
114
100
AcDbEntity
8
SK2
62
256
6
ByLayer
370
13
48
1
60
0
100
AcDbTrace
10
195.3857
20
-21.552503
30
0
11
191.885702
21
-22.013287
31
0
12
191.885698
22
-21.091719
32
0
13
195.3857
23
-21.552503
33
0
39
0
210
0
220
0
230
1
0
ENDBLK
5
116
100
AcDbEntity
8
0
100
AcDbBlockEnd
0
BLOCK
5
11F
100
AcDbEntity
8
0
100
AcDbBlockBegin
2
DimnDraft3D5
70
0
10
0
20
0
30
0
3
DimnDraft3D5
0
MTEXT
5
119
100
AcDbEntity
8
SK2
62
256
6
ByLayer
370
13
48
1
60
0
100
AcDbMText
10
64.705587
20
-26.468428
30
0
210
0
220
0
230
1
1
\W0.7708;243,39
40
3.5
41
0
44
1.084337
50
0
71
7
72
5
7
iso_b_vert
0
LINE
5
11A
100
AcDbEntity
8
SK2
62
256
6
ByLayer
370
13
48
1
60
0
100
AcDbLine
10
-48
20
-10.5875
30
0
11
-48
21
-29.343428
31
0
39
0
210
0
220
0
230
1
0
LINE
5
11B
100
AcDbEntity
8
SK2
62
256
6
ByLayer
370
13
48
1
60
0
100
AcDbLine
10
195.3857
20
-10.3375
30
0
11
195.3857
21
-29.343428
31
0
39
0
210
0
220
0
230
1
0
LINE
5
11C
100
AcDbEntity
8
SK2
62
256
6
ByLayer
370
13
48
1
60
0
100
AcDbLine
10
-48
20
-27.343428
30
0
11
195.3857
21
-27.343428
31
0
39
0
210
0
220
0
230
1
0
SOLID
5
11D
100
AcDbEntity
8
SK2
62
256
6
ByLayer
370
13
48
1
60
0
100
AcDbTrace
10
-48
20
-27.343428
30
0
11
-44.500002
21
-26.882645
31
0
12
-44.499998
22
-27.804212
32
0
13
-48
23
-27.343428
33
0
39
0
210
0
220
0
230
1
0
SOLID
5
11E
100
AcDbEntity
8
SK2
62
256
6
ByLayer
370
13
48
1
60
0
100
AcDbTrace
10
195.3857
20
-27.343428
30
0
11
191.885702
21
-27.804212
31
0
12
191.885698
22
-26.882645
32
0
13
195.3857
23
-27.343428
33
0
39
0
210
0
220
0
230
1
0
ENDBLK
5
120
100
AcDbEntity
8
0
100
AcDbBlockEnd
0
BLOCK
5
12A
100
AcDbEntity
8
0
100
AcDbBlockBegin
2
DimnDraft3D6
70
0
10
0
20
0
30
0
3
DimnDraft3D6
0
MTEXT
5
123
100
AcDbEntity
8
SK2
62
256
6
ByLayer
370
13
48
1
60
0
100
AcDbMText
10
-58.375163
20
28.34918
30
0
210
0
220
0
230
1
1
\W0.6930;18,000
40
3.5
41
0
44
1.084337
50
90
71
7
72
5
7
iso_b_vert
0
MTEXT
5
124
100
AcDbEntity
8
SK2
62
256
6
ByLayer
370
13
48
1
60
0
100
AcDbMText
10
-58.375163
20
23.126524
30
0
210
0
220
0
230
1
1
%%c
40
3.5
41
0
44
1.084337
50
90
71
7
72
5
7
iso_b_vert
0
LINE
5
125
100
AcDbEntity
8
SK2
62
256
6
ByLayer
370
13
48
1
60
0
100
AcDbLine
10
-49.5875
20
-9
30
0
11
-58.625163
21
-9
31
0
39
0
210
0
220
0
230
1
0
LINE
5
126
100
AcDbEntity
8
SK2
62
256
6
ByLayer
370
13
48
1
60
0
100
AcDbLine
10
-49.5875
20
9
30
0
11
-58.625163
21
9
31
0
39
0
210
0
220
0
230
1
0
LINE
5
127
100
AcDbEntity
8
SK2
62
256
6
ByLayer
370
13
48
1
60
0
100
AcDbLine
10
-56.625163
20
-9
30
0
11
-56.625163
21
39.862338
31
0
39
0
210
0
220
0
230
1
0
SOLID
5
128
100
AcDbEntity
8
SK2
62
256
6
ByLayer
370
13
48
1
60
0
100
AcDbTrace
10
-56.625163
20
-9
30
0
11
-57.085946
21
-5.500002
31
0
12
-56.164379
22
-5.499998
32
0
13
-56.625163
23
-9
33
0
39
0
210
0
220
0
230
1
0
SOLID
5
129
100
AcDbEntity
8
SK2
62
256
6
ByLayer
370
13
48
1
60
0
100
AcDbTrace
10
-56.625163
20
9
30
0
11
-56.164379
21
5.500002
31
0
12
-57.085946
22
5.499998
32
0
13
-56.625163
23
9
33
0
39
0
210
0
220
0
230
1
0
ENDBLK
5
12B
100
AcDbEntity
8
0
100
AcDbBlockEnd
0
BLOCK
5
135
100
AcDbEntity
8
0
100
AcDbBlockBegin
2
DimnDraft3D7
70
0
10
0
20
0
30
0
3
DimnDraft3D7
0
MTEXT
5
12E
100
AcDbEntity
8
2
62
256
6
ByLayer
370
13
48
1
60
0
100
AcDbMText
10
208.333343
20
26.692266
30
0
210
0
220
0
230
1
1
\W0.6930;17,500
40
3.5
41
0
44
1.084337
50
90
71
7
72
5
7
iso_b_vert
0
MTEXT
5
12F
100
AcDbEntity
8
2
62
256
6
ByLayer
370
13
48
1
60
0
100
AcDbMText
10
208.333343
20
21.46961
30
0
210
0
220
0
230
1
1
%%c
40
3.5
41
0
44
1.084337
50
90
71
7
72
5
7
iso_b_vert
0
LINE
5
130
100
AcDbEntity
8
2
62
256
6
ByLayer
370
13
48
1
60
0
100
AcDbLine
10
196.9732
20
-8.75
30
0
11
212.083343
21
-8.75
31
0
39
0
210
0
220
0
230
1
0
LINE
5
131
100
AcDbEntity
8
2
62
256
6
ByLayer
370
13
48
1
60
0
100
AcDbLine
10
196.9732
20
8.75
30
0
11
212.083343
21
8.75
31
0
39
0
210
0
220
0
230
1
0
LINE
5
132
100
AcDbEntity
8
2
62
256
6
ByLayer
370
13
48
1
60
0
100
AcDbLine
10
210.083343
20
-8.75
30
0
11
210.083343
21
38.205424
31
0
39
0
210
0
220
0
230
1
0
SOLID
5
133
100
AcDbEntity
8
2
62
256
6
ByLayer
370
13
48
1
60
0
100
AcDbTrace
10
210.083343
20
-8.75
30
0
11
209.622559
21
-5.250002
31
0
12
210.544126
22
-5.249998
32
0
13
210.083343
23
-8.75
33
0
39
0
210
0
220
0
230
1
0
SOLID
5
134
100
AcDbEntity
8
2
62
256
6
ByLayer
370
13
48
1
60
0
100
AcDbTrace
10
210.083343
20
8.75
30
0
11
210.544126
21
5.250002
31
0
12
209.622559
22
5.249998
32
0
13
210.083343
23
8.75
33
0
39
0
210
0
220
0
230
1
0
ENDBLK
5
136
100
AcDbEntity
8
0
100
AcDbBlockEnd
0
ENDSEC
0
SECTION
2
ENTITIES
0
ARC
5
99
100
AcDbEntity
8
1
62
256
6
ByLayer
370
18
48
1
60
0
100
AcDbCircle
39
0
10
-0.166667
20
8.794778
30
0
40
0.166666999999997
210
0
220
0
230
-1
100
AcDbArc
50
269.96419
51
0
0
ARC
5
9A
100
AcDbEntity
8
1
62
256
6
ByLayer
370
18
48
1
60
0
100
AcDbCircle
39
0
10
-0.166667
20
-8.794778
30
0
40
0.166666999999997
210
0
220
0
230
-1
100
AcDbArc
50
0
51
90.03581
0
ELLIPSE
5
9B
100
AcDbEntity
8
1
62
256
6
ByLayer
370
18
48
1
60
0
100
AcDbEllipse
10
3.438412
20
-8.442634
30
0
11
0.25
21
0
31
0
210
0
220
0
230
1
40
1
41
1.58058608124193
42
3.14137501737784
0
ELLIPSE
5
9C
100
AcDbEntity
8
1
62
256
6
ByLayer
370
18
48
1
60
0
100
AcDbEllipse
10
3.438412
20
8.442634
30
0
11
0.25
21
0
31
0
210
0
220
0
230
1
40
1
41
-3.14137501737778
42
-1.55991776024453
0
POINT
5
6C
100
AcDbEntity
8
81
62
256
6
ByLayer
370
18
48
1
60
0
100
AcDbPoint
10
198
20
0
30
0
39
0
210
0
220
0
230
1
50
360
0
POINT
5
6E
100
AcDbEntity
8
80
62
256
6
ByLayer
370
18
48
1
60
0
100
AcDbPoint
10
0
20
0
30
0
39
0
210
0
220
0
230
1
50
360
0
POINT
5
70
100
AcDbEntity
8
SK2
62
256
6
ByLayer
370
18
48
1
60
1
100
AcDbPoint
10
-48
20
-9
30
0
39
0
210
0
220
0
230
1
50
360
0
POINT
5
72
100
AcDbEntity
8
SK2
62
256
6
ByLayer
370
18
48
1
60
1
100
AcDbPoint
10
-48
20
9
30
0
39
0
210
0
220
0
230
1
50
360
0
POINT
5
73
100
AcDbEntity
8
2
62
256
6
ByLayer
370
18
48
1
60
1
100
AcDbPoint
10
195.3857
20
-8.75
30
0
39
0
210
0
220
0
230
1
50
360
0
POINT
5
75
100
AcDbEntity
8
2
62
256
6
ByLayer
370
18
48
1
60
1
100
AcDbPoint
10
195.3857
20
8.75
30
0
39
0
210
0
220
0
230
1
50
360
0
SPLINE
5
9D
100
AcDbEntity
8
1
62
256
6
ByLayer
370
18
48
1
60
0
100
AcDbSpline
70
4
71
2
72
6
73
3
40
0
40
0
40
0
40
1
40
1
40
1
41
1
10
120.510062398844
20
-0.0002884448574036
30
0
41
1
10
120.510074679145
20
-0.0002969302144322
30
0
41
1
10
120.510086959426
20
-0.0003056313671266
30
0
0
SPLINE
5
9E
100
AcDbEntity
8
1
62
256
6
ByLayer
370
18
48
1
60
0
100
AcDbSpline
70
4
71
3
72
30
73
26
40
0
40
0
40
0
40
0
40
0.0759652407270832
40
0.148149246629865
40
0.206248623858309
40
0.250623064547995
40
0.286243962129998
40
0.309673822065322
40
0.329428256302628
40
0.354313414743204
40
0.388483608672919
40
0.42357163574613
40
0.458329349611366
40
0.484757395420306
40
0.515031597844065
40
0.549263396815703
40
0.586696435308895
40
0.624417348015683
40
0.683207456411712
40
0.744862825348093
40
0.810272068552778
40
0.874688971954378
40
0.930466602747445
40
0.985088804294284
40
1
40
1
40
1
40
1
41
1
10
47.2098374800835
20
-8.21990240842342
30
0
41
1
10
47.5792708639738
20
-8.22010146036007
30
0
41
1
10
48.2999739690496
20
-8.22047060220223
30
0
41
1
10
49.303123407078
20
-8.22044436388768
30
0
41
1
10
50.1543026019848
20
-8.22113012334856
30
0
41
1
10
50.824750265136
20
-8.22199000064126
30
0
41
1
10
51.3260109319663
20
-8.22220236302226
30
0
41
1
10
51.7095473287871
20
-8.22228610244088
30
0
41
1
10
52.040953232
20
-8.22244691751149
30
0
41
1
10
52.4245983615272
20
-8.22268938100257
30
0
41
1
10
52.8829484809631
20
-8.22310699612953
30
0
41
1
10
53.3893530488248
20
-8.22348907214396
30
0
41
1
10
53.8580342497044
20
-8.22367407901328
30
0
41
1
10
54.3033819529771
20
-8.22380316147741
30
0
41
1
10
54.7434791302321
20
-8.22372885603477
30
0
41
1
10
55.2328814232893
20
-8.22299939514934
30
0
41
1
10
55.7545237433744
20
-8.22070189739401
30
0
41
1
10
56.4068508931909
20
-8.21940961107268
30
0
41
1
10
57.1788264949478
20
-8.22200310048902
30
0
41
1
10
58.0607764983905
20
-8.22590778450058
30
0
41
1
10
58.9958519875549
20
-8.22668388548769
30
0
41
1
10
59.898716531042
20
-8.22691468602534
30
0
41
1
10
60.749985649268
20
-8.22678816863478
30
0
41
1
10
61.3600218146782
20
-8.22795658802036
30
0
41
1
10
61.6985470913513
20
-8.2282556514717
30
0
41
1
10
61.7711421236119
20
-8.22831969183321
30
0
0
SPLINE
5
9F
100
AcDbEntity
8
1
62
256
6
ByLayer
370
18
48
1
60
0
100
AcDbSpline
70
4
71
3
72
25
73
21
40
0
40
0
40
0
40
0
40
7.76276968745E-05
40
0.0963684479427853
40
0.208055110528733
40
0.288035417774617
40
0.351301516247768
40
0.407478321509465
40
0.462982964567518
40
0.523566631919084
40
0.57961513438862
40
0.641911172353836
40
0.709998804777602
40
0.771365938827286
40
0.820665750206288
40
0.857899324298566
40
0.894022821609838
40
0.933098938460304
40
0.981805042974413
40
1
40
1
40
1
40
1
41
1
10
61.7735668786034
20
8.22846483147228
30
0
41
1
10
61.7733122496216
20
8.22846467157555
30
0
41
1
10
61.4572111571824
20
8.22826610806791
30
0
41
1
10
60.774758553811
20
8.22657989024492
30
0
41
1
10
59.8302250802083
20
8.22696795677956
30
0
41
1
10
58.9939873932281
20
8.22671575807485
30
0
41
1
10
58.3399188660964
20
8.22580708378302
30
0
41
1
10
57.7658536188978
20
8.22541178484761
30
0
41
1
10
57.2028078919989
20
8.22512604608389
30
0
41
1
10
56.6388206864281
20
8.22479806833735
30
0
41
1
10
56.0517304978787
20
8.22454351741152
30
0
41
1
10
55.4403538760574
20
8.22397284922917
30
0
41
1
10
54.8122093039019
20
8.22384896698981
30
0
41
1
10
54.226416661753
20
8.22377739535125
30
0
41
1
10
53.7414746121416
20
8.22363887738692
30
0
41
1
10
53.3391478603733
20
8.2234462931651
30
0
41
1
10
52.9703473181632
20
8.22318076529851
30
0
41
1
10
52.5639292142575
20
8.22280916159897
30
0
41
1
10
52.2163111417074
20
8.22254936876337
30
0
41
1
10
51.9968673766989
20
8.22243124933925
30
0
41
1
10
51.9371855169893
20
8.22240209457178
30
0
0
SPLINE
5
A0
100
AcDbEntity
8
1
62
256
6
ByLayer
370
18
48
1
60
0
100
AcDbSpline
70
4
71
3
72
31
73
27
40
0
40
0
40
0
40
0
40
0.0629352994591242
40
0.122097908781109
40
0.172233931780516
40
0.216950606441939
40
0.258575807665891
40
0.300437923368397
40
0.358854844441673
40
0.409643479831714
40
0.444361718186735
40
0.470422916677071
40
0.503288317741866
40
0.542888168900071
40
0.581939252397753
40
0.617402419231326
40
0.654243447793534
40
0.690114141567484
40
0.730676368985582
40
0.775976076561486
40
0.819817444660696
40
0.852492111988105
40
0.876503431841199
40
0.910747529816553
40
0.957202382905793
40
1
40
1
40
1
40
1
41
1
10
96.171976520005
20
-8.24989651619572
30
0
41
1
10
96.4661488468106
20
-8.24889335982655
30
0
41
1
10
97.0426491308654
20
-8.24774922060718
30
0
41
1
10
97.8888765980966
20
-8.2430303312548
30
0
41
1
10
98.6299292681578
20
-8.24932302922932
30
0
41
1
10
99.2824474872058
20
-8.2518882626826
30
0
41
1
10
99.9054946461672
20
-8.25253627497875
30
0
41
1
10
100.598340219617
20
-8.25277347490908
30
0
41
1
10
101.33562940725
20
-8.25271073647593
30
0
41
1
10
102.03819634148
20
-8.25348469550505
30
0
41
1
10
102.582775961049
20
-8.25395521021284
30
0
41
1
10
103.039892309572
20
-8.25413378289349
30
0
41
1
10
103.520826314324
20
-8.25421209235992
30
0
41
1
10
104.065171646022
20
-8.25420095092187
30
0
41
1
10
104.622200585592
20
-8.2544271529552
30
0
41
1
10
105.165762733306
20
-8.25504548106883
30
0
41
1
10
105.69380035843
20
-8.25528696913506
30
0
41
1
10
106.246727709217
20
-8.25529642910774
30
0
41
1
10
106.840946096346
20
-8.2553093100766
30
0
41
1
10
107.474065364617
20
-8.25565784489652
30
0
41
1
10
108.068674407658
20
-8.25650115320096
30
0
41
1
10
108.559379284666
20
-8.25674202714313
30
0
41
1
10
109.003239050868
20
-8.25672547367103
30
0
41
1
10
109.514364654664
20
-8.25660988185285
30
0
41
1
10
110.117192932803
20
-8.25679553533891
30
0
41
1
10
110.552863213245
20
-8.25731978011785
30
0
41
1
10
110.761772150792
20
-8.25765040622142
30
0
0
SPLINE
5
A1
100
AcDbEntity
8
1
62
256
6
ByLayer
370
18
48
1
60
0
100
AcDbSpline
70
4
71
3
72
27
73
23
40
0
40
0
40
0
40
0
40
0.0492137869951004
40
0.103617070656073
40
0.14969479092366
40
0.180924463643144
40
0.213366777347492
40
0.257372738853696
40
0.30541221740342
40
0.348205266911804
40
0.406579535380161
40
0.470407755273175
40
0.541262039835618
40
0.607118692407547
40
0.662260798590449
40
0.716656233206339
40
0.771097553607369
40
0.819738992001494
40
0.860882088201468
40
0.915565209682312
40
0.982756907897322
40
1
40
1
40
1
40
1
41
1
10
145.194147094416
20
-8.28077712379522
30
0
41
1
10
145.430785310786
20
-8.28047198579475
30
0
41
1
10
145.929705406787
20
-8.2801202213594
30
0
41
1
10
146.662409660782
20
-8.28140487214759
30
0
41
1
10
147.292926131547
20
-8.28181298402501
30
0
41
1
10
147.82921428522
20
-8.28188857889256
30
0
41
1
10
148.352466789709
20
-8.28221175155358
30
0
41
1
10
148.958988503306
20
-8.28286670655109
30
0
41
1
10
149.615401949234
20
-8.2831813836581
30
0
41
1
10
150.341916999822
20
-8.28315306443861
30
0
41
1
10
151.145385360816
20
-8.28310932785814
30
0
41
1
10
152.084929251635
20
-8.28455197403315
30
0
41
1
10
153.063283886796
20
-8.28472906575408
30
0
41
1
10
153.989980729706
20
-8.28443712725249
30
0
41
1
10
154.830537681562
20
-8.28212386390481
30
0
41
1
10
155.635249879947
20
-8.28206681271044
30
0
41
1
10
156.389786840996
20
-8.28521138388578
30
0
41
1
10
157.085277628878
20
-8.28632134871563
30
0
41
1
10
157.788805630524
20
-8.28716927239583
30
0
41
1
10
158.582517463577
20
-8.28773748700394
30
0
41
1
10
159.259903454147
20
-8.28692717944594
30
0
41
1
10
159.671022260318
20
-8.28753346555149
30
0
41
1
10
159.75498021419
20
-8.28767271670239
30
0
0
SPLINE
5
A2
100
AcDbEntity
8
1
62
256
6
ByLayer
370
18
48
1
60
0
100
AcDbSpline
70
4
71
3
72
18
73
14
40
0
40
0
40
0
40
0
40
0.0487306667477467
40
0.133515496580253
40
0.225282138450079
40
0.345404534081884
40
0.468455406173118
40
0.593124728999827
40
0.714353423901857
40
0.810648491051145
40
0.897954079374131
40
0.979062579032442
40
1
40
1
40
1
40
1
41
1
10
110.760874734211
20
8.25761569854291
30
0
41
1
10
110.60109635407
20
8.25737901305868
30
0
41
1
10
110.163325026157
20
8.25684992075358
30
0
41
1
10
109.424668189804
20
8.25652597700818
30
0
41
1
10
108.451933559667
20
8.25701436737924
30
0
41
1
10
107.353725082308
20
8.25532770758971
30
0
41
1
10
106.14769214072
20
8.25540085282731
30
0
41
1
10
104.937971617444
20
8.25479365044689
30
0
41
1
10
103.815977093388
20
8.25410415218562
30
0
41
1
10
102.816655476679
20
8.25420412389715
30
0
41
1
10
101.948209349769
20
8.25334365244814
30
0
41
1
10
101.328703660668
20
8.2527962238714
30
0
41
1
10
100.993810425896
20
8.25267195891118
30
0
41
1
10
100.925091587282
20
8.25265183973383
30
0
0
SPLINE
5
A3
100
AcDbEntity
8
1
62
256
6
ByLayer
370
18
48
1
60
0
100
AcDbSpline
70
4
71
1
72
4
73
2
40
0
40
0
40
1
40
1
41
1
10
194.23836318707
20
-8.31205488364762
30
0
41
1
10
194.957164197531
20
-8.312324924574
30
0
0
SPLINE
5
A4
100
AcDbEntity
8
1
62
256
6
ByLayer
370
18
48
1
60
0
100
AcDbSpline
70
4
71
3
72
20
73
16
40
0
40
0
40
0
40
0
40
0.0135145940636499
40
0.0662249042168777
40
0.126743452357596
40
0.231648856409468
40
0.346028658376037
40
0.469684884868705
40
0.526225062351546
40
0.585138772717067
40
0.646468348201081
40
0.710428805678503
40
0.790556541839402
40
0.89573983663271
40
1
40
1
40
1
40
1
41
1
10
12.7825812242487
20
8.19765965783677
30
0
41
1
10
12.7404832963815
20
8.19764145023399
30
0
41
1
10
12.5341929277311
20
8.19754079854502
30
0
41
1
10
12.1393890837301
20
8.19713857849803
30
0
41
1
10
11.4599013473178
20
8.19650947517755
30
0
41
1
10
10.5883125257288
20
8.19640377583468
30
0
41
1
10
9.52008277084823
20
8.19641987934986
30
0
41
1
10
8.60289060906348
20
8.19533608544793
30
0
41
1
10
7.85804891551771
20
8.19483741259754
30
0
41
1
10
7.30736814206438
20
8.19456680230979
30
0
41
1
10
6.73363702563822
20
8.19434504960944
30
0
41
1
10
6.09398497971267
20
8.19408332290601
30
0
41
1
10
5.31770573798218
20
8.19368733539534
30
0
41
1
10
4.41566918922851
20
8.19317129388099
30
0
41
1
10
3.76329244498171
20
8.19281559115922
30
0
41
1
10
3.43853360119499
20
8.19263762293025
30
0
0
SPLINE
5
A5
100
AcDbEntity
8
1
62
256
6
ByLayer
370
18
48
1
60
0
100
AcDbSpline
70
4
71
3
72
22
73
18
40
0
40
0
40
0
40
0
40
0.009919237171834
40
0.0842438796006955
40
0.165344013740328
40
0.218433140100894
40
0.269008626364262
40
0.326901807754595
40
0.391462071587076
40
0.480788807309776
40
0.571046493233103
40
0.66711308816424
40
0.770968222116433
40
0.835391164809284
40
0.893561805586741
40
0.950557490948414
40
1
40
1
40
1
40
1
41
1
10
159.754590790118
20
8.28756358640189
30
0
41
1
10
159.721641265042
20
8.28750647125966
30
0
41
1
10
159.441802376798
20
8.28705683343392
30
0
41
1
10
158.892541814436
20
8.2875554141705
30
0
41
1
10
158.200004296964
20
8.28747441736468
30
0
41
1
10
157.586003099139
20
8.28695073443154
30
0
41
1
10
157.050216604243
20
8.28624489824432
30
0
41
1
10
156.48006873049
20
8.28536143411608
30
0
41
1
10
155.790174281756
20
8.28263888607407
30
0
41
1
10
154.973042906257
20
8.28174525628521
30
0
41
1
10
154.068227224304
20
8.2842883265416
30
0
41
1
10
153.114479347369
20
8.28475839288731
30
0
41
1
10
152.234010026738
20
8.28461460079131
30
0
41
1
10
151.48219570714
20
8.28359039970172
30
0
41
1
10
150.885558401806
20
8.283163491751
30
0
41
1
10
150.338787952285
20
8.28314864087207
30
0
41
1
10
149.985211329262
20
8.28316699866264
30
0
41
1
10
149.820975185497
20
8.28315347714994
30
0
0
SPLINE
5
A6
100
AcDbEntity
8
1
62
256
6
ByLayer
370
18
48
1
60
0
100
AcDbSpline
70
4
71
3
72
18
73
14
40
0
40
0
40
0
40
0
40
0.085003509194692
40
0.169301452842282
40
0.231124609305963
40
0.290173443974167
40
0.47727799297324
40
0.597484248130263
40
0.720583244339984
40
0.822320825683123
40
0.893740238383344
40
0.985034927900252
40
1
40
1
40
1
40
1
41
1
10
3.43852790837593
20
-8.19263738829264
30
0
41
1
10
3.70335246095044
20
-8.19278171577545
30
0
41
1
10
4.23081262384545
20
-8.19306942688064
30
0
41
1
10
4.9509218078538
20
-8.19348107698062
30
0
41
1
10
5.59016326973111
20
-8.1938190463172
30
0
41
1
10
6.54960881226242
20
-8.19434830851208
30
0
41
1
10
7.6901268936935
20
-8.19451922674557
30
0
41
1
10
9.03149807956268
20
-8.19567873362533
30
0
41
1
10
10.1059065382513
20
-8.19658108649432
30
0
41
1
10
11.0288088020386
20
-8.19634048322166
30
0
41
1
10
11.8527287563148
20
-8.19680430933252
30
0
41
1
10
12.4063194773406
20
-8.19752379371607
30
0
41
1
10
12.7373857296968
20
-8.1976194357164
30
0
41
1
10
12.7840113901805
20
-8.19763079534491
30
0
0
SPLINE
5
A7
100
AcDbEntity
8
SK1
62
256
6
ByLayer
370
18
48
1
60
0
100
AcDbSpline
70
4
71
3
72
8
73
4
40
0
40
0
40
0
40
0
40
1
40
1
40
1
40
1
41
1
10
-45.6
20
-7.30910876483398
30
0
41
1
10
-46.1544669003463
20
-6.39204148594149
30
0
41
1
10
-46.7067024974786
20
-5.47379606356446
30
0
41
1
10
-47.249895257255
20
-4.55090099233084
30
0
0
SPLINE
5
A8
100
AcDbEntity
8
SK1
62
256
6
ByLayer
370
18
48
1
60
0
100
AcDbSpline
70
4
71
3
72
14
73
10
40
0
40
0
40
0
40
0
40
0.124999999999996
40
0.124999999999996
40
0.249999999999992
40
0.249999999999992
40
0.499999999999994
40
0.499999999999994
40
1
40
1
40
1
40
1
41
1
10
-45.5
20
-7.52819601645959
30
0
41
1
10
-45.5
20
-7.5225535962781
30
0
41
1
10
-45.5017107697461
20
-7.51446828839059
30
0
41
1
10
-45.5068845888984
20
-7.49679050504236
30
0
41
1
10
-45.5102281895671
20
-7.48744018956194
30
0
41
1
10
-45.521528237522
20
-7.45853230007549
30
0
41
1
10
-45.5303630420009
20
-7.43906372971506
30
0
41
1
10
-45.558525242781
20
-7.38099757812623
30
0
41
1
10
-45.5788396428357
20
-7.34410719513332
30
0
41
1
10
-45.6
20
-7.30910876483398
30
0
0
SPLINE
5
A9
100
AcDbEntity
8
SK1
62
256
6
ByLayer
370
18
48
1
60
0
100
AcDbSpline
70
4
71
3
72
16
73
12
40
0
40
0
40
0
40
0
40
0.125
40
0.125
40
0.249999999999999
40
0.249999999999999
40
0.499999999999999
40
0.499999999999999
40
0.75
40
0.75
40
1
40
1
40
1
40
1
41
1
10
-47.249895257255
20
-4.55090099233084
30
0
41
1
10
-47.2737194682882
20
-4.484618162988
30
0
41
1
10
-47.2988357280251
20
-4.4176708014154
30
0
41
1
10
-47.3508869875661
20
-4.28469216605632
30
0
41
1
10
-47.3779371078252
20
-4.21833727929473
30
0
41
1
10
-47.4623439059646
20
-4.01977053520258
30
0
41
1
10
-47.5235262469784
20
-3.8869952672307
30
0
41
1
10
-47.6504441828909
20
-3.63534356690926
30
0
41
1
10
-47.7167999070243
20
-3.51485981655037
30
0
41
1
10
-47.8563133583792
20
-3.28729512377558
30
0
41
1
10
-47.9272961231708
20
-3.18371925419717
30
0
41
1
10
-48
20
-3.09155226309284
30
0
0
SPLINE
5
AA
100
AcDbEntity
8
SK1
62
256
6
ByLayer
370
18
48
1
60
0
100
AcDbSpline
70
4
71
3
72
10
73
6
40
0
40
0
40
0
40
0
40
0.5
40
0.5
40
1
40
1
40
1
40
1
41
1
10
-48
20
-4.49684396730612
30
0
41
1
10
-47.6125295974799
20
-5.17809972468194
30
0
41
1
10
-47.2140626796404
20
-5.85426005019565
30
0
41
1
10
-46.4112450842294
20
-7.20362899503553
30
0
41
1
10
-46.0063372972574
20
-7.87645485075032
30
0
41
1
10
-45.6
20
-8.54852136955543
30
0
0
SPLINE
5
AB
100
AcDbEntity
8
SK1
62
256
6
ByLayer
370
18
48
1
60
0
100
AcDbSpline
70
4
71
3
72
14
73
10
40
0
40
0
40
0
40
0
40
0.500000000000006
40
0.500000000000006
40
0.750000000000003
40
0.750000000000003
40
0.875000000000001
40
0.875000000000001
40
1
40
1
40
1
40
1
41
1
10
-45.6
20
-8.54852136955546
30
0
41
1
10
-45.5789465118595
20
-8.58334304253199
30
0
41
1
10
-45.5585985142981
20
-8.61603575752656
30
0
41
1
10
-45.5303873672755
20
-8.65912388304287
30
0
41
1
10
-45.5214287539013
20
-8.67238504748255
30
0
41
1
10
-45.5102864584886
20
-8.68758781422946
30
0
41
1
10
-45.50688945626
20
-8.69195831336364
30
0
41
1
10
-45.5017228477084
20
-8.69753951700926
30
0
41
1
10
-45.5
20
-8.69866542444709
30
0
41
1
10
-45.5
20
-8.69678504376844
30
0
0
SPLINE
5
AC
100
AcDbEntity
8
SK1
62
256
6
ByLayer
370
18
48
1
60
0
100
AcDbSpline
70
4
71
3
72
8
73
4
40
0
40
0
40
0
40
0
40
1
40
1
40
1
40
1
41
1
10
-48
20
4.49684396730612
30
0
41
1
10
-47.915215865403
20
4.6459125915228
30
0
41
1
10
-47.829905220109
20
4.79473724760024
30
0
41
1
10
-47.7441524508295
20
4.94335585709931
30
0
0
SPLINE
5
AD
100
AcDbEntity
8
1
62
256
6
ByLayer
370
18
48
1
60
0
100
AcDbSpline
70
4
71
3
72
12
73
8
40
0
40
0
40
0
40
0
40
0.249999999999993
40
0.249999999999993
40
0.499999999999985
40
0.499999999999985
40
1
40
1
40
1
40
1
41
1
10
194.918727553791
20
2.17403065653374
30
0
41
1
10
195.149135908662
20
2.17030158837966
30
0
41
1
10
195.379575149991
20
2.16631416193579
30
0
41
1
10
195.839956571062
20
2.16272030724281
30
0
41
1
10
196.070113921157
20
2.16110306838954
30
0
41
1
10
196.760489459065
20
2.15677119400766
30
0
41
1
10
197.22076882181
20
2.15372705348921
30
0
41
1
10
197.679937119784
20
2.15666741297312
30
0
0
SPLINE
5
AE
100
AcDbEntity
8
1
62
256
6
ByLayer
370
18
48
1
60
0
100
AcDbSpline
70
4
71
3
72
45
73
41
40
0
40
0
40
0
40
0
40
0.0625000000000012
40
0.0625000000000012
40
0.125000000000002
40
0.125000000000002
40
0.187500000000004
40
0.187500000000004
40
0.250000000000005
40
0.250000000000005
40
0.312500000000006
40
0.312500000000006
40
0.343750000000007
40
0.343750000000007
40
0.375000000000007
40
0.375000000000007
40
0.500000000000004
40
0.500000000000004
40
0.562500000000005
40
0.562500000000005
40
0.625000000000006
40
0.625000000000006
40
0.687500000000007
40
0.687500000000007
40
0.718750000000008
40
0.718750000000008
40
0.750000000000008
40
0.750000000000008
40
0.812500000000007
40
0.812500000000007
40
0.828125000000007
40
0.828125000000007
40
0.835937500000006
40
0.835937500000006
40
0.843750000000005
40
0.843750000000005
40
0.859375000000004
40
0.859375000000004
40
0.875000000000003
40
1
40
1
40
1
40
1
41
1
10
188.983004036169
20
-2.48231479037054
30
0
41
1
10
189.175364009908
20
-2.53866654373772
30
0
41
1
10
189.368134084795
20
-2.58909306616158
30
0
41
1
10
189.754503699052
20
-2.67796182707568
30
0
41
1
10
189.948416993705
20
-2.71642392688227
30
0
41
1
10
190.33581872495
20
-2.77937731843735
30
0
41
1
10
190.528467207306
20
-2.80441632003991
30
0
41
1
10
190.910612143612
20
-2.83521256956095
30
0
41
1
10
191.100196339539
20
-2.84150655731861
30
0
41
1
10
191.476539069987
20
-2.8368092485033
30
0
41
1
10
191.663232086224
20
-2.82541716004644
30
0
41
1
10
191.940751129851
20
-2.79291061029946
30
0
41
1
10
192.032837825656
20
-2.77950797603498
30
0
41
1
10
192.216083044865
20
-2.74702484256133
30
0
41
1
10
192.3073266252
20
-2.72790577824983
30
0
41
1
10
192.756054179827
20
-2.61792193787559
30
0
41
1
10
193.094262608971
20
-2.48203914000052
30
0
41
1
10
193.565473346238
20
-2.19497824890556
30
0
41
1
10
193.717156685514
20
-2.08451797224902
30
0
41
1
10
193.998887537583
20
-1.84029856982394
30
0
41
1
10
194.130091427927
20
-1.70623301695795
30
0
41
1
10
194.374325665401
20
-1.41561271348192
30
0
41
1
10
194.487359550236
20
-1.25906234067213
30
0
41
1
10
194.643829298014
20
-1.00804935011496
30
0
41
1
10
194.693892687299
20
-0.92150103836903
30
0
41
1
10
194.78902638252
20
-0.744571713444429
30
0
41
1
10
194.834176074649
20
-0.654089104564179
30
0
41
1
10
194.962830617852
20
-0.376968906405949
30
0
41
1
10
195.039587482302
20
-0.184487793914997
30
0
41
1
10
195.125203477532
20
0.0630098064503954
30
0
41
1
10
195.141816219218
20
0.112867580687293
30
0
41
1
10
195.165987810232
20
0.188132523764608
30
0
41
1
10
195.174780072631
20
0.213043611987388
30
0
41
1
10
195.182909519266
20
0.266807958666504
30
0
41
1
10
195.183035227823
20
0.295715675561894
30
0
41
1
10
195.175728653886
20
0.381582410923187
30
0
41
1
10
195.160068249896
20
0.438176677600865
30
0
41
1
10
195.132702846555
20
0.551603584554243
30
0
41
1
10
195.009457244699
20
1.06202180878938
30
0
41
1
10
194.885442339068
20
1.57234981172701
30
0
41
1
10
194.774782247086
20
2.02592429520169
30
0
0
SPLINE
5
AF
100
AcDbEntity
8
1
62
256
6
ByLayer
370
18
48
1
60
0
100
AcDbSpline
70
4
71
3
72
8
73
4
40
0
40
0
40
0
40
0
40
1
40
1
40
1
40
1
41
1
10
197.803686012664
20
-0.321852413727726
30
0
41
1
10
196.835156824761
20
-2.98286448757108
30
0
41
1
10
195.866627636857
20
-5.643876561414
30
0
41
1
10
194.898098448953
20
-8.30488863525861
30
0
0
SPLINE
5
B0
100
AcDbEntity
8
1
62
256
6
ByLayer
370
18
48
1
60
0
100
AcDbSpline
70
4
71
3
72
8
73
4
40
0
40
0
40
0
40
0
40
1
40
1
40
1
40
1
41
1
10
195.18851687687
20
8.50674103723904
30
0
41
1
10
195.063203690486
20
8.63017779967458
30
0
41
1
10
194.955808130593
20
8.70741736770017
30
0
41
1
10
194.86513564228
20
8.7366404598003
30
0
0
SPLINE
5
B1
100
AcDbEntity
8
1
62
256
6
ByLayer
370
18
48
1
60
0
100
AcDbSpline
70
4
71
3
72
8
73
4
40
0
40
0
40
0
40
0
40
1
40
1
40
1
40
1
41
1
10
197.975702502393
20
-0.00033489780526
30
0
41
1
10
197.918176727414
20
-0.10734036065324
30
0
41
1
10
197.860837808821
20
-0.214512786808342
30
0
41
1
10
197.80368601263
20
-0.32185241378744
30
0
0
SPLINE
5
B2
100
AcDbEntity
8
1
62
256
6
ByLayer
370
18
48
1
60
0
100
AcDbSpline
70
4
71
3
72
8
73
4
40
0
40
0
40
0
40
0
40
1
40
1
40
1
40
1
41
1
10
195.18851687687
20
-8.50674103723901
30
0
41
1
10
195.063203690486
20
-8.63017779967458
30
0
41
1
10
194.955808130593
20
-8.70741736770017
30
0
41
1
10
194.86513564228
20
-8.7366404598003
30
0
0
SPLINE
5
B3
100
AcDbEntity
8
1
62
256
6
ByLayer
370
18
48
1
60
0
100
AcDbSpline
70
4
71
3
72
32
73
28
40
0
40
0
40
0
40
0
40
0.087145892510926
40
0.087145892510926
40
0.185925145107095
40
0.185925145107095
40
0.284704397703263
40
0.284704397703263
40
0.4822629028956
40
0.4822629028956
40
0.531652529193684
40
0.531652529193684
40
0.543999935768205
40
0.543999935768205
40
0.550173639055465
40
0.550173639055465
40
0.556347342342726
40
0.556347342342726
40
0.581042155491768
40
0.581042155491768
40
0.679821408087937
40
0.679821408087937
40
0.778600660684106
40
0.778600660684106
40
0.877379913280275
40
0.877379913280275
40
1
40
1
40
1
40
1
41
1
10
10.9962002266949
20
4.70320797182572
30
0
41
1
10
10.9962002266949
20
4.4282004655123
30
0
41
1
10
10.9962002266949
20
4.14484899015565
30
0
41
1
10
10.9962002266949
20
3.52280068378866
30
0
41
1
10
10.9962002266949
20
3.18172207413647
30
0
41
1
10
10.9962002266949
20
2.478285921505
30
0
41
1
10
10.9962002266949
20
2.11761850369314
30
0
41
1
10
10.9962002266949
20
1.01194854228928
30
0
41
1
10
10.9962002266949
20
0.24224397383901
30
0
41
1
10
10.9962002266949
20
-0.760537925503797
30
0
41
1
10
10.9962002266949
20
-0.963155594393101
30
0
41
1
10
10.9962002266949
20
-1.21781324408218
30
0
41
1
10
10.9962002266949
20
-1.27112313271667
30
0
41
1
10
10.9962002266949
20
-1.35766652117917
30
0
41
1
10
10.9962002266949
20
-1.38804908374988
30
0
41
1
10
10.9962002266949
20
-1.44837235063673
30
0
41
1
10
10.9962002266949
20
-1.4785547697665
30
0
41
1
10
10.9962002266949
20
-1.6295712914486
30
0
41
1
10
10.9962002266949
20
-1.7507562013927
30
0
41
1
10
10.9962002266949
20
-2.35797454646172
30
0
41
1
10
10.9962002266948
20
-2.84575599903315
30
0
41
1
10
10.9962002266948
20
-3.82551923735127
30
0
41
1
10
10.9962002266949
20
-4.3175002770335
30
0
41
1
10
10.9962002266949
20
-5.30592601394102
30
0
41
1
10
10.9962002266949
20
-5.80347324157935
30
0
41
1
10
10.9962002266949
20
-6.91594128318837
30
0
41
1
10
10.9962002266949
20
-7.53058466094208
30
0
41
1
10
10.9962002266949
20
-8.1435995941728
30
0
0
SPLINE
5
B4
100
AcDbEntity
8
1
62
256
6
ByLayer
370
18
48
1
60
0
100
AcDbSpline
70
4
71
3
72
14
73
10
40
0
40
0
40
0
40
0
40
0.25
40
0.25
40
0.5
40
0.5
40
0.75
40
0.75
40
1
40
1
40
1
40
1
41
1
10
3.43872887220147
20
1.42941703204428
30
0
41
1
10
3.4075031198374
20
1.44567710495383
30
0
41
1
10
3.37711258262161
20
1.46249076380312
30
0
41
1
10
3.31814974307974
20
1.49742171075573
30
0
41
1
10
3.29123486014413
20
1.51455680290857
30
0
41
1
10
3.24334689021868
20
1.54805894574511
30
0
41
1
10
3.22380293017787
20
1.56344684676915
30
0
41
1
10
3.19590229429136
20
1.59015762346488
30
0
41
1
10
3.18841206112023
20
1.6007154322802
30
0
41
1
10
3.18841206112023
20
1.60747009545995
30
0
0
SPLINE
5
B5
100
AcDbEntity
8
1
62
256
6
ByLayer
370
18
48
1
60
0
100
AcDbSpline
70
4
71
3
72
10
73
6
40
0
40
0
40
0
40
0
40
0.5
40
0.5
40
1
40
1
40
1
40
1
41
1
10
197.951645684778
20
-0.254120832363071
30
0
41
1
10
197.955031124826
20
-0.226828540147864
30
0
41
1
10
197.961372712344
20
-0.195127571656656
30
0
41
1
10
197.978010425538
20
-0.126274243982351
30
0
41
1
10
197.988117693074
20
-0.0900540619427943
30
0
41
1
10
197.999960860901
20
-0.0524781894967248
30
0
0
SPLINE
5
B6
100
AcDbEntity
8
1
62
256
6
ByLayer
370
18
48
1
60
0
100
AcDbSpline
70
4
71
3
72
40
73
36
40
0
40
0
40
0
40
0
40
0.0625000000000002
40
0.0625000000000002
40
0.0937500000000003
40
0.0937500000000003
40
0.125
40
0.125
40
0.187500000000001
40
0.187500000000001
40
0.218750000000001
40
0.218750000000001
40
0.250000000000001
40
0.250000000000001
40
0.312500000000001
40
0.312500000000001
40
0.375000000000002
40
0.375000000000002
40
0.437500000000002
40
0.437500000000002
40
0.500000000000002
40
0.500000000000002
40
0.625000000000003
40
0.625000000000003
40
0.656250000000002
40
0.656250000000002
40
0.687500000000001
40
0.687500000000001
40
0.750000000000001
40
0.750000000000001
40
0.812500000000001
40
0.812500000000001
40
0.875000000000001
40
0.875000000000001
40
1
40
1
40
1
40
1
41
1
10
4.421440680052
20
0.915805083755885
30
0
41
1
10
4.3736844289385
20
0.607401270875215
30
0
41
1
10
4.35047966039315
20
0.298388178905356
30
0
41
1
10
4.34780055174329
20
-0.165952601155254
30
0
41
1
10
4.35228751722809
20
-0.320870287015595
30
0
41
1
10
4.37145730438624
20
-0.63097023279019
30
0
41
1
10
4.38623613167886
20
-0.786811821951204
30
0
41
1
10
4.44439569048367
20
-1.24888729782003
30
0
41
1
10
4.50125104264171
20
-1.54965342139886
30
0
41
1
10
4.60881938180825
20
-1.99127425366834
30
0
41
1
10
4.64841460578589
20
-2.13688481782162
30
0
41
1
10
4.73453445986195
20
-2.42505979109035
30
0
41
1
10
4.78113869038089
20
-2.5677693171383
30
0
41
1
10
4.92861008396241
20
-2.98592787162019
30
0
41
1
10
5.03761333834439
20
-3.25345296764189
30
0
41
1
10
5.27321338896212
20
-3.76888825376739
30
0
41
1
10
5.39983411862178
20
-4.01677906071464
30
0
41
1
10
5.66874394660209
20
-4.4944174855826
30
0
41
1
10
5.81179373511102
20
-4.72512811934143
30
0
41
1
10
6.10687875748394
20
-5.16057746297315
30
0
41
1
10
6.25933358471895
20
-5.36625212637725
30
0
41
1
10
6.73058916882653
20
-5.95003458212736
30
0
41
1
10
7.0630207396643
20
-6.29516476349897
30
0
41
1
10
7.50363702033994
20
-6.67501402319584
30
0
41
1
10
7.59313119905735
20
-6.74844252424271
30
0
41
1
10
7.77330165648061
20
-6.8889871168125
30
0
41
1
10
7.86414904707462
20
-6.95625896164665
30
0
41
1
10
8.13912954276
20
-7.14937244449453
30
0
41
1
10
8.32569528741482
20
-7.2665248317789
30
0
41
1
10
8.70628987961697
20
-7.47888132342493
30
0
41
1
10
8.90031924898079
20
-7.57408412511566
30
0
41
1
10
9.29696774717638
20
-7.74344551896982
30
0
41
1
10
9.49980315190504
20
-7.81765399312448
30
0
41
1
10
10.1219050052192
20
-8.00921645746692
30
0
41
1
10
10.5501435444363
20
-8.09425847832983
30
0
41
1
10
10.9962002266949
20
-8.14359959417274
30
0
0
SPLINE
5
B7
100
AcDbEntity
8
1
62
256
6
ByLayer
370
18
48
1
60
0
100
AcDbSpline
70
4
71
3
72
14
73
10
40
0
40
0
40
0
40
0
40
0.25
40
0.25
40
0.5
40
0.5
40
0.75
40
0.75
40
1
40
1
40
1
40
1
41
1
10
194.774782247086
20
2.02592429520172
30
0
41
1
10
194.769931607654
20
2.04580613548782
30
0
41
1
10
194.768668173933
20
2.06673722657365
30
0
41
1
10
194.777670229899
20
2.10630932935081
30
0
41
1
10
194.78848571108
20
2.12494258037393
30
0
41
1
10
194.819207134621
20
2.15258685977565
30
0
41
1
10
194.838261400458
20
2.16161889945289
30
0
41
1
10
194.877608049808
20
2.17240660110474
30
0
41
1
10
194.89823749169
20
2.17436228009004
30
0
41
1
10
194.918727553791
20
2.17403065653366
30
0
0
SPLINE
5
B8
100
AcDbEntity
8
1
62
256
6
ByLayer
370
18
48
1
60
0
100
AcDbSpline
70
4
71
3
72
14
73
10
40
0
40
0
40
0
40
0
40
0.125
40
0.125
40
0.25
40
0.25
40
0.5
40
0.5
40
1
40
1
40
1
40
1
41
1
10
195.18851687687
20
-8.50674103723904
30
0
41
1
10
195.293608639536
20
-8.24339849887832
30
0
41
1
10
195.398636448323
20
-7.97991900195265
30
0
41
1
10
195.608633057355
20
-7.45277883638454
30
0
41
1
10
195.713581179228
20
-7.18909831119686
30
0
41
1
10
196.02793511994
20
-6.39747246709157
30
0
41
1
10
196.236932712223
20
-5.86901714245212
30
0
41
1
10
196.861271008556
20
-4.28113605022807
30
0
41
1
10
197.27371570015
20
-3.21932731911596
30
0
41
1
10
197.679937119784
20
-2.15666741297318
30
0
0
SPLINE
5
B9
100
AcDbEntity
8
1
62
256
6
ByLayer
370
18
48
1
60
0
100
AcDbSpline
70
4
71
3
72
14
73
10
40
0
40
0
40
0
40
0
40
0.295073676289224
40
0.295073676289224
40
0.442610514433836
40
0.442610514433836
40
0.590147352578449
40
0.590147352578449
40
1
40
1
40
1
40
1
41
1
10
195.018291592251
20
-8.30154893544056
30
0
41
1
10
194.015166728185
20
-8.32848960376469
30
0
41
1
10
193.014944064189
20
-8.3034339359495
30
0
41
1
10
191.513591651677
20
-8.18960088422739
30
0
41
1
10
191.012967008525
20
-8.13894791326786
30
0
41
1
10
190.010242226399
20
-8.0125132180396
30
0
41
1
10
189.507415987809
20
-7.93657339324764
30
0
41
1
10
187.616610779325
20
-7.60516969587476
30
0
41
1
10
186.238525780947
20
-7.26999847924941
30
0
41
1
10
184.862107756675
20
-6.85539564496386
30
0
0
SPLINE
5
BA
100
AcDbEntity
8
1
62
256
6
ByLayer
370
13
48
1
60
0
100
AcDbSpline
70
4
71
3
72
28
73
24
40
0
40
0
40
0
40
0
40
0.0941325378477036
40
0.0941325378477036
40
0.248191628630952
40
0.248191628630952
40
0.325221174022575
40
0.325221174022575
40
0.402250719414198
40
0.402250719414198
40
0.556309810197444
40
0.556309810197444
40
0.633339355589068
40
0.633339355589068
40
0.710368900980693
40
0.710368900980693
40
0.864427991763942
40
0.864427991763942
40
0.902942764459753
40
0.902942764459753
40
0.941457537155564
40
0.941457537155564
40
1
40
1
40
1
40
1
41
1
10
184.862107472307
20
-6.85539555930688
30
0
41
1
10
184.256619513333
20
-6.67301126459699
30
0
41
1
10
183.651454135507
20
-6.4752559132568
30
0
41
1
10
182.054341514842
20
-5.91602872163944
30
0
41
1
10
181.061437574377
20
-5.53043408160067
30
0
41
1
10
179.563832422115
20
-4.90158074503938
30
0
41
1
10
179.063021133526
20
-4.68340968109052
30
0
41
1
10
178.058616248615
20
-4.23202299226875
30
0
41
1
10
177.55729058923
20
-3.99987070651977
30
0
41
1
10
176.054561523901
20
-3.28647880516863
30
0
41
1
10
175.054266899607
20
-2.78848979039975
30
0
41
1
10
173.550071672185
20
-2.01849039622806
30
0
41
1
10
173.047469326503
20
-1.75762714776391
30
0
41
1
10
172.044131328165
20
-1.23240868259069
30
0
41
1
10
171.543165370588
20
-0.967943927921681
30
0
41
1
10
170.04098342143
20
-0.171607769577633
30
0
41
1
10
169.04040761497
20
0.363061878557517
30
0
41
1
10
167.785671527836
20
1.02646013936669
30
0
41
1
10
167.534316187153
20
1.15901037016138
30
0
41
1
10
167.032738439298
20
1.42249187990197
30
0
41
1
10
166.782386728403
20
1.55348786054256
30
0
41
1
10
166.152434461934
20
1.88143330494125
30
0
41
1
10
165.773320816293
20
2.07726209420042
30
0
41
1
10
165.394859704348
20
2.27075211334145
30
0
0
SPLINE
5
BB
100
AcDbEntity
8
1
62
256
6
ByLayer
370
18
48
1
60
0
100
AcDbSpline
70
4
71
3
72
12
73
8
40
0
40
0
40
0
40
0
40
0.287349719422277
40
0.287349719422277
40
0.88975990055898
40
0.88975990055898
40
1
40
1
40
1
40
1
41
1
10
96.1112781339729
20
-8.2500572725441
30
0
41
1
10
95.1554489990406
20
-8.24585707595935
30
0
41
1
10
94.1992869693876
20
-8.19522080427183
30
0
41
1
10
91.228096340352
20
-7.89483735713532
30
0
41
1
10
89.2460833273407
20
-7.49236478436347
30
0
41
1
10
86.8986408643793
20
-6.81695375253187
30
0
41
1
10
86.5354509382691
20
-6.70682412899427
30
0
41
1
10
86.1720038404166
20
-6.59125114055405
30
0
0
SPLINE
5
BC
100
AcDbEntity
8
1
62
256
6
ByLayer
370
13
48
1
60
0
100
AcDbSpline
70
4
71
3
72
22
73
18
40
0
40
0
40
0
40
0
40
0.102689162655837
40
0.102689162655837
40
0.183673898124078
40
0.183673898124078
40
0.264658633592319
40
0.264658633592319
40
0.588597575465292
40
0.588597575465292
40
0.750567046401778
40
0.750567046401778
40
0.831551781870021
40
0.831551781870021
40
0.912536517338263
40
0.912536517338263
40
1
40
1
40
1
40
1
41
1
10
86.1720038378431
20
-6.5912511397357
30
0
41
1
10
85.5424173981151
20
-6.39104817548954
30
0
41
1
10
84.9120592529355
20
-6.17451109022443
30
0
41
1
10
83.7813929380143
20
-5.75991032634724
30
0
41
1
10
83.2817967852675
20
-5.56754198305114
30
0
41
1
10
82.2793232631508
20
-5.16504225734516
30
0
41
1
10
81.7754055797395
20
-4.95448244120061
30
0
41
1
10
79.2682531747825
20
-3.86985966759295
30
0
41
1
10
77.2884816660176
20
-2.89622580346472
30
0
41
1
10
74.3103097480414
20
-1.36419986841773
30
0
41
1
10
73.3161914470142
20
-0.841549040344972
30
0
41
1
10
71.8171359645085
20
-0.0504797060567626
30
0
41
1
10
71.3161080940662
20
0.214343050276284
30
0
41
1
10
70.3103448629606
20
0.744328423584307
30
0
41
1
10
69.8082666498465
20
1.00818532292252
30
0
41
1
10
68.7679414035458
20
1.55077116166609
30
0
41
1
10
68.2293789113992
20
1.82927430160578
30
0
41
1
10
67.6918164119218
20
2.10347931884985
30
0
0
SPLINE
5
BD
100
AcDbEntity
8
1
62
256
6
ByLayer
370
18
48
1
60
0
100
AcDbSpline
70
4
71
3
72
8
73
4
40
0
40
0
40
0
40
0
40
1
40
1
40
1
40
1
41
1
10
4.42144068005203
20
0.915805083755856
30
0
41
1
10
4.09527338498839
20
1.08676555502828
30
0
41
1
10
3.76769311716447
20
1.25811667247641
30
0
41
1
10
3.43872887220147
20
1.42941703204428
30
0
0
SPLINE
5
BE
100
AcDbEntity
8
1
62
256
6
ByLayer
370
18
48
1
60
0
100
AcDbSpline
70
4
71
3
72
8
73
4
40
0
40
0
40
0
40
0
40
1
40
1
40
1
40
1
41
1
10
197.999960860901
20
0.0524781894959858
30
0
41
1
10
198.000013046366
20
0.0174927298317584
30
0
41
1
10
198.000013046366
20
-0.0174927298324974
30
0
41
1
10
197.999960860901
20
-0.0524781894967248
30
0
0
SPLINE
5
BF
100
AcDbEntity
8
1
62
256
6
ByLayer
370
18
48
1
60
0
100
AcDbSpline
70
4
71
3
72
8
73
4
40
0
40
0
40
0
40
0
40
1
40
1
40
1
40
1
41
1
10
194.86513564228
20
8.7366404598003
30
0
41
1
10
194.578921148329
20
8.74527397915566
30
0
41
1
10
194.292508854878
20
8.74947413771292
30
0
41
1
10
194.006200484095
20
8.74925510599724
30
0
0
SPLINE
5
C0
100
AcDbEntity
8
1
62
256
6
ByLayer
370
18
48
1
60
0
100
AcDbSpline
70
4
71
3
72
64
73
60
40
0
40
0
40
0
40
0
40
0.0239091307426047
40
0.0239091307426047
40
0.0517100666053214
40
0.0517100666053214
40
0.107311938330755
40
0.107311938330755
40
0.135112874193472
40
0.135112874193472
40
0.162913810056188
40
0.162913810056188
40
0.190714745918905
40
0.190714745918905
40
0.218515681781622
40
0.218515681781622
40
0.274117553507056
40
0.274117553507056
40
0.301918489369772
40
0.301918489369772
40
0.329719425232489
40
0.329719425232489
40
0.385321296957923
40
0.385321296957923
40
0.41312223282064
40
0.41312223282064
40
0.440923168683358
40
0.440923168683358
40
0.468724104546075
40
0.468724104546075
40
0.496525040408792
40
0.496525040408792
40
0.552126912134226
40
0.552126912134226
40
0.579927847996943
40
0.579927847996943
40
0.607728783859659
40
0.607728783859659
40
0.663330655585094
40
0.663330655585094
40
0.691131591447812
40
0.691131591447812
40
0.718932527310529
40
0.718932527310529
40
0.774534399035965
40
0.774534399035965
40
0.830136270761401
40
0.830136270761401
40
0.857937206624119
40
0.857937206624119
40
0.885738142486837
40
0.885738142486837
40
0.941340014212274
40
0.941340014212274
40
0.969140950074992
40
0.969140950074992
40
0.99694188593771
40
0.99694188593771
40
1
40
1
40
1
40
1
41
1
10
149.819226044184
20
-8.31023292269686
30
0
41
1
10
149.390583216565
20
-8.38272646268544
30
0
41
1
10
148.961388684901
20
-8.44587102996164
30
0
41
1
10
148.032814889004
20
-8.56155921670882
30
0
41
1
10
147.534464106112
20
-8.61059497409207
30
0
41
1
10
146.040337604558
20
-8.71793601079713
30
0
41
1
10
145.045412716331
20
-8.73646800728554
30
0
41
1
10
143.548394797232
20
-8.68394766906982
30
0
41
1
10
143.048854542541
20
-8.65303021201814
30
0
41
1
10
142.052009876802
20
-8.56494593796734
30
0
41
1
10
141.554124993841
20
-8.50775815499489
30
0
41
1
10
140.558258368901
20
-8.36760172983358
30
0
41
1
10
140.060267617232
20
-8.28464255622217
30
0
41
1
10
139.063193849312
20
-8.09339988601639
30
0
41
1
10
138.563504463826
20
-7.9849479713414
30
0
41
1
10
137.066757154611
20
-7.6238748324179
30
0
41
1
10
136.071710825741
20
-7.33570190135373
30
0
41
1
10
134.577063765163
20
-6.83839687551301
30
0
41
1
10
134.078495124171
20
-6.66179057993054
30
0
41
1
10
133.079499870321
20
-6.28805810153702
30
0
41
1
10
132.58069726189
20
-6.0915279663962
30
0
41
1
10
131.085822224845
20
-5.47550389187236
30
0
41
1
10
130.090794316362
20
-5.02946777050286
30
0
41
1
10
128.593999964342
20
-4.3166969462726
30
0
41
1
10
128.094140418898
20
-4.07161124766509
30
0
41
1
10
127.0967397594
20
-3.57093940359968
30
0
41
1
10
126.598604072695
20
-3.31511399461061
30
0
41
1
10
125.602448083088
20
-2.79420427269454
30
0
41
1
10
125.104456063391
20
-2.5290705748906
30
0
41
1
10
124.107454529056
20
-1.99145999780947
30
0
41
1
10
123.607909826484
20
-1.7187212280038
30
0
41
1
10
122.110016048033
20
-0.894236845076676
30
0
41
1
10
121.114689230089
20
-0.337476970436938
30
0
41
1
10
119.619896871611
20
0.496252746328821
30
0
41
1
10
119.12137816735
20
0.774010014007018
30
0
41
1
10
118.122661842208
20
1.3271138899255
30
0
41
1
10
117.623154221737
20
1.60204162622892
30
0
41
1
10
116.127445386411
20
2.41652901378367
30
0
41
1
10
115.132300844975
20
2.94713919458664
30
0
41
1
10
113.635655457737
20
3.71259669332505
30
0
41
1
10
113.135655982191
20
3.96308265992226
30
0
41
1
10
112.137660259982
20
4.45005723698654
30
0
41
1
10
111.639298469076
20
4.68666979888417
30
0
41
1
10
110.144490180141
20
5.37352971968741
30
0
41
1
10
109.148304780866
20
5.80149662814128
30
0
41
1
10
107.149547958672
20
6.5827774802525
30
0
41
1
10
106.153853722236
20
6.93400330573718
30
0
41
1
10
104.658823804955
20
7.39430448636978
30
0
41
1
10
104.160288408371
20
7.53671511738693
30
0
41
1
10
103.16179817563
20
7.79839155453635
30
0
41
1
10
102.661823615756
20
7.91756649050717
30
0
41
1
10
101.165321758528
20
8.23723324574226
30
0
41
1
10
100.169874376145
20
8.40060600678746
30
0
41
1
10
98.6733889396538
20
8.5675900569772
30
0
41
1
10
98.1734531232453
20
8.61028532998836
30
0
41
1
10
97.1747324039777
20
8.66893626371498
30
0
41
1
10
96.6760952694099
20
8.68492589770813
30
0
41
1
10
96.1228527290085
20
8.68790727631293
30
0
41
1
10
96.0680295336148
20
8.68804164287758
30
0
41
1
10
96.0132084084213
20
8.68801497239784
30
0
0
SPLINE
5
C1
100
AcDbEntity
8
1
62
256
6
ByLayer
370
18
48
1
60
0
100
AcDbSpline
70
4
71
3
72
56
73
52
40
0
40
0
40
0
40
0
40
0.0125261475244332
40
0.0125261475244332
40
0.0742432633041547
40
0.0742432633041547
40
0.105101821194015
40
0.105101821194015
40
0.135960379083877
40
0.135960379083877
40
0.166818936973738
40
0.166818936973738
40
0.197677494863599
40
0.197677494863599
40
0.259394610643321
40
0.259394610643321
40
0.290253168533183
40
0.290253168533183
40
0.321111726423045
40
0.321111726423045
40
0.382828842202768
40
0.382828842202768
40
0.413687400092629
40
0.413687400092629
40
0.444545957982491
40
0.444545957982491
40
0.506263073762214
40
0.506263073762214
40
0.567980189541938
40
0.567980189541938
40
0.598838747431799
40
0.598838747431799
40
0.629697305321661
40
0.629697305321661
40
0.691414421101385
40
0.691414421101385
40
0.722272978991247
40
0.722272978991247
40
0.753131536881108
40
0.753131536881108
40
0.814848652660831
40
0.814848652660831
40
0.845707210550693
40
0.845707210550693
40
0.876565768440555
40
0.876565768440555
40
0.907424326330416
40
0.907424326330416
40
0.938282884220278
40
0.938282884220278
40
1
40
1
40
1
40
1
41
1
10
51.873149358112
20
-8.24274303938802
30
0
41
1
10
51.6703413502887
20
-8.27718053695574
30
0
41
1
10
51.4676197868561
20
-8.30951261094876
30
0
41
1
10
50.2668769728952
20
-8.4884493253218
30
0
41
1
10
49.2704734300457
20
-8.58564375782532
30
0
41
1
10
47.7721329183523
20
-8.6519463233771
30
0
41
1
10
47.2714995407519
20
-8.66076775634212
30
0
41
1
10
46.2723616704178
20
-8.65170761993315
30
0
41
1
10
45.7735307692029
20
-8.63385784948008
30
0
41
1
10
44.7759907396584
20
-8.57178630516529
30
0
41
1
10
44.2772874072264
20
-8.52757384089333
30
0
41
1
10
43.2790272127528
20
-8.41306166646791
30
0
41
1
10
42.7792709797361
20
-8.34267759601528
30
0
41
1
10
41.2788299884915
20
-8.09310076761295
30
0
41
1
10
40.2818779448667
20
-7.87641739035499
30
0
41
1
10
38.7852277597932
20
-7.48095482394908
30
0
41
1
10
38.2860911656401
20
-7.3374371133344
30
0
41
1
10
37.2863315726352
20
-7.02780278947051
30
0
41
1
10
36.7858774722164
20
-6.86167270994818
30
0
41
1
10
35.2878231515467
20
-6.3336734641494
30
0
41
1
10
34.2911934501949
20
-5.94140283090215
30
0
41
1
10
32.7929732250867
20
-5.30076677715942
30
0
41
1
10
32.2923768824966
20
-5.07827984274522
30
0
41
1
10
31.2926129265726
20
-4.61894314422733
30
0
41
1
10
30.7934968061248
20
-4.38211523569066
30
0
41
1
10
29.2966927394548
20
-3.65297134116165
30
0
41
1
10
28.2996273407306
20
-3.14186670893631
30
0
41
1
10
26.2982741657348
20
-2.08402610606834
30
0
41
1
10
25.3003732524314
20
-1.54085720574153
30
0
41
1
10
23.803402903498
20
-0.716842341624471
30
0
41
1
10
23.3043154482234
20
-0.440523803364101
30
0
41
1
10
22.3048243674693
20
0.113395387355297
30
0
41
1
10
21.8040694947437
20
0.391143757531268
30
0
41
1
10
20.3051265061005
20
1.21907154413358
30
0
41
1
10
19.3081014652062
20
1.76519638982265
30
0
41
1
10
17.8098739809695
20
2.56479346628015
30
0
41
1
10
17.3095656362239
20
2.82834498680629
30
0
41
1
10
16.3091821610265
20
3.34578823936755
30
0
41
1
10
15.8098034105443
20
3.59929530175387
30
0
41
1
10
14.3123890427267
20
4.3414516296537
30
0
41
1
10
13.3151334087705
20
4.8118345227727
30
0
41
1
10
11.8144336224162
20
5.47083931738888
30
0
41
1
10
11.3139062358585
20
5.68248991156656
30
0
41
1
10
10.3145247711741
20
6.08691579798466
30
0
41
1
10
9.81517924481901
20
6.27989855037239
30
0
41
1
10
8.81613199190889
20
6.64610199388164
30
0
41
1
10
8.31645236153207
20
6.81934710096817
30
0
41
1
10
7.31562728397532
20
7.14469803471295
30
0
41
1
10
6.81537611879062
20
7.29648593462534
30
0
41
1
10
5.31642372272697
20
7.71681391048278
30
0
41
1
10
4.31819508929317
20
7.95070427019991
30
0
41
1
10
3.3173136766398
20
8.13509753460002
30
0
0
SPLINE
5
C2
100
AcDbEntity
8
1
62
256
6
ByLayer
370
18
48
1
60
0
100
AcDbSpline
70
4
71
3
72
142
73
138
40
0
40
0
40
0
40
0
40
0.0042154169302783
40
0.0042154169302783
40
0.0257226608507116
40
0.0257226608507116
40
0.0472299047711449
40
0.0472299047711449
40
0.0579835267313616
40
0.0579835267313616
40
0.0687371486915783
40
0.0687371486915783
40
0.0902443926120106
40
0.0902443926120106
40
0.100998014572227
40
0.100998014572227
40
0.111751636532443
40
0.111751636532443
40
0.133258880452875
40
0.133258880452875
40
0.144012502413091
40
0.144012502413091
40
0.154766124373308
40
0.154766124373308
40
0.17627336829374
40
0.17627336829374
40
0.197780612214172
40
0.197780612214172
40
0.208534234174389
40
0.208534234174389
40
0.219287856134606
40
0.219287856134606
40
0.240795100055039
40
0.240795100055039
40
0.251548722015255
40
0.251548722015255
40
0.262302343975471
40
0.262302343975471
40
0.273055965935687
40
0.273055965935687
40
0.283809587895904
40
0.283809587895904
40
0.305316831816336
40
0.305316831816336
40
0.316070453776552
40
0.316070453776552
40
0.326824075736768
40
0.326824075736768
40
0.3483313196572
40
0.3483313196572
40
0.359084941617415
40
0.359084941617415
40
0.36983856357763
40
0.36983856357763
40
0.380592185537845
40
0.380592185537845
40
0.39134580749806
40
0.39134580749806
40
0.412853051418491
40
0.412853051418491
40
0.423606673378707
40
0.423606673378707
40
0.434360295338922
40
0.434360295338922
40
0.455867539259352
40
0.455867539259352
40
0.477374783179782
40
0.477374783179782
40
0.498882027100213
40
0.498882027100213
40
0.509635649060428
40
0.509635649060428
40
0.520389271020644
40
0.520389271020644
40
0.531142892980859
40
0.531142892980859
40
0.541896514941075
40
0.541896514941075
40
0.563403758861507
40
0.563403758861507
40
0.574157380821724
40
0.574157380821724
40
0.58491100278194
40
0.58491100278194
40
0.606418246702373
40
0.606418246702373
40
0.627925490622807
40
0.627925490622807
40
0.64943273454324
40
0.64943273454324
40
0.660186356503457
40
0.660186356503457
40
0.670939978463673
40
0.670939978463673
40
0.692447222384106
40
0.692447222384106
40
0.713954466304538
40
0.713954466304538
40
0.724708088264754
40
0.724708088264754
40
0.73546171022497
40
0.73546171022497
40
0.756968954145403
40
0.756968954145403
40
0.767722576105619
40
0.767722576105619
40
0.778476198065835
40
0.778476198065835
40
0.799983441986266
40
0.799983441986266
40
0.810737063946482
40
0.810737063946482
40
0.821490685906697
40
0.821490685906697
40
0.842997929827127
40
0.842997929827127
40
0.864505173747557
40
0.864505173747557
40
0.875258795707772
40
0.875258795707772
40
0.886012417667986
40
0.886012417667986
40
0.907519661588415
40
0.907519661588415
40
0.91827328354863
40
0.91827328354863
40
0.929026905508844
40
0.929026905508844
40
0.939780527469059
40
0.939780527469059
40
0.950534149429274
40
0.950534149429274
40
0.972041393349703
40
0.972041393349703
40
0.993548637270132
40
0.993548637270132
40
1
40
1
40
1
40
1
41
1
10
175.340142556335
20
-4.48714566546738
30
0
41
1
10
175.249952311916
20
-4.52744686194202
30
0
41
1
10
175.159770512917
20
-4.56747468152261
30
0
41
1
10
174.609508467387
20
-4.81001993155422
30
0
41
1
10
174.149985053014
20
-5.00655413199408
30
0
41
1
10
173.231733950983
20
-5.38770082238332
30
0
41
1
10
172.773369779369
20
-5.57216380228297
30
0
41
1
10
172.084476829228
20
-5.83549562932291
30
0
41
1
10
171.854686453414
20
-5.92108987984506
30
0
41
1
10
171.394956103041
20
-6.08864581852424
30
0
41
1
10
171.165598150332
20
-6.17149048471936
30
0
41
1
10
170.476026402778
20
-6.41314330766241
30
0
41
1
10
170.015034832273
20
-6.56552636061738
30
0
41
1
10
169.322705718846
20
-6.78139503121434
30
0
41
1
10
169.091591837862
20
-6.85099667562611
30
0
41
1
10
168.629020344468
20
-6.98600895377726
30
0
41
1
10
168.397628756575
20
-7.05157529275567
30
0
41
1
10
167.70216870835
20
-7.24194154333566
30
0
41
1
10
167.235744214746
20
-7.35969358128827
30
0
41
1
10
166.538427320218
20
-7.5203891639305
30
0
41
1
10
166.306656465159
20
-7.57167840504482
30
0
41
1
10
165.842608750259
20
-7.66832831342401
30
0
41
1
10
165.610556416576
20
-7.71393740653119
30
0
41
1
10
164.914204427723
20
-7.84390265330856
30
0
41
1
10
164.450208239364
20
-7.92117205073924
30
0
41
1
10
163.522754831038
20
-8.05320919703348
30
0
41
1
10
163.05909092327
20
-8.10774407103895
30
0
41
1
10
162.361754050115
20
-8.17406325340593
30
0
41
1
10
162.128856789876
20
-8.19372891848349
30
0
41
1
10
161.663826498275
20
-8.2280012919413
30
0
41
1
10
161.431538430296
20
-8.24239272608162
30
0
41
1
10
160.735587812393
20
-8.27679496600831
30
0
41
1
10
160.272718762311
20
-8.28716056483952
30
0
41
1
10
159.580293936661
20
-8.28767767018931
30
0
41
1
10
159.349632819432
20
-8.28540039512635
30
0
41
1
10
158.889155027917
20
-8.27555000950332
30
0
41
1
10
158.659205641172
20
-8.26791382748891
30
0
41
1
10
158.199399646727
20
-8.24706344583569
30
0
41
1
10
157.969543530788
20
-8.23385886349138
30
0
41
1
10
157.509918417603
20
-8.20199446211245
30
0
41
1
10
157.27993744881
20
-8.18340292446305
30
0
41
1
10
156.592011452057
20
-8.11922601639023
30
0
41
1
10
156.133202103586
20
-8.06656802470695
30
0
41
1
10
155.444243740064
20
-7.97260476754539
30
0
41
1
10
155.214667823913
20
-7.93863802639925
30
0
41
1
10
154.755345193038
20
-7.86502685211659
30
0
41
1
10
154.525545219069
20
-7.82524517002861
30
0
41
1
10
153.836368947101
20
-7.69810120675325
30
0
41
1
10
153.376376356709
20
-7.60400117123413
30
0
41
1
10
152.684279624181
20
-7.44837369244598
30
0
41
1
10
152.453129158698
20
-7.39418894224727
30
0
41
1
10
151.991396132756
20
-7.27955887539699
30
0
41
1
10
151.760129948638
20
-7.21952561629419
30
0
41
1
10
151.296664970843
20
-7.09464431449098
30
0
41
1
10
151.064455521854
20
-7.03010138121772
30
0
41
1
10
150.599302587131
20
-6.89668957877791
30
0
41
1
10
150.366490148836
20
-6.82750904510749
30
0
41
1
10
149.669022181692
20
-6.61387752657603
30
0
41
1
10
149.205243483016
20
-6.46229314315511
30
0
41
1
10
148.509616210802
20
-6.22106515036123
30
0
41
1
10
148.277676866076
20
-6.13873724092505
30
0
41
1
10
147.813673541811
20
-5.97082426289063
30
0
41
1
10
147.581623178124
20
-5.88509761162288
30
0
41
1
10
146.886625401538
20
-5.62044350593115
30
0
41
1
10
146.422583718782
20
-5.43708259698698
30
0
41
1
10
145.493118925099
20
-5.05501781814283
30
0
41
1
10
145.02747774473
20
-4.85676669443953
30
0
41
1
10
144.098269931386
20
-4.44782266552576
30
0
41
1
10
143.634082935537
20
-4.23808873970253
30
0
41
1
10
142.937777907696
20
-3.91533735260216
30
0
41
1
10
142.705868136814
20
-3.80614872310986
30
0
41
1
10
142.242484882662
20
-3.58492929334659
30
0
41
1
10
142.010688041098
20
-3.47340516235502
30
0
41
1
10
141.546773817467
20
-3.24863389857506
30
0
41
1
10
141.314608745379
20
-3.13547280223415
30
0
41
1
10
140.850297416148
20
-2.90673624601621
30
0
41
1
10
140.618192943733
20
-2.79107835465311
30
0
41
1
10
139.921240816788
20
-2.4411502688674
30
0
41
1
10
139.456196097687
20
-2.20218881091557
30
0
41
1
10
138.758745627295
20
-1.84283010166806
30
0
41
1
10
138.526305691363
20
-1.72271370751955
30
0
41
1
10
138.061569203059
20
-1.48169539042101
30
0
41
1
10
137.829609216338
20
-1.36016647886225
30
0
41
1
10
137.134084544716
20
-0.994052495389468
30
0
41
1
10
136.669985590618
20
-0.74956851393182
30
0
41
1
10
135.741745252466
20
-0.258867798893306
30
0
41
1
10
135.277623626773
20
-0.0125520247954114
30
0
41
1
10
134.348864746393
20
0.481282506504329
30
0
41
1
10
133.883022563903
20
0.727734524022765
30
0
41
1
10
133.185009862138
20
1.09404110639031
30
0
41
1
10
132.952933256336
20
1.21661183820902
30
0
41
1
10
132.488709905842
20
1.46022801943499
30
0
41
1
10
132.256592096466
20
1.58133297082787
30
0
41
1
10
131.560050590101
20
1.94214867200921
30
0
41
1
10
131.095902060269
20
2.18000591847164
30
0
41
1
10
130.167606614769
20
2.65024117919637
30
0
41
1
10
129.703913080373
20
2.88356719170153
30
0
41
1
10
129.006424908059
20
3.22582867231901
30
0
41
1
10
128.77369743316
20
3.33880510631875
30
0
41
1
10
128.30778293423
20
3.56238694105025
30
0
41
1
10
128.075520663902
20
3.67389891402212
30
0
41
1
10
127.378428029299
20
4.0027087438238
30
0
41
1
10
126.913459615722
20
4.21568954769029
30
0
41
1
10
126.217045436631
20
4.52739957599374
30
0
41
1
10
125.984895299423
20
4.62969031412121
30
0
41
1
10
125.520849319958
20
4.83134846281592
30
0
41
1
10
125.289049149108
20
4.93081964876214
30
0
41
1
10
124.593146724496
20
5.22361228599846
30
0
41
1
10
124.128327138313
20
5.41158551943823
30
0
41
1
10
123.430583775774
20
5.68344391928335
30
0
41
1
10
123.198416002779
20
5.77301068560993
30
0
41
1
10
122.732910416507
20
5.94709392509751
30
0
41
1
10
122.500423047983
20
6.03176331017897
30
0
41
1
10
121.80377070998
20
6.27882104959423
30
0
41
1
10
121.340691306608
20
6.43523932303134
30
0
41
1
10
120.417212653456
20
6.73135324816138
30
0
41
1
10
119.956824602308
20
6.87033272212599
30
0
41
1
10
119.266184929027
20
7.06370532965698
30
0
41
1
10
119.03584083563
20
7.1256637693325
30
0
41
1
10
118.576202964031
20
7.24584814497504
30
0
41
1
10
118.346758027668
20
7.30390326718324
30
0
41
1
10
117.657755383574
20
7.47006338378031
30
0
41
1
10
117.198022127788
20
7.57056873639374
30
0
41
1
10
116.508811834946
20
7.7063756630088
30
0
41
1
10
116.278931194922
20
7.74906284474267
30
0
41
1
10
115.819407635206
20
7.82980771853053
30
0
41
1
10
115.589672307906
20
7.86781734788858
30
0
41
1
10
115.129683230544
20
7.93874638212341
30
0
41
1
10
114.899433054217
20
7.97164475295236
30
0
41
1
10
114.438400289748
20
8.03206872561321
30
0
41
1
10
114.207393354317
20
8.05948543200554
30
0
41
1
10
113.515291291166
20
8.13412702928616
30
0
41
1
10
113.052874299177
20
8.17308402209949
30
0
41
1
10
112.124293452462
20
8.23027661834305
30
0
41
1
10
111.657957842552
20
8.24852234144254
30
0
41
1
10
111.053650915955
20
8.25690364819036
30
0
41
1
10
110.914274047418
20
8.25779778625648
30
0
41
1
10
110.774933198377
20
8.25768960384821
30
0
0
SPLINE
5
C3
100
AcDbEntity
8
1
62
256
6
ByLayer
370
18
48
1
60
0
100
AcDbSpline
70
4
71
3
72
132
73
128
40
0
40
0
40
0
40
0
40
0.0149539197449889
40
0.0149539197449889
40
0.0257274573780183
40
0.0257274573780183
40
0.0365009950110479
40
0.0365009950110479
40
0.0580480702771072
40
0.0580480702771072
40
0.0688216079101366
40
0.0688216079101366
40
0.079595145543166
40
0.079595145543166
40
0.0903686831761956
40
0.0903686831761956
40
0.101142220809225
40
0.101142220809225
40
0.111915758442255
40
0.111915758442255
40
0.122689296075284
40
0.122689296075284
40
0.144236371341343
40
0.144236371341343
40
0.165783446607403
40
0.165783446607403
40
0.176556984240432
40
0.176556984240432
40
0.187330521873462
40
0.187330521873462
40
0.208877597139522
40
0.208877597139522
40
0.219651134772552
40
0.219651134772552
40
0.230424672405582
40
0.230424672405582
40
0.241198210038611
40
0.241198210038611
40
0.251971747671641
40
0.251971747671641
40
0.295065898203762
40
0.295065898203762
40
0.316612973469822
40
0.316612973469822
40
0.327386511102853
40
0.327386511102853
40
0.338160048735883
40
0.338160048735883
40
0.359707124001944
40
0.359707124001944
40
0.381254199268005
40
0.381254199268005
40
0.402801274534066
40
0.402801274534066
40
0.424348349800126
40
0.424348349800126
40
0.445895425066187
40
0.445895425066187
40
0.467442500332248
40
0.467442500332248
40
0.488989575598309
40
0.488989575598309
40
0.51053665086437
40
0.51053665086437
40
0.532083726130431
40
0.532083726130431
40
0.542857263763461
40
0.542857263763461
40
0.553630801396492
40
0.553630801396492
40
0.575177876662554
40
0.575177876662554
40
0.585951414295586
40
0.585951414295586
40
0.596724951928617
40
0.596724951928617
40
0.61827202719468
40
0.61827202719468
40
0.629045564827711
40
0.629045564827711
40
0.639819102460743
40
0.639819102460743
40
0.661366177726807
40
0.661366177726807
40
0.68291325299287
40
0.68291325299287
40
0.693686790625902
40
0.693686790625902
40
0.704460328258934
40
0.704460328258934
40
0.726007403524998
40
0.726007403524998
40
0.736780941158029
40
0.736780941158029
40
0.747554478791061
40
0.747554478791061
40
0.758328016424092
40
0.758328016424092
40
0.769101554057123
40
0.769101554057123
40
0.790648629323186
40
0.790648629323186
40
0.812195704589249
40
0.812195704589249
40
0.82296924222228
40
0.82296924222228
40
0.833742779855312
40
0.833742779855312
40
0.844516317488343
40
0.844516317488343
40
0.855289855121374
40
0.855289855121374
40
0.876836930387437
40
0.876836930387437
40
0.898384005653499
40
0.898384005653499
40
0.919931080919561
40
0.919931080919561
40
0.941478156185623
40
0.941478156185623
40
0.963025231451686
40
0.963025231451686
40
0.984572306717748
40
0.984572306717748
40
0.995345844350779
40
0.995345844350779
40
1
40
1
40
1
40
1
41
1
10
77.3921329094592
20
-4.43534436934536
30
0
41
1
10
77.0695607005896
20
-4.57926307866933
30
0
41
1
10
76.7473163713854
20
-4.72034561054321
30
0
41
1
10
76.1926121321023
20
-4.95642413461167
30
0
41
1
10
75.9602321526874
20
-5.05319539977609
30
0
41
1
10
75.4959277750353
20
-5.24381226243261
30
0
41
1
10
75.2643061186674
20
-5.33818573941429
30
0
41
1
10
74.568226475669
20
-5.61471663889287
30
0
41
1
10
74.1033712108903
20
-5.79140048845312
30
0
41
1
10
73.4060556452692
20
-6.04553293596095
30
0
41
1
10
73.1733893958989
20
-6.12804356035593
30
0
41
1
10
72.7080898330115
20
-6.28903929005662
30
0
41
1
10
72.4752860091867
20
-6.36757948614479
30
0
41
1
10
72.0104137619669
20
-6.52020489056829
30
0
41
1
10
71.7781882405633
20
-6.59428445333123
30
0
41
1
10
71.3141973361332
20
-6.73779971254979
30
0
41
1
10
71.0822107698805
20
-6.8069965716453
30
0
41
1
10
70.6198922859783
20
-6.94180806998116
30
0
41
1
10
70.3891368273786
20
-7.00692355154939
30
0
41
1
10
69.9277060086633
20
-7.13145993223188
30
0
41
1
10
69.6970966941989
20
-7.19097468552806
30
0
41
1
10
69.0055005485813
20
-7.36267964647632
30
0
41
1
10
68.5450903271884
20
-7.46846187166526
30
0
41
1
10
67.6258093909863
20
-7.66032606217272
30
0
41
1
10
67.1666068593292
20
-7.74580138475866
30
0
41
1
10
66.4768148477227
20
-7.85804582679015
30
0
41
1
10
66.2465568954357
20
-7.89292240403256
30
0
41
1
10
65.7871370892965
20
-7.95847007778511
30
0
41
1
10
65.5573419164232
20
-7.98874265218171
30
0
41
1
10
64.8671473858763
20
-8.07138112791603
30
0
41
1
10
64.4060117601128
20
-8.1153749366872
30
0
41
1
10
63.7135353281773
20
-8.16569549820636
30
0
41
1
10
63.4824391631606
20
-8.1798668221256
30
0
41
1
10
63.0201654718982
20
-8.20313915955691
30
0
41
1
10
62.788833024815
20
-8.21216184108698
30
0
41
1
10
62.3252805066397
20
-8.22459765145646
30
0
41
1
10
62.0930623207802
20
-8.2279913877201
30
0
41
1
10
61.6277203274892
20
-8.22887605730088
30
0
41
1
10
61.3942691984441
20
-8.22645352823363
30
0
41
1
10
60.2309649525387
20
-8.20106199176723
30
0
41
1
10
59.3005628131841
20
-8.13921720402215
30
0
41
1
10
57.9079237502738
20
-7.97858803693291
30
0
41
1
10
57.4434656972859
20
-7.9148199630699
30
0
41
1
10
56.7454388439103
20
-7.80398963650651
30
0
41
1
10
56.5126365614311
20
-7.76443462511668
30
0
41
1
10
56.0474223733503
20
-7.67932930736288
30
0
41
1
10
55.8144022532699
20
-7.63399352480866
30
0
41
1
10
55.1154477095696
20
-7.49079365699657
30
0
41
1
10
54.6498229240703
20
-7.38606275978174
30
0
41
1
10
53.7197632110578
20
-7.15717561650987
30
0
41
1
10
53.2557360524502
20
-7.03242782834661
30
0
41
1
10
52.3265006760434
20
-6.76486633309349
30
0
41
1
10
51.8612058419311
20
-6.62264113807441
30
0
41
1
10
50.9316160780277
20
-6.3192831590753
30
0
41
1
10
50.46530869063
20
-6.15965669440055
30
0
41
1
10
49.5328638784966
20
-5.82289440022973
30
0
41
1
10
49.0675698198522
20
-5.64643704021788
30
0
41
1
10
48.1382087453606
20
-5.2791914072846
30
0
41
1
10
47.6735102376959
20
-5.08914752333033
30
0
41
1
10
46.7434727063315
20
-4.69611732946302
30
0
41
1
10
46.2795409944543
20
-4.49100409344541
30
0
41
1
10
45.3487992671275
20
-4.07284822462191
30
0
41
1
10
44.8824911052077
20
-3.85811137142227
30
0
41
1
10
43.9501856741801
20
-3.41760396593577
30
0
41
1
10
43.4855327281583
20
-3.19131175256854
30
0
41
1
10
42.787834907385
20
-2.84889152159047
30
0
41
1
10
42.5552536869575
20
-2.73403309249395
30
0
41
1
10
42.0901137266
20
-2.50269132346719
30
0
41
1
10
41.8581342349684
20
-2.38515058017919
30
0
41
1
10
41.1614598374954
20
-2.03132790636985
30
0
41
1
10
40.6962000661945
20
-1.79346864225675
30
0
41
1
10
39.9982273537729
20
-1.43262658946244
30
0
41
1
10
39.7654111686006
20
-1.31190305821269
30
0
41
1
10
39.2996217407811
20
-1.06919945798401
30
0
41
1
10
39.0666599350637
20
-0.946868892987823
30
0
41
1
10
38.3678700019597
20
-0.579753942154497
30
0
41
1
10
37.9023820100784
20
-0.33518506731653
30
0
41
1
10
37.2044628796221
20
0.031312302791207
30
0
41
1
10
36.9725162818485
20
0.154630762072401
30
0
41
1
10
36.5079418457629
20
0.399599682112381
30
0
41
1
10
36.2755690289436
20
0.521739360912761
30
0
41
1
10
35.5780979189599
20
0.886909663955009
30
0
41
1
10
35.1131207469203
20
1.12951133857322
30
0
41
1
10
34.18288550775
20
1.61283988111228
30
0
41
1
10
33.7173239904788
20
1.85382081950249
30
0
41
1
10
33.017910729679
20
2.20922202212535
30
0
41
1
10
32.7847152645455
20
2.3263397149579
30
0
41
1
10
32.3194791345705
20
2.56027440432072
30
0
41
1
10
32.0872914488169
20
2.67686734138076
30
0
41
1
10
31.3900574728137
20
3.02228081959419
30
0
41
1
10
30.9248932131058
20
3.24779484218962
30
0
41
1
10
30.2277537645976
20
3.58017491915942
30
0
41
1
10
29.9952778901898
20
3.68961311236035
30
0
41
1
10
29.5306549325853
20
3.90652124950628
30
0
41
1
10
29.2983783197304
20
4.01380515225915
30
0
41
1
10
28.833317748644
20
4.2253190887476
30
0
41
1
10
28.6005381111523
20
4.32954362647419
30
0
41
1
10
28.1344920293498
20
4.53499405212864
30
0
41
1
10
27.900879060959
20
4.63592990527135
30
0
41
1
10
27.2024347658448
20
4.93695228238082
30
0
41
1
10
26.7370891694469
20
5.13054594882155
30
0
41
1
10
25.8063376256896
20
5.50257597433881
30
0
41
1
10
25.3414073564388
20
5.68171654069479
30
0
41
1
10
24.6446365008662
20
5.939613151272
30
0
41
1
10
24.4124137608429
20
6.02370529671262
30
0
41
1
10
23.9475762446558
20
6.18700353916017
30
0
41
1
10
23.7149670212401
20
6.26611865384834
30
0
41
1
10
23.2493591769801
20
6.42002132631137
30
0
41
1
10
23.0163099579632
20
6.49485133671655
30
0
41
1
10
22.5508242194637
20
6.64159939163537
30
0
41
1
10
22.3176209108389
20
6.71286507323669
30
0
41
1
10
21.6189132325495
20
6.91933985988143
30
0
41
1
10
21.1541717566661
20
7.04747052252364
30
0
41
1
10
20.2275104657815
20
7.28489085388472
30
0
41
1
10
19.7658992733186
20
7.39433115842488
30
0
41
1
10
18.8433549626093
20
7.59211228654286
30
0
41
1
10
18.3820794971371
20
7.68062612471053
30
0
41
1
10
17.4626206792599
20
7.83587757666976
30
0
41
1
10
17.0026018122048
20
7.90270637852487
30
0
41
1
10
16.0822382389106
20
8.0175401071607
30
0
41
1
10
15.6221700330374
20
8.06498454071962
30
0
41
1
10
14.7019607490678
20
8.13878111354313
30
0
41
1
10
14.2411921698063
20
8.16510624192583
30
0
41
1
10
13.5482992770248
20
8.18857469444637
30
0
41
1
10
13.3172386754604
20
8.19373968599967
30
0
41
1
10
12.98640044031
20
8.19717473153236
30
0
41
1
10
12.8865397156285
20
8.19768711686345
30
0
41
1
10
12.7866122190229
20
8.19767877169861
30
0
0
SPLINE
5
C4
100
AcDbEntity
8
1
62
256
6
ByLayer
370
18
48
1
60
0
100
AcDbSpline
70
4
71
3
72
14
73
10
40
0
40
0
40
0
40
0
40
0.0264024776054588
40
0.0264024776054588
40
0.104041836901228
40
0.104041836901228
40
0.414599274084313
40
0.414599274084313
40
1
40
1
40
1
40
1
41
1
10
145.138743269562
20
-8.28073511954833
30
0
41
1
10
145.053338417584
20
-8.28044674279735
30
0
41
1
10
144.967939009381
20
-8.27978655927939
30
0
41
1
10
144.631617776537
20
-8.27571743670865
30
0
41
1
10
144.381093050683
20
-8.26947113340177
30
0
41
1
10
143.130374248753
20
-8.22231821450066
30
0
41
1
10
142.135823374887
20
-8.13387021844278
30
0
41
1
10
139.272805901507
20
-7.73935730170842
30
0
41
1
10
137.409660455338
20
-7.30999550072028
30
0
41
1
10
135.527866149668
20
-6.72775943952348
30
0
0
SPLINE
5
C5
100
AcDbEntity
8
1
62
256
6
ByLayer
370
13
48
1
60
0
100
AcDbSpline
70
4
71
3
72
28
73
24
40
0
40
0
40
0
40
0
40
0.0182250125732128
40
0.0182250125732128
40
0.0578446670453228
40
0.0578446670453228
40
0.0974643215174322
40
0.0974643215174322
40
0.176703630461651
40
0.176703630461651
40
0.335182248350091
40
0.335182248350091
40
0.652139484126968
40
0.652139484126968
40
0.69175913859908
40
0.69175913859908
40
0.731378793071191
40
0.731378793071191
40
0.810618102015417
40
0.810618102015417
40
0.969096719903873
40
0.969096719903873
40
1
40
1
40
1
40
1
41
1
10
135.527865195026
20
-6.72775914415269
30
0
41
1
10
135.413060938466
20
-6.69223816098335
30
0
41
1
10
135.298187271584
20
-6.65614818597481
30
0
41
1
10
134.933348709713
20
-6.53980918047091
30
0
41
1
10
134.68310004303
20
-6.45746060497876
30
0
41
1
10
134.181748484426
20
-6.28757633922564
30
0
41
1
10
133.930343886542
20
-6.19993203725301
30
0
41
1
10
133.177099319252
20
-5.93019331150694
30
0
41
1
10
132.676743707941
20
-5.74151209760166
30
0
41
1
10
131.179539714761
20
-5.15148698008471
30
0
41
1
10
130.186539484266
20
-4.7262341161663
30
0
41
1
10
127.211002923028
20
-3.37465216762163
30
0
41
1
10
125.232332251928
20
-2.37190985522932
30
0
41
1
10
122.976160945202
20
-1.1913195030819
30
0
41
1
10
122.724782907837
20
-1.05928343520634
30
0
41
1
10
122.222414837005
20
-0.794663654239002
30
0
41
1
10
121.971657442668
20
-0.662202517272135
30
0
41
1
10
121.220440633611
20
-0.264803180072846
30
0
41
1
10
120.721034851427
20
0.0001476119591359
30
0
41
1
10
119.225513682896
20
0.792158277358311
30
0
41
1
10
118.23222888054
20
1.31666607633207
30
0
41
1
10
117.044750087593
20
1.92988231581018
30
0
41
1
10
116.850972791022
20
2.02953709916807
30
0
41
1
10
116.657158834335
20
2.12872252221951
30
0
0
SPLINE
5
C6
100
AcDbEntity
8
1
62
256
6
ByLayer
370
18
48
1
60
0
100
AcDbSpline
70
4
71
3
72
18
73
14
40
0
40
0
40
0
40
0
40
0.0679716127974871
40
0.0679716127974871
40
0.203914838392461
40
0.203914838392461
40
0.74768774077236
40
0.74768774077236
40
0.883630966367336
40
0.883630966367336
40
0.951602579164825
40
0.951602579164825
40
1
40
1
40
1
40
1
41
1
10
47.6242175545784
20
-8.21746578222073
30
0
41
1
10
47.3730782665901
20
-8.22072522244619
30
0
41
1
10
47.1223561566646
20
-8.22077185154188
30
0
41
1
10
46.3712865954149
20
-8.21137563751239
30
0
41
1
10
45.8721172129883
20
-8.19247329890001
30
0
41
1
10
43.3808678559977
20
-8.03584314211446
30
0
41
1
10
41.4028820214023
20
-7.71118143229617
30
0
41
1
10
38.9109847817006
20
-7.07938479027604
30
0
41
1
10
38.4115634093581
20
-6.94175915021688
30
0
41
1
10
37.660223534177
20
-6.71896303119428
30
0
41
1
10
37.4094150380213
20
-6.64196343958938
30
0
41
1
10
36.9792974322706
20
-6.50552136437241
30
0
41
1
10
36.8000655068477
20
-6.44736254696258
30
0
41
1
10
36.6209637536114
20
-6.38798521712053
30
0
0
SPLINE
5
C7
100
AcDbEntity
8
1
62
256
6
ByLayer
370
13
48
1
60
0
100
AcDbSpline
70
4
71
3
72
22
73
18
40
0
40
0
40
0
40
0
40
0.011983042116208
40
0.011983042116208
40
0.178427951054837
40
0.178427951054837
40
0.511317768932095
40
0.511317768932095
40
0.594540223401411
40
0.594540223401411
40
0.636151450636068
40
0.636151450636068
40
0.677762677870725
40
0.677762677870725
40
0.844207586809353
40
0.844207586809353
40
1
40
1
40
1
40
1
41
1
10
36.6209639001336
20
-6.38798526569681
30
0
41
1
10
36.548526683371
20
-6.36397026648552
30
0
41
1
10
36.4761107598412
20
-6.33975594592468
30
0
41
1
10
35.3986227396197
20
-5.97642757979486
30
0
41
1
10
34.400357976843
20
-5.60071607923257
30
0
41
1
10
31.4146222146981
20
-4.38201689904972
30
0
41
1
10
29.4359521942476
20
-3.44774553241334
30
0
41
1
10
26.9386952454476
20
-2.19259915888253
30
0
41
1
10
26.4380108880529
20
-1.93728352956919
30
0
41
1
10
25.6843928465362
20
-1.54914720861095
30
0
41
1
10
25.4324566658784
20
-1.41875315570829
30
0
41
1
10
24.9295063037847
20
-1.15745862518156
30
0
41
1
10
24.6784365565177
20
-1.02653252436053
30
0
41
1
10
23.424810821542
20
-0.371085101352151
30
0
41
1
10
22.4275520436317
20
0.156188448738618
30
0
41
1
10
20.4996294073484
20
1.166874357311
30
0
41
1
10
19.5687572107084
20
1.65088116904101
30
0
41
1
10
18.6360112602369
20
2.12432549245182
30
0
0
SPLINE
5
C8
100
AcDbEntity
8
1
62
256
6
ByLayer
370
18
48
1
60
0
100
AcDbSpline
70
4
71
3
72
52
73
48
40
0
40
0
40
0
40
0
40
0.031249999999999
40
0.031249999999999
40
0.062499999999998
40
0.062499999999998
40
0.093749999999997
40
0.093749999999997
40
0.124999999999996
40
0.124999999999996
40
0.187499999999997
40
0.187499999999997
40
0.249999999999997
40
0.249999999999997
40
0.312499999999998
40
0.312499999999998
40
0.374999999999998
40
0.374999999999998
40
0.437499999999999
40
0.437499999999999
40
0.499999999999999
40
0.499999999999999
40
0.5625
40
0.5625
40
0.625
40
0.625
40
0.656250000000001
40
0.656250000000001
40
0.687500000000001
40
0.687500000000001
40
0.718750000000001
40
0.718750000000001
40
0.750000000000001
40
0.750000000000001
40
0.781250000000002
40
0.781250000000002
40
0.812500000000002
40
0.812500000000002
40
0.843750000000002
40
0.843750000000002
40
0.875000000000002
40
0.875000000000002
40
0.906250000000003
40
0.906250000000003
40
0.937500000000003
40
0.937500000000003
40
1
40
1
40
1
40
1
41
1
10
194.695041374339
20
-4.54118999421297
30
0
41
1
10
194.688693102907
20
-4.59612939414441
30
0
41
1
10
194.685047561106
20
-4.64813050556211
30
0
41
1
10
194.682769769276
20
-4.74668249857646
30
0
41
1
10
194.684181718678
20
-4.79356055884534
30
0
41
1
10
194.69172262873
20
-4.87998750170999
30
0
41
1
10
194.697799010842
20
-4.91958940416401
30
0
41
1
10
194.714136700092
20
-4.99223873235096
30
0
41
1
10
194.724483166672
20
-5.02545392515904
30
0
41
1
10
194.760861278762
20
-5.11414167153021
30
0
41
1
10
194.791984317043
20
-5.15898917124227
30
0
41
1
10
194.866092008987
20
-5.22403607524771
30
0
41
1
10
194.908009286095
20
-5.24324302017902
30
0
41
1
10
195.000147738378
20
-5.25845625860495
30
0
41
1
10
195.050673180133
20
-5.25416640416842
30
0
41
1
10
195.156168833996
20
-5.22378821902026
30
0
41
1
10
195.211534922447
20
-5.19784825111648
30
0
41
1
10
195.327574899723
20
-5.12417389192231
30
0
41
1
10
195.387087984245
20
-5.0770961252183
30
0
41
1
10
195.507537383969
20
-4.96362898828372
30
0
41
1
10
195.568865335105
20
-4.89693736000592
30
0
41
1
10
195.693109509466
20
-4.74162038549795
30
0
41
1
10
195.754147211372
20
-4.65533870636716
30
0
41
1
10
195.872901288955
20
-4.46509458034905
30
0
41
1
10
195.931483854169
20
-4.35934351004511
30
0
41
1
10
196.011960774439
20
-4.19250660489666
30
0
41
1
10
196.037681894847
20
-4.13535944717293
30
0
41
1
10
196.086673992877
20
-4.01766037902223
30
0
41
1
10
196.109949895183
20
-3.95696500743372
30
0
41
1
10
196.152022983656
20
-3.83664105158962
30
0
41
1
10
196.171071387009
20
-3.77644756294546
30
0
41
1
10
196.204989383938
20
-3.65599435427717
30
0
41
1
10
196.219985980356
20
-3.59505488022728
30
0
41
1
10
196.244519647865
20
-3.47722481789202
30
0
41
1
10
196.254133391723
20
-3.42028822481566
30
0
41
1
10
196.268210092466
20
-3.3102560367258
30
0
41
1
10
196.272670520457
20
-3.25670013085789
30
0
41
1
10
196.276255142745
20
-3.1565127263649
30
0
41
1
10
196.275452448509
20
-3.10972371070574
30
0
41
1
10
196.269057148288
20
-3.02224553460957
30
0
41
1
10
196.263393017468
20
-2.98136242239377
30
0
41
1
10
196.247882068868
20
-2.90741177648968
30
0
41
1
10
196.238045212643
20
-2.87408436294183
30
0
41
1
10
196.214591962548
20
-2.81405369776093
30
0
41
1
10
196.200869944384
20
-2.78722996071883
30
0
41
1
10
196.155282026494
20
-2.71761374202401
30
0
41
1
10
196.11906135309
20
-2.68505299834067
30
0
41
1
10
196.077884996777
20
-2.66426781656804
30
0
0
SPLINE
5
C9
100
AcDbEntity
8
1
62
256
6
ByLayer
370
18
48
1
60
0
100
AcDbSpline
70
4
71
3
72
8
73
4
40
0
40
0
40
0
40
0
40
1
40
1
40
1
40
1
41
1
10
4.08533356082907
20
1.15004855543492
30
0
41
1
10
4.19607927537623
20
1.06952607095309
30
0
41
1
10
4.30809822401429
20
0.991423553798768
30
0
41
1
10
4.42144068005206
20
0.915805083755856
30
0
0
SPLINE
5
CA
100
AcDbEntity
8
1
62
256
6
ByLayer
370
18
48
1
60
0
100
AcDbSpline
70
4
71
3
72
8
73
4
40
0
40
0
40
0
40
0
40
1
40
1
40
1
40
1
41
1
10
197.679937119784
20
-2.15666741297318
30
0
41
1
10
197.782395408285
20
-1.52239208630337
30
0
41
1
10
197.87299088387
20
-0.888209689451287
30
0
41
1
10
197.951645684778
20
-0.254120832363327
30
0
0
SPLINE
5
CB
100
AcDbEntity
8
1
62
256
6
ByLayer
370
18
48
1
60
0
100
AcDbSpline
70
4
71
3
72
10
73
6
40
0
40
0
40
0
40
0
40
0.5
40
0.5
40
1
40
1
40
1
40
1
41
1
10
197.951645684778
20
0.254120832363299
30
0
41
1
10
197.955031124826
20
0.226828540147778
30
0
41
1
10
197.961372712343
20
0.195127571656201
30
0
41
1
10
197.978010425538
20
0.126274243981044
30
0
41
1
10
197.988117693075
20
0.0900540619409469
30
0
41
1
10
197.999960860902
20
0.052478189494451
30
0
0
SPLINE
5
CC
100
AcDbEntity
8
1
62
256
6
ByLayer
370
18
48
1
60
0
100
AcDbSpline
70
4
71
3
72
134
73
130
40
0
40
0
40
0
40
0
40
0.0206149481208246
40
0.0206149481208246
40
0.0427339707728657
40
0.0427339707728657
40
0.0537934820988862
40
0.0537934820988862
40
0.0648529934249068
40
0.0648529934249068
40
0.0869720160769484
40
0.0869720160769484
40
0.10909103872899
40
0.10909103872899
40
0.131210061381032
40
0.131210061381032
40
0.136739817044042
40
0.136739817044042
40
0.142269572707053
40
0.142269572707053
40
0.153329084033073
40
0.153329084033073
40
0.164388595359094
40
0.164388595359094
40
0.175448106685115
40
0.175448106685115
40
0.197567129337157
40
0.197567129337157
40
0.208626640663177
40
0.208626640663177
40
0.219686151989198
40
0.219686151989198
40
0.24180517464124
40
0.24180517464124
40
0.263924197293281
40
0.263924197293281
40
0.274983708619303
40
0.274983708619303
40
0.286043219945324
40
0.286043219945324
40
0.308162242597366
40
0.308162242597366
40
0.319221753923387
40
0.319221753923387
40
0.330281265249408
40
0.330281265249408
40
0.35240028790145
40
0.35240028790145
40
0.374519310553491
40
0.374519310553491
40
0.385578821879512
40
0.385578821879512
40
0.396638333205533
40
0.396638333205533
40
0.418757355857575
40
0.418757355857575
40
0.429816867183596
40
0.429816867183596
40
0.440876378509617
40
0.440876378509617
40
0.462995401161659
40
0.462995401161659
40
0.485114423813701
40
0.485114423813701
40
0.496173935139722
40
0.496173935139722
40
0.507233446465743
40
0.507233446465743
40
0.529352469117786
40
0.529352469117786
40
0.551471491769828
40
0.551471491769828
40
0.57359051442187
40
0.57359051442187
40
0.595709537073912
40
0.595709537073912
40
0.606769048399933
40
0.606769048399933
40
0.617828559725954
40
0.617828559725954
40
0.639947582377996
40
0.639947582377996
40
0.651007093704017
40
0.651007093704017
40
0.662066605030038
40
0.662066605030038
40
0.684185627682079
40
0.684185627682079
40
0.706304650334121
40
0.706304650334121
40
0.717364161660142
40
0.717364161660142
40
0.728423672986163
40
0.728423672986163
40
0.750542695638205
40
0.750542695638205
40
0.772661718290246
40
0.772661718290246
40
0.794780740942287
40
0.794780740942287
40
0.800310496605297
40
0.800310496605297
40
0.805840252268307
40
0.805840252268307
40
0.816899763594327
40
0.816899763594327
40
0.827959274920348
40
0.827959274920348
40
0.839018786246368
40
0.839018786246368
40
0.861137808898407
40
0.861137808898407
40
0.872197320224427
40
0.872197320224427
40
0.883256831550447
40
0.883256831550447
40
0.905375854202487
40
0.905375854202487
40
0.927494876854527
40
0.927494876854527
40
0.938554388180548
40
0.938554388180548
40
0.949613899506568
40
0.949613899506568
40
0.971732922158608
40
0.971732922158608
40
0.993851944810648
40
0.993851944810648
40
1
40
1
40
1
40
1
41
1
10
28.377137935426
20
4.43346165458246
30
0
41
1
10
28.8263272301057
20
4.64767128028237
30
0
41
1
10
29.276024588368
20
4.85467264117426
30
0
41
1
10
30.2066967718358
20
5.27293350889806
30
0
41
1
10
30.6874881091438
20
5.48339181302828
30
0
41
1
10
31.4101702377994
20
5.78585662928782
30
0
41
1
10
31.6513433636643
20
5.8844477577187
30
0
41
1
10
32.1341035406458
20
6.07738407807469
30
0
41
1
10
32.3758970899993
20
6.17147181028565
30
0
41
1
10
33.0996694908951
20
6.45013561333519
30
0
41
1
10
33.5810018224001
20
6.62529759108281
30
0
41
1
10
34.5421117340192
20
6.95437363232494
30
0
41
1
10
35.0204666445619
20
7.10990157327001
30
0
41
1
10
35.9758588274835
20
7.39951304444318
30
0
41
1
10
36.4530613667326
20
7.53349545803232
30
0
41
1
10
37.0493450136171
20
7.68732889713465
30
0
41
1
10
37.1685942851078
20
7.71741133745891
30
0
41
1
10
37.4068627567859
20
7.77637962839606
30
0
41
1
10
37.525697361129
20
7.80540973002013
30
0
41
1
10
37.8826001535957
20
7.89007609577325
30
0
41
1
10
38.1207289509904
20
7.94357586970852
30
0
41
1
10
38.5973832062528
20
8.0447722097216
30
0
41
1
10
38.8359605360112
20
8.09243998891711
30
0
41
1
10
39.3130235282815
20
8.18232277548182
30
0
41
1
10
39.5513834822061
20
8.22460406340355
30
0
41
1
10
40.2665190177244
20
8.34297637896128
30
0
41
1
10
40.7438723443401
20
8.41029448215008
30
0
41
1
10
41.4622889370177
20
8.49321280053624
30
0
41
1
10
41.702110681594
20
8.51787386313072
30
0
41
1
10
42.18217319854
20
8.5612909387786
30
0
41
1
10
42.4218642601648
20
8.58018124925653
30
0
41
1
10
43.143271754655
20
8.62732883811304
30
0
41
1
10
43.6277288013966
20
8.64636759861082
30
0
41
1
10
44.5926729388514
20
8.65980141753954
30
0
41
1
10
45.0736209885136
20
8.65407720095868
30
0
41
1
10
45.795618251182
20
8.62695741257735
30
0
41
1
10
46.0364110880838
20
8.61485634023785
30
0
41
1
10
46.5180949073114
20
8.58456335272732
30
0
41
1
10
46.7591941431786
20
8.56643944997774
30
0
41
1
10
47.4803794049574
20
8.50220697282569
30
0
41
1
10
47.9621656808626
20
8.44724794146876
30
0
41
1
10
48.6867372147519
20
8.34709169167735
30
0
41
1
10
48.9285126090457
20
8.31063766836556
30
0
41
1
10
49.4109243747525
20
8.23153384329564
30
0
41
1
10
49.6518278825229
20
8.1889739443366
30
0
41
1
10
50.3744436090982
20
8.05277942224228
30
0
41
1
10
50.8560145877256
20
7.95063462840861
30
0
41
1
10
51.8193059405804
20
7.72431487063116
30
0
41
1
10
52.2994540190184
20
7.59877562698864
30
0
41
1
10
53.0223525154863
20
7.39600464726183
30
0
41
1
10
53.2636453553709
20
7.32593932601137
30
0
41
1
10
53.7462127989481
20
7.18020676233871
30
0
41
1
10
53.9873872454081
20
7.10439362095235
30
0
41
1
10
54.7112544681888
20
6.86892297304394
30
0
41
1
10
55.1921207640036
20
6.7024586578176
30
0
41
1
10
55.9122555023737
20
6.44057009079177
30
0
41
1
10
56.1520506048462
20
6.35117960012877
30
0
41
1
10
56.6308348333627
20
6.16783664689567
30
0
41
1
10
56.869238368387
20
6.07309997399045
30
0
41
1
10
57.5853984016952
20
5.7848600843447
30
0
41
1
10
58.0632034407972
20
5.58626304149112
30
0
41
1
10
59.0162795864767
20
5.17182172903239
30
0
41
1
10
59.4917420581747
20
4.95614542298585
30
0
41
1
10
60.205960801794
20
4.62386839745139
30
0
41
1
10
60.4442382482847
20
4.5117135812186
30
0
41
1
10
60.9210092710463
20
4.284334760202
30
0
41
1
10
61.1596963049177
20
4.16943091003398
30
0
41
1
10
61.87390008371
20
3.81649567657442
30
0
41
1
10
62.351471585037
20
3.57658651086504
30
0
41
1
10
63.3094510456611
20
3.0876934102987
30
0
41
1
10
63.7885565023353
20
2.83640088684331
30
0
41
1
10
64.7502287029008
20
2.32543109281261
30
0
41
1
10
65.2337469193864
20
2.06566826546208
30
0
41
1
10
66.1986215876865
20
1.54275482237134
30
0
41
1
10
66.6789441485717
20
1.27651709660918
30
0
41
1
10
67.4011828676419
20
0.878819104282798
30
0
41
1
10
67.6421014427619
20
0.746317590583772
30
0
41
1
10
68.1236088411248
20
0.480230126449015
30
0
41
1
10
68.3640751258498
20
0.346421692816932
30
0
41
1
10
69.0854875452856
20
-0.0557263312772704
30
0
41
1
10
69.5668108429441
20
-0.32413018853245
30
0
41
1
10
70.2907626778381
20
-0.724649688311956
30
0
41
1
10
70.532486318995
20
-0.857984015683371
30
0
41
1
10
71.0150719028526
20
-1.1241905583849
30
0
41
1
10
71.2554253193592
20
-1.25817000669841
30
0
41
1
10
71.9777214179977
20
-1.6554130773637
30
0
41
1
10
72.4599348259379
20
-1.9157829649325
30
0
41
1
10
73.4222459432087
20
-2.43382617954188
30
0
41
1
10
73.902650739117
20
-2.69091089138115
30
0
41
1
10
74.6248128094397
20
-3.06898241291145
30
0
41
1
10
74.8658260928761
20
-3.19369606430118
30
0
41
1
10
75.3481931936871
20
-3.44092470354053
30
0
41
1
10
75.5897095624842
20
-3.56330314859559
30
0
41
1
10
76.3125320970801
20
-3.93000065345717
30
0
41
1
10
76.7936992823429
20
-4.16633901493984
30
0
41
1
10
77.7537730560625
20
-4.62500763635211
30
0
41
1
10
78.2315370263783
20
-4.8491075516759
30
0
41
1
10
79.1859751304348
20
-5.2813838783548
30
0
41
1
10
79.6628352829031
20
-5.48934921602182
30
0
41
1
10
80.2585251281944
20
-5.73918799072953
30
0
41
1
10
80.3776922892394
20
-5.78858448793585
30
0
41
1
10
80.6155124353832
20
-5.88700473894895
30
0
41
1
10
80.7342734829588
20
-5.93587624121307
30
0
41
1
10
81.0909262556243
20
-6.08037851430728
30
0
41
1
10
81.3288861276784
20
-6.17430897644149
30
0
41
1
10
81.8051971510213
20
-6.35741853968975
30
0
41
1
10
82.043588311023
20
-6.44655355327882
30
0
41
1
10
82.5201706219652
20
-6.62081312594606
30
0
41
1
10
82.7582523399401
20
-6.70605738216327
30
0
41
1
10
83.4727951931776
20
-6.95492966211938
30
0
41
1
10
83.9498458870636
20
-7.11136397393383
30
0
41
1
10
84.6677799165485
20
-7.33038746106482
30
0
41
1
10
84.9074287554226
20
-7.40085661332066
30
0
41
1
10
85.3870881873439
20
-7.53698451387615
30
0
41
1
10
85.6265289870528
20
-7.60316217840898
30
0
41
1
10
86.3475857716592
20
-7.79228124018604
30
0
41
1
10
86.831734986589
20
-7.90698365793426
30
0
41
1
10
87.7954890256242
20
-8.11440560037673
30
0
41
1
10
88.2759991407771
20
-8.20693206558732
30
0
41
1
10
88.9974047063418
20
-8.32734223981728
30
0
41
1
10
89.2380138118175
20
-8.36442004104376
30
0
41
1
10
89.7192724596456
20
-8.4326266121144
30
0
41
1
10
89.9600397820978
20
-8.46371873306396
30
0
41
1
10
90.6804602439231
20
-8.54870198074573
30
0
41
1
10
91.1621705831517
20
-8.59277286077906
30
0
41
1
10
92.127496203946
20
-8.65649861191272
30
0
41
1
10
92.6095662633369
20
-8.67622505096455
30
0
41
1
10
93.2245913163882
20
-8.68535372180057
30
0
41
1
10
93.3583552379321
20
-8.68637733213964
30
0
41
1
10
93.4921160389741
20
-8.68644271235411
30
0
0
SPLINE
5
CD
100
AcDbEntity
8
1
62
256
6
ByLayer
370
18
48
1
60
0
100
AcDbSpline
70
4
71
3
72
124
73
120
40
0
40
0
40
0
40
0
40
0.0192044542221644
40
0.0192044542221644
40
0.0302415039477589
40
0.0302415039477589
40
0.0412785536733533
40
0.0412785536733533
40
0.0633526531245413
40
0.0633526531245413
40
0.0854267525757297
40
0.0854267525757297
40
0.107500852026918
40
0.107500852026918
40
0.129574951478106
40
0.129574951478106
40
0.151649050929294
40
0.151649050929294
40
0.173723150380482
40
0.173723150380482
40
0.184760200106075
40
0.184760200106075
40
0.195797249831669
40
0.195797249831669
40
0.206834299557262
40
0.206834299557262
40
0.217871349282856
40
0.217871349282856
40
0.239945448734043
40
0.239945448734043
40
0.250982498459636
40
0.250982498459636
40
0.26201954818523
40
0.26201954818523
40
0.284093647636418
40
0.284093647636418
40
0.306167747087606
40
0.306167747087606
40
0.328241846538794
40
0.328241846538794
40
0.350315945989982
40
0.350315945989982
40
0.37239004544117
40
0.37239004544117
40
0.394464144892358
40
0.394464144892358
40
0.405501194617952
40
0.405501194617952
40
0.416538244343546
40
0.416538244343546
40
0.427575294069139
40
0.427575294069139
40
0.438612343794733
40
0.438612343794733
40
0.460686443245921
40
0.460686443245921
40
0.471723492971515
40
0.471723492971515
40
0.482760542697109
40
0.482760542697109
40
0.504834642148298
40
0.504834642148298
40
0.526908741599487
40
0.526908741599487
40
0.548982841050676
40
0.548982841050676
40
0.571056940501865
40
0.571056940501865
40
0.593131039953054
40
0.593131039953054
40
0.615205139404243
40
0.615205139404243
40
0.626242189129837
40
0.626242189129837
40
0.637279238855431
40
0.637279238855431
40
0.648316288581025
40
0.648316288581025
40
0.65935333830662
40
0.65935333830662
40
0.681427437757807
40
0.681427437757807
40
0.6924644874834
40
0.6924644874834
40
0.703501537208993
40
0.703501537208993
40
0.725575636660178
40
0.725575636660178
40
0.747649736111364
40
0.747649736111364
40
0.769723835562549
40
0.769723835562549
40
0.791797935013734
40
0.791797935013734
40
0.813872034464919
40
0.813872034464919
40
0.835946133916104
40
0.835946133916104
40
0.846983183641697
40
0.846983183641697
40
0.85802023336729
40
0.85802023336729
40
0.869057283092882
40
0.869057283092882
40
0.880094332818475
40
0.880094332818475
40
0.902168432269661
40
0.902168432269661
40
0.913205481995254
40
0.913205481995254
40
0.924242531720847
40
0.924242531720847
40
0.946316631172033
40
0.946316631172033
40
0.968390730623219
40
0.968390730623219
40
0.990464830074406
40
0.990464830074406
40
1
40
1
40
1
40
1
41
1
10
126.349551892816
20
4.44498104844925
30
0
41
1
10
126.763885302077
20
4.64452063695447
30
0
41
1
10
127.178873458589
20
4.83936992724492
30
0
41
1
10
127.834256116163
20
5.13747861169784
30
0
41
1
10
128.073812059172
20
5.24450307124556
30
0
41
1
10
128.553162189155
20
5.45571455797929
30
0
41
1
10
128.792506644567
20
5.56055478963094
30
0
41
1
10
129.513365932948
20
5.8670957269465
30
0
41
1
10
129.997161333671
20
6.06259828516988
30
0
41
1
10
130.959738408881
20
6.43743855063843
30
0
41
1
10
131.439780567501
20
6.61641254905936
30
0
41
1
10
132.400810481177
20
6.953455060457
30
0
41
1
10
132.882301821722
20
7.11114192632508
30
0
41
1
10
133.842204968355
20
7.40986841613793
30
0
41
1
10
134.323651034509
20
7.54779787510682
30
0
41
1
10
135.288378124852
20
7.80221548343289
30
0
41
1
10
135.769730745829
20
7.91932580768361
30
0
41
1
10
136.731219118232
20
8.12956402453239
30
0
41
1
10
137.212010189624
20
8.22275755580458
30
0
41
1
10
137.933115896455
20
8.34498038427381
30
0
41
1
10
138.172917247394
20
8.38306669711469
30
0
41
1
10
138.65306596863
20
8.45299282397812
30
0
41
1
10
138.893424105432
20
8.484849747666
30
0
41
1
10
139.374714634806
20
8.54242796172488
30
0
41
1
10
139.615666769766
20
8.56815144513106
30
0
41
1
10
140.097459647396
20
8.61368297959504
30
0
41
1
10
140.338360790332
20
8.63350672452805
30
0
41
1
10
141.060615313092
20
8.68355433050343
30
0
41
1
10
141.541453226995
20
8.70437004400449
30
0
41
1
10
142.262940269885
20
8.71698517598381
30
0
41
1
10
142.503511510688
20
8.71810719881356
30
0
41
1
10
142.983777678854
20
8.71414281037323
30
0
41
1
10
143.223389310424
20
8.70900975839226
30
0
41
1
10
143.943905733412
20
8.68439578650927
30
0
41
1
10
144.425582160642
20
8.65584204183696
30
0
41
1
10
145.38783735731
20
8.57358806724628
30
0
41
1
10
145.869888772056
20
8.51975316998295
30
0
41
1
10
146.83093019712
20
8.38890245761442
30
0
41
1
10
147.310733835708
20
8.31218411615714
30
0
41
1
10
148.26503206072
20
8.13408047117994
30
0
41
1
10
148.742210422058
20
8.03429824686219
30
0
41
1
10
149.695368825477
20
7.81311884880412
30
0
41
1
10
150.170310819361
20
7.69080354916338
30
0
41
1
10
151.120593601246
20
7.42561147592394
30
0
41
1
10
151.596131262623
20
7.28300843424626
30
0
41
1
10
152.309818490381
20
7.05401605407241
30
0
41
1
10
152.547242360171
20
6.97458135535169
30
0
41
1
10
153.022780880773
20
6.81119573566761
30
0
41
1
10
153.260906159668
20
6.72727622385341
30
0
41
1
10
153.737874384923
20
6.55505003516404
30
0
41
1
10
153.976740768804
20
6.46678004895395
30
0
41
1
10
154.454546555175
20
6.28503446403801
30
0
41
1
10
154.693395099991
20
6.19142552924552
30
0
41
1
10
155.410913899834
20
5.90371561947379
30
0
41
1
10
155.890684344303
20
5.70291615412626
30
0
41
1
10
156.613697288804
20
5.38987301194115
30
0
41
1
10
156.854941141248
20
5.28370179205001
30
0
41
1
10
157.336140678962
20
5.06703531388695
30
0
41
1
10
157.575962386552
20
4.95603380993714
30
0
41
1
10
158.296747539627
20
4.62043984384414
30
0
41
1
10
158.778017339567
20
4.39186227320761
30
0
41
1
10
159.738346675106
20
3.91935346396039
30
0
41
1
10
160.217995694018
20
3.67626025514039
30
0
41
1
10
161.179569736582
20
3.18173087640147
30
0
41
1
10
161.662376720859
20
2.93072093333461
30
0
41
1
10
162.624032690565
20
2.41532437506146
30
0
41
1
10
163.10521488647
20
2.15620691541159
30
0
41
1
10
164.067020980603
20
1.63305135739267
30
0
41
1
10
164.546557820187
20
1.36708308224388
30
0
41
1
10
165.506681049055
20
0.832999326001726
30
0
41
1
10
165.987489146792
20
0.565297169605287
30
0
41
1
10
166.709543371806
20
0.162267690705988
30
0
41
1
10
166.949840839227
20
0.0266049488770079
30
0
41
1
10
167.431238971811
20
-0.2438145865992
30
0
41
1
10
167.671698032269
20
-0.378329163722867
30
0
41
1
10
168.152161595673
20
-0.64597867819964
30
0
41
1
10
168.392174210145
20
-0.779101807011756
30
0
41
1
10
168.87107269654
20
-1.04525569878152
30
0
41
1
10
169.109880184522
20
-1.17842515002434
30
0
41
1
10
169.825626591726
20
-1.57588010871911
30
0
41
1
10
170.301893127268
20
-1.83811413570655
30
0
41
1
10
171.016129193684
20
-2.22537270187755
30
0
41
1
10
171.254210169745
20
-2.35339753060615
30
0
41
1
10
171.729424242614
20
-2.60899110757865
30
0
41
1
10
171.96643737381
20
-2.73675478074307
30
0
41
1
10
172.678934649544
20
-3.1143279138054
30
0
41
1
10
173.154972940641
20
-3.36005831600258
30
0
41
1
10
174.105547540469
20
-3.8456094205435
30
0
41
1
10
174.580647871218
20
-4.08442619669466
30
0
41
1
10
175.533664943723
20
-4.54887302312454
30
0
41
1
10
176.012061073846
20
-4.77381409419408
30
0
41
1
10
176.9678356209
20
-5.21642608269909
30
0
41
1
10
177.44813356981
20
-5.42955035070622
30
0
41
1
10
178.412479063578
20
-5.84111004230544
30
0
41
1
10
178.892843120274
20
-6.03994546225874
30
0
41
1
10
179.853204673513
20
-6.41855481608471
30
0
41
1
10
180.333487582004
20
-6.59816963124158
30
0
41
1
10
181.053942449813
20
-6.85337505858894
30
0
41
1
10
181.293554707642
20
-6.93667003902681
30
0
41
1
10
181.773322111786
20
-7.0978502830018
30
0
41
1
10
182.013506281754
20
-7.17572156489166
30
0
41
1
10
182.494481951993
20
-7.32608179353073
30
0
41
1
10
182.735296576288
20
-7.39855530357954
30
0
41
1
10
183.216857293899
20
-7.53876487045974
30
0
41
1
10
183.457607993607
20
-7.60659436510588
30
0
41
1
10
184.178945604003
20
-7.80149304806298
30
0
41
1
10
184.659226480505
20
-7.92006075894173
30
0
41
1
10
185.379972077238
20
-8.08023311163305
30
0
41
1
10
185.620293863508
20
-8.13068116983314
30
0
41
1
10
186.100186457688
20
-8.22624897879155
30
0
41
1
10
186.339571721165
20
-8.27144480072499
30
0
41
1
10
187.05950655555
20
-8.39720068472249
30
0
41
1
10
187.54086232912
20
-8.46870489250372
30
0
41
1
10
188.502645304857
20
-8.58871128512391
30
0
41
1
10
188.984090042597
20
-8.63675407046392
30
0
41
1
10
189.943877113857
20
-8.70736415601482
30
0
41
1
10
190.423345900919
20
-8.73018707124245
30
0
41
1
10
191.106302143482
20
-8.7454437220276
30
0
41
1
10
191.312367795723
20
-8.74772320665005
30
0
41
1
10
191.518431885709
20
-8.74771058931907
30
0
0
SPLINE
5
CE
100
AcDbEntity
8
1
62
256
6
ByLayer
370
18
48
1
60
0
100
AcDbSpline
70
4
71
3
72
58
73
54
40
0
40
0
40
0
40
0
40
0.0299796062981137
40
0.0299796062981137
40
0.0599592125962275
40
0.0599592125962275
40
0.119918425192454
40
0.119918425192454
40
0.17987763778868
40
0.17987763778868
40
0.209857244086793
40
0.209857244086793
40
0.239836850384906
40
0.239836850384906
40
0.299796062981132
40
0.299796062981132
40
0.329775669279246
40
0.329775669279246
40
0.359755275577359
40
0.359755275577359
40
0.419714488173584
40
0.419714488173584
40
0.449694094471696
40
0.449694094471696
40
0.479673700769808
40
0.479673700769808
40
0.509653307067921
40
0.509653307067921
40
0.539632913366033
40
0.539632913366033
40
0.59959212596226
40
0.59959212596226
40
0.629571732260373
40
0.629571732260373
40
0.659551338558487
40
0.659551338558487
40
0.719510551154716
40
0.719510551154716
40
0.74949015745283
40
0.74949015745283
40
0.779469763750945
40
0.779469763750945
40
0.809449370049059
40
0.809449370049059
40
0.839428976347173
40
0.839428976347173
40
0.899388188943403
40
0.899388188943403
40
0.929367795241518
40
0.929367795241518
40
0.959347401539633
40
0.959347401539633
40
1
40
1
40
1
40
1
41
1
10
194.865135642279
20
-8.7366404598003
30
0
41
1
10
194.366621467619
20
-8.75167789454534
30
0
41
1
10
193.867431605319
20
-8.75327272512354
30
0
41
1
10
192.870377676611
20
-8.72966294841069
30
0
41
1
10
192.372565939716
20
-8.70448943592714
30
0
41
1
10
190.879794841759
20
-8.58933964281078
30
0
41
1
10
189.885413687656
20
-8.45974431278879
30
0
41
1
10
187.88965391431
20
-8.09756502207927
30
0
41
1
10
186.894601205438
20
-7.86614330558456
30
0
41
1
10
185.401850965578
20
-7.44953530567867
30
0
41
1
10
184.904127029827
20
-7.29906174917801
30
0
41
1
10
183.907317261246
20
-6.97584212542054
30
0
41
1
10
183.407868092433
20
-6.80295074013699
30
0
41
1
10
181.913049856741
20
-6.25501055213593
30
0
41
1
10
180.91893424958
20
-5.85018786269541
30
0
41
1
10
179.424949458879
20
-5.19214977956878
30
0
41
1
10
178.92602576517
20
-4.96411142725816
30
0
41
1
10
177.928280169987
20
-4.49362256387005
30
0
41
1
10
177.430213703146
20
-4.25156428669439
30
0
41
1
10
175.936911951235
20
-3.50743517658091
30
0
41
1
10
174.942458045841
20
-2.98759194699099
30
0
41
1
10
173.445954372733
20
-2.18274172491596
30
0
41
1
10
172.946841188739
20
-1.91052724025889
30
0
41
1
10
171.950631685557
20
-1.36231588393497
30
0
41
1
10
171.453000163944
20
-1.08602646680291
30
0
41
1
10
170.457637114076
20
-0.530947895006591
30
0
41
1
10
169.959913423084
20
-0.252144472555756
30
0
41
1
10
168.963239399879
20
0.305950824782741
30
0
41
1
10
168.463704509375
20
0.585577254665651
30
0
41
1
10
166.967898065731
20
1.41888938436034
30
0
41
1
10
165.973470150939
20
1.96746080120809
30
0
41
1
10
164.479475155651
20
2.76846027172377
30
0
41
1
10
163.981021338819
20
3.03186992604628
30
0
41
1
10
162.982504225254
20
3.54930106998904
30
0
41
1
10
162.48414628528
20
3.80245515997112
30
0
41
1
10
160.990158332923
20
4.54275057362898
30
0
41
1
10
159.995593478003
20
5.0106890021456
30
0
41
1
10
158.499399807287
20
5.66428839996709
30
0
41
1
10
157.999847958515
20
5.87412557532662
30
0
41
1
10
157.003045490121
20
6.2740782175544
30
0
41
1
10
156.505220261767
20
6.46451655179817
30
0
41
1
10
155.509620336075
20
6.82503611756039
30
0
41
1
10
155.011821638385
20
6.9950914466697
30
0
41
1
10
154.015218921728
20
7.31363325215548
30
0
41
1
10
153.515822586287
20
7.46225987282435
30
0
41
1
10
152.018988251646
20
7.87262291028381
30
0
41
1
10
151.024144248159
20
8.09858747257812
30
0
41
1
10
149.530115818883
20
8.3619407316981
30
0
41
1
10
149.031757086518
20
8.43709523708748
30
0
41
1
10
148.033342252952
20
8.56150231274515
30
0
41
1
10
147.53429999994
20
8.6106128626725
30
0
41
1
10
146.360484038131
20
8.69492777551415
30
0
41
1
10
145.685665296204
20
8.71904353735161
30
0
41
1
10
145.010299215226
20
8.71863910501631
30
0
0
SPLINE
5
CF
100
AcDbEntity
8
1
62
256
6
ByLayer
370
18
48
1
60
0
100
AcDbSpline
70
4
71
3
72
62
73
58
40
0
40
0
40
0
40
0
40
0.0316321646592309
40
0.0316321646592309
40
0.0594284986904926
40
0.0594284986904926
40
0.0872248327217547
40
0.0872248327217547
40
0.14281750078428
40
0.14281750078428
40
0.170613834815542
40
0.170613834815542
40
0.198410168846804
40
0.198410168846804
40
0.226206502878066
40
0.226206502878066
40
0.254002836909328
40
0.254002836909328
40
0.309595504971851
40
0.309595504971851
40
0.337391839003112
40
0.337391839003112
40
0.365188173034375
40
0.365188173034375
40
0.420780841096897
40
0.420780841096897
40
0.448577175128159
40
0.448577175128159
40
0.47637350915942
40
0.47637350915942
40
0.504169843190681
40
0.504169843190681
40
0.531966177221942
40
0.531966177221942
40
0.587558845284463
40
0.587558845284463
40
0.615355179315724
40
0.615355179315724
40
0.643151513346985
40
0.643151513346985
40
0.698744181409505
40
0.698744181409505
40
0.726540515440766
40
0.726540515440766
40
0.754336849472027
40
0.754336849472027
40
0.809929517534547
40
0.809929517534547
40
0.865522185597068
40
0.865522185597068
40
0.893318519628328
40
0.893318519628328
40
0.921114853659587
40
0.921114853659587
40
0.976707521722107
40
0.976707521722107
40
1
40
1
40
1
40
1
41
1
10
100.873713264184
20
-8.27180083565199
30
0
41
1
10
100.306583583344
20
-8.36843094517812
30
0
41
1
10
99.7397253242361
20
-8.44860174448468
30
0
41
1
10
98.6737241710261
20
-8.56755447536091
30
0
41
1
10
98.1745875118624
20
-8.61020562470955
30
0
41
1
10
97.1750706517303
20
-8.6689294675931
30
0
41
1
10
96.6761686677729
20
-8.68492656942664
30
0
41
1
10
95.1805190192161
20
-8.69298330056307
30
0
41
1
10
94.1848765183964
20
-8.64507203683118
30
0
41
1
10
92.6868346294542
20
-8.49397754660149
30
0
41
1
10
92.1867647385599
20
-8.43035829256939
30
0
41
1
10
91.1889568718191
20
-8.27774880014604
30
0
41
1
10
90.6905730683106
20
-8.18872673256573
30
0
41
1
10
89.6938382240531
20
-7.98592778928466
30
0
41
1
10
89.1954984025641
20
-7.87213967188947
30
0
41
1
10
88.1977227206957
20
-7.62056114433312
30
0
41
1
10
87.6976752908583
20
-7.48259938537814
30
0
41
1
10
86.1992768299816
20
-7.03527788185511
30
0
41
1
10
85.2033744563123
20
-6.69290121015354
30
0
41
1
10
83.7075657069107
20
-6.12063855504945
30
0
41
1
10
83.2086630851809
20
-5.92006800355159
30
0
41
1
10
82.2090603856572
20
-5.50072006649313
30
0
41
1
10
81.7095240982187
20
-5.28243499048187
30
0
41
1
10
80.213133691362
20
-4.60529004779619
30
0
41
1
10
79.2173091527626
20
-4.12355237604518
30
0
41
1
10
77.7195122259248
20
-3.36586215923947
30
0
41
1
10
77.2191543615107
20
-3.10721578980963
30
0
41
1
10
76.2207201312192
20
-2.58230981597149
30
0
41
1
10
75.7221416576088
20
-2.31582367745821
30
0
41
1
10
74.72511751011
20
-1.77679979192567
30
0
41
1
10
74.2266779904042
20
-1.50425187869732
30
0
41
1
10
73.2289027970387
20
-0.954921237682129
30
0
41
1
10
72.7292037136543
20
-0.677848200955452
30
0
41
1
10
71.2297463430334
20
0.155155121458023
30
0
41
1
10
70.2334134508476
20
0.710908425008597
30
0
41
1
10
68.7374672316934
20
1.53365502672321
30
0
41
1
10
68.2385448142659
20
1.80603207165763
30
0
41
1
10
67.2391507236624
20
2.34524341588465
30
0
41
1
10
66.7390721819809
20
2.61191345962885
30
0
41
1
10
65.2419475989198
20
3.39672601758571
30
0
41
1
10
64.2457833407661
20
3.90099461965866
30
0
41
1
10
62.748226628798
20
4.61881439496403
30
0
41
1
10
62.2478597956794
20
4.85187657151309
30
0
41
1
10
61.2487455441522
20
5.30141908298
30
0
41
1
10
60.7498890726568
20
5.51802922841568
30
0
41
1
10
59.2538876381647
20
6.14134385005934
30
0
41
1
10
58.2571426028048
20
6.52130753848431
30
0
41
1
10
56.2565087308912
20
7.19914066005856
30
0
41
1
10
55.259634467755
20
7.49435606132809
30
0
41
1
10
53.7634590635827
20
7.8661092572645
30
0
41
1
10
53.2645568802355
20
7.9781745385649
30
0
41
1
10
52.2653319904298
20
8.17770547144525
30
0
41
1
10
51.7648830122207
20
8.26520497718897
30
0
41
1
10
50.2669010958781
20
8.48846365195607
30
0
41
1
10
49.2705247358474
20
8.58562003718814
30
0
41
1
10
47.8538955503435
20
8.64833725059378
30
0
41
1
10
47.4348391162442
20
8.65754874306538
30
0
41
1
10
47.0158605246702
20
8.65738965513029
30
0
0
SPLINE
5
D0
100
AcDbEntity
8
1
62
256
6
ByLayer
370
18
48
1
60
0
100
AcDbSpline
70
4
71
3
72
8
73
4
40
0
40
0
40
0
40
0
40
1
40
1
40
1
40
1
41
1
10
197.9999608609
20
0.0524781894938542
30
0
41
1
10
197.992266939342
20
0.0330693930543191
30
0
41
1
10
197.983994966428
20
0.0150901695222387
30
0
41
1
10
197.975702502393
20
-0.0003348978052884
30
0
0
SPLINE
5
D1
100
AcDbEntity
8
1
62
256
6
ByLayer
370
18
48
1
60
0
100
AcDbSpline
70
4
71
3
72
18
73
14
40
0
40
0
40
0
40
0
40
0.0637965732172348
40
0.0637965732172348
40
0.286861452913208
40
0.286861452913208
40
0.732991212305153
40
0.732991212305153
40
0.844523652153139
40
0.844523652153139
40
0.956056092001125
40
0.956056092001125
40
1
40
1
40
1
40
1
41
1
10
71.4207704979279
20
0.0474161086905838
30
0
41
1
10
71.7076227544235
20
-0.105851554417058
30
0
41
1
10
71.9939306703393
20
-0.258874515709976
30
0
41
1
10
73.2792952206819
20
-0.945046314544697
30
0
41
1
10
74.2734690135832
20
-1.47318846199863
30
0
41
1
10
77.2517480889838
20
-3.01962673365904
30
0
41
1
10
79.2315488066404
20
-4.00003336845873
30
0
41
1
10
81.7394241364944
20
-5.08931341085162
30
0
41
1
10
82.2435008971688
20
-5.30060764515682
30
0
41
1
10
83.2461679784935
20
-5.70405908357347
30
0
41
1
10
83.7458345147002
20
-5.89668016102922
30
0
41
1
10
84.4408506750101
20
-6.15156087969365
30
0
41
1
10
84.6371162773874
20
-6.22209312647067
30
0
41
1
10
84.8332384479241
20
-6.29108629892806
30
0
0
SPLINE
5
D2
100
AcDbEntity
8
1
62
256
6
ByLayer
370
13
48
1
60
0
100
AcDbSpline
70
4
71
3
72
12
73
8
40
0
40
0
40
0
40
0
40
0.178483443089941
40
0.178483443089941
40
0.623025334163595
40
0.623025334163595
40
1
40
1
40
1
40
1
41
1
10
84.8332384469608
20
-6.29108629858922
30
0
41
1
10
85.6326574192784
20
-6.57231126604589
30
0
41
1
10
86.429693298044
20
-6.8279647978255
30
0
41
1
10
89.2108054573561
20
-7.62360608353649
30
0
41
1
10
91.1929128003741
20
-8.01963133517489
30
0
41
1
10
94.9117955010581
20
-8.37783719856927
30
0
41
1
10
96.6065954902276
20
-8.39343713660739
30
0
41
1
10
98.3094880241285
20
-8.26061084362286
30
0
0
SPLINE
5
D3
100
AcDbEntity
8
1
62
256
6
ByLayer
370
18
48
1
60
0
100
AcDbSpline
70
4
71
3
72
22
73
18
40
0
40
0
40
0
40
0
40
0.107780629209684
40
0.107780629209684
40
0.210428797905661
40
0.210428797905661
40
0.313076966601639
40
0.313076966601639
40
0.518373303993596
40
0.518373303993596
40
0.621021472689577
40
0.621021472689577
40
0.723669641385558
40
0.723669641385558
40
0.928965978777519
40
0.928965978777519
40
1
40
1
40
1
40
1
41
1
10
169.442501388316
20
0.0360164031564523
30
0
41
1
10
169.968487506523
20
-0.247123178721779
30
0
41
1
10
170.494126080435
20
-0.530169933754223
30
0
41
1
10
171.520882073509
20
-1.08038668718936
30
0
41
1
10
172.021978593429
20
-1.34766435565953
30
0
41
1
10
173.025638743874
20
-1.87814321715399
30
0
41
1
10
173.528382841733
20
-2.14142992737774
30
0
41
1
10
175.032917091301
20
-2.91806468739119
30
0
41
1
10
176.033410857501
20
-3.41970367829663
30
0
41
1
10
177.53655095398
20
-4.13732460697571
30
0
41
1
10
178.038028533193
20
-4.37068397111142
30
0
41
1
10
179.042795635072
20
-4.82406313229581
30
0
41
1
10
179.543579402726
20
-5.04291030403326
30
0
41
1
10
181.041300641066
20
-5.67323326034821
30
0
41
1
10
182.034214704875
20
-6.05889823786052
30
0
41
1
10
183.36862995297
20
-6.52507561453763
30
0
41
1
10
183.71147347861
20
-6.64020978029393
30
0
41
1
10
184.054299504564
20
-6.75045631134637
30
0
0
SPLINE
5
D4
100
AcDbEntity
8
1
62
256
6
ByLayer
370
13
48
1
60
0
100
AcDbSpline
70
4
71
3
72
14
73
10
40
0
40
0
40
0
40
0
40
0.452653491246545
40
0.452653491246545
40
0.589490118434908
40
0.589490118434908
40
0.72632674562327
40
0.72632674562327
40
1
40
1
40
1
40
1
41
1
10
184.054300452162
20
-6.75045661607649
30
0
41
1
10
185.693085914782
20
-7.2774597721147
30
0
41
1
10
187.331471503492
20
-7.69277778844904
30
0
41
1
10
189.488283633592
20
-8.06183452566535
30
0
41
1
10
189.99128603739
20
-8.13549300328719
30
0
41
1
10
190.99421269515
20
-8.25698527585834
30
0
41
1
10
191.494930194877
20
-8.3049847351368
30
0
41
1
10
192.996550220772
20
-8.41031956795717
30
0
41
1
10
193.996928280696
20
-8.42900129706393
30
0
41
1
10
195.000252634706
20
-8.39501885468985
30
0
0
SPLINE
5
D5
100
AcDbEntity
8
1
62
256
6
ByLayer
370
18
48
1
60
0
100
AcDbSpline
70
4
71
3
72
8
73
4
40
0
40
0
40
0
40
0
40
1
40
1
40
1
40
1
41
1
10
3.18841206112023
20
1.64289506755159
30
0
41
1
10
3.48743081177784
20
1.47923014033694
30
0
41
1
10
3.78635694910773
20
1.31486166116474
30
0
41
1
10
4.08533356082907
20
1.15004855543492
30
0
0
SPLINE
5
D6
100
AcDbEntity
8
1
62
256
6
ByLayer
370
18
48
1
60
0
100
AcDbSpline
70
4
71
3
72
20
73
16
40
0
40
0
40
0
40
0
40
0.250000000000001
40
0.250000000000001
40
0.375000000000001
40
0.375000000000001
40
0.500000000000002
40
0.500000000000002
40
0.750000000000002
40
0.750000000000002
40
0.812500000000002
40
0.812500000000002
40
0.875000000000001
40
0.875000000000001
40
1
40
1
40
1
40
1
41
1
10
194.898098448953
20
-8.30488863526085
30
0
41
1
10
194.715424677615
20
-8.28508474785514
30
0
41
1
10
194.546184891876
20
-8.22632662341431
30
0
41
1
10
194.31436056813
20
-8.07429399558558
30
0
41
1
10
194.240688546167
20
-8.0126333406003
30
0
41
1
10
194.104132934391
20
-7.86969823798421
30
0
41
1
10
194.040828139242
20
-7.78821662199451
30
0
41
1
10
193.865942084703
20
-7.51350948711962
30
0
41
1
10
193.769249266458
20
-7.29030337489743
30
0
41
1
10
193.675495064168
20
-6.95670113619045
30
0
41
1
10
193.658072273979
20
-6.88703109290216
30
0
41
1
10
193.626336125962
20
-6.74328917665511
30
0
41
1
10
193.611999297552
20
-6.66918072886864
30
0
41
1
10
193.57356145254
20
-6.44017374329889
30
0
41
1
10
193.554023667234
20
-6.27860731183046
30
0
41
1
10
193.540629844223
20
-6.10806318786086
30
0
0
SPLINE
5
D7
100
AcDbEntity
8
1
62
256
6
ByLayer
370
18
48
1
60
0
100
AcDbSpline
70
4
71
3
72
8
73
4
40
0
40
0
40
0
40
0
40
1
40
1
40
1
40
1
41
1
10
197.679937119784
20
2.15666741297312
30
0
41
1
10
197.782396680666
20
1.52238420953336
30
0
41
1
10
197.872991862755
20
0.888201798002797
30
0
41
1
10
197.951645684778
20
0.254120832363355
30
0
0
SPLINE
5
D8
100
AcDbEntity
8
1
62
256
6
ByLayer
370
18
48
1
60
0
100
AcDbSpline
70
4
71
3
72
42
73
38
40
0
40
0
40
0
40
0
40
0.125000000000002
40
0.125000000000002
40
0.187500000000002
40
0.187500000000002
40
0.250000000000003
40
0.250000000000003
40
0.312500000000004
40
0.312500000000004
40
0.375000000000005
40
0.375000000000005
40
0.500000000000005
40
0.500000000000005
40
0.515625000000004
40
0.515625000000004
40
0.523437500000003
40
0.523437500000003
40
0.531250000000002
40
0.531250000000002
40
0.535156250000001
40
0.535156250000001
40
0.539062500000001
40
0.539062500000001
40
0.546875000000002
40
0.546875000000002
40
0.562500000000004
40
0.562500000000004
40
0.625000000000005
40
0.625000000000005
40
0.750000000000005
40
0.750000000000005
40
0.812500000000003
40
0.812500000000003
40
0.875000000000002
40
0.875000000000002
40
1
40
1
40
1
40
1
41
1
10
4.08533356082904
20
1.15004855543495
30
0
41
1
10
4.1483312448577
20
1.53233127408652
30
0
41
1
10
4.24594875049095
20
1.90050488250819
30
0
41
1
10
4.44541386879146
20
2.4323834880492
30
0
41
1
10
4.52127087442318
20
2.60719361850971
30
0
41
1
10
4.68758954110655
20
2.94362117689434
30
0
41
1
10
4.77810720753283
20
3.10566010215013
30
0
41
1
10
4.9729431016759
20
3.41848992263641
30
0
41
1
10
5.07726236172621
20
3.56927893455693
30
0
41
1
10
5.29902492803109
20
3.86047005855136
30
0
41
1
10
5.41680815488169
20
4.00121512323068
30
0
41
1
10
5.78556950589342
20
4.4053006185782
30
0
41
1
10
6.05279417130714
20
4.65177083898882
30
0
41
1
10
6.37128238304518
20
4.90573396964263
30
0
41
1
10
6.40692268684214
20
4.93363173695576
30
0
41
1
10
6.46072313728158
20
4.97498630487126
30
0
41
1
10
6.4778591058103
20
4.98958773140004
30
0
41
1
10
6.519911911853
20
5.01047298801615
30
0
41
1
10
6.54451070184086
20
5.01725183405173
30
0
41
1
10
6.5812350374307
20
5.02227135171154
30
0
41
1
10
6.593649813274
20
5.02308471643812
30
0
41
1
10
6.61841001581135
20
5.02505518495289
30
0
41
1
10
6.63079339557646
20
5.02602402071915
30
0
41
1
10
6.66795334656703
20
5.02888149331503
30
0
41
1
10
6.69273454942257
20
5.03072069907648
30
0
41
1
10
6.76709134606324
20
5.03604154838501
30
0
41
1
10
6.81668454196685
20
5.03932688996906
30
0
41
1
10
7.06475994489227
20
5.05445470651645
30
0
41
1
10
7.26376499866194
20
5.06240919062071
30
0
41
1
10
7.85974748099841
20
5.07404516845639
30
0
41
1
10
8.25600850649454
20
5.06555309651211
30
0
41
1
10
8.84886867444766
20
5.02916623700668
30
0
41
1
10
9.04623205414094
20
5.01306623202561
30
0
41
1
10
9.44044690816975
20
4.97282753634664
30
0
41
1
10
9.63746419467549
20
4.94865554613284
30
0
41
1
10
10.2248882921515
20
4.86420971534417
30
0
41
1
10
10.6125128693465
20
4.79202502146006
30
0
41
1
10
10.9962002266949
20
4.70320797182316
30
0
0
SPLINE
5
D9
100
AcDbEntity
8
1
62
256
6
ByLayer
370
18
48
1
60
0
100
AcDbSpline
70
4
71
3
72
16
73
12
40
0
40
0
40
0
40
0
40
0.249999999999993
40
0.249999999999993
40
0.374999999999994
40
0.374999999999994
40
0.499999999999996
40
0.499999999999996
40
0.749999999999998
40
0.749999999999998
40
1
40
1
40
1
40
1
41
1
10
188.983004036169
20
-2.48231479037048
30
0
41
1
10
189.311498256523
20
-2.87268236718228
30
0
41
1
10
189.660645499206
20
-3.23912223701638
30
0
41
1
10
190.210392020062
20
-3.75862983059415
30
0
41
1
10
190.396631537915
20
-3.92553531292918
30
0
41
1
10
190.772718456006
20
-4.2468447334781
30
0
41
1
10
190.962854252149
20
-4.40150018908321
30
0
41
1
10
191.5389075937
20
-4.8492781937648
30
0
41
1
10
191.930435540281
20
-5.12631431706134
30
0
41
1
10
192.726249720839
20
-5.64380535724314
30
0
41
1
10
193.130554133445
20
-5.88420815144585
30
0
41
1
10
193.540629844223
20
-6.10806318786089
30
0
0
SPLINE
5
DA
100
AcDbEntity
8
1
62
256
6
ByLayer
370
18
48
1
60
0
100
AcDbSpline
70
4
71
3
72
36
73
32
40
0
40
0
40
0
40
0
40
0.0800640494051308
40
0.0800640494051308
40
0.120096074107696
40
0.120096074107696
40
0.160128098810262
40
0.160128098810262
40
0.240192148215392
40
0.240192148215392
40
0.320256197620521
40
0.320256197620521
40
0.400320247025651
40
0.400320247025651
40
0.480384296430781
40
0.480384296430781
40
0.560448345835911
40
0.560448345835911
40
0.640512395241041
40
0.640512395241041
40
0.680544419943605
40
0.680544419943605
40
0.720576444646169
40
0.720576444646169
40
0.800640494051297
40
0.800640494051297
40
0.880704543456425
40
0.880704543456425
40
0.960768592861553
40
0.960768592861553
40
1
40
1
40
1
40
1
41
1
10
10.9962002266949
20
-8.14359959417274
30
0
41
1
10
11.46378418299
20
-8.17137984226454
30
0
41
1
10
11.9298978333221
20
-8.18864976438931
30
0
41
1
10
12.6261865021437
20
-8.19814493094887
30
0
41
1
10
12.8578385458705
20
-8.19853347695974
30
0
41
1
10
13.3205484803354
20
-8.19368110420947
30
0
41
1
10
13.5519357640399
20
-8.18848201352125
30
0
41
1
10
14.2457797280177
20
-8.16488909615126
30
0
41
1
10
14.7071674351924
20
-8.13845235273391
30
0
41
1
10
15.6286070172346
20
-8.06437840328357
30
0
41
1
10
16.0892859130249
20
-8.01676808268925
30
0
41
1
10
17.0108544302346
20
-7.90156758957397
30
0
41
1
10
17.4714528308987
20
-7.83454130478844
30
0
41
1
10
18.3920723018127
20
-7.6787805838903
30
0
41
1
10
18.8539478109166
20
-7.59000772010049
30
0
41
1
10
19.7776253240784
20
-7.39164678251146
30
0
41
1
10
20.2398182072339
20
-7.28191148581658
30
0
41
1
10
21.1676075883417
20
-7.04384922194149
30
0
41
1
10
21.6329176536702
20
-6.91539382202072
30
0
41
1
10
22.3324476523194
20
-6.70838285365224
30
0
41
1
10
22.5659909072147
20
-6.63691459593193
30
0
41
1
10
23.032188727469
20
-6.48974214959793
30
0
41
1
10
23.2656233871627
20
-6.41474659831798
30
0
41
1
10
23.9650652658934
20
-6.18323708439732
30
0
41
1
10
24.4303110896176
20
-6.0191304147682
30
0
41
1
10
25.3606228047134
20
-5.67440784570061
30
0
41
1
10
25.8261700920309
20
-5.49484443786233
30
0
41
1
10
26.758082117785
20
-5.12195043663061
30
0
41
1
10
27.223899831481
20
-4.9278018771262
30
0
41
1
10
27.9185407529305
20
-4.62826459878428
30
0
41
1
10
28.1478860490653
20
-4.52911008804188
30
0
41
1
10
28.3764883307968
20
-4.42831173426367
30
0
0
SPLINE
5
DB
100
AcDbEntity
8
1
62
256
6
ByLayer
370
18
48
1
60
0
100
AcDbSpline
70
4
71
3
72
146
73
142
40
0
40
0
40
0
40
0
40
0.0111931457774301
40
0.0111931457774301
40
0.0327179584359405
40
0.0327179584359405
40
0.054242771094451
40
0.054242771094451
40
0.0650051774237058
40
0.0650051774237058
40
0.0757675837529608
40
0.0757675837529608
40
0.0972923964114713
40
0.0972923964114713
40
0.118817209069982
40
0.118817209069982
40
0.140342021728492
40
0.140342021728492
40
0.151104428057747
40
0.151104428057747
40
0.161866834387003
40
0.161866834387003
40
0.172629240716258
40
0.172629240716258
40
0.183391647045513
40
0.183391647045513
40
0.204916459704024
40
0.204916459704024
40
0.215678866033279
40
0.215678866033279
40
0.226441272362534
40
0.226441272362534
40
0.247966085021044
40
0.247966085021044
40
0.258728491350299
40
0.258728491350299
40
0.269490897679554
40
0.269490897679554
40
0.280253304008808
40
0.280253304008808
40
0.291015710338063
40
0.291015710338063
40
0.312540522996572
40
0.312540522996572
40
0.323302929325827
40
0.323302929325827
40
0.334065335655081
40
0.334065335655081
40
0.35559014831359
40
0.35559014831359
40
0.366352554642845
40
0.366352554642845
40
0.377114960972099
40
0.377114960972099
40
0.398639773630608
40
0.398639773630608
40
0.409402179959863
40
0.409402179959863
40
0.420164586289117
40
0.420164586289117
40
0.430926992618372
40
0.430926992618372
40
0.441689398947626
40
0.441689398947626
40
0.463214211606136
40
0.463214211606136
40
0.484739024264646
40
0.484739024264646
40
0.506263836923156
40
0.506263836923156
40
0.517026243252411
40
0.517026243252411
40
0.527788649581666
40
0.527788649581666
40
0.538551055910921
40
0.538551055910921
40
0.549313462240176
40
0.549313462240176
40
0.560075868569431
40
0.560075868569431
40
0.570838274898686
40
0.570838274898686
40
0.581600681227941
40
0.581600681227941
40
0.586981884392569
40
0.586981884392569
40
0.592363087557197
40
0.592363087557197
40
0.613887900215708
40
0.613887900215708
40
0.635412712874219
40
0.635412712874219
40
0.656937525532729
40
0.656937525532729
40
0.67846233819124
40
0.67846233819124
40
0.689224744520496
40
0.689224744520496
40
0.699987150849752
40
0.699987150849752
40
0.721511963508262
40
0.721511963508262
40
0.732274369837517
40
0.732274369837517
40
0.743036776166772
40
0.743036776166772
40
0.764561588825281
40
0.764561588825281
40
0.775323995154536
40
0.775323995154536
40
0.786086401483792
40
0.786086401483792
40
0.807611214142302
40
0.807611214142302
40
0.818373620471557
40
0.818373620471557
40
0.829136026800812
40
0.829136026800812
40
0.839898433130068
40
0.839898433130068
40
0.850660839459324
40
0.850660839459324
40
0.872185652117836
40
0.872185652117836
40
0.882948058447092
40
0.882948058447092
40
0.893710464776349
40
0.893710464776349
40
0.915235277434862
40
0.915235277434862
40
0.936760090093376
40
0.936760090093376
40
0.947522496422633
40
0.947522496422633
40
0.958284902751891
40
0.958284902751891
40
0.979809715410404
40
0.979809715410404
40
0.99057212173966
40
0.99057212173966
40
1
40
1
40
1
40
1
41
1
10
61.7447280514233
20
8.22835687201379
30
0
41
1
10
61.9874741978966
20
8.22885431676815
30
0
41
1
10
62.2302060492841
20
8.22630144133356
30
0
41
1
10
62.9375237669586
20
8.20943235706653
30
0
41
1
10
63.4010788134529
20
8.18706910776814
30
0
41
1
10
64.3272469960296
20
8.12221789113343
30
0
41
1
10
64.7896087512947
20
8.07934755429019
30
0
41
1
10
65.4815460546809
20
7.998325624648
30
0
41
1
10
65.7119190804989
20
7.96858508540953
30
0
41
1
10
66.1722613908906
20
7.90397051120297
30
0
41
1
10
66.402860185437
20
7.86946224862402
30
0
41
1
10
67.0939359803496
20
7.75860625156659
30
0
41
1
10
67.5539124005136
20
7.67424473757384
30
0
41
1
10
68.4741448690189
20
7.48420014928089
30
0
41
1
10
68.9349009345803
20
7.37925558622536
30
0
41
1
10
69.8575462399659
20
7.1519560926568
30
0
41
1
10
70.319013069925
20
7.02877527728472
30
0
41
1
10
71.0121562628788
20
6.82773288849623
30
0
41
1
10
71.2440601066511
20
6.75897196834961
30
0
41
1
10
71.7078899738534
20
6.61641266578724
30
0
41
1
10
71.9400125678972
20
6.54281970113544
30
0
41
1
10
72.4046068566467
20
6.39115248266063
30
0
41
1
10
72.6370532681191
20
6.31316013569665
30
0
41
1
10
73.1028981919814
20
6.15277157714948
30
0
41
1
10
73.3364617484718
20
6.07040310103284
30
0
41
1
10
74.0357416375352
20
5.81684417866248
30
0
41
1
10
74.5016718192017
20
5.64037805466492
30
0
41
1
10
75.1992464053098
20
5.36434447469816
30
0
41
1
10
75.431439364906
20
5.27029051734385
30
0
41
1
10
75.8961961484565
20
5.07948056719871
30
0
41
1
10
76.1290503555726
20
4.98308801711551
30
0
41
1
10
76.826860321978
20
4.6871283658225
30
0
41
1
10
77.2915863275529
20
4.48187372093469
30
0
41
1
10
77.9899053304792
20
4.1661951781704
30
0
41
1
10
78.2229956338085
20
4.0598602457965
30
0
41
1
10
78.6892816927353
20
3.84420848798376
30
0
41
1
10
78.9227734196104
20
3.73518845670697
30
0
41
1
10
79.3885470572069
20
3.51500260724748
30
0
41
1
10
79.6209317433068
20
3.40359424314607
30
0
41
1
10
80.0848274886091
20
3.17846187974342
30
0
41
1
10
80.3160907587315
20
3.06427568675505
30
0
41
1
10
81.0108005933963
20
2.72243735590945
30
0
41
1
10
81.4730518948851
20
2.49165820733833
30
0
41
1
10
82.1644402382141
20
2.13971574948349
30
0
41
1
10
82.3946087366904
20
2.0214689974166
30
0
41
1
10
82.8551209288976
20
1.78460815715496
30
0
41
1
10
83.0853746925469
20
1.66583296070806
30
0
41
1
10
83.7757138082139
20
1.30775023021738
30
0
41
1
10
84.2361025455743
20
1.06810284715098
30
0
41
1
10
84.9256443560016
20
0.704773407293004
30
0
41
1
10
85.1551691015308
20
0.58269124465113
30
0
41
1
10
85.6156397138539
20
0.340535599158869
30
0
41
1
10
85.845961766806
20
0.219276396602197
30
0
41
1
10
86.5369835172776
20
-0.145349657705197
30
0
41
1
10
86.9974255233194
20
-0.390195630893544
30
0
41
1
10
87.690071579022
20
-0.755427995294582
30
0
41
1
10
87.9212222723856
20
-0.876968227779656
30
0
41
1
10
88.3840887946059
20
-1.11972484423532
30
0
41
1
10
88.6159993825047
20
-1.24054233168278
30
0
41
1
10
89.0802617265335
20
-1.48197576108728
30
0
41
1
10
89.3125865887403
20
-1.60264854169279
30
0
41
1
10
89.7777190361511
20
-1.84370765625656
30
0
41
1
10
90.010592327841
20
-1.96441847668331
30
0
41
1
10
90.7102740423423
20
-2.32139559332532
30
0
41
1
10
91.1757407653882
20
-2.5568556878149
30
0
41
1
10
92.1051422205633
20
-3.02057565939401
30
0
41
1
10
92.5697925574008
20
-3.24796799671384
30
0
41
1
10
93.499435580097
20
-3.69384123918277
30
0
41
1
10
93.9645673959955
20
-3.91200040779066
30
0
41
1
10
94.6619691174569
20
-4.23230527665504
30
0
41
1
10
94.894516567422
20
-4.33778781877373
30
0
41
1
10
95.3606666054143
20
-4.54487660918525
30
0
41
1
10
95.5939907120477
20
-4.64715649270184
30
0
41
1
10
96.0601046223157
20
-4.84902379388794
30
0
41
1
10
96.292844015155
20
-4.94876406935239
30
0
41
1
10
96.7579462004219
20
-5.14450958082011
30
0
41
1
10
96.9903843773284
20
-5.24027312740381
30
0
41
1
10
97.4554506262027
20
-5.42756674721707
30
0
41
1
10
97.6878421739505
20
-5.51942446882995
30
0
41
1
10
98.1527916379676
20
-5.6992139768075
30
0
41
1
10
98.3853469344112
20
-5.78715502339958
30
0
41
1
10
98.8501218072367
20
-5.96003600732683
30
0
41
1
10
99.0823722089999
20
-6.04506468121653
30
0
41
1
10
99.430701316698
20
-6.16944447811065
30
0
41
1
10
99.5467297009134
20
-6.21046719229577
30
0
41
1
10
99.7792322810187
20
-6.29092057601221
30
0
41
1
10
99.8956554456583
20
-6.33041983625364
30
0
41
1
10
100.477581937933
20
-6.52568111736116
30
0
41
1
10
100.94371137822
20
-6.67356775956475
30
0
41
1
10
101.875141017459
20
-6.95289545620184
30
0
41
1
10
102.340505839369
20
-7.083769665565
30
0
41
1
10
103.270923849547
20
-7.32378735636422
30
0
41
1
10
103.735742458299
20
-7.43382200300721
30
0
41
1
10
104.664312884055
20
-7.63545797084888
30
0
41
1
10
105.129827199351
20
-7.72617175404542
30
0
41
1
10
105.827632604781
20
-7.84656222411067
30
0
41
1
10
106.06022890946
20
-7.88409136924324
30
0
41
1
10
106.525815118235
20
-7.95387351760397
30
0
41
1
10
106.759087411786
20
-7.98606502116135
30
0
41
1
10
107.458169266894
20
-8.07481866495064
30
0
41
1
10
107.923821416737
20
-8.12379171624755
30
0
41
1
10
108.621133405672
20
-8.18008323766011
30
0
41
1
10
108.853373105607
20
-8.19600850780057
30
0
41
1
10
109.317607219623
20
-8.22237498288894
30
0
41
1
10
109.550285171582
20
-8.2327022246827
30
0
41
1
10
110.247725487342
20
-8.25601706328865
30
0
41
1
10
110.712209929981
20
-8.26136795304194
30
0
41
1
10
111.409735626425
20
-8.25209380003341
30
0
41
1
10
111.642611229193
20
-8.24607224039065
30
0
41
1
10
112.108603578818
20
-8.2284134367633
30
0
41
1
10
112.341935151174
20
-8.21676487418415
30
0
41
1
10
113.040633791137
20
-8.17404251263417
30
0
41
1
10
113.504473355142
20
-8.1351558629209
30
0
41
1
10
114.198370458614
20
-8.06052533509279
30
0
41
1
10
114.429958587146
20
-8.03311178288607
30
0
41
1
10
114.892078452802
20
-7.97266986591279
30
0
41
1
10
115.122837949416
20
-7.93975331327209
30
0
41
1
10
115.583777600359
20
-7.86877356294019
30
0
41
1
10
115.813954712539
20
-7.83073119431256
30
0
41
1
10
116.274289586414
20
-7.7499123706217
30
0
41
1
10
116.504544939109
20
-7.70718685702533
30
0
41
1
10
117.194781110841
20
-7.57126579033238
30
0
41
1
10
117.655056875351
20
-7.47068050599134
30
0
41
1
10
118.344676386639
20
-7.30442197669308
30
0
41
1
10
118.574296676971
20
-7.24634065042346
30
0
41
1
10
119.034204751154
20
-7.12609746433037
30
0
41
1
10
119.264661177638
20
-7.06412222641967
30
0
41
1
10
119.955532294719
20
-6.87071394316848
30
0
41
1
10
120.415940581288
20
-6.73174595946057
30
0
41
1
10
121.339176910555
20
-6.43574004852388
30
0
41
1
10
121.802008227931
20
-6.27941982942249
30
0
41
1
10
122.498094769832
20
-6.03260203950214
30
0
41
1
10
122.730341386266
20
-5.94803646597481
30
0
41
1
10
123.19536489636
20
-5.77416966598332
30
0
41
1
10
123.428108380289
20
-5.68440457071031
30
0
41
1
10
124.127501756987
20
-5.41191471143298
30
0
41
1
10
124.59328274292
20
-5.22356499710307
30
0
41
1
10
125.290402835117
20
-4.93024511669952
30
0
41
1
10
125.522569968171
20
-4.83060811441078
30
0
41
1
10
125.958459389736
20
-4.64117190497328
30
0
41
1
10
126.162063753591
20
-4.55160041651075
30
0
41
1
10
126.365643442306
20
-4.46081815639926
30
0
0
SPLINE
5
DC
100
AcDbEntity
8
1
62
256
6
ByLayer
370
18
48
1
60
0
100
AcDbSpline
70
4
71
3
72
62
73
58
40
0
40
0
40
0
40
0
40
0.0021856589594298
40
0.0021856589594298
40
0.0497006275804152
40
0.0497006275804152
40
0.0734581118909066
40
0.0734581118909066
40
0.0972155962013986
40
0.0972155962013986
40
0.144730564822379
40
0.144730564822379
40
0.192245533443361
40
0.192245533443361
40
0.216003017753851
40
0.216003017753851
40
0.239760502064341
40
0.239760502064341
40
0.287275470685323
40
0.287275470685323
40
0.311032954995813
40
0.311032954995813
40
0.334790439306303
40
0.334790439306303
40
0.382305407927284
40
0.382305407927284
40
0.406062892237775
40
0.406062892237775
40
0.429820376548265
40
0.429820376548265
40
0.477335345169246
40
0.477335345169246
40
0.524850313790227
40
0.524850313790227
40
0.548607798100717
40
0.548607798100717
40
0.572365282411206
40
0.572365282411206
40
0.619880251032185
40
0.619880251032185
40
0.667395219653164
40
0.667395219653164
40
0.714910188274142
40
0.714910188274142
40
0.73866767258463
40
0.73866767258463
40
0.762425156895118
40
0.762425156895118
40
0.809940125516095
40
0.809940125516095
40
0.857455094137071
40
0.857455094137071
40
0.904970062758047
40
0.904970062758047
40
0.952485031379024
40
0.952485031379024
40
1
40
1
40
1
40
1
41
1
10
159.794797603781
20
8.28751478767794
30
0
41
1
10
159.816156412766
20
8.28750888518155
30
0
41
1
10
159.837514560098
20
8.28748178959987
30
0
41
1
10
160.323166424272
20
8.28638685827588
30
0
41
1
10
160.787857254431
20
8.27503402308341
30
0
41
1
10
161.4847119547
20
8.239278333942
30
0
41
1
10
161.716797699598
20
8.22442216565264
30
0
41
1
10
162.182026351156
20
8.18940074280121
30
0
41
1
10
162.415303196288
20
8.1693110231316
30
0
41
1
10
163.11390764654
20
8.10171630695046
30
0
41
1
10
163.577460442175
20
8.04619469101564
30
0
41
1
10
164.502809258954
20
7.91281432210869
30
0
41
1
10
164.964610427194
20
7.8350891054057
30
0
41
1
10
165.656307624733
20
7.70505328283866
30
0
41
1
10
165.886585326201
20
7.65946499991591
30
0
41
1
10
166.346598447247
20
7.56300419809239
30
0
41
1
10
166.576085181555
20
7.51188660564318
30
0
41
1
10
167.266009409716
20
7.35232513166341
30
0
41
1
10
167.725734198785
20
7.23573214778494
30
0
41
1
10
168.414460901114
20
7.04683963896218
30
0
41
1
10
168.643916358352
20
6.98173547397815
30
0
41
1
10
169.103318865913
20
6.84749517424484
30
0
41
1
10
169.33319485597
20
6.77818594358638
30
0
41
1
10
170.022940515975
20
6.56293455416426
30
0
41
1
10
170.483693707058
20
6.41056362959427
30
0
41
1
10
171.174957229908
20
6.16815552580815
30
0
41
1
10
171.405207222674
20
6.08495349088315
30
0
41
1
10
171.867343617336
20
5.91643073427281
30
0
41
1
10
172.098651873626
20
5.83017425172227
30
0
41
1
10
172.793285796224
20
5.56434618018386
30
0
41
1
10
173.257102543766
20
5.37741780237229
30
0
41
1
10
174.188724111772
20
4.99020988481018
30
0
41
1
10
174.654007900553
20
4.79089108153471
30
0
41
1
10
175.351241060767
20
4.48279461075688
30
0
41
1
10
175.583423990569
20
4.37835607214851
30
0
41
1
10
176.047468976606
20
4.16625368323775
30
0
41
1
10
176.279231105186
20
4.05841811301482
30
0
41
1
10
176.976096265491
20
3.73357287753134
30
0
41
1
10
177.440449330528
20
3.51153155191648
30
0
41
1
10
178.369126014046
20
3.05675536824563
30
0
41
1
10
178.834334223401
20
2.82500935498493
30
0
41
1
10
179.766070127943
20
2.35463667757318
30
0
41
1
10
180.230635998965
20
2.1173541415366
30
0
41
1
10
180.924645627577
20
1.75655454363709
30
0
41
1
10
181.155641842679
20
1.6357388511469
30
0
41
1
10
181.617828717668
20
1.39470148502687
30
0
41
1
10
181.848634492345
20
1.27373370183676
30
0
41
1
10
182.540167386258
20
0.909433916762765
30
0
41
1
10
182.999758091375
20
0.664219091101444
30
0
41
1
10
183.919520457331
20
0.175710718969128
30
0
41
1
10
184.379186829657
20
-0.068536831765357
30
0
41
1
10
185.298205807117
20
-0.556800204401327
30
0
41
1
10
185.756869150293
20
-0.802149868825921
30
0
41
1
10
186.677012308409
20
-1.28667217982473
30
0
41
1
10
187.137151986988
20
-1.5283989102806
30
0
41
1
10
188.058378380113
20
-2.00920170535684
30
0
41
1
10
188.520069079892
20
-2.24714206297298
30
0
41
1
10
188.983004036169
20
-2.48231479037051
30
0
0
SPLINE
5
DD
100
AcDbEntity
8
1
62
256
6
ByLayer
370
18
48
1
60
0
100
AcDbSpline
70
4
71
3
72
8
73
4
40
0
40
0
40
0
40
0
40
1
40
1
40
1
40
1
41
1
10
195.000252634705
20
-8.39501885468988
30
0
41
1
10
194.955248105079
20
-8.5090685105767
30
0
41
1
10
194.910206355352
20
-8.62294089332741
30
0
41
1
10
194.86513564228
20
-8.73664045980024
30
0
0
SPLINE
5
DE
100
AcDbEntity
8
1
62
256
6
ByLayer
370
18
48
1
60
0
100
AcDbSpline
70
4
71
3
72
8
73
4
40
0
40
0
40
0
40
0
40
1
40
1
40
1
40
1
41
1
10
194.898098448951
20
-8.30488863526355
30
0
41
1
10
194.915680352994
20
-8.31029166760692
30
0
41
1
10
194.934285509157
20
-8.31275363052202
30
0
41
1
10
194.953933648048
20
-8.31229906357643
30
0
0
SPLINE
5
DF
100
AcDbEntity
8
1
62
256
6
ByLayer
370
18
48
1
60
0
100
AcDbSpline
70
4
71
3
72
14
73
10
40
0
40
0
40
0
40
0
40
0.25
40
0.25
40
0.5
40
0.5
40
0.75
40
0.75
40
1
40
1
40
1
40
1
41
1
10
195.018291592251
20
-8.30154893544056
30
0
41
1
10
195.020697556711
20
-8.3008364934816
30
0
41
1
10
195.022412701542
20
-8.30192421376321
30
0
41
1
10
195.024059450543
20
-8.3087349447284
30
0
41
1
10
195.023930644554
20
-8.31458385531297
30
0
41
1
10
195.020996870661
20
-8.3317329394977
30
0
41
1
10
195.018162955768
20
-8.34299923254804
30
0
41
1
10
195.010363197732
20
-8.36812279314285
30
0
41
1
10
195.005441459573
20
-8.38186942960746
30
0
41
1
10
195.000252634705
20
-8.39501885468985
30
0
0
SPLINE
5
E0
100
AcDbEntity
8
1
62
256
6
ByLayer
370
18
48
1
60
0
100
AcDbSpline
70
4
71
3
72
20
73
16
40
0
40
0
40
0
40
0
40
0.130689859660589
40
0.130689859660589
40
0.183133616551179
40
0.183133616551179
40
0.235577373441769
40
0.235577373441769
40
0.340464887222949
40
0.340464887222949
40
0.760014942347667
40
0.760014942347667
40
0.969789969910024
40
0.969789969910024
40
1
40
1
40
1
40
1
41
1
10
22.5149448372427
20
-0.0028758939931208
30
0
41
1
10
23.1364674120597
20
-0.333885875405599
30
0
41
1
10
23.7591821891449
20
-0.665549901258004
30
0
41
1
10
24.6349339212975
20
-1.12839233720732
30
0
41
1
10
24.8860760483074
20
-1.26073415563474
30
0
41
1
10
25.3891858023625
20
-1.52479407584895
30
0
41
1
10
25.6412024181992
20
-1.65653282356368
30
0
41
1
10
26.3950172104833
20
-2.04854426605118
30
0
41
1
10
26.8957996134344
20
-2.30625175250867
30
0
41
1
10
29.3934209838105
20
-3.57241469338868
30
0
41
1
10
31.3719999256185
20
-4.51241644877769
30
0
41
1
10
34.3580500347986
20
-5.73490765014375
30
0
41
1
10
35.356461942267
20
-6.11112137617593
30
0
41
1
10
36.5066962929227
20
-6.49847218603443
30
0
41
1
10
36.6517047333073
20
-6.54646970446626
30
0
41
1
10
36.7966686263857
20
-6.59359989836645
30
0
0
SPLINE
5
E1
100
AcDbEntity
8
1
62
256
6
ByLayer
370
13
48
1
60
0
100
AcDbSpline
70
4
71
3
72
22
73
18
40
0
40
0
40
0
40
0
40
0.0259585407236078
40
0.0259585407236078
40
0.087188376664184
40
0.087188376664184
40
0.209648048545333
40
0.209648048545333
40
0.699486736069928
40
0.699486736069928
40
0.821946407951077
40
0.821946407951077
40
0.883176243891652
40
0.883176243891652
40
0.944406079832227
40
0.944406079832227
40
1
40
1
40
1
40
1
41
1
10
36.7966695774917
20
-6.59360020758697
30
0
41
1
10
36.9033585812126
20
-6.62828659002076
30
0
41
1
10
37.0100234555303
20
-6.66250318504086
30
0
41
1
10
37.3678580328284
20
-6.77571122579894
30
0
41
1
10
37.6187200446755
20
-6.85246228286545
30
0
41
1
10
38.3701945861986
20
-7.07435289466375
30
0
41
1
10
38.8696829494284
20
-7.2111507226324
30
0
41
1
10
41.3618586970375
20
-7.83779432697767
30
0
41
1
10
43.3397608995088
20
-8.15508159744013
30
0
41
1
10
45.8313410394637
20
-8.29909858165735
30
0
41
1
10
46.3305916169812
20
-8.31530693592651
30
0
41
1
10
47.0818352693099
20
-8.32038449918471
30
0
41
1
10
47.3326247201893
20
-8.31885646242449
30
0
41
1
10
47.8350555492726
20
-8.30929712297086
30
0
41
1
10
48.0870040653951
20
-8.30125116774252
30
0
41
1
10
48.5665969788654
20
-8.27975625081234
30
0
41
1
10
48.7944591309318
20
-8.26688655662562
30
0
41
1
10
49.0220005803557
20
-8.25140730449286
30
0
0
SPLINE
5
E2
100
AcDbEntity
8
1
62
256
6
ByLayer
370
18
48
1
60
0
100
AcDbSpline
70
4
71
3
72
18
73
14
40
0
40
0
40
0
40
0
40
0.0946094895352344
40
0.0946094895352344
40
0.206441053341917
40
0.206441053341917
40
0.653767308568648
40
0.653767308568648
40
0.877430436182013
40
0.877430436182013
40
0.989261999988694
40
0.989261999988694
40
1
40
1
40
1
40
1
41
1
10
120.423363254179
20
0.0462062934458629
30
0
41
1
10
120.845429947506
20
-0.180134493187381
30
0
41
1
10
121.268215046095
20
-0.406951611513733
30
0
41
1
10
122.19298633997
20
-0.901652507750583
30
0
41
1
10
122.696583716143
20
-1.17006117880072
30
0
41
1
10
125.203872705491
20
-2.49521810664723
30
0
41
1
10
127.182454751652
20
-3.50555998748533
30
0
41
1
10
130.158197509067
20
-4.86366935816389
30
0
41
1
10
131.151294744114
20
-5.29033501725996
30
0
41
1
10
132.648862741646
20
-5.88120118760369
30
0
41
1
10
133.149370989646
20
-6.06996282646872
30
0
41
1
10
133.699958682302
20
-6.26691733337921
30
0
41
1
10
133.748204084796
20
-6.28408562413355
30
0
41
1
10
133.796452292471
20
-6.30116458269492
30
0
0
SPLINE
5
E3
100
AcDbEntity
8
1
62
256
6
ByLayer
370
13
48
1
60
0
100
AcDbSpline
70
4
71
3
72
20
73
16
40
0
40
0
40
0
40
0
40
0.0456269998989492
40
0.0456269998989492
40
0.102098771605436
40
0.102098771605436
40
0.553872945257296
40
0.553872945257296
40
0.77976003208323
40
0.77976003208323
40
0.836231803789711
40
0.836231803789711
40
0.892703575496191
40
0.892703575496191
40
1
40
1
40
1
40
1
41
1
10
133.796452294848
20
-6.30116458353646
30
0
41
1
10
133.999446054601
20
-6.37302055865953
30
0
41
1
10
134.202489469455
20
-6.44329524568914
30
0
41
1
10
134.655773436574
20
-6.59651737044973
30
0
41
1
10
134.906057923367
20
-6.67861245682064
30
0
41
1
10
137.155346588745
20
-7.39299876114845
30
0
41
1
10
139.13155112646
20
-7.8537431657474
30
0
41
1
10
142.108994757719
20
-8.25062623346264
30
0
41
1
10
143.10368511087
20
-8.33388949536771
30
0
41
1
10
144.354797942259
20
-8.37366131400873
30
0
41
1
10
144.605410018669
20
-8.37838804387025
30
0
41
1
10
145.107551401973
20
-8.38133298934861
30
0
41
1
10
145.359023833823
20
-8.37954035197612
30
0
41
1
10
146.086136179004
20
-8.36494780476707
30
0
41
1
10
146.560954500069
20
-8.34372229009176
30
0
41
1
10
147.034622196048
20
-8.31103732183468
30
0
0
SPLINE
5
E4
100
AcDbEntity
8
1
62
256
6
ByLayer
370
13
48
1
60
0
100
AcDbSpline
70
4
71
3
72
46
73
42
40
0
40
0
40
0
40
0
40
0.0321182493819794
40
0.0321182493819794
40
0.106570691737211
40
0.106570691737211
40
0.181023134092443
40
0.181023134092443
40
0.21824935527006
40
0.21824935527006
40
0.255475576447675
40
0.292701797625291
40
0.292701797625291
40
0.329928018802908
40
0.329928018802908
40
0.40438046115814
40
0.40438046115814
40
0.441606682335756
40
0.441606682335756
40
0.478832903513372
40
0.478832903513372
40
0.553285345868605
40
0.553285345868605
40
0.590511567046221
40
0.590511567046221
40
0.627737788223837
40
0.627737788223837
40
0.70219023057907
40
0.776642672934302
40
0.776642672934302
40
0.813868894111919
40
0.813868894111919
40
0.851095115289535
40
0.851095115289535
40
0.925547557644767
40
0.925547557644767
40
0.962773778822384
40
0.962773778822384
40
0.981386889411192
40
0.981386889411192
40
1
40
1
40
1
40
1
41
1
10
3.43854917717698
20
-8.19262993202386
30
0
41
1
10
3.43854376522194
20
-8.1924564132446
30
0
41
1
10
3.43853824237513
20
-8.18792531477305
30
0
41
1
10
3.43851993426304
20
-8.1586524526781
30
0
41
1
10
3.43850712834242
20
-8.11532518532741
30
0
41
1
10
3.43848295482223
20
-7.98417680196349
30
0
41
1
10
3.43847158332247
20
-7.89635467449602
30
0
41
1
10
3.43845659066886
20
-7.73048869689885
30
0
41
1
10
3.43845192526254
20
-7.66929869725021
30
0
41
1
10
3.43844350452116
20
-7.5362277510433
30
0
41
1
10
3.43843599439532
20
-7.39263474873343
30
0
41
1
10
3.43843051997521
20
-7.22814971856627
30
0
41
1
10
3.43842616006492
20
-7.05316066025858
30
0
41
1
10
3.43842453865531
20
-6.96030016049551
30
0
41
1
10
3.43842148753279
20
-6.66806408682373
30
0
41
1
10
3.43842185547538
20
-6.45449797518464
30
0
41
1
10
3.43842618154085
20
-6.105917385146
30
0
41
1
10
3.43842825253654
20
-5.98518114968516
30
0
41
1
10
3.43843357749947
20
-5.73703484744689
30
0
41
1
10
3.43843683468862
20
-5.60931892141454
30
0
41
1
10
3.43844829971516
20
-5.21542647646947
30
0
41
1
10
3.438458206679
20
-4.93854947943578
30
0
41
1
10
3.43847600773344
20
-4.50172659549753
30
0
41
1
10
3.43848243019039
20
-4.35252340399964
30
0
41
1
10
3.43849615796961
20
-4.04677344630429
30
0
41
1
10
3.43850348156994
20
-3.88987728593443
30
0
41
1
10
3.43852626498398
20
-3.41482709189768
30
0
41
1
10
3.43855898102763
20
-2.76587962273729
30
0
41
1
10
3.43859372515922
20
-2.08664532100781
30
0
41
1
10
3.43861942692251
20
-1.56558479260968
30
0
41
1
10
3.4386279638465
20
-1.38928493953623
30
0
41
1
10
3.43864451035205
20
-1.03685298240637
30
0
41
1
10
3.43865252520374
20
-0.86064726673925
30
0
41
1
10
3.438675509342
20
-0.33206020583097
30
0
41
1
10
3.43868942170892
20
0.0202911755363289
30
0
41
1
10
3.43870700168367
20
0.548758740293664
30
0
41
1
10
3.43871231291433
20
0.72490464649951
30
0
41
1
10
3.43871929965468
20
0.989108359946272
30
0
41
1
10
3.43872146512189
20
1.07717373811715
30
0
41
1
10
3.43872544163651
20
1.25329937964372
30
0
41
1
10
3.43872725980319
20
1.34177028120939
30
0
41
1
10
3.43872887220147
20
1.42941703204428
30
0
0
SPLINE
5
E5
100
AcDbEntity
8
1
62
256
6
ByLayer
370
18
48
1
60
0
100
AcDbSpline
70
4
71
3
72
12
73
8
40
0
40
0
40
0
40
0
40
0.250000000000011
40
0.250000000000011
40
0.500000000000023
40
0.500000000000023
40
1
40
1
40
1
40
1
41
1
10
3.31731367664114
20
8.13509753459977
30
0
41
1
10
3.29772179594008
20
8.13870696404121
30
0
41
1
10
3.28000211945312
20
8.14308080569819
30
0
41
1
10
3.24820135138418
20
8.15325348421885
30
0
41
1
10
3.23429565199805
20
8.15904186807211
30
0
41
1
10
3.20063895787251
20
8.1774981937206
30
0
41
1
10
3.18841206112018
20
8.19153891943481
30
0
41
1
10
3.18841206112018
20
8.20541463910544
30
0
0
SPLINE
5
E6
100
AcDbEntity
8
1
62
256
6
ByLayer
370
18
48
1
60
0
100
AcDbSpline
70
4
71
3
72
42
73
38
40
0
40
0
40
0
40
0
40
0.0624999999999977
40
0.0624999999999977
40
0.124999999999995
40
0.124999999999995
40
0.187499999999993
40
0.187499999999993
40
0.249999999999991
40
0.249999999999991
40
0.281249999999989
40
0.281249999999989
40
0.312499999999988
40
0.312499999999988
40
0.328124999999985
40
0.328124999999985
40
0.343749999999982
40
0.343749999999982
40
0.374999999999977
40
0.374999999999977
40
0.406249999999973
40
0.406249999999973
40
0.437499999999968
40
0.437499999999968
40
0.468749999999963
40
0.468749999999963
40
0.499999999999958
40
0.499999999999958
40
0.562499999999959
40
0.562499999999959
40
0.62499999999996
40
0.62499999999996
40
0.749999999999973
40
0.749999999999973
40
0.874999999999987
40
0.874999999999987
40
1
40
1
40
1
40
1
41
1
10
194.695041374339
20
-4.54118999421303
30
0
41
1
10
194.607831692896
20
-4.48221701828751
30
0
41
1
10
194.520960086364
20
-4.41998775651325
30
0
41
1
10
194.350882243321
20
-4.28943916515152
30
0
41
1
10
194.267405718625
20
-4.22098003121224
30
0
41
1
10
194.104589091407
20
-4.0756299517885
30
0
41
1
10
194.024855493818
20
-3.99840793972436
30
0
41
1
10
193.873455965965
20
-3.833480628763
30
0
41
1
10
193.801833649917
20
-3.74621239146958
30
0
41
1
10
193.70508779117
20
-3.60271649080843
30
0
41
1
10
193.675145653122
20
-3.55343121860295
30
0
41
1
10
193.62161798328
20
-3.45101298606895
30
0
41
1
10
193.597775796637
20
-3.3972378827948
30
0
41
1
10
193.570036318633
20
-3.3148164653621
30
0
41
1
10
193.562142932566
20
-3.28713028071712
30
0
41
1
10
193.549520578444
20
-3.23126123554985
30
0
41
1
10
193.544769374064
20
-3.20281809669874
30
0
41
1
10
193.536390722556
20
-3.11860633446773
30
0
41
1
10
193.538544570444
20
-3.0646497387163
30
0
41
1
10
193.559481991502
20
-2.9614304431166
30
0
41
1
10
193.577775475259
20
-2.91483150246051
30
0
41
1
10
193.626319078647
20
-2.83111858447043
30
0
41
1
10
193.655675647588
20
-2.79527233499334
30
0
41
1
10
193.720855407555
20
-2.73218684888155
30
0
41
1
10
193.757033264953
20
-2.70478992558719
30
0
41
1
10
193.832162164555
20
-2.65750183322419
30
0
41
1
10
193.871339193987
20
-2.63737298790883
30
0
41
1
10
193.992345563721
20
-2.58456208549467
30
0
41
1
10
194.078147851166
20
-2.55924682689957
30
0
41
1
10
194.251601376255
20
-2.5217017757922
30
0
41
1
10
194.339596119706
20
-2.50938609415837
30
0
41
1
10
194.606108301388
20
-2.4853119459118
30
0
41
1
10
194.787110113151
20
-2.4862044680213
30
0
41
1
10
195.153047199703
20
-2.50801959051836
30
0
41
1
10
195.338105537173
20
-2.52932464614904
30
0
41
1
10
195.70763986932
20
-2.58643594266203
30
0
41
1
10
195.892659486491
20
-2.6223508579593
30
0
41
1
10
196.077884996777
20
-2.66426781656798
30
0
0
SPLINE
5
E7
100
AcDbEntity
8
1
62
256
6
ByLayer
370
13
48
1
60
0
100
AcDbSpline
70
4
71
3
72
12
73
8
40
0
40
0
40
0
40
0
40
0.479989837958071
40
0.479989837958071
40
0.936035774710172
40
0.936035774710172
40
1
40
1
40
1
40
1
41
1
10
3.43858718866883
20
8.11017536527524
30
0
41
1
10
3.43858179103361
20
8.1367707342998
30
0
41
1
10
3.43857596413687
20
8.15699394116248
30
0
41
1
10
3.43856404715018
20
8.18374440261496
30
0
41
1
10
3.4385579787602
20
8.19097451925418
30
0
41
1
10
3.4385508768095
20
8.19257919288566
30
0
41
1
10
3.43854999981068
20
8.19266113906104
30
0
41
1
10
3.43854911989209
20
8.19262793276536
30
0
0
SPLINE
5
E8
100
AcDbEntity
8
1
62
256
6
ByLayer
370
18
48
1
60
0
100
AcDbSpline
70
4
71
3
72
14
73
10
40
0
40
0
40
0
40
0
40
0.125
40
0.125
40
0.25
40
0.25
40
0.5
40
0.5
40
1
40
1
40
1
40
1
41
1
10
195.18851687687
20
8.50674103723898
30
0
41
1
10
195.293597311773
20
8.24342688437687
30
0
41
1
10
195.398613303305
20
7.9799770673217
30
0
41
1
10
195.608585569347
20
7.45289807627438
30
0
41
1
10
195.713521155281
20
7.1892492176795
30
0
41
1
10
196.027835847829
20
6.39772295927761
30
0
41
1
10
196.23680528616
20
5.86933967070757
30
0
41
1
10
196.861053505156
20
4.2816923348982
30
0
41
1
10
197.273492858251
20
3.21991026511665
30
0
41
1
10
197.679937119784
20
2.15666741297315
30
0
0
SPLINE
5
E9
100
AcDbEntity
8
1
62
256
6
ByLayer
370
18
48
1
60
0
100
AcDbSpline
70
4
71
3
72
78
73
74
40
0
40
0
40
0
40
0
40
0.0430256238287106
40
0.0430256238287106
40
0.0645384357430661
40
0.0645384357430661
40
0.0860512476574216
40
0.0860512476574216
40
0.129076871486133
40
0.129076871486133
40
0.172102495314844
40
0.172102495314844
40
0.1936153072292
40
0.1936153072292
40
0.215128119143556
40
0.215128119143556
40
0.236640931057912
40
0.236640931057912
40
0.258153742972268
40
0.258153742972268
40
0.279666554886624
40
0.279666554886624
40
0.30117936680098
40
0.30117936680098
40
0.344204990629693
40
0.344204990629693
40
0.354961396586871
40
0.354961396586871
40
0.36571780254405
40
0.36571780254405
40
0.387230614458406
40
0.387230614458406
40
0.430256238287118
40
0.430256238287118
40
0.47328186211583
40
0.47328186211583
40
0.494794674030186
40
0.494794674030186
40
0.516307485944541
40
0.516307485944541
40
0.559333109773251
40
0.559333109773251
40
0.602358733601962
40
0.602358733601962
40
0.623871545516316
40
0.623871545516316
40
0.645384357430671
40
0.645384357430671
40
0.688409981259381
40
0.688409981259381
40
0.731435605088091
40
0.731435605088091
40
0.774461228916801
40
0.774461228916801
40
0.785217634873979
40
0.785217634873979
40
0.795974040831157
40
0.795974040831157
40
0.817486852745513
40
0.817486852745513
40
0.838999664659868
40
0.838999664659868
40
0.860512476574224
40
0.860512476574224
40
0.903538100402935
40
0.903538100402935
40
0.925050912317291
40
0.925050912317291
40
0.946563724231646
40
0.946563724231646
40
0.989589348060357
40
0.989589348060357
40
1
40
1
40
1
40
1
41
1
10
10.9962002266949
20
4.70320797182313
30
0
41
1
10
11.4785163848965
20
4.47722987255216
30
0
41
1
10
11.9598338355502
20
4.24656926918453
30
0
41
1
10
12.6809168880058
20
3.89479272303512
30
0
41
1
10
12.9210580888072
20
3.77645133805501
30
0
41
1
10
13.4004447772949
20
3.53683561335109
30
0
41
1
10
13.6391775990986
20
3.41467755396115
30
0
41
1
10
14.3558284380031
20
3.04685744639954
30
0
41
1
10
14.8339620200639
20
2.79949297800431
30
0
41
1
10
15.7881693054338
20
2.29568959476325
30
0
41
1
10
16.2640269926577
20
2.03882710865116
30
0
41
1
10
16.9787750779289
20
1.65111987321387
30
0
41
1
10
17.2172057505508
20
1.52152496672582
30
0
41
1
10
17.6943721849055
20
1.26152366221078
30
0
41
1
10
17.9332239587086
20
1.13133252800074
30
0
41
1
10
18.4102206364821
20
0.868268378465899
30
0
41
1
10
18.6484854471365
20
0.73560633386208
30
0
41
1
10
19.1263471405817
20
0.471352937028399
30
0
41
1
10
19.3656963558854
20
0.339306967670979
30
0
41
1
10
19.8450709303553
20
0.0750857528453253
30
0
41
1
10
20.0850148347877
20
-0.0572415089532115
30
0
41
1
10
20.56491407233
20
-0.323307626329978
30
0
41
1
10
20.8049903428331
20
-0.456820950767792
30
0
41
1
10
21.5267769505234
20
-0.85657388403888
30
0
41
1
10
22.010566654666
20
-1.12303523318511
30
0
41
1
10
22.614218037111
20
-1.4522129754132
30
0
41
1
10
22.7349008670856
20
-1.51790961312415
30
0
41
1
10
22.9761104569745
20
-1.64913436074201
30
0
41
1
10
23.0964026904128
20
-1.71508162062122
30
0
41
1
10
23.4574050589219
20
-1.91201667512311
30
0
41
1
10
23.6981966474137
20
-2.0421826732312
30
0
41
1
10
24.4209603232557
20
-2.42932664698327
30
0
41
1
10
24.9032589528684
20
-2.68308823758724
30
0
41
1
10
25.8660155636639
20
-3.18663385455306
30
0
41
1
10
26.3476644982551
20
-3.43434300599807
30
0
41
1
10
27.0721538875333
20
-3.79712873542277
30
0
41
1
10
27.3140820893378
20
-3.91674701950493
30
0
41
1
10
27.7972038870789
20
-4.15320467262626
30
0
41
1
10
28.0378896395302
20
-4.27097016849609
30
0
41
1
10
28.7607031105385
20
-4.61743763415168
30
0
41
1
10
29.2432684390388
20
-4.83995143677478
30
0
41
1
10
30.2066967718358
20
-5.27293350889806
30
0
41
1
10
30.6874881091437
20
-5.48339181302828
30
0
41
1
10
31.4101702377993
20
-5.78585662928782
30
0
41
1
10
31.6513433636643
20
-5.88444775771868
30
0
41
1
10
32.1341035406457
20
-6.07738407807469
30
0
41
1
10
32.3758970899993
20
-6.17147181028565
30
0
41
1
10
33.0996694908951
20
-6.45013561333519
30
0
41
1
10
33.5810018224
20
-6.62529759108278
30
0
41
1
10
34.5421117340191
20
-6.95437363232494
30
0
41
1
10
35.0204666445619
20
-7.10990157327001
30
0
41
1
10
35.9758588274834
20
-7.39951304444318
30
0
41
1
10
36.4530613667326
20
-7.53349545803232
30
0
41
1
10
37.0493450136171
20
-7.68732889713465
30
0
41
1
10
37.1685942851078
20
-7.71741133745891
30
0
41
1
10
37.4068627567858
20
-7.77637962839603
30
0
41
1
10
37.5256973611289
20
-7.80540973002016
30
0
41
1
10
37.8826001535957
20
-7.89007609577325
30
0
41
1
10
38.1207289509902
20
-7.94357586970852
30
0
41
1
10
38.5973832062528
20
-8.0447722097216
30
0
41
1
10
38.8359605360111
20
-8.09243998891708
30
0
41
1
10
39.3130235282814
20
-8.18232277548179
30
0
41
1
10
39.551383482206
20
-8.22460406340355
30
0
41
1
10
40.2665190177244
20
-8.34297637896128
30
0
41
1
10
40.74387234434
20
-8.41029448215008
30
0
41
1
10
41.4622889370176
20
-8.49321280053624
30
0
41
1
10
41.7021106815939
20
-8.51787386313072
30
0
41
1
10
42.1821731985399
20
-8.5612909387786
30
0
41
1
10
42.4218642601648
20
-8.58018124925653
30
0
41
1
10
43.1432717546549
20
-8.62732883811304
30
0
41
1
10
43.6277288013966
20
-8.64636759861085
30
0
41
1
10
44.2269417405903
20
-8.65470975834052
30
0
41
1
10
44.3435933849584
20
-8.6556066232728
30
0
41
1
10
44.4601828248716
20
-8.65577631384821
30
0
0
SPLINE
5
EA
100
AcDbEntity
8
1
62
256
6
ByLayer
370
18
48
1
60
0
100
AcDbSpline
70
4
71
3
72
136
73
132
40
0
40
0
40
0
40
0
40
0.0200671521759984
40
0.0200671521759984
40
0.0421675924257739
40
0.0421675924257739
40
0.0476927024882176
40
0.0476927024882176
40
0.0532178125506615
40
0.0532178125506615
40
0.0642680326755493
40
0.0642680326755493
40
0.075318252800437
40
0.075318252800437
40
0.0863684729253248
40
0.0863684729253248
40
0.1084689131751
40
0.1084689131751
40
0.119519133299988
40
0.119519133299988
40
0.130569353424876
40
0.130569353424876
40
0.152669793674651
40
0.152669793674651
40
0.174770233924427
40
0.174770233924427
40
0.185820454049314
40
0.185820454049314
40
0.196870674174202
40
0.196870674174202
40
0.218971114423976
40
0.218971114423976
40
0.241071554673751
40
0.241071554673751
40
0.263171994923525
40
0.263171994923525
40
0.26869710498597
40
0.26869710498597
40
0.274222215048414
40
0.274222215048414
40
0.285272435173302
40
0.285272435173302
40
0.29632265529819
40
0.29632265529819
40
0.307372875423078
40
0.307372875423078
40
0.329473315672855
40
0.329473315672855
40
0.340523535797743
40
0.340523535797743
40
0.35157375592263
40
0.35157375592263
40
0.373674196172406
40
0.373674196172406
40
0.395774636422181
40
0.395774636422181
40
0.406824856547069
40
0.406824856547069
40
0.417875076671958
40
0.417875076671958
40
0.439975516921734
40
0.439975516921734
40
0.462075957171511
40
0.462075957171511
40
0.484176397421287
40
0.484176397421287
40
0.489701507483731
40
0.489701507483731
40
0.495226617546175
40
0.495226617546175
40
0.506276837671063
40
0.506276837671063
40
0.51732705779595
40
0.51732705779595
40
0.528377277920838
40
0.528377277920838
40
0.550477718170614
40
0.550477718170614
40
0.561527938295501
40
0.561527938295501
40
0.572578158420388
40
0.572578158420388
40
0.594678598670163
40
0.594678598670163
40
0.616779038919937
40
0.616779038919937
40
0.638879479169712
40
0.638879479169712
40
0.660979919419487
40
0.660979919419487
40
0.683080359669262
40
0.683080359669262
40
0.705180799919036
40
0.705180799919036
40
0.716231020043923
40
0.716231020043923
40
0.72728124016881
40
0.72728124016881
40
0.738331460293698
40
0.738331460293698
40
0.749381680418585
40
0.749381680418585
40
0.77148212066836
40
0.77148212066836
40
0.782532340793247
40
0.782532340793247
40
0.793582560918135
40
0.793582560918135
40
0.81568300116791
40
0.81568300116791
40
0.837783441417686
40
0.837783441417686
40
0.859883881667462
40
0.859883881667462
40
0.881984321917237
40
0.881984321917237
40
0.904084762167013
40
0.904084762167013
40
0.926185202416788
40
0.926185202416788
40
0.937235422541676
40
0.937235422541676
40
0.948285642666563
40
0.948285642666563
40
0.959335862791451
40
0.959335862791451
40
0.970386082916339
40
0.970386082916339
40
0.992486523166115
40
0.992486523166115
40
1
40
1
40
1
40
1
41
1
10
77.4061730788563
20
4.45883603441871
30
0
41
1
10
77.8416790709527
20
4.66617559409144
30
0
41
1
10
78.27544220637
20
4.86899272793647
30
0
41
1
10
79.1859751304344
20
5.28138387835466
30
0
41
1
10
79.6628352829027
20
5.48934921602165
30
0
41
1
10
80.258525128194
20
5.73918799072939
30
0
41
1
10
80.377692289239
20
5.78858448793576
30
0
41
1
10
80.6155124353828
20
5.8870047389488
30
0
41
1
10
80.7342734829583
20
5.9358762412129
30
0
41
1
10
81.0909262556239
20
6.08037851430714
30
0
41
1
10
81.3288861276778
20
6.17430897644135
30
0
41
1
10
81.8051971510208
20
6.3574185396896
30
0
41
1
10
82.0435883110225
20
6.44655355327868
30
0
41
1
10
82.5201706219647
20
6.62081312594592
30
0
41
1
10
82.7582523399397
20
6.70605738216312
30
0
41
1
10
83.4727951931771
20
6.9549296621193
30
0
41
1
10
83.9498458870632
20
7.11136397393372
30
0
41
1
10
84.6677799165481
20
7.33038746106467
30
0
41
1
10
84.907428755422
20
7.4008566133206
30
0
41
1
10
85.3870881873434
20
7.53698451387598
30
0
41
1
10
85.6265289870523
20
7.60316217840887
30
0
41
1
10
86.3475857716587
20
7.79228124018593
30
0
41
1
10
86.8317349865887
20
7.90698365793415
30
0
41
1
10
87.7954890256237
20
8.11440560037667
30
0
41
1
10
88.2759991407767
20
8.20693206558724
30
0
41
1
10
88.9974047063414
20
8.32734223981723
30
0
41
1
10
89.2380138118171
20
8.3644200410437
30
0
41
1
10
89.7192724596452
20
8.43262661211438
30
0
41
1
10
89.9600397820973
20
8.4637187330639
30
0
41
1
10
90.6804602439226
20
8.5487019807457
30
0
41
1
10
91.1621705831512
20
8.59277286077904
30
0
41
1
10
92.1274962039456
20
8.65649861191272
30
0
41
1
10
92.6095662633365
20
8.67622505096452
30
0
41
1
10
93.5720819613754
20
8.69051144293886
30
0
41
1
10
94.0532973230597
20
8.68520461308805
30
0
41
1
10
94.6547728451378
20
8.66322009955041
30
0
41
1
10
94.7751130928156
20
8.65806419580187
30
0
41
1
10
95.0152582211243
20
8.64611736381988
30
0
41
1
10
95.1352548393475
20
8.63935049157672
30
0
41
1
10
95.4956274507226
20
8.61678723263785
30
0
41
1
10
95.7361509623157
20
8.59869250283265
30
0
41
1
10
96.2177554222545
20
8.55648615161249
30
0
41
1
10
96.4588675563234
20
8.5323937218941
30
0
41
1
10
96.9409917935142
20
8.47796583810575
30
0
41
1
10
97.1820341466639
20
8.44755399316804
30
0
41
1
10
97.904992315505
20
8.34720498561373
30
0
41
1
10
98.3853274041187
20
8.26847667551039
30
0
41
1
10
99.1046502258947
20
8.13388126445435
30
0
41
1
10
99.3442195476316
20
8.08627410964388
30
0
41
1
10
99.8222829856483
20
7.9851277478522
30
0
41
1
10
100.060438076994
20
7.93130959381642
30
0
41
1
10
100.775930063503
20
7.7628778383754
30
0
41
1
10
101.253292282996
20
7.64071733276435
30
0
41
1
10
102.20524991673
20
7.3738497387225
30
0
41
1
10
102.680306516112
20
7.22941106882323
30
0
41
1
10
103.393969238651
20
6.99871195332233
30
0
41
1
10
103.632070550846
20
6.91952628974028
30
0
41
1
10
104.108451588399
20
6.75633872664849
30
0
41
1
10
104.346825739806
20
6.67245719600942
30
0
41
1
10
105.060436353626
20
6.41133754264351
30
0
41
1
10
105.537874214092
20
6.2290681416512
30
0
41
1
10
106.495207429787
20
5.84727859332952
30
0
41
1
10
106.973963814239
20
5.6461194916709
30
0
41
1
10
107.935133670011
20
5.22755018835306
30
0
41
1
10
108.418370847946
20
5.01017407919514
30
0
41
1
10
109.020746640854
20
4.73073715057683
30
0
41
1
10
109.141232209993
20
4.67452184442919
30
0
41
1
10
109.381608308423
20
4.56048461558052
30
0
41
1
10
109.501658572041
20
4.50290463734709
30
0
41
1
10
109.862101252948
20
4.32957355249448
30
0
41
1
10
110.102518616735
20
4.21282268540006
30
0
41
1
10
110.583608387723
20
3.97699291557032
30
0
41
1
10
110.824315566464
20
3.85797378143562
30
0
41
1
10
111.305338461317
20
3.61657390440351
30
0
41
1
10
111.545549688437
20
3.49401413480518
30
0
41
1
10
112.266378149389
20
3.12249912315767
30
0
41
1
10
112.747388361796
20
2.87004376831789
30
0
41
1
10
113.470875022135
20
2.48643178188286
30
0
41
1
10
113.712421142699
20
2.35767776681587
30
0
41
1
10
114.19431886201
20
2.09797913882909
30
0
41
1
10
114.434426220541
20
1.96628130807881
30
0
41
1
10
115.156053506375
20
1.57240107589934
30
0
41
1
10
115.637832781793
20
1.30961197944092
30
0
41
1
10
116.599112721278
20
0.777119172332988
30
0
41
1
10
117.079147414781
20
0.50834820885558
30
0
41
1
10
118.041370131265
20
-0.0281980767644825
30
0
41
1
10
118.524412571581
20
-0.295454886998442
30
0
41
1
10
119.486925588881
20
-0.834829977552289
30
0
41
1
10
119.967524127083
20
-1.10060987950527
30
0
41
1
10
120.926332608211
20
-1.62682601299687
30
0
41
1
10
121.40347025066
20
-1.88920021338151
30
0
41
1
10
122.356819342641
20
-2.4058795871594
30
0
41
1
10
122.833232564776
20
-2.65986625912407
30
0
41
1
10
123.547319644772
20
-3.034684053625
30
0
41
1
10
123.784734500244
20
-3.15949195738528
30
0
41
1
10
124.259881915308
20
-3.40617046979145
30
0
41
1
10
124.49765293215
20
-3.52798438246475
30
0
41
1
10
124.973597473898
20
-3.76858493279215
30
0
41
1
10
125.211799210522
20
-3.88732853783637
30
0
41
1
10
125.687968576998
20
-4.12283548199468
30
0
41
1
10
125.925839948325
20
-4.23974780322305
30
0
41
1
10
126.639892117298
20
-4.58616584229836
30
0
41
1
10
127.11668357148
20
-4.81108210910085
30
0
41
1
10
127.834256116162
20
-5.13747861169762
30
0
41
1
10
128.073812059172
20
-5.24450307124522
30
0
41
1
10
128.553162189155
20
-5.45571455797918
30
0
41
1
10
128.792506644566
20
-5.56055478963069
30
0
41
1
10
129.513365932947
20
-5.86709572694622
30
0
41
1
10
129.997161333671
20
-6.06259828516963
30
0
41
1
10
130.95973840888
20
-6.43743855063829
30
0
41
1
10
131.4397805675
20
-6.61641254905913
30
0
41
1
10
132.400810481176
20
-6.95345506045683
30
0
41
1
10
132.882301821721
20
-7.11114192632488
30
0
41
1
10
133.842204968354
20
-7.40986841613775
30
0
41
1
10
134.323651034509
20
-7.54779787510665
30
0
41
1
10
135.288378124851
20
-7.8022154834328
30
0
41
1
10
135.769730745828
20
-7.91932580768346
30
0
41
1
10
136.731219118231
20
-8.1295640245323
30
0
41
1
10
137.212010189624
20
-8.22275755580449
30
0
41
1
10
137.933115896455
20
-8.34498038427373
30
0
41
1
10
138.172917247393
20
-8.3830666971146
30
0
41
1
10
138.65306596863
20
-8.45299282397806
30
0
41
1
10
138.893424105432
20
-8.48484974766592
30
0
41
1
10
139.374714634806
20
-8.54242796172483
30
0
41
1
10
139.615666769766
20
-8.56815144513101
30
0
41
1
10
140.097459647395
20
-8.61368297959498
30
0
41
1
10
140.338360790331
20
-8.63350672452802
30
0
41
1
10
141.060615313092
20
-8.6835543305034
30
0
41
1
10
141.541453226994
20
-8.70437004400449
30
0
41
1
10
142.185967008126
20
-8.7156393058597
30
0
41
1
10
142.349524359944
20
-8.71707314603873
30
0
41
1
10
142.512955158838
20
-8.71707498965299
30
0
0
SPLINE
5
EB
100
AcDbEntity
8
1
62
256
6
ByLayer
370
18
48
1
60
0
100
AcDbSpline
70
4
71
3
72
40
73
36
40
0
40
0
40
0
40
0
40
0.0579714010288995
40
0.0579714010288995
40
0.130435139411289
40
0.130435139411289
40
0.202898877793677
40
0.202898877793677
40
0.275362616176066
40
0.275362616176066
40
0.31159448536726
40
0.31159448536726
40
0.347826354558455
40
0.347826354558455
40
0.384058223749649
40
0.384058223749649
40
0.420290092940843
40
0.420290092940843
40
0.492753831323235
40
0.492753831323235
40
0.528985700514433
40
0.528985700514433
40
0.56521756970563
40
0.56521756970563
40
0.637681308088025
40
0.637681308088025
40
0.710145046470421
40
0.710145046470421
40
0.782608784852816
40
0.782608784852816
40
0.85507252323521
40
0.85507252323521
40
0.927536261617605
40
0.927536261617605
40
1
40
1
40
1
40
1
41
1
10
175.343260763054
20
4.45513505704074
30
0
41
1
10
175.724997624863
20
4.63870150927335
30
0
41
1
10
176.107635822534
20
4.81807403990811
30
0
41
1
10
176.967835620899
20
5.21642608269894
30
0
41
1
10
177.448133569809
20
5.42955035070611
30
0
41
1
10
178.412479063578
20
5.84111004230525
30
0
41
1
10
178.892843120273
20
6.03994546225854
30
0
41
1
10
179.853204673513
20
6.41855481608468
30
0
41
1
10
180.333487582004
20
6.59816963124143
30
0
41
1
10
181.053942449812
20
6.85337505858882
30
0
41
1
10
181.293554707641
20
6.93667003902669
30
0
41
1
10
181.773322111785
20
7.09785028300172
30
0
41
1
10
182.013506281753
20
7.17572156489155
30
0
41
1
10
182.494481951993
20
7.32608179353068
30
0
41
1
10
182.735296576288
20
7.39855530357943
30
0
41
1
10
183.216857293899
20
7.53876487045969
30
0
41
1
10
183.457607993607
20
7.60659436510582
30
0
41
1
10
184.178945604002
20
7.80149304806281
30
0
41
1
10
184.659226480505
20
7.92006075894165
30
0
41
1
10
185.379972077238
20
8.08023311163299
30
0
41
1
10
185.620293863507
20
8.13068116983308
30
0
41
1
10
186.100186457688
20
8.22624897879149
30
0
41
1
10
186.339571721165
20
8.27144480072494
30
0
41
1
10
187.059506555549
20
8.39720068472246
30
0
41
1
10
187.54086232912
20
8.46870489250367
30
0
41
1
10
188.502645304857
20
8.58871128512388
30
0
41
1
10
188.984090042597
20
8.63675407046389
30
0
41
1
10
189.943877113857
20
8.70736415601482
30
0
41
1
10
190.423345900919
20
8.73018707124245
30
0
41
1
10
191.377220781065
20
8.75149580968301
30
0
41
1
10
191.854409303618
20
8.74970158322924
30
0
41
1
10
192.808087226726
20
8.72197759897779
30
0
41
1
10
193.283502623507
20
8.69580739332443
30
0
41
1
10
194.235154691458
20
8.61921229619432
30
0
41
1
10
194.711584626796
20
8.56894434994553
30
0
41
1
10
195.18851687687
20
8.50674103723901
30
0
0
LINE
5
76
100
AcDbEntity
8
81
62
256
6
ByLayer
370
18
48
1
60
0
100
AcDbLine
10
198
20
0
30
0
11
203
21
0
31
0
39
0
210
0
220
0
230
1
0
LINE
5
77
100
AcDbEntity
8
1
62
256
6
ByLayer
370
18
48
1
60
0
100
AcDbLine
10
3.188412
20
8.63
30
0
11
0.166771
21
8.628111
31
0
39
0
210
0
220
0
230
1
0
LINE
5
79
100
AcDbEntity
8
1
62
256
6
ByLayer
370
18
48
1
60
0
100
AcDbLine
10
47.0095
20
8.657388
30
0
11
44.481692
21
8.655808
31
0
39
0
210
0
220
0
230
1
0
LINE
5
7A
100
AcDbEntity
8
1
62
256
6
ByLayer
370
18
48
1
60
0
100
AcDbLine
10
96.008681
20
8.688013
30
0
11
93.490315
21
8.686439
31
0
39
0
210
0
220
0
230
1
0
LINE
5
7B
100
AcDbEntity
8
1
62
256
6
ByLayer
370
18
48
1
60
0
100
AcDbLine
10
145.009845
20
8.718638
30
0
11
142.495398
21
8.717067
31
0
39
0
210
0
220
0
230
1
0
LINE
5
7C
100
AcDbEntity
8
1
62
256
6
ByLayer
370
18
48
1
60
0
100
AcDbLine
10
194.010429
20
8.749264
30
0
11
191.500073
21
8.747695
31
0
39
0
210
0
220
0
230
1
0
LINE
5
7D
100
AcDbEntity
8
1
62
256
6
ByLayer
370
18
48
1
60
0
100
AcDbLine
10
191.500073
20
-8.747695
30
0
11
194.010105
21
-8.749264
31
0
39
0
210
0
220
0
230
1
0
LINE
5
7E
100
AcDbEntity
8
1
62
256
6
ByLayer
370
18
48
1
60
0
100
AcDbLine
10
142.495398
20
-8.717067
30
0
11
145.009518
21
-8.718638
31
0
39
0
210
0
220
0
230
1
0
LINE
5
7F
100
AcDbEntity
8
1
62
256
6
ByLayer
370
18
48
1
60
0
100
AcDbLine
10
93.490315
20
-8.686439
30
0
11
96.00876
21
-8.688013
31
0
39
0
210
0
220
0
230
1
0
LINE
5
80
100
AcDbEntity
8
1
62
256
6
ByLayer
370
18
48
1
60
0
100
AcDbLine
10
44.481692
20
-8.655808
30
0
11
47.009856
21
-8.657388
31
0
39
0
210
0
220
0
230
1
0
LINE
5
81
100
AcDbEntity
8
1
62
256
6
ByLayer
370
18
48
1
60
0
100
AcDbLine
10
0.166771
20
-8.628111
30
0
11
3.188412
21
-8.63
31
0
39
0
210
0
220
0
230
1
0
LINE
5
82
100
AcDbEntity
8
SK1
62
256
6
ByLayer
370
18
48
1
60
0
100
AcDbLine
10
-45.401924
20
9
30
0
11
-47.743876
21
4.94362
31
0
39
0
210
0
220
0
230
1
0
LINE
5
84
100
AcDbEntity
8
SK1
62
256
6
ByLayer
370
18
48
1
60
0
100
AcDbLine
10
-47.743876
20
-4.94362
30
0
11
-45.401924
21
-9
31
0
39
0
210
0
220
0
230
1
0
LINE
5
85
100
AcDbEntity
8
SK1
62
256
6
ByLayer
370
18
48
1
60
0
100
AcDbLine
10
0
20
9
30
0
11
-45.401924
21
9
31
0
39
0
210
0
220
0
230
1
0
LINE
5
86
100
AcDbEntity
8
SK1
62
256
6
ByLayer
370
18
48
1
60
0
100
AcDbLine
10
-45.401924
20
-9
30
0
11
0
21
-9
31
0
39
0
210
0
220
0
230
1
0
LINE
5
87
100
AcDbEntity
8
SK4
62
256
6
ByLayer
370
18
48
0.05
60
0
100
AcDbLine
10
203
20
0
30
0
11
-53
21
0
31
0
39
0
210
0
220
0
230
1
0
LINE
5
89
100
AcDbEntity
8
4
62
256
6
ByLayer
370
18
48
0.05
60
0
100
AcDbLine
10
198
20
0
30
0
11
0
21
0
31
0
39
0
210
0
220
0
230
1
0
LINE
5
8B
100
AcDbEntity
8
80
62
256
6
ByLayer
370
18
48
1
60
0
100
AcDbLine
10
0
20
0
30
0
11
-5
21
0
31
0
39
0
210
0
220
0
230
1
0
LINE
5
8C
100
AcDbEntity
8
SK1
62
256
6
ByLayer
370
18
48
1
60
0
100
AcDbLine
10
-45.401924
20
9
30
0
11
-45.401924
21
-9
31
0
39
0
210
0
220
0
230
1
0
LINE
5
8D
100
AcDbEntity
8
SK1
62
256
6
ByLayer
370
18
48
1
60
0
100
AcDbLine
10
-48
20
-3.091495
30
0
11
-48
21
-4.496844
31
0
39
0
210
0
220
0
230
1
0
LINE
5
8E
100
AcDbEntity
8
SK1
62
256
6
ByLayer
370
18
48
1
60
0
100
AcDbLine
10
0
20
9
30
0
11
0
21
-9
31
0
39
0
210
0
220
0
230
1
0
LINE
5
8F
100
AcDbEntity
8
SK1
62
256
6
ByLayer
370
18
48
1
60
0
100
AcDbLine
10
-45.5
20
-8.696785
30
0
11
-45.5
21
-7.528196
31
0
39
0
210
0
220
0
230
1
0
LINE
5
90
100
AcDbEntity
8
SK1
62
256
6
ByLayer
370
18
48
1
60
0
100
AcDbLine
10
-48
20
4.496844
30
0
11
-48
21
-3.091552
31
0
39
0
210
0
220
0
230
1
0
LINE
5
91
100
AcDbEntity
8
SK1
62
256
6
ByLayer
370
13
48
1
60
0
100
AcDbLine
10
-45.6
20
-7.308901
30
0
11
-45.6
21
-8.548521
31
0
39
0
210
0
220
0
230
1
0
LINE
5
92
100
AcDbEntity
8
1
62
256
6
ByLayer
370
13
48
1
60
0
100
AcDbLine
10
194.774782
20
2.025924
30
0
11
197.975703
21
-0.000335
31
0
39
0
210
0
220
0
230
1
0
LINE
5
93
100
AcDbEntity
8
1
62
256
6
ByLayer
370
18
48
1
60
0
100
AcDbLine
10
3.188412
20
-8.63
30
0
11
3.188412
21
1.642895
31
0
39
0
210
0
220
0
230
1
0
LINE
5
94
100
AcDbEntity
8
1
62
256
6
ByLayer
370
13
48
1
60
0
100
AcDbLine
10
194.918728
20
2.174031
30
0
11
197.951646
21
0.254121
31
0
39
0
210
0
220
0
230
1
0
LINE
5
95
100
AcDbEntity
8
1
62
256
6
ByLayer
370
18
48
1
60
0
100
AcDbLine
10
193.54063
20
-6.108063
30
0
11
194.695041
21
-4.54119
31
0
39
0
210
0
220
0
230
1
0
LINE
5
96
100
AcDbEntity
8
1
62
256
6
ByLayer
370
13
48
1
60
0
100
AcDbLine
10
0.166771
20
8.628111
30
0
11
0.166771
21
-8.628111
31
0
39
0
210
0
220
0
230
1
0
LINE
5
97
100
AcDbEntity
8
1
62
256
6
ByLayer
370
18
48
1
60
0
100
AcDbLine
10
196.077885
20
-2.664268
30
0
11
197.803686
21
-0.321852
31
0
39
0
210
0
220
0
230
1
0
LINE
5
98
100
AcDbEntity
8
1
62
256
6
ByLayer
370
18
48
1
60
0
100
AcDbLine
10
3.188412
20
8.63
30
0
11
3.188412
21
8.205415
31
0
39
0
210
0
220
0
230
1
0
MTEXT
5
EC
100
AcDbEntity
8
SK6
62
256
6
ByLayer
370
13
48
1
60
0
100
AcDbMText
10
77.129169
20
41.132694
30
0
210
0
220
0
230
1
1
\W0.7217;460.1-1750-131A1-XM GC34
40
3.5
41
0
44
1.084337
50
0
71
8
72
5
7
iso_b_vert
0
DIMENSION
5
F9
100
AcDbEntity
8
SK2
62
256
6
ByLayer
370
13
48
1
60
0
100
AcDbDimension
2
DimnDraft3D1
10
195.3857
20
-18.963398
30
0
11
95.635759
21
-18.963398
31
0
70
32
71
5
72
1
41
1
210
0
220
0
230
1
3
Standard
100
AcDbAlignedDimension
13
0
23
-1.5875
33
0
14
195.3857
24
-10.3375
34
0
50
0
100
AcDbRotatedDimension
1001
ACAD
1000
DSTYLE
1002
{
1070
   279
1070
     0
1070
   172
1070
     1
1070
   173
1070
     1
1070
   340
1005
ED
1070
   271
1070
     2
1070
   272
1070
     2
1070
    77
1070
     1
1070
    73
1070
     0
1070
   171
1070
     3
1070
   274
1070
     4
1070
   177
1070
    35
1070
   176
1070
    35
1070
   178
1070
    35
1070
    48
1040
-0.005
1070
    41
1041
3.5
1070
   147
1041
1.75
1070
    42
1041
1.5875
1070
    44
1041
2.0
1070
   140
1041
3.5
1070
   343
1005
0
1070
   344
1005
0
1002
}
0
DIMENSION
5
103
100
AcDbEntity
8
SK2
62
256
6
ByLayer
370
13
48
1
60
0
100
AcDbDimension
2
DimnDraft3D2
10
198
20
-37.692985
30
0
11
73.727
21
-37.692985
31
0
70
32
71
5
72
1
41
1
210
0
220
0
230
1
3
Standard
100
AcDbAlignedDimension
13
-48
23
-10.5875
33
0
14
198
24
-1.5875
34
0
50
0
100
AcDbRotatedDimension
1001
ACAD
1000
DSTYLE
1002
{
1070
   279
1070
     0
1070
   172
1070
     1
1070
   173
1070
     1
1070
   340
1005
ED
1070
   271
1070
     2
1070
   272
1070
     2
1070
    77
1070
     1
1070
    73
1070
     0
1070
   171
1070
     3
1070
   274
1070
     4
1070
   177
1070
    35
1070
   176
1070
    35
1070
   178
1070
    35
1070
    48
1040
-0.005
1070
    41
1041
3.5
1070
   147
1041
1.75
1070
    42
1041
1.5875
1070
    44
1041
2.0
1070
   140
1041
3.5
1070
   343
1005
0
1070
   344
1005
0
1002
}
0
DIMENSION
5
10D
100
AcDbEntity
8
SK2
62
256
6
ByLayer
370
13
48
1
60
0
100
AcDbDimension
2
DimnDraft3D3
10
198
20
20.359119
30
0
11
126.695
21
20.359119
31
0
70
32
71
5
72
1
41
1
210
0
220
0
230
1
3
Standard
100
AcDbAlignedDimension
13
55.39
23
10.3375
33
0
14
198
24
1.5875
34
0
50
0
100
AcDbRotatedDimension
1001
ACAD
1000
DSTYLE
1002
{
1070
   279
1070
     0
1070
   172
1070
     1
1070
   173
1070
     1
1070
   340
1005
ED
1070
   271
1070
     2
1070
   272
1070
     2
1070
    77
1070
     1
1070
    73
1070
     0
1070
   171
1070
     3
1070
   274
1070
     4
1070
   177
1070
    35
1070
   176
1070
    35
1070
   178
1070
    35
1070
    48
1040
-0.005
1070
    41
1041
3.5
1070
   147
1041
1.75
1070
    42
1041
1.5875
1070
    44
1041
2.0
1070
   140
1041
3.5
1070
   343
1005
0
1070
   344
1005
0
1002
}
0
DIMENSION
5
117
100
AcDbEntity
8
SK2
62
256
6
ByLayer
370
13
48
1
60
0
100
AcDbDimension
2
DimnDraft3D4
10
195.3857
20
-21.552503
30
0
11
207.981425
21
-21.552503
31
0
70
32
71
5
72
1
41
1
210
0
220
0
230
1
3
Standard
100
AcDbAlignedDimension
13
198
23
-1.5875
33
0
14
195.3857
24
-10.3375
34
0
50
0
100
AcDbRotatedDimension
1001
ACAD
1000
DSTYLE
1002
{
1070
   279
1070
     0
1070
   172
1070
     1
1070
   173
1070
     1
1070
   340
1005
ED
1070
   271
1070
     2
1070
   272
1070
     2
1070
    77
1070
     1
1070
    73
1070
     0
1070
   171
1070
     3
1070
   274
1070
     4
1070
   177
1070
    35
1070
   176
1070
    35
1070
   178
1070
    35
1070
    48
1040
-0.005
1070
    41
1041
3.5
1070
   147
1041
1.75
1070
    42
1041
1.5875
1070
    44
1041
2.0
1070
   140
1041
3.5
1070
   343
1005
0
1070
   344
1005
0
1002
}
0
DIMENSION
5
121
100
AcDbEntity
8
SK2
62
256
6
ByLayer
370
13
48
1
60
0
100
AcDbDimension
2
DimnDraft3D5
10
195.3857
20
-27.343428
30
0
11
70.646376
21
-27.343428
31
0
70
32
71
5
72
1
41
1
210
0
220
0
230
1
3
Standard
100
AcDbAlignedDimension
13
-48
23
-10.5875
33
0
14
195.3857
24
-10.3375
34
0
50
0
100
AcDbRotatedDimension
1001
ACAD
1000
DSTYLE
1002
{
1070
   279
1070
     0
1070
   172
1070
     1
1070
   173
1070
     1
1070
   340
1005
ED
1070
   271
1070
     2
1070
   272
1070
     2
1070
    77
1070
     1
1070
    73
1070
     0
1070
   171
1070
     3
1070
   274
1070
     4
1070
   177
1070
    35
1070
   176
1070
    35
1070
   178
1070
    35
1070
    48
1040
-0.005
1070
    41
1041
3.5
1070
   147
1041
1.75
1070
    42
1041
1.5875
1070
    44
1041
2.0
1070
   140
1041
3.5
1070
   343
1005
0
1070
   344
1005
0
1002
}
0
DIMENSION
5
12C
100
AcDbEntity
8
SK2
62
256
6
ByLayer
370
13
48
1
60
0
100
AcDbDimension
2
DimnDraft3D6
10
-58.625163
20
9
30
0
11
-59.250163
21
27.47418
31
0
70
33
71
5
72
1
41
1
210
0
220
0
230
1
3
Standard
100
AcDbAlignedDimension
13
-49.5875
23
-9
33
0
14
-49.5875
24
9
34
0
1001
ACAD
1000
DSTYLE
1002
{
1070
   279
1070
     0
1070
    74
1070
     0
1070
   173
1070
     1
1070
   340
1005
ED
1070
   271
1070
     3
1070
   272
1070
     2
1070
    77
1070
     1
1070
    73
1070
     0
1070
   171
1070
     3
1070
   274
1070
     4
1070
   177
1070
    35
1070
   176
1070
    35
1070
   178
1070
    35
1070
    48
1040
-0.005
1070
    41
1041
3.5
1070
   147
1041
1.75
1070
    42
1041
1.5875
1070
    44
1041
2.0
1070
   140
1041
3.5
1070
   343
1005
0
1070
   344
1005
0
1002
}
0
DIMENSION
5
137
100
AcDbEntity
8
2
62
256
6
ByLayer
370
13
48
1
60
0
100
AcDbDimension
2
DimnDraft3D7
10
212.083343
20
8.75
30
0
11
207.458343
21
25.817266
31
0
70
33
71
5
72
1
41
1
210
0
220
0
230
1
3
Standard
100
AcDbAlignedDimension
13
196.9732
23
-8.75
33
0
14
196.9732
24
8.75
34
0
1001
ACAD
1000
DSTYLE
1002
{
1070
   279
1070
     0
1070
    74
1070
     0
1070
   173
1070
     1
1070
   340
1005
ED
1070
   271
1070
     3
1070
   272
1070
     2
1070
    77
1070
     1
1070
    73
1070
     0
1070
   171
1070
     3
1070
   274
1070
     4
1070
   177
1070
    35
1070
   176
1070
    35
1070
   178
1070
    35
1070
    48
1040
-0.005
1070
    41
1041
3.5
1070
   147
1041
1.75
1070
    42
1041
1.5875
1070
    44
1041
2.0
1070
   140
1041
3.5
1070
   343
1005
0
1070
   344
1005
0
1002
}
0
ENDSEC
0
SECTION
2
OBJECTS
0
DICTIONARY
5
1a2
330
0
100
AcDbDictionary
280
0
281
1
3
ACAD_GROUP
350
1a3
3
ACAD_MLINESTYLE
350
1a4
0
DICTIONARY
5
1a3
330
0
100
AcDbDictionary
280
0
281
1
0
DICTIONARY
5
1a4
330
0
100
AcDbDictionary
280
0
281
1
3
Standard
350
18
0
MLINESTYLE
5
18
330
1a4
100
AcDbMlineStyle
2
Standard
70
0
3

62
256
51
90
52
90
71
2
49
-0.5
62
256
6
ByLayer
49
0.5
62
256
6
ByLayer
0
RASTERVARIABLES
5
190
330

100
AcDbRasterVariables
90
0
70
1
71
1
72
1
0
ENDSEC
0
EOF
