0
SECTION
2
HEADER
9
$ACADVER
1
AC1015
9
$DWGCODEPAGE
3
ANSI_1252
9
$HANDSEED
5
1ae
9
$ANGBASE
50
0
9
$ANGDIR
70
0
9
$ATTMODE
70
1
9
$AUNITS
70
0
9
$AUPREC
70
0
9
$CECOLOR
62
256
9
$CELTSCALE
40
1
9
$CELTYPE
6
ByLayer
9
$CELWEIGHT
370
18
9
$CLAYER
8
0
9
$CMLJUST
70
0
9
$CMLSCALE
40
1
9
$CMLSTYLE
2
Standard
9
$DIMSTYLE
2
Standard
9
$TEXTSIZE
40
0.2
9
$TEXTSTYLE
7
Standard
9
$LUNITS
70
2
9
$LUPREC
70
4
9
$EXTNAMES
290
1
9
$INSUNITS
70
4
9
$LTSCALE
40
1
9
$LWDISPLAY
290
1
9
$PDMODE
70
0
9
$PDSIZE
40
0
9
$PLINEGEN
70
0
0
ENDSEC
0
SECTION
2
CLASSES
0
CLASS
1
RASTERVARIABLES
2
AcDbRasterVariables
3
ISM
90
0
280
0
281
0
0
ENDSEC
0
SECTION
2
TABLES
0
TABLE
2
VPORT
5
1a4
100
AcDbSymbolTable
0
VPORT
5
1
100
AcDbSymbolTableRecord
100
AcDbViewportTableRecord
2
*Active
70
0
10
0
20
0
11
1
21
1
12
-1
22
1
13
0
23
0
14
0.5
24
0.5
15
10
25
10
16
0
26
0
36
1
17
0
27
0
37
0
0
ENDTAB
0
TABLE
2
LTYPE
5
1a5
100
AcDbSymbolTable
0
LTYPE
5
14
100
AcDbSymbolTableRecord
100
AcDbLinetypeTableRecord
70
0
2
ByBlock
3

72
65
73
0
40
0
0
LTYPE
5
15
100
AcDbSymbolTableRecord
100
AcDbLinetypeTableRecord
70
0
2
ByLayer
3

72
65
73
0
40
0
0
LTYPE
5
16
100
AcDbSymbolTableRecord
100
AcDbLinetypeTableRecord
70
0
2
CONTINUOUS
3
Solid line
72
65
73
0
40
0
0
LTYPE
5
6A
100
AcDbSymbolTableRecord
100
AcDbLinetypeTableRecord
70
0
2
CENTER
3
____ _ ____ _ ____ _ ____
72
65
73
4
40
47.5
49
22
74
0
49
-8.5
74
0
49
8.5
74
0
49
-8.5
74
0
0
LTYPE
5
6B
100
AcDbSymbolTableRecord
100
AcDbLinetypeTableRecord
70
0
2
DASHED
3
__ __ __ __ __ __ __ __ __
72
65
73
2
40
25.72
49
12.86
74
0
49
-12.86
74
0
0
ENDTAB
0
TABLE
2
LAYER
5
1a6
100
AcDbSymbolTable
0
LAYER
5
10
100
AcDbSymbolTableRecord
100
AcDbLayerTableRecord
2
0
70
0
62
7
6
CONTINUOUS
290
1
370
-3
390
0
0
LAYER
5
6D
100
AcDbSymbolTableRecord
100
AcDbLayerTableRecord
2
81
70
0
62
-3
6
CONTINUOUS
290
1
370
-3
390
0
0
LAYER
5
6F
100
AcDbSymbolTableRecord
100
AcDbLayerTableRecord
2
80
70
0
62
-6
6
CONTINUOUS
290
1
370
-3
390
0
0
LAYER
5
74
100
AcDbSymbolTableRecord
100
AcDbLayerTableRecord
2
2
70
0
62
7
6
CONTINUOUS
290
1
370
-3
390
0
0
LAYER
5
78
100
AcDbSymbolTableRecord
100
AcDbLayerTableRecord
2
1
70
0
62
4
6
CONTINUOUS
290
1
370
-3
390
0
0
LAYER
5
8A
100
AcDbSymbolTableRecord
100
AcDbLayerTableRecord
2
4
70
0
62
-2
6
CENTER
290
1
370
-3
390
0
0
LAYER
5
190
100
AcDbSymbolTableRecord
100
AcDbLayerTableRecord
2
SK2
70
0
62
7
6
CONTINUOUS
290
1
370
-3
390
0
0
LAYER
5
191
100
AcDbSymbolTableRecord
100
AcDbLayerTableRecord
2
SK1
70
0
62
4
6
CONTINUOUS
290
1
370
-3
390
0
0
LAYER
5
192
100
AcDbSymbolTableRecord
100
AcDbLayerTableRecord
2
SK4
70
0
62
2
6
CENTER
290
1
370
-3
390
0
0
LAYER
5
193
100
AcDbSymbolTableRecord
100
AcDbLayerTableRecord
2
SK6
70
0
62
5
6
CONTINUOUS
290
1
370
-3
390
0
0
ENDTAB
0
TABLE
2
STYLE
5
1a7
100
AcDbSymbolTable
0
STYLE
5
11
100
AcDbSymbolTableRecord
100
AcDbTextStyleTableRecord
2
Standard
3
txt
70
0
71
0
40
0
41
1
42
0
50
0
0
STYLE
5
EC
100
AcDbSymbolTableRecord
100
AcDbTextStyleTableRecord
2
iso_b_vert
3
simplex.shx
70
0
71
0
40
0
41
1
42
0
50
0
0
STYLE
5
ED
100
AcDbSymbolTableRecord
100
AcDbTextStyleTableRecord
2
DWGDirectTextStyle
3
simplex
70
0
71
0
40
0
41
1
42
0
50
0
0
ENDTAB
0
TABLE
2
DIMSTYLE
5
1a8
100
AcDbSymbolTable
100
AcDbDimStyleTable
0
DIMSTYLE
105
27
100
AcDbSymbolTableRecord
100
AcDbDimStyleTableRecord
2
Standard
70
0
3
<>
41
0.18
42
0.0625
44
0.18
140
0.18
147
0.09
73
0
74
0
77
1
271
2
275
0
278
52
280
0
340
11
0
ENDTAB
0
TABLE
2
VIEW
5
1a9
100
AcDbSymbolTable
0
ENDTAB
0
TABLE
2
UCS
5
1aa
100
AcDbSymbolTable
0
ENDTAB
0
TABLE
2
APPID
5
1ab
100
AcDbSymbolTable
0
APPID
5
12
100
AcDbSymbolTableRecord
100
AcDbRegAppTableRecord
2
ACAD
70
0
0
ENDTAB
0
TABLE
2
BLOCK_RECORD
5
1ac
100
AcDbSymbolTable
0
BLOCK_RECORD
5
1F
100
AcDbSymbolTableRecord
100
AcDbBlockTableRecord
2
*Model_Space
340
0
70
0
0
BLOCK_RECORD
5
1B
100
AcDbSymbolTableRecord
100
AcDbBlockTableRecord
2
*Paper_Space
340
0
70
0
0
BLOCK_RECORD
5
23
100
AcDbSymbolTableRecord
100
AcDbBlockTableRecord
2
*Paper_Space0
340
0
70
0
0
BLOCK_RECORD
5
EF
100
AcDbSymbolTableRecord
100
AcDbBlockTableRecord
2
DimnDraft3D1
340
0
70
0
0
BLOCK_RECORD
5
F9
100
AcDbSymbolTableRecord
100
AcDbBlockTableRecord
2
DimnDraft3D2
340
0
70
0
0
BLOCK_RECORD
5
103
100
AcDbSymbolTableRecord
100
AcDbBlockTableRecord
2
DimnDraft3D3
340
0
70
0
0
BLOCK_RECORD
5
10D
100
AcDbSymbolTableRecord
100
AcDbBlockTableRecord
2
DimnDraft3D4
340
0
70
0
0
BLOCK_RECORD
5
117
100
AcDbSymbolTableRecord
100
AcDbBlockTableRecord
2
DimnDraft3D5
340
0
70
0
0
BLOCK_RECORD
5
121
100
AcDbSymbolTableRecord
100
AcDbBlockTableRecord
2
DimnDraft3D6
340
0
70
0
0
BLOCK_RECORD
5
12C
100
AcDbSymbolTableRecord
100
AcDbBlockTableRecord
2
DimnDraft3D7
340
0
70
0
0
ENDTAB
0
ENDSEC
0
SECTION
2
BLOCKS
0
BLOCK
5
20
100
AcDbEntity
8
0
100
AcDbBlockBegin
2
*Model_Space
70
0
10
0
20
0
30
0
3
*Model_Space
0
ENDBLK
5
21
100
AcDbEntity
8
0
100
AcDbBlockEnd
0
BLOCK
5
1C
100
AcDbEntity
8
0
100
AcDbBlockBegin
2
*Paper_Space
70
0
10
0
20
0
30
0
3
*Paper_Space
0
ENDBLK
5
1D
100
AcDbEntity
8
0
100
AcDbBlockEnd
0
BLOCK
5
24
100
AcDbEntity
8
0
100
AcDbBlockBegin
2
*Paper_Space0
70
0
10
0
20
0
30
0
3
*Paper_Space0
0
ENDBLK
5
25
100
AcDbEntity
8
0
100
AcDbBlockEnd
0
BLOCK
5
F6
100
AcDbEntity
8
0
100
AcDbBlockBegin
2
DimnDraft3D1
70
0
10
0
20
0
30
0
3
DimnDraft3D1
0
MTEXT
5
F0
100
AcDbEntity
8
SK2
62
256
6
ByLayer
370
13
48
1
60
0
100
AcDbMText
10
81.48028
20
-17.338398
30
0
210
0
220
0
230
1
1
\W0.6822;176,61
40
3.5
41
0
44
1.084337
50
0
71
7
72
5
7
iso_b_vert
0
LINE
5
F1
100
AcDbEntity
8
SK2
62
256
6
ByLayer
370
13
48
1
60
0
100
AcDbLine
10
0
20
-1.5875
30
0
11
0
21
-20.213398
31
0
39
0
210
0
220
0
230
1
0
LINE
5
F2
100
AcDbEntity
8
SK2
62
256
6
ByLayer
370
13
48
1
60
0
100
AcDbLine
10
176.6118
20
-9.5875
30
0
11
176.6118
21
-20.213398
31
0
39
0
210
0
220
0
230
1
0
LINE
5
F3
100
AcDbEntity
8
SK2
62
256
6
ByLayer
370
13
48
1
60
0
100
AcDbLine
10
0
20
-18.213398
30
0
11
176.6118
21
-18.213398
31
0
39
0
210
0
220
0
230
1
0
SOLID
5
F4
100
AcDbEntity
8
SK2
62
256
6
ByLayer
370
13
48
1
60
0
100
AcDbTrace
10
0
20
-18.213398
30
0
11
3.499998
21
-17.752615
31
0
12
3.500002
22
-18.674182
32
0
13
0
23
-18.213398
33
0
39
0
210
0
220
0
230
1
0
SOLID
5
F5
100
AcDbEntity
8
SK2
62
256
6
ByLayer
370
13
48
1
60
0
100
AcDbTrace
10
176.6118
20
-18.213398
30
0
11
173.111802
21
-18.674182
31
0
12
173.111798
22
-17.752615
32
0
13
176.6118
23
-18.213398
33
0
39
0
210
0
220
0
230
1
0
ENDBLK
5
F7
100
AcDbEntity
8
0
100
AcDbBlockEnd
0
BLOCK
5
100
100
AcDbEntity
8
0
100
AcDbBlockBegin
2
DimnDraft3D2
70
0
10
0
20
0
30
0
3
DimnDraft3D2
0
MTEXT
5
FA
100
AcDbEntity
8
SK2
62
256
6
ByLayer
370
13
48
1
60
0
100
AcDbMText
10
58.696521
20
-35.817985
30
0
210
0
220
0
230
1
1
\W0.7421;227,00
40
3.5
41
0
44
1.084337
50
0
71
7
72
5
7
iso_b_vert
0
LINE
5
FB
100
AcDbEntity
8
SK2
62
256
6
ByLayer
370
13
48
1
60
0
100
AcDbLine
10
-48
20
-9.5875
30
0
11
-48
21
-38.692985
31
0
39
0
210
0
220
0
230
1
0
LINE
5
FC
100
AcDbEntity
8
SK2
62
256
6
ByLayer
370
13
48
1
60
0
100
AcDbLine
10
179
20
-1.5875
30
0
11
179
21
-38.692985
31
0
39
0
210
0
220
0
230
1
0
LINE
5
FD
100
AcDbEntity
8
SK2
62
256
6
ByLayer
370
13
48
1
60
0
100
AcDbLine
10
-48
20
-36.692985
30
0
11
179
21
-36.692985
31
0
39
0
210
0
220
0
230
1
0
SOLID
5
FE
100
AcDbEntity
8
SK2
62
256
6
ByLayer
370
13
48
1
60
0
100
AcDbTrace
10
-48
20
-36.692985
30
0
11
-44.500002
21
-36.232202
31
0
12
-44.499998
22
-37.153769
32
0
13
-48
23
-36.692985
33
0
39
0
210
0
220
0
230
1
0
SOLID
5
FF
100
AcDbEntity
8
SK2
62
256
6
ByLayer
370
13
48
1
60
0
100
AcDbTrace
10
179
20
-36.692985
30
0
11
175.500002
21
-37.153769
31
0
12
175.499998
22
-36.232202
32
0
13
179
23
-36.692985
33
0
39
0
210
0
220
0
230
1
0
ENDBLK
5
101
100
AcDbEntity
8
0
100
AcDbBlockEnd
0
BLOCK
5
10A
100
AcDbEntity
8
0
100
AcDbBlockBegin
2
DimnDraft3D3
70
0
10
0
20
0
30
0
3
DimnDraft3D3
0
MTEXT
5
104
100
AcDbEntity
8
SK2
62
256
6
ByLayer
370
13
48
1
60
0
100
AcDbMText
10
108.490921
20
20.484119
30
0
210
0
220
0
230
1
1
\W0.6930;130,38
40
3.5
41
0
44
1.084337
50
0
71
7
72
5
7
iso_b_vert
0
LINE
5
105
100
AcDbEntity
8
SK2
62
256
6
ByLayer
370
13
48
1
60
0
100
AcDbLine
10
48.62
20
9.5875
30
0
11
48.62
21
21.609119
31
0
39
0
210
0
220
0
230
1
0
LINE
5
106
100
AcDbEntity
8
SK2
62
256
6
ByLayer
370
13
48
1
60
0
100
AcDbLine
10
179
20
1.5875
30
0
11
179
21
21.609119
31
0
39
0
210
0
220
0
230
1
0
LINE
5
107
100
AcDbEntity
8
SK2
62
256
6
ByLayer
370
13
48
1
60
0
100
AcDbLine
10
48.62
20
19.609119
30
0
11
179
21
19.609119
31
0
39
0
210
0
220
0
230
1
0
SOLID
5
108
100
AcDbEntity
8
SK2
62
256
6
ByLayer
370
13
48
1
60
0
100
AcDbTrace
10
48.62
20
19.609119
30
0
11
52.119998
21
20.069903
31
0
12
52.120002
22
19.148335
32
0
13
48.62
23
19.609119
33
0
39
0
210
0
220
0
230
1
0
SOLID
5
109
100
AcDbEntity
8
SK2
62
256
6
ByLayer
370
13
48
1
60
0
100
AcDbTrace
10
179
20
19.609119
30
0
11
175.500002
21
19.148335
31
0
12
175.499998
22
20.069903
32
0
13
179
23
19.609119
33
0
39
0
210
0
220
0
230
1
0
ENDBLK
5
10B
100
AcDbEntity
8
0
100
AcDbBlockEnd
0
BLOCK
5
114
100
AcDbEntity
8
0
100
AcDbBlockBegin
2
DimnDraft3D4
70
0
10
0
20
0
30
0
3
DimnDraft3D4
0
MTEXT
5
10E
100
AcDbEntity
8
SK2
62
256
6
ByLayer
370
13
48
1
60
0
100
AcDbMText
10
185.840636
20
-19.927503
30
0
210
0
220
0
230
1
1
\W0.7259;2,39
40
3.5
41
0
44
1.084337
50
0
71
7
72
5
7
iso_b_vert
0
LINE
5
10F
100
AcDbEntity
8
SK2
62
256
6
ByLayer
370
13
48
1
60
0
100
AcDbLine
10
179
20
-1.5875
30
0
11
179
21
-22.802503
31
0
39
0
210
0
220
0
230
1
0
LINE
5
110
100
AcDbEntity
8
SK2
62
256
6
ByLayer
370
13
48
1
60
0
100
AcDbLine
10
176.6118
20
-9.5875
30
0
11
176.6118
21
-22.802503
31
0
39
0
210
0
220
0
230
1
0
LINE
5
111
100
AcDbEntity
8
SK2
62
256
6
ByLayer
370
13
48
1
60
0
100
AcDbLine
10
167.8618
20
-20.802503
30
0
11
192.997215
21
-20.802503
31
0
39
0
210
0
220
0
230
1
0
SOLID
5
112
100
AcDbEntity
8
SK2
62
256
6
ByLayer
370
13
48
1
60
0
100
AcDbTrace
10
179
20
-20.802503
30
0
11
182.499998
21
-20.341719
31
0
12
182.500002
22
-21.263287
32
0
13
179
23
-20.802503
33
0
39
0
210
0
220
0
230
1
0
SOLID
5
113
100
AcDbEntity
8
SK2
62
256
6
ByLayer
370
13
48
1
60
0
100
AcDbTrace
10
176.6118
20
-20.802503
30
0
11
173.111802
21
-21.263287
31
0
12
173.111798
22
-20.341719
32
0
13
176.6118
23
-20.802503
33
0
39
0
210
0
220
0
230
1
0
ENDBLK
5
115
100
AcDbEntity
8
0
100
AcDbBlockEnd
0
BLOCK
5
11E
100
AcDbEntity
8
0
100
AcDbBlockBegin
2
DimnDraft3D5
70
0
10
0
20
0
30
0
3
DimnDraft3D5
0
MTEXT
5
118
100
AcDbEntity
8
SK2
62
256
6
ByLayer
370
13
48
1
60
0
100
AcDbMText
10
55.869187
20
-25.468428
30
0
210
0
220
0
230
1
1
\W0.7570;224,61
40
3.5
41
0
44
1.084337
50
0
71
7
72
5
7
iso_b_vert
0
LINE
5
119
100
AcDbEntity
8
SK2
62
256
6
ByLayer
370
13
48
1
60
0
100
AcDbLine
10
-48
20
-9.5875
30
0
11
-48
21
-28.343428
31
0
39
0
210
0
220
0
230
1
0
LINE
5
11A
100
AcDbEntity
8
SK2
62
256
6
ByLayer
370
13
48
1
60
0
100
AcDbLine
10
176.6118
20
-9.5875
30
0
11
176.6118
21
-28.343428
31
0
39
0
210
0
220
0
230
1
0
LINE
5
11B
100
AcDbEntity
8
SK2
62
256
6
ByLayer
370
13
48
1
60
0
100
AcDbLine
10
-48
20
-26.343428
30
0
11
176.6118
21
-26.343428
31
0
39
0
210
0
220
0
230
1
0
SOLID
5
11C
100
AcDbEntity
8
SK2
62
256
6
ByLayer
370
13
48
1
60
0
100
AcDbTrace
10
-48
20
-26.343428
30
0
11
-44.500002
21
-25.882645
31
0
12
-44.499998
22
-26.804212
32
0
13
-48
23
-26.343428
33
0
39
0
210
0
220
0
230
1
0
SOLID
5
11D
100
AcDbEntity
8
SK2
62
256
6
ByLayer
370
13
48
1
60
0
100
AcDbTrace
10
176.6118
20
-26.343428
30
0
11
173.111802
21
-26.804212
31
0
12
173.111798
22
-25.882645
32
0
13
176.6118
23
-26.343428
33
0
39
0
210
0
220
0
230
1
0
ENDBLK
5
11F
100
AcDbEntity
8
0
100
AcDbBlockEnd
0
BLOCK
5
129
100
AcDbEntity
8
0
100
AcDbBlockBegin
2
DimnDraft3D6
70
0
10
0
20
0
30
0
3
DimnDraft3D6
0
MTEXT
5
122
100
AcDbEntity
8
SK2
62
256
6
ByLayer
370
13
48
1
60
0
100
AcDbMText
10
-58.375163
20
27.34918
30
0
210
0
220
0
230
1
1
\W0.6930;16,000
40
3.5
41
0
44
1.084337
50
90
71
7
72
5
7
iso_b_vert
0
MTEXT
5
123
100
AcDbEntity
8
SK2
62
256
6
ByLayer
370
13
48
1
60
0
100
AcDbMText
10
-58.375163
20
22.126524
30
0
210
0
220
0
230
1
1
%%c
40
3.5
41
0
44
1.084337
50
90
71
7
72
5
7
iso_b_vert
0
LINE
5
124
100
AcDbEntity
8
SK2
62
256
6
ByLayer
370
13
48
1
60
0
100
AcDbLine
10
-49.5875
20
-8
30
0
11
-58.625163
21
-8
31
0
39
0
210
0
220
0
230
1
0
LINE
5
125
100
AcDbEntity
8
SK2
62
256
6
ByLayer
370
13
48
1
60
0
100
AcDbLine
10
-49.5875
20
8
30
0
11
-58.625163
21
8
31
0
39
0
210
0
220
0
230
1
0
LINE
5
126
100
AcDbEntity
8
SK2
62
256
6
ByLayer
370
13
48
1
60
0
100
AcDbLine
10
-56.625163
20
-8
30
0
11
-56.625163
21
38.862338
31
0
39
0
210
0
220
0
230
1
0
SOLID
5
127
100
AcDbEntity
8
SK2
62
256
6
ByLayer
370
13
48
1
60
0
100
AcDbTrace
10
-56.625163
20
-8
30
0
11
-57.085946
21
-4.500002
31
0
12
-56.164379
22
-4.499998
32
0
13
-56.625163
23
-8
33
0
39
0
210
0
220
0
230
1
0
SOLID
5
128
100
AcDbEntity
8
SK2
62
256
6
ByLayer
370
13
48
1
60
0
100
AcDbTrace
10
-56.625163
20
8
30
0
11
-56.164379
21
4.500002
31
0
12
-57.085946
22
4.499998
32
0
13
-56.625163
23
8
33
0
39
0
210
0
220
0
230
1
0
ENDBLK
5
12A
100
AcDbEntity
8
0
100
AcDbBlockEnd
0
BLOCK
5
134
100
AcDbEntity
8
0
100
AcDbBlockBegin
2
DimnDraft3D7
70
0
10
0
20
0
30
0
3
DimnDraft3D7
0
MTEXT
5
12D
100
AcDbEntity
8
2
62
256
6
ByLayer
370
13
48
1
60
0
100
AcDbMText
10
189.333343
20
25.942266
30
0
210
0
220
0
230
1
1
\W0.6930;16,000
40
3.5
41
0
44
1.084337
50
90
71
7
72
5
7
iso_b_vert
0
MTEXT
5
12E
100
AcDbEntity
8
2
62
256
6
ByLayer
370
13
48
1
60
0
100
AcDbMText
10
189.333343
20
20.71961
30
0
210
0
220
0
230
1
1
%%c
40
3.5
41
0
44
1.084337
50
90
71
7
72
5
7
iso_b_vert
0
LINE
5
12F
100
AcDbEntity
8
2
62
256
6
ByLayer
370
13
48
1
60
0
100
AcDbLine
10
178.1993
20
-8
30
0
11
193.083343
21
-8
31
0
39
0
210
0
220
0
230
1
0
LINE
5
130
100
AcDbEntity
8
2
62
256
6
ByLayer
370
13
48
1
60
0
100
AcDbLine
10
178.1993
20
8
30
0
11
193.083343
21
8
31
0
39
0
210
0
220
0
230
1
0
LINE
5
131
100
AcDbEntity
8
2
62
256
6
ByLayer
370
13
48
1
60
0
100
AcDbLine
10
191.083343
20
-8
30
0
11
191.083343
21
37.455424
31
0
39
0
210
0
220
0
230
1
0
SOLID
5
132
100
AcDbEntity
8
2
62
256
6
ByLayer
370
13
48
1
60
0
100
AcDbTrace
10
191.083343
20
-8
30
0
11
190.622559
21
-4.500002
31
0
12
191.544126
22
-4.499998
32
0
13
191.083343
23
-8
33
0
39
0
210
0
220
0
230
1
0
SOLID
5
133
100
AcDbEntity
8
2
62
256
6
ByLayer
370
13
48
1
60
0
100
AcDbTrace
10
191.083343
20
8
30
0
11
191.544126
21
4.500002
31
0
12
190.622559
22
4.499998
32
0
13
191.083343
23
8
33
0
39
0
210
0
220
0
230
1
0
ENDBLK
5
135
100
AcDbEntity
8
0
100
AcDbBlockEnd
0
ENDSEC
0
SECTION
2
ENTITIES
0
ELLIPSE
5
99
100
AcDbEntity
8
1
62
256
6
ByLayer
370
18
48
1
60
0
100
AcDbEllipse
10
6.679904
20
-7.743827
30
0
11
0.25
21
0
31
0
210
0
220
0
230
1
40
1
41
1.57776308716957
42
3.14154308813361
0
ELLIPSE
5
9A
100
AcDbEntity
8
1
62
256
6
ByLayer
370
18
48
1
60
0
100
AcDbEllipse
10
6.679904
20
7.743827
30
0
11
0.25
21
0
31
0
210
0
220
0
230
1
40
1
41
-3.14154308813361
42
-1.56314651345717
0
POINT
5
6C
100
AcDbEntity
8
81
62
256
6
ByLayer
370
18
48
1
60
0
100
AcDbPoint
10
179
20
0
30
0
39
0
210
0
220
0
230
1
50
360
0
POINT
5
6E
100
AcDbEntity
8
80
62
256
6
ByLayer
370
18
48
1
60
0
100
AcDbPoint
10
0
20
0
30
0
39
0
210
0
220
0
230
1
50
360
0
POINT
5
70
100
AcDbEntity
8
SK2
62
256
6
ByLayer
370
18
48
1
60
1
100
AcDbPoint
10
-48
20
-8
30
0
39
0
210
0
220
0
230
1
50
360
0
POINT
5
72
100
AcDbEntity
8
SK2
62
256
6
ByLayer
370
18
48
1
60
1
100
AcDbPoint
10
-48
20
8
30
0
39
0
210
0
220
0
230
1
50
360
0
POINT
5
73
100
AcDbEntity
8
2
62
256
6
ByLayer
370
18
48
1
60
1
100
AcDbPoint
10
176.6118
20
-8
30
0
39
0
210
0
220
0
230
1
50
360
0
POINT
5
75
100
AcDbEntity
8
2
62
256
6
ByLayer
370
18
48
1
60
1
100
AcDbPoint
10
176.6118
20
8
30
0
39
0
210
0
220
0
230
1
50
360
0
SPLINE
5
9B
100
AcDbEntity
8
1
62
256
6
ByLayer
370
18
48
1
60
0
100
AcDbSpline
70
4
71
2
72
6
73
3
40
0
40
0
40
0
40
1
40
1
40
1
41
1
10
153.632755478523
20
-0.0016113083308085
30
0
41
1
10
153.632737787521
20
-0.0016017091390665
30
0
41
1
10
153.632720096544
20
-0.0015917213190733
30
0
0
SPLINE
5
9C
100
AcDbEntity
8
1
62
256
6
ByLayer
370
18
48
1
60
0
100
AcDbSpline
70
4
71
3
72
27
73
23
40
0
40
0
40
0
40
0
40
0.0681484181328313
40
0.133762137170684
40
0.188391019113927
40
0.234949897703926
40
0.275985754891718
40
0.304555534104093
40
0.335656097400511
40
0.374787933728802
40
0.421241344990389
40
0.461828422364416
40
0.502275083471583
40
0.538787987692242
40
0.586220259125936
40
0.638084675751125
40
0.684496362688338
40
0.72535632920604
40
0.790542837333971
40
0.868544891835999
40
0.934935484278089
40
1
40
1
40
1
40
1
41
1
10
88.4797266783596
20
-7.54457724300309
30
0
41
1
10
88.7497842105496
20
-7.54434441632392
30
0
41
1
10
89.2826629675446
20
-7.54401904619644
30
0
41
1
10
90.0419830452918
20
-7.54177517853566
30
0
41
1
10
90.7187618668029
20
-7.54356573892446
30
0
41
1
10
91.2784499945655
20
-7.54626908830238
30
0
41
1
10
91.7454656409475
20
-7.54671800243815
30
0
41
1
10
92.1523442315262
20
-7.54692362996855
30
0
41
1
10
92.5516346041152
20
-7.54706483522622
30
0
41
1
10
93.0231593185451
20
-7.54711575149429
30
0
41
1
10
93.5330360687114
20
-7.54720437017775
30
0
41
1
10
94.0482195753359
20
-7.54786133251548
30
0
41
1
10
94.5232168170078
20
-7.54823400095265
30
0
41
1
10
95.0259013801345
20
-7.54837885051251
30
0
41
1
10
95.5747063415413
20
-7.54837564021457
30
0
41
1
10
96.1635215661927
20
-7.54845863208303
30
0
41
1
10
96.7257826867026
20
-7.54913930812563
30
0
41
1
10
97.3418779012866
20
-7.54938717966553
30
0
41
1
10
98.08563271041
20
-7.5492106648569
30
0
41
1
10
98.9325519837163
20
-7.54991109944504
30
0
41
1
10
99.7789783940024
20
-7.55075514828027
30
0
41
1
10
100.310199591036
20
-7.55067409185477
30
0
41
1
10
100.573131585283
20
-7.55054131826154
30
0
0
SPLINE
5
9D
100
AcDbEntity
8
1
62
256
6
ByLayer
370
18
48
1
60
0
100
AcDbSpline
70
4
71
1
72
4
73
2
40
0
40
0
40
1
40
1
41
1
10
175.626224726142
20
-7.59962925938464
30
0
41
1
10
176.218708599955
20
-7.59985307148412
30
0
0
SPLINE
5
9E
100
AcDbEntity
8
1
62
256
6
ByLayer
370
18
48
1
60
0
100
AcDbSpline
70
4
71
3
72
16
73
12
40
0
40
0
40
0
40
0
40
0.0754781760172365
40
0.221687052912014
40
0.355460293618995
40
0.466086637439614
40
0.549340580131441
40
0.654334386907644
40
0.747867003398644
40
0.874628627043431
40
1
40
1
40
1
40
1
41
1
10
13.6878073128847
20
7.49671224767988
30
0
41
1
10
13.5114454519191
20
7.49656747337602
30
0
41
1
10
12.9935249505975
20
7.49622252521826
30
0
41
1
10
12.1635641313412
20
7.49696551216297
30
0
41
1
10
11.2516920219454
20
7.49637471308867
30
0
41
1
10
10.4860979915895
20
7.49616322686097
30
0
41
1
10
9.78784583532141
20
7.49595365765791
30
0
41
1
10
9.12950334742806
20
7.49541028018172
30
0
41
1
10
8.36951819245922
20
7.49478355793462
30
0
41
1
10
7.56190302403763
20
7.49418505140889
30
0
41
1
10
6.97286618259292
20
7.49394140366374
30
0
41
1
10
6.67997820070798
20
7.49385665109722
30
0
0
SPLINE
5
9F
100
AcDbEntity
8
1
62
256
6
ByLayer
370
18
48
1
60
0
100
AcDbSpline
70
4
71
2
72
6
73
3
40
0
40
0
40
0
40
1
40
1
40
1
41
1
10
110.080769543002
20
-0.0005566960110457
30
0
41
1
10
110.080779628089
20
-0.0005635654745504
30
0
41
1
10
110.080789713161
20
-0.0005706427838277
30
0
0
SPLINE
5
A0
100
AcDbEntity
8
1
62
256
6
ByLayer
370
18
48
1
60
0
100
AcDbSpline
70
4
71
3
72
21
73
17
40
0
40
0
40
0
40
0
40
0.0145778340334581
40
0.0585022703320345
40
0.105985631147962
40
0.1702377200726
40
0.28225237637893
40
0.389878793301532
40
0.485907914530528
40
0.56930127442447
40
0.622353923069379
40
0.680504042657375
40
0.760435895122277
40
0.853169129198055
40
0.938227289932241
40
1
40
1
40
1
40
1
41
1
10
144.115729660009
20
7.57810350611979
30
0
41
1
10
144.077145290067
20
7.57812829765854
30
0
41
1
10
143.922304851285
20
7.57821708818565
30
0
41
1
10
143.641753947524
20
7.57831794213817
30
0
41
1
10
143.22991015988
20
7.57823316552128
30
0
41
1
10
142.638335024896
20
7.57671879160281
30
0
41
1
10
141.888189818882
20
7.57602706689809
30
0
41
1
10
141.052334973231
20
7.5765001170067
30
0
41
1
10
140.292861157649
20
7.57577884448944
30
0
41
1
10
139.679911505875
20
7.57539597009895
30
0
41
1
10
139.164716983033
20
7.57541806407835
30
0
41
1
10
138.658887098785
20
7.57540937599788
30
0
41
1
10
138.048046819382
20
7.57505096961813
30
0
41
1
10
137.365954844161
20
7.57400707387996
30
0
41
1
10
136.731853511461
20
7.57405675761007
30
0
41
1
10
136.343258451896
20
7.57409031834308
30
0
41
1
10
136.179773185535
20
7.57406141079636
30
0
0
SPLINE
5
A1
100
AcDbEntity
8
1
62
256
6
ByLayer
370
18
48
1
60
0
100
AcDbSpline
70
4
71
3
72
21
73
17
40
0
40
0
40
0
40
0
40
0.0848029290653556
40
0.180457318414468
40
0.258967844601285
40
0.340472468247647
40
0.429124309620886
40
0.535312587975498
40
0.659070935734298
40
0.724541152701448
40
0.766950144631691
40
0.809470854110292
40
0.865102834570417
40
0.932658610810753
40
0.995585220234121
40
1
40
1
40
1
40
1
41
1
10
57.0298009652824
20
7.52442093059599
30
0
41
1
10
56.8037473344455
20
7.52453622484916
30
0
41
1
10
56.3227206253664
20
7.524570147877
30
0
41
1
10
55.6323953174241
20
7.52393221395531
30
0
41
1
10
54.9509554070988
20
7.52276092118868
30
0
41
1
10
54.2885510828023
20
7.52252928652243
30
0
41
1
10
53.5522609878813
20
7.5224432753522
30
0
41
1
10
52.7028040032485
20
7.52163443628999
30
0
41
1
10
51.9159052396883
20
7.52135810834633
30
0
41
1
10
51.298729095167
20
7.52124330731959
30
0
41
1
10
50.8978380388783
20
7.52107727117473
30
0
41
1
10
50.5231466711178
20
7.52082956904636
30
0
41
1
10
50.0814534454002
20
7.520418614725
30
0
41
1
10
49.5854703006657
20
7.52007649177671
30
0
41
1
10
49.2259418086304
20
7.51996211363181
30
0
41
1
10
49.0464453535094
20
7.51991615410364
30
0
41
1
10
49.0346778201817
20
7.51991318144363
30
0
0
SPLINE
5
A2
100
AcDbEntity
8
1
62
256
6
ByLayer
370
18
48
1
60
0
100
AcDbSpline
70
4
71
3
72
19
73
15
40
0
40
0
40
0
40
0
40
0.0436912015609158
40
0.140154303126088
40
0.270160917006143
40
0.389257241862784
40
0.49568696865393
40
0.624538457964915
40
0.688667217130484
40
0.740561944860492
40
0.78482917589372
40
0.850793703708091
40
0.939700511751698
40
1
40
1
40
1
40
1
41
1
10
100.57232862723
20
7.55075814886166
30
0
41
1
10
100.456544598601
20
7.55068350116807
30
0
41
1
10
100.085128443037
20
7.55045256060484
30
0
41
1
10
99.3691851469985
20
7.55074875368021
30
0
41
1
10
98.4534306513234
20
7.54916832898718
30
0
41
1
10
97.5112509315281
20
7.54944581551612
30
0
41
1
10
96.5721329419598
20
7.5490115395387
30
0
41
1
10
95.7786780306496
20
7.54831421688547
30
0
41
1
10
95.1297613391229
20
7.54839383682796
30
0
41
1
10
94.7049807560836
20
7.5482908911641
30
0
41
1
10
94.27534236934
20
7.54808376373791
30
0
41
1
10
93.7476308258225
20
7.54743793796032
30
0
41
1
10
93.1774041220279
20
7.54709917213907
30
0
41
1
10
92.7820145220377
20
7.54708198828266
30
0
41
1
10
92.6222159547046
20
7.54705744244896
30
0
0
SPLINE
5
A3
100
AcDbEntity
8
1
62
256
6
ByLayer
370
18
48
1
60
0
100
AcDbSpline
70
4
71
3
72
28
73
24
40
0
40
0
40
0
40
0
40
0.0629975867522046
40
0.124713689247083
40
0.177699625531714
40
0.223963115720726
40
0.263383910002077
40
0.296046953309655
40
0.33220264980062
40
0.376507332520974
40
0.426487459110171
40
0.463985929139699
40
0.492856009321168
40
0.51967479617603
40
0.56114125042853
40
0.613234754683847
40
0.661588022322999
40
0.705268978656894
40
0.744310292544395
40
0.825522882456266
40
0.901899719017511
40
0.97405746800182
40
1
40
1
40
1
40
1
41
1
10
44.9214297533313
20
-7.51741227452635
30
0
41
1
10
45.1678116356554
20
-7.5169334776746
30
0
41
1
10
45.6601533600356
20
-7.51619133507276
30
0
41
1
10
46.3771881875026
20
-7.51249133995319
30
0
41
1
10
47.0331589720931
20
-7.51504885908318
30
0
41
1
10
47.574906450517
20
-7.5189118751442
30
0
41
1
10
48.0509320623103
20
-7.5195672696301
30
0
41
1
10
48.4899444053352
20
-7.51979911875947
30
0
41
1
10
48.9481539572966
20
-7.51988736161766
30
0
41
1
10
49.4766521378524
20
-7.52002151620977
30
0
41
1
10
50.0104260599102
20
-7.52035488979445
30
0
41
1
10
50.4818024444254
20
-7.52079365456856
30
0
41
1
10
50.8593685541977
20
-7.52105770214712
30
0
41
1
10
51.2529990035352
20
-7.52122617130124
30
0
41
1
10
51.7405409253387
20
-7.52134213843905
30
0
41
1
10
52.3150997459337
20
-7.52143357002947
30
0
41
1
10
52.8988785099977
20
-7.52187390849215
30
0
41
1
10
53.4299444875002
20
-7.52233560205295
30
0
41
1
10
54.0941833816048
20
-7.52251243375957
30
0
41
1
10
54.8900192945769
20
-7.52251504311724
30
0
41
1
10
55.820913175824
20
-7.52447347114116
30
0
41
1
10
56.5278239031108
20
-7.52436536695078
30
0
41
1
10
56.9252923000598
20
-7.52449150698632
30
0
41
1
10
57.030402266472
20
-7.52451483745079
30
0
0
SPLINE
5
A4
100
AcDbEntity
8
1
62
256
6
ByLayer
370
18
48
1
60
0
100
AcDbSpline
70
4
71
3
72
23
73
19
40
0
40
0
40
0
40
0
40
0.0641758074372528
40
0.128605622049514
40
0.178090574923778
40
0.211806702441999
40
0.254315246415752
40
0.309468716562934
40
0.361641734461272
40
0.422701489777429
40
0.48366673935545
40
0.55352726241585
40
0.622121966993471
40
0.710482455141517
40
0.798921009998842
40
0.881418489186435
40
0.948688180777558
40
1
40
1
40
1
40
1
41
1
10
132.04460334633
20
-7.57197930722808
30
0
41
1
10
132.302027716692
20
-7.57178620871142
30
0
41
1
10
132.818084710281
20
-7.57159597748799
30
0
41
1
10
133.537055172065
20
-7.57283949110513
30
0
41
1
10
134.127844923937
20
-7.57286268591722
30
0
41
1
10
134.635866490464
20
-7.5730704387162
30
0
41
1
10
135.165746049254
20
-7.5733678987514
30
0
41
1
10
135.770536246835
20
-7.57400581198587
30
0
41
1
10
136.450065363236
20
-7.57410967572019
30
0
41
1
10
137.153068920505
20
-7.57397437060061
30
0
41
1
10
137.927517304832
20
-7.57482266927499
30
0
41
1
10
138.73206329529
20
-7.575446006345
30
0
41
1
10
139.648466312623
20
-7.57566876446683
30
0
41
1
10
140.618389356402
20
-7.57290291669645
30
0
41
1
10
141.674393581165
20
-7.57455420874621
30
0
41
1
10
142.617368047784
20
-7.57701737166889
30
0
41
1
10
143.431943114788
20
-7.57850272430949
30
0
41
1
10
143.909925158674
20
-7.57829653004575
30
0
41
1
10
144.117056151503
20
-7.57805923096186
30
0
0
SPLINE
5
A5
100
AcDbEntity
8
1
62
256
6
ByLayer
370
18
48
1
60
0
100
AcDbSpline
70
4
71
3
72
17
73
13
40
0
40
0
40
0
40
0
40
0.125254934098418
40
0.251898827687539
40
0.345344575615115
40
0.461356611197842
40
0.551583378188514
40
0.646390997332681
40
0.757506256248665
40
0.88078192523953
40
0.9983718377447
40
1
40
1
40
1
40
1
41
1
10
6.67997820070792
20
-7.49385665109716
30
0
41
1
10
6.97286618259287
20
-7.49394140366363
30
0
41
1
10
7.56190309527221
20
-7.49418497461181
30
0
41
1
10
8.369517968548
20
-7.49478379932981
30
0
41
1
10
9.15549835211289
20
-7.49543101308839
30
0
41
1
10
9.85631937618629
20
-7.49601324009487
30
0
41
1
10
10.5603176067907
20
-7.49615452694061
30
0
41
1
10
11.2528639873957
20
-7.49640403631548
30
0
41
1
10
12.0222608408354
20
-7.49684376137947
30
0
41
1
10
12.844402941851
20
-7.49652342426006
30
0
41
1
10
13.4118800142654
20
-7.49624037935874
30
0
41
1
10
13.690519400486
20
-7.49654707276059
30
0
41
1
10
13.6943247720652
20
-7.49655130173403
30
0
0
SPLINE
5
A6
100
AcDbEntity
8
SK1
62
256
6
ByLayer
370
18
48
1
60
0
100
AcDbSpline
70
4
71
3
72
14
73
10
40
0
40
0
40
0
40
0
40
0.125000000000001
40
0.125000000000001
40
0.250000000000002
40
0.250000000000002
40
0.500000000000003
40
0.500000000000003
40
1
40
1
40
1
40
1
41
1
10
-46
20
-3.18939712418231
30
0
41
1
10
-46
20
-3.17954370409484
30
0
41
1
10
-46.0017055870951
20
-3.16868403049813
30
0
41
1
10
-46.0068924291627
20
-3.14764541321148
30
0
41
1
10
-46.0102440228913
20
-3.13769537457577
30
0
41
1
10
-46.0215656644541
20
-3.1087959495863
30
0
41
1
10
-46.030416522685
20
-3.09169350464791
30
0
41
1
10
-46.0585951172059
20
-3.04418751423924
30
0
41
1
10
-46.0788864676936
20
-3.01866949776223
30
0
41
1
10
-46.1
20
-2.99797469734634
30
0
0
SPLINE
5
A7
100
AcDbEntity
8
SK1
62
256
6
ByLayer
370
18
48
1
60
0
100
AcDbSpline
70
4
71
3
72
14
73
10
40
0
40
0
40
0
40
0
40
0.500000000000002
40
0.500000000000002
40
0.750000000000005
40
0.750000000000005
40
0.875000000000003
40
0.875000000000003
40
1
40
1
40
1
40
1
41
1
10
-46.1
20
-5.49290021465055
30
0
41
1
10
-46.078998416482
20
-5.51348528649055
30
0
41
1
10
-46.0586701890239
20
-5.52911609458488
30
0
41
1
10
-46.0304433385198
20
-5.5413335865764
30
0
41
1
10
-46.0214721393577
20
-5.54343310827423
30
0
41
1
10
-46.0103047485395
20
-5.54066579202728
30
0
41
1
10
-46.006895500949
20
-5.53871636669922
30
0
41
1
10
-46.001721316688
20
-5.53132308130367
30
0
41
1
10
-46
20
-5.52580340188879
30
0
41
1
10
-46
20
-5.51799427366623
30
0
0
SPLINE
5
A8
100
AcDbEntity
8
SK1
62
256
6
ByLayer
370
18
48
1
60
0
100
AcDbSpline
70
4
71
3
72
8
73
4
40
0
40
0
40
0
40
0
40
1
40
1
40
1
40
1
41
1
10
-46.1
20
-2.99797469734634
30
0
41
1
10
-46.5970050717544
20
-2.51082642597297
30
0
41
1
10
-47.092201871083
20
-2.02311339201131
30
0
41
1
10
-47.5801596727717
20
-1.53317556715413
30
0
0
SPLINE
5
A9
100
AcDbEntity
8
SK1
62
256
6
ByLayer
370
18
48
1
60
0
100
AcDbSpline
70
4
71
3
72
10
73
6
40
0
40
0
40
0
40
0
40
0.5
40
0.5
40
1
40
1
40
1
40
1
41
1
10
-48
20
-3.60345370222743
30
0
41
1
10
-47.6895025021683
20
-3.92021517785685
30
0
41
1
10
-47.3739502141527
20
-4.23554778080791
30
0
41
1
10
-46.739398465833
20
-4.86498905896039
30
0
41
1
10
-46.4201597311607
20
-5.17909001740694
30
0
41
1
10
-46.1
20
-5.49290021465052
30
0
0
SPLINE
5
AA
100
AcDbEntity
8
SK1
62
256
6
ByLayer
370
18
48
1
60
0
100
AcDbSpline
70
4
71
3
72
14
73
10
40
0
40
0
40
0
40
0
40
0.25
40
0.25
40
0.5
40
0.5
40
0.75
40
0.75
40
1
40
1
40
1
40
1
41
1
10
-47.5801596727717
20
-1.5331755671541
30
0
41
1
10
-47.6072254358671
20
-1.45084297757279
30
0
41
1
10
-47.6369875381703
20
-1.37025399659396
30
0
41
1
10
-47.699919843103
20
-1.21823184499885
30
0
41
1
10
-47.733187196077
20
-1.14635929556332
30
0
41
1
10
-47.8036126426258
20
-1.01075196281221
30
0
41
1
10
-47.841021132939
20
-0.946703103850069
30
0
41
1
10
-47.9183160606063
20
-0.830276703984197
30
0
41
1
10
-47.9583436101987
20
-0.777525613847388
30
0
41
1
10
-48
20
-0.73046318357234
30
0
0
SPLINE
5
AB
100
AcDbEntity
8
1
62
256
6
ByLayer
370
18
48
1
60
0
100
AcDbSpline
70
4
71
3
72
42
73
38
40
0
40
0
40
0
40
0
40
0.0624999999999988
40
0.0624999999999988
40
0.0937499999999982
40
0.0937499999999982
40
0.124999999999998
40
0.124999999999998
40
0.187499999999996
40
0.187499999999996
40
0.218749999999996
40
0.218749999999996
40
0.249999999999995
40
0.249999999999995
40
0.312499999999995
40
0.312499999999995
40
0.374999999999995
40
0.374999999999995
40
0.406249999999995
40
0.406249999999995
40
0.437499999999995
40
0.437499999999995
40
0.499999999999994
40
0.499999999999994
40
0.562499999999994
40
0.562499999999994
40
0.593749999999994
40
0.593749999999994
40
0.624999999999994
40
0.624999999999994
40
0.749999999999996
40
0.749999999999996
40
0.812499999999997
40
0.812499999999997
40
0.874999999999998
40
0.874999999999998
40
1
40
1
40
1
40
1
41
1
10
7.50083689549092
20
0.516559335067996
30
0
41
1
10
7.42415676129974
20
0.220636307003787
30
0
41
1
10
7.37447199308355
20
-0.0770587092949597
30
0
41
1
10
7.33548191268119
20
-0.525747966367902
30
0
41
1
10
7.32841665570348
20
-0.675669240649427
30
0
41
1
10
7.32563639692904
20
-0.97616721005582
30
0
41
1
10
7.32997352302155
20
-1.12733938260882
30
0
41
1
10
7.35921928549593
20
-1.57765925473336
30
0
41
1
10
7.3997092040936
20
-1.86919114431669
30
0
41
1
10
7.48566780344552
20
-2.29513583376971
30
0
41
1
10
7.51855965512473
20
-2.43521404071746
30
0
41
1
10
7.59213310459432
20
-2.71172735706261
30
0
41
1
10
7.63299947796793
20
-2.84868438550382
30
0
41
1
10
7.76486623852171
20
-3.24939051531541
30
0
41
1
10
7.86495211431372
20
-3.50338695588039
30
0
41
1
10
8.0847212283812
20
-3.98871711757923
30
0
41
1
10
8.20444289795057
20
-4.22002144594322
30
0
41
1
10
8.39705179289714
20
-4.55128447650608
30
0
41
1
10
8.46359121568969
20
-4.6593081093678
30
0
41
1
10
8.60021538072323
20
-4.86915000327514
30
0
41
1
10
8.67001273168245
20
-4.97055706376727
30
0
41
1
10
8.88359124163455
20
-5.26486547788519
30
0
41
1
10
9.031528247886
20
-5.44789270144861
30
0
41
1
10
9.33797003702313
20
-5.7897362938113
30
0
41
1
10
9.49648545858525
20
-5.9485375572894
30
0
41
1
10
9.742457825266
20
-6.1693557086225
30
0
41
1
10
9.82582155023857
20
-6.24005720902159
30
0
41
1
10
9.99540946820719
20
-6.37571087921378
30
0
41
1
10
10.0818128402952
20
-6.44077741727654
30
0
41
1
10
10.517745805283
20
-6.74934621428233
30
0
41
1
10
10.8806058684803
20
-6.94469542287535
30
0
41
1
10
11.4525167940398
20
-7.17072716760751
30
0
41
1
10
11.6478014922399
20
-7.23479962548509
30
0
41
1
10
12.0490415920106
20
-7.34150235342148
30
0
41
1
10
12.254227342216
20
-7.38386624058103
30
0
41
1
10
12.8803302480895
20
-7.48007157730646
30
0
41
1
10
13.3138632401177
20
-7.50361299672238
30
0
41
1
10
13.7679997305851
20
-7.49545918301899
30
0
0
SPLINE
5
AC
100
AcDbEntity
8
1
62
256
6
ByLayer
370
18
48
1
60
0
100
AcDbSpline
70
4
71
3
72
20
73
16
40
0
40
0
40
0
40
0
40
0.181621963923854
40
0.181621963923854
40
0.397324964694179
40
0.397324964694179
40
0.50517646507934
40
0.50517646507934
40
0.55910221527192
40
0.55910221527192
40
0.6130279654645
40
0.6130279654645
40
0.828730966234826
40
0.828730966234826
40
1
40
1
40
1
40
1
41
1
10
23.0167917379901
20
-0.0198883135406618
30
0
41
1
10
23.7600889515098
20
-0.427793190858978
30
0
41
1
10
24.5009333856281
20
-0.834477490639813
30
0
41
1
10
26.1215982716284
20
-1.71173941210572
30
0
41
1
10
27.0011382047225
20
-2.18044201063569
30
0
41
1
10
28.3253846498923
20
-2.86234308605904
30
0
41
1
10
28.7676219192444
20
-3.0861172805445
30
0
41
1
10
29.4329302521996
20
-3.41518613936219
30
0
41
1
10
29.6550249798248
20
-3.52377679744717
30
0
41
1
10
30.0999930614307
20
-3.73853018387118
30
0
41
1
10
30.3231515966307
20
-3.84481967629401
30
0
41
1
10
31.4373109146554
20
-4.36784857832507
30
0
41
1
10
32.3220309228861
20
-4.75863341554646
30
0
41
1
10
33.9040235444376
20
-5.40213859480056
30
0
41
1
10
34.6024066967455
20
-5.66663194248167
30
0
41
1
10
35.3008129305342
20
-5.90868206025212
30
0
0
SPLINE
5
AD
100
AcDbEntity
8
1
62
256
6
ByLayer
370
13
48
1
60
0
100
AcDbSpline
70
4
71
3
72
18
73
14
40
0
40
0
40
0
40
0
40
0.278907500649291
40
0.278907500649291
40
0.394541205472761
40
0.394541205472761
40
0.452358057884496
40
0.452358057884496
40
0.510174910296231
40
0.510174910296231
40
0.741442319943171
40
0.741442319943171
40
1
40
1
40
1
40
1
41
1
10
35.3008138754676
20
-5.90868238774237
30
0
41
1
10
36.3616082409093
20
-6.27632712970092
30
0
41
1
10
37.4224558570388
20
-6.59219550498014
30
0
41
1
10
38.932174337171
20
-6.95522502172858
30
0
41
1
10
39.3757644584069
20
-7.05139506771448
30
0
41
1
10
40.0436222711851
20
-7.17955013790214
30
0
41
1
10
40.2668678836457
20
-7.21962968608014
30
0
41
1
10
40.7121387437699
20
-7.29398279283524
30
0
41
1
10
40.9343581861893
20
-7.32829665616458
30
0
41
1
10
42.043700682463
20
-7.48547895123113
30
0
41
1
10
42.9258930937257
20
-7.56512938097512
30
0
41
1
10
44.7902688363775
20
-7.63627004724179
30
0
41
1
10
45.7722225083437
20
-7.61630003331592
30
0
41
1
10
46.7570630990426
20
-7.53902994798202
30
0
0
SPLINE
5
AE
100
AcDbEntity
8
1
62
256
6
ByLayer
370
18
48
1
60
0
100
AcDbSpline
70
4
71
3
72
18
73
14
40
0
40
0
40
0
40
0
40
0.1051508313544
40
0.1051508313544
40
0.212011451077119
40
0.212011451077119
40
0.639453929967996
40
0.639453929967996
40
0.853175169413434
40
0.853175169413434
40
0.960035789136151
40
0.960035789136151
40
1
40
1
40
1
40
1
41
1
10
110.083127877781
20
-0.0018595201212861
30
0
41
1
10
110.516647264902
20
-0.241346563915016
30
0
41
1
10
110.950940244382
20
-0.481277313406849
30
0
41
1
10
111.829036592427
20
-0.964309807309832
30
0
41
1
10
112.273155620743
20
-1.20751185625389
30
0
41
1
10
114.499777732779
20
-2.41569745772512
30
0
41
1
10
116.253686418599
20
-3.33165533479595
30
0
41
1
10
118.888761994591
20
-4.5570716676753
30
0
41
1
10
119.767643867586
20
-4.94103924185899
30
0
41
1
10
121.092548878998
20
-5.4712379918486
30
0
41
1
10
121.5352434895
20
-5.64038841662858
30
0
41
1
10
122.145657631529
20
-5.86128440214483
30
0
41
1
10
122.312186400111
20
-5.92029265178624
30
0
41
1
10
122.47864201961
20
-5.9779901462386
30
0
0
SPLINE
5
AF
100
AcDbEntity
8
1
62
256
6
ByLayer
370
13
48
1
60
0
100
AcDbSpline
70
4
71
3
72
20
73
16
40
0
40
0
40
0
40
0
40
0.0147489829241616
40
0.0147489829241616
40
0.0732694743534951
40
0.0732694743534951
40
0.541433405788188
40
0.541433405788188
40
0.77551537150553
40
0.77551537150553
40
0.834035862934862
40
0.834035862934862
40
0.892556354364192
40
0.892556354364192
40
1
40
1
40
1
40
1
41
1
10
122.478642020292
20
-5.97799014647487
30
0
41
1
10
122.534729899755
20
-5.99743154547195
30
0
41
1
10
122.59080947402
20
-6.01672412398784
30
0
41
1
10
122.869272155541
20
-6.11178905280428
30
0
41
1
10
123.091263609357
20
-6.18525809077255
30
0
41
1
10
125.085953535984
20
-6.82387091586753
30
0
41
1
10
126.83676432038
20
-7.23060659711459
30
0
41
1
10
129.473461165058
20
-7.57214512943816
30
0
41
1
10
130.354155774107
20
-7.64126504738283
30
0
41
1
10
131.461842628119
20
-7.669130690016
30
0
41
1
10
131.683722552819
20
-7.671767873314
30
0
41
1
10
132.128296294748
20
-7.67112436746706
30
0
41
1
10
132.35112555282
20
-7.66783220375902
30
0
41
1
10
132.981200183004
20
-7.650150846011
30
0
41
1
10
133.387754904658
20
-7.6288073541516
30
0
41
1
10
133.793322355926
20
-7.59775458581365
30
0
0
SPLINE
5
B0
100
AcDbEntity
8
1
62
256
6
ByLayer
370
18
48
1
60
0
100
AcDbSpline
70
4
71
3
72
14
73
10
40
0
40
0
40
0
40
0
40
0.499999999999969
40
0.499999999999969
40
0.624999999999976
40
0.624999999999976
40
0.749999999999984
40
0.749999999999984
40
1
40
1
40
1
40
1
41
1
10
176.137574332321
20
1.95507070184644
30
0
41
1
10
176.568947493803
20
1.9494029679264
30
0
41
1
10
177.000197589156
20
1.94448773702146
30
0
41
1
10
177.538849290103
20
1.94085630867175
30
0
41
1
10
177.646566716274
20
1.94020898736065
30
0
41
1
10
177.861792898559
20
1.94019028352793
30
0
41
1
10
177.969340272547
20
1.94058276725386
30
0
41
1
10
178.291983673953
20
1.94175239514101
30
0
41
1
10
178.50701076473
20
1.942951060881
30
0
41
1
10
178.721931792414
20
1.94479826248426
30
0
0
SPLINE
5
B1
100
AcDbEntity
8
1
62
256
6
ByLayer
370
18
48
1
60
0
100
AcDbSpline
70
4
71
3
72
8
73
4
40
0
40
0
40
0
40
0
40
1
40
1
40
1
40
1
41
1
10
7.50083689549098
20
0.516559335067967
30
0
41
1
10
7.22840640516068
20
0.664068833492138
30
0
41
1
10
6.95483568075377
20
0.812077594739435
30
0
41
1
10
6.68014820456946
20
0.960240912985427
30
0
0
SPLINE
5
B2
100
AcDbEntity
8
1
62
256
6
ByLayer
370
18
48
1
60
0
100
AcDbSpline
70
4
71
3
72
8
73
4
40
0
40
0
40
0
40
0
40
1
40
1
40
1
40
1
41
1
10
7.19514613434603
20
0.718365020777838
30
0
41
1
10
7.29572756344595
20
0.648872795389451
30
0
41
1
10
7.39759892487803
20
0.581589799845375
30
0
41
1
10
7.50083689549095
20
0.516559335067996
30
0
0
SPLINE
5
B3
100
AcDbEntity
8
1
62
256
6
ByLayer
370
18
48
1
60
0
100
AcDbSpline
70
4
71
3
72
8
73
4
40
0
40
0
40
0
40
0
40
1
40
1
40
1
40
1
41
1
10
176.252574935231
20
-7.68506014154102
30
0
41
1
10
176.212450679887
20
-7.78647392763099
30
0
41
1
10
176.172297388723
20
-7.8877233226726
30
0
41
1
10
176.132122197312
20
-7.98881233081261
30
0
0
SPLINE
5
B4
100
AcDbEntity
8
1
62
256
6
ByLayer
370
18
48
1
60
0
100
AcDbSpline
70
4
71
3
72
8
73
4
40
0
40
0
40
0
40
0
40
1
40
1
40
1
40
1
41
1
10
176.168196915914
20
-7.5938728867597
30
0
41
1
10
176.183350924536
20
-7.59820805488303
30
0
41
1
10
176.199325816652
20
-7.60018701608075
30
0
41
1
10
176.21613641127
20
-7.59982817727396
30
0
0
SPLINE
5
B5
100
AcDbEntity
8
1
62
256
6
ByLayer
370
18
48
1
60
0
100
AcDbSpline
70
4
71
3
72
8
73
4
40
0
40
0
40
0
40
0
40
1
40
1
40
1
40
1
41
1
10
178.721931792414
20
-1.94479826248423
30
0
41
1
10
178.817942850319
20
-1.34929284412979
30
0
41
1
10
178.902515908413
20
-0.753876249462991
30
0
41
1
10
178.975573772311
20
-0.158549077949601
30
0
0
SPLINE
5
B6
100
AcDbEntity
8
1
62
256
6
ByLayer
370
18
48
1
60
0
100
AcDbSpline
70
4
71
3
72
8
73
4
40
0
40
0
40
0
40
0
40
1
40
1
40
1
40
1
41
1
10
176.132122197312
20
7.98881233081266
30
0
41
1
10
175.889375046597
20
7.99601360827668
30
0
41
1
10
175.64641655125
20
7.99952386457593
30
0
41
1
10
175.403504416258
20
7.99935252285448
30
0
0
SPLINE
5
B7
100
AcDbEntity
8
1
62
256
6
ByLayer
370
18
48
1
60
0
100
AcDbSpline
70
4
71
3
72
54
73
50
40
0
40
0
40
0
40
0
40
0.0509533221852522
40
0.0509533221852522
40
0.106217222726246
40
0.106217222726246
40
0.133849172996742
40
0.133849172996742
40
0.161481123267238
40
0.161481123267238
40
0.216745023808229
40
0.216745023808229
40
0.272008924349221
40
0.272008924349221
40
0.327272824890213
40
0.327272824890213
40
0.354904775160709
40
0.354904775160709
40
0.382536725431204
40
0.382536725431204
40
0.437800625972195
40
0.437800625972195
40
0.493064526513186
40
0.493064526513186
40
0.520696476783681
40
0.520696476783681
40
0.548328427054177
40
0.548328427054177
40
0.603592327595166
40
0.603592327595166
40
0.658856228136156
40
0.658856228136156
40
0.714120128677145
40
0.714120128677145
40
0.74175207894764
40
0.74175207894764
40
0.769384029218136
40
0.769384029218136
40
0.824647929759128
40
0.824647929759128
40
0.87991183030012
40
0.87991183030012
40
0.907543780570616
40
0.907543780570616
40
0.935175730841113
40
0.935175730841113
40
0.990439631382106
40
0.990439631382106
40
1
40
1
40
1
40
1
41
1
10
136.232033092593
20
-7.58060672331018
30
0
41
1
10
135.419412969257
20
-7.72531684960552
30
0
41
1
10
134.606900509089
20
-7.83085251417344
30
0
41
1
10
132.907173335601
20
-7.96596050545867
30
0
41
1
10
132.025961512509
20
-7.98774920637561
30
0
41
1
10
130.703691781417
20
-7.94796904438729
30
0
41
1
10
130.262791970437
20
-7.92263810922054
30
0
41
1
10
129.379792138648
20
-7.84788141101481
30
0
41
1
10
128.937233140968
20
-7.79836206463037
30
0
41
1
10
127.61258415378
20
-7.61479834488426
30
0
41
1
10
126.73196769974
20
-7.44569912626559
30
0
41
1
10
124.967763655887
20
-7.01903074439045
30
0
41
1
10
124.082383499634
20
-6.76069894806719
30
0
41
1
10
122.318095140743
20
-6.16700663716654
30
0
41
1
10
121.43738300737
20
-5.83151228352892
30
0
41
1
10
120.112588577174
20
-5.27694748790282
30
0
41
1
10
119.669947890045
20
-5.083275242105
30
0
41
1
10
118.786725798893
20
-4.68201262840083
30
0
41
1
10
118.345705746318
20
-4.47429133162902
30
0
41
1
10
117.023023235645
20
-3.83196882492058
30
0
41
1
10
116.141804894052
20
-3.378097392732
30
0
41
1
10
114.372229358599
20
-2.43150744674151
30
0
41
1
10
113.490907416687
20
-1.94229138217193
30
0
41
1
10
112.168098036695
20
-1.19524476992967
30
0
41
1
10
111.727054299704
20
-0.943954504973902
30
0
41
1
10
110.843697176537
20
-0.438633181538734
30
0
41
1
10
110.400939921778
20
-0.184363242563222
30
0
41
1
10
109.07587437383
20
0.576339432130737
30
0
41
1
10
108.195004802441
20
1.0816138083166
30
0
41
1
10
106.430034605646
20
2.07413634292931
30
0
41
1
10
105.544448533192
20
2.56266526431011
30
0
41
1
10
103.779396123836
20
3.49854014435903
30
0
41
1
10
102.898521066314
20
3.94749427294892
30
0
41
1
10
101.573077063982
20
4.58213270119202
30
0
41
1
10
101.130241293232
20
4.78752220428362
30
0
41
1
10
100.246780264345
20
5.18218420996615
30
0
41
1
10
99.8056590901265
20
5.37162164039478
30
0
41
1
10
98.4824686172694
20
5.91424343247073
30
0
41
1
10
97.6008719470418
20
6.24223955253893
30
0
41
1
10
95.8306447362636
20
6.82005246261221
30
0
41
1
10
94.9490841071042
20
7.0679571638446
30
0
41
1
10
93.6257909632244
20
7.37356234731442
30
0
41
1
10
93.1845583403608
20
7.46441202691958
30
0
41
1
10
92.3008577109257
20
7.62334666919549
30
0
41
1
10
91.8579521513562
20
7.69143857440918
30
0
41
1
10
90.5324326465689
20
7.85973593930001
30
0
41
1
10
89.6512249412709
20
7.92439528679625
30
0
41
1
10
88.6156872657809
20
7.9435979401477
30
0
41
1
10
88.4629135735859
20
7.94498499498414
30
0
41
1
10
88.3100757840271
20
7.94492348242915
30
0
0
SPLINE
5
B8
100
AcDbEntity
8
1
62
256
6
ByLayer
370
18
48
1
60
0
100
AcDbSpline
70
4
71
3
72
56
73
52
40
0
40
0
40
0
40
0
40
0.00093663113864
40
0.00093663113864
40
0.0633780916924749
40
0.0633780916924749
40
0.0945988219693924
40
0.0945988219693924
40
0.12581955224631
40
0.12581955224631
40
0.188261012800145
40
0.188261012800145
40
0.250702473353979
40
0.250702473353979
40
0.281923203630897
40
0.281923203630897
40
0.313143933907815
40
0.313143933907815
40
0.375585394461649
40
0.375585394461649
40
0.406806124738566
40
0.406806124738566
40
0.438026855015484
40
0.438026855015484
40
0.50046831556932
40
0.50046831556932
40
0.531689045846237
40
0.531689045846237
40
0.562909776123154
40
0.562909776123154
40
0.594130506400071
40
0.594130506400071
40
0.625351236676988
40
0.625351236676988
40
0.687792697230824
40
0.687792697230824
40
0.719013427507742
40
0.719013427507742
40
0.750234157784659
40
0.750234157784659
40
0.812675618338495
40
0.812675618338495
40
0.843896348615413
40
0.843896348615413
40
0.87511707889233
40
0.87511707889233
40
0.906337809169248
40
0.906337809169248
40
0.937558539446166
40
0.937558539446166
40
1
40
1
40
1
40
1
41
1
10
49.0464530172468
20
-7.54385073602921
30
0
41
1
10
49.0332021216784
20
-7.5461496116782
30
0
41
1
10
49.0199514994181
20
-7.54843805776952
30
0
41
1
10
48.1233521355259
20
-7.70258182472185
30
0
41
1
10
47.241311369596
20
-7.80818049677748
30
0
41
1
10
45.9143757793476
20
-7.89475545654497
30
0
41
1
10
45.4710622322747
20
-7.91160685585885
30
0
41
1
10
44.5866741876357
20
-7.92104376015663
30
0
41
1
10
44.1451456569782
20
-7.91367283897554
30
0
41
1
10
42.8206538018968
20
-7.85553473152493
30
0
41
1
10
41.9374434739473
20
-7.76871353019439
30
0
41
1
10
40.1659259602638
20
-7.50055681595236
30
0
41
1
10
39.2833130633729
20
-7.32033246575264
30
0
41
1
10
37.9585655760759
20
-6.98491264000705
30
0
41
1
10
37.5167884109363
20
-6.86229898063417
30
0
41
1
10
36.6319450005165
20
-6.59611801131996
30
0
41
1
10
36.1886219222596
20
-6.45240373137983
30
0
41
1
10
34.861914840641
20
-5.99355628190145
30
0
41
1
10
33.9797090020338
20
-5.65009054725923
30
0
41
1
10
32.6539642811878
20
-5.08565328697128
30
0
41
1
10
32.2113646228114
20
-4.88924180392726
30
0
41
1
10
31.3254061981678
20
-4.48166802503465
30
0
41
1
10
30.8832845234964
20
-4.27105409929123
30
0
41
1
10
29.5578131671792
20
-3.62134106952667
30
0
41
1
10
28.6755424366291
20
-3.16408652372962
30
0
41
1
10
27.3480136671675
20
-2.45176042692859
30
0
41
1
10
26.9045717162822
20
-2.20974973601653
30
0
41
1
10
26.0199094916578
20
-1.72098948472598
30
0
41
1
10
25.5781412684602
20
-1.47396313906538
30
0
41
1
10
24.6947975528199
20
-0.976245718938941
30
0
41
1
10
24.2532466569456
20
-0.725511474692695
30
0
41
1
10
23.3693614516326
20
-0.222076644068835
30
0
41
1
10
22.9267388859115
20
0.0307338088383347
30
0
41
1
10
21.5976687742381
20
0.788097422789122
30
0
41
1
10
20.7146759422357
20
1.28891847327216
30
0
41
1
10
19.3892827387066
20
2.02456151603187
30
0
41
1
10
18.9473960286475
20
2.26728134375941
30
0
41
1
10
18.0622867525421
20
2.74572759114602
30
0
41
1
10
17.6188335269981
20
2.98155814976775
30
0
41
1
10
16.2917392430315
20
3.67232865814557
30
0
41
1
10
15.4092091678479
20
4.11184009302352
30
0
41
1
10
14.0828978945596
20
4.73078510624754
30
0
41
1
10
13.6401191430655
20
4.93048004776759
30
0
41
1
10
12.7538072308155
20
5.31443759709768
30
0
41
1
10
12.3112327354407
20
5.49828422873134
30
0
41
1
10
11.4262770141158
20
5.84855106124115
30
0
41
1
10
10.9839048653362
20
6.01498119466984
30
0
41
1
10
10.0983469867384
20
6.32920374370292
30
0
41
1
10
9.65487084657255
20
6.47707632496309
30
0
41
1
10
8.32657948875396
20
6.88945541533201
30
0
41
1
10
7.44241262788932
20
7.12323038577676
30
0
41
1
10
6.5561377999544
20
7.31286296980088
30
0
0
SPLINE
5
B9
100
AcDbEntity
8
1
62
256
6
ByLayer
370
18
48
1
60
0
100
AcDbSpline
70
4
71
3
72
12
73
8
40
0
40
0
40
0
40
0
40
0.5
40
0.5
40
0.75
40
0.75
40
1
40
1
40
1
40
1
41
1
10
176.430339391723
20
7.77823416828014
30
0
41
1
10
176.817799426928
20
6.81167516465018
30
0
41
1
10
177.204269636968
20
5.84264290209253
30
0
41
1
10
177.778698692693
20
4.38372664965985
30
0
41
1
10
177.969554491863
20
3.89644076469003
30
0
41
1
10
178.348115500443
20
2.92118829584538
30
0
41
1
10
178.535891431162
20
2.43321595612099
30
0
41
1
10
178.721931792414
20
1.94479826248423
30
0
0
SPLINE
5
BA
100
AcDbEntity
8
1
62
256
6
ByLayer
370
18
48
1
60
0
100
AcDbSpline
70
4
71
3
72
14
73
10
40
0
40
0
40
0
40
0
40
0.25
40
0.25
40
0.5
40
0.5
40
0.75
40
0.75
40
1
40
1
40
1
40
1
41
1
10
6.68014820456943
20
0.960240912985455
30
0
41
1
10
6.64900413334436
20
0.977039672799663
30
0
41
1
10
6.6186871913736
20
0.994115092298159
30
0
41
1
10
6.55986541557718
20
1.02901101519771
30
0
41
1
10
6.53295038691812
20
1.04589052936592
30
0
41
1
10
6.4850934344895
20
1.0782506092616
30
0
41
1
10
6.46550535437513
20
1.09282653709144
30
0
41
1
10
6.43742905163003
20
1.11741695636326
30
0
41
1
10
6.4299037750018
20
1.12663597472277
30
0
41
1
10
6.4299037750018
20
1.13184125240551
30
0
0
SPLINE
5
BB
100
AcDbEntity
8
1
62
256
6
ByLayer
370
13
48
1
60
0
100
AcDbSpline
70
4
71
3
72
12
73
8
40
0
40
0
40
0
40
0
40
0.20331028122854
40
0.20331028122854
40
0.48277291114306
40
0.48277291114306
40
1
40
1
40
1
40
1
41
1
10
6.68007026135402
20
7.29319971454854
30
0
41
1
10
6.68006549432792
20
7.32037058393988
30
0
41
1
10
6.68006050679764
20
7.34483924676087
30
0
41
1
10
6.68004822817272
20
7.3964822840733
30
0
41
1
10
6.68004075156176
20
7.42127278011259
30
0
41
1
10
6.68001896980522
20
7.47646419033336
30
0
41
1
10
6.68000423646666
20
7.49403264272402
30
0
41
1
10
6.67998953971008
20
7.49382702548783
30
0
0
SPLINE
5
BC
100
AcDbEntity
8
1
62
256
6
ByLayer
370
18
48
1
60
0
100
AcDbSpline
70
4
71
3
72
8
73
4
40
0
40
0
40
0
40
0
40
1
40
1
40
1
40
1
41
1
10
176.430339391723
20
7.77823416828008
30
0
41
1
10
176.314628353045
20
7.89213306991783
30
0
41
1
10
176.215580252652
20
7.96295383325059
30
0
41
1
10
176.132122197312
20
7.98881233081264
30
0
0
SPLINE
5
BD
100
AcDbEntity
8
1
62
256
6
ByLayer
370
18
48
1
60
0
100
AcDbSpline
70
4
71
3
72
8
73
4
40
0
40
0
40
0
40
0
40
1
40
1
40
1
40
1
41
1
10
178.999975919113
20
0.0393698733560939
30
0
41
1
10
179.000008026955
20
0.0131232965285619
30
0
41
1
10
179.000008026955
20
-0.0131232965287609
30
0
41
1
10
178.999975919113
20
-0.0393698733562928
30
0
0
SPLINE
5
BE
100
AcDbEntity
8
1
62
256
6
ByLayer
370
18
48
1
60
0
100
AcDbSpline
70
4
71
3
72
40
73
36
40
0
40
0
40
0
40
0
40
0.124999999999979
40
0.124999999999979
40
0.156249999999973
40
0.156249999999973
40
0.187499999999968
40
0.187499999999968
40
0.249999999999957
40
0.249999999999957
40
0.312499999999946
40
0.312499999999946
40
0.374999999999936
40
0.374999999999936
40
0.499999999999916
40
0.499999999999916
40
0.515624999999915
40
0.515624999999915
40
0.523437499999913
40
0.523437499999913
40
0.527343749999913
40
0.527343749999913
40
0.531249999999913
40
0.531249999999913
40
0.539062499999913
40
0.539062499999913
40
0.546874999999914
40
0.546874999999914
40
0.562499999999917
40
0.562499999999917
40
0.624999999999929
40
0.624999999999929
40
0.749999999999952
40
0.749999999999952
40
1
40
1
40
1
40
1
41
1
10
7.19514613434603
20
0.718365020777895
30
0
41
1
10
7.2868480859176
20
1.05880635071335
30
0
41
1
10
7.41026023785236
20
1.38546893852578
30
0
41
1
10
7.60367962374133
20
1.77739465696618
30
0
41
1
10
7.64441874273072
20
1.85511137279559
30
0
41
1
10
7.7289558878708
20
2.00736203834384
30
0
41
1
10
7.77282618111127
20
2.08206337288539
30
0
41
1
10
7.9090709969658
20
2.30210147512537
30
0
41
1
10
8.00607534342842
20
2.4433776262247
30
0
41
1
10
8.21164302859128
20
2.71604349961566
30
0
41
1
10
8.32020810713027
20
2.84743135202581
30
0
41
1
10
8.54822301226093
20
3.10111388706741
30
0
41
1
10
8.66755124270173
20
3.22321024172172
30
0
41
1
10
9.03729117014049
20
3.57344996111362
30
0
41
1
10
9.3009862391599
20
3.78721320306707
30
0
41
1
10
9.61147233187916
20
4.0074665587625
30
0
41
1
10
9.6461628015615
20
4.03165863140745
30
0
41
1
10
9.6984818170983
20
4.06753660474402
30
0
41
1
10
9.71572805519207
20
4.07973265109715
30
0
41
1
10
9.74220645114227
20
4.09716260968298
30
0
41
1
10
9.75128569947199
20
4.10263421229413
30
0
41
1
10
9.77094300298643
20
4.11159907458261
30
0
41
1
10
9.78151368748041
20
4.11532772500311
30
0
41
1
10
9.81368807580901
20
4.12343519451318
30
0
41
1
10
9.83597629292876
20
4.12503008326115
30
0
41
1
10
9.88058446457751
20
4.128033215523
30
0
41
1
10
9.90287236830062
20
4.12972949784134
30
0
41
1
10
9.96977189404413
20
4.13438569622588
30
0
41
1
10
10.0143921678825
20
4.13724045416822
30
0
41
1
10
10.2375959643562
20
4.15027651872316
30
0
41
1
10
10.4164313760427
20
4.15675537548191
30
0
41
1
10
10.9524026589461
20
4.16456932957485
30
0
41
1
10
11.3098199358974
20
4.154376437031
30
0
41
1
10
12.3793794306434
20
4.07817371410917
30
0
41
1
10
13.0797894949492
20
3.9679400732893
30
0
41
1
10
13.7679997305851
20
3.79523766637237
30
0
0
SPLINE
5
BF
100
AcDbEntity
8
1
62
256
6
ByLayer
370
18
48
1
60
0
100
AcDbSpline
70
4
71
3
72
126
73
122
40
0
40
0
40
0
40
0
40
0.0127473912618213
40
0.0127473912618213
40
0.0233703214699746
40
0.0233703214699746
40
0.0339932516781278
40
0.0339932516781278
40
0.0446161818862811
40
0.0446161818862811
40
0.0552391120944344
40
0.0552391120944344
40
0.076484972510742
40
0.076484972510742
40
0.0977308329270496
40
0.0977308329270496
40
0.108353763135204
40
0.108353763135204
40
0.118976693343358
40
0.118976693343358
40
0.140222553759667
40
0.140222553759667
40
0.161468414175976
40
0.161468414175976
40
0.17209134438413
40
0.17209134438413
40
0.182714274592285
40
0.182714274592285
40
0.193337204800439
40
0.193337204800439
40
0.203960135008593
40
0.203960135008593
40
0.225205995424902
40
0.225205995424902
40
0.24645185584121
40
0.24645185584121
40
0.257074786049364
40
0.257074786049364
40
0.267697716257518
40
0.267697716257518
40
0.288943576673826
40
0.288943576673826
40
0.310189437090133
40
0.310189437090133
40
0.320812367298287
40
0.320812367298287
40
0.331435297506441
40
0.331435297506441
40
0.352681157922749
40
0.352681157922749
40
0.373927018339056
40
0.373927018339056
40
0.395172878755364
40
0.395172878755364
40
0.405795808963518
40
0.405795808963518
40
0.416418739171671
40
0.416418739171671
40
0.437664599587979
40
0.437664599587979
40
0.458910460004286
40
0.458910460004286
40
0.480156320420594
40
0.480156320420594
40
0.501402180836902
40
0.501402180836902
40
0.522648041253209
40
0.522648041253209
40
0.543893901669517
40
0.543893901669517
40
0.565139762085824
40
0.565139762085824
40
0.586385622502132
40
0.586385622502132
40
0.60763148291844
40
0.60763148291844
40
0.618254413126593
40
0.618254413126593
40
0.628877343334746
40
0.628877343334746
40
0.650123203751051
40
0.650123203751051
40
0.671369064167357
40
0.671369064167357
40
0.692614924583662
40
0.692614924583662
40
0.713860784999967
40
0.713860784999967
40
0.735106645416273
40
0.735106645416273
40
0.756352505832578
40
0.756352505832578
40
0.766975436040731
40
0.766975436040731
40
0.777598366248883
40
0.777598366248883
40
0.798844226665189
40
0.798844226665189
40
0.820090087081494
40
0.820090087081494
40
0.841335947497799
40
0.841335947497799
40
0.851958877705952
40
0.851958877705952
40
0.862581807914105
40
0.862581807914105
40
0.883827668330411
40
0.883827668330411
40
0.905073528746718
40
0.905073528746718
40
0.91569645895487
40
0.91569645895487
40
0.926319389163023
40
0.926319389163023
40
0.947565249579328
40
0.947565249579328
40
0.968811109995633
40
0.968811109995633
40
0.990056970411939
40
0.990056970411939
40
1
40
1
40
1
40
1
41
1
10
158.431922635568
20
-3.8852487207678
30
0
41
1
10
158.186113820323
20
-4.00074217500529
30
0
41
1
10
157.939944045382
20
-4.11461813074553
30
0
41
1
10
157.487800606454
20
-4.32032570651987
30
0
41
1
10
157.281737959355
20
-4.41262453305353
30
0
41
1
10
156.869568675173
20
-4.59388536530636
30
0
41
1
10
156.663499631981
20
-4.68267073084826
30
0
41
1
10
156.252073838344
20
-4.85744803263071
30
0
41
1
10
156.046913541543
20
-4.94370344770095
30
0
41
1
10
155.636215261798
20
-5.11184850968382
30
0
41
1
10
155.430852195083
20
-5.1940297318701
30
0
41
1
10
154.814597166209
20
-5.43573659528477
30
0
41
1
10
154.403890842347
20
-5.59052899570796
30
0
41
1
10
153.582365649476
20
-5.8844407108846
30
0
41
1
10
153.171496202222
20
-6.0234445325479
30
0
41
1
10
152.553633951524
20
-6.21993271530195
30
0
41
1
10
152.347186223002
20
-6.28348121571142
30
0
41
1
10
151.935420196035
20
-6.4071400549569
30
0
41
1
10
151.729940287595
20
-6.46702864933286
30
0
41
1
10
151.113243538559
20
-6.63913187127861
30
0
41
1
10
150.702200962807
20
-6.74401765218133
30
0
41
1
10
149.880755411006
20
-6.93664804153318
30
0
41
1
10
149.470251044373
20
-7.02507226627367
30
0
41
1
10
148.853988185535
20
-7.14290488154271
30
0
41
1
10
148.64842020621
20
-7.17967888305836
30
0
41
1
10
148.236925971963
20
-7.24820656399436
30
0
41
1
10
148.030833936817
20
-7.27987834744664
30
0
41
1
10
147.619295947296
20
-7.33902736816978
30
0
41
1
10
147.413349329932
20
-7.36636448069842
30
0
41
1
10
147.002082668602
20
-7.41628716076525
30
0
41
1
10
146.796672448229
20
-7.43883348646997
30
0
41
1
10
146.181263489264
20
-7.49870491019445
30
0
41
1
10
145.772349080372
20
-7.5281574914375
30
0
41
1
10
144.956264299816
20
-7.56710659508502
30
0
41
1
10
144.548954400585
20
-7.57738959640599
30
0
41
1
10
143.938051970354
20
-7.5784177379004
30
0
41
1
10
143.734338426513
20
-7.57631909964235
30
0
41
1
10
143.328026416134
20
-7.56691341939816
30
0
41
1
10
143.124943633493
20
-7.5594417403702
30
0
41
1
10
142.515375928934
20
-7.52947502877177
30
0
41
1
10
142.108604928805
20
-7.5004937055254
30
0
41
1
10
141.295040267395
20
-7.42376955921986
30
0
41
1
10
140.888169620456
20
-7.37596598139277
30
0
41
1
10
140.276598913768
20
-7.28803589770703
30
0
41
1
10
140.072488370704
20
-7.25640156960614
30
0
41
1
10
139.66375024457
20
-7.18883027967073
30
0
41
1
10
139.459014001998
20
-7.15298072477128
30
0
41
1
10
138.845474611376
20
-7.03752915410595
30
0
41
1
10
138.435155541308
20
-6.95136934722723
30
0
41
1
10
137.611089070095
20
-6.75866646166875
30
0
41
1
10
137.198864613823
20
-6.65322112784105
30
0
41
1
10
136.376253542228
20
-6.42655023460188
30
0
41
1
10
135.965339403216
20
-6.30508283598357
30
0
41
1
10
135.34856387357
20
-6.10966120513618
30
0
41
1
10
135.142913265802
20
-6.04246630522559
30
0
41
1
10
134.732322085577
20
-5.90352479791937
30
0
41
1
10
134.526892308495
20
-5.83228266850034
30
0
41
1
10
133.910091611029
20
-5.61340871780854
30
0
41
1
10
133.498225670698
20
-5.46056939178487
30
0
41
1
10
132.673580881739
20
-5.13779193208737
30
0
41
1
10
132.261937441071
20
-4.96907045898138
30
0
41
1
10
131.438978391105
20
-4.62146697021015
30
0
41
1
10
131.027240141278
20
-4.44284508608925
30
0
41
1
10
130.205894193828
20
-4.07012704994162
30
0
41
1
10
129.794794188874
20
-3.87809479308393
30
0
41
1
10
128.971644985109
20
-3.48586652800938
30
0
41
1
10
128.559725417352
20
-3.28476946194422
30
0
41
1
10
127.735193237493
20
-2.87302272447823
30
0
41
1
10
127.324513560953
20
-2.6634322805061
30
0
41
1
10
126.504259325783
20
-2.2410189036556
30
0
41
1
10
126.095994666736
20
-2.02575703748758
30
0
41
1
10
125.279792501717
20
-1.59323416359115
30
0
41
1
10
124.87229952134
20
-1.37509156501522
30
0
41
1
10
124.058315021324
20
-0.93572555239524
30
0
41
1
10
123.651807711748
20
-0.714539427094678
30
0
41
1
10
123.041605552018
20
-0.382586943941362
30
0
41
1
10
122.838134132682
20
-0.271902561633823
30
0
41
1
10
122.431022398002
20
-0.0504865934198335
30
0
41
1
10
122.227663738395
20
0.060776035396799
30
0
41
1
10
121.6175056217
20
0.39488391437942
30
0
41
1
10
121.209887504805
20
0.616642861288199
30
0
41
1
10
120.393279141624
20
1.05887042325489
30
0
41
1
10
119.984445483055
20
1.27965063387399
30
0
41
1
10
119.164519843028
20
1.71847706362965
30
0
41
1
10
118.753156752625
20
1.93622569874128
30
0
41
1
10
117.927705007461
20
2.3664193476445
30
0
41
1
10
117.516735462022
20
2.58022016314601
30
0
41
1
10
116.694185548462
20
2.99672479531526
30
0
41
1
10
116.283045473333
20
3.20081011804788
30
0
41
1
10
115.461130580995
20
3.60127288055793
30
0
41
1
10
115.050374120882
20
3.79743547861324
30
0
41
1
10
114.433097171066
20
4.08270288890924
30
0
41
1
10
114.22716175034
20
4.17632658345281
30
0
41
1
10
113.814919952259
20
4.36093341154657
30
0
41
1
10
113.608961262696
20
4.45273646892764
30
0
41
1
10
112.991097222503
20
4.72282457308782
30
0
41
1
10
112.58015332395
20
4.89551820724904
30
0
41
1
10
111.760737953006
20
5.22660337125117
30
0
41
1
10
111.352218858589
20
5.38526988226729
30
0
41
1
10
110.536499808774
20
5.6883223344912
30
0
41
1
10
110.129041165732
20
5.8320383018403
30
0
41
1
10
109.518193565005
20
6.03482159289541
30
0
41
1
10
109.31513623293
20
6.10099670346176
30
0
41
1
10
108.908647774202
20
6.22913105182704
30
0
41
1
10
108.705343657483
20
6.29119456378493
30
0
41
1
10
108.09517419114
20
6.47113992796699
30
0
41
1
10
107.688282174548
20
6.58300492001194
30
0
41
1
10
106.874100728864
20
6.78915431815852
30
0
41
1
10
106.466791359316
20
6.88348818201283
30
0
41
1
10
105.85413314243
20
7.01178347396728
30
0
41
1
10
105.64963674928
20
7.0523668544727
30
0
41
1
10
105.240225806438
20
7.12905199447809
30
0
41
1
10
105.035776053807
20
7.16544102779031
30
0
41
1
10
104.420869466849
20
7.26684875373417
30
0
41
1
10
104.008865901541
20
7.32443490990894
30
0
41
1
10
103.184176275722
20
7.42122466788416
30
0
41
1
10
102.772631716363
20
7.4602962113058
30
0
41
1
10
101.950242738245
20
7.51786821219653
30
0
41
1
10
101.538920183471
20
7.53595994269634
30
0
41
1
10
100.935245549511
20
7.54869428892275
30
0
41
1
10
100.743185504818
20
7.55068064857664
30
0
41
1
10
100.550871555468
20
7.55053327945041
30
0
0
SPLINE
5
C0
100
AcDbEntity
8
1
62
256
6
ByLayer
370
18
48
1
60
0
100
AcDbSpline
70
4
71
3
72
124
73
120
40
0
40
0
40
0
40
0
40
0.0054749788684122
40
0.0054749788684122
40
0.0161687962999339
40
0.0161687962999339
40
0.0375564311629778
40
0.0375564311629778
40
0.0589440660260221
40
0.0589440660260221
40
0.0696378834575444
40
0.0696378834575444
40
0.0803317008890664
40
0.0803317008890664
40
0.101719335752112
40
0.101719335752112
40
0.123106970615157
40
0.123106970615157
40
0.144494605478202
40
0.144494605478202
40
0.165882240341247
40
0.165882240341247
40
0.187269875204292
40
0.187269875204292
40
0.208657510067337
40
0.208657510067337
40
0.219351327498859
40
0.219351327498859
40
0.230045144930381
40
0.230045144930381
40
0.251432779793426
40
0.251432779793426
40
0.272820414656471
40
0.272820414656471
40
0.294208049519515
40
0.294208049519515
40
0.304901866951038
40
0.304901866951038
40
0.315595684382561
40
0.315595684382561
40
0.336983319245605
40
0.336983319245605
40
0.358370954108651
40
0.358370954108651
40
0.369064771540174
40
0.369064771540174
40
0.379758588971696
40
0.379758588971696
40
0.401146223834742
40
0.401146223834742
40
0.422533858697787
40
0.422533858697787
40
0.443921493560833
40
0.443921493560833
40
0.454615310992356
40
0.454615310992356
40
0.465309128423879
40
0.465309128423879
40
0.486696763286925
40
0.486696763286925
40
0.50808439814997
40
0.50808439814997
40
0.518778215581493
40
0.518778215581493
40
0.529472033013016
40
0.529472033013016
40
0.550859667876061
40
0.550859667876061
40
0.572247302739107
40
0.572247302739107
40
0.58294112017063
40
0.58294112017063
40
0.593634937602152
40
0.593634937602152
40
0.604328755033675
40
0.604328755033675
40
0.615022572465197
40
0.615022572465197
40
0.636410207328242
40
0.636410207328242
40
0.657797842191287
40
0.657797842191287
40
0.668491659622809
40
0.668491659622809
40
0.679185477054331
40
0.679185477054331
40
0.700573111917376
40
0.700573111917376
40
0.721960746780421
40
0.721960746780421
40
0.732654564211944
40
0.732654564211944
40
0.743348381643466
40
0.743348381643466
40
0.786123651369556
40
0.786123651369556
40
0.8075112862326
40
0.8075112862326
40
0.818205103664123
40
0.818205103664123
40
0.828898921095645
40
0.828898921095645
40
0.85028655595869
40
0.85028655595869
40
0.871674190821734
40
0.871674190821734
40
0.893061825684779
40
0.893061825684779
40
0.914449460547823
40
0.914449460547823
40
0.935837095410867
40
0.935837095410867
40
0.957224730273912
40
0.957224730273912
40
0.967918547705434
40
0.967918547705434
40
0.978612365136956
40
0.978612365136956
40
1
40
1
40
1
40
1
41
1
10
71.3168857816169
20
-3.86972012019817
30
0
41
1
10
71.2120738676474
20
-3.91854492197311
30
0
41
1
10
71.1072406373138
20
-3.96711768903802
30
0
41
1
10
70.7976277887544
20
-4.10985833404391
30
0
41
1
10
70.5924930156075
20
-4.20280378384808
30
0
41
1
10
69.9759679402067
20
-4.47762471362668
30
0
41
1
10
69.5628042824015
20
-4.6559153727209
30
0
41
1
10
68.7383031481513
20
-5.00009237799915
30
0
41
1
10
68.3269429208786
20
-5.16557412498136
30
0
41
1
10
67.7098471616311
20
-5.40164444433432
30
0
41
1
10
67.5041079989669
20
-5.47856190809782
30
0
41
1
10
67.0925368783879
20
-5.62889599340267
30
0
41
1
10
66.8869615148882
20
-5.70259576614831
30
0
41
1
10
66.2704956697839
20
-5.91844521746245
30
0
41
1
10
65.8589379966497
20
-6.05415462106981
30
0
41
1
10
65.0347874894215
20
-6.30823458104456
30
0
41
1
10
64.6216694655441
20
-6.42798805017409
30
0
41
1
10
63.7986084623135
20
-6.64993618250219
30
0
41
1
10
63.3882268011043
20
-6.75170006268226
30
0
41
1
10
62.5689776444181
20
-6.93528282731245
30
0
41
1
10
62.1612594558104
20
-7.01875442690238
30
0
41
1
10
61.3454271338289
20
-7.16668148144075
30
0
41
1
10
60.9379243494465
20
-7.2310430759868
30
0
41
1
10
60.1238007664905
20
-7.34080085691988
30
0
41
1
10
59.7171298126665
20
-7.38657592406776
30
0
41
1
10
59.1063932529103
20
-7.44126556823053
30
0
41
1
10
58.9027116231593
20
-7.45711259389569
30
0
41
1
10
58.4951170201324
20
-7.48377989327247
30
0
41
1
10
58.2916127528225
20
-7.49464286183249
30
0
41
1
10
57.6805345809412
20
-7.5196537506169
30
0
41
1
10
57.2721732439623
20
-7.52644877420232
30
0
41
1
10
56.4539470130024
20
-7.52137354332851
30
0
41
1
10
56.0441601451354
20
-7.50906648911575
30
0
41
1
10
55.2220925268361
20
-7.46290110561162
30
0
41
1
10
54.8089105469062
20
-7.42994053716376
30
0
41
1
10
54.1899740215469
20
-7.36681934420025
30
0
41
1
10
53.984267039705
20
-7.34324006332386
30
0
41
1
10
53.5727420925464
20
-7.29124986170797
30
0
41
1
10
53.3669995863293
20
-7.2628118478637
30
0
41
1
10
52.7497195039196
20
-7.17007640398245
30
0
41
1
10
52.3383061745827
20
-7.09869647371806
30
0
41
1
10
51.5155405723019
20
-6.9378685072061
30
0
41
1
10
51.1042024160265
20
-6.84816736094206
30
0
41
1
10
50.4858177945445
20
-6.69995732090479
30
0
41
1
10
50.2794495988058
20
-6.64829253847515
30
0
41
1
10
49.8664435244483
20
-6.5404989341879
30
0
41
1
10
49.6604709579756
20
-6.48398807419127
30
0
41
1
10
49.0423885274881
20
-6.30916909745315
30
0
41
1
10
48.6303675219168
20
-6.18517345745002
30
0
41
1
10
47.8071879410442
20
-5.92009272624313
30
0
41
1
10
47.3959844616724
20
-5.77886531458969
30
0
41
1
10
46.5731199965515
20
-5.48231811046131
30
0
41
1
10
46.1609507550081
20
-5.3276345016082
30
0
41
1
10
45.5423852467342
20
-5.08407625802278
30
0
41
1
10
45.3364296686756
20
-5.00042384439874
30
0
41
1
10
44.9238147017563
20
-4.83039740405346
30
0
41
1
10
44.7177823214863
20
-4.74401343770606
30
0
41
1
10
44.1003663424983
20
-4.48119160255104
30
0
41
1
10
43.6899592317858
20
-4.30060232325945
30
0
41
1
10
42.8712608380288
20
-3.92876600910486
30
0
41
1
10
42.4630088908334
20
-3.7372748664651
30
0
41
1
10
41.850739775147
20
-3.44480738273609
30
0
41
1
10
41.6465550369257
20
-3.34667188126244
30
0
41
1
10
41.2390257320269
20
-3.14729327695613
30
0
41
1
10
41.035627615013
20
-3.04613161478011
30
0
41
1
10
40.4248748286716
20
-2.74098254305369
30
0
41
1
10
40.0174567154045
20
-2.53439374193499
30
0
41
1
10
39.2027061055323
20
-2.11414773119844
30
0
41
1
10
38.7952843644872
20
-1.90098308698049
30
0
41
1
10
38.1832759090154
20
-1.57755497375825
30
0
41
1
10
37.9790670551416
20
-1.46926967181179
30
0
41
1
10
37.5701454156537
20
-1.25169651308832
30
0
41
1
10
37.3652658843266
20
-1.14267182354618
30
0
41
1
10
36.955842427366
20
-0.922297911838143
30
0
41
1
10
36.7511118638692
20
-0.811349472794092
30
0
41
1
10
36.3407246904625
20
-0.589551077862041
30
0
41
1
10
36.1351776724323
20
-0.478486497270552
30
0
41
1
10
35.5174522545303
20
-0.144674624455717
30
0
41
1
10
35.1039694726448
20
0.0795259107011077
30
0
41
1
10
34.2796999049755
20
0.526280273974663
30
0
41
1
10
33.8680785019893
20
0.749057723446583
30
0
41
1
10
33.2503084348808
20
1.08010119517797
30
0
41
1
10
33.0442056845133
20
1.18971379604722
30
0
41
1
10
32.6330157910211
20
1.40987754137842
30
0
41
1
10
32.4274641356038
20
1.51956579772818
30
0
41
1
10
31.8102082031236
20
1.84628515032438
30
0
41
1
10
31.398056027655
20
2.06130394931947
30
0
41
1
10
30.5732053901177
20
2.4871183317037
30
0
41
1
10
30.1600364786847
20
2.6979197639516
30
0
41
1
10
29.5432314972013
20
3.00554439459938
30
0
41
1
10
29.337844379835
20
3.10680745921084
30
0
41
1
10
28.9274046489245
20
3.30694762681208
30
0
41
1
10
28.7222826396767
20
3.40566507712231
30
0
41
1
10
27.6999606755931
20
3.89707034087584
30
0
41
1
10
26.8839411212064
20
4.26812352419267
30
0
41
1
10
25.6623480432635
20
4.79022266554932
30
0
41
1
10
25.2553097909102
20
4.95843060575953
30
0
41
1
10
24.6439577860029
20
5.19889728769638
30
0
41
1
10
24.4400316880436
20
5.27707917659626
30
0
41
1
10
24.0328036000544
20
5.43131388006043
30
0
41
1
10
23.8290045421911
20
5.50668520578199
30
0
41
1
10
23.2169238313417
20
5.72738908476214
30
0
41
1
10
22.8079487926864
20
5.86732959095667
30
0
41
1
10
21.9887749655778
20
6.13326874943067
30
0
41
1
10
21.5784975749875
20
6.2591259029092
30
0
41
1
10
20.7550094129254
20
6.49444705831408
30
0
41
1
10
20.3409024264794
20
6.60386084687684
30
0
41
1
10
19.5181024974149
20
6.80487477479247
30
0
41
1
10
19.1073315789629
20
6.8940223769421
30
0
41
1
10
18.2861521760846
20
7.05574702945114
30
0
41
1
10
17.8760933559908
20
7.12802822323147
30
0
41
1
10
17.0563288605235
20
7.25359340562443
30
0
41
1
10
16.6464303416551
20
7.30686967853524
30
0
41
1
10
16.0306733354393
20
7.37237837470354
30
0
41
1
10
15.8254461836203
20
7.39188047724238
30
0
41
1
10
15.415327603833
20
7.42612354817481
30
0
41
1
10
15.2101447456765
20
7.44077153489593
30
0
41
1
10
14.5936958798213
20
7.47706568675781
30
0
41
1
10
14.1813554338509
20
7.4910546359215
30
0
41
1
10
13.767999730585
20
7.49545918301945
30
0
0
SPLINE
5
C1
100
AcDbEntity
8
1
62
256
6
ByLayer
370
18
48
1
60
0
100
AcDbSpline
70
4
71
3
72
60
73
56
40
0
40
0
40
0
40
0
40
0.0298828593009456
40
0.0298828593009456
40
0.0597657186018912
40
0.0597657186018912
40
0.119531437203782
40
0.119531437203782
40
0.149414296504728
40
0.149414296504728
40
0.179297155805674
40
0.179297155805674
40
0.209180015106619
40
0.209180015106619
40
0.239062874407565
40
0.239062874407565
40
0.298828593009455
40
0.298828593009455
40
0.3287114523104
40
0.3287114523104
40
0.358594311611344
40
0.358594311611344
40
0.418360030213236
40
0.418360030213236
40
0.448242889514182
40
0.448242889514182
40
0.478125748815128
40
0.478125748815128
40
0.53789146741702
40
0.53789146741702
40
0.567774326717964
40
0.567774326717964
40
0.597657186018909
40
0.597657186018909
40
0.627540045319854
40
0.627540045319854
40
0.657422904620799
40
0.657422904620799
40
0.717188623222687
40
0.717188623222687
40
0.747071482523632
40
0.747071482523632
40
0.776954341824577
40
0.776954341824577
40
0.836720060426467
40
0.836720060426467
40
0.866602919727413
40
0.866602919727413
40
0.896485779028358
40
0.896485779028358
40
0.95625149763025
40
0.95625149763025
40
0.986134356931195
40
0.986134356931195
40
1
40
1
40
1
40
1
41
1
10
176.132122197312
20
-7.98881233081266
30
0
41
1
10
175.69080379838
20
-8.00190437424683
30
0
41
1
10
175.248957868459
20
-8.00280587076105
30
0
41
1
10
174.365781437221
20
-7.98027448081027
30
0
41
1
10
173.924937822353
20
-7.95687510987389
30
0
41
1
10
172.603309790642
20
-7.85075724165972
30
0
41
1
10
171.723343331451
20
-7.73213065060372
30
0
41
1
10
170.399151199646
20
-7.48430857776694
30
0
41
1
10
169.95710828132
20
-7.39003901889294
30
0
41
1
10
169.075213379844
20
-7.17986612904855
30
0
41
1
10
168.63477314606
20
-7.06386883068646
30
0
41
1
10
167.75394669684
20
-6.81090394305755
30
0
41
1
10
167.313562845578
20
-6.67393321312898
30
0
41
1
10
166.431848825336
20
-6.37989633952006
30
0
41
1
10
165.990032182994
20
-6.22265305152146
30
0
41
1
10
164.665099541124
20
-5.72346214524938
30
0
41
1
10
163.784848716606
20
-5.35508699212224
30
0
41
1
10
162.463198376298
20
-4.75686485417248
30
0
41
1
10
162.02243920816
20
-4.54984050805322
30
0
41
1
10
161.139455923034
20
-4.12194449096009
30
0
41
1
10
160.697336898638
20
-3.90111780787515
30
0
41
1
10
159.374233241509
20
-3.22364913345658
30
0
41
1
10
158.494179306722
20
-2.75093182299494
30
0
41
1
10
157.171325838083
20
-2.01964782702302
30
0
41
1
10
156.729420480866
20
-1.77190367100337
30
0
41
1
10
155.846013260289
20
-1.27210768206547
30
0
41
1
10
155.40506528428
20
-1.02037164841875
30
0
41
1
10
154.083041303535
20
-0.262171033985425
30
0
41
1
10
153.202761880138
20
0.247245687864108
30
0
41
1
10
151.877961645027
20
1.00686513443745
30
0
41
1
10
151.43578344888
20
1.25924305270226
30
0
41
1
10
150.553581174372
20
1.7580827118224
30
0
41
1
10
150.112988073358
20
2.00488627060662
30
0
41
1
10
149.231849617976
20
2.49164317174447
30
0
41
1
10
148.791301748339
20
2.73159181357877
30
0
41
1
10
147.909219487147
20
3.20291170677828
30
0
41
1
10
147.467188941416
20
3.43455136009976
30
0
41
1
10
146.141881475684
20
4.112282247644
30
0
41
1
10
145.261374281958
20
4.54011697691897
30
0
41
1
10
143.939209472111
20
5.13747355894429
30
0
41
1
10
143.498240591465
20
5.32917546544721
30
0
41
1
10
142.614849549581
20
5.69638804781675
30
0
41
1
10
142.172609730038
20
5.87179748749719
30
0
41
1
10
140.849115517618
20
6.36913522773628
30
0
41
1
10
139.968798130914
20
6.66314296667659
30
0
41
1
10
138.645411654219
20
7.04189938992195
30
0
41
1
10
138.203265033618
20
7.15787786752429
30
0
41
1
10
137.319561947236
20
7.36749661533025
30
0
41
1
10
136.878503042205
20
7.46107417052031
30
0
41
1
10
135.556092497472
20
7.70729331062344
30
0
41
1
10
134.67540932883
20
7.82539440297694
30
0
41
1
10
133.350100522248
20
7.93075932485647
30
0
41
1
10
132.907783804798
20
7.95384516464304
30
0
41
1
10
132.26180104037
20
7.96982887906208
30
0
41
1
10
132.057175890877
20
7.97228589683917
30
0
41
1
10
131.852610458357
20
7.97213875104487
30
0
0
SPLINE
5
C2
100
AcDbEntity
8
1
62
256
6
ByLayer
370
18
48
1
60
0
100
AcDbSpline
70
4
71
3
72
64
73
60
40
0
40
0
40
0
40
0
40
0.024551483096053
40
0.024551483096053
40
0.079971541624732
40
0.079971541624732
40
0.107681570889071
40
0.107681570889071
40
0.135391600153409
40
0.135391600153409
40
0.190811658682086
40
0.190811658682086
40
0.218521687946424
40
0.218521687946424
40
0.246231717210763
40
0.246231717210763
40
0.301651775739441
40
0.301651775739441
40
0.32936180500378
40
0.32936180500378
40
0.357071834268118
40
0.357071834268118
40
0.384781863532458
40
0.384781863532458
40
0.412491892796798
40
0.412491892796798
40
0.467911951325477
40
0.467911951325477
40
0.495621980589816
40
0.495621980589816
40
0.523332009854156
40
0.523332009854156
40
0.578752068382835
40
0.578752068382835
40
0.606462097647174
40
0.606462097647174
40
0.634172126911513
40
0.634172126911513
40
0.689592185440193
40
0.689592185440193
40
0.717302214704532
40
0.717302214704532
40
0.745012243968872
40
0.745012243968872
40
0.772722273233211
40
0.772722273233211
40
0.800432302497551
40
0.800432302497551
40
0.85585236102623
40
0.85585236102623
40
0.883562390290569
40
0.883562390290569
40
0.911272419554909
40
0.911272419554909
40
0.966692478083588
40
0.966692478083588
40
0.994402507347928
40
0.994402507347928
40
1
40
1
40
1
40
1
41
1
10
92.5917616512521
20
-7.57057752146142
30
0
41
1
10
92.2003329794867
20
-7.63864349804425
30
0
41
1
10
91.8081940140572
20
-7.69775144170515
30
0
41
1
10
90.5320519021592
20
-7.85979506293958
30
0
41
1
10
89.6506698336083
20
-7.92441379216655
30
0
41
1
10
88.3269417746852
20
-7.94894822951062
30
0
41
1
10
87.8854738644681
20
-7.94506506133908
30
0
41
1
10
87.0010073781628
20
-7.91302764075121
30
0
41
1
10
86.5583932935137
20
-7.88486024124066
30
0
41
1
10
85.2335780522199
20
-7.76472696321548
30
0
41
1
10
84.3523362640758
20
-7.63704405552787
30
0
41
1
10
83.0273318040878
20
-7.37681888828911
30
0
41
1
10
82.5846161978749
20
-7.27846118427925
30
0
41
1
10
81.7001795266372
20
-7.0600441439706
30
0
41
1
10
81.2586566504472
20
-6.9401068427691
30
0
41
1
10
79.9348101865286
20
-6.54946398987525
30
0
41
1
10
79.053174421067
20
-6.24794798165078
30
0
41
1
10
77.7261474706058
20
-5.73985747403535
30
0
41
1
10
77.2835099716161
20
-5.56131128747174
30
0
41
1
10
76.4001770753638
20
-5.1887339941556
30
0
41
1
10
75.9589618806568
20
-4.99451447862407
30
0
41
1
10
75.0765454766505
20
-4.59145995622188
30
0
41
1
10
74.6353413758187
20
-4.38262536578787
30
0
41
1
10
73.7518381949302
20
-3.9518938687215
30
0
41
1
10
73.3089774277113
20
-3.72969948804965
30
0
41
1
10
71.9820264738552
20
-3.0478268477639
30
0
41
1
10
71.1003619345113
20
-2.57331062363724
30
0
41
1
10
69.7761582720009
20
-1.84190592235811
30
0
41
1
10
69.3344751389809
20
-1.59482994473299
30
0
41
1
10
68.4495815653728
20
-1.09573878220991
30
0
41
1
10
68.006896018353
20
-0.843927462081638
30
0
41
1
10
66.6816953572994
20
-0.0876649768418645
30
0
41
1
10
65.800077545533
20
0.418873046856561
30
0
41
1
10
64.4745780981576
20
1.17196015739421
30
0
41
1
10
64.0316286372919
20
1.42212708079921
30
0
41
1
10
63.1468711189637
20
1.91671686601944
30
0
41
1
10
62.7052497173736
20
2.16110084599452
30
0
41
1
10
61.3809929192948
20
2.88276000330549
30
0
41
1
10
60.4990021595959
20
3.34861130556155
30
0
41
1
10
59.1714450484477
20
4.014884887346
30
0
41
1
10
58.7286794189033
20
4.23125246920017
30
0
41
1
10
57.8450032901631
20
4.64937606880417
30
0
41
1
10
57.4036268910105
20
4.85142691818214
30
0
41
1
10
56.5208862243848
20
5.24026340692694
30
0
41
1
10
56.0795018153272
20
5.42701893009737
30
0
41
1
10
55.1956343166046
20
5.7837612663858
30
0
41
1
10
54.7526074246044
20
5.95398939159972
30
0
41
1
10
53.4253548972966
20
6.43593110338932
30
0
41
1
10
52.543290836878
20
6.71865499047183
30
0
41
1
10
51.2185746520077
20
7.07962428543883
30
0
41
1
10
50.776713665063
20
7.18941034690209
30
0
41
1
10
49.8914389127547
20
7.3870220246298
30
0
41
1
10
49.448665639771
20
7.47473184102785
30
0
41
1
10
48.1230285760151
20
7.70264042760323
30
0
41
1
10
47.2410850732083
20
7.808181489308
30
0
41
1
10
45.9150590230595
20
7.89471776036723
30
0
41
1
10
45.4719019178565
20
7.91158862164278
30
0
41
1
10
44.9399858066851
20
7.91727559890884
30
0
41
1
10
44.8506270652837
20
7.91773722372702
30
0
41
1
10
44.7612954598868
20
7.91770558800224
30
0
0
SPLINE
5
C3
100
AcDbEntity
8
1
62
256
6
ByLayer
370
18
48
1
60
0
100
AcDbSpline
70
4
71
3
72
10
73
6
40
0
40
0
40
0
40
0
40
0.5
40
0.5
40
1
40
1
40
1
40
1
41
1
10
178.975573772311
20
0.158549077949772
30
0
41
1
10
178.977660554574
20
0.141544499441551
30
0
41
1
10
178.980929984983
20
0.122809041048328
30
0
41
1
10
178.989196604766
20
0.0828056955396619
30
0
41
1
10
178.994261035219
20
0.0613395349868426
30
0
41
1
10
178.999975919113
20
0.0393698733562644
30
0
0
SPLINE
5
C4
100
AcDbEntity
8
1
62
256
6
ByLayer
370
18
48
1
60
0
100
AcDbSpline
70
4
71
3
72
18
73
14
40
0
40
0
40
0
40
0
40
0.25
40
0.25
40
0.375
40
0.375
40
0.5
40
0.5
40
0.75
40
0.75
40
0.875
40
0.875
40
1
40
1
40
1
40
1
41
1
10
176.168196915921
20
-7.59387288676075
30
0
41
1
10
176.001887210392
20
-7.57701318344664
30
0
41
1
10
175.847748354056
20
-7.52503012925192
30
0
41
1
10
175.636417942024
20
-7.38969081698602
30
0
41
1
10
175.569086343468
20
-7.33462692458167
30
0
41
1
10
175.444067450019
20
-7.20665173031406
30
0
41
1
10
175.386061472621
20
-7.13362972987284
30
0
41
1
10
175.225620102655
20
-6.88732780668539
30
0
41
1
10
175.136639143214
20
-6.68705696508735
30
0
41
1
10
175.032385743578
20
-6.32803643582696
30
0
41
1
10
175.002531473335
20
-6.19810159965894
30
0
41
1
10
174.954214192204
20
-5.92319757504418
30
0
41
1
10
174.935551375765
20
-5.77768895736136
30
0
41
1
10
174.922429068502
20
-5.6240582282399
30
0
0
SPLINE
5
C5
100
AcDbEntity
8
1
62
256
6
ByLayer
370
18
48
1
60
0
100
AcDbSpline
70
4
71
3
72
10
73
6
40
0
40
0
40
0
40
0
40
0.5
40
0.5
40
1
40
1
40
1
40
1
41
1
10
178.999975919113
20
0.0393698733563212
30
0
41
1
10
178.9944312886
20
0.0207397584416356
30
0
41
1
10
178.987737992183
20
0.0012718873640267
30
0
41
1
10
178.972737389078
20
-0.0362683981766168
30
0
41
1
10
178.964693704705
20
-0.0536942701789656
30
0
41
1
10
178.956640135337
20
-0.0686926647168491
30
0
0
SPLINE
5
C6
100
AcDbEntity
8
1
62
256
6
ByLayer
370
18
48
1
60
0
100
AcDbSpline
70
4
71
3
72
8
73
4
40
0
40
0
40
0
40
0
40
1
40
1
40
1
40
1
41
1
10
178.956640135337
20
-0.0686926647168775
30
0
41
1
10
178.90473719945
20
-0.16535299935515
30
0
41
1
10
178.853000890936
20
-0.262162202276983
30
0
41
1
10
178.801431443486
20
-0.359120482131601
30
0
0
SPLINE
5
C7
100
AcDbEntity
8
1
62
256
6
ByLayer
370
13
48
1
60
0
100
AcDbSpline
70
4
71
3
72
46
73
42
40
0
40
0
40
0
40
0
40
0.0057060528548037
40
0.0057060528548037
40
0.0821902026352037
40
0.0821902026352037
40
0.120432277525404
40
0.120432277525404
40
0.158674352415604
40
0.158674352415604
40
0.235158502196004
40
0.235158502196004
40
0.311642651976403
40
0.311642651976403
40
0.388126801756803
40
0.388126801756803
40
0.426368876647003
40
0.426368876647003
40
0.464610951537203
40
0.464610951537203
40
0.541095101317603
40
0.541095101317603
40
0.579337176207803
40
0.579337176207803
40
0.617579251098003
40
0.617579251098003
40
0.694063400878402
40
0.694063400878402
40
0.770547550658802
40
0.770547550658802
40
0.808789625549001
40
0.808789625549001
40
0.847031700439201
40
0.847031700439201
40
0.923515850219601
40
0.923515850219601
40
0.9617579251098
40
0.9617579251098
40
0.9808789625549
40
0.9808789625549
40
1
40
1
40
1
40
1
41
1
10
6.67998953971883
20
-7.4938270256113
30
0
41
1
10
6.67998835488262
20
-7.49381044955143
30
0
41
1
10
6.67998717028416
20
-7.49367835260227
30
0
41
1
10
6.67997011545305
20
-7.49011534541395
30
0
41
1
10
6.67995434228979
20
-7.46608883321824
30
0
41
1
10
6.67993192358873
20
-7.39832182348817
30
0
41
1
10
6.67992463370035
20
-7.37030909606179
30
0
41
1
10
6.6799107652966
20
-7.30395639943072
30
0
41
1
10
6.67990420198365
20
-7.26574056325035
30
0
41
1
10
6.6798858151682
20
-7.13632846725696
30
0
41
1
10
6.67987529931034
20
-7.0304275919942
30
0
41
1
10
6.67985862775527
20
-6.77973315190087
30
0
41
1
10
6.6798524682423
20
-6.63486071054615
30
0
41
1
10
6.67984526559746
20
-6.30492959018719
30
0
41
1
10
6.67984427730713
20
-6.12237516913993
30
0
41
1
10
6.67984681131884
20
-5.82225667601634
30
0
41
1
10
6.67984832848677
20
-5.71782166551381
30
0
41
1
10
6.67985263424492
20
-5.50245504294642
30
0
41
1
10
6.6798554240539
20
-5.39125921985945
30
0
41
1
10
6.67986560026867
20
-5.04732105013747
30
0
41
1
10
6.67987479831496
20
-4.80427041576033
30
0
41
1
10
6.6798917240194
20
-4.41901457125886
30
0
41
1
10
6.67989788623862
20
-4.28713872854721
30
0
41
1
10
6.67991115288223
20
-4.01633304821718
30
0
41
1
10
6.67991828183551
20
-3.87696186290239
30
0
41
1
10
6.67994059469061
20
-3.45382102522737
30
0
41
1
10
6.679956764092
20
-3.16373497262302
30
0
41
1
10
6.67999033075077
20
-2.56802458946939
30
0
41
1
10
6.68000773188373
20
-2.26239985098522
30
0
41
1
10
6.6800336465723
20
-1.79204806950762
30
0
41
1
10
6.68004227671707
20
-1.63280285459294
30
0
41
1
10
6.68005913217428
20
-1.31273683621149
30
0
41
1
10
6.68006734823166
20
-1.15211131239292
30
0
41
1
10
6.68009106329447
20
-0.66847594309607
30
0
41
1
10
6.68010564259873
20
-0.34349893968556
30
0
41
1
10
6.68012437670049
20
0.146870167318269
30
0
41
1
10
6.68013006693752
20
0.309999689969686
30
0
41
1
10
6.68013763190049
20
0.554206636425249
30
0
41
1
10
6.68013999179846
20
0.635527663519525
30
0
41
1
10
6.68014436450773
20
0.798006846981366
30
0
41
1
10
6.68014638779979
20
0.879709390078432
30
0
41
1
10
6.68014820457046
20
0.960240912984318
30
0
0
SPLINE
5
C8
100
AcDbEntity
8
1
62
256
6
ByLayer
370
18
48
1
60
0
100
AcDbSpline
70
4
71
3
72
12
73
8
40
0
40
0
40
0
40
0
40
0.500000000000002
40
0.500000000000002
40
0.750000000000001
40
0.750000000000001
40
1
40
1
40
1
40
1
41
1
10
176.430339391716
20
-7.77823416829696
30
0
41
1
10
176.818592684537
20
-6.80969630176187
30
0
41
1
10
177.205332920404
20
-5.83995836716366
30
0
41
1
10
177.779362566467
20
-4.38203256076707
30
0
41
1
10
177.969881249344
20
-3.89560109349264
30
0
41
1
10
178.348076250296
20
-2.92128728630163
30
0
41
1
10
178.535808262009
20
-2.4334343027493
30
0
41
1
10
178.721931792414
20
-1.9447982624842
30
0
0
SPLINE
5
C9
100
AcDbEntity
8
1
62
256
6
ByLayer
370
18
48
1
60
0
100
AcDbSpline
70
4
71
3
72
14
73
10
40
0
40
0
40
0
40
0
40
0.249999999999997
40
0.249999999999997
40
0.374999999999996
40
0.374999999999996
40
0.499999999999994
40
0.499999999999994
40
1
40
1
40
1
40
1
41
1
10
171.194251733024
20
-2.83876905950464
30
0
41
1
10
171.473210585609
20
-3.13002044405283
30
0
41
1
10
171.763162609057
20
-3.40397894646381
30
0
41
1
10
172.211726491353
20
-3.7934667380905
30
0
41
1
10
172.363529927439
20
-3.91970606300262
30
0
41
1
10
172.671408874003
20
-4.16546449717291
30
0
41
1
10
172.8277878011
20
-4.28519819993667
30
0
41
1
10
173.614851485371
20
-4.86439607732029
30
0
41
1
10
174.261848958773
20
-5.26772800756186
30
0
41
1
10
174.922429068501
20
-5.6240582282399
30
0
0
SPLINE
5
CA
100
AcDbEntity
8
1
62
256
6
ByLayer
370
18
48
1
60
0
100
AcDbSpline
70
4
71
3
72
8
73
4
40
0
40
0
40
0
40
0
40
1
40
1
40
1
40
1
41
1
10
176.430339391721
20
-7.77823416828133
30
0
41
1
10
176.314628353044
20
-7.89213306991837
30
0
41
1
10
176.215580252652
20
-7.96295383325071
30
0
41
1
10
176.132122197312
20
-7.98881233081266
30
0
0
SPLINE
5
CB
100
AcDbEntity
8
1
62
256
6
ByLayer
370
18
48
1
60
0
100
AcDbSpline
70
4
71
3
72
8
73
4
40
0
40
0
40
0
40
0
40
1
40
1
40
1
40
1
41
1
10
13.7679997305851
20
7.49545918301945
30
0
41
1
10
13.7405248180917
20
7.49595248255093
30
0
41
1
10
13.7131328308933
20
7.49632935017655
30
0
41
1
10
13.6858227306282
20
7.49658809437122
30
0
0
SPLINE
5
CC
100
AcDbEntity
8
1
62
256
6
ByLayer
370
18
48
1
60
0
100
AcDbSpline
70
4
71
3
72
32
73
28
40
0
40
0
40
0
40
0
40
0.154470262358029
40
0.154470262358029
40
0.35558743534556
40
0.35558743534556
40
0.456146021839326
40
0.456146021839326
40
0.506425315086209
40
0.506425315086209
40
0.518995138397929
40
0.518995138397929
40
0.53156496170965
40
0.53156496170965
40
0.53784987336551
40
0.53784987336551
40
0.544134785021371
40
0.544134785021371
40
0.556704608333092
40
0.556704608333092
40
0.657263194826857
40
0.657263194826857
40
0.757821781320622
40
0.757821781320622
40
0.958938954308153
40
0.958938954308153
40
1
40
1
40
1
40
1
41
1
10
13.7679997305851
20
3.79523766637237
30
0
41
1
10
13.7679997305851
20
3.37924086011697
30
0
41
1
10
13.7679997305851
20
2.94029634394388
30
0
41
1
10
13.7679997305851
20
1.87974410793541
30
0
41
1
10
13.7679997305851
20
1.24296245863857
30
0
41
1
10
13.7679997305851
20
0.232771702303353
30
0
41
1
10
13.7679997305851
20
-0.11316057437341
30
0
41
1
10
13.7679997305851
20
-0.646105664671126
30
0
41
1
10
13.7679997305851
20
-0.826127218690118
30
0
41
1
10
13.7679997305851
20
-1.05245841515776
30
0
41
1
10
13.7679997305851
20
-1.09780989199211
30
0
41
1
10
13.7679997305851
20
-1.18868263094859
30
0
41
1
10
13.7679997305851
20
-1.23341257815917
30
0
41
1
10
13.7679997305851
20
-1.30675728765215
30
0
41
1
10
13.7679997305851
20
-1.33204046028797
30
0
41
1
10
13.7679997305851
20
-1.38481112416034
30
0
41
1
10
13.7679997305851
20
-1.41180380965545
30
0
41
1
10
13.7679997305851
20
-1.49206267474847
30
0
41
1
10
13.7679997305851
20
-1.54564354742362
30
0
41
1
10
13.7679997305851
20
-2.02855078783907
30
0
41
1
10
13.7679997305851
20
-2.46262557502629
30
0
41
1
10
13.7679997305851
20
-3.34105610507055
30
0
41
1
10
13.7679997305851
20
-3.7833889326628
30
0
41
1
10
13.7679997305851
20
-5.11859998009137
30
0
41
1
10
13.7679997305851
20
-6.02077300624572
30
0
41
1
10
13.7679997305851
20
-7.12193787042622
30
0
41
1
10
13.7679997305851
20
-7.30867831757138
30
0
41
1
10
13.7679997305851
20
-7.49545918301897
30
0
0
SPLINE
5
CD
100
AcDbEntity
8
1
62
256
6
ByLayer
370
18
48
1
60
0
100
AcDbSpline
70
4
71
3
72
66
73
62
40
0
40
0
40
0
40
0
40
0.0442988328232705
40
0.0442988328232705
40
0.0664482492349052
40
0.0664482492349052
40
0.0885976656465399
40
0.0885976656465399
40
0.13289649846981
40
0.13289649846981
40
0.177195331293081
40
0.177195331293081
40
0.221494164116352
40
0.221494164116352
40
0.243643580527987
40
0.243643580527987
40
0.265792996939622
40
0.265792996939622
40
0.310091829762894
40
0.310091829762894
40
0.354390662586165
40
0.354390662586165
40
0.376540078997801
40
0.376540078997801
40
0.398689495409437
40
0.398689495409437
40
0.442988328232709
40
0.442988328232709
40
0.48728716105598
40
0.48728716105598
40
0.509436577467616
40
0.509436577467616
40
0.531585993879252
40
0.531585993879252
40
0.575884826702525
40
0.575884826702525
40
0.620183659525797
40
0.620183659525797
40
0.66448249234907
40
0.66448249234907
40
0.686631908760706
40
0.686631908760706
40
0.708781325172343
40
0.708781325172343
40
0.753080157995617
40
0.753080157995617
40
0.797378990818891
40
0.797378990818891
40
0.819528407230528
40
0.819528407230528
40
0.841677823642164
40
0.841677823642164
40
0.885976656465438
40
0.885976656465438
40
0.930275489288712
40
0.930275489288712
40
0.95242490570035
40
0.95242490570035
40
0.974574322111987
40
0.974574322111987
40
1
40
1
40
1
40
1
41
1
10
13.7679997305851
20
3.79523766637237
30
0
41
1
10
14.1940861626686
20
3.58031654815298
30
0
41
1
10
14.6193447959075
20
3.36207784719659
30
0
41
1
10
15.2564301545042
20
3.03062915919762
30
0
41
1
10
15.4685921659725
20
2.91935348214619
30
0
41
1
10
15.8920649149996
20
2.69445132184668
30
0
41
1
10
16.1030028646459
20
2.58018347854986
30
0
41
1
10
16.7360881471671
20
2.2364900135079
30
0
41
1
10
17.1583540975604
20
2.0059402566574
30
0
41
1
10
18.0011114878389
20
1.53825259628098
30
0
41
1
10
18.4216342807177
20
1.30114678001795
30
0
41
1
10
19.2639348021086
20
0.825634548815884
30
0
41
1
10
19.6858983973987
20
0.58758062467993
30
0
41
1
10
20.3183477071721
20
0.226965434622627
30
0
41
1
10
20.5288954065662
20
0.105829527503801
30
0
41
1
10
20.9511649362142
20
-0.135217133440079
30
0
41
1
10
21.1626589661787
20
-0.255536727746829
30
0
41
1
10
21.79803184499
20
-0.616218990824819
30
0
41
1
10
22.2221029555098
20
-0.85758682145692
30
0
41
1
10
23.0729851649231
20
-1.33901253414587
30
0
41
1
10
23.5008996440453
20
-1.57853941631393
30
0
41
1
10
24.1393765273178
20
-1.9319351669439
30
0
41
1
10
24.3518486949923
20
-2.04893338117586
30
0
41
1
10
24.7753208782449
20
-2.28266828332156
30
0
41
1
10
24.9869451621772
20
-2.39829227252824
30
0
41
1
10
25.6215665100547
20
-2.7413827317844
30
0
41
1
10
26.0441950939144
20
-2.96530196617877
30
0
41
1
10
26.8869835959194
20
-3.40621814022862
30
0
41
1
10
27.3077842390199
20
-3.62211084390833
30
0
41
1
10
27.9396152315532
20
-3.93677304878068
30
0
41
1
10
28.1502748077699
20
-4.04022423061136
30
0
41
1
10
28.5714999272941
20
-4.24455007071236
30
0
41
1
10
28.7817698305388
20
-4.34586768235718
30
0
41
1
10
29.41294058833
20
-4.64512716236041
30
0
41
1
10
29.8350269087965
20
-4.8372123006568
30
0
41
1
10
30.679951218328
20
-5.20927942497511
30
0
41
1
10
31.1025173276718
20
-5.38957288862983
30
0
41
1
10
31.9509994096317
20
-5.73420854656018
30
0
41
1
10
32.3772548193911
20
-5.89856697158348
30
0
41
1
10
33.0176214952389
20
-6.13380279256452
30
0
41
1
10
33.2303257041483
20
-6.21060499038722
30
0
41
1
10
33.6562530912747
20
-6.35873419204691
30
0
41
1
10
33.8692524562328
20
-6.43032696722639
30
0
41
1
10
34.5082421796627
20
-6.63791636868967
30
0
41
1
10
34.9335264435258
20
-6.76740798715886
30
0
41
1
10
35.7839242731969
20
-7.00723011339781
30
0
41
1
10
36.2096012751752
20
-7.11709250383385
30
0
41
1
10
36.8491274405714
20
-7.26668038600801
30
0
41
1
10
37.0625228944509
20
-7.31398325708358
30
0
41
1
10
37.4886229871522
20
-7.40413221315373
30
0
41
1
10
37.7018229860393
20
-7.44653772097075
30
0
41
1
10
38.3403918164985
20
-7.56508807939119
30
0
41
1
10
38.7652419949936
20
-7.63299099551901
30
0
41
1
10
39.6114331907864
20
-7.74776832953191
30
0
41
1
10
40.0333731524544
20
-7.79427040646894
30
0
41
1
10
40.6662119336722
20
-7.84744709408093
30
0
41
1
10
40.877096990892
20
-7.86243624070241
30
0
41
1
10
41.2985538659691
20
-7.88700570835823
30
0
41
1
10
41.5089075136258
20
-7.89661621550084
30
0
41
1
10
41.9604462967442
20
-7.91135262762276
30
0
41
1
10
42.2020334669961
20
-7.91559000079599
30
0
41
1
10
42.4437355017621
20
-7.91622189845552
30
0
0
SPLINE
5
CE
100
AcDbEntity
8
1
62
256
6
ByLayer
370
18
48
1
60
0
100
AcDbSpline
70
4
71
3
72
126
73
122
40
0
40
0
40
0
40
0
40
0.0055380996963739
40
0.0055380996963739
40
0.0164403758408293
40
0.0164403758408293
40
0.0382449281297401
40
0.0382449281297401
40
0.0600494804186509
40
0.0600494804186509
40
0.0709517565631066
40
0.0709517565631066
40
0.0818540327075622
40
0.0818540327075622
40
0.103658584996473
40
0.103658584996473
40
0.125463137285384
40
0.125463137285384
40
0.147267689574295
40
0.147267689574295
40
0.169072241863206
40
0.169072241863206
40
0.190876794152116
40
0.190876794152116
40
0.212681346441027
40
0.212681346441027
40
0.223583622585483
40
0.223583622585483
40
0.234485898729939
40
0.234485898729939
40
0.256290451018851
40
0.256290451018851
40
0.278095003307762
40
0.278095003307762
40
0.288997279452218
40
0.288997279452218
40
0.299899555596674
40
0.299899555596674
40
0.321704107885586
40
0.321704107885586
40
0.343508660174498
40
0.343508660174498
40
0.354410936318954
40
0.354410936318954
40
0.36531321246341
40
0.36531321246341
40
0.376215488607866
40
0.376215488607866
40
0.387117764752322
40
0.387117764752322
40
0.408922317041235
40
0.408922317041235
40
0.430726869330147
40
0.430726869330147
40
0.45253142161906
40
0.45253142161906
40
0.474335973907973
40
0.474335973907973
40
0.496140526196886
40
0.496140526196886
40
0.507042802341342
40
0.507042802341342
40
0.517945078485797
40
0.517945078485797
40
0.539749630774709
40
0.539749630774709
40
0.561554183063621
40
0.561554183063621
40
0.583358735352533
40
0.583358735352533
40
0.594261011496988
40
0.594261011496988
40
0.605163287641444
40
0.605163287641444
40
0.626967839930353
40
0.626967839930353
40
0.648772392219263
40
0.648772392219263
40
0.659674668363717
40
0.659674668363717
40
0.670576944508171
40
0.670576944508171
40
0.69238149679708
40
0.69238149679708
40
0.714186049085988
40
0.714186049085988
40
0.725088325230443
40
0.725088325230443
40
0.735990601374897
40
0.735990601374897
40
0.757795153663805
40
0.757795153663805
40
0.779599705952714
40
0.779599705952714
40
0.801404258241622
40
0.801404258241622
40
0.812306534386077
40
0.812306534386077
40
0.823208810530532
40
0.823208810530532
40
0.84501336281944
40
0.84501336281944
40
0.866817915108348
40
0.866817915108348
40
0.877720191252803
40
0.877720191252803
40
0.888622467397257
40
0.888622467397257
40
0.910427019686164
40
0.910427019686164
40
0.932231571975072
40
0.932231571975072
40
0.943133848119525
40
0.943133848119525
40
0.954036124263979
40
0.954036124263979
40
0.975840676552888
40
0.975840676552888
40
0.997645228841796
40
0.997645228841796
40
1
40
1
40
1
40
1
41
1
10
71.303453735988
20
3.85385504235183
30
0
41
1
10
71.4114380511125
20
3.90811300865661
30
0
41
1
10
71.5193520722328
20
3.96206595079474
30
0
41
1
10
71.8397597340759
20
4.12091299503763
30
0
41
1
10
72.0523386919037
20
4.22449275890875
30
0
41
1
10
72.6903084587144
20
4.53014564025241
30
0
41
1
10
73.115471938151
20
4.72781815035916
30
0
41
1
10
73.9655061654242
20
5.11081585824206
30
0
41
1
10
74.3910589561539
20
5.29518312771452
30
0
41
1
10
75.030988014297
20
5.56001498782643
30
0
41
1
10
75.2445118106609
20
5.64632289401209
30
0
41
1
10
75.6703830499498
20
5.81537883476483
30
0
41
1
10
75.8827222985258
20
5.8983247892188
30
0
41
1
10
76.5206632398192
20
6.13920552233236
30
0
41
1
10
76.9463601100213
20
6.29028712898457
30
0
41
1
10
77.7962287915983
20
6.57605675222493
30
0
41
1
10
78.2208482489924
20
6.71017606668445
30
0
41
1
10
79.0721226130167
20
6.95834528513279
30
0
41
1
10
79.4994116334688
20
7.07250786598289
30
0
41
1
10
80.3504259485677
20
7.28262829168477
30
0
41
1
10
80.776160986629
20
7.37658511780509
30
0
41
1
10
81.6270409931687
20
7.54357756794604
30
0
41
1
10
82.0514725147775
20
7.61693525964142
30
0
41
1
10
82.9013690553341
20
7.74160282121622
30
0
41
1
10
83.3270446124918
20
7.79291475909801
30
0
41
1
10
83.966137338593
20
7.8535589985072
30
0
41
1
10
84.1790308474526
20
7.87115018550529
30
0
41
1
10
84.6048093485391
20
7.90059558704854
30
0
41
1
10
84.8174869383462
20
7.91244154705782
30
0
41
1
10
85.4548295095132
20
7.93956464437409
30
0
41
1
10
85.8783870865914
20
7.9465001674709
30
0
41
1
10
86.7227540197006
20
7.93821284358333
30
0
41
1
10
87.1442189343052
20
7.92297944488232
30
0
41
1
10
87.7761926285915
20
7.88394621759636
30
0
41
1
10
87.9867888768797
20
7.86824226417932
30
0
41
1
10
88.4074089188153
20
7.83131862897517
30
0
41
1
10
88.6171514790918
20
7.80999009407782
30
0
41
1
10
89.2475614246481
20
7.73828997689492
30
0
41
1
10
89.6686350934805
20
7.68010793588235
30
0
41
1
10
90.5100677132727
20
7.54198940981891
30
0
41
1
10
90.9307571861558
20
7.46208925891403
30
0
41
1
10
91.563785775248
20
7.32709965738616
30
0
41
1
10
91.7751093270699
20
7.27958359963452
30
0
41
1
10
92.1982334573056
20
7.17939398710112
30
0
41
1
10
92.4101401004667
20
7.12681438206906
30
0
41
1
10
92.8335393793374
20
7.01565182356157
30
0
41
1
10
93.0455811560317
20
6.95750773136015
30
0
41
1
10
93.4708505187918
20
6.83655024957542
30
0
41
1
10
93.6842883145651
20
6.77360973176664
30
0
41
1
10
94.3235045133308
20
6.57797214078948
30
0
41
1
10
94.7474363016586
20
6.43787102441672
30
0
41
1
10
95.5934631160384
20
6.14119163695077
30
0
41
1
10
96.0158692310189
20
5.98501514763978
30
0
41
1
10
96.8591106853145
20
5.6568743587267
30
0
41
1
10
97.2788943504872
20
5.48352545425686
30
0
41
1
10
98.1200251399804
20
5.12500446753236
30
0
41
1
10
98.5406011373717
20
4.93891377514984
30
0
41
1
10
99.3808504452886
20
4.55169563852846
30
0
41
1
10
99.8012012686028
20
4.35149277218935
30
0
41
1
10
100.433280064058
20
4.04314785564995
30
0
41
1
10
100.644168379323
20
3.93893503687923
30
0
41
1
10
101.06614446986
20
3.72732281804704
30
0
41
1
10
101.276820691351
20
3.6192556522773
30
0
41
1
10
101.910444935213
20
3.29225041467416
30
0
41
1
10
102.334829694267
20
3.07035975520179
30
0
41
1
10
103.18535645203
20
2.61497355848263
30
0
41
1
10
103.611586604048
20
2.38152112636297
30
0
41
1
10
104.462432957521
20
1.91177211606481
30
0
41
1
10
104.888137128797
20
1.67551628139182
30
0
41
1
10
105.524865148607
20
1.31520710156752
30
0
41
1
10
105.7368115462
20
1.19412377565339
30
0
41
1
10
106.161515487041
20
0.952426864313082
30
0
41
1
10
106.374081403068
20
0.831484212675548
30
0
41
1
10
107.012158890388
20
0.467927264660602
30
0
41
1
10
107.437333561594
20
0.223322449716221
30
0
41
1
10
108.289418036917
20
-0.266629021837048
30
0
41
1
10
108.714330080154
20
-0.509809212449142
30
0
41
1
10
109.349907340752
20
-0.872054868283612
30
0
41
1
10
109.56136944133
20
-0.992572087018289
30
0
41
1
10
109.983144468958
20
-1.23376279413728
30
0
41
1
10
110.194000185075
20
-1.35346105652619
30
0
41
1
10
110.826408223067
20
-1.71003765360021
30
0
41
1
10
111.247687556311
20
-1.94461608305684
30
0
41
1
10
112.088239743337
20
-2.40985590532597
30
0
41
1
10
112.508174009028
20
-2.63935604250281
30
0
41
1
10
113.138982502792
20
-2.97659729431535
30
0
41
1
10
113.349343878898
20
-3.08794486089087
30
0
41
1
10
113.770057890758
20
-3.30881905288086
30
0
41
1
10
113.980070396324
20
-3.41889383108594
30
0
41
1
10
114.610874071902
20
-3.74507540443548
30
0
41
1
10
115.032921359054
20
-3.95640016362256
30
0
41
1
10
115.87804863343
20
-4.36992841825912
30
0
41
1
10
116.30096995798
20
-4.57232969197224
30
0
41
1
10
117.150639300096
20
-4.96352883460401
30
0
41
1
10
117.577937388808
20
-5.15234827516676
30
0
41
1
10
118.215953387674
20
-5.42476715005833
30
0
41
1
10
118.427971596439
20
-5.51428411878044
30
0
41
1
10
118.852676993862
20
-5.68821258851952
30
0
41
1
10
119.065122248432
20
-5.77294666149487
30
0
41
1
10
119.702588991843
20
-6.02071501861198
30
0
41
1
10
120.12702434955
20
-6.17814495222208
30
0
41
1
10
120.976307223943
20
-6.47559997788295
30
0
41
1
10
121.401687131719
20
-6.61508280835403
30
0
41
1
10
122.041063683953
20
-6.81028301567974
30
0
41
1
10
122.254301722125
20
-6.87295385642105
30
0
41
1
10
122.679198555844
20
-6.99412376596177
30
0
41
1
10
122.891613530624
20
-7.05208320863252
30
0
41
1
10
123.529126322378
20
-7.21791590193936
30
0
41
1
10
123.954289793743
20
-7.31797620013072
30
0
41
1
10
124.803151280785
20
-7.49834103472435
30
0
41
1
10
125.22750235736
20
-7.5781273622072
30
0
41
1
10
125.865546731788
20
-7.68136371641401
30
0
41
1
10
126.078424402374
20
-7.71307534363103
30
0
41
1
10
126.504373265275
20
-7.77116573016349
30
0
41
1
10
126.717238957696
20
-7.79765926264724
30
0
41
1
10
127.355045957661
20
-7.86862549687748
30
0
41
1
10
127.780563955546
20
-7.90446711462542
30
0
41
1
10
128.630288748852
20
-7.95414338768381
30
0
41
1
10
129.054231288482
20
-7.96788492833792
30
0
41
1
10
129.524735457136
20
-7.97060096649787
30
0
41
1
10
129.570604297429
20
-7.97073547007454
30
0
41
1
10
129.616481755332
20
-7.97073962160377
30
0
0
SPLINE
5
CF
100
AcDbEntity
8
1
62
256
6
ByLayer
370
18
48
1
60
0
100
AcDbSpline
70
4
71
3
72
42
73
38
40
0
40
0
40
0
40
0
40
0.0131111882813779
40
0.0131111882813779
40
0.0836032462612816
40
0.0836032462612816
40
0.118849275251233
40
0.118849275251233
40
0.154095304241184
40
0.154095304241184
40
0.224587362221088
40
0.224587362221088
40
0.295079420200992
40
0.295079420200992
40
0.330325449190942
40
0.330325449190942
40
0.365571478180891
40
0.365571478180891
40
0.436063536160792
40
0.436063536160792
40
0.506555594140693
40
0.506555594140693
40
0.577047652120594
40
0.577047652120594
40
0.647539710100494
40
0.647539710100494
40
0.718031768080394
40
0.718031768080394
40
0.788523826060295
40
0.788523826060295
40
0.823769855050247
40
0.823769855050247
40
0.859015884040199
40
0.859015884040199
40
0.929507942020099
40
0.929507942020099
40
1
40
1
40
1
40
1
41
1
10
158.471044002657
20
3.9092061473556
30
0
41
1
10
158.549141287836
20
3.94850976355005
30
0
41
1
10
158.627217495623
20
3.98764222428417
30
0
41
1
10
159.124935981497
20
4.2360748485049
30
0
41
1
10
159.544641738734
20
4.43958308786975
30
0
41
1
10
160.175058421051
20
4.73481743175435
30
0
41
1
10
160.385321343661
20
4.83158990457255
30
0
41
1
10
160.805615509952
20
5.02250863150596
30
0
41
1
10
161.015395683043
20
5.1169889836867
30
0
41
1
10
161.646475745113
20
5.39354719426018
30
0
41
1
10
162.068722162448
20
5.56991573048114
30
0
41
1
10
162.91399448708
20
5.90950127867748
30
0
41
1
10
163.337377840292
20
6.07219027481537
30
0
41
1
10
163.975607229432
20
6.30294259694139
30
0
41
1
10
164.188619018727
20
6.37758960673617
30
0
41
1
10
164.613407704773
20
6.52200858375826
30
0
41
1
10
164.825506514664
20
6.59178212398587
30
0
41
1
10
165.459350344864
20
6.79535580328232
30
0
41
1
10
165.881373720314
20
6.92061498436624
30
0
41
1
10
166.724215628413
20
7.15106865344234
30
0
41
1
10
167.144173327106
20
7.25692078157184
30
0
41
1
10
167.983796507955
20
7.44779733781647
30
0
41
1
10
168.403757836269
20
7.53269342492848
30
0
41
1
10
169.243590641756
20
7.68186650706014
30
0
41
1
10
169.662412548457
20
7.74657164743809
30
0
41
1
10
170.503096642031
20
7.85362950484895
30
0
41
1
10
170.924203235492
20
7.89643607947781
30
0
41
1
10
171.767009612036
20
7.96051651699838
30
0
41
1
10
172.189390141803
20
7.98156171225091
30
0
41
1
10
172.825660269034
20
7.99635742750399
30
0
41
1
10
173.038136628332
20
7.99850817369688
30
0
41
1
10
173.46367813255
20
7.99717958316566
30
0
41
1
10
173.676025238195
20
7.99366427384228
30
0
41
1
10
174.312798113937
20
7.97467709608736
30
0
41
1
10
174.737409629857
20
7.95091936742449
30
0
41
1
10
175.584538622371
20
7.88116266285161
30
0
41
1
10
176.007159105758
20
7.83505042764648
30
0
41
1
10
176.430339391723
20
7.77823416827999
30
0
0
SPLINE
5
D0
100
AcDbEntity
8
1
62
256
6
ByLayer
370
18
48
1
60
0
100
AcDbSpline
70
4
71
3
72
18
73
14
40
0
40
0
40
0
40
0
40
0.0208261446458543
40
0.0208261446458543
40
0.0893378368380113
40
0.0893378368380113
40
0.363384605606633
40
0.363384605606633
40
0.911478143143871
40
0.911478143143871
40
0.979989835336019
40
0.979989835336019
40
1
40
1
40
1
40
1
41
1
10
132.131273767835
20
-7.57199258055346
30
0
41
1
10
132.063662929166
20
-7.57213936693452
30
0
41
1
10
131.996071482926
20
-7.57201634352143
30
0
41
1
10
131.706352238027
20
-7.57032928495167
30
0
41
1
10
131.484568631648
20
-7.56612074603996
30
0
41
1
10
130.377320265763
20
-7.53061291470769
30
0
41
1
10
129.496798894602
20
-7.45609390504708
30
0
41
1
10
126.860498584927
20
-7.10054074609499
30
0
41
1
10
125.109620555171
20
-6.68742735187945
30
0
41
1
10
123.11526552914
20
-6.04551782297068
30
0
41
1
10
122.893315947456
20
-5.97173660329958
30
0
41
1
10
122.606007401101
20
-5.87330669190467
30
0
41
1
10
122.541033477561
20
-5.85085416439188
30
0
41
1
10
122.476055846921
20
-5.82820960536753
30
0
0
SPLINE
5
D1
100
AcDbEntity
8
1
62
256
6
ByLayer
370
13
48
1
60
0
100
AcDbSpline
70
4
71
3
72
20
73
16
40
0
40
0
40
0
40
0
40
0.0292389214302748
40
0.0292389214302748
40
0.11184283458461
40
0.11184283458461
40
0.277050660893279
40
0.277050660893279
40
0.607466313510617
40
0.607466313510617
40
0.772674139819288
40
0.772674139819288
40
0.937881966127959
40
0.937881966127959
40
1
40
1
40
1
40
1
41
1
10
122.476055847196
20
-5.82820960546343
30
0
41
1
10
122.318560174575
20
-5.77332271562824
30
0
41
1
10
122.161042722664
20
-5.71730763640761
30
0
41
1
10
121.559783177439
20
-5.49930635758568
30
0
41
1
10
121.117245897777
20
-5.33012542231629
30
0
41
1
10
119.792725826973
20
-4.8004295653283
30
0
41
1
10
118.913957730214
20
-4.41765960231569
30
0
41
1
10
116.279156910163
20
-3.19814716051505
30
0
41
1
10
114.525214054667
20
-2.2894243381441
30
0
41
1
10
111.853906712793
20
-0.855269660857942
30
0
41
1
10
110.969640892106
20
-0.372385844786749
30
0
41
1
10
109.207820047084
20
0.588133284005295
30
0
41
1
10
108.330035768705
20
1.0660905333645
30
0
41
1
10
107.121307200528
20
1.71096725311767
30
0
41
1
10
106.790962510162
20
1.88594431655736
30
0
41
1
10
106.460356177038
20
2.05929817811383
30
0
0
SPLINE
5
D2
100
AcDbEntity
8
1
62
256
6
ByLayer
370
18
48
1
60
0
100
AcDbSpline
70
4
71
3
72
18
73
14
40
0
40
0
40
0
40
0
40
0.152113966899863
40
0.152113966899863
40
0.487908855568726
40
0.487908855568726
40
0.571857577735941
40
0.571857577735941
40
0.655806299903156
40
0.655806299903156
40
0.823703744237578
40
0.823703744237578
40
1
40
1
40
1
40
1
41
1
10
45.0408554814275
20
-7.51763931047822
30
0
41
1
10
44.6425157155593
20
-7.51862034918767
30
0
41
1
10
44.2441544726308
20
-7.5102977414177
30
0
41
1
10
42.9652779958526
20
-7.45373855658411
30
0
41
1
10
42.0831865365384
20
-7.36936199893978
30
0
41
1
10
40.974111659673
20
-7.20723580453711
30
0
41
1
10
40.7519517803717
20
-7.17197929201944
30
0
41
1
10
40.3068136367184
20
-7.09583561232688
30
0
41
1
10
40.0836573941531
20
-7.05491006187529
30
0
41
1
10
39.4160494480331
20
-6.92437211061969
30
0
41
1
10
38.9725920307936
20
-6.82682158129262
30
0
41
1
10
38.065735684944
20
-6.60627273616288
30
0
41
1
10
37.6024240693072
20
-6.48230141569744
30
0
41
1
10
37.1397825611028
20
-6.3479416679051
30
0
0
SPLINE
5
D3
100
AcDbEntity
8
1
62
256
6
ByLayer
370
13
48
1
60
0
100
AcDbSpline
70
4
71
3
72
26
73
22
40
0
40
0
40
0
40
0
40
0.218161672276142
40
0.218161672276142
40
0.366069030297231
40
0.366069030297231
40
0.403045869802504
40
0.403045869802504
40
0.440022709307777
40
0.440022709307777
40
0.513976388318321
40
0.513976388318321
40
0.66188374633941
40
0.66188374633941
40
0.809791104360498
40
0.809791104360498
40
0.883744783371043
40
0.883744783371043
40
0.957698462381588
40
0.957698462381588
40
1
40
1
40
1
40
1
41
1
10
37.1397835315725
20
-6.34794194974771
30
0
41
1
10
35.8400202533982
20
-5.97046642299097
30
0
41
1
10
34.545546102283
20
-5.51099555875007
30
0
41
1
10
32.3633268043104
20
-4.62541155654617
30
0
41
1
10
31.4787495142581
20
-4.23637684693065
30
0
41
1
10
30.3649546476239
20
-3.71661153967943
30
0
41
1
10
30.1418916306973
20
-3.61104252563433
30
0
41
1
10
29.6970738183775
20
-3.39782086600852
30
0
41
1
10
29.4750442074965
20
-3.29004287072456
30
0
41
1
10
28.809914951646
20
-2.96353279710803
30
0
41
1
10
28.3677728657677
20
-2.74162984686356
30
0
41
1
10
27.0437630381097
20
-2.06583329117407
30
0
41
1
10
26.1643139928155
20
-1.60185556223084
30
0
41
1
10
24.4047866217655
20
-0.660105133623972
30
0
41
1
10
23.5249568156555
20
-0.181923129565149
30
0
41
1
10
22.1992296244139
20
0.535378549919557
30
0
41
1
10
21.7563128491686
20
0.774463153524579
30
0
41
1
10
20.8675446981095
20
1.2508791393465
30
0
41
1
10
20.4209408466252
20
1.48857244418801
30
0
41
1
10
19.7206653639908
20
1.85706234904794
30
0
41
1
10
19.4660873552096
20
1.99020528171224
30
0
41
1
10
19.2116420633465
20
2.12223665582121
30
0
0
SPLINE
5
D4
100
AcDbEntity
8
1
62
256
6
ByLayer
370
18
48
1
60
0
100
AcDbSpline
70
4
71
3
72
32
73
28
40
0
40
0
40
0
40
0
40
0.0879820051310733
40
0.0879820051310733
40
0.13197300769661
40
0.13197300769661
40
0.175964010262147
40
0.175964010262147
40
0.26394601539322
40
0.26394601539322
40
0.351928020524293
40
0.351928020524293
40
0.439910025655367
40
0.439910025655367
40
0.52789203078644
40
0.52789203078644
40
0.615874035917513
40
0.615874035917513
40
0.703856041048586
40
0.703856041048586
40
0.747847043614123
40
0.747847043614123
40
0.79183804617966
40
0.79183804617966
40
0.87982005131073
40
0.87982005131073
40
1
40
1
40
1
40
1
41
1
10
13.7679997305851
20
-7.49545918301899
30
0
41
1
10
14.1817669801935
20
-7.49105025065376
30
0
41
1
10
14.5941071639261
20
-7.47704135538586
30
0
41
1
10
15.2099285840412
20
-7.44078431993267
30
0
41
1
10
15.4147964286788
20
-7.42616020096244
30
0
41
1
10
15.8240680925992
20
-7.3920032038308
30
0
41
1
10
16.0287534687617
20
-7.37256252147202
30
0
41
1
10
16.6425736560681
20
-7.30731981013665
30
0
41
1
10
17.0507707886958
20
-7.25432694358975
30
0
41
1
10
17.8662564578516
20
-7.12965056473598
30
0
41
1
10
18.2737338762292
20
-7.05797680973922
30
0
41
1
10
19.0889236273675
20
-6.897855564992
30
0
41
1
10
19.4963283430816
20
-6.8097552177725
30
0
41
1
10
20.3112767829992
20
-6.61151080319525
30
0
41
1
10
20.7201681723107
20
-6.50385163063035
30
0
41
1
10
21.5381711954163
20
-6.27115286963576
30
0
41
1
10
21.9476401381232
20
-6.14610933924897
30
0
41
1
10
22.7690567294019
20
-5.88042151186031
30
0
41
1
10
23.1810715118087
20
-5.73991808689777
30
0
41
1
10
23.8005827103415
20
-5.51711129289157
30
0
41
1
10
24.0068155470473
20
-5.44101101846189
30
0
41
1
10
24.418811298215
20
-5.28524630927282
30
0
41
1
10
24.6250428520079
20
-5.20622510898454
30
0
41
1
10
25.243299989141
20
-4.96336565643347
30
0
41
1
10
25.6547477623221
20
-4.79343896434565
30
0
41
1
10
26.6282430330695
20
-4.37745025399568
30
0
41
1
10
27.1908050031927
20
-4.12638261647891
30
0
41
1
10
27.7539041483064
20
-3.86488818786972
30
0
0
SPLINE
5
D5
100
AcDbEntity
8
1
62
256
6
ByLayer
370
18
48
1
60
0
100
AcDbSpline
70
4
71
3
72
126
73
122
40
0
40
0
40
0
40
0
40
0.0183344562275551
40
0.0183344562275551
40
0.0289691309282837
40
0.0289691309282837
40
0.0396038056290123
40
0.0396038056290123
40
0.0608731550304694
40
0.0608731550304694
40
0.0821425044319266
40
0.0821425044319266
40
0.0927771791326551
40
0.0927771791326551
40
0.103411853833384
40
0.103411853833384
40
0.145950552636298
40
0.145950552636298
40
0.167219902037756
40
0.167219902037756
40
0.188489251439213
40
0.188489251439213
40
0.20975860084067
40
0.20975860084067
40
0.231027950242128
40
0.231027950242128
40
0.241662624942856
40
0.241662624942856
40
0.252297299643585
40
0.252297299643585
40
0.273566649045042
40
0.273566649045042
40
0.294835998446499
40
0.294835998446499
40
0.316105347847957
40
0.316105347847957
40
0.337374697249414
40
0.337374697249414
40
0.358644046650871
40
0.358644046650871
40
0.379913396052329
40
0.379913396052329
40
0.390548070753057
40
0.390548070753057
40
0.401182745453786
40
0.401182745453786
40
0.422452094855245
40
0.422452094855245
40
0.443721444256703
40
0.443721444256703
40
0.464990793658162
40
0.464990793658162
40
0.475625468358891
40
0.475625468358891
40
0.48626014305962
40
0.48626014305962
40
0.507529492461079
40
0.507529492461079
40
0.528798841862537
40
0.528798841862537
40
0.539433516563267
40
0.539433516563267
40
0.550068191263997
40
0.550068191263997
40
0.571337540665456
40
0.571337540665456
40
0.592606890066916
40
0.592606890066916
40
0.603241564767646
40
0.603241564767646
40
0.613876239468375
40
0.613876239468375
40
0.624510914169105
40
0.624510914169105
40
0.635145588869835
40
0.635145588869835
40
0.656414938271295
40
0.656414938271295
40
0.677684287672754
40
0.677684287672754
40
0.688318962373484
40
0.688318962373484
40
0.698953637074215
40
0.698953637074215
40
0.720222986475676
40
0.720222986475676
40
0.741492335877136
40
0.741492335877136
40
0.752127010577866
40
0.752127010577866
40
0.762761685278597
40
0.762761685278597
40
0.784031034680059
40
0.784031034680059
40
0.80530038408152
40
0.80530038408152
40
0.826569733482982
40
0.826569733482982
40
0.837204408183712
40
0.837204408183712
40
0.847839082884442
40
0.847839082884442
40
0.869108432285903
40
0.869108432285903
40
0.890377781687364
40
0.890377781687364
40
0.901012456388094
40
0.901012456388094
40
0.911647131088824
40
0.911647131088824
40
0.932916480490285
40
0.932916480490285
40
0.954185829891746
40
0.954185829891746
40
0.975455179293207
40
0.975455179293207
40
0.986089853993937
40
0.986089853993937
40
0.996724528694668
40
0.996724528694668
40
1
40
1
40
1
40
1
41
1
10
57.0014112806764
20
7.524416653732
30
0
41
1
10
57.3558937406694
20
7.52479023702173
30
0
41
1
10
57.7114353443397
20
7.51807908205461
30
0
41
1
10
58.2731199160514
20
7.4955654756252
30
0
41
1
10
58.4790407113551
20
7.48471377117494
30
0
41
1
10
58.8914552604782
20
7.457959420577
30
0
41
1
10
59.0974996377995
20
7.44200900255291
30
0
41
1
10
59.7151922251859
20
7.38685285743912
30
0
41
1
10
60.126324631754
20
7.34056521629586
30
0
41
1
10
60.9490834032138
20
7.2294322708089
30
0
41
1
10
61.36076141574
20
7.1641944697858
30
0
41
1
10
61.978649204459
20
7.05170810535131
30
0
41
1
10
62.1846376340399
20
7.01181003717812
30
0
41
1
10
62.5967132234592
20
6.92743333316164
30
0
41
1
10
62.8031122223555
20
6.88303736284482
30
0
41
1
10
63.834470140476
20
6.65073007943579
30
0
41
1
10
64.6525827045255
20
6.42663785396013
30
0
41
1
10
65.8773958015157
20
6.04816628492182
30
0
41
1
10
66.2849767936858
20
5.91350848065517
30
0
41
1
10
67.0987105951305
20
5.6283167702004
30
0
41
1
10
67.5061490301243
20
5.47954047378141
30
0
41
1
10
68.3201157571143
20
5.16821449178192
30
0
41
1
10
68.7268824998681
20
5.0046955432322
30
0
41
1
10
69.5417990331965
20
4.66484156255294
30
0
41
1
10
69.9499536231959
20
4.48893709530608
30
0
41
1
10
70.5627915119802
20
4.21617097736694
30
0
41
1
10
70.767151970643
20
4.12373496596993
30
0
41
1
10
71.1762389420398
20
3.93545680207958
30
0
41
1
10
71.381242902502
20
3.84003243171583
30
0
41
1
10
71.9975473429679
20
3.55028126831431
30
0
41
1
10
72.4098281885273
20
3.35081683166499
30
0
41
1
10
73.2344622071685
20
2.94344499489856
30
0
41
1
10
73.6461761782067
20
2.73621745983431
30
0
41
1
10
74.4693550986371
20
2.31526813249616
30
0
41
1
10
74.8805861721703
20
2.10138972746779
30
0
41
1
10
75.7022687421284
20
1.66722011492644
30
0
41
1
10
76.1141747527417
20
1.44969065194954
30
0
41
1
10
76.9376989564909
20
1.00803311625674
30
0
41
1
10
77.3501847597304
20
0.78464025456779
30
0
41
1
10
78.1749023905595
20
0.337501825144614
30
0
41
1
10
78.5869054034537
20
0.113952689768382
30
0
41
1
10
79.2039338194926
20
-0.221908179400089
30
0
41
1
10
79.4094550404074
20
-0.333932221629453
30
0
41
1
10
79.8203332628497
20
-0.557899858421678
30
0
41
1
10
80.0262241282227
20
-0.668859216324108
30
0
41
1
10
80.6435515448856
20
-1.00182628525172
30
0
41
1
10
81.0547623671242
20
-1.22373326320095
30
0
41
1
10
81.8781732068178
20
-1.66415026097212
30
0
41
1
10
82.2912851977513
20
-1.88260141698552
30
0
41
1
10
83.1151823828133
20
-2.31233559030386
30
0
41
1
10
83.5255484288572
20
-2.52457368531131
30
0
41
1
10
84.1394066334599
20
-2.83747360425809
30
0
41
1
10
84.3442526163817
20
-2.93980901426136
30
0
41
1
10
84.7531315425124
20
-3.14281860596535
30
0
41
1
10
84.9573196767641
20
-3.24327718341797
30
0
41
1
10
85.5692063232736
20
-3.54175038705782
30
0
41
1
10
85.9764283742762
20
-3.73656934939828
30
0
41
1
10
86.7906955703875
20
-4.11560761329943
30
0
41
1
10
87.1978635312656
20
-4.29914903361947
30
0
41
1
10
87.8081856158276
20
-4.56677497349381
30
0
41
1
10
88.0114974546316
20
-4.65482042608875
30
0
41
1
10
88.418414708858
20
-4.82776066239038
30
0
41
1
10
88.6224039367675
20
-4.9121811183395
30
0
41
1
10
89.2340031622057
20
-5.16199643921851
30
0
41
1
10
89.6419077304818
20
-5.32206632215602
30
0
41
1
10
90.4596430222775
20
-5.62804784967994
30
0
41
1
10
90.8694612895544
20
-5.77416976420514
30
0
41
1
10
91.4858077514999
20
-5.98350537912754
30
0
41
1
10
91.6915220724594
20
-6.05141495302243
30
0
41
1
10
92.1035505231182
20
-6.18321134451173
30
0
41
1
10
92.3097422442615
20
-6.24730911438752
30
0
41
1
10
92.7218344836531
20
-6.37058090663285
30
0
41
1
10
92.9281457464025
20
-6.42956363193431
30
0
41
1
10
93.3401000344058
20
-6.54381174554248
30
0
41
1
10
93.5459044303927
20
-6.59902779408841
30
0
41
1
10
94.1628738299981
20
-6.75881062559341
30
0
41
1
10
94.5738662251448
20
-6.85626024314794
30
0
41
1
10
95.3965203619935
20
-7.03176842168526
30
0
41
1
10
95.8082537351302
20
-7.10999681076228
30
0
41
1
10
96.4258094137817
20
-7.21458782747891
30
0
41
1
10
96.631500565295
20
-7.24734193526345
30
0
41
1
10
97.0440641383125
20
-7.30733018455499
30
0
41
1
10
97.2506383300588
20
-7.3346871790832
30
0
41
1
10
97.8683293741921
20
-7.40944972481108
30
0
41
1
10
98.2784261726704
20
-7.44953136746835
30
0
41
1
10
99.0970715636947
20
-7.51072354520178
30
0
41
1
10
99.5055947108588
20
-7.53163537442597
30
0
41
1
10
100.117473360388
20
-7.54738710149798
30
0
41
1
10
100.321219375855
20
-7.55013988884028
30
0
41
1
10
100.728337536866
20
-7.5508604844826
30
0
41
1
10
100.931527582645
20
-7.54882779231014
30
0
41
1
10
101.54231269546
20
-7.53577516210473
30
0
41
1
10
101.949402307515
20
-7.51783961981326
30
0
41
1
10
102.762988642304
20
-7.46105759062087
30
0
41
1
10
103.169937327673
20
-7.42260433933333
30
0
41
1
10
103.985038419854
20
-7.32750960601425
30
0
41
1
10
104.393203093618
20
-7.2709154607532
30
0
41
1
10
105.006100482965
20
-7.17055746068701
30
0
41
1
10
105.210372553513
20
-7.13442789954249
30
0
41
1
10
105.620397158583
20
-7.05803023323844
30
0
41
1
10
105.82574075211
20
-7.01751811340529
30
0
41
1
10
106.442283671635
20
-6.88900301324995
30
0
41
1
10
106.854806251838
20
-6.79382478698378
30
0
41
1
10
107.678925149333
20
-6.58558162113957
30
0
41
1
10
108.090565427299
20
-6.47249835950592
30
0
41
1
10
108.707568336208
20
-6.29053885325033
30
0
41
1
10
108.913099494042
20
-6.22777150363132
30
0
41
1
10
109.323945760545
20
-6.09817457184786
30
0
41
1
10
109.529148207763
20
-6.03125926822969
30
0
41
1
10
110.146306947449
20
-5.82615073262247
30
0
41
1
10
110.557737578953
20
-5.68072181523578
30
0
41
1
10
111.381099809408
20
-5.37423229808127
30
0
41
1
10
111.794008731811
20
-5.21351048513378
30
0
41
1
10
112.617032630004
20
-4.88023572065941
30
0
41
1
10
113.027288096678
20
-4.70734048086294
30
0
41
1
10
113.640587387011
20
-4.43872231572109
30
0
41
1
10
113.844710936528
20
-4.34770784130939
30
0
41
1
10
114.253352689745
20
-4.16446610802495
30
0
41
1
10
114.457444828452
20
-4.07155581669122
30
0
41
1
10
114.72410715788
20
-3.94817567123246
30
0
41
1
10
114.786876899907
20
-3.91898649197171
30
0
41
1
10
114.849627888224
20
-3.88966774915875
30
0
0
SPLINE
5
D6
100
AcDbEntity
8
1
62
256
6
ByLayer
370
18
48
1
60
0
100
AcDbSpline
70
4
71
3
72
66
73
62
40
0
40
0
40
0
40
0
40
0.0020864322085632
40
0.0020864322085632
40
0.0474461398354449
40
0.0474461398354449
40
0.0928058474623267
40
0.0928058474623267
40
0.138165555089208
40
0.138165555089208
40
0.16084540890265
40
0.16084540890265
40
0.18352526271609
40
0.18352526271609
40
0.228884970342972
40
0.228884970342972
40
0.274244677969854
40
0.274244677969854
40
0.296924531783295
40
0.296924531783295
40
0.319604385596735
40
0.319604385596735
40
0.364964093223619
40
0.364964093223619
40
0.410323800850503
40
0.410323800850503
40
0.433003654663944
40
0.433003654663944
40
0.455683508477385
40
0.455683508477385
40
0.478363362290826
40
0.478363362290826
40
0.501043216104266
40
0.501043216104266
40
0.54640292373115
40
0.54640292373115
40
0.591762631358034
40
0.591762631358034
40
0.614442485171476
40
0.614442485171476
40
0.637122338984918
40
0.637122338984918
40
0.682482046611802
40
0.682482046611802
40
0.727841754238686
40
0.727841754238686
40
0.750521608052128
40
0.750521608052128
40
0.77320146186557
40
0.77320146186557
40
0.818561169492456
40
0.818561169492456
40
0.863920877119342
40
0.863920877119342
40
0.909280584746229
40
0.909280584746229
40
0.931960438559672
40
0.931960438559672
40
0.954640292373116
40
0.954640292373116
40
1
40
1
40
1
40
1
41
1
10
144.106591674616
20
7.57811015610571
30
0
41
1
10
144.125518998427
20
7.57810433668195
30
0
41
1
10
144.144445573759
20
7.57807731599166
30
0
41
1
10
144.574813087045
20
7.576983617319
30
0
41
1
10
144.986087675693
20
7.56619995615696
30
0
41
1
10
145.809835421865
20
7.52580767464875
30
0
41
1
10
146.222533137938
20
7.49534271506334
30
0
41
1
10
147.04410426219
20
7.41403874338423
30
0
41
1
10
147.453205626679
20
7.36336955807332
30
0
41
1
10
148.065852615556
20
7.27457664867964
30
0
41
1
10
148.27028069617
20
7.24288821771844
30
0
41
1
10
148.678340981705
20
7.17442000641969
30
0
41
1
10
148.88213696933
20
7.13771988281073
30
0
41
1
10
149.492932320769
20
7.02030018522939
30
0
41
1
10
149.899589544607
20
6.93242614843174
30
0
41
1
10
150.712919925978
20
6.74130208919985
30
0
41
1
10
151.11967658339
20
6.63736527320779
30
0
41
1
10
151.729565272347
20
6.46711886082841
30
0
41
1
10
151.932722871087
20
6.4079274203049
30
0
41
1
10
152.339676702884
20
6.2857585424766
30
0
41
1
10
152.543655998672
20
6.22302857783126
30
0
41
1
10
153.155270706596
20
6.02875229921429
30
0
41
1
10
153.56312102159
20
5.89105559202116
30
0
41
1
10
154.381165056669
20
5.59891608688449
30
0
41
1
10
154.791403257596
20
5.44458853159088
30
0
41
1
10
155.408628945787
20
5.20285888030711
30
0
41
1
10
155.614765267113
20
5.12049608271369
30
0
41
1
10
156.026593390301
20
4.95214412594186
30
0
41
1
10
156.232065294357
20
4.86590404904331
30
0
41
1
10
156.643476180533
20
4.69121647757737
30
0
41
1
10
156.849333930887
20
4.60266869394113
30
0
41
1
10
157.2605251501
20
4.42205764235999
30
0
41
1
10
157.4659770884
20
4.33014876287183
30
0
41
1
10
158.082030044483
20
4.05017003904806
30
0
41
1
10
158.492531883275
20
3.85837290420085
30
0
41
1
10
159.314456703916
20
3.46464703805691
30
0
41
1
10
159.725925110977
20
3.26310045259197
30
0
41
1
10
160.343288085216
20
2.95325781275298
30
0
41
1
10
160.549063215965
20
2.84836875362447
30
0
41
1
10
160.96113791167
20
2.63864671829853
30
0
41
1
10
161.167125898923
20
2.53316312884067
30
0
41
1
10
161.784338825661
20
2.21377682519463
30
0
41
1
10
162.194941212982
20
1.99715034203723
30
0
41
1
10
163.016337348231
20
1.55984759305594
30
0
41
1
10
163.427110767565
20
1.33925054044761
30
0
41
1
10
164.043633367424
20
1.00568825684007
30
0
41
1
10
164.249146618801
20
0.893941017504631
30
0
41
1
10
164.660245293474
20
0.669478881297465
30
0
41
1
10
164.865692824973
20
0.556506181381081
30
0
41
1
10
165.484010511454
20
0.219666666675778
30
0
41
1
10
165.895950521551
20
-0.0056550056342246
30
0
41
1
10
166.715797925016
20
-0.454994451757074
30
0
41
1
10
167.124584933179
20
-0.678633970720512
30
0
41
1
10
167.940944610454
20
-1.12217353457825
30
0
41
1
10
168.34848752987
20
-1.34218295352505
30
0
41
1
10
168.958453538488
20
-1.67019996216968
30
0
41
1
10
169.16150579934
20
-1.77927647124991
30
0
41
1
10
169.568408193165
20
-1.99447353501844
30
0
41
1
10
169.771772228981
20
-2.10148326024864
30
0
41
1
10
170.381593226268
20
-2.42082566172792
30
0
41
1
10
170.78767602408
20
-2.63176126962142
30
0
41
1
10
171.194251733007
20
-2.83876905949603
30
0
0
SPLINE
5
D7
100
AcDbEntity
8
1
62
256
6
ByLayer
370
18
48
1
60
0
100
AcDbSpline
70
4
71
3
72
14
73
10
40
0
40
0
40
0
40
0
40
0.25
40
0.25
40
0.5
40
0.5
40
0.75
40
0.75
40
1
40
1
40
1
40
1
41
1
10
175.993490582794
20
1.80705197813711
30
0
41
1
10
175.988751920011
20
1.82690666845417
30
0
41
1
10
175.987627940143
20
1.84779218352168
30
0
41
1
10
175.996839598554
20
1.88722581560893
30
0
41
1
10
176.007697111502
20
1.90576145278806
30
0
41
1
10
176.038362287717
20
1.93335058506116
30
0
41
1
10
176.057345760912
20
1.94241760913036
30
0
41
1
10
176.096554655697
20
1.95331093128056
30
0
41
1
10
176.117133501499
20
1.95533927023138
30
0
41
1
10
176.13757433232
20
1.95507070185337
30
0
0
SPLINE
5
D8
100
AcDbEntity
8
1
62
256
6
ByLayer
370
18
48
1
60
0
100
AcDbSpline
70
4
71
3
72
14
73
10
40
0
40
0
40
0
40
0
40
0.25
40
0.25
40
0.5
40
0.5
40
0.75
40
0.75
40
1
40
1
40
1
40
1
41
1
10
176.270661703275
20
-7.59132546807044
30
0
41
1
10
176.273056197522
20
-7.59066086646664
30
0
41
1
10
176.274769577425
20
-7.59177289317537
30
0
41
1
10
176.276426384327
20
-7.59860030912273
30
0
41
1
10
176.276311083439
20
-7.60443801552626
30
0
41
1
10
176.27339935979
20
-7.62158125693912
30
0
41
1
10
176.270567315926
20
-7.63287318139439
30
0
41
1
10
176.262737047813
20
-7.65808710729038
30
0
41
1
10
176.257784433563
20
-7.67189316947176
30
0
41
1
10
176.252574935231
20
-7.68506014154102
30
0
0
SPLINE
5
D9
100
AcDbEntity
8
1
62
256
6
ByLayer
370
18
48
1
60
0
100
AcDbSpline
70
4
71
3
72
14
73
10
40
0
40
0
40
0
40
0
40
0.259427083282849
40
0.259427083282849
40
0.393152828203234
40
0.393152828203234
40
0.52687857312362
40
0.52687857312362
40
1
40
1
40
1
40
1
41
1
10
176.190620553457
20
-7.59325315687965
30
0
41
1
10
175.328135574179
20
-7.61265125492022
30
0
41
1
10
174.468379256173
20
-7.58758147588082
30
0
41
1
10
173.165662667917
20
-7.48388940259088
30
0
41
1
10
172.722563107016
20
-7.43710703297984
30
0
41
1
10
171.835328808086
20
-7.32081521760003
30
0
41
1
10
171.390624391989
20
-7.25120145300136
30
0
41
1
10
169.374140035549
20
-6.8852947658693
30
0
41
1
10
167.822053246608
20
-6.46526778055889
30
0
41
1
10
166.269648095178
20
-5.93384882185723
30
0
0
SPLINE
5
DA
100
AcDbEntity
8
1
62
256
6
ByLayer
370
13
48
1
60
0
100
AcDbSpline
70
4
71
3
72
24
73
20
40
0
40
0
40
0
40
0
40
0.037409056043233
40
0.037409056043233
40
0.199352343614966
40
0.199352343614966
40
0.280323987400833
40
0.280323987400833
40
0.320809809293766
40
0.320809809293766
40
0.361295631186699
40
0.361295631186699
40
0.685182206330174
40
0.685182206330174
40
0.847125493901913
40
0.847125493901913
40
0.928097137687782
40
0.928097137687782
40
1
40
1
40
1
40
1
41
1
10
166.269648095163
20
-5.93384882185188
30
0
41
1
10
166.06693057829
20
-5.86445461014884
30
0
41
1
10
165.864207632737
20
-5.79316095528122
30
0
41
1
10
164.783629326641
20
-5.40339313534963
30
0
41
1
10
163.904895629326
20
-5.05207761227436
30
0
41
1
10
162.580085434323
20
-4.47958397331846
30
0
41
1
10
162.137375205255
20
-4.28113823936923
30
0
41
1
10
161.470889338695
20
-3.97296888273604
30
0
41
1
10
161.248327428717
20
-3.86849429009615
30
0
41
1
10
160.804522584398
20
-3.65729957905563
30
0
41
1
10
160.582998807629
20
-3.5504492568376
30
0
41
1
10
158.59217453365
20
-2.57845964431226
30
0
41
1
10
156.843068065946
20
-1.64101158501285
30
0
41
1
10
154.20681307045
20
-0.203928536708901
30
0
41
1
10
153.325977894456
20
0.280286610536336
30
0
41
1
10
151.996075471855
20
1.00422329798533
30
0
41
1
10
151.550404130608
20
1.24565052900164
30
0
41
1
10
150.713102076612
20
1.69478004363049
30
0
41
1
10
150.320428032362
20
1.90357118009268
30
0
41
1
10
149.928593333628
20
2.10940259643041
30
0
0
SPLINE
5
DB
100
AcDbEntity
8
1
62
256
6
ByLayer
370
18
48
1
60
0
100
AcDbSpline
70
4
71
3
72
14
73
10
40
0
40
0
40
0
40
0
40
0.268353533150726
40
0.268353533150726
40
0.830939549371424
40
0.830939549371424
40
0.971586053426591
40
0.971586053426591
40
1
40
1
40
1
40
1
41
1
10
88.7557336359573
20
-7.54378235228893
30
0
41
1
10
87.9071370126223
20
-7.55134377254856
30
0
41
1
10
87.0643226357776
20
-7.51650608602222
30
0
41
1
10
84.4619452117807
20
-7.28222327335422
30
0
41
1
10
82.7110720929729
20
-6.94403546882702
30
0
41
1
10
80.5000048129748
20
-6.31838200283573
30
0
41
1
10
80.0567022545312
20
-6.18304906586832
30
0
41
1
10
79.5219110278213
20
-6.00858740739304
30
0
41
1
10
79.4319477045558
20
-5.97885885921232
30
0
41
1
10
79.3419785686731
20
-5.9487555586135
30
0
0
SPLINE
5
DC
100
AcDbEntity
8
1
62
256
6
ByLayer
370
13
48
1
60
0
100
AcDbSpline
70
4
71
3
72
22
73
18
40
0
40
0
40
0
40
0
40
0.0236376352165025
40
0.0236376352165025
40
0.0633013643557069
40
0.0633013643557069
40
0.221956280912516
40
0.221956280912516
40
0.53926611402614
40
0.53926611402614
40
0.618593572304546
40
0.618593572304546
40
0.697921030582952
40
0.697921030582952
40
0.856575947139764
40
0.856575947139764
40
1
40
1
40
1
40
1
41
1
10
79.341977619981
20
-5.94875524118504
30
0
41
1
10
79.2092774685337
20
-5.90435431572203
30
0
41
1
10
79.0765646724109
20
-5.85913812290653
30
0
41
1
10
78.7217741250915
20
-5.73614187882362
30
0
41
1
10
78.4998431695323
20
-5.65698129704555
30
0
41
1
10
77.3918652011905
20
-5.25100777292343
30
0
41
1
10
76.5106730937805
20
-4.89396278708151
30
0
41
1
10
73.8715734125199
20
-3.74346800512788
30
0
41
1
10
72.1183433872337
20
-2.87019076372431
30
0
41
1
10
69.8984076369888
20
-1.70397973563667
30
0
41
1
10
69.4520575086503
20
-1.46649954416176
30
0
41
1
10
68.5637019109808
20
-0.990197995092728
30
0
41
1
10
68.1210002358003
20
-0.750936224617902
30
0
41
1
10
66.795898788306
20
-0.0324888475298053
30
0
41
1
10
65.9164169892692
20
0.447169865056395
30
0
41
1
10
64.2427323683937
20
1.34950571179223
30
0
41
1
10
63.4483335514838
20
1.77299359186787
30
0
41
1
10
62.6516778673774
20
2.18691662450948
30
0
0
SPLINE
5
DD
100
AcDbEntity
8
1
62
256
6
ByLayer
370
18
48
1
60
0
100
AcDbSpline
70
4
71
3
72
46
73
42
40
0
40
0
40
0
40
0
40
0.0625000000000057
40
0.0625000000000057
40
0.125000000000011
40
0.125000000000011
40
0.250000000000016
40
0.250000000000016
40
0.281250000000014
40
0.281250000000014
40
0.312500000000012
40
0.312500000000012
40
0.375000000000014
40
0.375000000000014
40
0.437500000000017
40
0.437500000000017
40
0.468750000000015
40
0.468750000000015
40
0.500000000000014
40
0.500000000000014
40
0.625000000000012
40
0.625000000000012
40
0.65625000000001
40
0.65625000000001
40
0.687500000000008
40
0.687500000000008
40
0.750000000000001
40
0.750000000000001
40
0.812499999999994
40
0.812499999999994
40
0.828124999999992
40
0.828124999999992
40
0.835937499999992
40
0.835937499999992
40
0.843749999999992
40
0.843749999999992
40
0.859374999999992
40
0.859374999999992
40
0.874999999999992
40
0.874999999999992
40
1
40
1
40
1
40
1
41
1
10
171.194251733024
20
-2.83876905950473
30
0
41
1
10
171.365775616202
20
-2.88129842471594
30
0
41
1
10
171.537607317941
20
-2.9184478842684
30
0
41
1
10
171.881980770661
20
-2.98033690221482
30
0
41
1
10
172.053598707588
20
-3.00482209464644
30
0
41
1
10
172.564296230092
20
-3.05712761736521
30
0
41
1
10
172.900289438364
20
-3.064778831985
30
0
41
1
10
173.312913424948
20
-3.02949797493267
30
0
41
1
10
173.395071245333
20
-3.02020807679094
30
0
41
1
10
173.558381706294
20
-2.99550992043146
30
0
41
1
10
173.639553629147
20
-2.98021903018565
30
0
41
1
10
173.881750058473
20
-2.92631576389925
30
0
41
1
10
174.038689623065
20
-2.87992258330536
30
0
41
1
10
174.342313804326
20
-2.76440567191668
30
0
41
1
10
174.489064648803
20
-2.69528285516517
30
0
41
1
10
174.70078502716
20
-2.57272431580077
30
0
41
1
10
174.769951269946
20
-2.52871174982258
30
0
41
1
10
174.905290992184
20
-2.43396676230972
30
0
41
1
10
174.971477502841
20
-2.38317374663745
30
0
41
1
10
175.289423489019
20
-2.11609950721871
30
0
41
1
10
175.506632164839
20
-1.85752445683997
30
0
41
1
10
175.736656543637
20
-1.48414449715506
30
0
41
1
10
175.780691579316
20
-1.40676349025202
30
0
41
1
10
175.864198702565
20
-1.24824492791987
30
0
41
1
10
175.903649817662
20
-1.16718943475999
30
0
41
1
10
176.015631929003
20
-0.91905255241187
30
0
41
1
10
176.081848358172
20
-0.746867368991531
30
0
41
1
10
176.199601648483
20
-0.391809035835365
30
0
41
1
10
176.250979880631
20
-0.209452489957926
30
0
41
1
10
176.307304994227
20
0.0229573609058775
30
0
41
1
10
176.318173699836
20
0.0696618477233528
30
0
41
1
10
176.333906397207
20
0.140019712190735
30
0
41
1
10
176.339627766044
20
0.163242348461352
30
0
41
1
10
176.349000839442
20
0.21068331408253
30
0
41
1
10
176.351618573573
20
0.235560839832289
30
0
41
1
10
176.350306508374
20
0.311609534372309
30
0
41
1
10
176.338495680258
20
0.363750565405439
30
0
41
1
10
176.313432758159
20
0.466797796701144
30
0
41
1
10
176.301145384544
20
0.518347998633601
30
0
41
1
10
176.19035589092
20
0.982277690753818
30
0
41
1
10
176.091914101341
20
1.39466380653306
30
0
41
1
10
175.993490582794
20
1.80705197813708
30
0
0
SPLINE
5
DE
100
AcDbEntity
8
1
62
256
6
ByLayer
370
18
48
1
60
0
100
AcDbSpline
70
4
71
3
72
16
73
12
40
0
40
0
40
0
40
0
40
0.107305819936271
40
0.107305819936271
40
0.234144877383113
40
0.234144877383113
40
0.360983934829953
40
0.360983934829953
40
0.868340164617324
40
0.868340164617324
40
1
40
1
40
1
40
1
41
1
10
66.5247506922845
20
0.0028221053990762
30
0
41
1
10
66.8973489810813
20
-0.202263219610956
30
0
41
1
10
67.2703975337195
20
-0.407621229831534
30
0
41
1
10
68.0859668698477
20
-0.855246452943078
30
0
41
1
10
68.5287923735706
20
-1.09738641524211
30
0
41
1
10
69.4174914412103
20
-1.57911547549889
30
0
41
1
10
69.8640216790087
20
-1.81915369695579
30
0
41
1
10
72.0844551642371
20
-2.9970364382354
30
0
41
1
10
73.837704270125
20
-3.87637904284915
30
0
41
1
10
76.053941819752
20
-4.84606063785623
30
0
41
1
10
76.5109830976979
20
-5.03850559413723
30
0
41
1
10
76.9689680931228
20
-5.22279421430531
30
0
0
SPLINE
5
DF
100
AcDbEntity
8
1
62
256
6
ByLayer
370
13
48
1
60
0
100
AcDbSpline
70
4
71
3
72
22
73
18
40
0
40
0
40
0
40
0
40
0.0963342287363816
40
0.0963342287363816
40
0.146404360915284
40
0.146404360915284
40
0.196474493094188
40
0.196474493094188
40
0.296614757451999
40
0.296614757451999
40
0.697175814883238
40
0.697175814883238
40
0.897456343598855
40
0.897456343598855
40
0.997596607956663
40
0.997596607956663
40
1
40
1
40
1
40
1
41
1
10
76.9689680924898
20
-5.2227942140506
30
0
41
1
10
77.3934144777435
20
-5.3935872301067
30
0
41
1
10
77.8186714230152
20
-5.55737475978017
30
0
41
1
10
78.4668250694777
20
-5.79466179958513
30
0
41
1
10
78.6888343158934
20
-5.87373048330772
30
0
41
1
10
79.1336270949759
20
-6.02757447506943
30
0
41
1
10
79.3566770974303
20
-6.1024339766908
30
0
41
1
10
80.0242168448184
20
-6.31933673810417
30
0
41
1
10
80.4676086764247
20
-6.45391277070996
30
0
41
1
10
82.679007516335
20
-7.07472254419076
30
0
41
1
10
84.4298827257676
20
-7.40570942823391
30
0
41
1
10
87.0732487391077
20
-7.62857958988113
30
0
41
1
10
87.9570596255279
20
-7.65732471577959
30
0
41
1
10
89.2928098045736
20
-7.62937300331865
30
0
41
1
10
89.738525893232
20
-7.60818791267604
30
0
41
1
10
90.1944243836785
20
-7.57450617014942
30
0
41
1
10
90.2051096087242
20
-7.57370999573752
30
0
41
1
10
90.2157948324499
20
-7.57290707262672
30
0
0
SPLINE
5
E0
100
AcDbEntity
8
1
62
256
6
ByLayer
370
18
48
1
60
0
100
AcDbSpline
70
4
71
3
72
20
73
16
40
0
40
0
40
0
40
0
40
0.115206485822698
40
0.115206485822698
40
0.53643638769117
40
0.53643638769117
40
0.589090125424733
40
0.589090125424733
40
0.641743863158295
40
0.641743863158295
40
0.747051338625414
40
0.747051338625414
40
0.957666289559647
40
0.957666289559647
40
1
40
1
40
1
40
1
41
1
10
153.622356410553
20
0.0041314045952277
30
0
41
1
10
154.104919647985
20
-0.263405756338642
30
0
41
1
10
154.586243424556
20
-0.530299151377307
30
0
41
1
10
156.824547417816
20
-1.7648089423792
30
0
41
1
10
158.57373350792
20
-2.71084906978857
30
0
41
1
10
160.565323480612
20
-3.68906052157948
30
0
41
1
10
160.786941326061
20
-3.7965550590329
30
0
41
1
10
161.230955513887
20
-4.00894137181697
30
0
41
1
10
161.453633460793
20
-4.11396396895213
30
0
41
1
10
162.120224554623
20
-4.42349403732646
30
0
41
1
10
162.562984798913
20
-4.62260972274734
30
0
41
1
10
163.887904653437
20
-5.19643397974696
30
0
41
1
10
164.766669999635
20
-5.54771891813292
30
0
41
1
10
165.820974431061
20
-5.92693773806161
30
0
41
1
10
165.997386367219
20
-5.98897130012708
30
0
41
1
10
166.173791397604
20
-6.04953783835882
30
0
0
SPLINE
5
E1
100
AcDbEntity
8
1
62
256
6
ByLayer
370
13
48
1
60
0
100
AcDbSpline
70
4
71
3
72
14
73
10
40
0
40
0
40
0
40
0
40
0.47354560004316
40
0.47354560004316
40
0.60515920003237
40
0.60515920003237
40
0.736772800021579
40
0.736772800021579
40
1
40
1
40
1
40
1
41
1
10
166.173791408712
20
-6.04953784217264
30
0
41
1
10
167.752655942663
20
-6.59162192476617
30
0
41
1
10
169.330967279317
20
-7.01618784881359
30
0
41
1
10
171.375157733545
20
-7.37724721669602
30
0
41
1
10
171.819849091425
20
-7.44449229954299
30
0
41
1
10
172.706993147977
20
-7.55570174198905
30
0
41
1
10
173.149964512007
20
-7.59975789654348
30
0
41
1
10
174.478646941224
20
-7.69687745582294
30
0
41
1
10
175.364105547329
20
-7.71488354409885
30
0
41
1
10
176.252574935232
20
-7.68506014154093
30
0
0
SPLINE
5
E2
100
AcDbEntity
8
1
62
256
6
ByLayer
370
18
48
1
60
0
100
AcDbSpline
70
4
71
3
72
8
73
4
40
0
40
0
40
0
40
0
40
1
40
1
40
1
40
1
41
1
10
178.801431443507
20
-0.359120482086382
30
0
41
1
10
177.923686600978
20
-2.7707046169777
30
0
41
1
10
177.04594175845
20
-5.18228875186887
30
0
41
1
10
176.168196915921
20
-7.59387288675904
30
0
0
SPLINE
5
E3
100
AcDbEntity
8
1
62
256
6
ByLayer
370
18
48
1
60
0
100
AcDbSpline
70
4
71
3
72
10
73
6
40
0
40
0
40
0
40
0
40
0.5
40
0.5
40
1
40
1
40
1
40
1
41
1
10
178.975573772311
20
-0.158549077949402
30
0
41
1
10
178.977660554575
20
-0.141544499441238
30
0
41
1
10
178.980929984983
20
-0.122809041048043
30
0
41
1
10
178.989196604766
20
-0.0828056955395198
30
0
41
1
10
178.994261035219
20
-0.0613395349868142
30
0
41
1
10
178.999975919113
20
-0.0393698733563212
30
0
0
SPLINE
5
E4
100
AcDbEntity
8
1
62
256
6
ByLayer
370
18
48
1
60
0
100
AcDbSpline
70
4
71
3
72
8
73
4
40
0
40
0
40
0
40
0
40
1
40
1
40
1
40
1
41
1
10
178.721931792414
20
1.94479826248423
30
0
41
1
10
178.817944220703
20
1.3492843443652
30
0
41
1
10
178.902516953493
20
0.753867733413131
30
0
41
1
10
178.975573772311
20
0.1585490779498
30
0
0
SPLINE
5
E5
100
AcDbEntity
8
1
62
256
6
ByLayer
370
18
48
1
60
0
100
AcDbSpline
70
4
71
3
72
42
73
38
40
0
40
0
40
0
40
0
40
0.0625000000000004
40
0.0625000000000004
40
0.125000000000001
40
0.125000000000001
40
0.187500000000001
40
0.187500000000001
40
0.250000000000002
40
0.250000000000002
40
0.281250000000002
40
0.281250000000002
40
0.312500000000002
40
0.312500000000002
40
0.343750000000002
40
0.343750000000002
40
0.375000000000002
40
0.375000000000002
40
0.390625000000002
40
0.390625000000002
40
0.406250000000002
40
0.406250000000002
40
0.437500000000002
40
0.437500000000002
40
0.468750000000002
40
0.468750000000002
40
0.500000000000002
40
0.500000000000002
40
0.562500000000002
40
0.562500000000002
40
0.625000000000001
40
0.625000000000001
40
0.750000000000001
40
0.750000000000001
40
0.875
40
0.875
40
1
40
1
40
1
40
1
41
1
10
176.057432329981
20
-4.08352771661546
30
0
41
1
10
175.973611439496
20
-4.02979267625898
30
0
41
1
10
175.890009511268
20
-3.97297584885595
30
0
41
1
10
175.726079861264
20
-3.85362306948426
30
0
41
1
10
175.645513948668
20
-3.79097268288069
30
0
41
1
10
175.488018482986
20
-3.65794124553818
30
0
41
1
10
175.411059904623
20
-3.58762190065252
30
0
41
1
10
175.2624506119
20
-3.43569903675598
30
0
41
1
10
175.19166728036
20
-3.35519406249483
30
0
41
1
10
175.094734318893
20
-3.22314412659156
30
0
41
1
10
175.064380719265
20
-3.17771008960298
30
0
41
1
10
175.009158915123
20
-3.08328889212851
30
0
41
1
10
174.984219057227
20
-3.03429544169623
30
0
41
1
10
174.942498602483
20
-2.93086244879933
30
0
41
1
10
174.9263889461
20
-2.87794285918591
30
0
41
1
10
174.908094430448
20
-2.77018248253913
30
0
41
1
10
174.906403481483
20
-2.71716161637713
30
0
41
1
10
174.916604041286
20
-2.64155693136215
30
0
41
1
10
174.922158294547
20
-2.61698821842219
30
0
41
1
10
174.936850470179
20
-2.57095293702537
30
0
41
1
10
174.946016229477
20
-2.54919736819684
30
0
41
1
10
174.978410708143
20
-2.48732721949318
30
0
41
1
10
175.00571244911
20
-2.4520428971866
30
0
41
1
10
175.067087103979
20
-2.39062844827717
30
0
41
1
10
175.101500811919
20
-2.36428775596264
30
0
41
1
10
175.173088844094
20
-2.3192859305131
30
0
41
1
10
175.210582306227
20
-2.30032875735563
30
0
41
1
10
175.326685694687
20
-2.25101203832492
30
0
41
1
10
175.409021353538
20
-2.22815542961729
30
0
41
1
10
175.574756529244
20
-2.19523121035164
30
0
41
1
10
175.658952282904
20
-2.18501699596391
30
0
41
1
10
175.914183940434
20
-2.16681399890226
30
0
41
1
10
176.087890302037
20
-2.17105835862634
30
0
41
1
10
176.439156381074
20
-2.19901263076863
30
0
41
1
10
176.615285271334
20
-2.22288014594056
30
0
41
1
10
176.968250755288
20
-2.28473122906294
30
0
41
1
10
177.145245794539
20
-2.32284614089875
30
0
41
1
10
177.322208286396
20
-2.36685780265762
30
0
0
SPLINE
5
E6
100
AcDbEntity
8
1
62
256
6
ByLayer
370
18
48
1
60
0
100
AcDbSpline
70
4
71
3
72
122
73
118
40
0
40
0
40
0
40
0
40
0.0107803691640236
40
0.0107803691640236
40
0.0216916763735168
40
0.0216916763735168
40
0.0435142907925027
40
0.0435142907925027
40
0.0653369052114886
40
0.0653369052114886
40
0.0871595196304744
40
0.0871595196304744
40
0.0980708268399674
40
0.0980708268399674
40
0.10898213404946
40
0.10898213404946
40
0.130804748468446
40
0.130804748468446
40
0.152627362887431
40
0.152627362887431
40
0.163538670096924
40
0.163538670096924
40
0.174449977306416
40
0.174449977306416
40
0.196272591725401
40
0.196272591725401
40
0.218095206144386
40
0.218095206144386
40
0.229006513353879
40
0.229006513353879
40
0.239917820563371
40
0.239917820563371
40
0.261740434982357
40
0.261740434982357
40
0.283563049401343
40
0.283563049401343
40
0.305385663820329
40
0.305385663820329
40
0.316296971029822
40
0.316296971029822
40
0.327208278239315
40
0.327208278239315
40
0.338119585448807
40
0.338119585448807
40
0.3490308926583
40
0.3490308926583
40
0.370853507077286
40
0.370853507077286
40
0.381764814286779
40
0.381764814286779
40
0.392676121496271
40
0.392676121496271
40
0.414498735915257
40
0.414498735915257
40
0.436321350334242
40
0.436321350334242
40
0.458143964753228
40
0.458143964753228
40
0.479966579172213
40
0.479966579172213
40
0.501789193591198
40
0.501789193591198
40
0.523611808010183
40
0.523611808010183
40
0.534523115219676
40
0.534523115219676
40
0.545434422429168
40
0.545434422429168
40
0.567257036848153
40
0.567257036848153
40
0.589079651267137
40
0.589079651267137
40
0.599990958476629
40
0.599990958476629
40
0.610902265686121
40
0.610902265686121
40
0.632724880105106
40
0.632724880105106
40
0.65454749452409
40
0.65454749452409
40
0.676370108943074
40
0.676370108943074
40
0.698192723362058
40
0.698192723362058
40
0.720015337781043
40
0.720015337781043
40
0.741837952200027
40
0.741837952200027
40
0.752749259409519
40
0.752749259409519
40
0.763660566619011
40
0.763660566619011
40
0.785483181037995
40
0.785483181037995
40
0.807305795456978
40
0.807305795456978
40
0.81821710266647
40
0.81821710266647
40
0.829128409875963
40
0.829128409875963
40
0.850951024294946
40
0.850951024294946
40
0.87277363871393
40
0.87277363871393
40
0.894596253132914
40
0.894596253132914
40
0.916418867551898
40
0.916418867551898
40
0.938241481970882
40
0.938241481970882
40
0.960064096389865
40
0.960064096389865
40
0.970975403599357
40
0.970975403599357
40
0.981886710808848
40
0.981886710808848
40
1
40
1
40
1
40
1
41
1
10
27.7365870303255
20
3.83566104142943
30
0
41
1
10
27.9446711456983
20
3.93925573635923
30
0
41
1
10
28.1528022040202
20
4.04145020773893
30
0
41
1
10
28.5714999272941
20
4.24455007071236
30
0
41
1
10
28.7817698305388
20
4.34586768235718
30
0
41
1
10
29.41294058833
20
4.64512716236041
30
0
41
1
10
29.8350269087965
20
4.83721230065683
30
0
41
1
10
30.6799512183281
20
5.20927942497511
30
0
41
1
10
31.1025173276718
20
5.38957288862983
30
0
41
1
10
31.9509994096317
20
5.73420854656018
30
0
41
1
10
32.3772548193911
20
5.89856697158342
30
0
41
1
10
33.0176214952389
20
6.13380279256458
30
0
41
1
10
33.2303257041483
20
6.21060499038722
30
0
41
1
10
33.6562530912747
20
6.35873419204691
30
0
41
1
10
33.8692524562328
20
6.43032696722639
30
0
41
1
10
34.5082421796627
20
6.63791636868967
30
0
41
1
10
34.9335264435258
20
6.76740798715886
30
0
41
1
10
35.7839242731969
20
7.00723011339781
30
0
41
1
10
36.2096012751752
20
7.11709250383385
30
0
41
1
10
36.8491274405714
20
7.26668038600801
30
0
41
1
10
37.0625228944509
20
7.31398325708358
30
0
41
1
10
37.4886229871522
20
7.40413221315373
30
0
41
1
10
37.7018229860394
20
7.44653772097075
30
0
41
1
10
38.3403918164986
20
7.56508807939119
30
0
41
1
10
38.7652419949937
20
7.63299099551901
30
0
41
1
10
39.6114331907864
20
7.74776832953191
30
0
41
1
10
40.0333731524545
20
7.79427040646894
30
0
41
1
10
40.6662119336722
20
7.84744709408093
30
0
41
1
10
40.877096990892
20
7.86243624070241
30
0
41
1
10
41.2985538659692
20
7.88700570835823
30
0
41
1
10
41.5089075136258
20
7.89661621550084
30
0
41
1
10
42.1395728237332
20
7.91719859794108
30
0
41
1
10
42.5608364433565
20
7.91987605894585
30
0
41
1
10
43.4033612102327
20
7.90348934846509
30
0
41
1
10
43.8241918004541
20
7.88426789502122
30
0
41
1
10
44.6681380991865
20
7.82394227044625
30
0
41
1
10
45.0913554463985
20
7.78297373385681
30
0
41
1
10
45.7273713035281
20
7.70495935120798
30
0
41
1
10
45.9391305806019
20
7.67598045828896
30
0
41
1
10
46.3639444117001
20
7.61275427748964
30
0
41
1
10
46.5768676854156
20
7.57847008504459
30
0
41
1
10
47.0036956506196
20
7.50454504843074
30
0
41
1
10
47.2172715026018
20
7.46494537192956
30
0
41
1
10
47.6434317724995
20
7.38034696622381
30
0
41
1
10
47.8562132523955
20
7.335355693005
30
0
41
1
10
48.4943096334401
20
7.19271631682111
30
0
41
1
10
48.9196228716678
20
7.08759314061751
30
0
41
1
10
49.557991544374
20
6.9154754833981
30
0
41
1
10
49.7709103713963
20
6.85576313785802
30
0
41
1
10
50.1959166628585
20
6.7306265119233
30
0
41
1
10
50.408326044311
20
6.66546808590704
30
0
41
1
10
51.0468849612393
20
6.46377533909074
30
0
41
1
10
51.474305482411
20
6.32038977578938
30
0
41
1
10
52.3267055782065
20
6.01468161833924
30
0
41
1
10
52.7519780859949
20
5.85301399634554
30
0
41
1
10
53.6031375216536
20
5.51515354375047
30
0
41
1
10
54.0288669144723
20
5.33885399459379
30
0
41
1
10
54.8783757000845
20
4.96838460845885
30
0
41
1
10
55.3043293064035
20
4.77710900596134
30
0
41
1
10
56.1570583474912
20
4.38045158195735
30
0
41
1
10
56.5834779651466
20
4.17414330588736
30
0
41
1
10
57.4350707398486
20
3.75256501622471
30
0
41
1
10
57.8608964782777
20
3.53729891306358
30
0
41
1
10
58.4989836683051
20
3.20665879001123
30
0
41
1
10
58.7111074254837
20
3.09440127240154
30
0
41
1
10
59.1360451849432
20
2.86873233820381
30
0
41
1
10
59.3487304191084
20
2.75512142659642
30
0
41
1
10
59.9873523154307
20
2.41185908019582
30
0
41
1
10
60.4132508971634
20
2.1787731410086
30
0
41
1
10
61.2660121319005
20
1.70506001431556
30
0
41
1
10
61.6913154129665
20
1.46673562976804
30
0
41
1
10
62.327648401521
20
1.10836282216937
30
0
41
1
10
62.5395780798762
20
0.988842602350388
30
0
41
1
10
62.9620567003457
20
0.747835243720289
30
0
41
1
10
63.1728687208354
20
0.626826851738201
30
0
41
1
10
63.8057181695303
20
0.265337660935046
30
0
41
1
10
64.22759649367
20
0.0253486940118819
30
0
41
1
10
65.0691783793363
20
-0.45645842718659
30
0
41
1
10
65.4893905389783
20
-0.697356726389017
30
0
41
1
10
66.3311043991338
20
-1.17480773424
30
0
41
1
10
66.7526702329789
20
-1.41126116588049
30
0
41
1
10
67.5940792638765
20
-1.88511353370137
30
0
41
1
10
68.0162702914241
20
-2.11838712425768
30
0
41
1
10
68.8624132000656
20
-2.57976566819613
30
0
41
1
10
69.2857284660092
20
-2.80896683248039
30
0
41
1
10
70.1358588382683
20
-3.2591237043637
30
0
41
1
10
70.5633774936079
20
-3.48002276624004
30
0
41
1
10
71.2024053212253
20
-3.80317955140396
30
0
41
1
10
71.4148092533773
20
-3.91023723460086
30
0
41
1
10
71.839759734076
20
-4.12091299503763
30
0
41
1
10
72.0523386919039
20
-4.22449275890878
30
0
41
1
10
72.6903084587145
20
-4.53014564025244
30
0
41
1
10
73.115471938151
20
-4.72781815035916
30
0
41
1
10
73.9655061654243
20
-5.11081585824212
30
0
41
1
10
74.391058956154
20
-5.29518312771452
30
0
41
1
10
75.030988014297
20
-5.56001498782646
30
0
41
1
10
75.244511810661
20
-5.64632289401206
30
0
41
1
10
75.6703830499498
20
-5.81537883476491
30
0
41
1
10
75.8827222985259
20
-5.8983247892188
30
0
41
1
10
76.5206632398193
20
-6.13920552233236
30
0
41
1
10
76.9463601100213
20
-6.29028712898457
30
0
41
1
10
77.7962287915984
20
-6.57605675222493
30
0
41
1
10
78.2208482489925
20
-6.71017606668448
30
0
41
1
10
79.0721226130168
20
-6.95834528513282
30
0
41
1
10
79.4994116334689
20
-7.07250786598291
30
0
41
1
10
80.3504259485678
20
-7.28262829168477
30
0
41
1
10
80.7761609866291
20
-7.37658511780512
30
0
41
1
10
81.6270409931689
20
-7.54357756794607
30
0
41
1
10
82.0514725147776
20
-7.61693525964142
30
0
41
1
10
82.9013690553342
20
-7.74160282121625
30
0
41
1
10
83.3270446124919
20
-7.79291475909804
30
0
41
1
10
83.966137338593
20
-7.8535589985072
30
0
41
1
10
84.1790308474527
20
-7.87115018550531
30
0
41
1
10
84.6048093485392
20
-7.90059558704854
30
0
41
1
10
84.8174869383463
20
-7.91244154705785
30
0
41
1
10
85.3826074609353
20
-7.93649112356979
30
0
41
1
10
85.7343590236407
20
-7.94382037475762
30
0
41
1
10
86.0851681980176
20
-7.94350885008075
30
0
0
SPLINE
5
E7
100
AcDbEntity
8
1
62
256
6
ByLayer
370
18
48
1
60
0
100
AcDbSpline
70
4
71
3
72
122
73
118
40
0
40
0
40
0
40
0
40
0.010845143764407
40
0.010845143764407
40
0.0326221429029158
40
0.0326221429029158
40
0.0543991420414249
40
0.0543991420414249
40
0.0652876416106793
40
0.0652876416106793
40
0.0761761411799338
40
0.0761761411799338
40
0.0979531403184438
40
0.0979531403184438
40
0.119730139456954
40
0.119730139456954
40
0.130618639026209
40
0.130618639026209
40
0.141507138595464
40
0.141507138595464
40
0.163284137733975
40
0.163284137733975
40
0.185061136872486
40
0.185061136872486
40
0.195949636441741
40
0.195949636441741
40
0.206838136010997
40
0.206838136010997
40
0.228615135149508
40
0.228615135149508
40
0.250392134288018
40
0.250392134288018
40
0.272169133426529
40
0.272169133426529
40
0.283057632995785
40
0.283057632995785
40
0.293946132565041
40
0.293946132565041
40
0.315723131703554
40
0.315723131703554
40
0.337500130842067
40
0.337500130842067
40
0.348388630411324
40
0.348388630411324
40
0.359277129980581
40
0.359277129980581
40
0.381054129119093
40
0.381054129119093
40
0.402831128257605
40
0.402831128257605
40
0.424608127396117
40
0.424608127396117
40
0.435496626965373
40
0.435496626965373
40
0.446385126534629
40
0.446385126534629
40
0.468162125673142
40
0.468162125673142
40
0.489939124811655
40
0.489939124811655
40
0.500827624380912
40
0.500827624380912
40
0.511716123950169
40
0.511716123950169
40
0.533493123088682
40
0.533493123088682
40
0.555270122227195
40
0.555270122227195
40
0.566158621796452
40
0.566158621796452
40
0.577047121365709
40
0.577047121365709
40
0.598824120504222
40
0.598824120504222
40
0.620601119642735
40
0.620601119642735
40
0.642378118781248
40
0.642378118781248
40
0.664155117919761
40
0.664155117919761
40
0.685932117058274
40
0.685932117058274
40
0.707709116196787
40
0.707709116196787
40
0.718597615766044
40
0.718597615766044
40
0.729486115335301
40
0.729486115335301
40
0.751263114473814
40
0.751263114473814
40
0.773040113612327
40
0.773040113612327
40
0.783928613181583
40
0.783928613181583
40
0.79481711275084
40
0.79481711275084
40
0.816594111889353
40
0.816594111889353
40
0.838371111027866
40
0.838371111027866
40
0.849259610597123
40
0.849259610597123
40
0.860148110166379
40
0.860148110166379
40
0.881925109304894
40
0.881925109304894
40
0.903702108443407
40
0.903702108443407
40
0.925479107581922
40
0.925479107581922
40
0.947256106720436
40
0.947256106720436
40
0.96903310585895
40
0.96903310585895
40
0.990810104997464
40
0.990810104997464
40
1
40
1
40
1
40
1
41
1
10
114.824670483783
20
3.85066596012243
30
0
41
1
10
115.034731983617
20
3.95609236030614
30
0
41
1
10
115.245044459152
20
4.06019387376693
30
0
41
1
10
115.87804863343
20
4.36992841825915
30
0
41
1
10
116.30096995798
20
4.57232969197233
30
0
41
1
10
117.150639300096
20
4.96352883460403
30
0
41
1
10
117.577937388808
20
5.15234827516696
30
0
41
1
10
118.215953387675
20
5.42476715005827
30
0
41
1
10
118.42797159644
20
5.51428411878047
30
0
41
1
10
118.852676993862
20
5.68821258851955
30
0
41
1
10
119.065122248432
20
5.7729466614949
30
0
41
1
10
119.702588991843
20
6.02071501861201
30
0
41
1
10
120.12702434955
20
6.17814495222211
30
0
41
1
10
120.976307223943
20
6.47559997788298
30
0
41
1
10
121.401687131719
20
6.61508280835406
30
0
41
1
10
122.041063683953
20
6.81028301567977
30
0
41
1
10
122.254301722125
20
6.87295385642108
30
0
41
1
10
122.679198555844
20
6.9941237659618
30
0
41
1
10
122.891613530624
20
7.05208320863252
30
0
41
1
10
123.529126322378
20
7.21791590193936
30
0
41
1
10
123.954289793743
20
7.31797620013072
30
0
41
1
10
124.803151280785
20
7.49834103472435
30
0
41
1
10
125.22750235736
20
7.57812736220723
30
0
41
1
10
125.865546731788
20
7.68136371641401
30
0
41
1
10
126.078424402374
20
7.71307534363103
30
0
41
1
10
126.504373265275
20
7.77116573016352
30
0
41
1
10
126.717238957696
20
7.79765926264724
30
0
41
1
10
127.355045957661
20
7.86862549687748
30
0
41
1
10
127.780563955546
20
7.90446711462542
30
0
41
1
10
128.630288748853
20
7.95414338768384
30
0
41
1
10
129.054231288482
20
7.96788492833792
30
0
41
1
10
129.903521027081
20
7.97278754874506
30
0
41
1
10
130.328983961825
20
7.96407307476716
30
0
41
1
10
130.967305839885
20
7.93410064402894
30
0
41
1
10
131.179899830623
20
7.92117632762611
30
0
41
1
10
131.605259472914
20
7.88989238568689
30
0
41
1
10
131.817719889234
20
7.87152034489299
30
0
41
1
10
132.454341983361
20
7.80835569446981
30
0
41
1
10
132.877072873876
20
7.75527773150444
30
0
41
1
10
133.72042619805
20
7.62776795886515
30
0
41
1
10
134.141583744931
20
7.55361262884242
30
0
41
1
10
134.772859235095
20
7.42726797368374
30
0
41
1
10
134.983271849623
20
7.38268681628008
30
0
41
1
10
135.402935726259
20
7.28776258475375
30
0
41
1
10
135.612702187391
20
7.23775721422044
30
0
41
1
10
136.242723774173
20
7.08087130460004
30
0
41
1
10
136.663359233385
20
6.96695086448057
30
0
41
1
10
137.503880512747
20
6.71866917385074
30
0
41
1
10
137.92433349468
20
6.58472113968315
30
0
41
1
10
138.767959396627
20
6.29948801912852
30
0
41
1
10
139.190985098519
20
6.14816161600467
30
0
41
1
10
139.825717988368
20
5.90577008936049
30
0
41
1
10
140.037817905105
20
5.82298316586511
30
0
41
1
10
140.463010763927
20
5.65339163518843
30
0
41
1
10
140.676316842466
20
5.56656206134249
30
0
41
1
10
141.315012221054
20
5.30022390442716
30
0
41
1
10
141.7393509196
20
5.11424387408314
30
0
41
1
10
142.588354697506
20
4.729757682224
30
0
41
1
10
143.013151397449
20
4.53149643771849
30
0
41
1
10
143.650117381127
20
4.22417685788105
30
0
41
1
10
143.861949921336
20
4.11940027393305
30
0
41
1
10
144.286384598971
20
3.90774076071179
30
0
41
1
10
144.498887378915
20
3.80072120772033
30
0
41
1
10
145.137170018045
20
3.47600986740781
30
0
41
1
10
145.563429686833
20
3.25361097402992
30
0
41
1
10
146.413149605046
20
2.80017799023918
30
0
41
1
10
146.837746800301
20
2.56994490058449
30
0
41
1
10
147.474851208643
20
2.22038827527433
30
0
41
1
10
147.687298638391
20
2.10324620988268
30
0
41
1
10
148.111405375887
20
1.86610472930721
30
0
41
1
10
148.323225979252
20
1.74636964369174
30
0
41
1
10
148.960026636635
20
1.38714447988536
30
0
41
1
10
149.385650991675
20
1.1464858926808
30
0
41
1
10
150.236873600572
20
0.658936075700126
30
0
41
1
10
150.661777961314
20
0.413648441527812
30
0
41
1
10
151.511537408412
20
-0.0748035259379947
30
0
41
1
10
151.936567588347
20
-0.318115458314907
30
0
41
1
10
152.784058642584
20
-0.807899074511084
30
0
41
1
10
153.208862611661
20
-1.05029190311663
30
0
41
1
10
154.059169263302
20
-1.53255931033331
30
0
41
1
10
154.484881720013
20
-1.77391539423786
30
0
41
1
10
155.33438434237
20
-2.24805771659052
30
0
41
1
10
155.758191147692
20
-2.48053591105946
30
0
41
1
10
156.391945783607
20
-2.82352520069764
30
0
41
1
10
156.6024607215
20
-2.93758343366901
30
0
41
1
10
157.023493220041
20
-3.16265900831348
30
0
41
1
10
157.233988790933
20
-3.27372425715359
30
0
41
1
10
157.865343697321
20
-3.60269632281432
30
0
41
1
10
158.285609712892
20
-3.81713114155988
30
0
41
1
10
159.124935981497
20
-4.23607484850487
30
0
41
1
10
159.544641738734
20
-4.43958308786972
30
0
41
1
10
160.175058421051
20
-4.73481743175432
30
0
41
1
10
160.38532134366
20
-4.83158990457255
30
0
41
1
10
160.805615509952
20
-5.02250863150593
30
0
41
1
10
161.015395683043
20
-5.1169889836867
30
0
41
1
10
161.646475745113
20
-5.39354719426015
30
0
41
1
10
162.068722162448
20
-5.56991573048111
30
0
41
1
10
162.91399448708
20
-5.90950127867745
30
0
41
1
10
163.337377840292
20
-6.07219027481537
30
0
41
1
10
163.975607229432
20
-6.30294259694139
30
0
41
1
10
164.188619018727
20
-6.37758960673617
30
0
41
1
10
164.613407704773
20
-6.52200858375826
30
0
41
1
10
164.825506514664
20
-6.59178212398592
30
0
41
1
10
165.459350344864
20
-6.79535580328226
30
0
41
1
10
165.881373720314
20
-6.92061498436621
30
0
41
1
10
166.724215628413
20
-7.15106865344234
30
0
41
1
10
167.144173327106
20
-7.25692078157181
30
0
41
1
10
167.983796507955
20
-7.44779733781647
30
0
41
1
10
168.403757836269
20
-7.53269342492845
30
0
41
1
10
169.243590641756
20
-7.68186650706014
30
0
41
1
10
169.662412548457
20
-7.74657164743809
30
0
41
1
10
170.503096642031
20
-7.85362950484895
30
0
41
1
10
170.924203235492
20
-7.89643607947781
30
0
41
1
10
171.767009612036
20
-7.96051651699838
30
0
41
1
10
172.189390141803
20
-7.98156171225091
30
0
41
1
10
172.792574249027
20
-7.9955880509296
30
0
41
1
10
172.971853458938
20
-7.99776945925043
30
0
41
1
10
173.151352590514
20
-7.99794937678132
30
0
0
SPLINE
5
E8
100
AcDbEntity
8
1
62
256
6
ByLayer
370
18
48
1
60
0
100
AcDbSpline
70
4
71
3
72
8
73
4
40
0
40
0
40
0
40
0
40
1
40
1
40
1
40
1
41
1
10
6.4299037750018
20
1.15354043875834
30
0
41
1
10
6.68505372333811
20
1.0088439594609
30
0
41
1
10
6.94009352075307
20
0.863713503121204
30
0
41
1
10
7.19514613434603
20
0.718365020777838
30
0
0
SPLINE
5
E9
100
AcDbEntity
8
1
62
256
6
ByLayer
370
18
48
1
60
0
100
AcDbSpline
70
4
71
3
72
12
73
8
40
0
40
0
40
0
40
0
40
0.25000000000001
40
0.25000000000001
40
0.50000000000002
40
0.50000000000002
40
1
40
1
40
1
40
1
41
1
10
6.55613779995429
20
7.3128629698009
30
0
41
1
10
6.53690153123949
20
7.3169788751932
30
0
41
1
10
6.51952371658459
20
7.32192927836996
30
0
41
1
10
6.48837681795152
20
7.33338718432796
30
0
41
1
10
6.4747569219532
20
7.33989186369948
30
0
41
1
10
6.44183889019598
20
7.36058073521048
30
0
41
1
10
6.4299037750018
20
7.376271782668
30
0
41
1
10
6.4299037750018
20
7.39180943769287
30
0
0
SPLINE
5
EA
100
AcDbEntity
8
1
62
256
6
ByLayer
370
18
48
1
60
0
100
AcDbSpline
70
4
71
3
72
50
73
46
40
0
40
0
40
0
40
0
40
0.0312499999999967
40
0.0312499999999967
40
0.0624999999999934
40
0.0624999999999934
40
0.0937499999999901
40
0.0937499999999901
40
0.124999999999987
40
0.124999999999987
40
0.187499999999983
40
0.187499999999983
40
0.24999999999998
40
0.24999999999998
40
0.281249999999981
40
0.281249999999981
40
0.312499999999982
40
0.312499999999982
40
0.374999999999983
40
0.374999999999983
40
0.437499999999985
40
0.437499999999985
40
0.499999999999987
40
0.499999999999987
40
0.562499999999988
40
0.562499999999988
40
0.593749999999989
40
0.593749999999989
40
0.62499999999999
40
0.62499999999999
40
0.656249999999991
40
0.656249999999991
40
0.687499999999992
40
0.687499999999992
40
0.718749999999992
40
0.718749999999992
40
0.749999999999993
40
0.749999999999993
40
0.812499999999995
40
0.812499999999995
40
0.874999999999997
40
0.874999999999997
40
0.937499999999998
40
0.937499999999998
40
1
40
1
40
1
40
1
41
1
10
176.057432329981
20
-4.08352771661535
30
0
41
1
10
176.053687835193
20
-4.12934831914612
30
0
41
1
10
176.052149262522
20
-4.17277082165865
30
0
41
1
10
176.053264607832
20
-4.25505809011074
30
0
41
1
10
176.055959858052
20
-4.29386222310137
30
0
41
1
10
176.065112770942
20
-4.36490575446484
30
0
41
1
10
176.071567620388
20
-4.39748537099345
30
0
41
1
10
176.087957708215
20
-4.45719322973636
30
0
41
1
10
176.097938560565
20
-4.48433159494121
30
0
41
1
10
176.132031447872
20
-4.55626600025855
30
0
41
1
10
176.160576412737
20
-4.59263046059152
30
0
41
1
10
176.226907485475
20
-4.64398575199553
30
0
41
1
10
176.264054222909
20
-4.6586188724223
30
0
41
1
10
176.32506172543
20
-4.66590042104042
30
0
41
1
10
176.346390392156
20
-4.66583504845161
30
0
41
1
10
176.3902322609
20
-4.66086011898489
30
0
41
1
10
176.412735645391
20
-4.65597983397166
30
0
41
1
10
176.481917239022
20
-4.63447237218588
30
0
41
1
10
176.530247621543
20
-4.61105774040982
30
0
41
1
10
176.631415580521
20
-4.54571203275754
30
0
41
1
10
176.683097216966
20
-4.50448555583819
30
0
41
1
10
176.787809507972
20
-4.40558561872413
30
0
41
1
10
176.841064640568
20
-4.34774125707926
30
0
41
1
10
176.949060028408
20
-4.21337385374662
30
0
41
1
10
177.002211298253
20
-4.13880094463312
30
0
41
1
10
177.079797249911
20
-4.01586304144988
30
0
41
1
10
177.105341344586
20
-3.9729668133331
30
0
41
1
10
177.155718689821
20
-3.88288784382917
30
0
41
1
10
177.180385992471
20
-3.83596050684022
30
0
41
1
10
177.227566134486
20
-3.74006103686776
30
0
41
1
10
177.250231233323
20
-3.69082500410673
30
0
41
1
10
177.293534068604
20
-3.58953361946084
30
0
41
1
10
177.314322230012
20
-3.53701709490363
30
0
41
1
10
177.3522584483
20
-3.43246579936934
30
0
41
1
10
177.369549866409
20
-3.38016283614354
30
0
41
1
10
177.400655613604
20
-3.27550026342891
30
0
41
1
10
177.414532358408
20
-3.22287142356507
30
0
41
1
10
177.450045200571
20
-3.06663174231181
30
0
41
1
10
177.464735427239
20
-2.96891207899716
30
0
41
1
10
177.476613759855
20
-2.78757381235593
30
0
41
1
10
177.473526251914
20
-2.70804408325932
30
0
41
1
10
177.451917336608
20
-2.57011958805594
30
0
41
1
10
177.433820740076
20
-2.51393798039504
30
0
41
1
10
177.385419331059
20
-2.4229716165267
30
0
41
1
10
177.355939225655
20
-2.38980824623309
30
0
41
1
10
177.322208286396
20
-2.36685780265759
30
0
0
LINE
5
76
100
AcDbEntity
8
81
62
256
6
ByLayer
370
18
48
1
60
0
100
AcDbLine
10
179
20
0
30
0
11
184
21
0
31
0
39
0
210
0
220
0
230
1
0
LINE
5
77
100
AcDbEntity
8
1
62
256
6
ByLayer
370
18
48
1
60
0
100
AcDbLine
10
6.429904
20
7.89375
30
0
11
0
21
7.889731
31
0
39
0
210
0
220
0
230
1
0
LINE
5
79
100
AcDbEntity
8
1
62
256
6
ByLayer
370
18
48
1
60
0
100
AcDbLine
10
44.755136
20
7.917703
30
0
11
42.491373
21
7.916288
31
0
39
0
210
0
220
0
230
1
0
LINE
5
7A
100
AcDbEntity
8
1
62
256
6
ByLayer
370
18
48
1
60
0
100
AcDbLine
10
88.304298
20
7.944921
30
0
11
86.04847
21
7.943512
31
0
39
0
210
0
220
0
230
1
0
LINE
5
7B
100
AcDbEntity
8
1
62
256
6
ByLayer
370
18
48
1
60
0
100
AcDbLine
10
131.854388
20
7.97214
30
0
11
129.603248
21
7.970733
31
0
39
0
210
0
220
0
230
1
0
LINE
5
7C
100
AcDbEntity
8
1
62
256
6
ByLayer
370
18
48
1
60
0
100
AcDbLine
10
175.405505
20
7.99936
30
0
11
173.161084
21
7.997957
31
0
39
0
210
0
220
0
230
1
0
LINE
5
7D
100
AcDbEntity
8
1
62
256
6
ByLayer
370
18
48
1
60
0
100
AcDbLine
10
173.161084
20
-7.997957
30
0
11
175.405322
21
-7.99936
31
0
39
0
210
0
220
0
230
1
0
LINE
5
7E
100
AcDbEntity
8
1
62
256
6
ByLayer
370
18
48
1
60
0
100
AcDbLine
10
129.603248
20
-7.970733
30
0
11
131.85433
21
-7.97214
31
0
39
0
210
0
220
0
230
1
0
LINE
5
7F
100
AcDbEntity
8
1
62
256
6
ByLayer
370
18
48
1
60
0
100
AcDbLine
10
86.04847
20
-7.943512
30
0
11
88.304661
21
-7.944922
31
0
39
0
210
0
220
0
230
1
0
LINE
5
80
100
AcDbEntity
8
1
62
256
6
ByLayer
370
18
48
1
60
0
100
AcDbLine
10
42.491373
20
-7.916288
30
0
11
44.75488
21
-7.917703
31
0
39
0
210
0
220
0
230
1
0
LINE
5
81
100
AcDbEntity
8
1
62
256
6
ByLayer
370
18
48
1
60
0
100
AcDbLine
10
0
20
-7.889731
30
0
11
6.429904
21
-7.89375
31
0
39
0
210
0
220
0
230
1
0
LINE
5
82
100
AcDbEntity
8
SK1
62
256
6
ByLayer
370
18
48
1
60
0
100
AcDbLine
10
-45.979274
20
8
30
0
11
-48
21
4.5
31
0
39
0
210
0
220
0
230
1
0
LINE
5
84
100
AcDbEntity
8
SK1
62
256
6
ByLayer
370
18
48
1
60
0
100
AcDbLine
10
-48
20
-4.5
30
0
11
-45.979274
21
-8
31
0
39
0
210
0
220
0
230
1
0
LINE
5
85
100
AcDbEntity
8
SK1
62
256
6
ByLayer
370
18
48
1
60
0
100
AcDbLine
10
0
20
8
30
0
11
-45.979274
21
8
31
0
39
0
210
0
220
0
230
1
0
LINE
5
86
100
AcDbEntity
8
SK1
62
256
6
ByLayer
370
18
48
1
60
0
100
AcDbLine
10
-45.979274
20
-8
30
0
11
0
21
-8
31
0
39
0
210
0
220
0
230
1
0
LINE
5
87
100
AcDbEntity
8
SK4
62
256
6
ByLayer
370
18
48
0.05
60
0
100
AcDbLine
10
184
20
0
30
0
11
-53
21
0
31
0
39
0
210
0
220
0
230
1
0
LINE
5
89
100
AcDbEntity
8
4
62
256
6
ByLayer
370
18
48
0.05
60
0
100
AcDbLine
10
179
20
0
30
0
11
0
21
0
31
0
39
0
210
0
220
0
230
1
0
LINE
5
8B
100
AcDbEntity
8
80
62
256
6
ByLayer
370
18
48
1
60
0
100
AcDbLine
10
0
20
0
30
0
11
-5
21
0
31
0
39
0
210
0
220
0
230
1
0
LINE
5
8C
100
AcDbEntity
8
SK1
62
256
6
ByLayer
370
18
48
1
60
0
100
AcDbLine
10
-48
20
-4.5
30
0
11
-48
21
-3.603454
31
0
39
0
210
0
220
0
230
1
0
LINE
5
8D
100
AcDbEntity
8
SK1
62
256
6
ByLayer
370
13
48
1
60
0
100
AcDbLine
10
-46.1
20
-2.99791
30
0
11
-46.1
21
-5.4929
31
0
39
0
210
0
220
0
230
1
0
LINE
5
8E
100
AcDbEntity
8
SK1
62
256
6
ByLayer
370
18
48
1
60
0
100
AcDbLine
10
-46
20
-5.517994
30
0
11
-46
21
-3.189397
31
0
39
0
210
0
220
0
230
1
0
LINE
5
8F
100
AcDbEntity
8
SK1
62
256
6
ByLayer
370
18
48
1
60
0
100
AcDbLine
10
0
20
8
30
0
11
0
21
-8
31
0
39
0
210
0
220
0
230
1
0
LINE
5
90
100
AcDbEntity
8
SK1
62
256
6
ByLayer
370
18
48
1
60
0
100
AcDbLine
10
-45.979274
20
8
30
0
11
-45.979274
21
-8
31
0
39
0
210
0
220
0
230
1
0
LINE
5
91
100
AcDbEntity
8
SK1
62
256
6
ByLayer
370
18
48
1
60
0
100
AcDbLine
10
-48
20
4.5
30
0
11
-48
21
-0.730463
31
0
39
0
210
0
220
0
230
1
0
LINE
5
92
100
AcDbEntity
8
SK1
62
256
6
ByLayer
370
18
48
1
60
0
100
AcDbLine
10
-48
20
-0.730511
30
0
11
-48
21
-3.603454
31
0
39
0
210
0
220
0
230
1
0
LINE
5
93
100
AcDbEntity
8
1
62
256
6
ByLayer
370
18
48
1
60
0
100
AcDbLine
10
177.322208
20
-2.366858
30
0
11
178.801431
21
-0.35912
31
0
39
0
210
0
220
0
230
1
0
LINE
5
94
100
AcDbEntity
8
1
62
256
6
ByLayer
370
13
48
1
60
0
100
AcDbLine
10
175.993491
20
1.807052
30
0
11
178.95664
21
-0.068693
31
0
39
0
210
0
220
0
230
1
0
LINE
5
95
100
AcDbEntity
8
1
62
256
6
ByLayer
370
18
48
1
60
0
100
AcDbLine
10
6.429904
20
7.89375
30
0
11
6.429904
21
7.391809
31
0
39
0
210
0
220
0
230
1
0
LINE
5
96
100
AcDbEntity
8
1
62
256
6
ByLayer
370
13
48
1
60
0
100
AcDbLine
10
176.137574
20
1.955071
30
0
11
178.975574
21
0.158549
31
0
39
0
210
0
220
0
230
1
0
LINE
5
97
100
AcDbEntity
8
1
62
256
6
ByLayer
370
18
48
1
60
0
100
AcDbLine
10
174.922429
20
-5.624058
30
0
11
176.057432
21
-4.083528
31
0
39
0
210
0
220
0
230
1
0
LINE
5
98
100
AcDbEntity
8
1
62
256
6
ByLayer
370
18
48
1
60
0
100
AcDbLine
10
6.429904
20
-7.89375
30
0
11
6.429904
21
1.15354
31
0
39
0
210
0
220
0
230
1
0
MTEXT
5
EB
100
AcDbEntity
8
SK6
62
256
6
ByLayer
370
13
48
1
60
0
100
AcDbMText
10
67.629169
20
40.382694
30
0
210
0
220
0
230
1
1
\W0.7324;460.1-1600-120A1-XM GC34
40
3.5
41
0
44
1.084337
50
0
71
8
72
5
7
iso_b_vert
0
DIMENSION
5
F8
100
AcDbEntity
8
SK2
62
256
6
ByLayer
370
13
48
1
60
0
100
AcDbDimension
2
DimnDraft3D1
10
176.6118
20
-18.213398
30
0
11
86.361859
21
-18.213398
31
0
70
32
71
5
72
1
41
1
210
0
220
0
230
1
3
Standard
100
AcDbAlignedDimension
13
0
23
-1.5875
33
0
14
176.6118
24
-9.5875
34
0
50
0
100
AcDbRotatedDimension
1001
ACAD
1000
DSTYLE
1002
{
1070
   279
1070
     0
1070
   172
1070
     1
1070
   173
1070
     1
1070
   340
1005
EC
1070
   271
1070
     2
1070
   272
1070
     2
1070
    77
1070
     1
1070
    73
1070
     0
1070
   171
1070
     3
1070
   274
1070
     4
1070
   177
1070
    35
1070
   176
1070
    35
1070
   178
1070
    35
1070
    48
1040
-0.005
1070
    41
1041
3.5
1070
   147
1041
1.75
1070
    42
1041
1.5875
1070
    44
1041
2.0
1070
   140
1041
3.5
1070
   343
1005
0
1070
   344
1005
0
1002
}
0
DIMENSION
5
102
100
AcDbEntity
8
SK2
62
256
6
ByLayer
370
13
48
1
60
0
100
AcDbDimension
2
DimnDraft3D2
10
179
20
-36.692985
30
0
11
64.4531
21
-36.692985
31
0
70
32
71
5
72
1
41
1
210
0
220
0
230
1
3
Standard
100
AcDbAlignedDimension
13
-48
23
-9.5875
33
0
14
179
24
-1.5875
34
0
50
0
100
AcDbRotatedDimension
1001
ACAD
1000
DSTYLE
1002
{
1070
   279
1070
     0
1070
   172
1070
     1
1070
   173
1070
     1
1070
   340
1005
EC
1070
   271
1070
     2
1070
   272
1070
     2
1070
    77
1070
     1
1070
    73
1070
     0
1070
   171
1070
     3
1070
   274
1070
     4
1070
   177
1070
    35
1070
   176
1070
    35
1070
   178
1070
    35
1070
    48
1040
-0.005
1070
    41
1041
3.5
1070
   147
1041
1.75
1070
    42
1041
1.5875
1070
    44
1041
2.0
1070
   140
1041
3.5
1070
   343
1005
0
1070
   344
1005
0
1002
}
0
DIMENSION
5
10C
100
AcDbEntity
8
SK2
62
256
6
ByLayer
370
13
48
1
60
0
100
AcDbDimension
2
DimnDraft3D3
10
179
20
19.609119
30
0
11
113.81
21
19.609119
31
0
70
32
71
5
72
1
41
1
210
0
220
0
230
1
3
Standard
100
AcDbAlignedDimension
13
48.62
23
9.5875
33
0
14
179
24
1.5875
34
0
50
0
100
AcDbRotatedDimension
1001
ACAD
1000
DSTYLE
1002
{
1070
   279
1070
     0
1070
   172
1070
     1
1070
   173
1070
     1
1070
   340
1005
EC
1070
   271
1070
     2
1070
   272
1070
     2
1070
    77
1070
     1
1070
    73
1070
     0
1070
   171
1070
     3
1070
   274
1070
     4
1070
   177
1070
    35
1070
   176
1070
    35
1070
   178
1070
    35
1070
    48
1040
-0.005
1070
    41
1041
3.5
1070
   147
1041
1.75
1070
    42
1041
1.5875
1070
    44
1041
2.0
1070
   140
1041
3.5
1070
   343
1005
0
1070
   344
1005
0
1002
}
0
DIMENSION
5
116
100
AcDbEntity
8
SK2
62
256
6
ByLayer
370
13
48
1
60
0
100
AcDbDimension
2
DimnDraft3D4
10
176.6118
20
-20.802503
30
0
11
188.981425
21
-20.802503
31
0
70
32
71
5
72
1
41
1
210
0
220
0
230
1
3
Standard
100
AcDbAlignedDimension
13
179
23
-1.5875
33
0
14
176.6118
24
-9.5875
34
0
50
0
100
AcDbRotatedDimension
1001
ACAD
1000
DSTYLE
1002
{
1070
   279
1070
     0
1070
   172
1070
     1
1070
   173
1070
     1
1070
   340
1005
EC
1070
   271
1070
     2
1070
   272
1070
     2
1070
    77
1070
     1
1070
    73
1070
     0
1070
   171
1070
     3
1070
   274
1070
     4
1070
   177
1070
    35
1070
   176
1070
    35
1070
   178
1070
    35
1070
    48
1040
-0.005
1070
    41
1041
3.5
1070
   147
1041
1.75
1070
    42
1041
1.5875
1070
    44
1041
2.0
1070
   140
1041
3.5
1070
   343
1005
0
1070
   344
1005
0
1002
}
0
DIMENSION
5
120
100
AcDbEntity
8
SK2
62
256
6
ByLayer
370
13
48
1
60
0
100
AcDbDimension
2
DimnDraft3D5
10
176.6118
20
-26.343428
30
0
11
61.372476
21
-26.343428
31
0
70
32
71
5
72
1
41
1
210
0
220
0
230
1
3
Standard
100
AcDbAlignedDimension
13
-48
23
-9.5875
33
0
14
176.6118
24
-9.5875
34
0
50
0
100
AcDbRotatedDimension
1001
ACAD
1000
DSTYLE
1002
{
1070
   279
1070
     0
1070
   172
1070
     1
1070
   173
1070
     1
1070
   340
1005
EC
1070
   271
1070
     2
1070
   272
1070
     2
1070
    77
1070
     1
1070
    73
1070
     0
1070
   171
1070
     3
1070
   274
1070
     4
1070
   177
1070
    35
1070
   176
1070
    35
1070
   178
1070
    35
1070
    48
1040
-0.005
1070
    41
1041
3.5
1070
   147
1041
1.75
1070
    42
1041
1.5875
1070
    44
1041
2.0
1070
   140
1041
3.5
1070
   343
1005
0
1070
   344
1005
0
1002
}
0
DIMENSION
5
12B
100
AcDbEntity
8
SK2
62
256
6
ByLayer
370
13
48
1
60
0
100
AcDbDimension
2
DimnDraft3D6
10
-58.625163
20
8
30
0
11
-59.250163
21
26.47418
31
0
70
33
71
5
72
1
41
1
210
0
220
0
230
1
3
Standard
100
AcDbAlignedDimension
13
-49.5875
23
-8
33
0
14
-49.5875
24
8
34
0
1001
ACAD
1000
DSTYLE
1002
{
1070
   279
1070
     0
1070
    74
1070
     0
1070
   173
1070
     1
1070
   340
1005
EC
1070
   271
1070
     3
1070
   272
1070
     2
1070
    77
1070
     1
1070
    73
1070
     0
1070
   171
1070
     3
1070
   274
1070
     4
1070
   177
1070
    35
1070
   176
1070
    35
1070
   178
1070
    35
1070
    48
1040
-0.005
1070
    41
1041
3.5
1070
   147
1041
1.75
1070
    42
1041
1.5875
1070
    44
1041
2.0
1070
   140
1041
3.5
1070
   343
1005
0
1070
   344
1005
0
1002
}
0
DIMENSION
5
136
100
AcDbEntity
8
2
62
256
6
ByLayer
370
13
48
1
60
0
100
AcDbDimension
2
DimnDraft3D7
10
193.083343
20
8
30
0
11
188.458343
21
25.067266
31
0
70
33
71
5
72
1
41
1
210
0
220
0
230
1
3
Standard
100
AcDbAlignedDimension
13
178.1993
23
-8
33
0
14
178.1993
24
8
34
0
1001
ACAD
1000
DSTYLE
1002
{
1070
   279
1070
     0
1070
    74
1070
     0
1070
   173
1070
     1
1070
   340
1005
EC
1070
   271
1070
     3
1070
   272
1070
     2
1070
    77
1070
     1
1070
    73
1070
     0
1070
   171
1070
     3
1070
   274
1070
     4
1070
   177
1070
    35
1070
   176
1070
    35
1070
   178
1070
    35
1070
    48
1040
-0.005
1070
    41
1041
3.5
1070
   147
1041
1.75
1070
    42
1041
1.5875
1070
    44
1041
2.0
1070
   140
1041
3.5
1070
   343
1005
0
1070
   344
1005
0
1002
}
0
ENDSEC
0
SECTION
2
OBJECTS
0
DICTIONARY
5
1a1
330
0
100
AcDbDictionary
280
0
281
1
3
ACAD_GROUP
350
1a2
3
ACAD_MLINESTYLE
350
1a3
0
DICTIONARY
5
1a2
330
0
100
AcDbDictionary
280
0
281
1
0
DICTIONARY
5
1a3
330
0
100
AcDbDictionary
280
0
281
1
3
Standard
350
18
0
MLINESTYLE
5
18
330
1a3
100
AcDbMlineStyle
2
Standard
70
0
3

62
256
51
90
52
90
71
2
49
-0.5
62
256
6
ByLayer
49
0.5
62
256
6
ByLayer
0
RASTERVARIABLES
5
18f
330

100
AcDbRasterVariables
90
0
70
1
71
1
72
1
0
ENDSEC
0
EOF
