0
SECTION
2
HEADER
9
$ACADVER
1
AC1015
9
$DWGCODEPAGE
3
ANSI_1252
9
$HANDSEED
5
1af
9
$ANGBASE
50
0
9
$ANGDIR
70
0
9
$ATTMODE
70
1
9
$AUNITS
70
0
9
$AUPREC
70
0
9
$CECOLOR
62
256
9
$CELTSCALE
40
1
9
$CELTYPE
6
ByLayer
9
$CELWEIGHT
370
18
9
$CLAYER
8
0
9
$CMLJUST
70
0
9
$CMLSCALE
40
1
9
$CMLSTYLE
2
Standard
9
$DIMSTYLE
2
Standard
9
$TEXTSIZE
40
0.2
9
$TEXTSTYLE
7
Standard
9
$LUNITS
70
2
9
$LUPREC
70
4
9
$EXTNAMES
290
1
9
$INSUNITS
70
4
9
$LTSCALE
40
1
9
$LWDISPLAY
290
1
9
$PDMODE
70
0
9
$PDSIZE
40
0
9
$PLINEGEN
70
0
0
ENDSEC
0
SECTION
2
CLASSES
0
CLASS
1
RASTERVARIABLES
2
AcDbRasterVariables
3
ISM
90
0
280
0
281
0
0
ENDSEC
0
SECTION
2
TABLES
0
TABLE
2
VPORT
5
1a5
100
AcDbSymbolTable
0
VPORT
5
1
100
AcDbSymbolTableRecord
100
AcDbViewportTableRecord
2
*Active
70
0
10
0
20
0
11
1
21
1
12
-1
22
1
13
0
23
0
14
0.5
24
0.5
15
10
25
10
16
0
26
0
36
1
17
0
27
0
37
0
0
ENDTAB
0
TABLE
2
LTYPE
5
1a6
100
AcDbSymbolTable
0
LTYPE
5
14
100
AcDbSymbolTableRecord
100
AcDbLinetypeTableRecord
70
0
2
ByBlock
3

72
65
73
0
40
0
0
LTYPE
5
15
100
AcDbSymbolTableRecord
100
AcDbLinetypeTableRecord
70
0
2
ByLayer
3

72
65
73
0
40
0
0
LTYPE
5
16
100
AcDbSymbolTableRecord
100
AcDbLinetypeTableRecord
70
0
2
CONTINUOUS
3
Solid line
72
65
73
0
40
0
0
LTYPE
5
6A
100
AcDbSymbolTableRecord
100
AcDbLinetypeTableRecord
70
0
2
CENTER
3
____ _ ____ _ ____ _ ____
72
65
73
4
40
47.5
49
22
74
0
49
-8.5
74
0
49
8.5
74
0
49
-8.5
74
0
0
LTYPE
5
6B
100
AcDbSymbolTableRecord
100
AcDbLinetypeTableRecord
70
0
2
DASHED
3
__ __ __ __ __ __ __ __ __
72
65
73
2
40
25.72
49
12.86
74
0
49
-12.86
74
0
0
ENDTAB
0
TABLE
2
LAYER
5
1a7
100
AcDbSymbolTable
0
LAYER
5
10
100
AcDbSymbolTableRecord
100
AcDbLayerTableRecord
2
0
70
0
62
7
6
CONTINUOUS
290
1
370
-3
390
0
0
LAYER
5
6D
100
AcDbSymbolTableRecord
100
AcDbLayerTableRecord
2
81
70
0
62
-3
6
CONTINUOUS
290
1
370
-3
390
0
0
LAYER
5
6F
100
AcDbSymbolTableRecord
100
AcDbLayerTableRecord
2
80
70
0
62
-6
6
CONTINUOUS
290
1
370
-3
390
0
0
LAYER
5
74
100
AcDbSymbolTableRecord
100
AcDbLayerTableRecord
2
2
70
0
62
7
6
CONTINUOUS
290
1
370
-3
390
0
0
LAYER
5
78
100
AcDbSymbolTableRecord
100
AcDbLayerTableRecord
2
1
70
0
62
4
6
CONTINUOUS
290
1
370
-3
390
0
0
LAYER
5
8A
100
AcDbSymbolTableRecord
100
AcDbLayerTableRecord
2
4
70
0
62
-2
6
CENTER
290
1
370
-3
390
0
0
LAYER
5
191
100
AcDbSymbolTableRecord
100
AcDbLayerTableRecord
2
SK2
70
0
62
7
6
CONTINUOUS
290
1
370
-3
390
0
0
LAYER
5
192
100
AcDbSymbolTableRecord
100
AcDbLayerTableRecord
2
SK1
70
0
62
4
6
CONTINUOUS
290
1
370
-3
390
0
0
LAYER
5
193
100
AcDbSymbolTableRecord
100
AcDbLayerTableRecord
2
SK4
70
0
62
2
6
CENTER
290
1
370
-3
390
0
0
LAYER
5
194
100
AcDbSymbolTableRecord
100
AcDbLayerTableRecord
2
SK6
70
0
62
5
6
CONTINUOUS
290
1
370
-3
390
0
0
ENDTAB
0
TABLE
2
STYLE
5
1a8
100
AcDbSymbolTable
0
STYLE
5
11
100
AcDbSymbolTableRecord
100
AcDbTextStyleTableRecord
2
Standard
3
txt
70
0
71
0
40
0
41
1
42
0
50
0
0
STYLE
5
ED
100
AcDbSymbolTableRecord
100
AcDbTextStyleTableRecord
2
iso_b_vert
3
simplex.shx
70
0
71
0
40
0
41
1
42
0
50
0
0
STYLE
5
EE
100
AcDbSymbolTableRecord
100
AcDbTextStyleTableRecord
2
DWGDirectTextStyle
3
simplex
70
0
71
0
40
0
41
1
42
0
50
0
0
ENDTAB
0
TABLE
2
DIMSTYLE
5
1a9
100
AcDbSymbolTable
100
AcDbDimStyleTable
0
DIMSTYLE
105
27
100
AcDbSymbolTableRecord
100
AcDbDimStyleTableRecord
2
Standard
70
0
3
<>
41
0.18
42
0.0625
44
0.18
140
0.18
147
0.09
73
0
74
0
77
1
271
2
275
0
278
52
280
0
340
11
0
ENDTAB
0
TABLE
2
VIEW
5
1aa
100
AcDbSymbolTable
0
ENDTAB
0
TABLE
2
UCS
5
1ab
100
AcDbSymbolTable
0
ENDTAB
0
TABLE
2
APPID
5
1ac
100
AcDbSymbolTable
0
APPID
5
12
100
AcDbSymbolTableRecord
100
AcDbRegAppTableRecord
2
ACAD
70
0
0
ENDTAB
0
TABLE
2
BLOCK_RECORD
5
1ad
100
AcDbSymbolTable
0
BLOCK_RECORD
5
1F
100
AcDbSymbolTableRecord
100
AcDbBlockTableRecord
2
*Model_Space
340
0
70
0
0
BLOCK_RECORD
5
1B
100
AcDbSymbolTableRecord
100
AcDbBlockTableRecord
2
*Paper_Space
340
0
70
0
0
BLOCK_RECORD
5
23
100
AcDbSymbolTableRecord
100
AcDbBlockTableRecord
2
*Paper_Space0
340
0
70
0
0
BLOCK_RECORD
5
F0
100
AcDbSymbolTableRecord
100
AcDbBlockTableRecord
2
DimnDraft3D1
340
0
70
0
0
BLOCK_RECORD
5
FA
100
AcDbSymbolTableRecord
100
AcDbBlockTableRecord
2
DimnDraft3D2
340
0
70
0
0
BLOCK_RECORD
5
104
100
AcDbSymbolTableRecord
100
AcDbBlockTableRecord
2
DimnDraft3D3
340
0
70
0
0
BLOCK_RECORD
5
10E
100
AcDbSymbolTableRecord
100
AcDbBlockTableRecord
2
DimnDraft3D4
340
0
70
0
0
BLOCK_RECORD
5
118
100
AcDbSymbolTableRecord
100
AcDbBlockTableRecord
2
DimnDraft3D5
340
0
70
0
0
BLOCK_RECORD
5
122
100
AcDbSymbolTableRecord
100
AcDbBlockTableRecord
2
DimnDraft3D6
340
0
70
0
0
BLOCK_RECORD
5
12D
100
AcDbSymbolTableRecord
100
AcDbBlockTableRecord
2
DimnDraft3D7
340
0
70
0
0
ENDTAB
0
ENDSEC
0
SECTION
2
BLOCKS
0
BLOCK
5
20
100
AcDbEntity
8
0
100
AcDbBlockBegin
2
*Model_Space
70
0
10
0
20
0
30
0
3
*Model_Space
0
ENDBLK
5
21
100
AcDbEntity
8
0
100
AcDbBlockEnd
0
BLOCK
5
1C
100
AcDbEntity
8
0
100
AcDbBlockBegin
2
*Paper_Space
70
0
10
0
20
0
30
0
3
*Paper_Space
0
ENDBLK
5
1D
100
AcDbEntity
8
0
100
AcDbBlockEnd
0
BLOCK
5
24
100
AcDbEntity
8
0
100
AcDbBlockBegin
2
*Paper_Space0
70
0
10
0
20
0
30
0
3
*Paper_Space0
0
ENDBLK
5
25
100
AcDbEntity
8
0
100
AcDbBlockEnd
0
BLOCK
5
F7
100
AcDbEntity
8
0
100
AcDbBlockBegin
2
DimnDraft3D1
70
0
10
0
20
0
30
0
3
DimnDraft3D1
0
MTEXT
5
F1
100
AcDbEntity
8
SK2
62
256
6
ByLayer
370
13
48
1
60
0
100
AcDbMText
10
81.18138
20
-16.878898
30
0
210
0
220
0
230
1
1
\W0.6930;176,75
40
3.5
41
0
44
1.084337
50
0
71
7
72
5
7
iso_b_vert
0
LINE
5
F2
100
AcDbEntity
8
SK2
62
256
6
ByLayer
370
13
48
1
60
0
100
AcDbLine
10
0
20
-1.5875
30
0
11
0
21
-19.753898
31
0
39
0
210
0
220
0
230
1
0
LINE
5
F3
100
AcDbEntity
8
SK2
62
256
6
ByLayer
370
13
48
1
60
0
100
AcDbLine
10
176.7504
20
-9.128
30
0
11
176.7504
21
-19.753898
31
0
39
0
210
0
220
0
230
1
0
LINE
5
F4
100
AcDbEntity
8
SK2
62
256
6
ByLayer
370
13
48
1
60
0
100
AcDbLine
10
0
20
-17.753898
30
0
11
176.7504
21
-17.753898
31
0
39
0
210
0
220
0
230
1
0
SOLID
5
F5
100
AcDbEntity
8
SK2
62
256
6
ByLayer
370
13
48
1
60
0
100
AcDbTrace
10
0
20
-17.753898
30
0
11
3.499998
21
-17.293115
31
0
12
3.500002
22
-18.214682
32
0
13
0
23
-17.753898
33
0
39
0
210
0
220
0
230
1
0
SOLID
5
F6
100
AcDbEntity
8
SK2
62
256
6
ByLayer
370
13
48
1
60
0
100
AcDbTrace
10
176.7504
20
-17.753898
30
0
11
173.250402
21
-18.214682
31
0
12
173.250398
22
-17.293115
32
0
13
176.7504
23
-17.753898
33
0
39
0
210
0
220
0
230
1
0
ENDBLK
5
F8
100
AcDbEntity
8
0
100
AcDbBlockEnd
0
BLOCK
5
101
100
AcDbEntity
8
0
100
AcDbBlockBegin
2
DimnDraft3D2
70
0
10
0
20
0
30
0
3
DimnDraft3D2
0
MTEXT
5
FB
100
AcDbEntity
8
SK2
62
256
6
ByLayer
370
13
48
1
60
0
100
AcDbMText
10
58.835121
20
-35.817985
30
0
210
0
220
0
230
1
1
\W0.7421;227,00
40
3.5
41
0
44
1.084337
50
0
71
7
72
5
7
iso_b_vert
0
LINE
5
FC
100
AcDbEntity
8
SK2
62
256
6
ByLayer
370
13
48
1
60
0
100
AcDbLine
10
-48
20
-9.5875
30
0
11
-48
21
-38.692985
31
0
39
0
210
0
220
0
230
1
0
LINE
5
FD
100
AcDbEntity
8
SK2
62
256
6
ByLayer
370
13
48
1
60
0
100
AcDbLine
10
179
20
-1.5875
30
0
11
179
21
-38.692985
31
0
39
0
210
0
220
0
230
1
0
LINE
5
FE
100
AcDbEntity
8
SK2
62
256
6
ByLayer
370
13
48
1
60
0
100
AcDbLine
10
-48
20
-36.692985
30
0
11
179
21
-36.692985
31
0
39
0
210
0
220
0
230
1
0
SOLID
5
FF
100
AcDbEntity
8
SK2
62
256
6
ByLayer
370
13
48
1
60
0
100
AcDbTrace
10
-48
20
-36.692985
30
0
11
-44.500002
21
-36.232202
31
0
12
-44.499998
22
-37.153769
32
0
13
-48
23
-36.692985
33
0
39
0
210
0
220
0
230
1
0
SOLID
5
100
100
AcDbEntity
8
SK2
62
256
6
ByLayer
370
13
48
1
60
0
100
AcDbTrace
10
179
20
-36.692985
30
0
11
175.500002
21
-37.153769
31
0
12
175.499998
22
-36.232202
32
0
13
179
23
-36.692985
33
0
39
0
210
0
220
0
230
1
0
ENDBLK
5
102
100
AcDbEntity
8
0
100
AcDbBlockEnd
0
BLOCK
5
10B
100
AcDbEntity
8
0
100
AcDbBlockBegin
2
DimnDraft3D3
70
0
10
0
20
0
30
0
3
DimnDraft3D3
0
MTEXT
5
105
100
AcDbEntity
8
SK2
62
256
6
ByLayer
370
13
48
1
60
0
100
AcDbMText
10
112.240921
20
20.024619
30
0
210
0
220
0
230
1
1
\W0.6930;122,88
40
3.5
41
0
44
1.084337
50
0
71
7
72
5
7
iso_b_vert
0
LINE
5
106
100
AcDbEntity
8
SK2
62
256
6
ByLayer
370
13
48
1
60
0
100
AcDbLine
10
56.12
20
9.128
30
0
11
56.12
21
21.149619
31
0
39
0
210
0
220
0
230
1
0
LINE
5
107
100
AcDbEntity
8
SK2
62
256
6
ByLayer
370
13
48
1
60
0
100
AcDbLine
10
179
20
1.5875
30
0
11
179
21
21.149619
31
0
39
0
210
0
220
0
230
1
0
LINE
5
108
100
AcDbEntity
8
SK2
62
256
6
ByLayer
370
13
48
1
60
0
100
AcDbLine
10
56.12
20
19.149619
30
0
11
179
21
19.149619
31
0
39
0
210
0
220
0
230
1
0
SOLID
5
109
100
AcDbEntity
8
SK2
62
256
6
ByLayer
370
13
48
1
60
0
100
AcDbTrace
10
56.12
20
19.149619
30
0
11
59.619998
21
19.610403
31
0
12
59.620002
22
18.688835
32
0
13
56.12
23
19.149619
33
0
39
0
210
0
220
0
230
1
0
SOLID
5
10A
100
AcDbEntity
8
SK2
62
256
6
ByLayer
370
13
48
1
60
0
100
AcDbTrace
10
179
20
19.149619
30
0
11
175.500002
21
18.688835
31
0
12
175.499998
22
19.610403
32
0
13
179
23
19.149619
33
0
39
0
210
0
220
0
230
1
0
ENDBLK
5
10C
100
AcDbEntity
8
0
100
AcDbBlockEnd
0
BLOCK
5
115
100
AcDbEntity
8
0
100
AcDbBlockBegin
2
DimnDraft3D4
70
0
10
0
20
0
30
0
3
DimnDraft3D4
0
MTEXT
5
10F
100
AcDbEntity
8
SK2
62
256
6
ByLayer
370
13
48
1
60
0
100
AcDbMText
10
185.840636
20
-19.468003
30
0
210
0
220
0
230
1
1
\W0.7150;2,25
40
3.5
41
0
44
1.084337
50
0
71
7
72
5
7
iso_b_vert
0
LINE
5
110
100
AcDbEntity
8
SK2
62
256
6
ByLayer
370
13
48
1
60
0
100
AcDbLine
10
179
20
-1.5875
30
0
11
179
21
-22.343003
31
0
39
0
210
0
220
0
230
1
0
LINE
5
111
100
AcDbEntity
8
SK2
62
256
6
ByLayer
370
13
48
1
60
0
100
AcDbLine
10
176.7504
20
-9.128
30
0
11
176.7504
21
-22.343003
31
0
39
0
210
0
220
0
230
1
0
LINE
5
112
100
AcDbEntity
8
SK2
62
256
6
ByLayer
370
13
48
1
60
0
100
AcDbLine
10
168.0004
20
-20.343003
30
0
11
192.997215
21
-20.343003
31
0
39
0
210
0
220
0
230
1
0
SOLID
5
113
100
AcDbEntity
8
SK2
62
256
6
ByLayer
370
13
48
1
60
0
100
AcDbTrace
10
179
20
-20.343003
30
0
11
182.499998
21
-19.882219
31
0
12
182.500002
22
-20.803787
32
0
13
179
23
-20.343003
33
0
39
0
210
0
220
0
230
1
0
SOLID
5
114
100
AcDbEntity
8
SK2
62
256
6
ByLayer
370
13
48
1
60
0
100
AcDbTrace
10
176.7504
20
-20.343003
30
0
11
173.250402
21
-20.803787
31
0
12
173.250398
22
-19.882219
32
0
13
176.7504
23
-20.343003
33
0
39
0
210
0
220
0
230
1
0
ENDBLK
5
116
100
AcDbEntity
8
0
100
AcDbBlockEnd
0
BLOCK
5
11F
100
AcDbEntity
8
0
100
AcDbBlockBegin
2
DimnDraft3D5
70
0
10
0
20
0
30
0
3
DimnDraft3D5
0
MTEXT
5
119
100
AcDbEntity
8
SK2
62
256
6
ByLayer
370
13
48
1
60
0
100
AcDbMText
10
55.570287
20
-25.468428
30
0
210
0
220
0
230
1
1
\W0.7636;224,75
40
3.5
41
0
44
1.084337
50
0
71
7
72
5
7
iso_b_vert
0
LINE
5
11A
100
AcDbEntity
8
SK2
62
256
6
ByLayer
370
13
48
1
60
0
100
AcDbLine
10
-48
20
-9.5875
30
0
11
-48
21
-28.343428
31
0
39
0
210
0
220
0
230
1
0
LINE
5
11B
100
AcDbEntity
8
SK2
62
256
6
ByLayer
370
13
48
1
60
0
100
AcDbLine
10
176.7504
20
-9.128
30
0
11
176.7504
21
-28.343428
31
0
39
0
210
0
220
0
230
1
0
LINE
5
11C
100
AcDbEntity
8
SK2
62
256
6
ByLayer
370
13
48
1
60
0
100
AcDbLine
10
-48
20
-26.343428
30
0
11
176.7504
21
-26.343428
31
0
39
0
210
0
220
0
230
1
0
SOLID
5
11D
100
AcDbEntity
8
SK2
62
256
6
ByLayer
370
13
48
1
60
0
100
AcDbTrace
10
-48
20
-26.343428
30
0
11
-44.500002
21
-25.882645
31
0
12
-44.499998
22
-26.804212
32
0
13
-48
23
-26.343428
33
0
39
0
210
0
220
0
230
1
0
SOLID
5
11E
100
AcDbEntity
8
SK2
62
256
6
ByLayer
370
13
48
1
60
0
100
AcDbTrace
10
176.7504
20
-26.343428
30
0
11
173.250402
21
-26.804212
31
0
12
173.250398
22
-25.882645
32
0
13
176.7504
23
-26.343428
33
0
39
0
210
0
220
0
230
1
0
ENDBLK
5
120
100
AcDbEntity
8
0
100
AcDbBlockEnd
0
BLOCK
5
12A
100
AcDbEntity
8
0
100
AcDbBlockBegin
2
DimnDraft3D6
70
0
10
0
20
0
30
0
3
DimnDraft3D6
0
MTEXT
5
123
100
AcDbEntity
8
SK2
62
256
6
ByLayer
370
13
48
1
60
0
100
AcDbMText
10
-58.375163
20
27.34918
30
0
210
0
220
0
230
1
1
\W0.6930;16,000
40
3.5
41
0
44
1.084337
50
90
71
7
72
5
7
iso_b_vert
0
MTEXT
5
124
100
AcDbEntity
8
SK2
62
256
6
ByLayer
370
13
48
1
60
0
100
AcDbMText
10
-58.375163
20
22.126524
30
0
210
0
220
0
230
1
1
%%c
40
3.5
41
0
44
1.084337
50
90
71
7
72
5
7
iso_b_vert
0
LINE
5
125
100
AcDbEntity
8
SK2
62
256
6
ByLayer
370
13
48
1
60
0
100
AcDbLine
10
-49.5875
20
-8
30
0
11
-58.625163
21
-8
31
0
39
0
210
0
220
0
230
1
0
LINE
5
126
100
AcDbEntity
8
SK2
62
256
6
ByLayer
370
13
48
1
60
0
100
AcDbLine
10
-49.5875
20
8
30
0
11
-58.625163
21
8
31
0
39
0
210
0
220
0
230
1
0
LINE
5
127
100
AcDbEntity
8
SK2
62
256
6
ByLayer
370
13
48
1
60
0
100
AcDbLine
10
-56.625163
20
-8
30
0
11
-56.625163
21
38.862338
31
0
39
0
210
0
220
0
230
1
0
SOLID
5
128
100
AcDbEntity
8
SK2
62
256
6
ByLayer
370
13
48
1
60
0
100
AcDbTrace
10
-56.625163
20
-8
30
0
11
-57.085946
21
-4.500002
31
0
12
-56.164379
22
-4.499998
32
0
13
-56.625163
23
-8
33
0
39
0
210
0
220
0
230
1
0
SOLID
5
129
100
AcDbEntity
8
SK2
62
256
6
ByLayer
370
13
48
1
60
0
100
AcDbTrace
10
-56.625163
20
8
30
0
11
-56.164379
21
4.500002
31
0
12
-57.085946
22
4.499998
32
0
13
-56.625163
23
8
33
0
39
0
210
0
220
0
230
1
0
ENDBLK
5
12B
100
AcDbEntity
8
0
100
AcDbBlockEnd
0
BLOCK
5
135
100
AcDbEntity
8
0
100
AcDbBlockBegin
2
DimnDraft3D7
70
0
10
0
20
0
30
0
3
DimnDraft3D7
0
MTEXT
5
12E
100
AcDbEntity
8
2
62
256
6
ByLayer
370
13
48
1
60
0
100
AcDbMText
10
189.333343
20
25.482766
30
0
210
0
220
0
230
1
1
\W0.6822;15,081
40
3.5
41
0
44
1.084337
50
90
71
7
72
5
7
iso_b_vert
0
MTEXT
5
12F
100
AcDbEntity
8
2
62
256
6
ByLayer
370
13
48
1
60
0
100
AcDbMText
10
189.333343
20
20.26011
30
0
210
0
220
0
230
1
1
%%c
40
3.5
41
0
44
1.084337
50
90
71
7
72
5
7
iso_b_vert
0
LINE
5
130
100
AcDbEntity
8
2
62
256
6
ByLayer
370
13
48
1
60
0
100
AcDbLine
10
178.3379
20
-7.5405
30
0
11
193.083343
21
-7.5405
31
0
39
0
210
0
220
0
230
1
0
LINE
5
131
100
AcDbEntity
8
2
62
256
6
ByLayer
370
13
48
1
60
0
100
AcDbLine
10
178.3379
20
7.5405
30
0
11
193.083343
21
7.5405
31
0
39
0
210
0
220
0
230
1
0
LINE
5
132
100
AcDbEntity
8
2
62
256
6
ByLayer
370
13
48
1
60
0
100
AcDbLine
10
191.083343
20
-7.5405
30
0
11
191.083343
21
36.120924
31
0
39
0
210
0
220
0
230
1
0
SOLID
5
133
100
AcDbEntity
8
2
62
256
6
ByLayer
370
13
48
1
60
0
100
AcDbTrace
10
191.083343
20
-7.5405
30
0
11
190.622559
21
-4.040502
31
0
12
191.544126
22
-4.040498
32
0
13
191.083343
23
-7.5405
33
0
39
0
210
0
220
0
230
1
0
SOLID
5
134
100
AcDbEntity
8
2
62
256
6
ByLayer
370
13
48
1
60
0
100
AcDbTrace
10
191.083343
20
7.5405
30
0
11
191.544126
21
4.040502
31
0
12
190.622559
22
4.040498
32
0
13
191.083343
23
7.5405
33
0
39
0
210
0
220
0
230
1
0
ENDBLK
5
136
100
AcDbEntity
8
0
100
AcDbBlockEnd
0
ENDSEC
0
SECTION
2
ENTITIES
0
ARC
5
9A
100
AcDbEntity
8
1
62
256
6
ByLayer
370
18
48
1
60
0
100
AcDbCircle
39
0
10
-0.306333
20
7.736664
30
0
40
0.306333000000002
210
0
220
0
230
-1
100
AcDbArc
50
269.96419
51
0
0
ARC
5
9B
100
AcDbEntity
8
1
62
256
6
ByLayer
370
18
48
1
60
0
100
AcDbCircle
39
0
10
6.826682
20
7.307416
30
6.7762635780344E-21
40
0.25
210
0
220
5.71013377447428E-06
230
0.999999999983697
100
AcDbArc
50
180
51
270.508501
0
ARC
5
9C
100
AcDbEntity
8
1
62
256
6
ByLayer
370
18
48
1
60
0
100
AcDbCircle
39
0
10
-0.306333
20
-7.736664
30
0
40
0.306333000000002
210
0
220
0
230
-1
100
AcDbArc
50
0
51
90.03581
0
ARC
5
9D
100
AcDbEntity
8
1
62
256
6
ByLayer
370
18
48
1
60
0
100
AcDbCircle
39
0
10
6.826682
20
-7.307416
30
-6.7762635780344E-21
40
0.25
210
0
220
5.71013377447428E-06
230
0.999999999983697
100
AcDbArc
50
90.420714
51
180
0
POINT
5
6C
100
AcDbEntity
8
81
62
256
6
ByLayer
370
18
48
1
60
0
100
AcDbPoint
10
179
20
0
30
0
39
0
210
0
220
0
230
1
50
360
0
POINT
5
6E
100
AcDbEntity
8
80
62
256
6
ByLayer
370
18
48
1
60
0
100
AcDbPoint
10
0
20
0
30
0
39
0
210
0
220
0
230
1
50
360
0
POINT
5
70
100
AcDbEntity
8
SK2
62
256
6
ByLayer
370
18
48
1
60
1
100
AcDbPoint
10
-48
20
-8
30
0
39
0
210
0
220
0
230
1
50
360
0
POINT
5
72
100
AcDbEntity
8
SK2
62
256
6
ByLayer
370
18
48
1
60
1
100
AcDbPoint
10
-48
20
8
30
0
39
0
210
0
220
0
230
1
50
360
0
POINT
5
73
100
AcDbEntity
8
2
62
256
6
ByLayer
370
18
48
1
60
1
100
AcDbPoint
10
176.7504
20
-7.5405
30
0
39
0
210
0
220
0
230
1
50
360
0
POINT
5
75
100
AcDbEntity
8
2
62
256
6
ByLayer
370
18
48
1
60
1
100
AcDbPoint
10
176.7504
20
7.5405
30
0
39
0
210
0
220
0
230
1
50
360
0
SPLINE
5
9E
100
AcDbEntity
8
1
62
256
6
ByLayer
370
18
48
1
60
0
100
AcDbSpline
70
4
71
3
72
16
73
12
40
0
40
0
40
0
40
0
40
0.0878806382913654
40
0.233008985859251
40
0.365715562454226
40
0.475130251003375
40
0.557200519514595
40
0.660530766214465
40
0.752472600714704
40
0.87709973601175
40
1
40
1
40
1
40
1
41
1
10
13.8991290292808
20
7.06094935648454
30
0
41
1
10
13.6919077444726
20
7.06075064730445
30
0
41
1
10
13.1425478249689
20
7.06031441723653
30
0
41
1
10
12.2807086906749
20
7.0609487318462
30
0
41
1
10
11.3682965757811
20
7.06018739981198
30
0
41
1
10
10.6038568549106
20
7.05998621213561
30
0
41
1
10
9.90876799724188
20
7.05983309309187
30
0
41
1
10
9.25485509813257
20
7.05936501710625
30
0
41
1
10
8.50060669343179
20
7.05878039838282
30
0
41
1
10
7.70020067931662
20
7.05809930689767
30
0
41
1
10
7.11661265044586
20
7.05764488538156
30
0
41
1
10
6.8268591407892
20
7.05742200289458
30
0
0
SPLINE
5
9F
100
AcDbEntity
8
1
62
256
6
ByLayer
370
18
48
1
60
0
100
AcDbSpline
70
4
71
3
72
27
73
23
40
0
40
0
40
0
40
0
40
0.0779815665598026
40
0.14975864372797
40
0.209770550215754
40
0.259390416731266
40
0.291608972726163
40
0.327381218497318
40
0.371239435503219
40
0.420699555660928
40
0.457777772476976
40
0.486308227552305
40
0.513082206366942
40
0.554398291639142
40
0.6057923195048
40
0.653328052927212
40
0.696249969621196
40
0.734586300278238
40
0.814307025447739
40
0.889610214407015
40
0.961118308564748
40
1
40
1
40
1
40
1
41
1
10
45.0428613445784
20
-7.08093300160161
30
0
41
1
10
45.3528592372224
20
-7.07991598847528
30
0
41
1
10
45.9518261498856
20
-7.0789574882169
30
0
41
1
10
46.8216561519827
20
-7.07607227131388
30
0
41
1
10
47.5478807816574
20
-7.08231098943509
30
0
41
1
10
48.1228121726078
20
-7.08321303556355
30
0
41
1
10
48.6058716861658
20
-7.08348955292499
30
0
41
1
10
49.0643734916466
20
-7.08361729503895
30
0
41
1
10
49.5937931671394
20
-7.08376442731546
30
0
41
1
10
50.1284347646545
20
-7.08407983804727
30
0
41
1
10
50.6003193495004
20
-7.08454441518927
30
0
41
1
10
50.9791814274551
20
-7.0848334919645
30
0
41
1
10
51.3754109123451
20
-7.08502569413716
30
0
41
1
10
51.8652365035027
20
-7.08516454674952
30
0
41
1
10
52.4400078489214
20
-7.08520751518219
30
0
41
1
10
53.0215845049835
20
-7.08565348110349
30
0
41
1
10
53.5497596615172
20
-7.08620038424948
30
0
41
1
10
54.2099603768192
20
-7.08642876635187
30
0
41
1
10
55.0021679311682
20
-7.08643063870414
30
0
41
1
10
55.9311990242146
20
-7.08788705643835
30
0
41
1
10
56.6927139227168
20
-7.08789193004185
30
0
41
1
10
57.1454204158233
20
-7.08806484260703
30
0
41
1
10
57.3048732282511
20
-7.08811262633952
30
0
0
SPLINE
5
A0
100
AcDbEntity
8
1
62
256
6
ByLayer
370
18
48
1
60
0
100
AcDbSpline
70
4
71
1
72
4
73
2
40
0
40
0
40
1
40
1
41
1
10
110.192758493
20
-0.000622290448888
30
0
41
1
10
110.192770331574
20
-0.0006303853968177
30
0
0
SPLINE
5
A1
100
AcDbEntity
8
1
62
256
6
ByLayer
370
18
48
1
60
0
100
AcDbSpline
70
4
71
3
72
21
73
17
40
0
40
0
40
0
40
0
40
0.0137240285014436
40
0.105246802344751
40
0.200813092662558
40
0.278948049821673
40
0.359803059363424
40
0.447664393365328
40
0.553046816884275
40
0.676114896517815
40
0.741972355719831
40
0.784773990473734
40
0.827209705127038
40
0.882764161826766
40
0.950270893174654
40
1
40
1
40
1
40
1
41
1
10
57.3049066102813
20
7.08805590047487
30
0
41
1
10
57.2682435930344
20
7.08802776858079
30
0
41
1
10
56.9870821904964
20
7.08782295570765
30
0
41
1
10
56.4506228689402
20
7.08814249437293
30
0
41
1
10
55.7420776000272
20
7.08745364791068
30
0
41
1
10
55.0621177813358
20
7.08661804987736
30
0
41
1
10
54.4030744679667
20
7.08644406411278
30
0
41
1
10
53.6711342437533
20
7.08633382354762
30
0
41
1
10
52.8259538709364
20
7.0853656563601
30
0
41
1
10
52.04022276917
20
7.0851836086317
30
0
41
1
10
51.421434617657
20
7.08504557220286
30
0
41
1
10
51.0178098982708
20
7.08485548083888
30
0
41
1
10
50.641686270998
20
7.08458311275959
30
0
41
1
10
50.1995792709199
20
7.08414594400412
30
0
41
1
10
49.7380501148593
20
7.08383864799993
30
0
41
1
10
49.4248954131683
20
7.08372649042599
30
0
41
1
10
49.2920581928804
20
7.08368477313562
30
0
0
SPLINE
5
A2
100
AcDbEntity
8
1
62
256
6
ByLayer
370
18
48
1
60
0
100
AcDbSpline
70
4
71
3
72
25
73
21
40
0
40
0
40
0
40
0
40
0.0656651034063111
40
0.129984288990959
40
0.17903762205023
40
0.212437822244936
40
0.254178184582156
40
0.308652062493905
40
0.360508879030887
40
0.421236923726851
40
0.479849702957731
40
0.544310288347248
40
0.608770535771774
40
0.663120195156032
40
0.719422819106435
40
0.784282684621273
40
0.857335755781992
40
0.920011018121101
40
0.962095226041063
40
1
40
1
40
1
40
1
41
1
10
132.168198651266
20
-7.13551099375783
30
0
41
1
10
132.434723303299
20
-7.13537517243839
30
0
41
1
10
132.962442141892
20
-7.13526869832418
30
0
41
1
10
133.692811030133
20
-7.136318648204
30
0
41
1
10
134.287280161784
20
-7.13640662798093
30
0
41
1
10
134.794176830091
20
-7.13659359255158
30
0
41
1
10
135.322340448735
20
-7.13689838966016
30
0
41
1
10
135.926049929032
20
-7.137491802841
30
0
41
1
10
136.607076616256
20
-7.13760702007528
30
0
41
1
10
137.305004613749
20
-7.13748870374727
30
0
41
1
10
138.054304045292
20
-7.13826103496811
30
0
41
1
10
138.818825366165
20
-7.13897713545444
30
0
41
1
10
139.565965900547
20
-7.13879914046024
30
0
41
1
10
140.279849254219
20
-7.13913965577635
30
0
41
1
10
140.995358571541
20
-7.14016745620236
30
0
41
1
10
141.787120993363
20
-7.14010090990556
30
0
41
1
10
142.604857835594
20
-7.13971386637149
30
0
41
1
10
143.329727079233
20
-7.14109654841263
30
0
41
1
10
143.911321141487
20
-7.14149837047862
30
0
41
1
10
144.237413110332
20
-7.14139983659786
30
0
41
1
10
144.391940821593
20
-7.1412820457488
30
0
0
SPLINE
5
A3
100
AcDbEntity
8
1
62
256
6
ByLayer
370
18
48
1
60
0
100
AcDbSpline
70
4
71
3
72
20
73
16
40
0
40
0
40
0
40
0
40
0.0589080302397558
40
0.147415652669558
40
0.23694702469436
40
0.351618229076844
40
0.461479535817593
40
0.552000398365388
40
0.62867517005063
40
0.709402320296093
40
0.785391650471412
40
0.840191704995045
40
0.897703664863371
40
0.991767494989519
40
1
40
1
40
1
40
1
41
1
10
100.844940388739
20
7.11429312385073
30
0
41
1
10
100.68556042764
20
7.11427973501816
30
0
41
1
10
100.286715948151
20
7.11420241053361
30
0
41
1
10
99.6456339932593
20
7.11436741705222
30
0
41
1
10
98.8536767926267
20
7.11315141567709
30
0
41
1
10
98.0039939216831
20
7.11291910684662
30
0
41
1
10
97.1515762051839
20
7.11305345185622
30
0
41
1
10
96.4019903871163
20
7.11213442747646
30
0
41
1
10
95.7312348524909
20
7.11195896328155
30
0
41
1
10
95.0997715088234
20
7.1119609579481
30
0
41
1
10
94.527500026874
20
7.11174308113897
30
0
41
1
10
94.0180245927567
20
7.11120007127317
30
0
41
1
10
93.4596955290517
20
7.11064132380068
30
0
41
1
10
93.0272100371902
20
7.11067130215932
30
0
41
1
10
92.7505365585313
20
7.1106205506216
30
0
41
1
10
92.72827177756
20
7.1106159759639
30
0
0
SPLINE
5
A4
100
AcDbEntity
8
1
62
256
6
ByLayer
370
18
48
1
60
0
100
AcDbSpline
70
4
71
3
72
29
73
25
40
0
40
0
40
0
40
0
40
0.0711982473388982
40
0.138642101803689
40
0.193936516782673
40
0.240781303085477
40
0.281800735336998
40
0.319077473127353
40
0.366494519231238
40
0.424964766966373
40
0.468365730613089
40
0.498080660817384
40
0.526884284841662
40
0.562310804694981
40
0.603608687355275
40
0.643324700221349
40
0.67955224811352
40
0.724583252058445
40
0.771719648902641
40
0.825893411037269
40
0.883180894000203
40
0.927975551168363
40
0.958670450953685
40
1
40
1
40
1
40
1
41
1
10
88.6022239319392
20
-7.10808460620657
30
0
41
1
10
88.8887887773375
20
-7.10785706286185
30
0
41
1
10
89.4491430898139
20
-7.10761854726255
30
0
41
1
10
90.2418913415448
20
-7.10555524934952
30
0
41
1
10
90.9359630162773
20
-7.10782161107147
30
0
41
1
10
91.5090923604185
20
-7.10998916816294
30
0
41
1
10
92.0197265084807
20
-7.11033127729499
30
0
41
1
10
92.5341721808154
20
-7.11057916367753
30
0
41
1
10
93.1196812850895
20
-7.11067746772574
30
0
41
1
10
93.7303513508928
20
-7.11080701608313
30
0
41
1
10
94.2685750349688
20
-7.11151213489748
30
0
41
1
10
94.6854505845801
20
-7.11179223900174
30
0
41
1
10
95.0697226182062
20
-7.11192915180982
30
0
41
1
10
95.501363900824
20
-7.11198151262661
30
0
41
1
10
95.9776373230582
20
-7.11197157021138
30
0
41
1
10
96.457195423534
20
-7.11225252160861
30
0
41
1
10
96.9520241270873
20
-7.11282006109403
30
0
41
1
10
97.4772038751787
20
-7.11299515861154
30
0
41
1
10
98.075789651841
20
-7.11297184663505
30
0
41
1
10
98.7245074820364
20
-7.11308099420046
30
0
41
1
10
99.3636428116527
20
-7.11398596504634
30
0
41
1
10
99.9067449102697
20
-7.1143154871871
30
0
41
1
10
100.384576716176
20
-7.11422976188197
30
0
41
1
10
100.679181993702
20
-7.11424687530464
30
0
41
1
10
100.848234433674
20
-7.1142511070008
30
0
0
SPLINE
5
A5
100
AcDbEntity
8
1
62
256
6
ByLayer
370
18
48
1
60
0
100
AcDbSpline
70
4
71
3
72
17
73
13
40
0
40
0
40
0
40
0
40
0.0391838825110237
40
0.155322418419642
40
0.337280754220344
40
0.494789263610739
40
0.636158458313792
40
0.785484653148176
40
0.846167763580953
40
0.903533064442467
40
0.966440555748092
40
1
40
1
40
1
40
1
41
1
10
144.392011357169
20
7.14149848932388
30
0
41
1
10
144.286880817656
20
7.14148797174786
30
0
41
1
10
143.870150974267
20
7.14141308983324
30
0
41
1
10
142.965242205771
20
7.14041535243592
30
0
41
1
10
141.742870206869
20
7.14023192589863
30
0
41
1
10
140.452784840506
20
7.13935664946985
30
0
41
1
10
139.250256943821
20
7.1388270457949
30
0
41
1
10
138.307508809342
20
7.13867086466615
30
0
41
1
10
137.590145404982
20
7.1376569354949
30
0
41
1
10
137.104644877502
20
7.13759476452759
30
0
41
1
10
136.691917423869
20
7.13757307477419
30
0
41
1
10
136.433091226274
20
7.13756117100067
30
0
41
1
10
136.343050597553
20
7.13754864785082
30
0
0
SPLINE
5
A6
100
AcDbEntity
8
1
62
256
6
ByLayer
370
18
48
1
60
0
100
AcDbSpline
70
4
71
1
72
4
73
2
40
0
40
0
40
1
40
1
41
1
10
175.748279305667
20
-7.16308637803135
30
0
41
1
10
176.377753529146
20
-7.16332703608168
30
0
0
SPLINE
5
A7
100
AcDbEntity
8
1
62
256
6
ByLayer
370
18
48
1
60
0
100
AcDbSpline
70
4
71
3
72
17
73
13
40
0
40
0
40
0
40
0
40
0.122788927496285
40
0.247303161912574
40
0.339161705449954
40
0.453348016127775
40
0.542333518912046
40
0.636136676107455
40
0.746351010998484
40
0.868729480463453
40
0.985465393205545
40
1
40
1
40
1
40
1
41
1
10
6.82685914078914
20
-7.05742200289455
30
0
41
1
10
7.1166126504458
20
-7.05764488538148
30
0
41
1
10
7.7002007335135
20
-7.05809923267654
30
0
41
1
10
8.50060652255644
20
-7.05878063239132
30
0
41
1
10
9.28069580005513
20
-7.05938436382658
30
0
41
1
10
9.97694146687292
20
-7.0598840771631
30
0
41
1
10
10.67777181449
20
-7.0599751755945
30
0
41
1
10
11.369227400249
20
-7.06022290002437
30
0
41
1
10
12.1391068587129
20
-7.0608033401567
30
0
41
1
10
12.9626724853152
20
-7.06059032607723
30
0
41
1
10
13.5616039746961
20
-7.06041489354817
30
0
41
1
10
13.8712250791791
20
-7.06079370311684
30
0
41
1
10
13.9055064293418
20
-7.06083865906979
30
0
0
SPLINE
5
A8
100
AcDbEntity
8
SK1
62
256
6
ByLayer
370
18
48
1
60
0
100
AcDbSpline
70
4
71
3
72
10
73
6
40
0
40
0
40
0
40
0
40
0.5
40
0.5
40
1
40
1
40
1
40
1
41
1
10
-48
20
-3.60345370222743
30
0
41
1
10
-47.6895025021683
20
-3.92021517785685
30
0
41
1
10
-47.3739502141527
20
-4.23554778080791
30
0
41
1
10
-46.739398465833
20
-4.86498905896039
30
0
41
1
10
-46.4201597311607
20
-5.17909001740694
30
0
41
1
10
-46.1
20
-5.49290021465052
30
0
0
SPLINE
5
A9
100
AcDbEntity
8
SK1
62
256
6
ByLayer
370
18
48
1
60
0
100
AcDbSpline
70
4
71
3
72
8
73
4
40
0
40
0
40
0
40
0
40
1
40
1
40
1
40
1
41
1
10
-46.1
20
-2.99797469734634
30
0
41
1
10
-46.5970050717544
20
-2.51082642597297
30
0
41
1
10
-47.092201871083
20
-2.02311339201131
30
0
41
1
10
-47.5801596727717
20
-1.53317556715413
30
0
0
SPLINE
5
AA
100
AcDbEntity
8
SK1
62
256
6
ByLayer
370
18
48
1
60
0
100
AcDbSpline
70
4
71
3
72
14
73
10
40
0
40
0
40
0
40
0
40
0.25
40
0.25
40
0.5
40
0.5
40
0.75
40
0.75
40
1
40
1
40
1
40
1
41
1
10
-47.5801596727717
20
-1.5331755671541
30
0
41
1
10
-47.6072254358671
20
-1.45084297757279
30
0
41
1
10
-47.6369875381703
20
-1.37025399659396
30
0
41
1
10
-47.699919843103
20
-1.21823184499885
30
0
41
1
10
-47.733187196077
20
-1.14635929556332
30
0
41
1
10
-47.8036126426258
20
-1.01075196281221
30
0
41
1
10
-47.841021132939
20
-0.946703103850069
30
0
41
1
10
-47.9183160606063
20
-0.830276703984197
30
0
41
1
10
-47.9583436101987
20
-0.777525613847388
30
0
41
1
10
-48
20
-0.73046318357234
30
0
0
SPLINE
5
AB
100
AcDbEntity
8
SK1
62
256
6
ByLayer
370
18
48
1
60
0
100
AcDbSpline
70
4
71
3
72
14
73
10
40
0
40
0
40
0
40
0
40
0.125000000000001
40
0.125000000000001
40
0.250000000000002
40
0.250000000000002
40
0.500000000000004
40
0.500000000000004
40
1
40
1
40
1
40
1
41
1
10
-46
20
-3.18939712418231
30
0
41
1
10
-46
20
-3.17954370409484
30
0
41
1
10
-46.0017055870951
20
-3.16868403049813
30
0
41
1
10
-46.0068924291627
20
-3.14764541321145
30
0
41
1
10
-46.0102440228913
20
-3.13769537457577
30
0
41
1
10
-46.0215656644541
20
-3.1087959495863
30
0
41
1
10
-46.030416522685
20
-3.09169350464791
30
0
41
1
10
-46.0585951172059
20
-3.04418751423924
30
0
41
1
10
-46.0788864676936
20
-3.01866949776223
30
0
41
1
10
-46.1
20
-2.99797469734634
30
0
0
SPLINE
5
AC
100
AcDbEntity
8
SK1
62
256
6
ByLayer
370
18
48
1
60
0
100
AcDbSpline
70
4
71
3
72
14
73
10
40
0
40
0
40
0
40
0
40
0.500000000000002
40
0.500000000000002
40
0.750000000000005
40
0.750000000000005
40
0.875000000000003
40
0.875000000000003
40
1
40
1
40
1
40
1
41
1
10
-46.1
20
-5.49290021465055
30
0
41
1
10
-46.078998416482
20
-5.51348528649055
30
0
41
1
10
-46.0586701890239
20
-5.52911609458488
30
0
41
1
10
-46.0304433385198
20
-5.5413335865764
30
0
41
1
10
-46.0214721393577
20
-5.54343310827423
30
0
41
1
10
-46.0103047485395
20
-5.54066579202728
30
0
41
1
10
-46.006895500949
20
-5.53871636669922
30
0
41
1
10
-46.001721316688
20
-5.53132308130367
30
0
41
1
10
-46
20
-5.52580340188879
30
0
41
1
10
-46
20
-5.51799427366623
30
0
0
SPLINE
5
AD
100
AcDbEntity
8
1
62
256
6
ByLayer
370
18
48
1
60
0
100
AcDbSpline
70
4
71
3
72
8
73
4
40
0
40
0
40
0
40
0
40
1
40
1
40
1
40
1
41
1
10
7.17054500066109
20
0.749303043208783
30
0
41
1
10
7.27138755499519
20
0.682434818487849
30
0
41
1
10
7.37343810549567
20
0.617711072175155
30
0
41
1
10
7.47676369313274
20
0.555167204335675
30
0
0
SPLINE
5
AE
100
AcDbEntity
8
1
62
256
6
ByLayer
370
13
48
1
60
0
100
AcDbSpline
70
4
71
3
72
12
73
8
40
0
40
0
40
0
40
0
40
0.214323522855115
40
0.214323522855115
40
0.487694609348853
40
0.487694609348853
40
1
40
1
40
1
40
1
41
1
10
6.8268971085773
20
6.85928987194913
30
0
41
1
10
6.82689635201569
20
6.88749492807207
30
0
41
1
10
6.82689535394644
20
6.91274951916787
30
0
41
1
10
6.82689262261835
20
6.96345787567503
30
0
41
1
10
6.82689075529564
20
6.98709768619523
30
0
41
1
10
6.82688473570687
20
7.04040058506081
30
0
41
1
10
6.8268800430053
20
7.05770387745434
30
0
41
1
10
6.82687511423734
20
7.05766271136929
30
0
0
SPLINE
5
AF
100
AcDbEntity
8
1
62
256
6
ByLayer
370
18
48
1
60
0
100
AcDbSpline
70
4
71
3
72
8
73
4
40
0
40
0
40
0
40
0
40
1
40
1
40
1
40
1
41
1
10
178.740068866891
20
1.81589791134803
30
0
41
1
10
178.829025314863
20
1.2633750466922
30
0
41
1
10
178.907533332249
20
0.7109420442454
30
0
41
1
10
178.975524510919
20
0.158599492354966
30
0
0
SPLINE
5
B0
100
AcDbEntity
8
1
62
256
6
ByLayer
370
18
48
1
60
0
100
AcDbSpline
70
4
71
3
72
118
73
114
40
0
40
0
40
0
40
0
40
0.0056457626199466
40
0.0056457626199466
40
0.0165871600370261
40
0.0165871600370261
40
0.0384699548711856
40
0.0384699548711856
40
0.0603527497053452
40
0.0603527497053452
40
0.0822355445395047
40
0.0822355445395047
40
0.0931769419565847
40
0.0931769419565847
40
0.104118339373665
40
0.104118339373665
40
0.126001134207825
40
0.126001134207825
40
0.147883929041985
40
0.147883929041985
40
0.169766723876145
40
0.169766723876145
40
0.191649518710305
40
0.191649518710305
40
0.213532313544465
40
0.213532313544465
40
0.224473710961546
40
0.224473710961546
40
0.235415108378626
40
0.235415108378626
40
0.257297903212787
40
0.257297903212787
40
0.279180698046947
40
0.279180698046947
40
0.301063492881108
40
0.301063492881108
40
0.312004890298188
40
0.312004890298188
40
0.322946287715268
40
0.322946287715268
40
0.344829082549429
40
0.344829082549429
40
0.36671187738359
40
0.36671187738359
40
0.38859467221775
40
0.38859467221775
40
0.410477467051911
40
0.410477467051911
40
0.432360261886072
40
0.432360261886072
40
0.443301659303152
40
0.443301659303152
40
0.454243056720232
40
0.454243056720232
40
0.476125851554393
40
0.476125851554393
40
0.498008646388553
40
0.498008646388553
40
0.519891441222714
40
0.519891441222714
40
0.530832838639794
40
0.530832838639794
40
0.541774236056874
40
0.541774236056874
40
0.563657030891035
40
0.563657030891035
40
0.585539825725196
40
0.585539825725196
40
0.607422620559356
40
0.607422620559356
40
0.629305415393517
40
0.629305415393517
40
0.651188210227678
40
0.651188210227678
40
0.662129607644758
40
0.662129607644758
40
0.673071005061838
40
0.673071005061838
40
0.694953799895999
40
0.694953799895999
40
0.716836594730161
40
0.716836594730161
40
0.738719389564322
40
0.738719389564322
40
0.749660786981402
40
0.749660786981402
40
0.760602184398483
40
0.760602184398483
40
0.782484979232644
40
0.782484979232644
40
0.804367774066805
40
0.804367774066805
40
0.826250568900966
40
0.826250568900966
40
0.848133363735127
40
0.848133363735127
40
0.870016158569289
40
0.870016158569289
40
0.88095755598637
40
0.88095755598637
40
0.891898953403451
40
0.891898953403451
40
0.913781748237613
40
0.913781748237613
40
0.935664543071776
40
0.935664543071776
40
0.957547337905938
40
0.957547337905938
40
0.968488735323019
40
0.968488735323019
40
0.9794301327401
40
0.9794301327401
40
1
40
1
40
1
40
1
41
1
10
27.9834409117903
20
3.66164377457341
30
0
41
1
10
28.0930673119842
20
3.71281383145109
30
0
41
1
10
28.2026770576536
20
3.76365075929724
30
0
41
1
10
28.524622459889
20
3.91208967706186
30
0
41
1
10
28.7365125835345
20
4.00940110136011
30
0
41
1
10
29.3730831850688
20
4.29580674152558
30
0
41
1
10
29.7986917760029
20
4.47983252225271
30
0
41
1
10
30.6489638771245
20
4.83658221580589
30
0
41
1
10
31.0731586684218
20
5.00885801503213
30
0
41
1
10
31.9224082450783
20
5.33742978655226
30
0
41
1
10
32.3476949492208
20
5.49352777992075
30
0
41
1
10
32.9844550167988
20
5.71803661426043
30
0
41
1
10
33.1966709318519
20
5.7911165929884
30
0
41
1
10
33.6217627484051
20
5.93246219201075
30
0
41
1
10
33.8343401302023
20
6.00084904430244
30
0
41
1
10
34.4719116935257
20
6.19951451638943
30
0
41
1
10
34.8961225742674
20
6.32392961835845
30
0
41
1
10
35.7449156111137
20
6.55445420585991
30
0
41
1
10
36.1698765372307
20
6.66026369276454
30
0
41
1
10
37.0206801211958
20
6.85328651912022
30
0
41
1
10
37.4446211064656
20
6.94091682261373
30
0
41
1
10
38.2939229833179
20
7.09509627246101
30
0
41
1
10
38.7187388133744
20
7.16217855722093
30
0
41
1
10
39.5677230930485
20
7.27668854757832
30
0
41
1
10
39.9928633817909
20
7.32376943479611
30
0
41
1
10
40.6304549358728
20
7.37859928215889
30
0
41
1
10
40.842936695888
20
7.39428037069004
30
0
41
1
10
41.2676176962777
20
7.42049176893028
30
0
41
1
10
41.4794497344732
20
7.4310747822602
30
0
41
1
10
42.1157776150981
20
7.45478222189027
30
0
41
1
10
42.5408908491964
20
7.4600563012288
30
0
41
1
10
43.3908691445727
20
7.44969485335406
30
0
41
1
10
43.8154220061315
20
7.43391797343327
30
0
41
1
10
44.6646194353732
20
7.3816695972217
30
0
41
1
10
45.0897647024175
20
7.34540693726242
30
0
41
1
10
45.7261068314758
20
7.2749888995485
30
0
41
1
10
45.9381189022618
20
7.24885571944097
30
0
41
1
10
46.3629323799536
20
7.19171533319931
30
0
41
1
10
46.5756622919327
20
7.16065005397448
30
0
41
1
10
47.2133984003399
20
7.06006969686774
30
0
41
1
10
47.6375953803644
20
6.98274804322185
30
0
41
1
10
48.4861304009315
20
6.80871226305774
30
0
41
1
10
48.9108442745507
20
6.71232682294448
30
0
41
1
10
49.7609085939545
20
6.50075319849373
30
0
41
1
10
50.1852763972882
20
6.38459380817966
30
0
41
1
10
51.034598389672
20
6.13659285879046
30
0
41
1
10
51.4593008258144
20
6.00419499549514
30
0
41
1
10
52.3078216436774
20
5.72143716807474
30
0
41
1
10
52.732463350759
20
5.57169353237958
30
0
41
1
10
53.3702754029496
20
5.33631954326935
30
0
41
1
10
53.5828002148218
20
5.25605693257381
30
0
41
1
10
54.0075065358479
20
5.09167731095638
30
0
41
1
10
54.2193201757069
20
5.00704920446097
30
0
41
1
10
54.8555087368194
20
4.74905388199343
30
0
41
1
10
55.280409102401
20
4.57137125910199
30
0
41
1
10
56.1297193278969
20
4.20173205438567
30
0
41
1
10
56.5544598819551
20
4.00973355192971
30
0
41
1
10
57.4037485136144
20
3.61704726924663
30
0
41
1
10
57.8288193675315
20
3.41669437017828
30
0
41
1
10
58.4648683559149
20
3.10648127818891
30
0
41
1
10
58.6767532542169
20
3.00166069617995
30
0
41
1
10
59.1012518528963
20
2.79088582250134
30
0
41
1
10
59.3137313841091
20
2.68470827393219
30
0
41
1
10
59.9515987940119
20
2.36337019507133
30
0
41
1
10
60.3759456690383
20
2.14472403770455
30
0
41
1
10
61.22436163206
20
1.70249892603263
30
0
41
1
10
61.6488961251328
20
1.47956881935849
30
0
41
1
10
62.4983639528905
20
1.02965290575691
30
0
41
1
10
62.9226778297892
20
0.80069248113378
30
0
41
1
10
63.7721606580927
20
0.344879773304058
30
0
41
1
10
64.1968253873185
20
0.116887440994787
30
0
41
1
10
65.0450285760218
20
-0.341079260111485
30
0
41
1
10
65.4692086670198
20
-0.569859385607515
30
0
41
1
10
66.1067415441626
20
-0.910595463505928
30
0
41
1
10
66.3194288771518
20
-1.02389708063714
30
0
41
1
10
66.7442335371015
20
-1.24989371059408
30
0
41
1
10
66.9560678589706
20
-1.36330366809963
30
0
41
1
10
67.5922183172831
20
-1.70044044692577
30
0
41
1
10
68.0169745879675
20
-1.92149175470854
30
0
41
1
10
68.8657621110686
20
-2.3598885982685
30
0
41
1
10
69.2902037433767
20
-2.57718218379455
30
0
41
1
10
70.1397219597487
20
-3.00200221596353
30
0
41
1
10
70.5647830176387
20
-3.20907557313569
30
0
41
1
10
71.2006596278595
20
-3.51530605096488
30
0
41
1
10
71.4124470331444
20
-3.61644564983459
30
0
41
1
10
71.8366985986291
20
-3.81519719033199
30
0
41
1
10
72.0490245870004
20
-3.9130401105289
30
0
41
1
10
72.6863463294044
20
-4.20240416215677
30
0
41
1
10
73.1110879703626
20
-4.39071312387759
30
0
41
1
10
73.9595270031015
20
-4.75365093338513
30
0
41
1
10
74.3839509831015
20
-4.92791985189348
30
0
41
1
10
75.2329673476792
20
-5.26254107551981
30
0
41
1
10
75.6567430394969
20
-5.42416541530866
30
0
41
1
10
76.5065245022076
20
-5.72957559652019
30
0
41
1
10
76.9312261222435
20
-5.87394605662891
30
0
41
1
10
77.7792548402711
20
-6.14712895318999
30
0
41
1
10
78.2032218585444
20
-6.2751746000383
30
0
41
1
10
78.8402608703381
20
-6.45333968764177
30
0
41
1
10
79.0527332221868
20
-6.51047931056735
30
0
41
1
10
79.4777111756167
20
-6.62039753682626
30
0
41
1
10
79.6896065546913
20
-6.67341430493633
30
0
41
1
10
80.3258229972551
20
-6.82460887956515
30
0
41
1
10
80.7505054743478
20
-6.91521975409262
30
0
41
1
10
81.5989192011675
20
-7.0777306202709
30
0
41
1
10
82.0227343646709
20
-7.14944943435162
30
0
41
1
10
82.8723369650971
20
-7.2721497412991
30
0
41
1
10
83.2975816450913
20
-7.32305630356166
30
0
41
1
10
83.9334091890991
20
-7.38446804531048
30
0
41
1
10
84.1451289181511
20
-7.40238492456226
30
0
41
1
10
84.5692019570005
20
-7.43283299589265
30
0
41
1
10
84.7814086767359
20
-7.44541748883782
30
0
41
1
10
85.392817271634
20
-7.474163841332
30
0
41
1
10
85.7919932276982
20
-7.48376670844632
30
0
41
1
10
86.1908779532074
20
-7.48400830041493
30
0
0
SPLINE
5
B1
100
AcDbEntity
8
1
62
256
6
ByLayer
370
18
48
1
60
0
100
AcDbSpline
70
4
71
3
72
126
73
122
40
0
40
0
40
0
40
0
40
0.0078213874714738
40
0.0078213874714738
40
0.0296649610433143
40
0.0296649610433143
40
0.0405867478292345
40
0.0405867478292345
40
0.0515085346151547
40
0.0515085346151547
40
0.0733521081869939
40
0.0733521081869939
40
0.0951956817588331
40
0.0951956817588331
40
0.117039255330672
40
0.117039255330672
40
0.127961042116593
40
0.127961042116593
40
0.138882828902513
40
0.138882828902513
40
0.160726402474353
40
0.160726402474353
40
0.182569976046193
40
0.182569976046193
40
0.193491762832114
40
0.193491762832114
40
0.204413549618035
40
0.204413549618035
40
0.226257123189876
40
0.226257123189876
40
0.248100696761718
40
0.248100696761718
40
0.259022483547639
40
0.259022483547639
40
0.26994427033356
40
0.26994427033356
40
0.2917878439054
40
0.2917878439054
40
0.31363141747724
40
0.31363141747724
40
0.335474991049081
40
0.335474991049081
40
0.346396777835002
40
0.346396777835002
40
0.357318564620923
40
0.357318564620923
40
0.379162138192764
40
0.379162138192764
40
0.401005711764605
40
0.401005711764605
40
0.411927498550526
40
0.411927498550526
40
0.422849285336446
40
0.422849285336446
40
0.444692858908286
40
0.444692858908286
40
0.466536432480127
40
0.466536432480127
40
0.477458219266047
40
0.477458219266047
40
0.488380006051968
40
0.488380006051968
40
0.510223579623809
40
0.510223579623809
40
0.532067153195651
40
0.532067153195651
40
0.553910726767492
40
0.553910726767492
40
0.564832513553412
40
0.564832513553412
40
0.575754300339333
40
0.575754300339333
40
0.597597873911173
40
0.597597873911173
40
0.619441447483013
40
0.619441447483013
40
0.630363234268933
40
0.630363234268933
40
0.641285021054854
40
0.641285021054854
40
0.663128594626696
40
0.663128594626696
40
0.684972168198538
40
0.684972168198538
40
0.69589395498446
40
0.69589395498446
40
0.706815741770382
40
0.706815741770382
40
0.728659315342227
40
0.728659315342227
40
0.750502888914072
40
0.750502888914072
40
0.772346462485917
40
0.772346462485917
40
0.783268249271839
40
0.783268249271839
40
0.794190036057761
40
0.794190036057761
40
0.816033609629607
40
0.816033609629607
40
0.837877183201453
40
0.837877183201453
40
0.848798969987376
40
0.848798969987376
40
0.859720756773299
40
0.859720756773299
40
0.881564330345143
40
0.881564330345143
40
0.903407903916988
40
0.903407903916988
40
0.91432969070291
40
0.91432969070291
40
0.925251477488833
40
0.925251477488833
40
0.947095051060679
40
0.947095051060679
40
0.968938624632525
40
0.968938624632525
40
0.990782198204371
40
0.990782198204371
40
1
40
1
40
1
40
1
41
1
10
115.083431774176
20
3.68304354195487
30
0
41
1
10
115.235427283219
20
3.75464487881112
30
0
41
1
10
115.387403028096
20
3.8256498836098
30
0
41
1
10
115.963477276624
20
4.09277648906081
30
0
41
1
10
116.387213945315
20
4.28377403771219
30
0
41
1
10
117.023404058812
20
4.55991192424781
30
0
41
1
10
117.235504816233
20
4.65032708510438
30
0
41
1
10
117.659597027285
20
4.82815636005813
30
0
41
1
10
117.871250189021
20
4.91604302446314
30
0
41
1
10
118.507071446367
20
5.17367806894072
30
0
41
1
10
118.932293038319
20
5.33740842674487
30
0
41
1
10
119.780488422885
20
5.65040773116638
30
0
41
1
10
120.203792686821
20
5.79972426634458
30
0
41
1
10
121.051634528582
20
6.08061511682686
30
0
41
1
10
121.476407337131
20
6.21213081081893
30
0
41
1
10
122.112835995579
20
6.39760718789606
30
0
41
1
10
122.324543076103
20
6.4574543742433
30
0
41
1
10
122.748495625403
20
6.57186209642748
30
0
41
1
10
122.960551566189
20
6.62661688350053
30
0
41
1
10
123.596762409735
20
6.78378430574489
30
0
41
1
10
124.020319510219
20
6.87960427068819
30
0
41
1
10
124.868037161449
20
7.05172069530192
30
0
41
1
10
125.292927896366
20
7.12780032712772
30
0
41
1
10
125.929432573805
20
7.22671809185508
30
0
41
1
10
126.141450836624
20
7.25720763725724
30
0
41
1
10
126.564738977221
20
7.31334714578375
30
0
41
1
10
126.776535022365
20
7.3387554484168
30
0
41
1
10
127.412344471485
20
7.40712702711608
30
0
41
1
10
127.836671245564
20
7.44232604926196
30
0
41
1
10
128.684979484466
20
7.49210373476041
30
0
41
1
10
129.10897936536
20
7.50642863022148
30
0
41
1
10
129.745101120464
20
7.51210426765667
30
0
41
1
10
129.957152669758
20
7.51137634904018
30
0
41
1
10
130.381093949974
20
7.50467059515651
30
0
41
1
10
130.592660142129
20
7.49865402098919
30
0
41
1
10
131.22803090209
20
7.47269675614717
30
0
41
1
10
131.653072442402
20
7.4449860573049
30
0
41
1
10
132.501493649174
20
7.36865371433763
30
0
41
1
10
132.924768590376
20
7.31990895824575
30
0
41
1
10
133.772301407925
20
7.2024132186921
30
0
41
1
10
134.196704584692
20
7.13386490059867
30
0
41
1
10
134.83274417965
20
7.01538827247791
30
0
41
1
10
135.044576459096
20
6.97312956779766
30
0
41
1
10
135.46862975712
20
6.88427597959691
30
0
41
1
10
135.680705551687
20
6.83754799796355
30
0
41
1
10
136.31690842462
20
6.69041476517052
30
0
41
1
10
136.740369175023
20
6.58251793895474
30
0
41
1
10
137.587584214188
20
6.34832428769042
30
0
41
1
10
138.012046013966
20
6.22241637911785
30
0
41
1
10
138.648758657878
20
6.02080991251631
30
0
41
1
10
138.860851572591
20
5.95148708249721
30
0
41
1
10
139.284144953252
20
5.80785438307726
30
0
41
1
10
139.495899617291
20
5.73417730263836
30
0
41
1
10
140.131524061682
20
5.50770048184
30
0
41
1
10
140.555642591395
20
5.34936102697066
30
0
41
1
10
141.40326248379
20
5.01611258736116
30
0
41
1
10
141.827524342799
20
4.84188666188757
30
0
41
1
10
142.463683145215
20
4.5720955867242
30
0
41
1
10
142.675721201513
20
4.48064813617438
30
0
41
1
10
143.099584362348
20
4.29444776625866
30
0
41
1
10
143.311105543667
20
4.19922781531085
30
0
41
1
10
143.946128284306
20
3.90972986209945
30
0
41
1
10
144.370499243722
20
3.71228081909726
30
0
41
1
10
145.219299320252
20
3.30565057763238
30
0
41
1
10
145.642617648705
20
3.09669914437268
30
0
41
1
10
146.489982620434
20
2.672386130544
30
0
41
1
10
146.914152442484
20
2.45728224602974
30
0
41
1
10
147.54980786456
20
2.12787517660837
30
0
41
1
10
147.761362020565
20
2.01652476406343
30
0
41
1
10
148.185450808481
20
1.79364671643117
30
0
41
1
10
148.397634901412
20
1.68182325948587
30
0
41
1
10
149.033934700724
20
1.34522595847719
30
0
41
1
10
149.457375905139
20
1.11804977263438
30
0
41
1
10
150.304230757229
20
0.660831838079417
30
0
41
1
10
150.728122586016
20
0.431673114320773
30
0
41
1
10
151.364719244133
20
0.0872403770964354
30
0
41
1
10
151.577008832262
20
-0.0276797321343167
30
0
41
1
10
152.000390265236
20
-0.258788103773639
30
0
41
1
10
152.212132149364
20
-0.373973251344069
30
0
41
1
10
152.847675533546
20
-0.718131405188188
30
0
41
1
10
153.271658908482
20
-0.945964009565131
30
0
41
1
10
154.118737518416
20
-1.40108918881413
30
0
41
1
10
154.542771007816
20
-1.62745817351285
30
0
41
1
10
155.17907202168
20
-1.96163503067191
30
0
41
1
10
155.391132175875
20
-2.07222265821869
30
0
41
1
10
155.814989639057
20
-2.29211605109432
30
0
41
1
10
156.026508463971
20
-2.40190909442671
30
0
41
1
10
156.661284552556
20
-2.72824928878123
30
0
41
1
10
157.085352008459
20
-2.94076969238287
30
0
41
1
10
157.933481369401
20
-3.35882731948325
30
0
41
1
10
158.357259502032
20
-3.56456542674982
30
0
41
1
10
159.204600268333
20
-3.96339799571078
30
0
41
1
10
159.628608013467
20
-4.15656539147079
30
0
41
1
10
160.263988675039
20
-4.43870874473842
30
0
41
1
10
160.475380562229
20
-4.53191427939396
30
0
41
1
10
160.899083362818
20
-4.71406748644009
30
0
41
1
10
161.111268886552
20
-4.80336926822883
30
0
41
1
10
161.747770836979
20
-5.06578228348127
30
0
41
1
10
162.171269980923
20
-5.23422194627244
30
0
41
1
10
163.017907705158
20
-5.55620458679223
30
0
41
1
10
163.441550356542
20
-5.70912147854838
30
0
41
1
10
164.07763922221
20
-5.92631804339268
30
0
41
1
10
164.289848366476
20
-5.99668552467705
30
0
41
1
10
164.713408614854
20
-6.13414938290197
30
0
41
1
10
164.925166192917
20
-6.20058071762136
30
0
41
1
10
165.560735889971
20
-6.39269651929257
30
0
41
1
10
165.984658719231
20
-6.51145826721566
30
0
41
1
10
166.831348138946
20
-6.73179314253156
30
0
41
1
10
167.254692592361
20
-6.83277100843279
30
0
41
1
10
167.891203716273
20
-6.96930960948106
30
0
41
1
10
168.103335193035
20
-7.01233426070806
30
0
41
1
10
168.52726101203
20
-7.09352907277483
30
0
41
1
10
168.738822162901
20
-7.13184902898442
30
0
41
1
10
169.373455333087
20
-7.23917215780278
30
0
41
1
10
169.797307675968
20
-7.30016881386356
30
0
41
1
10
170.644874346536
20
-7.40210650651156
30
0
41
1
10
171.068649735854
20
-7.44304572972123
30
0
41
1
10
171.916111127455
20
-7.50351474134683
30
0
41
1
10
172.34003104033
20
-7.52317770059886
30
0
41
1
10
172.942207724994
20
-7.5362950052172
30
0
41
1
10
173.120581981145
20
-7.53831967291438
30
0
41
1
10
173.299155960798
20
-7.53845023501523
30
0
0
SPLINE
5
B2
100
AcDbEntity
8
1
62
256
6
ByLayer
370
18
48
1
60
0
100
AcDbSpline
70
4
71
3
72
10
73
6
40
0
40
0
40
0
40
0
40
0.5
40
0.5
40
1
40
1
40
1
40
1
41
1
10
178.999974456682
20
0.0393566275033379
30
0
41
1
10
178.994427574002
20
0.0207307190790402
30
0
41
1
10
178.987732232775
20
0.0012685490529805
30
0
41
1
10
178.972730484421
20
-0.0362569039033076
30
0
41
1
10
178.964686778838
20
-0.0536764041150661
30
0
41
1
10
178.95663418892
20
-0.0686696697283935
30
0
0
SPLINE
5
B3
100
AcDbEntity
8
1
62
256
6
ByLayer
370
18
48
1
60
0
100
AcDbSpline
70
4
71
3
72
18
73
14
40
0
40
0
40
0
40
0
40
0.0931476073430539
40
0.0931476073430539
40
0.199238253452084
40
0.199238253452084
40
0.305328899561115
40
0.305328899561115
40
0.729691483997232
40
0.729691483997232
40
0.941872776215289
40
0.941872776215289
40
1
40
1
40
1
40
1
41
1
10
66.587657513325
20
0.0280171530357052
30
0
41
1
10
66.9750004850855
20
-0.172980260791121
30
0
41
1
10
67.3629773827112
20
-0.374358287901032
30
0
41
1
10
68.194778696732
20
-0.804785246024693
30
0
41
1
10
68.6388880712067
20
-1.03375447445811
30
0
41
1
10
69.5304313596704
20
-1.48937394740562
30
0
41
1
10
69.9747363795283
20
-1.71452196415902
30
0
41
1
10
72.1898310009853
20
-2.82255857671922
30
0
41
1
10
73.9431939971772
20
-3.65192458989938
30
0
41
1
10
76.5850751888689
20
-4.74211306395665
30
0
41
1
10
77.4676661469539
20
-5.07992006462376
30
0
41
1
10
78.5989173434822
20
-5.47047118300665
30
0
41
1
10
78.8428966356149
20
-5.55218575615692
30
0
41
1
10
79.0868816711527
20
-5.6313044173109
30
0
0
SPLINE
5
B4
100
AcDbEntity
8
1
62
256
6
ByLayer
370
13
48
1
60
0
100
AcDbSpline
70
4
71
3
72
18
73
14
40
0
40
0
40
0
40
0
40
0.0531623470124254
40
0.0531623470124254
40
0.17075271808821
40
0.17075271808821
40
0.641114202391348
40
0.641114202391348
40
0.876294944542917
40
0.876294944542917
40
0.993885315618704
40
0.993885315618704
40
1
40
1
40
1
40
1
41
1
10
79.0868826227155
20
-5.63130472588057
30
0
41
1
10
79.2882054814698
20
-5.69658903173737
30
0
41
1
10
79.4895322500691
20
-5.7601058766212
30
0
41
1
10
80.1349091389739
20
-5.95785066699108
30
0
41
1
10
80.5779046554203
20
-6.08465905002944
30
0
41
1
10
82.7880117764877
20
-6.66985495851793
30
0
41
1
10
84.5400564970835
20
-6.98243069565359
30
0
41
1
10
87.1845183088461
20
-7.19285316503164
30
0
41
1
10
88.0686103366036
20
-7.21998549897862
30
0
41
1
10
89.4040869001761
20
-7.19371718588528
30
0
41
1
10
89.8498876232781
20
-7.17376242628703
30
0
41
1
10
90.3182846965537
20
-7.14115730275105
30
0
41
1
10
90.3414371997472
20
-7.13951577874423
30
0
41
1
10
90.3645896222622
20
-7.13784440187322
30
0
0
SPLINE
5
B5
100
AcDbEntity
8
1
62
256
6
ByLayer
370
18
48
1
60
0
100
AcDbSpline
70
4
71
3
72
18
73
14
40
0
40
0
40
0
40
0
40
0.115526377082973
40
0.115526377082973
40
0.320360400990083
40
0.320360400990083
40
0.422777412943639
40
0.422777412943639
40
0.525194424897194
40
0.525194424897194
40
0.934862472711425
40
0.934862472711425
40
1
40
1
40
1
40
1
41
1
10
153.703304787677
20
0.0200253973808628
30
0
41
1
10
154.198314889045
20
-0.238827648626369
30
0
41
1
10
154.693192744784
20
-0.497677342762074
30
0
41
1
10
156.066831103006
20
-1.2121757109297
30
0
41
1
10
156.946554709097
20
-1.66537945212465
30
0
41
1
10
158.273410955084
20
-2.329734246545
30
0
41
1
10
158.71712744822
20
-2.548653870756
30
0
41
1
10
159.607043049577
20
-2.97929789635646
30
0
41
1
10
160.050375393726
20
-3.18960900539693
30
0
41
1
10
162.261218699434
20
-4.21254448867393
30
0
41
1
10
164.011267946972
20
-4.9392924050477
30
0
41
1
10
166.049198273629
20
-5.62996837837301
30
0
41
1
10
166.328980212657
20
-5.72142830269931
30
0
41
1
10
166.609078269891
20
-5.80943994830926
30
0
0
SPLINE
5
B6
100
AcDbEntity
8
1
62
256
6
ByLayer
370
13
48
1
60
0
100
AcDbSpline
70
4
71
3
72
18
73
14
40
0
40
0
40
0
40
0
40
0.185225089079183
40
0.185225089079183
40
0.321020907565985
40
0.321020907565985
40
0.456816726052784
40
0.456816726052784
40
0.728408363026391
40
0.728408363026391
40
0.864204181513197
40
0.864204181513197
40
1
40
1
40
1
40
1
41
1
10
166.609078263786
20
-5.80943994639088
30
0
41
1
10
167.209787548678
20
-5.99819317534786
30
0
41
1
10
167.811950812133
20
-6.17108612402834
30
0
41
1
10
168.860041259516
20
-6.44058047786251
30
0
41
1
10
169.305478217011
20
-6.54535885684902
30
0
41
1
10
170.194089653495
20
-6.73391694644223
30
0
41
1
10
170.63776736154
20
-6.81784410595171
30
0
41
1
10
171.968306575389
20
-7.0377062117484
30
0
41
1
10
172.854696389226
20
-7.141888564917
30
0
41
1
10
174.188411294449
20
-7.23194737598954
30
0
41
1
10
174.633467940306
20
-7.25087445781719
30
0
41
1
10
175.522471510936
20
-7.26619842346
30
0
41
1
10
175.966813969838
20
-7.26262677616927
30
0
41
1
10
176.411387053895
20
-7.2477656459061
30
0
0
SPLINE
5
B7
100
AcDbEntity
8
1
62
256
6
ByLayer
370
18
48
1
60
0
100
AcDbSpline
70
4
71
3
72
14
73
10
40
0
40
0
40
0
40
0
40
0.25
40
0.25
40
0.5
40
0.5
40
0.75
40
0.75
40
1
40
1
40
1
40
1
41
1
10
176.165140094405
20
1.69841295654373
30
0
41
1
10
176.160291069128
20
1.71834022384272
30
0
41
1
10
176.159080927737
20
1.7393248642008
30
0
41
1
10
176.168365315217
20
1.77891865434319
30
0
41
1
10
176.179437091861
20
1.79750660268977
30
0
41
1
10
176.210486522846
20
1.82484409426294
30
0
41
1
10
176.229663114857
20
1.83371762983069
30
0
41
1
10
176.269208129043
20
1.84424547614643
30
0
41
1
10
176.289885792454
20
1.8460890901107
30
0
41
1
10
176.310427191184
20
1.8456699326193
30
0
0
SPLINE
5
B8
100
AcDbEntity
8
1
62
256
6
ByLayer
370
18
48
1
60
0
100
AcDbSpline
70
4
71
3
72
58
73
54
40
0
40
0
40
0
40
0
40
0.0298490695562558
40
0.0298490695562558
40
0.0596981391125117
40
0.0596981391125117
40
0.119396278225025
40
0.119396278225025
40
0.149245347781281
40
0.149245347781281
40
0.179094417337538
40
0.179094417337538
40
0.238792556450053
40
0.238792556450053
40
0.268641626006309
40
0.268641626006309
40
0.298490695562566
40
0.298490695562566
40
0.328339765118822
40
0.328339765118822
40
0.358188834675079
40
0.358188834675079
40
0.417886973787593
40
0.417886973787593
40
0.447736043343851
40
0.447736043343851
40
0.47758511290011
40
0.47758511290011
40
0.537283252012626
40
0.537283252012626
40
0.567132321568884
40
0.567132321568884
40
0.596981391125143
40
0.596981391125143
40
0.65667953023766
40
0.65667953023766
40
0.686528599793919
40
0.686528599793919
40
0.716377669350178
40
0.716377669350178
40
0.776075808462697
40
0.776075808462697
40
0.805924878018957
40
0.805924878018957
40
0.835773947575216
40
0.835773947575216
40
0.895472086687735
40
0.895472086687735
40
0.955170225800254
40
0.955170225800254
40
0.985019295356513
40
0.985019295356513
40
1
40
1
40
1
40
1
41
1
10
176.300775435659
20
-7.52827257574791
30
0
41
1
10
175.859340283712
20
-7.54158584859397
30
0
41
1
10
175.417433854032
20
-7.54340371317747
30
0
41
1
10
174.534075599688
20
-7.52408511977251
30
0
41
1
10
174.093116458458
20
-7.50297742206735
30
0
41
1
10
172.771175800568
20
-7.40576308475374
30
0
41
1
10
171.891032901228
20
-7.29577793898483
30
0
41
1
10
170.567204216937
20
-7.06498992841114
30
0
41
1
10
170.124927526039
20
-6.97699083734258
30
0
41
1
10
169.242441089238
20
-6.78049244098548
30
0
41
1
10
168.801776288477
20
-6.6719409207634
30
0
41
1
10
167.48020158174
20
-6.3166413109652
30
0
41
1
10
166.599720633003
20
-6.04022143241323
30
0
41
1
10
165.274284381526
20
-5.57171946180014
30
0
41
1
10
164.832533790331
20
-5.4068527472663
30
0
41
1
10
163.950634098296
20
-5.06187158484809
30
0
41
1
10
163.510110501922
20
-4.88163907684841
30
0
41
1
10
162.629059105762
20
-4.5069235532975
30
0
41
1
10
162.188521312219
20
-4.31245338539188
30
0
41
1
10
161.30647703722
20
-3.91066303553825
30
0
41
1
10
160.864488239705
20
-3.70312756013377
30
0
41
1
10
159.539246592452
20
-3.06482142634877
30
0
41
1
10
158.658669201874
20
-2.619573127433
30
0
41
1
10
157.336776336038
20
-1.93159078505812
30
0
41
1
10
156.895980050129
20
-1.69890129791054
30
0
41
1
10
156.013094139585
20
-1.22849557134208
30
0
41
1
10
155.570665192658
20
-0.990620878825808
30
0
41
1
10
154.246629138668
20
-0.275243215853323
30
0
41
1
10
153.366268303915
20
0.204925656177636
30
0
41
1
10
152.043714296559
20
0.919860484535917
30
0
41
1
10
151.602543432284
20
1.15731516551045
30
0
41
1
10
150.718597702448
20
1.6287255946776
30
0
41
1
10
150.27682472771
20
1.86215238161273
30
0
41
1
10
148.95371261128
20
2.55172132563513
30
0
41
1
10
148.07331925976
20
2.99773854111206
30
0
41
1
10
146.749804005042
20
3.63683383548957
30
0
41
1
10
146.307644013306
20
3.8451168030148
30
0
41
1
10
145.42398018866
20
4.24893313095907
30
0
41
1
10
144.982867033018
20
4.44431720364236
30
0
41
1
10
143.660345276552
20
5.00901816848534
30
0
41
1
10
142.779717130724
20
5.356821903075
30
0
41
1
10
141.454914588725
20
5.82801103223781
30
0
41
1
10
141.012404801608
20
5.97671044759076
30
0
41
1
10
140.129547421844
20
6.25472861850247
30
0
41
1
10
139.688678517466
20
6.38423730750696
30
0
41
1
10
138.366408236246
20
6.74305665342234
30
0
41
1
10
137.485293767307
20
6.94261652186839
30
0
41
1
10
135.716815499574
20
7.25622984523554
30
0
41
1
10
134.834911465326
20
7.36912622659153
30
0
41
1
10
133.5125949794
20
7.47067894705935
30
0
41
1
10
133.071767445649
20
7.4932493145663
30
0
41
1
10
132.408964429729
20
7.51003044883794
30
0
41
1
10
132.187215208024
20
7.51276171535616
30
0
41
1
10
131.965392109358
20
7.51261153988662
30
0
0
SPLINE
5
B9
100
AcDbEntity
8
1
62
256
6
ByLayer
370
18
48
1
60
0
100
AcDbSpline
70
4
71
3
72
62
73
58
40
0
40
0
40
0
40
0
40
0.0258744579273693
40
0.0258744579273693
40
0.0811660064553713
40
0.0811660064553713
40
0.108811780719373
40
0.108811780719373
40
0.136457554983374
40
0.136457554983374
40
0.191749103511376
40
0.191749103511376
40
0.219394877775378
40
0.219394877775378
40
0.247040652039379
40
0.247040652039379
40
0.302332200567384
40
0.302332200567384
40
0.357623749095387
40
0.357623749095387
40
0.385269523359389
40
0.385269523359389
40
0.412915297623392
40
0.412915297623392
40
0.468206846151395
40
0.468206846151395
40
0.495852620415397
40
0.495852620415397
40
0.523498394679399
40
0.523498394679399
40
0.578789943207403
40
0.578789943207403
40
0.606435717471404
40
0.606435717471404
40
0.634081491735406
40
0.634081491735406
40
0.68937304026341
40
0.68937304026341
40
0.717018814527412
40
0.717018814527412
40
0.744664588791413
40
0.744664588791413
40
0.799956137319417
40
0.799956137319417
40
0.827601911583418
40
0.827601911583418
40
0.85524768584742
40
0.85524768584742
40
0.882893460111421
40
0.882893460111421
40
0.910539234375422
40
0.910539234375422
40
0.965830782903426
40
0.965830782903426
40
0.993476557167427
40
0.993476557167427
40
1
40
1
40
1
40
1
41
1
10
92.8133982730089
20
-7.1145739220118
30
0
41
1
10
92.3995187543437
20
-7.18406183205906
30
0
41
1
10
91.9856792132756
20
-7.24405915950103
30
0
41
1
10
90.6896265807659
20
-7.40124870375672
30
0
41
1
10
89.8082549284173
20
-7.46375243909856
30
0
41
1
10
88.4828848630132
20
-7.48915469839326
30
0
41
1
10
88.0400331916306
20
-7.4862080193794
30
0
41
1
10
87.1557593927748
20
-7.45747191195255
30
0
41
1
10
86.7142642545334
20
-7.43172564434065
30
0
41
1
10
85.3904141163402
20
-7.32083762955423
30
0
41
1
10
84.5087368571108
20
-7.20200777341501
30
0
41
1
10
83.1819846856263
20
-6.95857947918174
30
0
41
1
10
82.7391503287059
20
-6.86653869490092
30
0
41
1
10
81.8556055022555
20
-6.66227876125336
30
0
41
1
10
81.4143105192254
20
-6.54999606364029
30
0
41
1
10
80.09062218948
20
-6.18390855860045
30
0
41
1
10
79.2081713971571
20
-5.90078190265618
30
0
41
1
10
77.4373859879349
20
-5.26417172330034
30
0
41
1
10
76.5552301482992
20
-4.91293342070412
30
0
41
1
10
75.2313987875077
20
-4.34458245968668
30
0
41
1
10
74.7900476248277
20
-4.14817845260393
30
0
41
1
10
73.9061807461048
20
-3.74296913372677
30
0
41
1
10
73.4631218441742
20
-3.5338985330549
30
0
41
1
10
72.1363844462816
20
-2.89254783693014
30
0
41
1
10
71.2545470792144
20
-2.44597676083973
30
0
41
1
10
69.930236908549
20
-1.7573839976516
30
0
41
1
10
69.488518106665
20
-1.52477409457501
30
0
41
1
10
68.6036833074556
20
-1.05487718857162
30
0
41
1
10
68.1607979422108
20
-0.817632174536783
30
0
41
1
10
66.8351749553145
20
-0.10510286657464
30
0
41
1
10
65.9533567351578
20
0.372190763451386
30
0
41
1
10
64.6282591935042
20
1.08172700321609
30
0
41
1
10
64.1859409763052
20
1.31722176344709
30
0
41
1
10
63.3004206315373
20
1.78393155086263
30
0
41
1
10
62.8584605123303
20
2.01447712930394
30
0
41
1
10
61.5335413873337
20
2.69517583136286
30
0
41
1
10
60.6516025022264
20
3.13449684190587
30
0
41
1
10
59.3253758776462
20
3.76253324114063
30
0
41
1
10
58.8822090776214
20
3.96692639336049
30
0
41
1
10
57.9975308605469
20
4.36204327966985
30
0
41
1
10
57.5558327533493
20
4.55294360563582
30
0
41
1
10
56.2313661432626
20
5.1038407497083
30
0
41
1
10
55.3490596222307
20
5.44179548220987
30
0
41
1
10
54.021403892459
20
5.89755790403109
30
0
41
1
10
53.5784533029897
20
6.04079220162629
30
0
41
1
10
52.6944759759991
20
6.30766956019451
30
0
41
1
10
52.2529703037748
20
6.43153762822567
30
0
41
1
10
51.3700356692707
20
6.65933510535999
30
0
41
1
10
50.9285904989906
20
6.76324962281453
30
0
41
1
10
50.0448428191221
20
6.95033177693924
30
0
41
1
10
49.6023415831664
20
7.03358953992765
30
0
41
1
10
48.2738310032954
20
7.25071487682641
30
0
41
1
10
47.3911817818581
20
7.35136579261334
30
0
41
1
10
46.0666626936161
20
7.43477114481883
30
0
41
1
10
45.624998481719
20
7.45129205152466
30
0
41
1
10
45.0783602404171
20
7.45765428507951
30
0
41
1
10
44.9739417196978
20
7.45823367115105
30
0
41
1
10
44.8694918490942
20
7.45817826724362
30
0
0
SPLINE
5
BA
100
AcDbEntity
8
1
62
256
6
ByLayer
370
18
48
1
60
0
100
AcDbSpline
70
4
71
3
72
8
73
4
40
0
40
0
40
0
40
0
40
1
40
1
40
1
40
1
41
1
10
176.300775435659
20
7.52827257574788
30
0
41
1
10
176.038541201273
20
7.53618131590272
30
0
41
1
10
175.776078027831
20
7.54003071700771
30
0
41
1
10
175.513688627975
20
7.53983034281367
30
0
0
SPLINE
5
BB
100
AcDbEntity
8
1
62
256
6
ByLayer
370
18
48
1
60
0
100
AcDbSpline
70
4
71
3
72
62
73
58
40
0
40
0
40
0
40
0
40
0.0483307895323602
40
0.0483307895323602
40
0.0760116557302566
40
0.0760116557302566
40
0.103692521928153
40
0.103692521928153
40
0.159054254323946
40
0.159054254323946
40
0.186735120521841
40
0.186735120521841
40
0.214415986719737
40
0.214415986719737
40
0.269777719115528
40
0.269777719115528
40
0.297458585313424
40
0.297458585313424
40
0.32513945151132
40
0.32513945151132
40
0.380501183907111
40
0.380501183907111
40
0.408182050105006
40
0.408182050105006
40
0.435862916302901
40
0.435862916302901
40
0.491224648698692
40
0.491224648698692
40
0.518905514896589
40
0.518905514896589
40
0.546586381094485
40
0.546586381094485
40
0.574267247292381
40
0.574267247292381
40
0.601948113490278
40
0.601948113490278
40
0.657309845886071
40
0.657309845886071
40
0.684990712083968
40
0.684990712083968
40
0.712671578281865
40
0.712671578281865
40
0.768033310677659
40
0.768033310677659
40
0.795714176875556
40
0.795714176875556
40
0.823395043073453
40
0.823395043073453
40
0.878756775469246
40
0.878756775469246
40
0.906437641667142
40
0.906437641667142
40
0.934118507865038
40
0.934118507865038
40
0.989480240260831
40
0.989480240260831
40
1
40
1
40
1
40
1
41
1
10
136.263814532677
20
-7.15711592853856
30
0
41
1
10
135.492698354736
20
-7.28419260046317
30
0
41
1
10
134.723471550629
20
-7.3776720395002
30
0
41
1
10
133.512967330985
20
-7.47065760337972
30
0
41
1
10
133.071975238353
20
-7.49324525811394
30
0
41
1
10
132.188789919761
20
-7.5156037178659
30
0
41
1
10
131.746177125203
20
-7.51533864499905
30
0
41
1
10
130.421418146476
20
-7.48023295740558
30
0
41
1
10
129.540604196131
20
-7.41120406373966
30
0
41
1
10
128.21752577786
20
-7.24094338106474
30
0
41
1
10
127.776159674846
20
-7.17308751599174
30
0
41
1
10
126.891919010627
20
-7.01545258555782
30
0
41
1
10
126.44984652988
20
-6.92578626580169
30
0
41
1
10
125.126016183245
20
-6.62623834578821
30
0
41
1
10
124.245196420366
20
-6.38548883982159
30
0
41
1
10
122.921227570829
20
-5.96773730183997
30
0
41
1
10
122.478954556719
20
-5.81891667558608
30
0
41
1
10
121.594771841925
20
-5.50414334035378
30
0
41
1
10
121.153416877662
20
-5.33840137893762
30
0
41
1
10
119.830181493478
20
-4.8180546786468
30
0
41
1
10
118.94921621965
20
-4.44019698803962
30
0
41
1
10
117.62390208737
20
-3.83506805185877
30
0
41
1
10
117.181192678226
20
-3.62671573966503
30
0
41
1
10
116.297865565106
20
-3.20066484780497
30
0
41
1
10
115.856755665137
20
-2.98278817095692
30
0
41
1
10
114.533816803106
20
-2.3168254794613
30
0
41
1
10
113.652419456315
20
-1.85632547623425
30
0
41
1
10
112.325534553273
20
-1.15066464651937
30
0
41
1
10
111.883428801522
20
-0.91340906060725
30
0
41
1
10
111.000688573177
20
-0.437724911236188
30
0
41
1
10
110.559726772709
20
-0.199137477361234
30
0
41
1
10
109.677775535029
20
0.277959479649155
30
0
41
1
10
109.236792456657
20
0.516480812342706
30
0
41
1
10
108.3538217393
20
0.991630474129266
30
0
41
1
10
107.911333029445
20
1.22851737450796
30
0
41
1
10
106.584822285007
20
1.93193721106053
30
0
41
1
10
105.703437881876
20
2.39042336991216
30
0
41
1
10
104.380093172939
20
3.05248754298779
30
0
41
1
10
103.938835324859
20
3.26901780318218
30
0
41
1
10
103.055051360753
20
3.69205030484204
30
0
41
1
10
102.612210990344
20
3.89859814920496
30
0
41
1
10
101.286804277682
20
4.4977663440327
30
0
41
1
10
100.405668996584
20
4.87143362630169
30
0
41
1
10
99.0816543860687
20
5.38466685048803
30
0
41
1
10
98.6399882143662
20
5.54795329141214
30
0
41
1
10
97.7551294387935
20
5.85770213175203
30
0
41
1
10
97.3130184825977
20
6.00370266631509
30
0
41
1
10
95.9885371381501
20
6.41286085285191
30
0
41
1
10
95.1072978134554
20
6.64780971975844
30
0
41
1
10
93.7823458589817
20
6.93820467227204
30
0
41
1
10
93.3396740723216
20
7.02477251844019
30
0
41
1
10
92.4552126277209
20
7.17602174926657
30
0
41
1
10
92.0136749642312
20
7.24066600172935
30
0
41
1
10
90.6897987240616
20
7.40122330585902
30
0
41
1
10
89.8082816400615
20
7.46377168661473
30
0
41
1
10
88.7560896233314
20
7.48391464899547
30
0
41
1
10
88.5879600267596
20
7.48547927525004
30
0
41
1
10
88.419816065758
20
7.48539438162302
30
0
0
SPLINE
5
BC
100
AcDbEntity
8
1
62
256
6
ByLayer
370
18
48
1
60
0
100
AcDbSpline
70
4
71
3
72
54
73
50
40
0
40
0
40
0
40
0
40
0.0010613679012651
40
0.0010613679012651
40
0.063495032407437
40
0.063495032407437
40
0.0947118646605229
40
0.0947118646605229
40
0.125928696913608
40
0.125928696913608
40
0.188362361419781
40
0.188362361419781
40
0.219579193672867
40
0.219579193672867
40
0.250796025925953
40
0.250796025925953
40
0.313229690432125
40
0.313229690432125
40
0.34444652268521
40
0.34444652268521
40
0.375663354938296
40
0.375663354938296
40
0.438097019444467
40
0.438097019444467
40
0.469313851697552
40
0.469313851697552
40
0.500530683950637
40
0.500530683950637
40
0.562964348456807
40
0.562964348456807
40
0.625398012962977
40
0.625398012962977
40
0.656614845216063
40
0.656614845216063
40
0.687831677469148
40
0.687831677469148
40
0.750265341975318
40
0.750265341975318
40
0.781482174228404
40
0.781482174228404
40
0.812699006481489
40
0.812699006481489
40
0.87513267098766
40
0.87513267098766
40
0.906349503240745
40
0.906349503240745
40
0.93756633549383
40
0.93756633549383
40
1
40
1
40
1
40
1
41
1
10
49.2033688468301
20
-7.09875987956949
30
0
41
1
10
49.1883233717727
20
-7.10124340928419
30
0
41
1
10
49.1732786058942
20
-7.10371419432761
30
0
41
1
10
48.2732903603894
20
-7.25076151773811
30
0
41
1
10
47.3909087658188
20
-7.35139871626353
30
0
41
1
10
46.066106839837
20
-7.4347982750497
30
0
41
1
10
45.6242339065155
20
-7.45131960917104
30
0
41
1
10
44.7390331946309
20
-7.46158495253115
30
0
41
1
10
44.2958836356822
20
-7.45529175050737
30
0
41
1
10
42.9695841108752
20
-7.40237089134601
30
0
41
1
10
42.0872874621696
20
-7.32180831251037
30
0
41
1
10
40.7616615912016
20
-7.13476462573476
30
0
41
1
10
40.3192550284352
20
-7.06138706617517
30
0
41
1
10
39.4331892207957
20
-6.89303406293689
30
0
41
1
10
38.9909815757348
20
-6.79831950933183
30
0
41
1
10
37.6654183210823
20
-6.48384747519057
30
0
41
1
10
36.7830773274733
20
-6.23380048044177
30
0
41
1
10
35.4563169444037
20
-5.80320643772967
30
0
41
1
10
35.0129396549449
20
-5.65026329074365
30
0
41
1
10
34.1278067146673
20
-5.328094721193
30
0
41
1
10
33.6859331133975
20
-5.15881484876593
30
0
41
1
10
32.3607705249153
20
-4.62868300696871
30
0
41
1
10
31.4781452009295
20
-4.24525648038926
30
0
41
1
10
30.1499650098708
20
-3.63305751963978
30
0
41
1
10
29.7067405550394
20
-3.42287615045265
30
0
41
1
10
28.8223638029258
20
-2.99371134353908
30
0
41
1
10
28.3806680833038
20
-2.77449453817908
30
0
41
1
10
27.0556446324908
20
-2.1054351587336
30
0
41
1
10
26.1719913307278
20
-1.64392183582561
30
0
41
1
10
24.3995813692055
20
-0.703742783205627
30
0
41
1
10
23.5167149431284
20
-0.227925801849864
30
0
41
1
10
22.1915159331397
20
0.483333602684326
30
0
41
1
10
21.749643958431
20
0.720029653442339
30
0
41
1
10
20.8647523184169
20
1.19101361540964
30
0
41
1
10
20.4212060781191
20
1.42556581208487
30
0
41
1
10
19.0932149584985
20
2.12031189137875
30
0
41
1
10
18.2106262578297
20
2.57225607859149
30
0
41
1
10
16.8849453308999
20
3.22295198978839
30
0
41
1
10
16.4427659529273
20
3.43534265701018
30
0
41
1
10
15.5569670157965
20
3.84959796862685
30
0
41
1
10
15.1136525902705
20
4.05129222373657
30
0
41
1
10
13.7864540146443
20
4.63559932922456
30
0
41
1
10
12.9033307563683
20
4.9983641084539
30
0
41
1
10
11.5757368635456
20
5.49459699766612
30
0
41
1
10
11.1322212670501
20
5.65220344661216
30
0
41
1
10
10.2466280756299
20
5.94910507959287
30
0
41
1
10
9.80445099417017
20
6.08846264148602
30
0
41
1
10
8.47833804762519
20
6.47783381360389
30
0
41
1
10
7.59474277889251
20
6.69910814770449
30
0
41
1
10
6.70846775016545
20
6.87896804232969
30
0
0
SPLINE
5
BD
100
AcDbEntity
8
1
62
256
6
ByLayer
370
18
48
1
60
0
100
AcDbSpline
70
4
71
3
72
18
73
14
40
0
40
0
40
0
40
0
40
0.249999999999996
40
0.249999999999996
40
0.374999999999997
40
0.374999999999997
40
0.499999999999998
40
0.499999999999998
40
0.749999999999999
40
0.749999999999999
40
0.874999999999999
40
0.874999999999999
40
1
40
1
40
1
40
1
41
1
10
176.327212523657
20
-7.15698109515765
30
0
41
1
10
176.171411713673
20
-7.14018061002054
30
0
41
1
10
176.026972485801
20
-7.09050683671853
30
0
41
1
10
175.828902854622
20
-6.96221066769064
30
0
41
1
10
175.765845142882
20
-6.91015183126672
30
0
41
1
10
175.648800061915
20
-6.78942035918394
30
0
41
1
10
175.594480576666
20
-6.72060470980719
30
0
41
1
10
175.444205286501
20
-6.48865925070788
30
0
41
1
10
175.360818752003
20
-6.30025990732537
30
0
41
1
10
175.263075376973
20
-5.96270314752436
30
0
41
1
10
175.235095377614
20
-5.84063897909968
30
0
41
1
10
175.189788925771
20
-5.58249571311285
30
0
41
1
10
175.172272783709
20
-5.44588378410367
30
0
41
1
10
175.159937134197
20
-5.30166784308994
30
0
0
SPLINE
5
BE
100
AcDbEntity
8
1
62
256
6
ByLayer
370
18
48
1
60
0
100
AcDbSpline
70
4
71
3
72
62
73
58
40
0
40
0
40
0
40
0
40
0.0439715335503572
40
0.0439715335503572
40
0.0659573003255352
40
0.0659573003255352
40
0.0879430671007132
40
0.0879430671007132
40
0.131914600651069
40
0.131914600651069
40
0.175886134201425
40
0.175886134201425
40
0.219857667751781
40
0.219857667751781
40
0.241843434526959
40
0.241843434526959
40
0.263829201302137
40
0.263829201302137
40
0.307800734852493
40
0.307800734852493
40
0.35177226840285
40
0.35177226840285
40
0.395743801953206
40
0.395743801953206
40
0.439715335503562
40
0.439715335503562
40
0.483686869053918
40
0.483686869053918
40
0.505672635829096
40
0.505672635829096
40
0.527658402604274
40
0.527658402604274
40
0.57162993615463
40
0.57162993615463
40
0.615601469704986
40
0.615601469704986
40
0.659573003255342
40
0.659573003255342
40
0.68155877003052
40
0.68155877003052
40
0.703544536805698
40
0.703544536805698
40
0.747516070356053
40
0.747516070356053
40
0.791487603906408
40
0.791487603906408
40
0.835459137456763
40
0.835459137456763
40
0.879430671007118
40
0.879430671007118
40
0.923402204557473
40
0.923402204557473
40
0.94538797133265
40
0.94538797133265
40
0.967373738107827
40
0.967373738107827
40
1
40
1
40
1
40
1
41
1
10
13.6542362380257
20
3.69374906680389
30
0
41
1
10
14.0786958388176
20
3.4942893224559
30
0
41
1
10
14.5033783926275
20
3.2909937795533
30
0
41
1
10
15.1410658695327
20
2.98107081015172
30
0
41
1
10
15.3536785581438
20
2.87683234884452
30
0
41
1
10
15.7785887780407
20
2.66577082085925
30
0
41
1
10
15.990559820472
20
2.55837047803507
30
0
41
1
10
16.6274789187449
20
2.23482123701615
30
0
41
1
10
17.0535471425931
20
2.01686049165494
30
0
41
1
10
17.9035477750977
20
1.57438155033785
30
0
41
1
10
18.3277182832262
20
1.34989058130372
30
0
41
1
10
19.1771590413397
20
0.899470053314388
30
0
41
1
10
19.6026520497
20
0.673978073987172
30
0
41
1
10
20.2399547186897
20
0.331385182306576
30
0
41
1
10
20.4522958032328
20
0.216620044408899
30
0
41
1
10
20.877223461621
20
-0.0116607717303907
30
0
41
1
10
21.0897490443537
20
-0.125498524759337
30
0
41
1
10
21.7272633735965
20
-0.466573001523614
30
0
41
1
10
22.151563138296
20
-0.694537211559606
30
0
41
1
10
23.0007533718264
20
-1.14786939547415
30
0
41
1
10
23.4263629050287
20
-1.37270024513899
30
0
41
1
10
24.2769134447332
20
-1.81782762172054
30
0
41
1
10
24.7007574264333
20
-2.03979647779104
30
0
41
1
10
25.5501817487487
20
-2.47424207501947
30
0
41
1
10
25.9751875903201
20
-2.68778890867225
30
0
41
1
10
26.8247833033697
20
-3.10922323561778
30
0
41
1
10
27.2499378599821
20
-3.31593280630511
30
0
41
1
10
27.887417109314
20
-3.61717013175621
30
0
41
1
10
28.0998924175435
20
-3.71625998858011
30
0
41
1
10
28.524622459889
20
-3.91208967706186
30
0
41
1
10
28.7365125835344
20
-4.00940110136011
30
0
41
1
10
29.3730831850689
20
-4.29580674152558
30
0
41
1
10
29.7986917760029
20
-4.47983252225268
30
0
41
1
10
30.6489638771245
20
-4.83658221580592
30
0
41
1
10
31.0731586684218
20
-5.00885801503213
30
0
41
1
10
31.9224082450782
20
-5.33742978655226
30
0
41
1
10
32.3476949492208
20
-5.49352777992075
30
0
41
1
10
32.9844550167988
20
-5.71803661426043
30
0
41
1
10
33.1966709318519
20
-5.7911165929884
30
0
41
1
10
33.6217627484051
20
-5.93246219201075
30
0
41
1
10
33.8343401302023
20
-6.00084904430247
30
0
41
1
10
34.4719116935257
20
-6.19951451638943
30
0
41
1
10
34.8961225742673
20
-6.32392961835845
30
0
41
1
10
35.7449156111137
20
-6.55445420585991
30
0
41
1
10
36.1698765372307
20
-6.66026369276454
30
0
41
1
10
37.0206801211958
20
-6.85328651912025
30
0
41
1
10
37.4446211064656
20
-6.94091682261373
30
0
41
1
10
38.2939229833179
20
-7.09509627246101
30
0
41
1
10
38.7187388133745
20
-7.16217855722095
30
0
41
1
10
39.5677230930485
20
-7.27668854757832
30
0
41
1
10
39.9928633817909
20
-7.32376943479611
30
0
41
1
10
40.6304549358728
20
-7.37859928215889
30
0
41
1
10
40.842936695888
20
-7.39428037069004
30
0
41
1
10
41.2676176962778
20
-7.42049176893028
30
0
41
1
10
41.4794497344732
20
-7.4310747822602
30
0
41
1
10
42.0063232767045
20
-7.45070432086044
30
0
41
1
10
42.3215800672341
20
-7.45663367486921
30
0
41
1
10
42.6369132517371
20
-7.45679640132064
30
0
0
SPLINE
5
BF
100
AcDbEntity
8
1
62
256
6
ByLayer
370
18
48
1
60
0
100
AcDbSpline
70
4
71
3
72
124
73
120
40
0
40
0
40
0
40
0
40
0.0015304869662537
40
0.0015304869662537
40
0.0124623158640008
40
0.0124623158640008
40
0.0343259736594949
40
0.0343259736594949
40
0.0561896314549888
40
0.0561896314549888
40
0.0780532892504821
40
0.0780532892504821
40
0.0999169470459756
40
0.0999169470459756
40
0.121780604841469
40
0.121780604841469
40
0.132712433739216
40
0.132712433739216
40
0.143644262636962
40
0.143644262636962
40
0.165507920432457
40
0.165507920432457
40
0.187371578227951
40
0.187371578227951
40
0.209235236023446
40
0.209235236023446
40
0.220167064921193
40
0.220167064921193
40
0.23109889381894
40
0.23109889381894
40
0.252962551614434
40
0.252962551614434
40
0.274826209409929
40
0.274826209409929
40
0.296689867205424
40
0.296689867205424
40
0.318553525000918
40
0.318553525000918
40
0.340417182796412
40
0.340417182796412
40
0.35134901169416
40
0.35134901169416
40
0.362280840591907
40
0.362280840591907
40
0.384144498387401
40
0.384144498387401
40
0.406008156182896
40
0.406008156182896
40
0.42787181397839
40
0.42787181397839
40
0.438803642876138
40
0.438803642876138
40
0.449735471773886
40
0.449735471773886
40
0.471599129569381
40
0.471599129569381
40
0.493462787364877
40
0.493462787364877
40
0.504394616262624
40
0.504394616262624
40
0.515326445160371
40
0.515326445160371
40
0.537190102955865
40
0.537190102955865
40
0.55905376075136
40
0.55905376075136
40
0.569985589649107
40
0.569985589649107
40
0.580917418546854
40
0.580917418546854
40
0.602781076342348
40
0.602781076342348
40
0.624644734137843
40
0.624644734137843
40
0.646508391933337
40
0.646508391933337
40
0.657440220831084
40
0.657440220831084
40
0.668372049728831
40
0.668372049728831
40
0.690235707524327
40
0.690235707524327
40
0.712099365319822
40
0.712099365319822
40
0.72303119421757
40
0.72303119421757
40
0.733963023115318
40
0.733963023115318
40
0.755826680910813
40
0.755826680910813
40
0.777690338706309
40
0.777690338706309
40
0.788622167604057
40
0.788622167604057
40
0.799553996501804
40
0.799553996501804
40
0.8214176542973
40
0.8214176542973
40
0.843281312092795
40
0.843281312092795
40
0.865144969888291
40
0.865144969888291
40
0.876076798786039
40
0.876076798786039
40
0.887008627683786
40
0.887008627683786
40
0.908872285479282
40
0.908872285479282
40
0.930735943274777
40
0.930735943274777
40
0.941667772172526
40
0.941667772172526
40
0.952599601070274
40
0.952599601070274
40
0.974463258865771
40
0.974463258865771
40
0.996326916661267
40
0.996326916661267
40
1
40
1
40
1
40
1
41
1
10
71.5354966854545
20
3.67398130434708
30
0
41
1
10
71.5651830291937
20
3.68796106980895
30
0
41
1
10
71.5948746063071
20
3.70190853116506
30
0
41
1
10
71.836698598629
20
3.81519719033196
30
0
41
1
10
72.0490245870002
20
3.9130401105289
30
0
41
1
10
72.6863463294043
20
4.20240416215674
30
0
41
1
10
73.1110879703625
20
4.39071312387756
30
0
41
1
10
73.9595270031014
20
4.7536509333851
30
0
41
1
10
74.3839509831014
20
4.92791985189348
30
0
41
1
10
75.2329673476791
20
5.26254107551978
30
0
41
1
10
75.6567430394969
20
5.42416541530866
30
0
41
1
10
76.5065245022076
20
5.72957559652019
30
0
41
1
10
76.9312261222434
20
5.87394605662888
30
0
41
1
10
77.7792548402711
20
6.14712895318999
30
0
41
1
10
78.2032218585443
20
6.2751746000383
30
0
41
1
10
78.840260870338
20
6.45333968764174
30
0
41
1
10
79.0527332221868
20
6.51047931056735
30
0
41
1
10
79.4777111756167
20
6.62039753682623
30
0
41
1
10
79.6896065546913
20
6.67341430493633
30
0
41
1
10
80.325822997255
20
6.82460887956515
30
0
41
1
10
80.7505054743478
20
6.91521975409259
30
0
41
1
10
81.5989192011674
20
7.0777306202709
30
0
41
1
10
82.0227343646708
20
7.1494494343516
30
0
41
1
10
82.872336965097
20
7.2721497412991
30
0
41
1
10
83.2975816450912
20
7.32305630356169
30
0
41
1
10
83.933409189099
20
7.38446804531046
30
0
41
1
10
84.145128918151
20
7.40238492456226
30
0
41
1
10
84.5692019570004
20
7.43283299589265
30
0
41
1
10
84.7814086767359
20
7.44541748883782
30
0
41
1
10
85.418291818962
20
7.47536156789857
30
0
41
1
10
85.8429504555791
20
7.48495524024125
30
0
41
1
10
86.6915575460241
20
7.4829249528828
30
0
41
1
10
87.1159410903572
20
7.47139213102605
30
0
41
1
10
87.9646535206459
20
7.42752552810131
30
0
41
1
10
88.3880123044602
20
7.39488020481932
30
0
41
1
10
89.2373265095258
20
7.30923826922748
30
0
41
1
10
89.6624448268737
20
7.25621525004229
30
0
41
1
10
90.5104422433735
20
7.12948176406638
30
0
41
1
10
90.9342634817037
20
7.05600137712736
30
0
41
1
10
91.5709134414892
20
6.93147731055132
30
0
41
1
10
91.7832220714236
20
6.88755319398251
30
0
41
1
10
92.2078393974826
20
6.79471631635329
30
0
41
1
10
92.4198737910531
20
6.74548978946564
30
0
41
1
10
93.0562634233525
20
6.59136160345236
30
0
41
1
10
93.4809438938994
20
6.48003584958585
30
0
41
1
10
94.3291364657672
20
6.23860241255622
30
0
41
1
10
94.7527106961026
20
6.10844071859674
30
0
41
1
10
95.6015867741176
20
5.83210336717647
30
0
41
1
10
96.0271653270509
20
5.68624563683539
30
0
41
1
10
96.6630704931295
20
5.45420561596146
30
0
41
1
10
96.8747529354613
20
5.37464434028186
30
0
41
1
10
97.2987168022084
20
5.21261638923426
30
0
41
1
10
97.5108388857375
20
5.12995365026987
30
0
41
1
10
98.1473913059712
20
4.87675199057401
30
0
41
1
10
98.5714853933347
20
4.70005264214967
30
0
41
1
10
99.4204050343678
20
4.33370975144345
30
0
41
1
10
99.844817792145
20
4.14505490364115
30
0
41
1
10
100.481234276801
20
3.85375822428486
30
0
41
1
10
100.693223698572
20
3.75508973146341
30
0
41
1
10
101.11673067666
20
3.55428598296373
30
0
41
1
10
101.328700873081
20
3.45288325465302
30
0
41
1
10
101.965191510707
20
3.14561127359173
30
0
41
1
10
102.390434559786
20
2.93632947290985
30
0
41
1
10
103.238546918764
20
2.50850607236413
30
0
41
1
10
103.662290934259
20
2.29092758303307
30
0
41
1
10
104.298657560293
20
1.96125778336099
30
0
41
1
10
104.510844162105
20
1.85071227645653
30
0
41
1
10
104.935162025433
20
1.62797385807758
30
0
41
1
10
105.146944343799
20
1.51514371020721
30
0
41
1
10
105.783321670296
20
1.17616866020813
30
0
41
1
10
106.208235116
20
0.949886954040892
30
0
41
1
10
107.056354753776
20
0.493651085577795
30
0
41
1
10
107.479758749743
20
0.263659022426083
30
0
41
1
10
108.328047844426
20
-0.194901292860663
30
0
41
1
10
108.753469025199
20
-0.423299478620862
30
0
41
1
10
109.389574131475
20
-0.766917390025753
30
0
41
1
10
109.601251139808
20
-0.881658364968246
30
0
41
1
10
110.025173977598
20
-1.10917870632326
30
0
41
1
10
110.237245383927
20
-1.22228200668914
30
0
41
1
10
110.873572607402
20
-1.56003151186755
30
0
41
1
10
111.297304591113
20
-1.78427020469184
30
0
41
1
10
112.145670117092
20
-2.22745149015265
30
0
41
1
10
112.570501167669
20
-2.44554160892827
30
0
41
1
10
113.206906760494
20
-2.76678828586054
30
0
41
1
10
113.418889902548
20
-2.87309099375858
30
0
41
1
10
113.842250350097
20
-3.08461678439653
30
0
41
1
10
114.054117587347
20
-3.1890051095375
30
0
41
1
10
114.69021532522
20
-3.49820087055966
30
0
41
1
10
115.115101294455
20
-3.69938310818657
30
0
41
1
10
115.963477276624
20
-4.09277648906081
30
0
41
1
10
116.387213945315
20
-4.28377403771216
30
0
41
1
10
117.023404058812
20
-4.55991192424778
30
0
41
1
10
117.235504816233
20
-4.65032708510438
30
0
41
1
10
117.659597027285
20
-4.8281563600581
30
0
41
1
10
117.871250189021
20
-4.91604302446308
30
0
41
1
10
118.507071446367
20
-5.17367806894072
30
0
41
1
10
118.932293038319
20
-5.33740842674487
30
0
41
1
10
119.780488422885
20
-5.65040773116635
30
0
41
1
10
120.203792686821
20
-5.79972426634455
30
0
41
1
10
121.051634528582
20
-6.08061511682686
30
0
41
1
10
121.47640733713
20
-6.21213081081893
30
0
41
1
10
122.112835995579
20
-6.39760718789603
30
0
41
1
10
122.324543076103
20
-6.45745437424327
30
0
41
1
10
122.748495625403
20
-6.57186209642748
30
0
41
1
10
122.960551566189
20
-6.6266168835005
30
0
41
1
10
123.596762409735
20
-6.78378430574489
30
0
41
1
10
124.020319510219
20
-6.87960427068819
30
0
41
1
10
124.868037161449
20
-7.05172069530192
30
0
41
1
10
125.292927896366
20
-7.12780032712772
30
0
41
1
10
125.929432573805
20
-7.22671809185508
30
0
41
1
10
126.141450836624
20
-7.25720763725727
30
0
41
1
10
126.564738977221
20
-7.31334714578372
30
0
41
1
10
126.776535022365
20
-7.33875544841683
30
0
41
1
10
127.412344471485
20
-7.40712702711608
30
0
41
1
10
127.836671245564
20
-7.44232604926196
30
0
41
1
10
128.684979484465
20
-7.49210373476043
30
0
41
1
10
129.10897936536
20
-7.50642863022148
30
0
41
1
10
129.604305955323
20
-7.51084805797109
30
0
41
1
10
129.67555261303
20
-7.51118796454151
30
0
41
1
10
129.746797023542
20
-7.51123191246865
30
0
0
SPLINE
5
C0
100
AcDbEntity
8
1
62
256
6
ByLayer
370
18
48
1
60
0
100
AcDbSpline
70
4
71
3
72
44
73
40
40
0
40
0
40
0
40
0
40
0.0080764475052389
40
0.0080764475052389
40
0.0789281298262989
40
0.0789281298262989
40
0.114353970986829
40
0.114353970986829
40
0.149779812147359
40
0.149779812147359
40
0.220631494468418
40
0.220631494468418
40
0.291483176789478
40
0.291483176789478
40
0.326909017950006
40
0.326909017950006
40
0.362334859110534
40
0.362334859110534
40
0.433186541431589
40
0.433186541431589
40
0.504038223752645
40
0.504038223752645
40
0.539464064913171
40
0.539464064913171
40
0.574889906073697
40
0.574889906073697
40
0.645741588394746
40
0.645741588394746
40
0.716593270715794
40
0.716593270715794
40
0.787444953036843
40
0.787444953036843
40
0.822870794197369
40
0.822870794197369
40
0.858296635357895
40
0.858296635357895
40
0.929148317678947
40
0.929148317678947
40
1
40
1
40
1
40
1
41
1
10
158.636041706797
20
3.69554483577639
30
0
41
1
10
158.684339342904
20
3.71843627979157
30
0
41
1
10
158.732635314087
20
3.74125006816217
30
0
41
1
10
159.204600268333
20
3.96339799571078
30
0
41
1
10
159.628608013467
20
4.15656539147048
30
0
41
1
10
160.263988675039
20
4.43870874473859
30
0
41
1
10
160.475380562229
20
4.53191427939396
30
0
41
1
10
160.899083362818
20
4.71406748644006
30
0
41
1
10
161.111268886552
20
4.80336926822881
30
0
41
1
10
161.747770836979
20
5.0657822834813
30
0
41
1
10
162.171269980923
20
5.23422194627241
30
0
41
1
10
163.017907705158
20
5.55620458679221
30
0
41
1
10
163.441550356542
20
5.70912147854838
30
0
41
1
10
164.07763922221
20
5.92631804339266
30
0
41
1
10
164.289848366476
20
5.99668552467699
30
0
41
1
10
164.713408614853
20
6.13414938290197
30
0
41
1
10
164.925166192916
20
6.20058071762131
30
0
41
1
10
165.560735889971
20
6.39269651929257
30
0
41
1
10
165.984658719231
20
6.51145826721566
30
0
41
1
10
166.831348138946
20
6.73179314253156
30
0
41
1
10
167.25469259236
20
6.83277100843276
30
0
41
1
10
167.891203716273
20
6.96930960948106
30
0
41
1
10
168.103335193035
20
7.01233426070806
30
0
41
1
10
168.52726101203
20
7.0935290727748
30
0
41
1
10
168.738822162901
20
7.13184902898442
30
0
41
1
10
169.373455333087
20
7.23917215780278
30
0
41
1
10
169.797307675968
20
7.30016881386354
30
0
41
1
10
170.644874346536
20
7.40210650651156
30
0
41
1
10
171.068649735854
20
7.44304572972123
30
0
41
1
10
171.916111127455
20
7.50351474134683
30
0
41
1
10
172.34003104033
20
7.52317770059886
30
0
41
1
10
172.975242322465
20
7.53701460278549
30
0
41
1
10
173.186518603514
20
7.53900438976541
30
0
41
1
10
173.609905979249
20
7.53765220565188
30
0
41
1
10
173.821820441044
20
7.53433331365153
30
0
41
1
10
174.458123425506
20
7.51651049778854
30
0
41
1
10
174.882061807658
20
7.4940606344675
30
0
41
1
10
175.728998805181
20
7.42809753091345
30
0
41
1
10
176.152758573738
20
7.38474324683486
30
0
41
1
10
176.57696013295
20
7.33116668942273
30
0
0
SPLINE
5
C1
100
AcDbEntity
8
1
62
256
6
ByLayer
370
18
48
1
60
0
100
AcDbSpline
70
4
71
3
72
14
73
10
40
0
40
0
40
0
40
0
40
0.25
40
0.25
40
0.5
40
0.5
40
0.75
40
0.75
40
1
40
1
40
1
40
1
41
1
10
176.429500760539
20
-7.15435069132692
30
0
41
1
10
176.431889650387
20
-7.15365404519585
30
0
41
1
10
176.433594432682
20
-7.15476418846217
30
0
41
1
10
176.435183958726
20
-7.16177642432285
30
0
41
1
10
176.434993027525
20
-7.16768854421957
30
0
41
1
10
176.432025653675
20
-7.18475519717606
30
0
41
1
10
176.429202272695
20
-7.19595845259303
30
0
41
1
10
176.421382522392
20
-7.22113199008979
30
0
41
1
10
176.41653050549
20
-7.23469394315325
30
0
41
1
10
176.411387053894
20
-7.24776564590613
30
0
0
SPLINE
5
C2
100
AcDbEntity
8
1
62
256
6
ByLayer
370
18
48
1
60
0
100
AcDbSpline
70
4
71
3
72
8
73
4
40
0
40
0
40
0
40
0
40
1
40
1
40
1
40
1
41
1
10
178.801447741885
20
-0.359075702664256
30
0
41
1
10
177.976702669142
20
-2.62504416682853
30
0
41
1
10
177.1519575964
20
-4.89101263099261
30
0
41
1
10
176.327212523657
20
-7.15698109515637
30
0
0
SPLINE
5
C3
100
AcDbEntity
8
1
62
256
6
ByLayer
370
18
48
1
60
0
100
AcDbSpline
70
4
71
3
72
12
73
8
40
0
40
0
40
0
40
0
40
0.25
40
0.25
40
0.5
40
0.5
40
1
40
1
40
1
40
1
41
1
10
176.57696013295
20
-7.33116668942273
30
0
41
1
10
176.759402232041
20
-6.87364343371874
30
0
41
1
10
176.941652166022
20
-6.41568016005627
30
0
41
1
10
177.305436954074
20
-5.49879330505595
30
0
41
1
10
177.48696600769
20
-5.03986091307701
30
0
41
1
10
178.02913752641
20
-3.66080055907617
30
0
41
1
10
178.387406205503
20
-2.73877307339828
30
0
41
1
10
178.740068866891
20
-1.81589791134803
30
0
0
SPLINE
5
C4
100
AcDbEntity
8
1
62
256
6
ByLayer
370
18
48
1
60
0
100
AcDbSpline
70
4
71
3
72
8
73
4
40
0
40
0
40
0
40
0
40
1
40
1
40
1
40
1
41
1
10
176.411387053894
20
-7.24776564590613
30
0
41
1
10
176.374545454242
20
-7.3413958532968
30
0
41
1
10
176.337672923096
20
-7.43489711847468
30
0
41
1
10
176.300775435659
20
-7.52827257574793
30
0
0
SPLINE
5
C5
100
AcDbEntity
8
1
62
256
6
ByLayer
370
18
48
1
60
0
100
AcDbSpline
70
4
71
3
72
36
73
32
40
0
40
0
40
0
40
0
40
0.0863110569870512
40
0.0863110569870512
40
0.129466585480577
40
0.129466585480577
40
0.172622113974102
40
0.172622113974102
40
0.258933170961151
40
0.258933170961151
40
0.3452442279482
40
0.3452442279482
40
0.431555284935249
40
0.431555284935249
40
0.517866341922298
40
0.517866341922298
40
0.604177398909347
40
0.604177398909347
40
0.690488455896396
40
0.690488455896396
40
0.733643984389919
40
0.733643984389919
40
0.776799512883442
40
0.776799512883442
40
0.863110569870486
40
0.863110569870486
40
0.949421626857531
40
0.949421626857531
40
0.992577155351053
40
0.992577155351053
40
1
40
1
40
1
40
1
41
1
10
13.6542362380257
20
-7.06091429345801
30
0
41
1
10
14.0674506966175
20
-7.06259496388023
30
0
41
1
10
14.4802598213884
20
-7.05534938267721
30
0
41
1
10
15.09841014235
20
-7.0300257798043
30
0
41
1
10
15.3043223139349
20
-7.0191492503331
30
0
41
1
10
15.7161724411963
20
-6.99260597173659
30
0
41
1
10
15.9223717691532
20
-6.97701951399975
30
0
41
1
10
16.541352654593
20
-6.92345462510715
30
0
41
1
10
16.9542298593329
20
-6.87849615559375
30
0
41
1
10
17.7789438395314
20
-6.77046751119454
30
0
41
1
10
18.1911078306501
20
-6.70731119450809
30
0
41
1
10
19.0157893627462
20
-6.56442670919768
30
0
41
1
10
19.427988509409
20
-6.4852395554401
30
0
41
1
10
20.2525637102219
20
-6.3069326672059
30
0
41
1
10
20.6656920366614
20
-6.20936782334678
30
0
41
1
10
21.4901371023459
20
-5.9972822393525
30
0
41
1
10
21.9020737699179
20
-5.88284985004302
30
0
41
1
10
22.7267517533918
20
-5.63899990767666
30
0
41
1
10
23.1398297608044
20
-5.50962792314994
30
0
41
1
10
23.7583931405331
20
-5.3049141523224
30
0
41
1
10
23.9643885139316
20
-5.23485804112471
30
0
41
1
10
24.3763077334434
20
-5.09161653225792
30
0
41
1
10
24.5826334202203
20
-5.01905767763282
30
0
41
1
10
25.2010984111469
20
-4.79544747592905
30
0
41
1
10
25.6131796948409
20
-4.63836994643336
30
0
41
1
10
26.4382079740169
20
-4.31240354394723
30
0
41
1
10
26.850887455324
20
-4.14357622321521
30
0
41
1
10
27.4694503439028
20
-3.88283180036174
30
0
41
1
10
27.6755613807367
20
-3.79455415909669
30
0
41
1
10
27.9170327950127
20
-3.68950022945134
30
0
41
1
10
27.9524654498757
20
-3.67403675593261
30
0
41
1
10
27.987894790358
20
-3.65853128755413
30
0
0
SPLINE
5
C6
100
AcDbEntity
8
1
62
256
6
ByLayer
370
18
48
1
60
0
100
AcDbSpline
70
4
71
3
72
124
73
120
40
0
40
0
40
0
40
0
40
0.0150575075391027
40
0.0150575075391027
40
0.0257517798800612
40
0.0257517798800612
40
0.0364460522210196
40
0.0364460522210196
40
0.0578345969029371
40
0.0578345969029371
40
0.0792231415848547
40
0.0792231415848547
40
0.0899174139258135
40
0.0899174139258135
40
0.100611686266772
40
0.100611686266772
40
0.12200023094869
40
0.12200023094869
40
0.143388775630609
40
0.143388775630609
40
0.154083047971568
40
0.154083047971568
40
0.164777320312527
40
0.164777320312527
40
0.186165864994445
40
0.186165864994445
40
0.207554409676363
40
0.207554409676363
40
0.228942954358282
40
0.228942954358282
40
0.239637226699241
40
0.239637226699241
40
0.2503314990402
40
0.2503314990402
40
0.271720043722119
40
0.271720043722119
40
0.293108588404038
40
0.293108588404038
40
0.314497133085956
40
0.314497133085956
40
0.335885677767875
40
0.335885677767875
40
0.357274222449794
40
0.357274222449794
40
0.378662767131712
40
0.378662767131712
40
0.400051311813631
40
0.400051311813631
40
0.421439856495549
40
0.421439856495549
40
0.442828401177468
40
0.442828401177468
40
0.453522673518427
40
0.453522673518427
40
0.464216945859387
40
0.464216945859387
40
0.485605490541307
40
0.485605490541307
40
0.506994035223226
40
0.506994035223226
40
0.528382579905146
40
0.528382579905146
40
0.539076852246106
40
0.539076852246106
40
0.549771124587066
40
0.549771124587066
40
0.571159669268985
40
0.571159669268985
40
0.592548213950904
40
0.592548213950904
40
0.603242486291862
40
0.603242486291862
40
0.613936758632821
40
0.613936758632821
40
0.635325303314739
40
0.635325303314739
40
0.656713847996656
40
0.656713847996656
40
0.667408120337615
40
0.667408120337615
40
0.678102392678574
40
0.678102392678574
40
0.69949093736049
40
0.69949093736049
40
0.720879482042407
40
0.720879482042407
40
0.742268026724323
40
0.742268026724323
40
0.75296229906528
40
0.75296229906528
40
0.763656571406238
40
0.763656571406238
40
0.785045116088152
40
0.785045116088152
40
0.806433660770066
40
0.806433660770066
40
0.817127933111023
40
0.817127933111023
40
0.82782220545198
40
0.82782220545198
40
0.849210750133893
40
0.849210750133893
40
0.870599294815806
40
0.870599294815806
40
0.891987839497719
40
0.891987839497719
40
0.902682111838675
40
0.902682111838675
40
0.913376384179631
40
0.913376384179631
40
0.934764928861543
40
0.934764928861543
40
0.956153473543455
40
0.956153473543455
40
0.977542018225367
40
0.977542018225367
40
0.998930562907278
40
0.998930562907278
40
1
40
1
40
1
40
1
41
1
10
57.3079260817585
20
7.08803504983405
30
0
41
1
10
57.5981546733654
20
7.08807405314764
30
0
41
1
10
57.8883730028489
20
7.08359228934088
30
0
41
1
10
58.3843863539827
20
7.06804624812057
30
0
41
1
10
58.5906881878893
20
7.05927150670033
30
0
41
1
10
59.0028535490693
20
7.03663967137851
30
0
41
1
10
59.208857901891
20
7.02284625447274
30
0
41
1
10
59.8267013228746
20
6.97447787205135
30
0
41
1
10
60.2385320939916
20
6.93325375779611
30
0
41
1
10
61.0631867540682
20
6.83314836227552
30
0
41
1
10
61.4757538690289
20
6.77388420521029
30
0
41
1
10
62.0934776243892
20
6.67095248847883
30
0
41
1
10
62.2991257699843
20
6.63425479014091
30
0
41
1
10
62.7110290979413
20
6.55710284333324
30
0
41
1
10
62.9172067743091
20
6.51664158119777
30
0
41
1
10
63.5353951815072
20
6.38857929766956
30
0
41
1
10
63.9476459671034
20
6.29422204184891
30
0
41
1
10
64.7719361021557
20
6.08865819369555
30
0
41
1
10
65.1838968493051
20
5.97802922573646
30
0
41
1
10
65.8017684087618
20
5.8008890983981
30
0
41
1
10
66.0076670360762
20
5.73974388297273
30
0
41
1
10
66.4194184734131
20
5.61318812777941
30
0
41
1
10
66.6251206678735
20
5.54763551854739
30
0
41
1
10
67.2437483471525
20
5.34701854414718
30
0
41
1
10
67.6564175421017
20
5.20614527513297
30
0
41
1
10
68.4801092381695
20
4.91142704585727
30
0
41
1
10
68.8917648621181
20
4.75688414741478
30
0
41
1
10
69.7157932136528
20
4.43551174664219
30
0
41
1
10
70.1283275672592
20
4.26884845716251
30
0
41
1
10
70.7463124730996
20
4.01048246353184
30
0
41
1
10
70.9520694199052
20
3.92289878511681
30
0
41
1
10
71.3642605842286
20
3.74612068752839
30
0
41
1
10
71.5702908468034
20
3.65627205940325
30
0
41
1
10
72.1881975600125
20
3.38293874636037
30
0
41
1
10
72.599816283325
20
3.1955512750894
30
0
41
1
10
73.4238955003918
20
2.8135097293744
30
0
41
1
10
73.8364236693641
20
2.61884022397726
30
0
41
1
10
74.6602367079678
20
2.22236132209005
30
0
41
1
10
75.0713465600704
20
2.01981411899516
30
0
41
1
10
75.8954499998429
20
1.61320404471223
30
0
41
1
10
76.3074750603417
20
1.40706111014592
30
0
41
1
10
77.1316677103324
20
0.990487733907884
30
0
41
1
10
77.5434300394121
20
0.780894973206955
30
0
41
1
10
78.3671302796593
20
0.360895263276206
30
0
41
1
10
78.7788318876197
20
0.15006663514319
30
0
41
1
10
79.6021005946247
20
-0.273244300120524
30
0
41
1
10
80.0150135663242
20
-0.483443150820904
30
0
41
1
10
80.8389506087279
20
-0.903346760270807
30
0
41
1
10
81.2504023057878
20
-1.11294526085217
30
0
41
1
10
82.0738357597245
20
-1.52797680055107
30
0
41
1
10
82.4859685949836
20
-1.73305705171472
30
0
41
1
10
83.1043390514085
20
-2.03807090124326
30
0
41
1
10
83.3102858408394
20
-2.13920751576234
30
0
41
1
10
83.7218809062266
20
-2.34036705980466
30
0
41
1
10
83.927921229711
20
-2.43969498975863
30
0
41
1
10
84.545865127854
20
-2.73524133335334
30
0
41
1
10
84.9574935573135
20
-2.92887969015354
30
0
41
1
10
85.7811920182462
20
-3.30854392027646
30
0
41
1
10
86.1935769725889
20
-3.49460356613019
30
0
41
1
10
87.0176500594114
20
-3.8564400027154
30
0
41
1
10
87.4292275976968
20
-4.03223530169885
30
0
41
1
10
88.0463248104456
20
-4.28832825513774
30
0
41
1
10
88.25245537427
20
-4.37168979061914
30
0
41
1
10
88.6645138091054
20
-4.53615481308574
30
0
41
1
10
88.8705336123089
20
-4.61721118858375
30
0
41
1
10
89.4886672327977
20
-4.85613311887755
30
0
41
1
10
89.900434070217
20
-5.00835862803868
30
0
41
1
10
90.7238517879951
20
-5.29873583542502
30
0
41
1
10
91.135676539576
20
-5.43714895941895
30
0
41
1
10
91.7530805705185
20
-5.63540163298038
30
0
41
1
10
91.9587853262959
20
-5.69964895160956
30
0
41
1
10
92.3706678991105
20
-5.8238610295366
30
0
41
1
10
92.5770479128869
20
-5.88358212215704
30
0
41
1
10
93.1951820979703
20
-6.05724446313514
30
0
41
1
10
93.6066595991576
20
-6.16536487751409
30
0
41
1
10
94.4297286522348
20
-6.36650596977415
30
0
41
1
10
94.8414322519996
20
-6.45819239496024
30
0
41
1
10
95.4596496078179
20
-6.58247964681087
30
0
41
1
10
95.6657743527026
20
-6.62176248583611
30
0
41
1
10
96.0775583589142
20
-6.69607702896408
30
0
41
1
10
96.2831366417557
20
-6.73125960354443
30
0
41
1
10
96.9007446890504
20
-6.82980323090024
30
0
41
1
10
97.3126763225325
20
-6.88618097509126
30
0
41
1
10
98.1359928237134
20
-6.9805505899318
30
0
41
1
10
98.5480810614442
20
-7.01861084513814
30
0
41
1
10
99.3720397709506
20
-7.07684683903719
30
0
41
1
10
99.7838387890399
20
-7.0965757556904
30
0
41
1
10
100.40095758884
20
-7.11138875678935
30
0
41
1
10
100.606450263319
20
-7.11393594557535
30
0
41
1
10
101.018361488177
20
-7.11446474423775
30
0
41
1
10
101.22439577361
20
-7.11248063561976
30
0
41
1
10
101.842469198969
20
-7.099741811629
30
0
41
1
10
102.254360309943
20
-7.08205684009121
30
0
41
1
10
103.07756047057
20
-7.02675930668954
30
0
41
1
10
103.489181727323
20
-6.98965491347641
30
0
41
1
10
104.106673770069
20
-6.92082916807956
30
0
41
1
10
104.312471564391
20
-6.89564146882398
30
0
41
1
10
104.724070877401
20
-6.8405804339711
30
0
41
1
10
104.929905607562
20
-6.81062255000433
30
0
41
1
10
105.548192298693
20
-6.71440436586786
30
0
41
1
10
105.959847979518
20
-6.64095247800628
30
0
41
1
10
106.782707325585
20
-6.47677894624479
30
0
41
1
10
107.194084024503
20
-6.38678844227127
30
0
41
1
10
108.017814149255
20
-6.18935114820695
30
0
41
1
10
108.430122052194
20
-6.08173562285199
30
0
41
1
10
109.047198285908
20
-5.90837686503582
30
0
41
1
10
109.252856412731
20
-5.84870261975593
30
0
41
1
10
109.664619898751
20
-5.72632801902424
30
0
41
1
10
109.870445005571
20
-5.66333283626489
30
0
41
1
10
110.487839573523
20
-5.46817088933781
30
0
41
1
10
110.899481209762
20
-5.32958983240505
30
0
41
1
10
111.723388834418
20
-5.03950105437215
30
0
41
1
10
112.135168278959
20
-4.88836397461711
30
0
41
1
10
112.958156445224
20
-4.57260915400784
30
0
41
1
10
113.369148632707
20
-4.40740207411395
30
0
41
1
10
114.193124221832
20
-4.06819935533028
30
0
41
1
10
114.605231061205
20
-3.89286822114272
30
0
41
1
10
115.037331635253
20
-3.70329456301619
30
0
41
1
10
115.057907631092
20
-3.69425480016281
30
0
41
1
10
115.07848327441
20
-3.68520281171143
30
0
0
SPLINE
5
C7
100
AcDbEntity
8
1
62
256
6
ByLayer
370
18
48
1
60
0
100
AcDbSpline
70
4
71
3
72
64
73
60
40
0
40
0
40
0
40
0
40
0.0093655803195067
40
0.0093655803195067
40
0.0543944175777089
40
0.0543944175777089
40
0.0994232548359117
40
0.0994232548359117
40
0.144452092094114
40
0.144452092094114
40
0.189480929352317
40
0.189480929352317
40
0.234509766610519
40
0.234509766610519
40
0.25702418523962
40
0.25702418523962
40
0.279538603868722
40
0.279538603868722
40
0.324567441126926
40
0.324567441126926
40
0.369596278385132
40
0.369596278385132
40
0.414625115643336
40
0.414625115643336
40
0.437139534272438
40
0.437139534272438
40
0.459653952901539
40
0.459653952901539
40
0.504682790159744
40
0.504682790159744
40
0.549711627417949
40
0.549711627417949
40
0.572226046047052
40
0.572226046047052
40
0.594740464676154
40
0.594740464676154
40
0.63976930193436
40
0.63976930193436
40
0.684798139192564
40
0.684798139192564
40
0.707312557821667
40
0.707312557821667
40
0.72982697645077
40
0.72982697645077
40
0.752341395079872
40
0.752341395079872
40
0.774855813708974
40
0.774855813708974
40
0.81988465096718
40
0.81988465096718
40
0.864913488225385
40
0.864913488225385
40
0.887427906854487
40
0.887427906854487
40
0.90994232548359
40
0.90994232548359
40
0.954971162741795
40
0.954971162741795
40
1
40
1
40
1
40
1
41
1
10
144.391506084206
20
7.14130974450774
30
0
41
1
10
144.477042843839
20
7.14127398383496
30
0
41
1
10
144.562575608589
20
7.14082339378174
30
0
41
1
10
145.059339651401
20
7.1358235430867
30
0
41
1
10
145.470845482902
20
7.12314949032807
30
0
41
1
10
146.294404472536
20
7.07864470177449
30
0
41
1
10
146.70577622366
20
7.04652442074658
30
0
41
1
10
147.52765021629
20
6.96301226582034
30
0
41
1
10
147.939248188898
20
6.91302354308738
30
0
41
1
10
148.762151248005
20
6.79469707692675
30
0
41
1
10
149.173822173314
20
6.72573853177349
30
0
41
1
10
149.996530981591
20
6.57005633774983
30
0
41
1
10
150.407893444252
20
6.48403973650051
30
0
41
1
10
151.02460775556
20
6.34268183512509
30
0
41
1
10
151.230133349992
20
6.29328290574364
30
0
41
1
10
151.64117792143
20
6.18993069732088
30
0
41
1
10
151.847064852353
20
6.13631840436307
30
0
41
1
10
152.465023700784
20
5.9692635219379
30
0
41
1
10
152.876310943239
20
5.84970193173109
30
0
41
1
10
153.698528242142
20
5.5967177319925
30
0
41
1
10
154.109614085784
20
5.46242199030223
30
0
41
1
10
154.932629769359
20
5.17941263338628
30
0
41
1
10
155.344519730695
20
5.03028046856548
30
0
41
1
10
155.961127444101
20
4.79745726452785
30
0
41
1
10
156.16698531475
20
4.71884517464258
30
0
41
1
10
156.578416563925
20
4.5579839294162
30
0
41
1
10
156.784067317679
20
4.47588925295429
30
0
41
1
10
157.400873695456
20
4.22480782792277
30
0
41
1
10
157.812038209663
20
4.05115377189506
30
0
41
1
10
158.635363542402
20
3.69472900020932
30
0
41
1
10
159.047023147073
20
3.51195733396941
30
0
41
1
10
159.663649929108
20
3.23012659184587
30
0
41
1
10
159.86902879794
20
3.13484094918559
30
0
41
1
10
160.279932854056
20
2.94244627938801
30
0
41
1
10
160.485807299044
20
2.84596198132274
30
0
41
1
10
161.103015546544
20
2.55281839313241
30
0
41
1
10
161.51465297114
20
2.35297594799073
30
0
41
1
10
162.337307917112
20
1.947935148499
30
0
41
1
10
162.748451473321
20
1.74289676861235
30
0
41
1
10
163.365296870722
20
1.43250480999043
30
0
41
1
10
163.570869237023
20
1.32846014837926
30
0
41
1
10
163.981951356964
20
1.1191704162805
30
0
41
1
10
164.187342738754
20
1.01367799945501
30
0
41
1
10
164.598827296238
20
0.802921065303451
30
0
41
1
10
164.804956373535
20
0.697744278080876
30
0
41
1
10
165.216566273113
20
0.486499826374114
30
0
41
1
10
165.422236315126
20
0.380615669342006
30
0
41
1
10
166.038937377891
20
0.0623632463153569
30
0
41
1
10
166.449842582164
20
-0.150248950443256
30
0
41
1
10
167.272378117574
20
-0.574063153058233
30
0
41
1
10
167.684328378169
20
-0.785327133682358
30
0
41
1
10
168.301254147478
20
-1.10132843153502
30
0
41
1
10
168.506572847504
20
-1.20676319193782
30
0
41
1
10
168.917916040596
20
-1.41522881877285
30
0
41
1
10
169.123654457027
20
-1.51881140135831
30
0
41
1
10
169.740540072428
20
-1.82858078608538
30
0
41
1
10
170.151490912126
20
-2.03350457780229
30
0
41
1
10
170.974262045499
20
-2.43769689993644
30
0
41
1
10
171.385937603976
20
-2.63705018266549
30
0
41
1
10
171.797131269955
20
-2.83191932984351
30
0
0
SPLINE
5
C8
100
AcDbEntity
8
1
62
256
6
ByLayer
370
18
48
1
60
0
100
AcDbSpline
70
4
71
3
72
120
73
116
40
0
40
0
40
0
40
0
40
0.0070917996209032
40
0.0070917996209032
40
0.0284566103653408
40
0.0284566103653408
40
0.0391390157375602
40
0.0391390157375602
40
0.0498214211097796
40
0.0498214211097796
40
0.0711862318542183
40
0.0711862318542183
40
0.0925510425986571
40
0.0925510425986571
40
0.113915853343096
40
0.113915853343096
40
0.124598258715315
40
0.124598258715315
40
0.135280664087535
40
0.135280664087535
40
0.156645474831973
40
0.156645474831973
40
0.178010285576412
40
0.178010285576412
40
0.199375096320851
40
0.199375096320851
40
0.22073990706529
40
0.22073990706529
40
0.242104717809728
40
0.242104717809728
40
0.263469528554167
40
0.263469528554167
40
0.284834339298606
40
0.284834339298606
40
0.306199150043045
40
0.306199150043045
40
0.327563960787483
40
0.327563960787483
40
0.338246366159703
40
0.338246366159703
40
0.348928771531922
40
0.348928771531922
40
0.370293582276362
40
0.370293582276362
40
0.391658393020802
40
0.391658393020802
40
0.413023203765242
40
0.413023203765242
40
0.423705609137463
40
0.423705609137463
40
0.434388014509683
40
0.434388014509683
40
0.455752825254125
40
0.455752825254125
40
0.477117635998567
40
0.477117635998567
40
0.487800041370788
40
0.487800041370788
40
0.49848244674301
40
0.49848244674301
40
0.519847257487453
40
0.519847257487453
40
0.541212068231896
40
0.541212068231896
40
0.551894473604117
40
0.551894473604117
40
0.562576878976338
40
0.562576878976338
40
0.583941689720781
40
0.583941689720781
40
0.605306500465223
40
0.605306500465223
40
0.626671311209665
40
0.626671311209665
40
0.637353716581887
40
0.637353716581887
40
0.648036121954109
40
0.648036121954109
40
0.669400932698552
40
0.669400932698552
40
0.690765743442995
40
0.690765743442995
40
0.712130554187439
40
0.712130554187439
40
0.733495364931882
40
0.733495364931882
40
0.754860175676325
40
0.754860175676325
40
0.776224986420768
40
0.776224986420768
40
0.797589797165212
40
0.797589797165212
40
0.818954607909655
40
0.818954607909655
40
0.840319418654098
40
0.840319418654098
40
0.85100182402632
40
0.85100182402632
40
0.861684229398542
40
0.861684229398542
40
0.883049040142986
40
0.883049040142986
40
0.904413850887431
40
0.904413850887431
40
0.925778661631876
40
0.925778661631876
40
0.936461067004098
40
0.936461067004098
40
0.94714347237632
40
0.94714347237632
40
0.968508283120763
40
0.968508283120763
40
0.989873093865207
40
0.989873093865207
40
1
40
1
40
1
40
1
41
1
10
158.632194474587
20
-3.69457426288113
30
0
41
1
10
158.49556440255
20
-3.75475354756477
30
0
41
1
10
158.358964120741
20
-3.81438785644053
30
0
41
1
10
157.811140116856
20
-4.05153311371814
30
0
41
1
10
157.400138167933
20
-4.22511567042568
30
0
41
1
10
156.783223525461
20
-4.47622850353721
30
0
41
1
10
156.577479128147
20
-4.5583564096016
30
0
41
1
10
156.16574211735
20
-4.71932524599231
30
0
41
1
10
155.959602151775
20
-4.7980407589946
30
0
41
1
10
155.342679025808
20
-5.03096027792438
30
0
41
1
10
154.931347926293
20
-5.17986710629205
30
0
41
1
10
154.108544596233
20
-5.46277602798409
30
0
41
1
10
153.697334188357
20
-5.59710387410575
30
0
41
1
10
152.874400652457
20
-5.85027088003048
30
0
41
1
10
152.462485508962
20
-5.9699802050223
30
0
41
1
10
151.844967236876
20
-6.1368700720146
30
0
41
1
10
151.639198069245
20
-6.19044270648607
30
0
41
1
10
151.228238234999
20
-6.29374507590202
30
0
41
1
10
151.022695238204
20
-6.34313465437765
30
0
41
1
10
150.405751772868
20
-6.48450152393335
30
0
41
1
10
149.993876657202
20
-6.5706026438526
30
0
41
1
10
149.170360219574
20
-6.72634928828529
30
0
41
1
10
148.759225215114
20
-6.79516125166006
30
0
41
1
10
147.936592871289
20
-6.91336162341275
30
0
41
1
10
147.524912164345
20
-6.96333687674328
30
0
41
1
10
146.702440306828
20
-7.04681665331867
30
0
41
1
10
146.290366971216
20
-7.07892224557756
30
0
41
1
10
145.467293500658
20
-7.12328152919858
30
0
41
1
10
145.056147719328
20
-7.13590317907756
30
0
41
1
10
144.233675618799
20
-7.14408583924117
30
0
41
1
10
143.822184263257
20
-7.13868922472034
30
0
41
1
10
142.997972129063
20
-7.10786264470298
30
0
41
1
10
142.587169828596
20
-7.08246651160781
30
0
41
1
10
141.7643559931
20
-7.01525048875584
30
0
41
1
10
141.352897443607
20
-6.97278729237809
30
0
41
1
10
140.529937757663
20
-6.86756345015118
30
0
41
1
10
140.118124729981
20
-6.8051894663667
30
0
41
1
10
139.500539516563
20
-6.69982925613616
30
0
41
1
10
139.294678472838
20
-6.66265475539831
30
0
41
1
10
138.882979844589
20
-6.58387228846377
30
0
41
1
10
138.677556172811
20
-6.54197170574557
30
0
41
1
10
138.060802745615
20
-6.40977940132524
30
0
41
1
10
137.649157417504
20
-6.31241604152879
30
0
41
1
10
136.825265804101
20
-6.10323415348458
30
0
41
1
10
136.413648922493
20
-5.99084377324135
30
0
41
1
10
135.59098825272
20
-5.74936179336061
30
0
41
1
10
135.179477278783
20
-5.62044063955977
30
0
41
1
10
134.561877824778
20
-5.4171641240516
30
0
41
1
10
134.356369030161
20
-5.34715822201267
30
0
41
1
10
133.944702329699
20
-5.204311058016
30
0
41
1
10
133.738729305424
20
-5.1313505094196
30
0
41
1
10
133.121125769579
20
-4.90730926613875
30
0
41
1
10
132.709794297988
20
-4.75006900325687
30
0
41
1
10
131.887140450248
20
-4.42526989348815
30
0
41
1
10
131.475862006163
20
-4.2572076103485
30
0
41
1
10
130.857926662026
20
-3.99710866348602
30
0
41
1
10
130.651705161241
20
-3.90912441953787
30
0
41
1
10
130.240058663888
20
-3.7297476871446
30
0
41
1
10
130.034622022715
20
-3.63827606953049
30
0
41
1
10
129.417682064966
20
-3.36201758356202
30
0
41
1
10
129.006098507035
20
-3.17433995606754
30
0
41
1
10
128.183039286436
20
-2.79003486142929
30
0
41
1
10
127.771239881429
20
-2.59289150033709
30
0
41
1
10
127.153680728773
20
-2.2930523684918
30
0
41
1
10
126.94782263354
20
-2.1925782253885
30
0
41
1
10
126.536078774281
20
-1.99055884676287
30
0
41
1
10
126.330052296036
20
-1.8892800127957
30
0
41
1
10
125.713151048083
20
-1.58145158827199
30
0
41
1
10
125.301952102195
20
-1.37359122972114
30
0
41
1
10
124.478089763179
20
-0.955725052710477
30
0
41
1
10
124.066000331419
20
-0.745238846854846
30
0
41
1
10
123.242912026344
20
-0.322894440462022
30
0
41
1
10
122.831601232313
20
-0.11101513959693
30
0
41
1
10
122.213953074977
20
0.205886332718961
30
0
41
1
10
122.007881226022
20
0.311213095836592
30
0
41
1
10
121.596382915404
20
0.523240380903133
30
0
41
1
10
121.390444383883
20
0.629110116657586
30
0
41
1
10
120.772675618343
20
0.945284472370986
30
0
41
1
10
120.360854574357
20
1.15435614125499
30
0
41
1
10
119.537909803334
20
1.56952206839711
30
0
41
1
10
119.126613440765
20
1.7755291400951
30
0
41
1
10
118.302960424854
20
2.18216245176117
30
0
41
1
10
117.890196007041
20
2.38207969272508
30
0
41
1
10
117.067670032444
20
2.77751564593385
30
0
41
1
10
116.656252200827
20
2.97073505627671
30
0
41
1
10
115.832904647978
20
3.34933933846074
30
0
41
1
10
115.421090453369
20
3.53499026646043
30
0
41
1
10
114.597362349576
20
3.89625872333676
30
0
41
1
10
114.185835703159
20
4.07126399481467
30
0
41
1
10
113.362267544766
20
4.41016946552745
30
0
41
1
10
112.951275495022
20
4.57532895863324
30
0
41
1
10
112.127782764675
20
4.89111637164447
30
0
41
1
10
111.715379784276
20
5.04240254095211
30
0
41
1
10
110.891973290938
20
5.3321501474006
30
0
41
1
10
110.480683985681
20
5.47052826950892
30
0
41
1
10
109.863226313107
20
5.66556571398993
30
0
41
1
10
109.657320442974
20
5.72854088354484
30
0
41
1
10
109.245293100154
20
5.8509053179634
30
0
41
1
10
109.039451137881
20
5.91060469483366
30
0
41
1
10
108.421693476061
20
6.0839977094931
30
0
41
1
10
108.009856086068
20
6.19136612548215
30
0
41
1
10
107.186555957497
20
6.38848324536983
30
0
41
1
10
106.775154462043
20
6.47839169678065
30
0
41
1
10
105.951831277262
20
6.64244408364232
30
0
41
1
10
105.539468418717
20
6.71588827521578
30
0
41
1
10
104.921401369499
20
6.81188084346681
30
0
41
1
10
104.71583943671
20
6.84174213233035
30
0
41
1
10
104.304494142463
20
6.8966456506889
30
0
41
1
10
104.098766038429
20
6.92176727899044
30
0
41
1
10
103.481320147867
20
6.99041441188345
30
0
41
1
10
103.069522058245
20
7.0274292525761
30
0
41
1
10
102.245496979461
20
7.08251955631022
30
0
41
1
10
101.833890771358
20
7.10003836235728
30
0
41
1
10
101.226995053531
20
7.11236851493311
30
0
41
1
10
101.03177147429
20
7.11430524747288
30
0
41
1
10
100.836576210723
20
7.11422110079118
30
0
0
SPLINE
5
C9
100
AcDbEntity
8
1
62
256
6
ByLayer
370
18
48
1
60
0
100
AcDbSpline
70
4
71
3
72
124
73
120
40
0
40
0
40
0
40
0
40
0.006537628718514
40
0.006537628718514
40
0.0172200198075617
40
0.0172200198075617
40
0.038584801985657
40
0.038584801985657
40
0.0599495841637526
40
0.0599495841637526
40
0.0813143663418479
40
0.0813143663418479
40
0.0919967574308959
40
0.0919967574308959
40
0.102679148519944
40
0.102679148519944
40
0.12404393069804
40
0.12404393069804
40
0.145408712876136
40
0.145408712876136
40
0.156091103965184
40
0.156091103965184
40
0.166773495054231
40
0.166773495054231
40
0.188138277232327
40
0.188138277232327
40
0.209503059410423
40
0.209503059410423
40
0.220185450499471
40
0.220185450499471
40
0.230867841588519
40
0.230867841588519
40
0.252232623766615
40
0.252232623766615
40
0.273597405944711
40
0.273597405944711
40
0.294962188122807
40
0.294962188122807
40
0.305644579211855
40
0.305644579211855
40
0.316326970300904
40
0.316326970300904
40
0.337691752479001
40
0.337691752479001
40
0.359056534657098
40
0.359056534657098
40
0.380421316835195
40
0.380421316835195
40
0.401786099013292
40
0.401786099013292
40
0.42315088119139
40
0.42315088119139
40
0.444515663369487
40
0.444515663369487
40
0.465880445547584
40
0.465880445547584
40
0.487245227725681
40
0.487245227725681
40
0.508610009903779
40
0.508610009903779
40
0.519292400992827
40
0.519292400992827
40
0.529974792081876
40
0.529974792081876
40
0.551339574259973
40
0.551339574259973
40
0.57270435643807
40
0.57270435643807
40
0.583386747527118
40
0.583386747527118
40
0.594069138616167
40
0.594069138616167
40
0.604751529705215
40
0.604751529705215
40
0.615433920794264
40
0.615433920794264
40
0.63679870297236
40
0.63679870297236
40
0.658163485150457
40
0.658163485150457
40
0.668845876239505
40
0.668845876239505
40
0.679528267328553
40
0.679528267328553
40
0.70089304950665
40
0.70089304950665
40
0.722257831684746
40
0.722257831684746
40
0.732940222773794
40
0.732940222773794
40
0.743622613862842
40
0.743622613862842
40
0.764987396040938
40
0.764987396040938
40
0.786352178219034
40
0.786352178219034
40
0.80771696039713
40
0.80771696039713
40
0.818399351486178
40
0.818399351486178
40
0.829081742575226
40
0.829081742575226
40
0.850446524753323
40
0.850446524753323
40
0.87181130693142
40
0.87181130693142
40
0.893176089109516
40
0.893176089109516
40
0.914540871287613
40
0.914540871287613
40
0.935905653465709
40
0.935905653465709
40
0.957270435643806
40
0.957270435643806
40
0.967952826732854
40
0.967952826732854
40
0.978635217821903
40
0.978635217821903
40
1
40
1
40
1
40
1
41
1
10
71.5298557702248
20
-3.67353024966829
30
0
41
1
10
71.4037170068718
20
-3.72867867527754
30
0
41
1
10
71.2775325190086
20
-3.78333422053015
30
0
41
1
10
70.9450381731512
20
-3.9258833631028
30
0
41
1
10
70.7392543302207
20
-4.01346471142111
30
0
41
1
10
70.1216693969777
20
-4.27156769614612
30
0
41
1
10
69.7097084909209
20
-4.43793957744873
30
0
41
1
10
68.8859730698438
20
-4.75908738148993
30
0
41
1
10
68.4742322150692
20
-4.91359778834826
30
0
41
1
10
67.6498809754123
20
-5.20841510441858
30
0
41
1
10
67.2374944922856
20
-5.34909948157187
30
0
41
1
10
66.6193501975441
20
-5.54947984228482
30
0
41
1
10
66.413750879597
20
-5.61496772640345
30
0
41
1
10
66.0020800787345
20
-5.74142243631815
30
0
41
1
10
65.796161232335
20
-5.80253375997785
30
0
41
1
10
65.1780551712504
20
-5.97962820762223
30
0
41
1
10
64.7654483418654
20
-6.09036062246966
30
0
41
1
10
63.9412857599204
20
-6.29572234888684
30
0
41
1
10
63.5296443936329
20
-6.38984904269157
30
0
41
1
10
62.9116019851423
20
-6.51776262839076
30
0
41
1
10
62.7054131752462
20
-6.55818444927286
30
0
41
1
10
62.2934118798373
20
-6.63529449623644
30
0
41
1
10
62.0876464936085
20
-6.67196813068543
30
0
41
1
10
61.4694138980497
20
-6.77485069473101
30
0
41
1
10
61.0568910539879
20
-6.83399807137553
30
0
41
1
10
60.2330029863553
20
-6.93383823459479
30
0
41
1
10
59.8213372964932
20
-6.97497899783892
30
0
41
1
10
59.2034119052073
20
-7.02323119329119
30
0
41
1
10
58.9973238860645
20
-7.03698825655928
30
0
41
1
10
58.5848730591559
20
-7.05954460588902
30
0
41
1
10
58.3783382186094
20
-7.06828051698778
30
0
41
1
10
57.7604009537495
20
-7.08751177435394
30
0
41
1
10
57.3487203561808
20
-7.09103435784729
30
0
41
1
10
56.5246611332731
20
-7.08001823456055
30
0
41
1
10
56.1127381335614
20
-7.06509385355045
30
0
41
1
10
55.2883850491084
20
-7.0154306264449
30
0
41
1
10
54.876004074047
20
-6.98141217460423
30
0
41
1
10
54.2576149314909
20
-6.91735248116552
30
0
41
1
10
54.0514080119418
20
-6.89381224117975
30
0
41
1
10
53.639805556547
20
-6.84165324603987
30
0
41
1
10
53.4339583572216
20
-6.81321555397207
30
0
41
1
10
52.8160453015698
20
-6.72089597090891
30
0
41
1
10
52.4033710256536
20
-6.65059721637394
30
0
41
1
10
51.5786838005129
20
-6.49292619863692
30
0
41
1
10
51.1668833687507
20
-6.40537085214322
30
0
41
1
10
50.3429476172025
20
-6.21316370586788
30
0
41
1
10
49.9304528801892
20
-6.10907621720611
30
0
41
1
10
49.106586316695
20
-5.88390175389489
30
0
41
1
10
48.6939248150498
20
-5.76398957357935
30
0
41
1
10
47.8695492401599
20
-5.50878057003925
30
0
41
1
10
47.4577446035095
20
-5.37309751596766
30
0
41
1
10
46.6339150194656
20
-5.08867831539845
30
0
41
1
10
46.2215826761212
20
-4.93993144386934
30
0
41
1
10
45.3962458235354
20
-4.62984754445549
30
0
41
1
10
44.9847944712847
20
-4.46697723485545
30
0
41
1
10
44.1608505969517
20
-4.13220453332391
30
0
41
1
10
43.7487182604037
20
-3.95973940632584
30
0
41
1
10
42.924360970376
20
-3.60352650586486
30
0
41
1
10
42.5119479036891
20
-3.41948756111563
30
0
41
1
10
41.8935567536449
20
-3.13866479353465
30
0
41
1
10
41.6874125413656
20
-3.0442220930924
30
0
41
1
10
41.2751057295926
20
-2.85350249704552
30
0
41
1
10
41.0692834365674
20
-2.75661545980901
30
0
41
1
10
40.4516055604968
20
-2.46338639845396
30
0
41
1
10
40.0392963367594
20
-2.26466369804891
30
0
41
1
10
39.2140401563243
20
-1.86150830538401
30
0
41
1
10
38.8018735642094
20
-1.65758683513744
30
0
41
1
10
38.183876789417
20
-1.34847673987579
30
0
41
1
10
37.9778688014187
20
-1.24503311445056
30
0
41
1
10
37.5656896815595
20
-1.03746618342694
30
0
41
1
10
37.3595142833133
20
-0.93336219610967
30
0
41
1
10
36.9470033222354
20
-0.724736192916794
30
0
41
1
10
36.7410930361754
20
-0.619367246947803
30
0
41
1
10
36.3286956881395
20
-0.408916002139279
30
0
41
1
10
36.1224829870576
20
-0.303720379719465
30
0
41
1
10
35.5039288571333
20
0.0115791617563445
30
0
41
1
10
35.0918433639899
20
0.2218889106978
30
0
41
1
10
34.2678208545075
20
0.64196114956107
30
0
41
1
10
33.8558256799919
20
0.851647585007782
30
0
41
1
10
33.2367550159467
20
1.16346830160612
30
0
41
1
10
33.0302865103661
20
1.26683722932668
30
0
41
1
10
32.6179045642302
20
1.47294966757832
30
0
41
1
10
32.4121902788669
20
1.57620390720189
30
0
41
1
10
31.7943662866809
20
1.88288851225653
30
0
41
1
10
31.3821326942908
20
2.08436973875374
30
0
41
1
10
30.5576467136402
20
2.4824343103526
30
0
41
1
10
30.1450854826935
20
2.67886268875242
30
0
41
1
10
29.5267348828327
20
2.96679283452124
30
0
41
1
10
29.3206078658428
20
3.06169923008432
30
0
41
1
10
28.9082811336777
20
3.24931402750983
30
0
41
1
10
28.7019533446979
20
3.34179104893676
30
0
41
1
10
28.0839284100389
20
3.61761553895201
30
0
41
1
10
27.6721146674643
20
3.79743548340426
30
0
41
1
10
26.8468126599109
20
4.1452602719329
30
0
41
1
10
26.4342484754711
20
4.31400094015413
30
0
41
1
10
25.6100786770896
20
4.63956185679814
30
0
41
1
10
25.1982041081955
20
4.79652900718773
30
0
41
1
10
24.5796611535762
20
5.02011459385952
30
0
41
1
10
24.3732530580489
20
5.09269126723837
30
0
41
1
10
23.9610710719333
20
5.2359989631413
30
0
41
1
10
23.7548595484916
20
5.30610415172427
30
0
41
1
10
23.1362829372452
20
5.51076010032895
30
0
41
1
10
22.7238446196255
20
5.63989247931528
30
0
41
1
10
21.8994730556887
20
5.88358567912593
30
0
41
1
10
21.4874686452019
20
5.99800958076818
30
0
41
1
10
20.6624305402913
20
6.21016564659087
30
0
41
1
10
20.2490829275509
20
6.30773318962764
30
0
41
1
10
19.4253844689921
20
6.48575446627194
30
0
41
1
10
19.0133692933535
20
6.56487835237724
30
0
41
1
10
18.1886778720614
20
6.70769967737539
30
0
41
1
10
17.7760251493432
20
6.77089294880417
30
0
41
1
10
16.9512118304722
20
6.87884805272793
30
0
41
1
10
16.5391909220829
20
6.92366636966779
30
0
41
1
10
15.9209614849372
20
6.97712914425315
30
0
41
1
10
15.7149872455742
20
6.99268997959598
30
0
41
1
10
15.3035253605182
20
7.01919295294326
30
0
41
1
10
15.0977785831151
20
7.03005551677785
30
0
41
1
10
14.480039337922
20
7.05535067312709
30
0
41
1
10
14.067392938035
20
7.06259472895852
30
0
41
1
10
13.6542362380257
20
7.06091429345821
30
0
0
SPLINE
5
CA
100
AcDbEntity
8
1
62
256
6
ByLayer
370
18
48
1
60
0
100
AcDbSpline
70
4
71
3
72
8
73
4
40
0
40
0
40
0
40
0
40
1
40
1
40
1
40
1
41
1
10
178.740068866891
20
-1.815897911348
30
0
41
1
10
178.829024006686
20
-1.26338317199
30
0
41
1
10
178.907532330177
20
-0.710950184819581
30
0
41
1
10
178.975524510919
20
-0.158599492355023
30
0
0
SPLINE
5
CB
100
AcDbEntity
8
1
62
256
6
ByLayer
370
18
48
1
60
0
100
AcDbSpline
70
4
71
3
72
43
73
39
40
0
40
0
40
0
40
0
40
0.0624999999999965
40
0.0624999999999965
40
0.124999999999993
40
0.124999999999993
40
0.18749999999999
40
0.249999999999986
40
0.249999999999986
40
0.312499999999983
40
0.312499999999983
40
0.374999999999979
40
0.374999999999979
40
0.499999999999972
40
0.499999999999972
40
0.531249999999973
40
0.531249999999973
40
0.562499999999974
40
0.562499999999974
40
0.624999999999976
40
0.687499999999977
40
0.687499999999977
40
0.749999999999979
40
0.749999999999979
40
0.81249999999998
40
0.81249999999998
40
0.828124999999981
40
0.832031249999982
40
0.832031249999982
40
0.835937499999982
40
0.835937499999982
40
0.843749999999983
40
0.843749999999983
40
0.859374999999985
40
0.859374999999985
40
0.874999999999987
40
0.874999999999987
40
1
40
1
40
1
40
1
41
1
10
171.797131269955
20
-2.8319193298436
30
0
41
1
10
171.955715322102
20
-2.86123544573479
30
0
41
1
10
172.114355186394
20
-2.88555190318635
30
0
41
1
10
172.431761298925
20
-2.92286332932778
30
0
41
1
10
172.589339855515
20
-2.93575119686059
30
0
41
1
10
172.901369054112
20
-2.94846905147472
30
0
41
1
10
173.209943540572
20
-2.94590965505813
30
0
41
1
10
173.511906348395
20
-2.91411243209259
30
0
41
1
10
173.810130914397
20
-2.86578414765162
30
0
41
1
10
173.957379837197
20
-2.83337994940837
30
0
41
1
10
174.247537023243
20
-2.74937651061634
30
0
41
1
10
174.391187861664
20
-2.69729188213759
30
0
41
1
10
174.803660496785
20
-2.51150658040328
30
0
41
1
10
175.056796109604
20
-2.34803630786507
30
0
41
1
10
175.343110614251
20
-2.0891093367911
30
0
41
1
10
175.39905364051
20
-2.03438253249937
30
0
41
1
10
175.506684141119
20
-1.92062549689305
30
0
41
1
10
175.558409099432
20
-1.86159791482231
30
0
41
1
10
175.707580977742
20
-1.67834338705586
30
0
41
1
10
175.890483218092
20
-1.41756073087208
30
0
41
1
10
176.0441533613
20
-1.12672406515423
30
0
41
1
10
176.18447867089
20
-0.822167352090673
30
0
41
1
10
176.247539161999
20
-0.663885757080152
30
0
41
1
10
176.360526683417
20
-0.339071908496976
30
0
41
1
10
176.410656841525
20
-0.171997566992985
30
0
41
1
10
176.466230769633
20
0.0407331034020046
30
0
41
1
10
176.479684130694
20
0.0941678133233665
30
0
41
1
10
176.492610334015
20
0.147904408570753
30
0
41
1
10
176.497739075797
20
0.169422949489615
30
0
41
1
10
176.500521667704
20
0.18005725218822
30
0
41
1
10
176.506704649654
20
0.213199864120554
30
0
41
1
10
176.507750130792
20
0.236773337800088
30
0
41
1
10
176.503672042005
20
0.307535671268937
30
0
41
1
10
176.49032034686
20
0.356068777941459
30
0
41
1
10
176.467200851844
20
0.45196297745062
30
0
41
1
10
176.455604714631
20
0.499905960001314
30
0
41
1
10
176.351459284617
20
0.931417672123359
30
0
41
1
10
176.25845442237
20
1.31493391691018
30
0
41
1
10
176.165140094405
20
1.69841295654371
30
0
0
SPLINE
5
CC
100
AcDbEntity
8
1
62
256
6
ByLayer
370
13
48
1
60
0
100
AcDbSpline
70
4
71
3
72
44
73
40
40
0
40
0
40
0
40
0
40
0.0859677795442338
40
0.0859677795442338
40
0.124052455396557
40
0.124052455396557
40
0.162137131248881
40
0.162137131248881
40
0.238306482953528
40
0.238306482953528
40
0.314475834658175
40
0.314475834658175
40
0.390645186362822
40
0.390645186362822
40
0.428729862215145
40
0.428729862215145
40
0.466814538067469
40
0.466814538067469
40
0.542983889772116
40
0.542983889772116
40
0.58106856562444
40
0.58106856562444
40
0.619153241476763
40
0.619153241476763
40
0.695322593181411
40
0.695322593181411
40
0.771491944886058
40
0.771491944886058
40
0.809576620738382
40
0.809576620738382
40
0.847661296590705
40
0.847661296590705
40
0.923830648295353
40
0.923830648295353
40
0.961915324147676
40
0.961915324147676
40
0.980957662073838
40
0.980957662073838
40
1
40
1
40
1
40
1
41
1
10
6.82687614662245
20
-7.05741586901951
30
0
41
1
10
6.82687025287996
20
-7.0602945746484
30
0
41
1
10
6.82686396261082
20
-7.03799826792337
30
0
41
1
10
6.82685565384463
20
-6.96977085849377
30
0
41
1
10
6.82685319710038
20
-6.94376741856479
30
0
41
1
10
6.8268486547868
20
-6.88185433630326
30
0
41
1
10
6.82684658187767
20
-6.84614749211858
30
0
41
1
10
6.82684112817714
20
-6.72512794145308
30
0
41
1
10
6.826838517689
20
-6.62597260990341
30
0
41
1
10
6.82683609967896
20
-6.39114235161494
30
0
41
1
10
6.82683629053142
20
-6.25547161428173
30
0
41
1
10
6.82684007217136
20
-5.94617474585252
30
0
41
1
10
6.82684364318504
20
-5.77462782018191
30
0
41
1
10
6.82685160076335
20
-5.49283080210219
30
0
41
1
10
6.82685468800821
20
-5.39476233563724
30
0
41
1
10
6.82686163844534
20
-5.1924865025272
30
0
41
1
10
6.82686550802893
20
-5.08803439199417
30
0
41
1
10
6.82687822147517
20
-4.76491194670066
30
0
41
1
10
6.8268881758946
20
-4.53651549349959
30
0
41
1
10
6.82690491472965
20
-4.17440991862657
30
0
41
1
10
6.82691079415426
20
-4.0504462678123
30
0
41
1
10
6.82692306479487
20
-3.79586398122979
30
0
41
1
10
6.82692947688827
20
-3.6648270708894
30
0
41
1
10
6.82694905146582
20
-3.26693957446054
30
0
41
1
10
6.82696261246451
20
-2.99411929234861
30
0
41
1
10
6.8269896447662
20
-2.43377795073022
30
0
41
1
10
6.82700311930782
20
-2.14625649469718
30
0
41
1
10
6.8270223103751
20
-1.70370292836884
30
0
41
1
10
6.82702855310094
20
-1.55384749126282
30
0
41
1
10
6.82704041673159
20
-1.25268066717976
30
0
41
1
10
6.82704603151035
20
-1.10157155938774
30
0
41
1
10
6.82706167896444
20
-0.646686469105362
30
0
41
1
10
6.82707052067377
20
-0.341359323818182
30
0
41
1
10
6.82708033752877
20
0.119779529360216
30
0
41
1
10
6.82708302607236
20
0.273760196215363
30
0
41
1
10
6.82708603922066
20
0.503853472524611
30
0
41
1
10
6.82708687500562
20
0.580466843363439
30
0
41
1
10
6.82708818947452
20
0.733524649371617
30
0
41
1
10
6.82708866781587
20
0.810510325411968
30
0
41
1
10
6.82708895806022
20
0.886328275580013
30
0
0
SPLINE
5
CD
100
AcDbEntity
8
1
62
256
6
ByLayer
370
18
48
1
60
0
100
AcDbSpline
70
4
71
3
72
12
73
8
40
0
40
0
40
0
40
0
40
0.25
40
0.25
40
0.5
40
0.5
40
1
40
1
40
1
40
1
41
1
10
176.57696013295
20
7.33116668942267
30
0
41
1
10
176.759396768674
20
6.87365713460039
30
0
41
1
10
176.941639608348
20
6.41571171669949
30
0
41
1
10
177.305407205546
20
5.49886837737961
30
0
41
1
10
177.486926167398
20
5.03996174917819
30
0
41
1
10
178.02906185911
20
3.66099402749828
30
0
41
1
10
178.387347884679
20
2.73892569187913
30
0
41
1
10
178.740068866891
20
1.81589791134797
30
0
0
SPLINE
5
CE
100
AcDbEntity
8
1
62
256
6
ByLayer
370
18
48
1
60
0
100
AcDbSpline
70
4
71
3
72
18
73
14
40
0
40
0
40
0
40
0
40
0.134156212380954
40
0.134156212380954
40
0.268312424761909
40
0.268312424761909
40
0.536624849523825
40
0.536624849523825
40
0.670781061904779
40
0.670781061904779
40
0.804937274285734
40
0.804937274285734
40
1
40
1
40
1
40
1
41
1
10
176.429500760539
20
-7.15435069132692
30
0
41
1
10
175.984982301119
20
-7.16571920128328
30
0
41
1
10
175.540690484202
20
-7.16596161930426
30
0
41
1
10
174.651802929584
20
-7.14430902191449
30
0
41
1
10
174.206811500568
20
-7.12238019698822
30
0
41
1
10
172.873434483432
20
-7.02387633287151
30
0
41
1
10
171.987176946432
20
-6.91477000895674
30
0
41
1
10
170.656774924722
20
-6.68872190331254
30
0
41
1
10
170.213141926282
20
-6.60292934311281
30
0
41
1
10
169.324628638861
20
-6.41104807580163
30
0
41
1
10
168.879318336183
20
-6.30482778883737
30
0
41
1
10
167.791588354977
20
-6.02206815031712
30
0
41
1
10
167.149948174766
20
-5.83520479729157
30
0
41
1
10
166.509824017927
20
-5.63087043514292
30
0
0
SPLINE
5
CF
100
AcDbEntity
8
1
62
256
6
ByLayer
370
13
48
1
60
0
100
AcDbSpline
70
4
71
3
72
20
73
16
40
0
40
0
40
0
40
0
40
0.0429450013335736
40
0.0429450013335736
40
0.357558737995255
40
0.357558737995255
40
0.436212172160677
40
0.436212172160677
40
0.514865606326099
40
0.514865606326099
40
0.672172474656948
40
0.672172474656948
40
0.986786211318649
40
0.986786211318649
40
1
40
1
40
1
40
1
41
1
10
166.509823809888
20
-5.63087036873486
30
0
41
1
10
166.269445295136
20
-5.55413901764237
30
0
41
1
10
166.029280561194
20
-5.47494400612521
30
0
41
1
10
164.030872041299
20
-4.79587511051901
30
0
41
1
10
162.280479847331
20
-4.07084102688381
30
0
41
1
10
160.069532239505
20
-3.05441650521755
30
0
41
1
10
159.626197305345
20
-2.84562388946145
30
0
41
1
10
158.736324852081
20
-2.41847318186021
30
0
41
1
10
158.292842529542
20
-2.20161235873883
30
0
41
1
10
156.966221234769
20
-1.54372146523696
30
0
41
1
10
156.086501838851
20
-1.09553074436064
30
0
41
1
10
153.45150824873
20
0.258161651295495
30
0
41
1
10
151.700522731234
20
1.17303196901176
30
0
41
1
10
149.854369816377
20
2.08462342365348
30
0
41
1
10
149.77992026994
20
2.12129686247988
30
0
41
1
10
149.705432086272
20
2.15789567777597
30
0
0
SPLINE
5
D0
100
AcDbEntity
8
1
62
256
6
ByLayer
370
18
48
1
60
0
100
AcDbSpline
70
4
71
3
72
12
73
8
40
0
40
0
40
0
40
0
40
0.303874461914271
40
0.303874461914271
40
0.9442843037669
40
0.9442843037669
40
1
40
1
40
1
40
1
41
1
10
88.8432861271075
20
-7.10760352969675
30
0
41
1
10
87.9992180042383
20
-7.1135921465131
30
0
41
1
10
87.1604456165539
20
-7.08007494371393
30
0
41
1
10
84.5610061365374
20
-6.85745713854323
30
0
41
1
10
82.808653125659
20
-6.53700337130363
30
0
41
1
10
80.8866348663986
20
-6.02314185242221
30
0
41
1
10
80.7326868268075
20
-5.98085653282681
30
0
41
1
10
80.578603219466
20
-5.93743081874669
30
0
0
SPLINE
5
D1
100
AcDbEntity
8
1
62
256
6
ByLayer
370
13
48
1
60
0
100
AcDbSpline
70
4
71
3
72
22
73
18
40
0
40
0
40
0
40
0
40
0.0483607518842727
40
0.0483607518842727
40
0.122533712744244
40
0.122533712744244
40
0.27087963446419
40
0.27087963446419
40
0.567571477904086
40
0.567571477904086
40
0.64174443876406
40
0.64174443876406
40
0.715917399624034
40
0.715917399624034
40
0.864263321343981
40
0.864263321343981
40
1
40
1
40
1
40
1
41
1
10
80.578603218234
20
-5.93743081839943
30
0
41
1
10
80.2899181571846
20
-5.85607008744091
30
0
41
1
10
80.0007572219618
20
-5.77070630796021
30
0
41
1
10
79.2665617705432
20
-5.54455813761962
30
0
41
1
10
78.8203237236802
20
-5.39838483754437
30
0
41
1
10
77.488661859381
20
-4.93781400962408
30
0
41
1
10
76.6061353624471
20
-4.60036057880291
30
0
41
1
10
73.9642154927017
20
-3.51368410006589
30
0
41
1
10
72.2105397485879
20
-2.68989501736024
30
0
41
1
10
69.9953864635821
20
-1.59295875099855
30
0
41
1
10
69.5509849934394
20
-1.37016537265447
30
0
41
1
10
68.6597580743726
20
-0.919898497480972
30
0
41
1
10
68.2157515972704
20
-0.693774855436061
30
0
41
1
10
66.8872129587271
20
-0.0151204897415482
30
0
41
1
10
66.0060960473702
20
0.437528238314798
30
0
41
1
10
64.3214646579987
20
1.29291897880935
30
0
41
1
10
63.5176500041199
20
1.6964576685765
30
0
41
1
10
62.712461578481
20
2.08997953506446
30
0
0
SPLINE
5
D2
100
AcDbEntity
8
1
62
256
6
ByLayer
370
18
48
1
60
0
100
AcDbSpline
70
4
71
3
72
28
73
24
40
0
40
0
40
0
40
0
40
0.170018150845682
40
0.170018150845682
40
0.376987215807434
40
0.376987215807434
40
0.48047174828831
40
0.48047174828831
40
0.506342881408529
40
0.506342881408529
40
0.519278447968638
40
0.519278447968638
40
0.532214014528748
40
0.532214014528748
40
0.583956280769186
40
0.583956280769186
40
0.790925345730937
40
0.790925345730937
40
0.894409878211813
40
0.894409878211813
40
0.997894410692689
40
0.997894410692689
40
1
40
1
40
1
40
1
41
1
10
13.6542362380257
20
3.69374906680389
30
0
41
1
10
13.6542362380257
20
3.24467192193308
30
0
41
1
10
13.6542362380257
20
2.76960733943838
30
0
41
1
10
13.6542362380257
20
1.66194837147233
30
0
41
1
10
13.6542362380257
20
1.01751306056036
30
0
41
1
10
13.6542362380257
20
-0.0032171649638713
30
0
41
1
10
13.6542362380257
20
-0.352507228380205
30
0
41
1
10
13.6542362380257
20
-0.800642870137324
30
0
41
1
10
13.6542362380257
20
-0.890846845356435
30
0
41
1
10
13.6542362380257
20
-1.02702423451691
30
0
41
1
10
13.6542362380257
20
-1.07253642562696
30
0
41
1
10
13.6542362380257
20
-1.16373312961883
30
0
41
1
10
13.6542362380257
20
-1.21197665808373
30
0
41
1
10
13.6542362380257
20
-1.47061601458159
30
0
41
1
10
13.6542362380257
20
-1.67839542160809
30
0
41
1
10
13.6542362380257
20
-2.72173068623996
30
0
41
1
10
13.6542362380257
20
-3.57230167521072
30
0
41
1
10
13.6542362380257
20
-4.85979359820877
30
0
41
1
10
13.6542362380257
20
-5.2912464389664
30
0
41
1
10
13.6542362380257
20
-6.15902442897811
30
0
41
1
10
13.6542362380257
20
-6.5959694574733
30
0
41
1
10
13.6542362380257
20
-7.04308285286496
30
0
41
1
10
13.6542362380257
20
-7.05199865277422
30
0
41
1
10
13.6542362380257
20
-7.06091429345796
30
0
0
SPLINE
5
D3
100
AcDbEntity
8
1
62
256
6
ByLayer
370
18
48
1
60
0
100
AcDbSpline
70
4
71
3
72
18
73
14
40
0
40
0
40
0
40
0
40
0.378664903913026
40
0.378664903913026
40
0.452739169028398
40
0.452739169028398
40
0.526813434143771
40
0.526813434143771
40
0.674961964374515
40
0.674961964374515
40
0.971259024836006
40
0.971259024836006
40
1
40
1
40
1
40
1
41
1
10
132.14188425338
20
-7.13545690794177
30
0
41
1
10
131.018352130706
20
-7.13302903158865
30
0
41
1
10
129.89171894965
20
-7.06032496039015
30
0
41
1
10
128.532773166087
20
-6.88832971063155
30
0
41
1
10
128.31003676543
20
-6.85745239330004
30
0
41
1
10
127.865816695924
20
-6.79064027473999
30
0
41
1
10
127.644062844369
20
-6.75467462466767
30
0
41
1
10
126.979764361477
20
-6.63922981437665
30
0
41
1
10
126.538183388006
20
-6.55220760671733
30
0
41
1
10
125.21586313295
20
-6.26229890514756
30
0
41
1
10
124.337567348813
20
-6.03066753153064
30
0
41
1
10
123.374205417545
20
-5.73848323382654
30
0
41
1
10
123.289021319741
20
-5.71232186921151
30
0
41
1
10
123.203833967015
20
-5.68583861448684
30
0
0
SPLINE
5
D4
100
AcDbEntity
8
1
62
256
6
ByLayer
370
13
48
1
60
0
100
AcDbSpline
70
4
71
3
72
24
73
20
40
0
40
0
40
0
40
0
40
0.140522828531766
40
0.140522828531766
40
0.218331719021097
40
0.218331719021097
40
0.296140609510428
40
0.296140609510428
40
0.607376171467746
40
0.607376171467746
40
0.762993952446405
40
0.762993952446405
40
0.840802842935735
40
0.840802842935735
40
0.8797072881804
40
0.8797072881804
40
0.918611733425065
40
0.918611733425065
40
1
40
1
40
1
40
1
41
1
10
123.203834923549
20
-5.68583891185654
30
0
41
1
10
122.41080672462
20
-5.43930036805841
30
0
41
1
10
121.617496449648
20
-5.16486629105091
30
0
41
1
10
120.380830225501
20
-4.69957007245074
30
0
41
1
10
119.939300688148
20
-4.52607922123687
30
0
41
1
10
119.053821388367
20
-4.16482067247745
30
0
41
1
10
118.609279640729
20
-3.97681866701413
30
0
41
1
10
116.38428388543
20
-3.00668798875756
30
0
41
1
10
114.629215980083
20
-2.14836775637576
30
0
41
1
10
111.993833916552
20
-0.815277655930856
30
0
41
1
10
111.114989338816
20
-0.36317571980868
30
0
41
1
10
109.791205651308
20
0.316873212723493
30
0
41
1
10
109.349028226024
20
0.543881901462413
30
0
41
1
10
108.683756655391
20
0.883626697898507
30
0
41
1
10
108.461661927172
20
0.996740571520064
30
0
41
1
10
108.016688435424
20
1.22248369338749
30
0
41
1
10
107.793935343945
20
1.33504764000395
30
0
41
1
10
107.107087142816
20
1.68036337867247
30
0
41
1
10
106.643963217814
20
1.91073389378562
30
0
41
1
10
106.181943916619
20
2.13699641006156
30
0
0
SPLINE
5
D5
100
AcDbEntity
8
1
62
256
6
ByLayer
370
18
48
1
60
0
100
AcDbSpline
70
4
71
3
72
18
73
14
40
0
40
0
40
0
40
0
40
0.158310858389928
40
0.158310858389928
40
0.703269796884199
40
0.703269796884199
40
0.771389664195985
40
0.771389664195985
40
0.839509531507771
40
0.839509531507771
40
0.97574926613134
40
0.97574926613134
40
1
40
1
40
1
40
1
41
1
10
45.4617858239256
20
-7.0789177500493
30
0
41
1
10
44.9497290246791
20
-7.08572332060152
30
0
41
1
10
44.4384840483846
20
-7.0780297241447
30
0
41
1
10
42.1684373874551
20
-6.979997061164
30
0
41
1
10
40.4114366744831
20
-6.7333066140165
30
0
41
1
10
38.4080769069477
20
-6.27291075629196
30
0
41
1
10
38.1849166278382
20
-6.2191749593467
30
0
41
1
10
37.7397619071635
20
-6.10724025897969
30
0
41
1
10
37.5175523250161
20
-6.04899409787103
30
0
41
1
10
36.8518860830629
20
-5.86762833242466
30
0
41
1
10
36.4094292420263
20
-5.73785766339529
30
0
41
1
10
35.8892016535103
20
-5.57525773882776
30
0
41
1
10
35.8106199707427
20
-5.55042761344086
30
0
41
1
10
35.7320627691438
20
-5.52534020561586
30
0
0
SPLINE
5
D6
100
AcDbEntity
8
1
62
256
6
ByLayer
370
13
48
1
60
0
100
AcDbSpline
70
4
71
3
72
16
73
12
40
0
40
0
40
0
40
0
40
0.145666694080042
40
0.145666694080042
40
0.465462056182777
40
0.465462056182777
40
0.785257418285513
40
0.785257418285513
40
0.945155099336879
40
0.945155099336879
40
1
40
1
40
1
40
1
41
1
10
35.7320618169231
20
-5.52533990152219
30
0
41
1
10
34.92795637554
20
-5.26854711290119
30
0
41
1
10
34.1264159259507
20
-4.98479778631204
30
0
41
1
10
31.5656743897437
20
-4.00349258923688
30
0
41
1
10
29.8071674280977
20
-3.21632259394579
30
0
41
1
10
26.2390389384672
20
-1.49981344292982
30
0
41
1
10
24.4802757046021
20
-0.596170544835701
30
0
41
1
10
21.8409876150633
20
0.748384886710255
30
0
41
1
10
20.9609318023583
20
1.19457414547907
30
0
41
1
10
19.7743672106486
20
1.78258804320674
30
0
41
1
10
19.4709290134782
20
1.93181560572108
30
0
41
1
10
19.1669681220418
20
2.07983011845357
30
0
0
SPLINE
5
D7
100
AcDbEntity
8
1
62
256
6
ByLayer
370
18
48
1
60
0
100
AcDbSpline
70
4
71
3
72
10
73
6
40
0
40
0
40
0
40
0
40
0.5
40
0.5
40
1
40
1
40
1
40
1
41
1
10
178.975524510919
20
-0.158599492354881
30
0
41
1
10
178.977618864761
20
-0.141585509539084
30
0
41
1
10
178.98089616546
20
-0.122839891392005
30
0
41
1
10
178.989178758064
20
-0.0828151898242311
30
0
41
1
10
178.994251372619
20
-0.0613377315726211
30
0
41
1
10
178.999974456682
20
-0.0393566275032242
30
0
0
SPLINE
5
D8
100
AcDbEntity
8
1
62
256
6
ByLayer
370
18
48
1
60
0
100
AcDbSpline
70
4
71
3
72
42
73
38
40
0
40
0
40
0
40
0
40
0.0624999999999971
40
0.0624999999999971
40
0.124999999999994
40
0.124999999999994
40
0.187499999999991
40
0.187499999999991
40
0.249999999999988
40
0.249999999999988
40
0.281249999999987
40
0.281249999999987
40
0.312499999999985
40
0.312499999999985
40
0.343749999999984
40
0.343749999999984
40
0.374999999999982
40
0.374999999999982
40
0.390624999999981
40
0.390624999999981
40
0.406249999999979
40
0.406249999999979
40
0.437499999999982
40
0.437499999999982
40
0.468749999999985
40
0.468749999999985
40
0.499999999999988
40
0.499999999999988
40
0.562499999999994
40
0.562499999999994
40
0.625
40
0.625
40
0.75
40
0.75
40
0.875
40
0.875
40
1
40
1
40
1
40
1
41
1
10
176.057434412828
20
-4.08350223180472
30
0
41
1
10
175.973644354664
20
-4.02978560356362
30
0
41
1
10
175.890054981146
20
-3.9729775920994
30
0
41
1
10
175.72612933017
20
-3.85362718450577
30
0
41
1
10
175.645567854187
20
-3.79097982970382
30
0
41
1
10
175.488086782181
20
-3.65796098193837
30
0
41
1
10
175.411138174856
20
-3.58765101964264
30
0
41
1
10
175.262555107217
20
-3.43576021128757
30
0
41
1
10
175.191784930397
20
-3.35527339157662
30
0
41
1
10
175.094877056603
20
-3.22327721487238
30
0
41
1
10
175.064506487824
20
-3.17782522160562
30
0
41
1
10
175.009299148627
20
-3.08345237300256
30
0
41
1
10
174.984374949093
20
-3.03450200545734
30
0
41
1
10
174.942682518915
20
-2.93123204963518
30
0
41
1
10
174.926505435802
20
-2.87815686184368
30
0
41
1
10
174.908185154387
20
-2.7705228438908
30
0
41
1
10
174.906465198998
20
-2.71731457809833
30
0
41
1
10
174.91662248764
20
-2.64178562075867
30
0
41
1
10
174.922171309954
20
-2.61717493295106
30
0
41
1
10
174.93685597506
20
-2.57110060233825
30
0
41
1
10
174.946015250759
20
-2.54934348814368
30
0
41
1
10
174.978363107577
20
-2.48750312080978
30
0
41
1
10
175.00570719132
20
-2.45213334822841
30
0
41
1
10
175.067049551899
20
-2.39072314579266
30
0
41
1
10
175.101469316854
20
-2.36436339982805
30
0
41
1
10
175.173088000791
20
-2.31932919500835
30
0
41
1
10
175.210583068158
20
-2.30036938637122
30
0
41
1
10
175.326653463899
20
-2.2510555977986
30
0
41
1
10
175.409023057322
20
-2.22817933712145
30
0
41
1
10
175.574857877472
20
-2.19523439813099
30
0
41
1
10
175.659077874178
20
-2.18502172070924
30
0
41
1
10
175.914326671147
20
-2.16682462114628
30
0
41
1
10
176.087900174401
20
-2.1710691834208
30
0
41
1
10
176.439095025148
20
-2.19901088233027
30
0
41
1
10
176.615354338883
20
-2.22289257850423
30
0
41
1
10
176.968312879115
20
-2.28474233233672
30
0
41
1
10
177.145118628005
20
-2.32281155115433
30
0
41
1
10
177.322197166808
20
-2.36685023740185
30
0
0
SPLINE
5
D9
100
AcDbEntity
8
1
62
256
6
ByLayer
370
18
48
1
60
0
100
AcDbSpline
70
4
71
3
72
14
73
10
40
0
40
0
40
0
40
0
40
0.220702089418947
40
0.220702089418947
40
0.478833217925799
40
0.478833217925799
40
0.995095474939503
40
0.995095474939503
40
1
40
1
40
1
40
1
41
1
10
23.0820779987445
20
0.0050831639602222
30
0
41
1
10
23.8342031734505
20
-0.383884463783232
30
0
41
1
10
24.5865020856583
20
-0.773159485961855
30
0
41
1
10
26.2239414399121
20
-1.60872515714141
30
0
41
1
10
27.1100618755625
20
-2.05397211732756
30
0
41
1
10
29.7863904081601
20
-3.35285787052635
30
0
41
1
10
31.5445563557142
20
-4.14422723134331
30
0
41
1
10
33.3204759962008
20
-4.82563473532105
30
0
41
1
10
33.337188650399
20
-4.83203678455527
30
0
41
1
10
33.3539013998287
20
-4.83842835340812
30
0
0
SPLINE
5
DA
100
AcDbEntity
8
1
62
256
6
ByLayer
370
13
48
1
60
0
100
AcDbSpline
70
4
71
3
72
20
73
16
40
0
40
0
40
0
40
0
40
0.192768704907022
40
0.192768704907022
40
0.291019841751004
40
0.291019841751004
40
0.340145410172996
40
0.340145410172996
40
0.389270978594988
40
0.389270978594988
40
0.782275525970931
40
0.782275525970931
40
0.978777799658902
40
0.978777799658902
40
1
40
1
40
1
40
1
41
1
10
33.3539013996744
20
-4.83842835334914
30
0
41
1
10
34.216801011847
20
-5.1684328392974
30
0
41
1
10
35.079954490561
20
-5.4704989059604
30
0
41
1
10
36.388133575613
20
-5.87746944152823
30
0
41
1
10
36.8306525385369
20
-6.00640338591299
30
0
41
1
10
37.4964566253401
20
-6.18620728451074
30
0
41
1
10
37.7187203504742
20
-6.24388144926613
30
0
41
1
10
38.1640110914847
20
-6.35455978255968
30
0
41
1
10
38.3872258970528
20
-6.40760731319332
30
0
41
1
10
40.3907016660002
20
-6.86126782675254
30
0
41
1
10
42.1473612807306
20
-7.09865723909766
30
0
41
1
10
44.7857191237176
20
-7.194901242919
30
0
41
1
10
45.6659238769779
20
-7.18374219030792
30
0
41
1
10
46.6453408826919
20
-7.12287366050188
30
0
41
1
10
46.7408528729706
20
-7.11642915190305
30
0
41
1
10
46.8364156529907
20
-7.10947361869671
30
0
0
SPLINE
5
DB
100
AcDbEntity
8
1
62
256
6
ByLayer
370
18
48
1
60
0
100
AcDbSpline
70
4
71
3
72
18
73
14
40
0
40
0
40
0
40
0
40
0.0016167878701198
40
0.0016167878701198
40
0.203718650010173
40
0.203718650010173
40
0.607922374290272
40
0.607922374290272
40
0.708973305360298
40
0.708973305360298
40
0.810024236430325
40
0.810024236430325
40
1
40
1
40
1
40
1
41
1
10
110.19221293813
20
-0.0003380880792463
30
0
41
1
10
110.199272847999
20
-0.0040158622719559
30
0
41
1
10
110.206332520145
20
-0.0076935108691885
30
0
41
1
10
111.095836237696
20
-0.471068645651172
30
0
41
1
10
111.974556281849
20
-0.928832637969577
30
0
41
1
10
114.60965686873
20
-2.2767756618062
30
0
41
1
10
116.364600154619
20
-3.14226514723899
30
0
41
1
10
118.590362241054
20
-4.11736779114599
30
0
41
1
10
119.034825632264
20
-4.30604781255516
30
0
41
1
10
119.920263731096
20
-4.66830335118078
30
0
41
1
10
120.361755064763
20
-4.84205927687543
30
0
41
1
10
121.630915088268
20
-5.31974548812442
30
0
41
1
10
122.456491517105
20
-5.60369543947192
30
0
41
1
10
123.281909166833
20
-5.85653294751035
30
0
0
SPLINE
5
DC
100
AcDbEntity
8
1
62
256
6
ByLayer
370
13
48
1
60
0
100
AcDbSpline
70
4
71
3
72
18
73
14
40
0
40
0
40
0
40
0
40
0.0148075755046157
40
0.0148075755046157
40
0.261599273491371
40
0.261599273491371
40
0.384995122484752
40
0.384995122484752
40
0.446693046981442
40
0.446693046981442
40
0.508390971478131
40
0.508390971478131
40
1
40
1
40
1
40
1
41
1
10
123.281908209429
20
-5.85653265424349
30
0
41
1
10
123.334594700714
20
-5.87267129924788
30
0
41
1
10
123.387280545083
20
-5.88868318339931
30
0
41
1
10
124.3180606091
20
-6.16930416197368
30
0
41
1
10
125.196286791758
20
-6.39852703148338
30
0
41
1
10
126.518695825267
20
-6.6835876008395
30
0
41
1
10
126.960331793177
20
-6.76880096796728
30
0
41
1
10
127.62476038887
20
-6.88123144819607
30
0
41
1
10
127.846565078373
20
-6.91614257022746
30
0
41
1
10
128.290912576723
20
-6.98074460306725
30
0
41
1
10
128.513727672247
20
-7.010463465404
30
0
41
1
10
130.507774860386
20
-7.25196191253724
30
0
41
1
10
132.254801298511
20
-7.29083829048741
30
0
41
1
10
134.003835802239
20
-7.15817946743056
30
0
0
SPLINE
5
DD
100
AcDbEntity
8
1
62
256
6
ByLayer
370
18
48
1
60
0
100
AcDbSpline
70
4
71
3
72
8
73
4
40
0
40
0
40
0
40
0
40
1
40
1
40
1
40
1
41
1
10
178.95663418892
20
-0.0686696697284788
30
0
41
1
10
178.904728568664
20
-0.165313700939038
30
0
41
1
10
178.852999665323
20
-0.262115633611216
30
0
41
1
10
178.801447741876
20
-0.359075702679547
30
0
0
SPLINE
5
DE
100
AcDbEntity
8
1
62
256
6
ByLayer
370
18
48
1
60
0
100
AcDbSpline
70
4
71
3
72
36
73
32
40
0
40
0
40
0
40
0
40
0.0625000000000088
40
0.0625000000000088
40
0.0937500000000128
40
0.0937500000000128
40
0.125000000000017
40
0.125000000000017
40
0.250000000000033
40
0.250000000000033
40
0.312500000000041
40
0.312500000000041
40
0.375000000000049
40
0.375000000000049
40
0.500000000000066
40
0.500000000000066
40
0.515625000000069
40
0.515625000000069
40
0.519531250000068
40
0.519531250000068
40
0.523437500000068
40
0.523437500000068
40
0.531250000000067
40
0.531250000000067
40
0.562500000000063
40
0.562500000000063
40
0.625000000000055
40
0.625000000000055
40
0.750000000000036
40
0.750000000000036
40
1
40
1
40
1
40
1
41
1
10
7.17054500066109
20
0.749303043208783
30
0
41
1
10
7.21401172320566
20
0.914975542120004
30
0
41
1
10
7.26585701458325
20
1.0781313983008
30
0
41
1
10
7.35643137004445
20
1.31907981623695
30
0
41
1
10
7.38886547679846
20
1.39901326222747
30
0
41
1
10
7.45746196531374
20
1.55621712705346
30
0
41
1
10
7.49358212141564
20
1.63343927081334
30
0
41
1
10
7.6829632792319
20
2.01297948491597
30
0
41
1
10
7.86242853427663
20
2.29570687609188
30
0
41
1
10
8.16920186919015
20
2.69302322814133
30
0
41
1
10
8.27735287810808
20
2.82041240868619
30
0
41
1
10
8.50273317836539
20
3.06405660282573
30
0
41
1
10
8.6202284878006
20
3.18066319128525
30
0
41
1
10
8.9860486769642
20
3.51641317857389
30
0
41
1
10
9.24562908088697
20
3.71968787123504
30
0
41
1
10
9.55147322247302
20
3.92910848650584
30
0
41
1
10
9.58563835643221
20
3.95210145868452
30
0
41
1
10
9.62856831741425
20
3.9805074773729
30
0
41
1
10
9.63754448522278
20
3.98585485648428
30
0
41
1
10
9.65705562990641
20
3.99449418688121
30
0
41
1
10
9.66716188689821
20
3.99784251659091
30
0
41
1
10
9.69839735663155
20
4.00535558608379
30
0
41
1
10
9.72064689636005
20
4.00632462239321
30
0
41
1
10
9.83034292590719
20
4.01445915137342
30
0
41
1
10
9.91820546097787
20
4.02000218835525
30
0
41
1
10
10.1819335127377
20
4.0339338297876
30
0
41
1
10
10.3578317522393
20
4.03952419821616
30
0
41
1
10
10.8857609104383
20
4.04545006634655
30
0
41
1
10
11.2385159490167
20
4.0349504470791
30
0
41
1
10
12.286561340121
20
3.96131782092618
30
0
41
1
10
12.975282052904
20
3.85706739391375
30
0
41
1
10
13.6542362380256
20
3.69374906680389
30
0
0
SPLINE
5
DF
100
AcDbEntity
8
1
62
256
6
ByLayer
370
18
48
1
60
0
100
AcDbSpline
70
4
71
3
72
12
73
8
40
0
40
0
40
0
40
0
40
0.250000000000008
40
0.250000000000008
40
0.500000000000017
40
0.500000000000017
40
1
40
1
40
1
40
1
41
1
10
176.310427191183
20
1.84566993261927
30
0
41
1
10
176.513163660777
20
1.84153299379028
30
0
41
1
10
176.715879870802
20
1.83752202114658
30
0
41
1
10
177.121192420474
20
1.83024538371822
30
0
41
1
10
177.323646804378
20
1.82786234505426
30
0
41
1
10
177.9309300423
20
1.82121010223972
30
0
41
1
10
178.335751401698
20
1.81698749674661
30
0
41
1
10
178.740068866891
20
1.81589791134803
30
0
0
SPLINE
5
E0
100
AcDbEntity
8
1
62
256
6
ByLayer
370
18
48
1
60
0
100
AcDbSpline
70
4
71
3
72
8
73
4
40
0
40
0
40
0
40
0
40
1
40
1
40
1
40
1
41
1
10
176.57696013295
20
-7.3311666894227
30
0
41
1
10
176.470151250953
20
-7.43633173461143
30
0
41
1
10
176.378412178862
20
-7.50256758608694
30
0
41
1
10
176.300775435659
20
-7.52827257574791
30
0
0
SPLINE
5
E1
100
AcDbEntity
8
1
62
256
6
ByLayer
370
18
48
1
60
0
100
AcDbSpline
70
4
71
3
72
8
73
4
40
0
40
0
40
0
40
0
40
1
40
1
40
1
40
1
41
1
10
176.57696013295
20
7.3311666894227
30
0
41
1
10
176.470151250953
20
7.43633173461143
30
0
41
1
10
176.378412178862
20
7.50256758608694
30
0
41
1
10
176.300775435659
20
7.52827257574791
30
0
0
SPLINE
5
E2
100
AcDbEntity
8
1
62
256
6
ByLayer
370
18
48
1
60
0
100
AcDbSpline
70
4
71
3
72
8
73
4
40
0
40
0
40
0
40
0
40
1
40
1
40
1
40
1
41
1
10
178.999974456682
20
0.0393566275031105
30
0
41
1
10
179.000008514431
20
0.0131188819190982
30
0
41
1
10
179.000008514431
20
-0.0131188819192687
30
0
41
1
10
178.999974456682
20
-0.0393566275032811
30
0
0
SPLINE
5
E3
100
AcDbEntity
8
1
62
256
6
ByLayer
370
18
48
1
60
0
100
AcDbSpline
70
4
71
3
72
8
73
4
40
0
40
0
40
0
40
0
40
1
40
1
40
1
40
1
41
1
10
176.327212523653
20
-7.15698109515864
30
0
41
1
10
176.342276650691
20
-7.16158356417466
30
0
41
1
10
176.358211694511
20
-7.16368355947307
30
0
41
1
10
176.375034368727
20
-7.16330175310915
30
0
0
SPLINE
5
E4
100
AcDbEntity
8
1
62
256
6
ByLayer
370
18
48
1
60
0
100
AcDbSpline
70
4
71
3
72
12
73
8
40
0
40
0
40
0
40
0
40
0.25
40
0.25
40
0.5
40
0.5
40
1
40
1
40
1
40
1
41
1
10
6.70846775016543
20
6.87896804232972
30
0
41
1
10
6.68849297868638
20
6.88302170533152
30
0
41
1
10
6.67040410142135
20
6.88797522527176
30
0
41
1
10
6.6378951374312
20
6.89956163378454
30
0
41
1
10
6.62368078822567
20
6.90617244520865
30
0
41
1
10
6.5892223528142
20
6.92731862194722
30
0
41
1
10
6.57668187709058
20
6.9434691127359
30
0
41
1
10
6.57668187709058
20
6.95941275140518
30
0
0
SPLINE
5
E5
100
AcDbEntity
8
1
62
256
6
ByLayer
370
18
48
1
60
0
100
AcDbSpline
70
4
71
3
72
50
73
46
40
0
40
0
40
0
40
0
40
0.0312499999999978
40
0.0312499999999978
40
0.0624999999999957
40
0.0624999999999957
40
0.0937499999999935
40
0.0937499999999935
40
0.124999999999991
40
0.124999999999991
40
0.187499999999987
40
0.187499999999987
40
0.249999999999983
40
0.249999999999983
40
0.281249999999981
40
0.281249999999981
40
0.312499999999979
40
0.312499999999979
40
0.374999999999975
40
0.374999999999975
40
0.437499999999971
40
0.437499999999971
40
0.499999999999967
40
0.499999999999967
40
0.562499999999963
40
0.562499999999963
40
0.593749999999965
40
0.593749999999965
40
0.624999999999966
40
0.624999999999966
40
0.656249999999968
40
0.656249999999968
40
0.68749999999997
40
0.68749999999997
40
0.718749999999971
40
0.718749999999971
40
0.749999999999973
40
0.749999999999973
40
0.81249999999998
40
0.81249999999998
40
0.874999999999986
40
0.874999999999986
40
0.937499999999993
40
0.937499999999993
40
1
40
1
40
1
40
1
41
1
10
176.057434412828
20
-4.08350223180466
30
0
41
1
10
176.053689048625
20
-4.12932430809954
30
0
41
1
10
176.052149694458
20
-4.17274818879864
30
0
41
1
10
176.053263598305
20
-4.25503808150731
30
0
41
1
10
176.055958206925
20
-4.29384376848924
30
0
41
1
10
176.065110027006
20
-4.36489009255095
30
0
41
1
10
176.071564408263
20
-4.39747098291883
30
0
41
1
10
176.087953672383
20
-4.45718121286041
30
0
41
1
10
176.097934208984
20
-4.48432079549127
30
0
41
1
10
176.132026369356
20
-4.55625851948028
30
0
41
1
10
176.160570991345
20
-4.59262469378916
30
0
41
1
10
176.226902019414
20
-4.64398308918345
30
0
41
1
10
176.264048878013
20
-4.65861736351718
30
0
41
1
10
176.325056701487
20
-4.6659002568081
30
0
41
1
10
176.346385499874
20
-4.66583527001092
30
0
41
1
10
176.390227756715
20
-4.66086096361252
30
0
41
1
10
176.412731352576
20
-4.65598091897226
30
0
41
1
10
176.481913624986
20
-4.63447399480174
30
0
41
1
10
176.530244518709
20
-4.61105948035117
30
0
41
1
10
176.63141360598
20
-4.54571357234582
30
0
41
1
10
176.683095921797
20
-4.50448671698203
30
0
41
1
10
176.787809525256
20
-4.40558566453254
30
0
41
1
10
176.841065352023
20
-4.34774051828919
30
0
41
1
10
176.949062101081
20
-4.21337112853342
30
0
41
1
10
177.002213995835
20
-4.13879708408439
30
0
41
1
10
177.0798008483
20
-4.01585713270873
30
0
41
1
10
177.105345234112
20
-3.97296016679269
30
0
41
1
10
177.155723138325
20
-3.88287958121282
30
0
41
1
10
177.180390620414
20
-3.83595153182185
30
0
41
1
10
177.227571107462
20
-3.7400504967425
30
0
41
1
10
177.2502363516
20
-3.69081364358294
30
0
41
1
10
177.293539407026
20
-3.58952052015573
30
0
41
1
10
177.314327604567
20
-3.53700315277572
30
0
41
1
10
177.352263675432
20
-3.43245052326151
30
0
41
1
10
177.369554976326
20
-3.38014689233702
30
0
41
1
10
177.400660377995
20
-3.27548298241507
30
0
41
1
10
177.414536959365
20
-3.22285316709099
30
0
41
1
10
177.450048620726
20
-3.0666127230769
30
0
41
1
10
177.464737950287
20
-2.96889199247462
30
0
41
1
10
177.476613798671
20
-2.78755478471189
30
0
41
1
10
177.473524905656
20
-2.70802525726688
30
0
41
1
10
177.451913200731
20
-2.5701034254956
30
0
41
1
10
177.433815199036
20
-2.51392316769534
30
0
41
1
10
177.385410754655
20
-2.4229598979656
30
0
41
1
10
177.35592949198
20
-2.38979869306149
30
0
41
1
10
177.322197166808
20
-2.36685023740185
30
0
0
SPLINE
5
E6
100
AcDbEntity
8
1
62
256
6
ByLayer
370
18
48
1
60
0
100
AcDbSpline
70
4
71
3
72
12
73
8
40
0
40
0
40
0
40
0
40
0.25
40
0.25
40
0.5
40
0.5
40
1
40
1
40
1
40
1
41
1
10
171.797131269955
20
-2.83191932984346
30
0
41
1
10
172.051768610916
20
-3.08765682830622
30
0
41
1
10
172.31495179409
20
-3.32883410518735
30
0
41
1
10
172.855603677946
20
-3.78684930243961
30
0
41
1
10
173.133160889938
20
-4.0036383186567
30
0
41
1
10
173.984777579499
20
-4.62111230425427
30
0
41
1
10
174.566724055362
20
-4.98165985155927
30
0
41
1
10
175.159937134197
20
-5.30166784308994
30
0
0
SPLINE
5
E7
100
AcDbEntity
8
1
62
256
6
ByLayer
370
18
48
1
60
0
100
AcDbSpline
70
4
71
3
72
40
73
36
40
0
40
0
40
0
40
0
40
0.0625000000000004
40
0.0625000000000004
40
0.0937500000000006
40
0.0937500000000006
40
0.125000000000001
40
0.125000000000001
40
0.187500000000001
40
0.187500000000001
40
0.218750000000001
40
0.218750000000001
40
0.250000000000001
40
0.250000000000001
40
0.312500000000001
40
0.312500000000001
40
0.375000000000001
40
0.375000000000001
40
0.406250000000001
40
0.406250000000001
40
0.437500000000001
40
0.437500000000001
40
0.5
40
0.5
40
0.5625
40
0.5625
40
0.593749999999999
40
0.593749999999999
40
0.624999999999999
40
0.624999999999999
40
0.75
40
0.75
40
0.875
40
0.875
40
1
40
1
40
1
40
1
41
1
10
7.47676369313274
20
0.555167204335646
30
0
41
1
10
7.40651379582823
20
0.275261602517588
30
0
41
1
10
7.36229169121009
20
-0.006288608194609
30
0
41
1
10
7.33051533334628
20
-0.430672086629642
30
0
41
1
10
7.32570225529025
20
-0.572477628533676
30
0
41
1
10
7.32711739909143
20
-0.856724845884457
30
0
41
1
10
7.33340973589208
20
-0.99985207281162
30
0
41
1
10
7.36783309896879
20
-1.42508375474006
30
0
41
1
10
7.41092629706526
20
-1.70026744947648
30
0
41
1
10
7.5000121369265
20
-2.10222492310996
30
0
41
1
10
7.53381365180093
20
-2.23439708474171
30
0
41
1
10
7.60899339513648
20
-2.49527783243229
30
0
41
1
10
7.65054422022786
20
-2.62441500359381
30
0
41
1
10
7.78385804454467
20
-3.00143754682546
30
0
41
1
10
7.88446627362799
20
-3.24037196921498
30
0
41
1
10
8.10467151730529
20
-3.69692667011265
30
0
41
1
10
8.22430520947123
20
-3.91451749740318
30
0
41
1
10
8.41639870753829
20
-4.22621304701033
30
0
41
1
10
8.48275784579229
20
-4.32794319487195
30
0
41
1
10
8.61842746739046
20
-4.52493927068977
30
0
41
1
10
8.68768926196219
20
-4.62017730806167
30
0
41
1
10
8.89949672691156
20
-4.89671131956558
30
0
41
1
10
9.04603741304845
20
-5.06886267824922
30
0
41
1
10
9.34921508975239
20
-5.39084083472065
30
0
41
1
10
9.50585962822271
20
-5.54065395250635
30
0
41
1
10
9.74857283991386
20
-5.74942758530753
30
0
41
1
10
9.83077390641452
20
-5.81635434175456
30
0
41
1
10
9.9978571947014
20
-5.94494853344199
30
0
41
1
10
10.0828958433887
20
-6.0067097494865
30
0
41
1
10
10.5111713125563
20
-6.2998969196305
30
0
41
1
10
10.8659831332848
20
-6.48690184687328
30
0
41
1
10
11.6060764252731
20
-6.78036455929899
30
0
41
1
10
11.9913421657696
20
-6.88650581466982
30
0
41
1
10
12.8012454285103
20
-7.02588913805033
30
0
41
1
10
13.2194286000496
20
-7.05804866041242
30
0
41
1
10
13.6542362380256
20
-7.06091429345801
30
0
0
SPLINE
5
E8
100
AcDbEntity
8
1
62
256
6
ByLayer
370
18
48
1
60
0
100
AcDbSpline
70
4
71
3
72
8
73
4
40
0
40
0
40
0
40
0
40
1
40
1
40
1
40
1
41
1
10
7.47676369313274
20
0.555167204335675
30
0
41
1
10
7.26086710232565
20
0.665333691191478
30
0
41
1
10
7.04430586056935
20
0.775770872402092
30
0
41
1
10
6.82708895805882
20
0.886328275581462
30
0
0
SPLINE
5
E9
100
AcDbEntity
8
1
62
256
6
ByLayer
370
18
48
1
60
0
100
AcDbSpline
70
4
71
3
72
14
73
10
40
0
40
0
40
0
40
0
40
0.25
40
0.25
40
0.5
40
0.5
40
0.75
40
0.75
40
1
40
1
40
1
40
1
41
1
10
6.82708895805877
20
0.886328275581462
30
0
41
1
10
6.79575600556623
20
0.902275882887722
30
0
41
1
10
6.76526609770889
20
0.918512417958794
30
0
41
1
10
6.70614342509302
20
0.951754310718798
30
0
41
1
10
6.67922875436477
20
0.967792283334347
30
0
41
1
10
6.63133063527019
20
0.998660105296409
30
0
41
1
10
6.61185585998254
20
1.01253887701196
30
0
41
1
10
6.58413899206641
20
1.03588386773643
30
0
41
1
10
6.57668187709078
20
1.04473914136341
30
0
41
1
10
6.57668187709078
20
1.04981863463772
30
0
0
SPLINE
5
EA
100
AcDbEntity
8
1
62
256
6
ByLayer
370
18
48
1
60
0
100
AcDbSpline
70
4
71
3
72
10
73
6
40
0
40
0
40
0
40
0
40
0.5
40
0.5
40
1
40
1
40
1
40
1
41
1
10
178.975524510919
20
0.158599492354966
30
0
41
1
10
178.977618864761
20
0.141585509539169
30
0
41
1
10
178.98089616546
20
0.122839891392118
30
0
41
1
10
178.989178758064
20
0.0828151898243163
30
0
41
1
10
178.994251372619
20
0.0613377315726495
30
0
41
1
10
178.999974456682
20
0.0393566275032526
30
0
0
SPLINE
5
EB
100
AcDbEntity
8
1
62
256
6
ByLayer
370
18
48
1
60
0
100
AcDbSpline
70
4
71
3
72
8
73
4
40
0
40
0
40
0
40
0
40
1
40
1
40
1
40
1
41
1
10
6.57668187709078
20
1.06783055641452
30
0
41
1
10
6.77465871461465
20
0.961828826679636
30
0
41
1
10
6.97259712703709
20
0.855623153316998
30
0
41
1
10
7.17054500066109
20
0.749303043208812
30
0
0
LINE
5
76
100
AcDbEntity
8
81
62
256
6
ByLayer
370
18
48
1
60
0
100
AcDbLine
10
179
20
0
30
0
11
184
21
0
31
0
39
0
210
0
220
0
230
1
0
LINE
5
77
100
AcDbEntity
8
1
62
256
6
ByLayer
370
18
48
1
60
0
100
AcDbLine
10
6.576682
20
7.43425
30
0
11
0.306524
21
7.430331
31
0
39
0
210
0
220
0
230
1
0
LINE
5
79
100
AcDbEntity
8
1
62
256
6
ByLayer
370
18
48
1
60
0
100
AcDbLine
10
44.865843
20
7.458181
30
0
11
42.635138
21
7.456787
31
0
39
0
210
0
220
0
230
1
0
LINE
5
7A
100
AcDbEntity
8
1
62
256
6
ByLayer
370
18
48
1
60
0
100
AcDbLine
10
88.416366
20
7.4854
30
0
11
86.190731
21
7.484009
31
0
39
0
210
0
220
0
230
1
0
LINE
5
7B
100
AcDbEntity
8
1
62
256
6
ByLayer
370
18
48
1
60
0
100
AcDbLine
10
131.966143
20
7.512618
30
0
11
129.747284
21
7.511232
31
0
39
0
210
0
220
0
230
1
0
LINE
5
7C
100
AcDbEntity
8
1
62
256
6
ByLayer
370
18
48
1
60
0
100
AcDbLine
10
175.517396
20
7.539838
30
0
11
173.30257
21
7.538454
31
0
39
0
210
0
220
0
230
1
0
LINE
5
7D
100
AcDbEntity
8
1
62
256
6
ByLayer
370
18
48
1
60
0
100
AcDbLine
10
173.30257
20
-7.538454
30
0
11
175.517176
21
-7.539838
31
0
39
0
210
0
220
0
230
1
0
LINE
5
7E
100
AcDbEntity
8
1
62
256
6
ByLayer
370
18
48
1
60
0
100
AcDbLine
10
129.747284
20
-7.511232
30
0
11
131.966756
21
-7.512619
31
0
39
0
210
0
220
0
230
1
0
LINE
5
7F
100
AcDbEntity
8
1
62
256
6
ByLayer
370
18
48
1
60
0
100
AcDbLine
10
86.190731
20
-7.484009
30
0
11
88.415862
21
-7.485399
31
0
39
0
210
0
220
0
230
1
0
LINE
5
80
100
AcDbEntity
8
1
62
256
6
ByLayer
370
18
48
1
60
0
100
AcDbLine
10
42.635138
20
-7.456787
30
0
11
44.86626
21
-7.458181
31
0
39
0
210
0
220
0
230
1
0
LINE
5
81
100
AcDbEntity
8
1
62
256
6
ByLayer
370
18
48
1
60
0
100
AcDbLine
10
0.306524
20
-7.430331
30
0
11
6.576682
21
-7.43425
31
0
39
0
210
0
220
0
230
1
0
LINE
5
82
100
AcDbEntity
8
SK1
62
256
6
ByLayer
370
18
48
1
60
0
100
AcDbLine
10
-45.979274
20
8
30
0
11
-48
21
4.5
31
0
39
0
210
0
220
0
230
1
0
LINE
5
84
100
AcDbEntity
8
SK1
62
256
6
ByLayer
370
18
48
1
60
0
100
AcDbLine
10
-48
20
-4.5
30
0
11
-45.979274
21
-8
31
0
39
0
210
0
220
0
230
1
0
LINE
5
85
100
AcDbEntity
8
SK1
62
256
6
ByLayer
370
18
48
1
60
0
100
AcDbLine
10
0
20
8
30
0
11
-45.979274
21
8
31
0
39
0
210
0
220
0
230
1
0
LINE
5
86
100
AcDbEntity
8
SK1
62
256
6
ByLayer
370
18
48
1
60
0
100
AcDbLine
10
-45.979274
20
-8
30
0
11
0
21
-8
31
0
39
0
210
0
220
0
230
1
0
LINE
5
87
100
AcDbEntity
8
SK4
62
256
6
ByLayer
370
18
48
0.05
60
0
100
AcDbLine
10
184
20
0
30
0
11
-53
21
0
31
0
39
0
210
0
220
0
230
1
0
LINE
5
89
100
AcDbEntity
8
4
62
256
6
ByLayer
370
18
48
0.05
60
0
100
AcDbLine
10
179
20
0
30
0
11
0
21
0
31
0
39
0
210
0
220
0
230
1
0
LINE
5
8B
100
AcDbEntity
8
80
62
256
6
ByLayer
370
18
48
1
60
0
100
AcDbLine
10
0
20
0
30
0
11
-5
21
0
31
0
39
0
210
0
220
0
230
1
0
LINE
5
8C
100
AcDbEntity
8
SK1
62
256
6
ByLayer
370
18
48
1
60
0
100
AcDbLine
10
-48
20
-4.5
30
0
11
-48
21
-3.603454
31
0
39
0
210
0
220
0
230
1
0
LINE
5
8D
100
AcDbEntity
8
SK1
62
256
6
ByLayer
370
18
48
1
60
0
100
AcDbLine
10
-48
20
-0.730511
30
0
11
-48
21
-3.603454
31
0
39
0
210
0
220
0
230
1
0
LINE
5
8E
100
AcDbEntity
8
SK1
62
256
6
ByLayer
370
18
48
1
60
0
100
AcDbLine
10
-46
20
-5.517994
30
0
11
-46
21
-3.189397
31
0
39
0
210
0
220
0
230
1
0
LINE
5
8F
100
AcDbEntity
8
SK1
62
256
6
ByLayer
370
18
48
1
60
0
100
AcDbLine
10
-48
20
4.5
30
0
11
-48
21
-0.730463
31
0
39
0
210
0
220
0
230
1
0
LINE
5
90
100
AcDbEntity
8
SK1
62
256
6
ByLayer
370
18
48
1
60
0
100
AcDbLine
10
-45.979274
20
8
30
0
11
-45.979274
21
-8
31
0
39
0
210
0
220
0
230
1
0
LINE
5
91
100
AcDbEntity
8
SK1
62
256
6
ByLayer
370
13
48
1
60
0
100
AcDbLine
10
-46.1
20
-2.99791
30
0
11
-46.1
21
-5.4929
31
0
39
0
210
0
220
0
230
1
0
LINE
5
92
100
AcDbEntity
8
SK1
62
256
6
ByLayer
370
18
48
1
60
0
100
AcDbLine
10
0
20
8
30
0
11
0
21
-8
31
0
39
0
210
0
220
0
230
1
0
LINE
5
93
100
AcDbEntity
8
1
62
256
6
ByLayer
370
18
48
1
60
0
100
AcDbLine
10
6.576682
20
-7.43425
30
0
11
6.576682
21
1.067831
31
0
39
0
210
0
220
0
230
1
0
LINE
5
94
100
AcDbEntity
8
1
62
256
6
ByLayer
370
13
48
1
60
0
100
AcDbLine
10
0.306524
20
7.430331
30
0
11
0.306524
21
-7.430331
31
0
39
0
210
0
220
0
230
1
0
LINE
5
95
100
AcDbEntity
8
1
62
256
6
ByLayer
370
18
48
1
60
0
100
AcDbLine
10
177.322197
20
-2.36685
30
0
11
178.801448
21
-0.359076
31
0
39
0
210
0
220
0
230
1
0
LINE
5
96
100
AcDbEntity
8
1
62
256
6
ByLayer
370
13
48
1
60
0
100
AcDbLine
10
176.16514
20
1.698413
30
0
11
178.956634
21
-0.06867
31
0
39
0
210
0
220
0
230
1
0
LINE
5
97
100
AcDbEntity
8
1
62
256
6
ByLayer
370
18
48
1
60
0
100
AcDbLine
10
6.576682
20
7.43425
30
0
11
6.576682
21
6.959413
31
0
39
0
210
0
220
0
230
1
0
LINE
5
98
100
AcDbEntity
8
1
62
256
6
ByLayer
370
13
48
1
60
0
100
AcDbLine
10
176.310427
20
1.84567
30
0
11
178.975525
21
0.158599
31
0
39
0
210
0
220
0
230
1
0
LINE
5
99
100
AcDbEntity
8
1
62
256
6
ByLayer
370
18
48
1
60
0
100
AcDbLine
10
175.159937
20
-5.301668
30
0
11
176.057434
21
-4.083502
31
0
39
0
210
0
220
0
230
1
0
MTEXT
5
EC
100
AcDbEntity
8
SK6
62
256
6
ByLayer
370
13
48
1
60
0
100
AcDbMText
10
67.629169
20
39.923194
30
0
210
0
220
0
230
1
1
\W0.7217;460.1-1508-113A1-XM GC34
40
3.5
41
0
44
1.084337
50
0
71
8
72
5
7
iso_b_vert
0
DIMENSION
5
F9
100
AcDbEntity
8
SK2
62
256
6
ByLayer
370
13
48
1
60
0
100
AcDbDimension
2
DimnDraft3D1
10
176.7504
20
-17.753898
30
0
11
86.500459
21
-17.753898
31
0
70
32
71
5
72
1
41
1
210
0
220
0
230
1
3
Standard
100
AcDbAlignedDimension
13
0
23
-1.5875
33
0
14
176.7504
24
-9.128
34
0
50
0
100
AcDbRotatedDimension
1001
ACAD
1000
DSTYLE
1002
{
1070
   279
1070
     0
1070
   172
1070
     1
1070
   173
1070
     1
1070
   340
1005
ED
1070
   271
1070
     2
1070
   272
1070
     2
1070
    77
1070
     1
1070
    73
1070
     0
1070
   171
1070
     3
1070
   274
1070
     4
1070
   177
1070
    35
1070
   176
1070
    35
1070
   178
1070
    35
1070
    48
1040
-0.005
1070
    41
1041
3.5
1070
   147
1041
1.75
1070
    42
1041
1.5875
1070
    44
1041
2.0
1070
   140
1041
3.5
1070
   343
1005
0
1070
   344
1005
0
1002
}
0
DIMENSION
5
103
100
AcDbEntity
8
SK2
62
256
6
ByLayer
370
13
48
1
60
0
100
AcDbDimension
2
DimnDraft3D2
10
179
20
-36.692985
30
0
11
64.5917
21
-36.692985
31
0
70
32
71
5
72
1
41
1
210
0
220
0
230
1
3
Standard
100
AcDbAlignedDimension
13
-48
23
-9.5875
33
0
14
179
24
-1.5875
34
0
50
0
100
AcDbRotatedDimension
1001
ACAD
1000
DSTYLE
1002
{
1070
   279
1070
     0
1070
   172
1070
     1
1070
   173
1070
     1
1070
   340
1005
ED
1070
   271
1070
     2
1070
   272
1070
     2
1070
    77
1070
     1
1070
    73
1070
     0
1070
   171
1070
     3
1070
   274
1070
     4
1070
   177
1070
    35
1070
   176
1070
    35
1070
   178
1070
    35
1070
    48
1040
-0.005
1070
    41
1041
3.5
1070
   147
1041
1.75
1070
    42
1041
1.5875
1070
    44
1041
2.0
1070
   140
1041
3.5
1070
   343
1005
0
1070
   344
1005
0
1002
}
0
DIMENSION
5
10D
100
AcDbEntity
8
SK2
62
256
6
ByLayer
370
13
48
1
60
0
100
AcDbDimension
2
DimnDraft3D3
10
179
20
19.149619
30
0
11
117.56
21
19.149619
31
0
70
32
71
5
72
1
41
1
210
0
220
0
230
1
3
Standard
100
AcDbAlignedDimension
13
56.12
23
9.128
33
0
14
179
24
1.5875
34
0
50
0
100
AcDbRotatedDimension
1001
ACAD
1000
DSTYLE
1002
{
1070
   279
1070
     0
1070
   172
1070
     1
1070
   173
1070
     1
1070
   340
1005
ED
1070
   271
1070
     2
1070
   272
1070
     2
1070
    77
1070
     1
1070
    73
1070
     0
1070
   171
1070
     3
1070
   274
1070
     4
1070
   177
1070
    35
1070
   176
1070
    35
1070
   178
1070
    35
1070
    48
1040
-0.005
1070
    41
1041
3.5
1070
   147
1041
1.75
1070
    42
1041
1.5875
1070
    44
1041
2.0
1070
   140
1041
3.5
1070
   343
1005
0
1070
   344
1005
0
1002
}
0
DIMENSION
5
117
100
AcDbEntity
8
SK2
62
256
6
ByLayer
370
13
48
1
60
0
100
AcDbDimension
2
DimnDraft3D4
10
176.7504
20
-20.343003
30
0
11
188.981425
21
-20.343003
31
0
70
32
71
5
72
1
41
1
210
0
220
0
230
1
3
Standard
100
AcDbAlignedDimension
13
179
23
-1.5875
33
0
14
176.7504
24
-9.128
34
0
50
0
100
AcDbRotatedDimension
1001
ACAD
1000
DSTYLE
1002
{
1070
   279
1070
     0
1070
   172
1070
     1
1070
   173
1070
     1
1070
   340
1005
ED
1070
   271
1070
     2
1070
   272
1070
     2
1070
    77
1070
     1
1070
    73
1070
     0
1070
   171
1070
     3
1070
   274
1070
     4
1070
   177
1070
    35
1070
   176
1070
    35
1070
   178
1070
    35
1070
    48
1040
-0.005
1070
    41
1041
3.5
1070
   147
1041
1.75
1070
    42
1041
1.5875
1070
    44
1041
2.0
1070
   140
1041
3.5
1070
   343
1005
0
1070
   344
1005
0
1002
}
0
DIMENSION
5
121
100
AcDbEntity
8
SK2
62
256
6
ByLayer
370
13
48
1
60
0
100
AcDbDimension
2
DimnDraft3D5
10
176.7504
20
-26.343428
30
0
11
61.511076
21
-26.343428
31
0
70
32
71
5
72
1
41
1
210
0
220
0
230
1
3
Standard
100
AcDbAlignedDimension
13
-48
23
-9.5875
33
0
14
176.7504
24
-9.128
34
0
50
0
100
AcDbRotatedDimension
1001
ACAD
1000
DSTYLE
1002
{
1070
   279
1070
     0
1070
   172
1070
     1
1070
   173
1070
     1
1070
   340
1005
ED
1070
   271
1070
     2
1070
   272
1070
     2
1070
    77
1070
     1
1070
    73
1070
     0
1070
   171
1070
     3
1070
   274
1070
     4
1070
   177
1070
    35
1070
   176
1070
    35
1070
   178
1070
    35
1070
    48
1040
-0.005
1070
    41
1041
3.5
1070
   147
1041
1.75
1070
    42
1041
1.5875
1070
    44
1041
2.0
1070
   140
1041
3.5
1070
   343
1005
0
1070
   344
1005
0
1002
}
0
DIMENSION
5
12C
100
AcDbEntity
8
SK2
62
256
6
ByLayer
370
13
48
1
60
0
100
AcDbDimension
2
DimnDraft3D6
10
-58.625163
20
8
30
0
11
-59.250163
21
26.47418
31
0
70
33
71
5
72
1
41
1
210
0
220
0
230
1
3
Standard
100
AcDbAlignedDimension
13
-49.5875
23
-8
33
0
14
-49.5875
24
8
34
0
1001
ACAD
1000
DSTYLE
1002
{
1070
   279
1070
     0
1070
    74
1070
     0
1070
   173
1070
     1
1070
   340
1005
ED
1070
   271
1070
     3
1070
   272
1070
     2
1070
    77
1070
     1
1070
    73
1070
     0
1070
   171
1070
     3
1070
   274
1070
     4
1070
   177
1070
    35
1070
   176
1070
    35
1070
   178
1070
    35
1070
    48
1040
-0.005
1070
    41
1041
3.5
1070
   147
1041
1.75
1070
    42
1041
1.5875
1070
    44
1041
2.0
1070
   140
1041
3.5
1070
   343
1005
0
1070
   344
1005
0
1002
}
0
DIMENSION
5
137
100
AcDbEntity
8
2
62
256
6
ByLayer
370
13
48
1
60
0
100
AcDbDimension
2
DimnDraft3D7
10
193.083343
20
7.5405
30
0
11
188.458343
21
24.607766
31
0
70
33
71
5
72
1
41
1
210
0
220
0
230
1
3
Standard
100
AcDbAlignedDimension
13
178.3379
23
-7.5405
33
0
14
178.3379
24
7.5405
34
0
1001
ACAD
1000
DSTYLE
1002
{
1070
   279
1070
     0
1070
    74
1070
     0
1070
   173
1070
     1
1070
   340
1005
ED
1070
   271
1070
     3
1070
   272
1070
     2
1070
    77
1070
     1
1070
    73
1070
     0
1070
   171
1070
     3
1070
   274
1070
     4
1070
   177
1070
    35
1070
   176
1070
    35
1070
   178
1070
    35
1070
    48
1040
-0.005
1070
    41
1041
3.5
1070
   147
1041
1.75
1070
    42
1041
1.5875
1070
    44
1041
2.0
1070
   140
1041
3.5
1070
   343
1005
0
1070
   344
1005
0
1002
}
0
ENDSEC
0
SECTION
2
OBJECTS
0
DICTIONARY
5
1a2
330
0
100
AcDbDictionary
280
0
281
1
3
ACAD_GROUP
350
1a3
3
ACAD_MLINESTYLE
350
1a4
0
DICTIONARY
5
1a3
330
0
100
AcDbDictionary
280
0
281
1
0
DICTIONARY
5
1a4
330
0
100
AcDbDictionary
280
0
281
1
3
Standard
350
18
0
MLINESTYLE
5
18
330
1a4
100
AcDbMlineStyle
2
Standard
70
0
3

62
256
51
90
52
90
71
2
49
-0.5
62
256
6
ByLayer
49
0.5
62
256
6
ByLayer
0
RASTERVARIABLES
5
190
330

100
AcDbRasterVariables
90
0
70
1
71
1
72
1
0
ENDSEC
0
EOF
