0
SECTION
2
HEADER
9
$ACADVER
1
AC1015
9
$DWGCODEPAGE
3
ANSI_1252
9
$HANDSEED
5
19a
9
$ANGBASE
50
0
9
$ANGDIR
70
0
9
$ATTMODE
70
1
9
$AUNITS
70
0
9
$AUPREC
70
0
9
$CECOLOR
62
256
9
$CELTSCALE
40
1
9
$CELTYPE
6
ByLayer
9
$CELWEIGHT
370
18
9
$CLAYER
8
0
9
$CMLJUST
70
0
9
$CMLSCALE
40
1
9
$CMLSTYLE
2
Standard
9
$DIMSTYLE
2
Standard
9
$TEXTSIZE
40
0.2
9
$TEXTSTYLE
7
Standard
9
$LUNITS
70
2
9
$LUPREC
70
4
9
$EXTNAMES
290
1
9
$INSUNITS
70
4
9
$LTSCALE
40
1
9
$LWDISPLAY
290
1
9
$PDMODE
70
0
9
$PDSIZE
40
0
9
$PLINEGEN
70
0
0
ENDSEC
0
SECTION
2
CLASSES
0
CLASS
1
RASTERVARIABLES
2
AcDbRasterVariables
3
ISM
90
0
280
0
281
0
0
ENDSEC
0
SECTION
2
TABLES
0
TABLE
2
VPORT
5
190
100
AcDbSymbolTable
0
VPORT
5
1
100
AcDbSymbolTableRecord
100
AcDbViewportTableRecord
2
*Active
70
0
10
0
20
0
11
1
21
1
12
-1
22
1
13
0
23
0
14
0.5
24
0.5
15
10
25
10
16
0
26
0
36
1
17
0
27
0
37
0
0
ENDTAB
0
TABLE
2
LTYPE
5
191
100
AcDbSymbolTable
0
LTYPE
5
14
100
AcDbSymbolTableRecord
100
AcDbLinetypeTableRecord
70
0
2
ByBlock
3

72
65
73
0
40
0
0
LTYPE
5
15
100
AcDbSymbolTableRecord
100
AcDbLinetypeTableRecord
70
0
2
ByLayer
3

72
65
73
0
40
0
0
LTYPE
5
16
100
AcDbSymbolTableRecord
100
AcDbLinetypeTableRecord
70
0
2
CONTINUOUS
3
Solid line
72
65
73
0
40
0
0
LTYPE
5
6A
100
AcDbSymbolTableRecord
100
AcDbLinetypeTableRecord
70
0
2
CENTER
3
____ _ ____ _ ____ _ ____
72
65
73
4
40
47.5
49
22
74
0
49
-8.5
74
0
49
8.5
74
0
49
-8.5
74
0
0
LTYPE
5
6B
100
AcDbSymbolTableRecord
100
AcDbLinetypeTableRecord
70
0
2
DASHED
3
__ __ __ __ __ __ __ __ __
72
65
73
2
40
25.72
49
12.86
74
0
49
-12.86
74
0
0
ENDTAB
0
TABLE
2
LAYER
5
192
100
AcDbSymbolTable
0
LAYER
5
10
100
AcDbSymbolTableRecord
100
AcDbLayerTableRecord
2
0
70
0
62
7
6
CONTINUOUS
290
1
370
-3
390
0
0
LAYER
5
6D
100
AcDbSymbolTableRecord
100
AcDbLayerTableRecord
2
81
70
0
62
-3
6
CONTINUOUS
290
1
370
-3
390
0
0
LAYER
5
6F
100
AcDbSymbolTableRecord
100
AcDbLayerTableRecord
2
80
70
0
62
-6
6
CONTINUOUS
290
1
370
-3
390
0
0
LAYER
5
74
100
AcDbSymbolTableRecord
100
AcDbLayerTableRecord
2
2
70
0
62
7
6
CONTINUOUS
290
1
370
-3
390
0
0
LAYER
5
78
100
AcDbSymbolTableRecord
100
AcDbLayerTableRecord
2
1
70
0
62
4
6
CONTINUOUS
290
1
370
-3
390
0
0
LAYER
5
86
100
AcDbSymbolTableRecord
100
AcDbLayerTableRecord
2
4
70
0
62
-2
6
CENTER
290
1
370
-3
390
0
0
LAYER
5
17c
100
AcDbSymbolTableRecord
100
AcDbLayerTableRecord
2
SK2
70
0
62
7
6
CONTINUOUS
290
1
370
-3
390
0
0
LAYER
5
17d
100
AcDbSymbolTableRecord
100
AcDbLayerTableRecord
2
SK1
70
0
62
4
6
CONTINUOUS
290
1
370
-3
390
0
0
LAYER
5
17e
100
AcDbSymbolTableRecord
100
AcDbLayerTableRecord
2
SK4
70
0
62
2
6
CENTER
290
1
370
-3
390
0
0
LAYER
5
17f
100
AcDbSymbolTableRecord
100
AcDbLayerTableRecord
2
SK6
70
0
62
5
6
CONTINUOUS
290
1
370
-3
390
0
0
ENDTAB
0
TABLE
2
STYLE
5
193
100
AcDbSymbolTable
0
STYLE
5
11
100
AcDbSymbolTableRecord
100
AcDbTextStyleTableRecord
2
Standard
3
txt
70
0
71
0
40
0
41
1
42
0
50
0
0
STYLE
5
D8
100
AcDbSymbolTableRecord
100
AcDbTextStyleTableRecord
2
iso_b_vert
3
simplex.shx
70
0
71
0
40
0
41
1
42
0
50
0
0
STYLE
5
D9
100
AcDbSymbolTableRecord
100
AcDbTextStyleTableRecord
2
DWGDirectTextStyle
3
simplex
70
0
71
0
40
0
41
1
42
0
50
0
0
ENDTAB
0
TABLE
2
DIMSTYLE
5
194
100
AcDbSymbolTable
100
AcDbDimStyleTable
0
DIMSTYLE
105
27
100
AcDbSymbolTableRecord
100
AcDbDimStyleTableRecord
2
Standard
70
0
3
<>
41
0.18
42
0.0625
44
0.18
140
0.18
147
0.09
73
0
74
0
77
1
271
2
275
0
278
52
280
0
340
11
0
ENDTAB
0
TABLE
2
VIEW
5
195
100
AcDbSymbolTable
0
ENDTAB
0
TABLE
2
UCS
5
196
100
AcDbSymbolTable
0
ENDTAB
0
TABLE
2
APPID
5
197
100
AcDbSymbolTable
0
APPID
5
12
100
AcDbSymbolTableRecord
100
AcDbRegAppTableRecord
2
ACAD
70
0
0
ENDTAB
0
TABLE
2
BLOCK_RECORD
5
198
100
AcDbSymbolTable
0
BLOCK_RECORD
5
1F
100
AcDbSymbolTableRecord
100
AcDbBlockTableRecord
2
*Model_Space
340
0
70
0
0
BLOCK_RECORD
5
1B
100
AcDbSymbolTableRecord
100
AcDbBlockTableRecord
2
*Paper_Space
340
0
70
0
0
BLOCK_RECORD
5
23
100
AcDbSymbolTableRecord
100
AcDbBlockTableRecord
2
*Paper_Space0
340
0
70
0
0
BLOCK_RECORD
5
DB
100
AcDbSymbolTableRecord
100
AcDbBlockTableRecord
2
DimnDraft3D1
340
0
70
0
0
BLOCK_RECORD
5
E5
100
AcDbSymbolTableRecord
100
AcDbBlockTableRecord
2
DimnDraft3D2
340
0
70
0
0
BLOCK_RECORD
5
EF
100
AcDbSymbolTableRecord
100
AcDbBlockTableRecord
2
DimnDraft3D3
340
0
70
0
0
BLOCK_RECORD
5
F9
100
AcDbSymbolTableRecord
100
AcDbBlockTableRecord
2
DimnDraft3D4
340
0
70
0
0
BLOCK_RECORD
5
103
100
AcDbSymbolTableRecord
100
AcDbBlockTableRecord
2
DimnDraft3D5
340
0
70
0
0
BLOCK_RECORD
5
10D
100
AcDbSymbolTableRecord
100
AcDbBlockTableRecord
2
DimnDraft3D6
340
0
70
0
0
BLOCK_RECORD
5
118
100
AcDbSymbolTableRecord
100
AcDbBlockTableRecord
2
DimnDraft3D7
340
0
70
0
0
ENDTAB
0
ENDSEC
0
SECTION
2
BLOCKS
0
BLOCK
5
20
100
AcDbEntity
8
0
100
AcDbBlockBegin
2
*Model_Space
70
0
10
0
20
0
30
0
3
*Model_Space
0
ENDBLK
5
21
100
AcDbEntity
8
0
100
AcDbBlockEnd
0
BLOCK
5
1C
100
AcDbEntity
8
0
100
AcDbBlockBegin
2
*Paper_Space
70
0
10
0
20
0
30
0
3
*Paper_Space
0
ENDBLK
5
1D
100
AcDbEntity
8
0
100
AcDbBlockEnd
0
BLOCK
5
24
100
AcDbEntity
8
0
100
AcDbBlockBegin
2
*Paper_Space0
70
0
10
0
20
0
30
0
3
*Paper_Space0
0
ENDBLK
5
25
100
AcDbEntity
8
0
100
AcDbBlockEnd
0
BLOCK
5
E2
100
AcDbEntity
8
0
100
AcDbBlockBegin
2
DimnDraft3D1
70
0
10
0
20
0
30
0
3
DimnDraft3D1
0
MTEXT
5
DC
100
AcDbEntity
8
SK2
62
256
6
ByLayer
370
13
48
1
60
0
100
AcDbMText
10
35.063875
20
-16.838398
30
0
210
0
220
0
230
1
1
\W0.7317;82,76
40
3.5
41
0
44
1.084337
50
0
71
7
72
5
7
iso_b_vert
0
LINE
5
DD
100
AcDbEntity
8
SK2
62
256
6
ByLayer
370
13
48
1
60
0
100
AcDbLine
10
0
20
-1.5875
30
0
11
0
21
-19.713398
31
0
39
0
210
0
220
0
230
1
0
LINE
5
DE
100
AcDbEntity
8
SK2
62
256
6
ByLayer
370
13
48
1
60
0
100
AcDbLine
10
82.7625
20
-9.0875
30
0
11
82.7625
21
-19.713398
31
0
39
0
210
0
220
0
230
1
0
LINE
5
DF
100
AcDbEntity
8
SK2
62
256
6
ByLayer
370
13
48
1
60
0
100
AcDbLine
10
0
20
-17.713398
30
0
11
82.7625
21
-17.713398
31
0
39
0
210
0
220
0
230
1
0
SOLID
5
E0
100
AcDbEntity
8
SK2
62
256
6
ByLayer
370
13
48
1
60
0
100
AcDbTrace
10
0
20
-17.713398
30
0
11
3.499998
21
-17.252615
31
0
12
3.500002
22
-18.174182
32
0
13
0
23
-17.713398
33
0
39
0
210
0
220
0
230
1
0
SOLID
5
E1
100
AcDbEntity
8
SK2
62
256
6
ByLayer
370
13
48
1
60
0
100
AcDbTrace
10
82.7625
20
-17.713398
30
0
11
79.262502
21
-18.174182
31
0
12
79.262498
22
-17.252615
32
0
13
82.7625
23
-17.713398
33
0
39
0
210
0
220
0
230
1
0
ENDBLK
5
E3
100
AcDbEntity
8
0
100
AcDbBlockEnd
0
BLOCK
5
EC
100
AcDbEntity
8
0
100
AcDbBlockBegin
2
DimnDraft3D2
70
0
10
0
20
0
30
0
3
DimnDraft3D2
0
MTEXT
5
E6
100
AcDbEntity
8
SK2
62
256
6
ByLayer
370
13
48
1
60
0
100
AcDbMText
10
12.284721
20
-35.817985
30
0
210
0
220
0
230
1
1
\W0.6930;133,00
40
3.5
41
0
44
1.084337
50
0
71
7
72
5
7
iso_b_vert
0
LINE
5
E7
100
AcDbEntity
8
SK2
62
256
6
ByLayer
370
13
48
1
60
0
100
AcDbLine
10
-48
20
-9.5875
30
0
11
-48
21
-38.692985
31
0
39
0
210
0
220
0
230
1
0
LINE
5
E8
100
AcDbEntity
8
SK2
62
256
6
ByLayer
370
13
48
1
60
0
100
AcDbLine
10
85
20
-1.5875
30
0
11
85
21
-38.692985
31
0
39
0
210
0
220
0
230
1
0
LINE
5
E9
100
AcDbEntity
8
SK2
62
256
6
ByLayer
370
13
48
1
60
0
100
AcDbLine
10
-48
20
-36.692985
30
0
11
85
21
-36.692985
31
0
39
0
210
0
220
0
230
1
0
SOLID
5
EA
100
AcDbEntity
8
SK2
62
256
6
ByLayer
370
13
48
1
60
0
100
AcDbTrace
10
-48
20
-36.692985
30
0
11
-44.500002
21
-36.232202
31
0
12
-44.499998
22
-37.153769
32
0
13
-48
23
-36.692985
33
0
39
0
210
0
220
0
230
1
0
SOLID
5
EB
100
AcDbEntity
8
SK2
62
256
6
ByLayer
370
13
48
1
60
0
100
AcDbTrace
10
85
20
-36.692985
30
0
11
81.500002
21
-37.153769
31
0
12
81.499998
22
-36.232202
32
0
13
85
23
-36.692985
33
0
39
0
210
0
220
0
230
1
0
ENDBLK
5
ED
100
AcDbEntity
8
0
100
AcDbBlockEnd
0
BLOCK
5
F6
100
AcDbEntity
8
0
100
AcDbBlockBegin
2
DimnDraft3D3
70
0
10
0
20
0
30
0
3
DimnDraft3D3
0
MTEXT
5
F0
100
AcDbEntity
8
SK2
62
256
6
ByLayer
370
13
48
1
60
0
100
AcDbMText
10
41.936316
20
19.984119
30
0
210
0
220
0
230
1
1
\W0.7317;77,23
40
3.5
41
0
44
1.084337
50
0
71
7
72
5
7
iso_b_vert
0
LINE
5
F1
100
AcDbEntity
8
SK2
62
256
6
ByLayer
370
13
48
1
60
0
100
AcDbLine
10
7.77
20
9.0875
30
0
11
7.77
21
21.109119
31
0
39
0
210
0
220
0
230
1
0
LINE
5
F2
100
AcDbEntity
8
SK2
62
256
6
ByLayer
370
13
48
1
60
0
100
AcDbLine
10
85
20
1.5875
30
0
11
85
21
21.109119
31
0
39
0
210
0
220
0
230
1
0
LINE
5
F3
100
AcDbEntity
8
SK2
62
256
6
ByLayer
370
13
48
1
60
0
100
AcDbLine
10
7.77
20
19.109119
30
0
11
85
21
19.109119
31
0
39
0
210
0
220
0
230
1
0
SOLID
5
F4
100
AcDbEntity
8
SK2
62
256
6
ByLayer
370
13
48
1
60
0
100
AcDbTrace
10
7.77
20
19.109119
30
0
11
11.269998
21
19.569903
31
0
12
11.270002
22
18.648335
32
0
13
7.77
23
19.109119
33
0
39
0
210
0
220
0
230
1
0
SOLID
5
F5
100
AcDbEntity
8
SK2
62
256
6
ByLayer
370
13
48
1
60
0
100
AcDbTrace
10
85
20
19.109119
30
0
11
81.500002
21
18.648335
31
0
12
81.499998
22
19.569903
32
0
13
85
23
19.109119
33
0
39
0
210
0
220
0
230
1
0
ENDBLK
5
F7
100
AcDbEntity
8
0
100
AcDbBlockEnd
0
BLOCK
5
100
100
AcDbEntity
8
0
100
AcDbBlockBegin
2
DimnDraft3D4
70
0
10
0
20
0
30
0
3
DimnDraft3D4
0
MTEXT
5
FA
100
AcDbEntity
8
SK2
62
256
6
ByLayer
370
13
48
1
60
0
100
AcDbMText
10
91.656425
20
-19.427503
30
0
210
0
220
0
230
1
1
\W0.7383;2,24
40
3.5
41
0
44
1.084337
50
0
71
7
72
5
7
iso_b_vert
0
LINE
5
FB
100
AcDbEntity
8
SK2
62
256
6
ByLayer
370
13
48
1
60
0
100
AcDbLine
10
85
20
-1.5875
30
0
11
85
21
-22.302503
31
0
39
0
210
0
220
0
230
1
0
LINE
5
FC
100
AcDbEntity
8
SK2
62
256
6
ByLayer
370
13
48
1
60
0
100
AcDbLine
10
82.7625
20
-9.0875
30
0
11
82.7625
21
-22.302503
31
0
39
0
210
0
220
0
230
1
0
LINE
5
FD
100
AcDbEntity
8
SK2
62
256
6
ByLayer
370
13
48
1
60
0
100
AcDbLine
10
74.0125
20
-20.302503
30
0
11
99.181425
21
-20.302503
31
0
39
0
210
0
220
0
230
1
0
SOLID
5
FE
100
AcDbEntity
8
SK2
62
256
6
ByLayer
370
13
48
1
60
0
100
AcDbTrace
10
85
20
-20.302503
30
0
11
88.499998
21
-19.841719
31
0
12
88.500002
22
-20.763287
32
0
13
85
23
-20.302503
33
0
39
0
210
0
220
0
230
1
0
SOLID
5
FF
100
AcDbEntity
8
SK2
62
256
6
ByLayer
370
13
48
1
60
0
100
AcDbTrace
10
82.7625
20
-20.302503
30
0
11
79.262502
21
-20.763287
31
0
12
79.262498
22
-19.841719
32
0
13
82.7625
23
-20.302503
33
0
39
0
210
0
220
0
230
1
0
ENDBLK
5
101
100
AcDbEntity
8
0
100
AcDbBlockEnd
0
BLOCK
5
10A
100
AcDbEntity
8
0
100
AcDbBlockBegin
2
DimnDraft3D5
70
0
10
0
20
0
30
0
3
DimnDraft3D5
0
MTEXT
5
104
100
AcDbEntity
8
SK2
62
256
6
ByLayer
370
13
48
1
60
0
100
AcDbMText
10
9.204097
20
-25.468428
30
0
210
0
220
0
230
1
1
\W0.6930;130,76
40
3.5
41
0
44
1.084337
50
0
71
7
72
5
7
iso_b_vert
0
LINE
5
105
100
AcDbEntity
8
SK2
62
256
6
ByLayer
370
13
48
1
60
0
100
AcDbLine
10
-48
20
-9.5875
30
0
11
-48
21
-28.343428
31
0
39
0
210
0
220
0
230
1
0
LINE
5
106
100
AcDbEntity
8
SK2
62
256
6
ByLayer
370
13
48
1
60
0
100
AcDbLine
10
82.7625
20
-9.0875
30
0
11
82.7625
21
-28.343428
31
0
39
0
210
0
220
0
230
1
0
LINE
5
107
100
AcDbEntity
8
SK2
62
256
6
ByLayer
370
13
48
1
60
0
100
AcDbLine
10
-48
20
-26.343428
30
0
11
82.7625
21
-26.343428
31
0
39
0
210
0
220
0
230
1
0
SOLID
5
108
100
AcDbEntity
8
SK2
62
256
6
ByLayer
370
13
48
1
60
0
100
AcDbTrace
10
-48
20
-26.343428
30
0
11
-44.500002
21
-25.882645
31
0
12
-44.499998
22
-26.804212
32
0
13
-48
23
-26.343428
33
0
39
0
210
0
220
0
230
1
0
SOLID
5
109
100
AcDbEntity
8
SK2
62
256
6
ByLayer
370
13
48
1
60
0
100
AcDbTrace
10
82.7625
20
-26.343428
30
0
11
79.262502
21
-26.804212
31
0
12
79.262498
22
-25.882645
32
0
13
82.7625
23
-26.343428
33
0
39
0
210
0
220
0
230
1
0
ENDBLK
5
10B
100
AcDbEntity
8
0
100
AcDbBlockEnd
0
BLOCK
5
115
100
AcDbEntity
8
0
100
AcDbBlockBegin
2
DimnDraft3D6
70
0
10
0
20
0
30
0
3
DimnDraft3D6
0
MTEXT
5
10E
100
AcDbEntity
8
SK2
62
256
6
ByLayer
370
13
48
1
60
0
100
AcDbMText
10
-58.375163
20
27.34918
30
0
210
0
220
0
230
1
1
\W0.6930;16,000
40
3.5
41
0
44
1.084337
50
90
71
7
72
5
7
iso_b_vert
0
MTEXT
5
10F
100
AcDbEntity
8
SK2
62
256
6
ByLayer
370
13
48
1
60
0
100
AcDbMText
10
-58.375163
20
22.126524
30
0
210
0
220
0
230
1
1
%%c
40
3.5
41
0
44
1.084337
50
90
71
7
72
5
7
iso_b_vert
0
LINE
5
110
100
AcDbEntity
8
SK2
62
256
6
ByLayer
370
13
48
1
60
0
100
AcDbLine
10
-49.5875
20
-8
30
0
11
-58.625163
21
-8
31
0
39
0
210
0
220
0
230
1
0
LINE
5
111
100
AcDbEntity
8
SK2
62
256
6
ByLayer
370
13
48
1
60
0
100
AcDbLine
10
-49.5875
20
8
30
0
11
-58.625163
21
8
31
0
39
0
210
0
220
0
230
1
0
LINE
5
112
100
AcDbEntity
8
SK2
62
256
6
ByLayer
370
13
48
1
60
0
100
AcDbLine
10
-56.625163
20
-8
30
0
11
-56.625163
21
38.862338
31
0
39
0
210
0
220
0
230
1
0
SOLID
5
113
100
AcDbEntity
8
SK2
62
256
6
ByLayer
370
13
48
1
60
0
100
AcDbTrace
10
-56.625163
20
-8
30
0
11
-57.085946
21
-4.500002
31
0
12
-56.164379
22
-4.499998
32
0
13
-56.625163
23
-8
33
0
39
0
210
0
220
0
230
1
0
SOLID
5
114
100
AcDbEntity
8
SK2
62
256
6
ByLayer
370
13
48
1
60
0
100
AcDbTrace
10
-56.625163
20
8
30
0
11
-56.164379
21
4.500002
31
0
12
-57.085946
22
4.499998
32
0
13
-56.625163
23
8
33
0
39
0
210
0
220
0
230
1
0
ENDBLK
5
116
100
AcDbEntity
8
0
100
AcDbBlockEnd
0
BLOCK
5
120
100
AcDbEntity
8
0
100
AcDbBlockBegin
2
DimnDraft3D7
70
0
10
0
20
0
30
0
3
DimnDraft3D7
0
MTEXT
5
119
100
AcDbEntity
8
2
62
256
6
ByLayer
370
13
48
1
60
0
100
AcDbMText
10
95.333343
20
25.442266
30
0
210
0
220
0
230
1
1
\W0.6930;15,000
40
3.5
41
0
44
1.084337
50
90
71
7
72
5
7
iso_b_vert
0
MTEXT
5
11A
100
AcDbEntity
8
2
62
256
6
ByLayer
370
13
48
1
60
0
100
AcDbMText
10
95.333343
20
20.21961
30
0
210
0
220
0
230
1
1
%%c
40
3.5
41
0
44
1.084337
50
90
71
7
72
5
7
iso_b_vert
0
LINE
5
11B
100
AcDbEntity
8
2
62
256
6
ByLayer
370
13
48
1
60
0
100
AcDbLine
10
84.35
20
-7.5
30
0
11
99.083343
21
-7.5
31
0
39
0
210
0
220
0
230
1
0
LINE
5
11C
100
AcDbEntity
8
2
62
256
6
ByLayer
370
13
48
1
60
0
100
AcDbLine
10
84.35
20
7.5
30
0
11
99.083343
21
7.5
31
0
39
0
210
0
220
0
230
1
0
LINE
5
11D
100
AcDbEntity
8
2
62
256
6
ByLayer
370
13
48
1
60
0
100
AcDbLine
10
97.083343
20
-7.5
30
0
11
97.083343
21
36.955424
31
0
39
0
210
0
220
0
230
1
0
SOLID
5
11E
100
AcDbEntity
8
2
62
256
6
ByLayer
370
13
48
1
60
0
100
AcDbTrace
10
97.083343
20
-7.5
30
0
11
96.622559
21
-4.000002
31
0
12
97.544126
22
-3.999998
32
0
13
97.083343
23
-7.5
33
0
39
0
210
0
220
0
230
1
0
SOLID
5
11F
100
AcDbEntity
8
2
62
256
6
ByLayer
370
13
48
1
60
0
100
AcDbTrace
10
97.083343
20
7.5
30
0
11
97.544126
21
4.000002
31
0
12
96.622559
22
3.999998
32
0
13
97.083343
23
7.5
33
0
39
0
210
0
220
0
230
1
0
ENDBLK
5
121
100
AcDbEntity
8
0
100
AcDbBlockEnd
0
ENDSEC
0
SECTION
2
ENTITIES
0
ARC
5
94
100
AcDbEntity
8
1
62
256
6
ByLayer
370
18
48
1
60
0
100
AcDbCircle
39
0
10
-0.333333
20
7.781817
30
0
40
0.33333300000001
210
0
220
0
230
-1
100
AcDbArc
50
269.96419
51
0
0
ARC
5
95
100
AcDbEntity
8
1
62
256
6
ByLayer
370
18
48
1
60
0
100
AcDbCircle
39
0
10
-0.333333
20
-7.781817
30
0
40
0.33333300000001
210
0
220
0
230
-1
100
AcDbArc
50
0
51
90.03581
0
ELLIPSE
5
96
100
AcDbEntity
8
1
62
256
6
ByLayer
370
18
48
1
60
0
100
AcDbEllipse
10
2.008538
20
7.325036
30
0
11
0.25
21
0
31
0
210
0
220
0
230
1
40
0.999987
41
-3.12935176564781
42
-1.55258609627295
0
ELLIPSE
5
97
100
AcDbEntity
8
1
62
256
6
ByLayer
370
18
48
1
60
0
100
AcDbEllipse
10
2.008538
20
-7.325036
30
0
11
0.25
21
0
31
0
210
0
220
0
230
1
40
0.999987
41
1.58338647047841
42
3.12935176564775
0
POINT
5
6C
100
AcDbEntity
8
81
62
256
6
ByLayer
370
18
48
1
60
0
100
AcDbPoint
10
85
20
0
30
0
39
0
210
0
220
0
230
1
50
360
0
POINT
5
6E
100
AcDbEntity
8
80
62
256
6
ByLayer
370
18
48
1
60
0
100
AcDbPoint
10
0
20
0
30
0
39
0
210
0
220
0
230
1
50
360
0
POINT
5
70
100
AcDbEntity
8
SK2
62
256
6
ByLayer
370
18
48
1
60
1
100
AcDbPoint
10
-48
20
-8
30
0
39
0
210
0
220
0
230
1
50
360
0
POINT
5
72
100
AcDbEntity
8
SK2
62
256
6
ByLayer
370
18
48
1
60
1
100
AcDbPoint
10
-48
20
8
30
0
39
0
210
0
220
0
230
1
50
360
0
POINT
5
73
100
AcDbEntity
8
2
62
256
6
ByLayer
370
18
48
1
60
1
100
AcDbPoint
10
82.7625
20
-7.5
30
0
39
0
210
0
220
0
230
1
50
360
0
POINT
5
75
100
AcDbEntity
8
2
62
256
6
ByLayer
370
18
48
1
60
1
100
AcDbPoint
10
82.7625
20
7.5
30
0
39
0
210
0
220
0
230
1
50
360
0
SPLINE
5
98
100
AcDbEntity
8
1
62
256
6
ByLayer
370
18
48
1
60
0
100
AcDbSpline
70
4
71
1
72
4
73
2
40
0
40
0
40
1
40
1
41
1
10
59.916749960872
20
0.0003058595250707
30
0
41
1
10
59.9167647058648
20
0.0003157026875442
30
0
0
SPLINE
5
99
100
AcDbEntity
8
1
62
256
6
ByLayer
370
18
48
1
60
0
100
AcDbSpline
70
4
71
2
72
6
73
3
40
0
40
0
40
0
40
1
40
1
40
1
41
1
10
81.9068289264861
20
-7.12457917078032
30
0
41
1
10
82.1979986537563
20
-7.12383984361767
30
0
41
1
10
82.4889119278238
20
-7.1249948015691
30
0
0
SPLINE
5
9A
100
AcDbEntity
8
1
62
256
6
ByLayer
370
18
48
1
60
0
100
AcDbSpline
70
4
71
3
72
37
73
33
40
0
40
0
40
0
40
0
40
0.0332419477950803
40
0.070809951255583
40
0.109878641427467
40
0.145992005649186
40
0.174645213679929
40
0.199074553728296
40
0.231633168678314
40
0.253330105353925
40
0.269308480049983
40
0.290990306463192
40
0.319807380986496
40
0.351876230470593
40
0.381796967469218
40
0.409542407887796
40
0.453823308998972
40
0.497509143307817
40
0.539760322916636
40
0.570732402357939
40
0.590046372787568
40
0.61812496439194
40
0.644963441410528
40
0.666821766009177
40
0.685329279441226
40
0.704691324638279
40
0.764776180288594
40
0.817022417320573
40
0.871445499663818
40
0.929245373962301
40
0.985978295056105
40
1
40
1
40
1
40
1
41
1
10
38.3022691440741
20
-7.09656544581716
30
0
41
1
10
38.517515767455
20
-7.09547064543432
30
0
41
1
10
38.983459321489
20
-7.09382292124184
30
0
41
1
10
39.7504119000568
20
-7.08974479305598
30
0
41
1
10
40.5242248420672
20
-7.09599182137117
30
0
41
1
10
41.2241659135433
20
-7.09938432081117
30
0
41
1
10
41.8356842724162
20
-7.09954041527803
30
0
41
1
10
42.4289578153308
20
-7.0995502048672
30
0
41
1
10
42.9726749313686
20
-7.09996079434165
30
0
41
1
10
43.4580809558518
20
-7.10046198596078
30
0
41
1
10
43.8689401696444
20
-7.10105858582759
30
0
41
1
10
44.3288947320022
20
-7.10131342959713
30
0
41
1
10
44.9002679075481
20
-7.10135690498183
30
0
41
1
10
45.5286401119864
20
-7.10135639898417
30
0
41
1
10
46.1495998696855
20
-7.10219643039639
30
0
41
1
10
46.8550625770725
20
-7.10260899469969
30
0
41
1
10
47.6557825898317
20
-7.1021480469567
30
0
41
1
10
48.5568772620535
20
-7.10350933733511
30
0
41
1
10
49.3658788268873
20
-7.10401237409641
30
0
41
1
10
50.0062276620449
20
-7.10367772901776
30
0
41
1
10
50.54850600175
20
-7.10378839684546
30
0
41
1
10
51.0621784387421
20
-7.10495962228808
30
0
41
1
10
51.5934586396411
20
-7.10530667833063
30
0
41
1
10
52.0585076356067
20
-7.1052368200034
30
0
41
1
10
52.471820446437
20
-7.10499972271916
30
0
41
1
10
53.1496569030901
20
-7.10491845829779
30
0
41
1
10
54.0609567731407
20
-7.10696907773664
30
0
41
1
10
55.2148838490329
20
-7.10616322456443
30
0
41
1
10
56.3529974626022
20
-7.10866225922996
30
0
41
1
10
57.5221597195115
20
-7.10716500290752
30
0
41
1
10
58.4116872631687
20
-7.10922120160907
30
0
41
1
10
58.9013058915998
20
-7.1092314470541
30
0
41
1
10
58.9983358229819
20
-7.10922802206537
30
0
0
SPLINE
5
9B
100
AcDbEntity
8
1
62
256
6
ByLayer
370
18
48
1
60
0
100
AcDbSpline
70
4
71
3
72
22
73
18
40
0
40
0
40
0
40
0
40
0.038945914346196
40
0.121602961930924
40
0.206296809031117
40
0.282211614901399
40
0.370247257292977
40
0.460235969792958
40
0.555458947157198
40
0.647191717762233
40
0.748088481049939
40
0.868829946686592
40
0.901311870217729
40
0.924842028272466
40
0.946227781737058
40
0.977531467102781
40
1
40
1
40
1
40
1
41
1
10
58.9962637978813
20
7.10913073491685
30
0
41
1
10
58.7813818988402
20
7.10903878820542
30
0
41
1
10
58.1104465695851
20
7.10872805203562
30
0
41
1
10
56.9722834063223
20
7.10777048865157
30
0
41
1
10
55.6300520240882
20
7.10716660687436
30
0
41
1
10
54.258176869417
20
7.10664050598231
30
0
41
1
10
52.8570833651505
20
7.10443144987292
30
0
41
1
10
51.34945134563
20
7.10570229725158
30
0
41
1
10
49.8214210376659
20
7.10357039742686
30
0
41
1
10
48.2332108219534
20
7.10292101241888
30
0
41
1
10
46.5042049668098
20
7.1025535457816
30
0
41
1
10
45.1021010977458
20
7.10134947432078
30
0
41
1
10
44.1268766640466
20
7.10126455082653
30
0
41
1
10
43.6998843355024
20
7.10082036822374
30
0
41
1
10
43.2792521431822
20
7.10025013393343
30
0
41
1
10
42.8655326637308
20
7.09987590577055
30
0
41
1
10
42.5690177023059
20
7.09968555405263
30
0
41
1
10
42.4450593924234
20
7.09963046526636
30
0
0
SPLINE
5
9C
100
AcDbEntity
8
1
62
256
6
ByLayer
370
18
48
1
60
0
100
AcDbSpline
70
4
71
3
72
31
73
27
40
0
40
0
40
0
40
0
40
0.0604117559623988
40
0.128130386536131
40
0.184660294757885
40
0.233988382212495
40
0.270144246277289
40
0.298561629902813
40
0.326300667523844
40
0.353395897576569
40
0.379965096639872
40
0.425916590986995
40
0.478860218604603
40
0.532902785019675
40
0.563622341872322
40
0.591252611445584
40
0.624326836148024
40
0.664259583869495
40
0.705873575903008
40
0.737613812776189
40
0.759487398599151
40
0.783856830371692
40
0.857926570783046
40
0.927492182346192
40
0.986692525260742
40
1
40
1
40
1
40
1
41
1
10
2.00918049845723
20
-7.07498293202443
30
0
41
1
10
2.27948738870117
20
-7.0758128734121
30
0
41
1
10
2.85281163672434
20
-7.07723072478944
30
0
41
1
10
3.67917242866656
20
-7.07797766772373
30
0
41
1
10
4.45590906783781
20
-7.07815656313349
30
0
41
1
10
5.09139203257317
20
-7.07822819460708
30
0
41
1
10
5.60109182203612
20
-7.07825224018833
30
0
41
1
10
6.01418262572656
20
-7.07823084633699
30
0
41
1
10
6.38672847461501
20
-7.07847207879664
30
0
41
1
10
6.75100272673131
20
-7.07926444292559
30
0
41
1
10
7.19677554365063
20
-7.08019920685285
30
0
41
1
10
7.75821857009743
20
-7.08063561106823
30
0
41
1
10
8.44260117084423
20
-7.08069323086187
30
0
41
1
10
9.0588208296293
20
-7.08122738394729
30
0
41
1
10
9.56176826711587
20
-7.08187874786381
30
0
41
1
10
9.97088512746251
20
-7.08188436041973
30
0
41
1
10
10.4212298535096
20
-7.08160791493782
30
0
41
1
10
10.934150754516
20
-7.08141676225037
30
0
41
1
10
11.4411023321811
20
-7.08193745098728
30
0
41
1
10
11.8672400459825
20
-7.08248261024298
30
0
41
1
10
12.2162101560553
20
-7.08279870302212
30
0
41
1
10
12.7545995790267
20
-7.0829994409074
30
0
41
1
10
13.5064052211601
20
-7.08296946952481
30
0
41
1
10
14.4140797449307
20
-7.08442409216462
30
0
41
1
10
15.049846839307
20
-7.08448262087728
30
0
41
1
10
15.3743138130995
20
-7.08461774941253
30
0
41
1
10
15.4338637542421
20
-7.08464032318665
30
0
0
SPLINE
5
9D
100
AcDbEntity
8
1
62
256
6
ByLayer
370
18
48
1
60
0
100
AcDbSpline
70
4
71
3
72
26
73
22
40
0
40
0
40
0
40
0
40
0.0025580738474688
40
0.0444214115461099
40
0.0979730942184808
40
0.156270166644656
40
0.216173184309654
40
0.266640216048147
40
0.315170492276596
40
0.363469537635834
40
0.419949822522676
40
0.486317156569149
40
0.548854404670205
40
0.588632760743712
40
0.626075657083285
40
0.66117509289141
40
0.700551157924552
40
0.7556548063968
40
0.826862585683463
40
0.914427991711593
40
1
40
1
40
1
40
1
41
1
10
15.4307303948428
20
7.08459492199708
30
0
41
1
10
15.4192871278992
20
7.08459139705644
30
0
41
1
10
15.2205719258137
20
7.08452973614737
30
0
41
1
10
14.7822213799038
20
7.08457944205981
30
0
41
1
10
14.0945405596649
20
7.08387375327015
30
0
41
1
10
13.3261680181479
20
7.08293711452282
30
0
41
1
10
12.5715649864368
20
7.08301163400665
30
0
41
1
10
11.8606584655419
20
7.08253946008457
30
0
41
1
10
11.2016693742321
20
7.08157956139766
30
0
41
1
10
10.515774751223
20
7.08143933165093
30
0
41
1
10
9.75008018959093
20
7.08220931241721
30
0
41
1
10
8.92068539218775
20
7.0809250360189
30
0
41
1
10
8.16601461686363
20
7.08069968077359
30
0
41
1
10
7.54074910657266
20
7.08050128414828
30
0
41
1
10
7.03823578885246
20
7.0799612971899
30
0
41
1
10
6.53752485888427
20
7.07869629570158
30
0
41
1
10
5.95779643117788
20
7.07812103282046
30
0
41
1
10
5.2165608213239
20
7.078290603483
30
0
41
1
10
4.25972538631299
20
7.07809831573493
30
0
41
1
10
3.1665084397213
20
7.07782683799817
30
0
41
1
10
2.39198221654289
20
7.07605554188029
30
0
41
1
10
2.00918977372999
20
7.07492065908681
30
0
0
SPLINE
5
9E
100
AcDbEntity
8
SK1
62
256
6
ByLayer
370
18
48
1
60
0
100
AcDbSpline
70
4
71
3
72
14
73
10
40
0
40
0
40
0
40
0
40
0.5
40
0.5
40
0.75
40
0.75
40
0.875
40
0.875
40
1
40
1
40
1
40
1
41
1
10
-46.1
20
-7.03718190958566
30
0
41
1
10
-46.078998416482
20
-7.0669761060891
30
0
41
1
10
-46.0586701890239
20
-7.09321734871492
30
0
41
1
10
-46.0304433385198
20
-7.12383681603919
30
0
41
1
10
-46.0214721393577
20
-7.13247463048066
30
0
41
1
10
-46.0103047485395
20
-7.13991167598888
30
0
41
1
10
-46.006895500949
20
-7.14150145360125
30
0
41
1
10
-46.001721316688
20
-7.14118034348135
30
0
41
1
10
-46
20
-7.13918679415286
30
0
41
1
10
-46
20
-7.13437374297877
30
0
0
SPLINE
5
9F
100
AcDbEntity
8
SK1
62
256
6
ByLayer
370
18
48
1
60
0
100
AcDbSpline
70
4
71
3
72
10
73
6
40
0
40
0
40
0
40
0
40
0.5
40
0.5
40
1
40
1
40
1
40
1
41
1
10
-46.1
20
-5.2522479054046
30
0
41
1
10
-46.4136171424132
20
-4.80733046573215
30
0
41
1
10
-46.7263420065534
20
-4.36201443844797
30
0
41
1
10
-47.3480601367827
20
-3.46971545014372
30
0
41
1
10
-47.6572175864438
20
-3.02280583119617
30
0
41
1
10
-47.9618118997022
20
-2.57385782389403
30
0
0
SPLINE
5
A0
100
AcDbEntity
8
SK1
62
256
6
ByLayer
370
18
48
1
60
0
100
AcDbSpline
70
4
71
3
72
10
73
6
40
0
40
0
40
0
40
0
40
0.5
40
0.5
40
1
40
1
40
1
40
1
41
1
10
-48
20
-4.30245544802941
30
0
41
1
10
-47.6894818252787
20
-4.76095674462519
30
0
41
1
10
-47.3739417074579
20
-5.21734113841427
30
0
41
1
10
-46.7393942993482
20
-6.12836864749951
30
0
41
1
10
-46.4201576673373
20
-6.58298566078628
30
0
41
1
10
-46.1
20
-7.0371819095856
30
0
0
SPLINE
5
A1
100
AcDbEntity
8
SK1
62
256
6
ByLayer
370
18
48
1
60
0
100
AcDbSpline
70
4
71
3
72
14
73
10
40
0
40
0
40
0
40
0
40
0.124999999999996
40
0.124999999999996
40
0.249999999999991
40
0.249999999999991
40
0.499999999999994
40
0.499999999999994
40
1
40
1
40
1
40
1
41
1
10
-46
20
-5.46843533907648
30
0
41
1
10
-46
20
-5.4606176127032
30
0
41
1
10
-46.0017055870951
20
-5.45090331414949
30
0
41
1
10
-46.0068924291627
20
-5.43086990817724
30
0
41
1
10
-46.0102440228913
20
-5.42081611835093
30
0
41
1
10
-46.0215656644541
20
-5.3905932236903
30
0
41
1
10
-46.030416522685
20
-5.37132255358216
30
0
41
1
10
-46.0585951172059
20
-5.31549242482643
30
0
41
1
10
-46.0788864676936
20
-5.28220091965605
30
0
41
1
10
-46.1
20
-5.2522479054046
30
0
0
SPLINE
5
A2
100
AcDbEntity
8
SK1
62
256
6
ByLayer
370
18
48
1
60
0
100
AcDbSpline
70
4
71
3
72
8
73
4
40
0
40
0
40
0
40
0
40
1
40
1
40
1
40
1
41
1
10
-47.9618118997022
20
-2.57385782389403
30
0
41
1
10
-47.9741997053804
20
-2.5436155691086
30
0
41
1
10
-47.986924541515
20
-2.51369307104068
30
0
41
1
10
-48
20
-2.48409487401483
30
0
0
SPLINE
5
A3
100
AcDbEntity
8
1
62
256
6
ByLayer
370
18
48
1
60
0
100
AcDbSpline
70
4
71
3
72
8
73
4
40
0
40
0
40
0
40
0
40
1
40
1
40
1
40
1
41
1
10
84.9508171366543
20
-0.103548747662558
30
0
41
1
10
84.481762959034
20
-0.858950218628337
30
0
41
1
10
83.9846996778451
20
-1.58531547232002
30
0
41
1
10
83.4720972088307
20
-2.29557170514053
30
0
0
SPLINE
5
A4
100
AcDbEntity
8
1
62
256
6
ByLayer
370
18
48
1
60
0
100
AcDbSpline
70
4
71
3
72
32
73
28
40
0
40
0
40
0
40
0
40
0.0624999999999964
40
0.0624999999999964
40
0.124999999999993
40
0.124999999999993
40
0.187499999999989
40
0.187499999999989
40
0.249999999999986
40
0.249999999999986
40
0.312499999999982
40
0.312499999999982
40
0.374999999999979
40
0.374999999999979
40
0.499999999999983
40
0.499999999999983
40
0.624999999999987
40
0.624999999999987
40
0.687499999999989
40
0.687499999999989
40
0.749999999999991
40
0.749999999999991
40
0.812499999999994
40
0.812499999999994
40
0.874999999999996
40
0.874999999999996
40
1
40
1
40
1
40
1
41
1
10
83.4720972088308
20
-2.29557170514048
30
0
41
1
10
83.4792017969147
20
-2.33986467943555
30
0
41
1
10
83.4828291197084
20
-2.38795700865759
30
0
41
1
10
83.4825151675454
20
-2.49284615012607
30
0
41
1
10
83.478500255055
20
-2.5486248031161
30
0
41
1
10
83.4631813285027
20
-2.66370755477541
30
0
41
1
10
83.4516371453872
20
-2.72440170426393
30
0
41
1
10
83.4222603732807
20
-2.84547911044416
30
0
41
1
10
83.4045660499696
20
-2.90579132899143
30
0
41
1
10
83.363604646197
20
-3.02603902027567
30
0
41
1
10
83.3408621281441
20
-3.08437217319826
30
0
41
1
10
83.2920133550214
20
-3.19640115482824
30
0
41
1
10
83.2656055751496
20
-3.25066182480538
30
0
41
1
10
83.1841629558406
20
-3.4021811987885
30
0
41
1
10
83.1254504431332
20
-3.49110311889223
30
0
41
1
10
83.007274056483
20
-3.63770399178207
30
0
41
1
10
82.9466680549865
20
-3.69679490543865
30
0
41
1
10
82.858022073646
20
-3.76161488194782
30
0
41
1
10
82.8286790143811
20
-3.77945329151066
30
0
41
1
10
82.7702563765339
20
-3.80769249205372
30
0
41
1
10
82.7413990402974
20
-3.81794508744338
30
0
41
1
10
82.6851848551747
20
-3.8306977070589
30
0
41
1
10
82.6576792514056
20
-3.83327215964354
30
0
41
1
10
82.6037675777516
20
-3.83079875993809
30
0
41
1
10
82.5771851248072
20
-3.82567771192743
30
0
41
1
10
82.500529894833
20
-3.79867224281338
30
0
41
1
10
82.453629627793
20
-3.76578644724611
30
0
41
1
10
82.4112388069294
20
-3.71654544174072
30
0
0
SPLINE
5
A5
100
AcDbEntity
8
1
62
256
6
ByLayer
370
18
48
1
60
0
100
AcDbSpline
70
4
71
3
72
48
73
44
40
0
40
0
40
0
40
0
40
0.0312499999999998
40
0.0312499999999998
40
0.0468749999999997
40
0.0468749999999997
40
0.0624999999999995
40
0.0624999999999995
40
0.0781249999999994
40
0.0781249999999994
40
0.0937499999999993
40
0.0937499999999993
40
0.109374999999999
40
0.109374999999999
40
0.124999999999999
40
0.124999999999999
40
0.156249999999999
40
0.156249999999999
40
0.187499999999999
40
0.187499999999999
40
0.218749999999998
40
0.218749999999998
40
0.249999999999998
40
0.249999999999998
40
0.312499999999998
40
0.312499999999998
40
0.374999999999999
40
0.374999999999999
40
0.437499999999999
40
0.437499999999999
40
0.499999999999999
40
0.499999999999999
40
0.5625
40
0.5625
40
0.625
40
0.625
40
0.750000000000001
40
0.750000000000001
40
0.875000000000001
40
0.875000000000001
40
0.937500000000001
40
0.937500000000001
40
1
40
1
40
1
40
1
41
1
10
2.81540939133066
20
-0.500465764572652
30
0
41
1
10
2.73595528897803
20
-0.686358352105628
30
0
41
1
10
2.6820450764879
20
-0.877775884644421
30
0
41
1
10
2.64347803659871
20
-1.17389782823713
30
0
41
1
10
2.6378803972373
20
-1.27406335785665
30
0
41
1
10
2.64105752835889
20
-1.47065573713061
30
0
41
1
10
2.64968147891636
20
-1.56794429744966
30
0
41
1
10
2.67995683535023
20
-1.76061696738782
30
0
41
1
10
2.70183774825699
20
-1.85664114813622
30
0
41
1
10
2.75649257421654
20
-2.0428236000607
30
0
41
1
10
2.7891594967428
20
-2.13314112604274
30
0
41
1
10
2.8634806300486
20
-2.30906158523433
30
0
41
1
10
2.90514260346123
20
-2.39466084537671
30
0
41
1
10
2.99625512568161
20
-2.56173966122643
30
0
41
1
10
3.04590492838707
20
-2.64351638890483
30
0
41
1
10
3.20349243680249
20
-2.88113446005843
30
0
41
1
10
3.31930067731872
20
-3.02863956328537
30
0
41
1
10
3.56605888857086
20
-3.30797715204687
30
0
41
1
10
3.69707368594609
20
-3.43974676014807
30
0
41
1
10
3.97063740231505
20
-3.69108759658832
30
0
41
1
10
4.11371233579246
20
-3.81098440841006
30
0
41
1
10
4.40512810276439
20
-4.03794951271695
30
0
41
1
10
4.55379233718219
20
-4.14536227284484
30
0
41
1
10
5.0066013848427
20
-4.45309249303418
30
0
41
1
10
5.31747217681149
20
-4.63907419174777
30
0
41
1
10
5.95105830179602
20
-4.98377507725229
30
0
41
1
10
6.27382823432274
20
-5.14241653644442
30
0
41
1
10
6.92783541609305
20
-5.43885983207602
30
0
41
1
10
7.25932188928823
20
-5.57592535723532
30
0
41
1
10
7.92974190160407
20
-5.82994891977017
30
0
41
1
10
8.26641831542838
20
-5.94628789945202
30
0
41
1
10
8.94053187817639
20
-6.16057370356919
30
0
41
1
10
9.27823709249958
20
-6.25879977608096
30
0
41
1
10
9.95483094813724
20
-6.4371760302096
30
0
41
1
10
10.2937221435922
20
-6.51725428707582
30
0
41
1
10
11.3124043022644
20
-6.73348098531898
30
0
41
1
10
11.9940712825111
20
-6.84628909630896
30
0
41
1
10
13.3669118689937
20
-7.00661328426702
30
0
41
1
10
14.058060944586
20
-7.0560941030985
30
0
41
1
10
15.1074554256002
20
-7.08488306632674
30
0
41
1
10
15.4596221122078
20
-7.08681989913876
30
0
41
1
10
16.1662670531515
20
-7.0775540937245
30
0
41
1
10
16.5210984658363
20
-7.06646797382487
30
0
41
1
10
16.8779797371274
20
-7.04924512376184
30
0
0
SPLINE
5
A6
100
AcDbEntity
8
1
62
256
6
ByLayer
370
18
48
1
60
0
100
AcDbSpline
70
4
71
3
72
14
73
10
40
0
40
0
40
0
40
0
40
0.148016593521946
40
0.148016593521946
40
0.296033187043891
40
0.296033187043891
40
0.592066374087782
40
0.592066374087782
40
1
40
1
40
1
40
1
41
1
10
82.5757217481596
20
-7.1166429101693
30
0
41
1
10
82.1531864976267
20
-7.12691400027856
30
0
41
1
10
81.7307730040827
20
-7.12720742682225
30
0
41
1
10
80.8855155532546
20
-7.10788528105491
30
0
41
1
10
80.4628301005337
20
-7.08824085122617
30
0
41
1
10
79.2003226125935
20
-7.00033239436036
30
0
41
1
10
78.3635656431038
20
-6.90309750340219
30
0
41
1
10
76.3789592871309
20
-6.58522016115066
30
0
41
1
10
75.2328874297831
20
-6.33170697457234
30
0
41
1
10
74.0835792396157
20
-6.01537546582642
30
0
0
SPLINE
5
A7
100
AcDbEntity
8
1
62
256
6
ByLayer
370
13
48
1
60
0
100
AcDbSpline
70
4
71
3
72
28
73
24
40
0
40
0
40
0
40
0
40
0.087188152704996
40
0.087188152704996
40
0.157275058282273
40
0.157275058282273
40
0.192318511070912
40
0.192318511070912
40
0.227361963859551
40
0.227361963859551
40
0.36753577501411
40
0.36753577501411
40
0.647883397323226
40
0.647883397323226
40
0.788057208477784
40
0.788057208477784
40
0.823100661266424
40
0.823100661266424
40
0.858144114055064
40
0.858144114055064
40
0.928231019632344
40
0.928231019632344
40
1
40
1
40
1
40
1
41
1
10
74.0835790977711
20
-6.01537542678568
30
0
41
1
10
73.5648053491146
20
-5.87258997841116
30
0
41
1
10
73.0453722198104
20
-5.71700572833601
30
0
41
1
10
72.1060044958749
20
-5.41434352927092
30
0
41
1
10
71.6865579308645
20
-5.27156579495696
30
0
41
1
10
71.0555066628033
20
-5.04623432740809
30
0
41
1
10
70.8448370542582
20
-4.96926698007678
30
0
41
1
10
70.4228063031775
20
-4.81167410358327
30
0
41
1
10
70.2112198424455
20
-4.73095538629187
30
0
41
1
10
69.1557123638457
20
-4.32017543841923
30
0
41
1
10
68.3170039690257
20
-3.96788850604852
30
0
41
1
10
65.8089843136248
20
-2.85674942477195
30
0
41
1
10
64.1483596355292
20
-2.04233391245654
30
0
41
1
10
61.640725127891
20
-0.773908423835906
30
0
41
1
10
60.8020151461227
20
-0.34340514668358
30
0
41
1
10
59.7468055631528
20
0.19807054870526
30
0
41
1
10
59.5351963356065
20
0.306624209105934
30
0
41
1
10
59.1129340447156
20
0.522902037623908
30
0
41
1
10
58.9021371139913
20
0.630701215756318
30
0
41
1
10
58.2705867346737
20
0.952768497740067
30
0
41
1
10
57.8506981059042
20
1.16576421783051
30
0
41
1
10
57.0026407037871
20
1.59247007908527
30
0
41
1
10
56.574429179011
20
1.80587684565685
30
0
41
1
10
56.146693399647
20
2.01613153973631
30
0
0
SPLINE
5
A8
100
AcDbEntity
8
1
62
256
6
ByLayer
370
18
48
1
60
0
100
AcDbSpline
70
4
71
3
72
20
73
16
40
0
40
0
40
0
40
0
40
0.216285474550355
40
0.216285474550355
40
0.432570949100709
40
0.432570949100709
40
0.540713686375885
40
0.540713686375885
40
0.64885642365106
40
0.64885642365106
40
0.756999160926235
40
0.756999160926235
40
0.865141898201411
40
0.865141898201411
40
1
40
1
40
1
40
1
41
1
10
16.8779797371274
20
-7.04924512376184
30
0
41
1
10
17.4874628041141
20
-7.01828489618114
30
0
41
1
10
18.0958768414215
20
-6.96608239905268
30
0
41
1
10
19.3110475088953
20
-6.82374311195679
30
0
41
1
10
19.9176863609771
20
-6.73221424045786
30
0
41
1
10
20.8296500525766
20
-6.56687354026977
30
0
41
1
10
21.1338792368667
20
-6.50757184823573
30
0
41
1
10
21.7427346520211
20
-6.37878733800437
30
0
41
1
10
22.0476071564933
20
-6.30883705901118
30
0
41
1
10
22.6561740340767
20
-6.15986916593656
30
0
41
1
10
22.9601927051499
20
-6.080975504278
30
0
41
1
10
23.5683403462439
20
-5.91606706230687
30
0
41
1
10
23.8723905745918
20
-5.83019233478379
30
0
41
1
10
24.5551169346133
20
-5.62575817180124
30
0
41
1
10
24.9336245165179
20
-5.50490365809108
30
0
41
1
10
25.3123780340364
20
-5.37837701754586
30
0
0
SPLINE
5
A9
100
AcDbEntity
8
1
62
256
6
ByLayer
370
18
48
1
60
0
100
AcDbSpline
70
4
71
3
72
36
73
32
40
0
40
0
40
0
40
0
40
0.0476721561412661
40
0.0476721561412661
40
0.103691441074134
40
0.103691441074134
40
0.215730010939868
40
0.215730010939868
40
0.327768580805603
40
0.327768580805603
40
0.383787865738469
40
0.383787865738469
40
0.439807150671335
40
0.439807150671335
40
0.495826435604201
40
0.495826435604201
40
0.551845720537067
40
0.551845720537067
40
0.607865005469934
40
0.607865005469934
40
0.6638842904028
40
0.6638842904028
40
0.719903575335666
40
0.719903575335666
40
0.775922860268533
40
0.775922860268533
40
0.887961430134265
40
0.887961430134265
40
0.943980715067132
40
0.943980715067132
40
1
40
1
40
1
40
1
41
1
10
58.987922928917
20
7.10924300725389
30
0
41
1
10
59.2466032700639
20
7.10966029045738
30
0
41
1
10
59.5050556128711
20
7.10621013161787
30
0
41
1
10
60.0672465007129
20
7.09105485189448
30
0
41
1
10
60.3711670901039
20
7.07813945423564
30
0
41
1
10
61.2833788067789
20
7.02458493450095
30
0
41
1
10
61.8919417728142
20
6.96695062771047
30
0
41
1
10
63.1107680872692
20
6.8113963373801
30
0
41
1
10
63.7195951401442
20
6.71509324158538
30
0
41
1
10
64.6316464807345
20
6.54070691297247
30
0
41
1
10
64.9355050088922
20
6.47794002394281
30
0
41
1
10
65.5430518338912
20
6.34399287635475
30
0
41
1
10
65.8469603972032
20
6.27311725972788
30
0
41
1
10
66.4553162628519
20
6.12095069744115
30
0
41
1
10
66.7597165294715
20
6.03983367362116
30
0
41
1
10
67.3690246255608
20
5.86813344189815
30
0
41
1
10
67.6741043256779
20
5.77759370623968
30
0
41
1
10
68.2829908880096
20
5.58841213595622
30
0
41
1
10
68.5871053009466
20
5.48979336510533
30
0
41
1
10
69.1955234608375
20
5.28594608966779
30
0
41
1
10
69.4997128733402
20
5.18058483391133
30
0
41
1
10
70.1079859381835
20
4.96329439246421
30
0
41
1
10
70.4120662690651
20
4.85141943196558
30
0
41
1
10
71.0200400226623
20
4.61952580090625
30
0
41
1
10
71.3239420200918
20
4.49950220302745
30
0
41
1
10
72.2371053488284
20
4.12998703136228
30
0
41
1
10
72.8480567811116
20
3.87055773714695
30
0
41
1
10
73.7608135689962
20
3.46577412734237
30
0
41
1
10
74.0645978118552
20
3.32799080959697
30
0
41
1
10
74.6724382866493
20
3.04901238448343
30
0
41
1
10
74.9764171689945
20
2.90775760512884
30
0
41
1
10
75.2803855639874
20
2.76453421256289
30
0
0
SPLINE
5
AA
100
AcDbEntity
8
1
62
256
6
ByLayer
370
18
48
1
60
0
100
AcDbSpline
70
4
71
3
72
8
73
4
40
0
40
0
40
0
40
0
40
1
40
1
40
1
40
1
41
1
10
84.7016962972438
20
-1.95974369074875
30
0
41
1
10
84.8707295297118
20
-1.33235279794459
30
0
41
1
10
84.9750520307746
20
-0.770553481938776
30
0
41
1
10
84.9960023243745
20
-0.212565853905744
30
0
0
SPLINE
5
AB
100
AcDbEntity
8
1
62
256
6
ByLayer
370
18
48
1
60
0
100
AcDbSpline
70
4
71
3
72
43
73
39
40
0
40
0
40
0
40
0
40
0.125000000000013
40
0.125000000000013
40
0.187500000000021
40
0.187500000000021
40
0.250000000000029
40
0.250000000000029
40
0.375000000000045
40
0.375000000000045
40
0.500000000000061
40
0.500000000000061
40
0.56250000000007
40
0.56250000000007
40
0.625000000000078
40
0.625000000000078
40
0.750000000000087
40
0.750000000000087
40
0.812500000000092
40
0.812500000000092
40
0.843750000000095
40
0.843750000000095
40
0.859375000000093
40
0.859375000000093
40
0.867187500000089
40
0.867187500000089
40
0.871093750000087
40
0.871093750000087
40
0.875000000000085
40
0.875000000000085
40
0.88281250000008
40
0.88281250000008
40
0.890625000000076
40
0.890625000000076
40
0.906250000000065
40
0.937500000000043
40
0.937500000000043
40
1
40
1
40
1
40
1
41
1
10
75.2803855639876
20
2.76453421256269
30
0
41
1
10
75.5769321406995
20
2.49400486130341
30
0
41
1
10
75.8822322017216
20
2.24094768501985
30
0
41
1
10
76.3532081954179
20
1.88736194912437
30
0
41
1
10
76.5123841647283
20
1.77385929905921
30
0
41
1
10
76.835238353819
20
1.55584060417121
30
0
41
1
10
76.9994947071723
20
1.45108104564636
30
0
41
1
10
77.4953621483372
20
1.15383409298818
30
0
41
1
10
77.828562728327
20
0.978746426205532
30
0
41
1
10
78.5002002304872
20
0.674652606314169
30
0
41
1
10
78.8386285532365
20
0.545570775503592
30
0
41
1
10
79.3506015679608
20
0.390058106548821
30
0
41
1
10
79.5219834316497
20
0.344593676290771
30
0
41
1
10
79.866387724892
20
0.268102328776365
30
0
41
1
10
80.0399668371351
20
0.237097851812052
30
0
41
1
10
80.5595214091836
20
0.168143685511666
30
0
41
1
10
80.9010636453414
20
0.154287728529567
30
0
41
1
10
81.4048481026435
20
0.190239958813777
30
0
41
1
10
81.5715059280718
20
0.211861707463385
30
0
41
1
10
81.8165366511679
20
0.259957582671603
30
0
41
1
10
81.8975170667749
20
0.278615931558278
30
0
41
1
10
82.0175974167574
20
0.310685852915754
30
0
41
1
10
82.0574304724991
20
0.32196745909269
30
0
41
1
10
82.1166836175971
20
0.340199918552884
30
0
41
1
10
82.1363276839845
20
0.347862875687326
30
0
41
1
10
82.1597081506202
20
0.369005594343548
30
0
41
1
10
82.1666735488491
20
0.377536860586645
30
0
41
1
10
82.1773323138921
20
0.397243146422994
30
0
41
1
10
82.180967672117
20
0.408777283675534
30
0
41
1
10
82.1865482070688
20
0.444957630688236
30
0
41
1
10
82.1889782340797
20
0.46960822538648
30
0
41
1
10
82.1942503884444
20
0.518740029443819
30
0
41
1
10
82.1969535091004
20
0.543283294239615
30
0
41
1
10
82.2043056007968
20
0.617180197911665
30
0
41
1
10
82.2171552772055
20
0.765559684361307
30
0
41
1
10
82.2247289300468
20
0.915605412453687
30
0
41
1
10
82.2335130820541
20
1.21770644109333
30
0
41
1
10
82.2308600407088
20
1.42090467793949
30
0
41
1
10
82.2213889158946
20
1.62424469386318
30
0
0
SPLINE
5
AC
100
AcDbEntity
8
1
62
256
6
ByLayer
370
18
48
1
60
0
100
AcDbSpline
70
4
71
3
72
8
73
4
40
0
40
0
40
0
40
0
40
1
40
1
40
1
40
1
41
1
10
84.9998526907837
20
-0.0407689361865664
30
0
41
1
10
85.0000490106771
20
-0.0136006342648045
30
0
41
1
10
85.0000491879256
20
0.0135761052109444
30
0
41
1
10
84.9998526907838
20
0.040768936182161
30
0
0
SPLINE
5
AD
100
AcDbEntity
8
1
62
256
6
ByLayer
370
18
48
1
60
0
100
AcDbSpline
70
4
71
3
72
12
73
8
40
0
40
0
40
0
40
0
40
0.25
40
0.25
40
0.5
40
0.5
40
1
40
1
40
1
40
1
41
1
10
82.7586545708431
20
7.29135755476565
30
0
41
1
10
82.9128931327159
20
6.84698750584911
30
0
41
1
10
83.0695860752554
20
6.40216890671459
30
0
41
1
10
83.3872649236304
20
5.51201941652965
30
0
41
1
10
83.5482863256645
20
5.06668117630286
30
0
41
1
10
84.0368212274212
20
3.73011959796028
30
0
41
1
10
84.3682776198707
20
2.84300970735279
30
0
41
1
10
84.7016962972397
20
1.95974369076382
30
0
0
SPLINE
5
AE
100
AcDbEntity
8
1
62
256
6
ByLayer
370
18
48
1
60
0
100
AcDbSpline
70
4
71
3
72
10
73
6
40
0
40
0
40
0
40
0
40
0.5
40
0.5
40
1
40
1
40
1
40
1
41
1
10
84.9952171652847
20
0.10757215909311
30
0
41
1
10
84.9950375647152
20
0.097881528044752
30
0
41
1
10
84.9953877243394
20
0.0873257231692151
30
0
41
1
10
84.9969966695529
20
0.0647389384839983
30
0
41
1
10
84.9982406646607
20
0.052939439395999
30
0
41
1
10
84.9998526907838
20
0.0407689361854864
30
0
0
SPLINE
5
AF
100
AcDbEntity
8
1
62
256
6
ByLayer
370
18
48
1
60
0
100
AcDbSpline
70
4
71
3
72
38
73
34
40
0
40
0
40
0
40
0
40
0.0402304556033395
40
0.147386199658998
40
0.147386199658998
40
0.200964071686826
40
0.200964071686826
40
0.227753007700741
40
0.241147475707698
40
0.241147475707698
40
0.254541943714655
40
0.254541943714655
40
0.261239177718134
40
0.261239177718134
40
0.267936411721612
40
0.267936411721612
40
0.274633645725091
40
0.274633645725091
40
0.28133087972857
40
0.28133087972857
40
0.308119815742484
40
0.308119815742484
40
0.361697687770313
40
0.361697687770313
40
0.468853431825971
40
0.468853431825971
40
0.683164919937287
40
0.683164919937287
40
0.790320663992945
40
0.790320663992945
40
0.897476408048603
40
0.897476408048603
40
1
40
1
40
1
40
1
41
1
10
16.8779797371274
20
-1.43089912376294
30
0
41
1
10
16.8779797371274
20
-1.45407639628203
30
0
41
1
10
16.8779797371274
20
-1.54327247353263
30
0
41
1
10
16.8779797371274
20
-1.64802231438918
30
0
41
1
10
16.8779797371274
20
-1.77449351799743
30
0
41
1
10
16.8779797371274
20
-1.81871762558507
30
0
41
1
10
16.8779797371274
20
-1.88796666050607
30
0
41
1
10
16.8779797371274
20
-1.92332441059278
30
0
41
1
10
16.8779797371274
20
-1.95977877645208
30
0
41
1
10
16.8779797371274
20
-1.98432513469214
30
0
41
1
10
16.8779797371273
20
-1.99624158545888
30
0
41
1
10
16.8779797371273
20
-2.01576271483736
30
0
41
1
10
16.8779797371273
20
-2.02388784738773
30
0
41
1
10
16.8779797371273
20
-2.04338280004217
30
0
41
1
10
16.8779797371274
20
-2.05500644755858
30
0
41
1
10
16.8779797371274
20
-2.08000307167589
30
0
41
1
10
16.8779797371273
20
-2.09382776239042
30
0
41
1
10
16.8779797371273
20
-2.12194215975441
30
0
41
1
10
16.8779797371274
20
-2.13601880724693
30
0
41
1
10
16.8779797371274
20
-2.20649952183712
30
0
41
1
10
16.8779797371274
20
-2.26314750756359
30
0
41
1
10
16.8779797371274
20
-2.43378458372101
30
0
41
1
10
16.8779797371274
20
-2.54850850688015
30
0
41
1
10
16.8779797371274
20
-2.89560501643015
30
0
41
1
10
16.8779797371274
20
-3.1314717118469
30
0
41
1
10
16.8779797371274
20
-3.84688179694126
30
0
41
1
10
16.8779797371274
20
-4.33198578148284
30
0
41
1
10
16.8779797371274
20
-5.07229724801994
30
0
41
1
10
16.8779797371274
20
-5.32118752259325
30
0
41
1
10
16.8779797371274
20
-5.82342331790616
30
0
41
1
10
16.8779797371274
20
-6.07741261465756
30
0
41
1
10
16.8779797371274
20
-6.57029434893278
30
0
41
1
10
16.8779797371274
20
-6.81028627462231
30
0
41
1
10
16.8779797371274
20
-7.04924512376172
30
0
0
SPLINE
5
B0
100
AcDbEntity
8
1
62
256
6
ByLayer
370
18
48
1
60
0
100
AcDbSpline
70
4
71
3
72
8
73
4
40
0
40
0
40
0
40
0
40
1
40
1
40
1
40
1
41
1
10
2.2886254220723
20
-0.240893590907405
30
0
41
1
10
2.4614947030322
20
-0.330938654840566
30
0
41
1
10
2.63714810067754
20
-0.417465516725571
30
0
41
1
10
2.81540939133066
20
-0.500465764572652
30
0
0
SPLINE
5
B1
100
AcDbEntity
8
1
62
256
6
ByLayer
370
18
48
1
60
0
100
AcDbSpline
70
4
71
3
72
58
73
54
40
0
40
0
40
0
40
0
40
0.0283969773790932
40
0.0283969773790932
40
0.0567939547581863
40
0.0567939547581863
40
0.113587909516373
40
0.113587909516373
40
0.141984886895466
40
0.141984886895466
40
0.170381864274559
40
0.170381864274559
40
0.227175819032745
40
0.227175819032745
40
0.28396977379093
40
0.28396977379093
40
0.340763728549116
40
0.340763728549116
40
0.369160705928208
40
0.369160705928208
40
0.397557683307301
40
0.397557683307301
40
0.454351638065486
40
0.454351638065486
40
0.482748615444578
40
0.482748615444578
40
0.511145592823671
40
0.511145592823671
40
0.567939547581856
40
0.567939547581856
40
0.596336524960948
40
0.596336524960948
40
0.624733502340041
40
0.624733502340041
40
0.681527457098226
40
0.681527457098226
40
0.709924434477319
40
0.709924434477319
40
0.738321411856412
40
0.738321411856412
40
0.795115366614597
40
0.795115366614597
40
0.82351234399369
40
0.82351234399369
40
0.851909321372784
40
0.851909321372784
40
0.90870327613097
40
0.90870327613097
40
0.937100253510063
40
0.937100253510063
40
0.965497230889156
40
0.965497230889156
40
1
40
1
40
1
40
1
41
1
10
82.4571020985387
20
-7.48837206767521
30
0
41
1
10
82.0368666135288
20
-7.50067438245605
30
0
41
1
10
81.6166881597416
20
-7.50262410456989
30
0
41
1
10
80.7757417613611
20
-7.48583823593154
30
0
41
1
10
80.3550742129954
20
-7.46708095618487
30
0
41
1
10
79.0956375118727
20
-7.38023110775885
30
0
41
1
10
78.2578712610699
20
-7.28156305845803
30
0
41
1
10
76.9994975171708
20
-7.07435258151469
30
0
41
1
10
76.5797301531667
20
-6.99542470003769
30
0
41
1
10
75.7387485481007
20
-6.81826373640584
30
0
41
1
10
75.318260364416
20
-6.7201407680557
30
0
41
1
10
74.0591440267993
20
-6.39902751426391
30
0
41
1
10
73.2213382495781
20
-6.14910113248857
30
0
41
1
10
71.5429678905346
20
-5.58371756869758
30
0
41
1
10
70.7008184190863
20
-5.26755956114289
30
0
41
1
10
69.0223091342032
20
-4.58322194568896
30
0
41
1
10
68.1844502181631
20
-4.21468616670725
30
0
41
1
10
66.9250694098829
20
-3.62943195811414
30
0
41
1
10
66.5045472511936
20
-3.428753076216
30
0
41
1
10
65.6633639104074
20
-3.01832153313609
30
0
41
1
10
65.2435106571107
20
-2.80894716200649
30
0
41
1
10
63.9848668854887
20
-2.17064685328325
30
0
41
1
10
63.1468706976792
20
-1.7317614449442
30
0
41
1
10
61.8870776243933
20
-1.06138876352091
30
0
41
1
10
61.4661965052919
20
-0.835657202624645
30
0
41
1
10
60.6252756610597
20
-0.383095886202085
30
0
41
1
10
60.2054935277951
20
-0.15627530516133
30
0
41
1
10
58.9469703788711
20
0.523550763424964
30
0
41
1
10
58.1087888787309
20
0.975430693188343
30
0
41
1
10
56.8485420073594
20
1.64340251019934
30
0
41
1
10
56.4274615455176
20
1.86460747937244
30
0
41
1
10
55.5868076168823
20
2.30022454710985
30
0
41
1
10
55.1670830983708
20
2.51486619442864
30
0
41
1
10
53.9085677166013
20
3.14731672087205
30
0
41
1
10
53.0702663808631
20
3.55335997130536
30
0
41
1
10
51.8094006092085
20
4.13145720713933
30
0
41
1
10
51.388255929963
20
4.31909325695071
30
0
41
1
10
50.5478765032019
20
4.68097779818729
30
0
41
1
10
50.1282126398768
20
4.85546525303457
30
0
41
1
10
48.869686879526
20
5.35806578280869
30
0
41
1
10
48.0312102486667
20
5.6652002722349
30
0
41
1
10
46.7697076412296
20
6.07791451498298
30
0
41
1
10
46.3486607180812
20
6.20742576581767
30
0
41
1
10
45.5084786516322
20
6.44834571233554
30
0
41
1
10
45.088864295755
20
6.55994365838777
30
0
41
1
10
43.8302991206993
20
6.86720205137979
30
0
41
1
10
42.9916011101736
20
7.03529827399203
30
0
41
1
10
41.7294221603649
20
7.22864576405667
30
0
41
1
10
41.3086266917626
20
7.28316702052365
30
0
41
1
10
40.4686230114059
20
7.37182261725087
30
0
41
1
10
40.0490746683435
20
7.40602282540317
30
0
41
1
10
39.1197880210529
20
7.45913676427384
30
0
41
1
10
38.610081203953
20
7.47319080252245
30
0
41
1
10
38.0997235641847
20
7.47205395031148
30
0
0
SPLINE
5
B2
100
AcDbEntity
8
1
62
256
6
ByLayer
370
18
48
1
60
0
100
AcDbSpline
70
4
71
3
72
16
73
12
40
0
40
0
40
0
40
0
40
0.11742566829922
40
0.11742566829922
40
0.691644434300713
40
0.691644434300713
40
0.835199125801085
40
0.835199125801085
40
0.978753817301458
40
0.978753817301458
40
1
40
1
40
1
40
1
41
1
10
38.2879505208083
20
-7.09694409784697
30
0
41
1
10
37.9443012667607
20
-7.09582329399083
30
0
41
1
10
37.6012929665697
20
-7.08816451043256
30
0
41
1
10
35.5836079813835
20
-7.00504220434379
30
0
41
1
10
33.9189929627888
20
-6.78135515365875
30
0
41
1
10
31.8236756123437
20
-6.32228460896354
30
0
41
1
10
31.4038349004797
20
-6.22153908495906
30
0
41
1
10
30.5620165238125
20
-6.00262270568317
30
0
41
1
10
30.1395609175922
20
-5.88427042525137
30
0
41
1
10
29.6541291402723
20
-5.7390316190403
30
0
41
1
10
29.5915769990169
20
-5.72014082491785
30
0
41
1
10
29.5290535732859
20
-5.70108532032845
30
0
0
SPLINE
5
B3
100
AcDbEntity
8
1
62
256
6
ByLayer
370
13
48
1
60
0
100
AcDbSpline
70
4
71
3
72
20
73
16
40
0
40
0
40
0
40
0
40
0.133844004209748
40
0.133844004209748
40
0.422924022967568
40
0.422924022967568
40
0.495194027657025
40
0.495194027657025
40
0.531329030001754
40
0.531329030001754
40
0.567464032346484
40
0.567464032346484
40
0.712004041725401
40
0.712004041725401
40
1
40
1
40
1
40
1
41
1
10
29.5290535733972
20
-5.70108532036238
30
0
41
1
10
28.7466693542951
20
-5.46263507706064
30
0
41
1
10
27.968781601924
20
-5.19839337945285
30
0
41
1
10
25.5177727216666
20
-4.29338765706032
30
0
41
1
10
23.8529539168408
20
-3.57102275809723
30
0
41
1
10
21.756925408708
20
-2.58502408084613
30
0
41
1
10
21.3369491573187
20
-2.38371063035575
30
0
41
1
10
20.7054039573209
20
-2.07634080506224
30
0
41
1
10
20.4946197177075
20
-1.97299074896347
30
0
41
1
10
20.0724070583826
20
-1.76468791504953
30
0
41
1
10
19.8607467008899
20
-1.65961924700036
30
0
41
1
10
18.8036945850306
20
-1.13229921398704
30
0
41
1
10
17.9635967525789
20
-0.704699712640576
30
0
41
1
10
15.4576220338544
20
0.574964662276813
30
0
41
1
10
13.7997682707314
20
1.42718618093662
30
0
41
1
10
12.1305708360199
20
2.23587071909375
30
0
0
SPLINE
5
B4
100
AcDbEntity
8
1
62
256
6
ByLayer
370
18
48
1
60
0
100
AcDbSpline
70
4
71
3
72
8
73
4
40
0
40
0
40
0
40
0
40
1
40
1
40
1
40
1
41
1
10
1.75853843679624
20
0.0487950302403704
30
0
41
1
10
1.93515123364688
20
-0.0480731847741822
30
0
41
1
10
2.11184309795954
20
-0.144642203062261
30
0
41
1
10
2.2886254220723
20
-0.240893590907433
30
0
0
SPLINE
5
B5
100
AcDbEntity
8
1
62
256
6
ByLayer
370
13
48
1
60
0
100
AcDbSpline
70
4
71
3
72
44
73
40
40
0
40
0
40
0
40
0
40
8.5286703543E-06
40
8.5286703543E-06
40
0.0416748399757564
40
0.0416748399757564
40
0.0833411512811585
40
0.0833411512811585
40
0.166673773891963
40
0.166673773891963
40
0.250006396502767
40
0.250006396502767
40
0.33333901911357
40
0.33333901911357
40
0.375005330418972
40
0.375005330418972
40
0.416671641724374
40
0.416671641724374
40
0.500004264335178
40
0.500004264335178
40
0.54167057564058
40
0.54167057564058
40
0.583336886945982
40
0.583336886945982
40
0.666669509556785
40
0.666669509556785
40
0.750002132167589
40
0.750002132167589
40
0.791668443472991
40
0.791668443472991
40
0.833334754778393
40
0.833334754778393
40
0.916667377389197
40
0.916667377389197
40
0.958333688694599
40
0.958333688694599
40
0.979166844347299
40
0.979166844347299
40
1
40
1
40
1
40
1
41
1
10
2.00924926929212
20
-7.07513215571673
30
0
41
1
10
2.00924972614765
20
-7.0751330453738
30
0
41
1
10
2.00925020951763
20
-7.07513392084004
30
0
41
1
10
2.00926456241214
20
-7.07515992008629
30
0
41
1
10
2.00927917988372
20
-7.07020067620581
30
0
41
1
10
2.00930790846834
20
-7.05017843331044
30
0
41
1
10
2.00932193259845
20
-7.0352013236531
30
0
41
1
10
2.00936319276187
20
-6.97574233293781
30
0
41
1
10
2.00938962738877
20
-6.91679173178736
30
0
41
1
10
2.00944116429088
20
-6.76073140829575
30
0
41
1
10
2.00946626527056
20
-6.66362595760125
30
0
41
1
10
2.00951560863359
20
-6.42976849331575
30
0
41
1
10
2.00953952353461
20
-6.29452176722842
30
0
41
1
10
2.00957427849721
20
-6.06497495289659
30
0
41
1
10
2.00958567749689
20
-5.98395108841365
30
0
41
1
10
2.00960786957543
20
-5.81468463817885
30
0
41
1
10
2.00961869382331
20
-5.72624469242052
30
0
41
1
10
2.00965032542274
20
-5.44970760455388
30
0
41
1
10
2.00967030493831
20
-5.25043914835504
30
0
41
1
10
2.00969827055985
20
-4.92912730521846
30
0
41
1
10
2.00970725523206
20
-4.81827703851658
30
0
41
1
10
2.00972445087248
20
-4.5889330945522
30
0
41
1
10
2.00973268310253
20
-4.47005190160664
30
0
41
1
10
2.00975572040892
20
-4.10663642045671
30
0
41
1
10
2.00976897505114
20
-3.85429473648372
30
0
41
1
10
2.00979042469575
20
-3.33004588691796
30
0
41
1
10
2.00979862250335
20
-3.05813818729305
30
0
41
1
10
2.00980616947459
20
-2.63527594353428
30
0
41
1
10
2.00980789120177
20
-2.49137661583103
30
0
41
1
10
2.00980952583547
20
-2.20074585145764
30
0
41
1
10
2.00980944358892
20
-2.05421899399889
30
0
41
1
10
2.00980629070696
20
-1.61104851691769
30
0
41
1
10
2.00980032771892
20
-1.31083021231359
30
0
41
1
10
2.00978453969236
20
-0.853247797571072
30
0
41
1
10
2.00977813751217
20
-0.699765504621439
30
0
41
1
10
2.0097667618395
20
-0.469377489276667
30
0
41
1
10
2.00976267240799
20
-0.392492878991021
30
0
41
1
10
2.00975387898305
20
-0.238546279398832
30
0
41
1
10
2.00974913749738
20
-0.160933631316425
30
0
41
1
10
2.00974415325214
20
-0.0843336738595326
30
0
0
SPLINE
5
B6
100
AcDbEntity
8
1
62
256
6
ByLayer
370
18
48
1
60
0
100
AcDbSpline
70
4
71
3
72
14
73
10
40
0
40
0
40
0
40
0
40
0.25
40
0.25
40
0.5
40
0.5
40
0.75
40
0.75
40
1
40
1
40
1
40
1
41
1
10
82.2213889158946
20
1.62424469386318
30
0
41
1
10
82.2204501606234
20
1.64439927059396
30
0
41
1
10
82.2250324804682
20
1.66474863667358
30
0
41
1
10
82.245828064717
20
1.6998641339905
30
0
41
1
10
82.2619693170395
20
1.71442591026136
30
0
41
1
10
82.2980363319465
20
1.73505178328503
30
0
41
1
10
82.3182878569988
20
1.74169520259051
30
0
41
1
10
82.3589855719438
20
1.7494540061283
30
0
41
1
10
82.3798428179897
20
1.7507022059018
30
0
41
1
10
82.4006605076859
20
1.74998867056777
30
0
0
SPLINE
5
B7
100
AcDbEntity
8
1
62
256
6
ByLayer
370
18
48
1
60
0
100
AcDbSpline
70
4
71
3
72
12
73
8
40
0
40
0
40
0
40
0
40
0.25
40
0.25
40
0.5
40
0.5
40
1
40
1
40
1
40
1
41
1
10
84.9960023243746
20
0.21256585390546
30
0
41
1
10
84.9907412598079
20
0.352688421853202
30
0
41
1
10
84.9802275895509
20
0.493909847223335
30
0
41
1
10
84.9492510491858
20
0.777564821767925
30
0
41
1
10
84.928799246124
20
0.920253038827809
30
0
41
1
10
84.8536609711817
20
1.35366144463558
30
0
41
1
10
84.785209366173
20
1.64977305295713
30
0
41
1
10
84.7016962972397
20
1.95974369076382
30
0
0
SPLINE
5
B8
100
AcDbEntity
8
1
62
256
6
ByLayer
370
18
48
1
60
0
100
AcDbSpline
70
4
71
3
72
32
73
28
40
0
40
0
40
0
40
0
40
0.0624999999999981
40
0.0624999999999981
40
0.0937499999999972
40
0.0937499999999972
40
0.124999999999996
40
0.124999999999996
40
0.187499999999995
40
0.187499999999995
40
0.218749999999994
40
0.218749999999994
40
0.249999999999993
40
0.249999999999993
40
0.374999999999991
40
0.374999999999991
40
0.43749999999999
40
0.43749999999999
40
0.499999999999989
40
0.499999999999989
40
0.624999999999992
40
0.624999999999992
40
0.749999999999995
40
0.749999999999995
40
0.874999999999997
40
0.874999999999997
40
1
40
1
40
1
40
1
41
1
10
75.2803855639875
20
2.76453421256238
30
0
41
1
10
75.2587102224481
20
2.55391820648612
30
0
41
1
10
75.2518753215465
20
2.33863420732771
30
0
41
1
10
75.2644633453264
20
2.00852387251052
30
0
41
1
10
75.2725079674321
20
1.89697006312611
30
0
41
1
10
75.2962543494703
20
1.67280936367962
30
0
41
1
10
75.3118312187157
20
1.56115424581731
30
0
41
1
10
75.3690718228165
20
1.22739558056617
30
0
41
1
10
75.4212119864795
20
1.00649486750771
30
0
41
1
10
75.5186982089565
20
0.677356938226637
30
0
41
1
10
75.5544153424071
20
0.568014192419213
30
0
41
1
10
75.6321067588498
20
0.350047105369185
30
0
41
1
10
75.6741472209449
20
0.241329713132671
30
0
41
1
10
75.8960331420579
20
-0.292549934692374
30
0
41
1
10
76.1125870790244
20
-0.695699577377923
30
0
41
1
10
76.4814579599944
20
-1.27340569088267
30
0
41
1
10
76.6125038894835
20
-1.4621696033081
30
0
41
1
10
76.8834609990301
20
-1.82537786846385
30
0
41
1
10
77.0236515972682
20
-2.00039669317181
30
0
41
1
10
77.4563715783937
20
-2.50847549122381
30
0
41
1
10
77.760776262202
20
-2.82493915912266
30
0
41
1
10
78.3964781306526
20
-3.42028292874349
30
0
41
1
10
78.7293678075779
20
-3.69968114331951
30
0
41
1
10
79.4042994114785
20
-4.21712652775244
30
0
41
1
10
79.7478546707597
20
-4.45646389645111
30
0
41
1
10
80.4453297345113
20
-4.90214389380921
30
0
41
1
10
80.7992613804233
20
-5.10844882614174
30
0
41
1
10
81.1578464055133
20
-5.29994008035527
30
0
0
SPLINE
5
B9
100
AcDbEntity
8
1
62
256
6
ByLayer
370
18
48
1
60
0
100
AcDbSpline
70
4
71
3
72
8
73
4
40
0
40
0
40
0
40
0
40
1
40
1
40
1
40
1
41
1
10
82.5662524808228
20
-7.21000550546694
30
0
41
1
10
82.5299806210361
20
-7.30295875593544
30
0
41
1
10
82.4935980546373
20
-7.39574816079335
30
0
41
1
10
82.4571020985387
20
-7.48837206767527
30
0
0
SPLINE
5
BA
100
AcDbEntity
8
1
62
256
6
ByLayer
370
18
48
1
60
0
100
AcDbSpline
70
4
71
3
72
20
73
16
40
0
40
0
40
0
40
0
40
0.250000000000003
40
0.250000000000003
40
0.375000000000003
40
0.375000000000003
40
0.437500000000003
40
0.437500000000003
40
0.500000000000003
40
0.500000000000003
40
0.750000000000003
40
0.750000000000003
40
0.875000000000002
40
0.875000000000002
40
1
40
1
40
1
40
1
41
1
10
81.1578464055133
20
-5.2999400803553
30
0
41
1
10
81.2753837128988
20
-5.61110245695835
30
0
41
1
10
81.3947572017569
20
-5.88375509611271
30
0
41
1
10
81.575648428561
20
-6.23715629189667
30
0
41
1
10
81.6362642493079
20
-6.34562298714948
30
0
41
1
10
81.7276585175734
20
-6.49396999814863
30
0
41
1
10
81.7582836450363
20
-6.54113725473874
30
0
41
1
10
81.8192451971896
20
-6.62991762464304
30
0
41
1
10
81.8495618880734
20
-6.67151910606157
30
0
41
1
10
82.000358002966
20
-6.86582492094277
30
0
41
1
10
82.1184574706398
20
-6.97780184353803
30
0
41
1
10
82.2926337405852
20
-7.08052385866677
30
0
41
1
10
82.3502754150588
20
-7.10383242323442
30
0
41
1
10
82.4644537797207
20
-7.1275464488813
30
0
41
1
10
82.5205244135676
20
-7.12788337484216
30
0
41
1
10
82.5757217481471
20
-7.11664291016916
30
0
0
SPLINE
5
BB
100
AcDbEntity
8
1
62
256
6
ByLayer
370
18
48
1
60
0
100
AcDbSpline
70
4
71
3
72
20
73
16
40
0
40
0
40
0
40
0
40
0.0657383835880135
40
0.0657383835880135
40
0.293996814686264
40
0.293996814686264
40
0.351061422460826
40
0.351061422460826
40
0.408126030235389
40
0.408126030235389
40
0.522255245784514
40
0.522255245784514
40
0.978772107981021
40
0.978772107981021
40
1
40
1
40
1
40
1
41
1
10
16.3644647209915
20
0.0009751505756697
30
0
41
1
10
16.605349911006
20
-0.12383907849059
30
0
41
1
10
16.8463965374807
20
-0.248743418951108
30
0
41
1
10
17.9254380283905
20
-0.807149491200988
30
0
41
1
10
18.7659513441363
20
-1.24020030164559
30
0
41
1
10
19.8237022726309
20
-1.77365904766012
30
0
41
1
10
20.0354841842228
20
-1.87990733898607
30
0
41
1
10
20.4579226526868
20
-2.09047508208434
30
0
41
1
10
20.6688124237374
20
-2.19491235509574
30
0
41
1
10
21.3006534111158
20
-2.5054105744079
30
0
41
1
10
21.7208033441018
20
-2.70862201239092
30
0
41
1
10
23.8176653711394
20
-3.70312151658521
30
0
41
1
10
25.4828769609538
20
-4.42944085430617
30
0
41
1
10
27.2368824209362
20
-5.07773446520991
30
0
41
1
10
27.3148418003602
20
-5.10631078320793
30
0
41
1
10
27.3928262979259
20
-5.1346536851926
30
0
0
SPLINE
5
BC
100
AcDbEntity
8
1
62
256
6
ByLayer
370
13
48
1
60
0
100
AcDbSpline
70
4
71
3
72
18
73
14
40
0
40
0
40
0
40
0
40
0.177233267820944
40
0.177233267820944
40
0.274936215013665
40
0.274936215013665
40
0.372639162206385
40
0.372639162206385
40
0.763450950977269
40
0.763450950977269
40
0.958856845362709
40
0.958856845362709
40
1
40
1
40
1
40
1
41
1
10
27.392826298076
20
-5.13465368524714
30
0
41
1
10
28.1533903972045
20
-5.41107520987453
30
0
41
1
10
28.9163436418082
20
-5.66529505988402
30
0
41
1
10
30.1070704546439
20
-6.01981800779902
30
0
41
1
10
30.5297093038427
20
-6.13741538923583
30
0
41
1
10
31.3719003629676
20
-6.35445324020671
30
0
41
1
10
31.791904393493
20
-6.45406167288391
30
0
41
1
10
33.888020619305
20
-6.90649847968047
30
0
41
1
10
35.5530252043365
20
-7.12196156046528
30
0
41
1
10
38.0668411326635
20
-7.20936810067406
30
0
41
1
10
38.9075401642406
20
-7.19929223018363
30
0
41
1
10
39.9320771146451
20
-7.13817648062917
30
0
41
1
10
40.1102449028493
20
-7.125776689861
30
0
41
1
10
40.2883975905643
20
-7.11161774067773
30
0
0
SPLINE
5
BD
100
AcDbEntity
8
1
62
256
6
ByLayer
370
18
48
1
60
0
100
AcDbSpline
70
4
71
3
72
12
73
8
40
0
40
0
40
0
40
0
40
0.25
40
0.25
40
0.5
40
0.5
40
1
40
1
40
1
40
1
41
1
10
82.7586545708421
20
-7.29135755476696
30
0
41
1
10
82.7346916846195
20
-7.31782256008793
30
0
41
1
10
82.7104070236581
20
-7.34184467628975
30
0
41
1
10
82.661142438589
20
-7.38494073038513
30
0
41
1
10
82.6360993682603
20
-7.40405248740603
30
0
41
1
10
82.5603693383276
20
-7.45350429048321
30
0
41
1
10
82.5091574600943
20
-7.47599570808967
30
0
41
1
10
82.4571020985387
20
-7.48837206767521
30
0
0
SPLINE
5
BE
100
AcDbEntity
8
1
62
256
6
ByLayer
370
18
48
1
60
0
100
AcDbSpline
70
4
71
3
72
8
73
4
40
0
40
0
40
0
40
0
40
1
40
1
40
1
40
1
41
1
10
84.7016962972397
20
1.95974369076382
30
0
41
1
10
84.6801367302444
20
1.86552188401461
30
0
41
1
10
84.6571302563298
20
1.77175957441503
30
0
41
1
10
84.6327827089569
20
1.67843446695585
30
0
0
SPLINE
5
BF
100
AcDbEntity
8
1
62
256
6
ByLayer
370
18
48
1
60
0
100
AcDbSpline
70
4
71
3
72
8
73
4
40
0
40
0
40
0
40
0
40
1
40
1
40
1
40
1
41
1
10
82.4571020985387
20
7.48837206767521
30
0
41
1
10
82.201464781799
20
7.4958558020395
30
0
41
1
10
81.9456979543763
20
7.49949437909004
30
0
41
1
10
81.6899117872221
20
7.49930595074369
30
0
0
SPLINE
5
C0
100
AcDbEntity
8
1
62
256
6
ByLayer
370
18
48
1
60
0
100
AcDbSpline
70
4
71
3
72
52
73
48
40
0
40
0
40
0
40
0
40
0.0072288351682523
40
0.0072288351682523
40
0.0692770329702368
40
0.0692770329702368
40
0.100301131871228
40
0.100301131871228
40
0.13132523077222
40
0.13132523077222
40
0.193373428574203
40
0.193373428574203
40
0.224397527475195
40
0.224397527475195
40
0.255421626376187
40
0.255421626376187
40
0.317469824178171
40
0.317469824178171
40
0.348493923079163
40
0.348493923079163
40
0.379518021980156
40
0.379518021980156
40
0.441566219782139
40
0.441566219782139
40
0.472590318683131
40
0.472590318683131
40
0.503614417584123
40
0.503614417584123
40
0.565662615386107
40
0.565662615386107
40
0.596686714287099
40
0.596686714287099
40
0.627710813188091
40
0.627710813188091
40
0.689759010990075
40
0.689759010990075
40
0.720783109891068
40
0.720783109891068
40
0.75180720879206
40
0.75180720879206
40
0.813855406594045
40
0.813855406594045
40
0.844879505495037
40
0.844879505495037
40
0.87590360439603
40
0.87590360439603
40
1
40
1
40
1
40
1
41
1
10
42.4762914962951
20
-7.11225688590557
30
0
41
1
10
42.3783602741863
20
-7.12844576413423
30
0
41
1
10
42.280393701946
20
-7.14410772608767
30
0
41
1
10
41.3411535973939
20
-7.28911476366011
30
0
41
1
10
40.5028654145945
20
-7.37892943416304
30
0
41
1
10
39.2452632931024
20
-7.45250809704231
30
0
41
1
10
38.8260073880315
20
-7.46684085387699
30
0
41
1
10
37.9866767862944
20
-7.47497888783502
30
0
41
1
10
37.5662788556205
20
-7.46876553504902
30
0
41
1
10
36.3049025074021
20
-7.41921617264177
30
0
41
1
10
35.466747351624
20
-7.34514914287823
30
0
41
1
10
34.2089655222197
20
-7.17447413923205
30
0
41
1
10
33.7896008028786
20
-7.10766394588691
30
0
41
1
10
32.9499561865152
20
-6.95452103077898
30
0
41
1
10
32.5291889956085
20
-6.86806677615525
30
0
41
1
10
31.268247259265
20
-6.58098236830403
30
0
41
1
10
30.4301467801367
20
-6.35285898635354
30
0
41
1
10
29.1721598673626
20
-5.9603098448296
30
0
41
1
10
28.7526625984199
20
-5.82110153454704
30
0
41
1
10
27.9126709626407
20
-5.5266499151675
30
0
41
1
10
27.4917047910626
20
-5.37121697470096
30
0
41
1
10
26.2310944192305
20
-4.88447050661907
30
0
41
1
10
25.3931175285941
20
-4.532067404831
30
0
41
1
10
24.1348069291751
20
-3.96907441826897
30
0
41
1
10
23.7151801597908
20
-3.77563158739042
30
0
41
1
10
22.874826062171
20
-3.37826887375087
30
0
41
1
10
22.4538037020627
20
-3.17423950689687
30
0
41
1
10
21.1935500660409
20
-2.55154728313622
30
0
41
1
10
20.3555825195536
20
-2.12103615368523
30
0
41
1
10
19.0970458942634
20
-1.46094174620961
30
0
41
1
10
18.6772660895385
20
-1.238531022258
30
0
41
1
10
17.8364728142715
20
-0.790206010863756
30
0
41
1
10
17.4155452519063
20
-0.564354250485536
30
0
41
1
10
16.1556154696348
20
0.112870494146677
30
0
41
1
10
15.3175791630876
20
0.565153088407328
30
0
41
1
10
14.0586850215688
20
1.23598613679104
30
0
41
1
10
13.6387414377693
20
1.45832199750012
30
0
41
1
10
12.797507007369
20
1.89909677066794
30
0
41
1
10
12.376841080027
20
2.11718203100725
30
0
41
1
10
11.117165975925
20
2.76042242635992
30
0
41
1
10
10.2790609603629
20
3.17546934294657
30
0
41
1
10
9.01975931380727
20
3.76941383420481
30
0
41
1
10
8.59964750461089
20
3.9626463753774
30
0
41
1
10
7.75794702315574
20
4.33827776506422
30
0
41
1
10
7.33789804727928
20
4.51996211267848
30
0
41
1
10
5.24094529113731
20
5.39445220798709
30
0
41
1
10
3.57286745018632
20
5.98655857450004
30
0
41
1
10
1.8901351305849
20
6.44040302453448
30
0
0
SPLINE
5
C1
100
AcDbEntity
8
1
62
256
6
ByLayer
370
18
48
1
60
0
100
AcDbSpline
70
4
71
3
72
8
73
4
40
0
40
0
40
0
40
0
40
1
40
1
40
1
40
1
41
1
10
84.9960023243746
20
0.21256585390546
30
0
41
1
10
84.9961221146185
20
0.177556574850627
30
0
41
1
10
84.9958655823651
20
0.142558521832768
30
0
41
1
10
84.9952171652865
20
0.107572159089983
30
0
0
SPLINE
5
C2
100
AcDbEntity
8
1
62
256
6
ByLayer
370
18
48
1
60
0
100
AcDbSpline
70
4
71
3
72
52
73
48
40
0
40
0
40
0
40
0
40
0.0625000000000163
40
0.0625000000000163
40
0.125000000000033
40
0.125000000000033
40
0.187500000000049
40
0.187500000000049
40
0.250000000000065
40
0.250000000000065
40
0.312500000000081
40
0.312500000000081
40
0.343750000000086
40
0.343750000000086
40
0.37500000000009
40
0.37500000000009
40
0.390625000000089
40
0.390625000000089
40
0.406250000000089
40
0.406250000000089
40
0.421875000000089
40
0.421875000000089
40
0.437500000000088
40
0.437500000000088
40
0.453125000000088
40
0.453125000000088
40
0.468750000000087
40
0.468750000000087
40
0.500000000000086
40
0.500000000000086
40
0.531250000000085
40
0.531250000000085
40
0.562500000000084
40
0.562500000000084
40
0.593750000000083
40
0.593750000000083
40
0.625000000000081
40
0.625000000000081
40
0.68750000000007
40
0.68750000000007
40
0.750000000000058
40
0.750000000000058
40
0.812500000000046
40
0.812500000000046
40
0.875000000000033
40
0.875000000000033
40
1
40
1
40
1
40
1
41
1
10
82.4112388069244
20
-3.71654544174092
30
0
41
1
10
82.2959055526604
20
-3.67195305917735
30
0
41
1
10
82.1808176516597
20
-3.62279163557119
30
0
41
1
10
81.9535134004441
20
-3.51596660659933
30
0
41
1
10
81.8409666217252
20
-3.45818951840283
30
0
41
1
10
81.6183395094603
20
-3.33289633438056
30
0
41
1
10
81.5082515595591
20
-3.26541031250673
30
0
41
1
10
81.2911157954802
20
-3.1184339861187
30
0
41
1
10
81.1833723413168
20
-3.03845115007505
30
0
41
1
10
80.9761958632859
20
-2.86464663457417
30
0
41
1
10
80.8766638943759
20
-2.77124539695345
30
0
41
1
10
80.7378321908378
20
-2.61437445336571
30
0
41
1
10
80.6929867213313
20
-2.55876921280591
30
0
41
1
10
80.610586041648
20
-2.44096513258046
30
0
41
1
10
80.573202735754
20
-2.37933620333291
30
0
41
1
10
80.5268671550145
20
-2.27993499753495
30
0
41
1
10
80.513178725219
20
-2.24570600257326
30
0
41
1
10
80.491263795372
20
-2.17652567860236
30
0
41
1
10
80.4828569691682
20
-2.1408985366194
30
0
41
1
10
80.4734249579453
20
-2.07032807728015
30
0
41
1
10
80.4723575117295
20
-2.03564295665635
30
0
41
1
10
80.4787359954549
20
-1.96767298151076
30
0
41
1
10
80.4860450601195
20
-1.93602345950364
30
0
41
1
10
80.5081272410775
20
-1.87714731141946
30
0
41
1
10
80.5229341003391
20
-1.8501398289535
30
0
41
1
10
80.5571952697145
20
-1.80244126099546
30
0
41
1
10
80.5769592752208
20
-1.78118220688748
30
0
41
1
10
80.6410986215484
20
-1.72474712058889
30
0
41
1
10
80.6892090575125
20
-1.69716185510541
30
0
41
1
10
80.7915034302351
20
-1.65338508675973
30
0
41
1
10
80.8451689988833
20
-1.63768239692178
30
0
41
1
10
80.9539958962156
20
-1.61453271694299
30
0
41
1
10
81.0095116224412
20
-1.60703615728562
30
0
41
1
10
81.1221184247173
20
-1.5978716227508
30
0
41
1
10
81.179405698354
20
-1.59623769040041
30
0
41
1
10
81.294216764558
20
-1.59755001011709
30
0
41
1
10
81.3516745208776
20
-1.60048221668194
30
0
41
1
10
81.524171472862
20
-1.61466931892105
30
0
41
1
10
81.6393326151707
20
-1.63123902035412
30
0
41
1
10
81.8698909108988
20
-1.67466450545669
30
0
41
1
10
81.9852894632382
20
-1.70158125832433
30
0
41
1
10
82.216284454558
20
-1.76403926591885
30
0
41
1
10
82.3318813167086
20
-1.79959896369269
30
0
41
1
10
82.5632572710182
20
-1.87866049742624
30
0
41
1
10
82.6789859499688
20
-1.92217381306378
30
0
41
1
10
83.0229954442453
20
-2.06310419327409
30
0
41
1
10
83.2493661655222
20
-2.17087100864453
30
0
41
1
10
83.4720972088307
20
-2.29557170514042
30
0
0
SPLINE
5
C3
100
AcDbEntity
8
1
62
256
6
ByLayer
370
18
48
1
60
0
100
AcDbSpline
70
4
71
3
72
10
73
6
40
0
40
0
40
0
40
0
40
0.5
40
0.5
40
1
40
1
40
1
40
1
41
1
10
82.7586545708432
20
7.29135755476565
30
0
41
1
10
82.7107841370909
20
7.34422644844611
30
0
41
1
10
82.6616550851763
20
7.38733342630169
30
0
41
1
10
82.560485159652
20
7.4534596738678
30
0
41
1
10
82.5092015525437
20
7.47598522494263
30
0
41
1
10
82.4571020985387
20
7.48837206767521
30
0
0
SPLINE
5
C4
100
AcDbEntity
8
1
62
256
6
ByLayer
370
18
48
1
60
0
100
AcDbSpline
70
4
71
3
72
38
73
34
40
0
40
0
40
0
40
0
40
0.108067247783868
40
0.108067247783868
40
0.162100871675802
40
0.162100871675802
40
0.216134495567736
40
0.216134495567736
40
0.27016811945967
40
0.27016811945967
40
0.324201743351603
40
0.324201743351603
40
0.432268991135473
40
0.432268991135473
40
0.486302615027407
40
0.486302615027407
40
0.540336238919342
40
0.540336238919342
40
0.594369862811277
40
0.594369862811277
40
0.648403486703211
40
0.648403486703211
40
0.702437110595146
40
0.702437110595146
40
0.756470734487081
40
0.756470734487081
40
0.86453798227095
40
0.86453798227095
40
0.918571606162886
40
0.918571606162886
40
0.972605230054821
40
0.972605230054821
40
1
40
1
40
1
40
1
41
1
10
16.8779797371274
20
-1.45132896984867
30
0
41
1
10
17.569459892879
20
-1.82002565428937
30
0
41
1
10
18.2595714852978
20
-2.17577345674067
30
0
41
1
10
19.2899071616737
20
-2.69654444416162
30
0
41
1
10
19.6322001173048
20
-2.86856207023405
30
0
41
1
10
20.316117632362
20
-3.20647090192349
30
0
41
1
10
20.6581772670439
20
-3.37162665730543
30
0
41
1
10
21.3421719042184
20
-3.69506142805562
30
0
41
1
10
21.6840739277989
20
-3.85339530485013
30
0
41
1
10
22.367363612526
20
-4.16378345913867
30
0
41
1
10
22.7083653647077
20
-4.31641746152235
30
0
41
1
10
23.7335858059488
20
-4.76006830520518
30
0
41
1
10
24.4197243926858
20
-5.03756446194683
30
0
41
1
10
25.4504356369829
20
-5.42966128317863
30
0
41
1
10
25.7941791580771
20
-5.55636968719216
30
0
41
1
10
26.4847189711126
20
-5.79812464555997
30
0
41
1
10
26.8318480826241
20
-5.91382242923763
30
0
41
1
10
27.5235397004503
20
-6.13353851267331
30
0
41
1
10
27.8683755312848
20
-6.23762973528881
30
0
41
1
10
28.5555526497038
20
-6.43473658910884
30
0
41
1
10
28.8984733605777
20
-6.52711257643722
30
0
41
1
10
29.5842119799812
20
-6.69867983899834
30
0
41
1
10
29.9267903970531
20
-6.77812175145294
30
0
41
1
10
30.6109834903338
20
-6.92474022091557
30
0
41
1
10
30.9524474811008
20
-6.99200941831532
30
0
41
1
10
31.9757847663883
20
-7.17481991092453
30
0
41
1
10
32.659613315577
20
-7.26976157040716
30
0
41
1
10
33.6858143072535
20
-7.37315900278176
30
0
41
1
10
34.0275727774611
20
-7.40115205884271
30
0
41
1
10
34.7127424378361
20
-7.44330237177863
30
0
41
1
10
35.0563123750801
20
-7.45748632296213
30
0
41
1
10
35.5752538034519
20
-7.46856540120893
30
0
41
1
10
35.7500403393236
20
-7.47053678055727
30
0
41
1
10
35.9250048464789
20
-7.47072974159411
30
0
0
SPLINE
5
C5
100
AcDbEntity
8
1
62
256
6
ByLayer
370
18
48
1
60
0
100
AcDbSpline
70
4
71
3
72
30
73
26
40
0
40
0
40
0
40
0
40
0.1129537566046
40
0.1129537566046
40
0.18687427688755
40
0.18687427688755
40
0.2607947971705
40
0.2607947971705
40
0.33471531745345
40
0.33471531745345
40
0.4086358377364
40
0.4086358377364
40
0.5564768783023
40
0.5564768783023
40
0.63039739858525
40
0.63039739858525
40
0.7043179188682
40
0.7043179188682
40
0.77823843915115
40
0.77823843915115
40
0.8521589594341
40
0.8521589594341
40
0.92607947971705
40
0.92607947971705
40
1
40
1
40
1
40
1
41
1
10
68.827303014002
20
5.3854941942237
30
0
41
1
10
69.3508842732966
20
5.58264454838078
30
0
41
1
10
69.8738576655721
20
5.76682703455802
30
0
41
1
10
70.7375066284375
20
6.05137685125666
30
0
41
1
10
71.0783678167983
20
6.15905591730808
30
0
41
1
10
71.7601610720039
20
6.36276191510646
30
0
41
1
10
72.1015020308604
20
6.45840263214509
30
0
41
1
10
72.7847253015456
20
6.63778523568681
30
0
41
1
10
73.1265777419492
20
6.72155433253195
30
0
41
1
10
73.8104437953093
20
6.87738294132961
30
0
41
1
10
74.152082687538
20
6.94968047448813
30
0
41
1
10
75.1803221137254
20
7.14635914969065
30
0
41
1
10
75.8699676290829
20
7.25129859648658
30
0
41
1
10
76.9076282604597
20
7.36962310828315
30
0
41
1
10
77.2523228269733
20
7.40223806266391
30
0
41
1
10
77.9420204840853
20
7.45316727678556
30
0
41
1
10
78.2866915153981
20
7.47164219613566
30
0
41
1
10
78.9752108049128
20
7.49487968574283
30
0
41
1
10
79.3190800881854
20
7.49963867020242
30
0
41
1
10
80.0055984940786
20
7.49523351875746
30
0
41
1
10
80.3488937503212
20
7.48605023466666
30
0
41
1
10
81.036639847445
20
7.45404502152707
30
0
41
1
10
81.3808592815478
20
7.4312192415519
30
0
41
1
10
82.0696028359444
20
7.37177417844447
30
0
41
1
10
82.4139321498394
20
7.33506696957144
30
0
41
1
10
82.7586545708432
20
7.29135755476565
30
0
0
SPLINE
5
C6
100
AcDbEntity
8
1
62
256
6
ByLayer
370
18
48
1
60
0
100
AcDbSpline
70
4
71
3
72
8
73
4
40
0
40
0
40
0
40
0
40
1
40
1
40
1
40
1
41
1
10
84.9952171652842
20
-0.107572159093678
30
0
41
1
10
84.9948575565347
20
-0.0881689037265119
30
0
41
1
10
84.9966268909425
20
-0.0651231366312857
30
0
41
1
10
84.9998526907835
20
-0.0407689361872201
30
0
0
SPLINE
5
C7
100
AcDbEntity
8
1
62
256
6
ByLayer
370
18
48
1
60
0
100
AcDbSpline
70
4
71
3
72
100
73
96
40
0
40
0
40
0
40
0
40
0.0152235580621177
40
0.0152235580621177
40
0.034229179057041
40
0.034229179057041
40
0.0532348000519644
40
0.0532348000519644
40
0.0722404210468877
40
0.0722404210468877
40
0.0912460420418111
40
0.0912460420418111
40
0.110251663036735
40
0.110251663036735
40
0.148262905026581
40
0.148262905026581
40
0.167268526021505
40
0.167268526021505
40
0.186274147016428
40
0.186274147016428
40
0.205279768011351
40
0.205279768011351
40
0.224285389006275
40
0.224285389006275
40
0.262296630996121
40
0.262296630996121
40
0.281302251991045
40
0.281302251991045
40
0.300307872985968
40
0.300307872985968
40
0.319313493980891
40
0.319313493980891
40
0.338319114975815
40
0.338319114975815
40
0.357324735970738
40
0.357324735970738
40
0.376330356965662
40
0.376330356965662
40
0.395335977960585
40
0.395335977960585
40
0.414341598955508
40
0.414341598955508
40
0.433347219950432
40
0.433347219950432
40
0.452352840945355
40
0.452352840945355
40
0.471358461940278
40
0.471358461940278
40
0.490364082935202
40
0.490364082935202
40
0.528375324925049
40
0.528375324925049
40
0.547380945919973
40
0.547380945919973
40
0.566386566914896
40
0.566386566914896
40
0.58539218790982
40
0.58539218790982
40
0.604397808904744
40
0.604397808904744
40
0.623403429899667
40
0.623403429899667
40
0.642409050894591
40
0.642409050894591
40
0.680420292884439
40
0.680420292884439
40
0.699425913879362
40
0.699425913879362
40
0.718431534874285
40
0.718431534874285
40
0.737437155869209
40
0.737437155869209
40
0.756442776864132
40
0.756442776864132
40
0.775448397859056
40
0.775448397859056
40
0.794454018853979
40
0.794454018853979
40
0.832465260843826
40
0.832465260843826
40
0.85147088183875
40
0.85147088183875
40
0.870476502833674
40
0.870476502833674
40
0.889482123828598
40
0.889482123828598
40
0.908487744823521
40
0.908487744823521
40
0.946498986813369
40
0.946498986813369
40
0.965504607808293
40
0.965504607808293
40
0.984510228803217
40
0.984510228803217
40
1
40
1
40
1
40
1
41
1
10
25.3120049712125
20
5.37649988573267
30
0
41
1
10
25.5873039901453
20
5.47985958235569
30
0
41
1
10
25.8628868585834
20
5.58042395164137
30
0
41
1
10
26.4847189711126
20
5.79812464555997
30
0
41
1
10
26.831848082624
20
5.9138224292376
30
0
41
1
10
27.5235397004504
20
6.13353851267331
30
0
41
1
10
27.8683755312848
20
6.23762973528875
30
0
41
1
10
28.5555526497037
20
6.43473658910887
30
0
41
1
10
28.8984733605777
20
6.52711257643719
30
0
41
1
10
29.5842119799812
20
6.69867983899834
30
0
41
1
10
29.9267903970531
20
6.77812175145294
30
0
41
1
10
30.6109834903338
20
6.92474022091557
30
0
41
1
10
30.9524474811008
20
6.99200941831532
30
0
41
1
10
31.9757847663884
20
7.17481991092447
30
0
41
1
10
32.659613315577
20
7.26976157040716
30
0
41
1
10
33.6858143072536
20
7.37315900278176
30
0
41
1
10
34.0275727774611
20
7.40115205884271
30
0
41
1
10
34.7127424378361
20
7.44330237177863
30
0
41
1
10
35.0563123750801
20
7.45748632296213
30
0
41
1
10
35.7450226551497
20
7.47218986109783
30
0
41
1
10
36.0901568357161
20
7.47271038247413
30
0
41
1
10
36.781641407581
20
7.459743802453
30
0
41
1
10
37.1274479547558
20
7.44612948752311
30
0
41
1
10
38.1621147979922
20
7.384961123349
30
0
41
1
10
38.8499295632702
20
7.31740172607275
30
0
41
1
10
39.876067994139
20
7.1755310722277
30
0
41
1
10
40.2174672734154
20
7.12151564858794
30
0
41
1
10
40.9009596803331
20
7.00136293727343
30
0
41
1
10
41.2427443916437
20
6.935085154956
30
0
41
1
10
41.9259630989779
20
6.78990464487723
30
0
41
1
10
42.2673598946155
20
6.71096735130595
30
0
41
1
10
42.9496191754716
20
6.54004567088117
30
0
41
1
10
43.2912266834575
20
6.44870439623961
30
0
41
1
10
43.9758439549752
20
6.25485426569156
30
0
41
1
10
44.3187027586183
20
6.15221059331614
30
0
41
1
10
45.0051816326416
20
5.93498854886431
30
0
41
1
10
45.3485175434819
20
5.82004492279225
30
0
41
1
10
46.0368902814498
20
5.57895946632621
30
0
41
1
10
46.3825364338272
20
5.4533592577485
30
0
41
1
10
47.0753777031632
20
5.19201322335715
30
0
41
1
10
47.4208550705252
20
5.05686577849696
30
0
41
1
10
48.109612294897
20
4.77722043825261
30
0
41
1
10
48.4525218199057
20
4.63213910101368
30
0
41
1
10
49.1382139950464
20
4.33576817189856
30
0
41
1
10
49.4808885403432
20
4.18434531382664
30
0
41
1
10
50.1654473515321
20
3.87443807783481
30
0
41
1
10
50.507361569658
20
3.71600192363951
30
0
41
1
10
51.1899711460412
20
3.39131193793031
30
0
41
1
10
51.5306469400757
20
3.22499443357671
30
0
41
1
10
52.554754437671
20
2.72092462062216
30
0
41
1
10
53.2389341198388
20
2.37597135260759
30
0
41
1
10
54.2648385906408
20
1.84029285171704
30
0
41
1
10
54.6073163944844
20
1.65970456031201
30
0
41
1
10
55.2945190491495
20
1.29681279452038
30
0
41
1
10
55.6389993971471
20
1.11405916582541
30
0
41
1
10
56.3293515012692
20
0.745147005739199
30
0
41
1
10
56.6757468027248
20
0.558294125092061
30
0
41
1
10
57.3659005556193
20
0.184111054008668
30
0
41
1
10
57.7104810273817
20
-0.0019149250579176
30
0
41
1
10
58.3985248749425
20
-0.372219180452447
30
0
41
1
10
58.7419258795557
20
-0.556620005044294
30
0
41
1
10
59.4271825022461
20
-0.924529002926164
30
0
41
1
10
59.7686465332644
20
-1.10876834583905
30
0
41
1
10
60.7931478118777
20
-1.65550748386218
30
0
41
1
10
61.4767006301205
20
-2.01140309573162
30
0
41
1
10
62.5004511490648
20
-2.53685455088657
30
0
41
1
10
62.8411857313615
20
-2.71102281978887
30
0
41
1
10
63.5245445574981
20
-3.05219180424712
30
0
41
1
10
63.8669176926574
20
-3.2196559093116
30
0
41
1
10
64.5525711787808
20
-3.54918586172397
30
0
41
1
10
64.8959016269122
20
-3.71116654637325
30
0
41
1
10
65.5830252869496
20
-4.030375247856
30
0
41
1
10
65.9271123205304
20
-4.18709250987516
30
0
41
1
10
66.6183445410179
20
-4.49141536939817
30
0
41
1
10
66.9650862405636
20
-4.63949034551828
30
0
41
1
10
67.6551606176582
20
-4.9259802696543
30
0
41
1
10
67.9991214439294
20
-5.06477000571036
30
0
41
1
10
69.02773876358
20
-5.4677071968139
30
0
41
1
10
69.7126243106545
20
-5.71370484769716
30
0
41
1
10
70.7375066284375
20
-6.05137685125666
30
0
41
1
10
71.0783678167983
20
-6.15905591730808
30
0
41
1
10
71.7601610720041
20
-6.36276191510646
30
0
41
1
10
72.1015020308604
20
-6.45840263214509
30
0
41
1
10
72.7847253015456
20
-6.63778523568681
30
0
41
1
10
73.1265777419492
20
-6.72155433253192
30
0
41
1
10
73.8104437953093
20
-6.87738294132961
30
0
41
1
10
74.152082687538
20
-6.94968047448813
30
0
41
1
10
75.1803221137254
20
-7.14635914969065
30
0
41
1
10
75.8699676290828
20
-7.25129859648655
30
0
41
1
10
76.9076282604597
20
-7.36962310828312
30
0
41
1
10
77.2523228269733
20
-7.40223806266391
30
0
41
1
10
77.9420204840853
20
-7.45316727678556
30
0
41
1
10
78.2866915153981
20
-7.47164219613566
30
0
41
1
10
78.9115262137673
20
-7.4927303341598
30
0
41
1
10
79.191841973158
20
-7.49764319123358
30
0
41
1
10
79.4717794906095
20
-7.49794440146383
30
0
0
SPLINE
5
C8
100
AcDbEntity
8
1
62
256
6
ByLayer
370
18
48
1
60
0
100
AcDbSpline
70
4
71
3
72
12
73
8
40
0
40
0
40
0
40
0
40
0.249999999999989
40
0.249999999999989
40
0.499999999999978
40
0.499999999999978
40
1
40
1
40
1
40
1
41
1
10
1.89013513058492
20
6.44040302453448
30
0
41
1
10
1.87018534828493
20
6.44578361767503
30
0
41
1
10
1.85212061426887
20
6.4523615328159
30
0
41
1
10
1.81965805536788
20
6.4677801545119
30
0
41
1
10
1.80546393367783
20
6.47659322917784
30
0
41
1
10
1.77105822517578
20
6.50486592520096
30
0
41
1
10
1.75853843679602
20
6.52657257478728
30
0
41
1
10
1.75853843679602
20
6.5481719279957
30
0
0
SPLINE
5
C9
100
AcDbEntity
8
1
62
256
6
ByLayer
370
18
48
1
60
0
100
AcDbSpline
70
4
71
3
72
12
73
8
40
0
40
0
40
0
40
0
40
0.500000000000003
40
0.500000000000003
40
0.750000000000001
40
0.750000000000001
40
1
40
1
40
1
40
1
41
1
10
84.6327827089569
20
1.67843446695588
30
0
41
1
10
84.7384713588029
20
1.43843638886932
30
0
41
1
10
84.820271796075
20
1.19598870364925
30
0
41
1
10
84.9099554842178
20
0.828931464162565
30
0
41
1
10
84.9343640413737
20
0.706016490770736
30
0
41
1
10
84.9728370301608
20
0.459125809802941
30
0
41
1
10
84.9868246957982
20
0.335540255195724
30
0
41
1
10
84.9960023243746
20
0.21256585390546
30
0
0
SPLINE
5
CA
100
AcDbEntity
8
1
62
256
6
ByLayer
370
18
48
1
60
0
100
AcDbSpline
70
4
71
3
72
8
73
4
40
0
40
0
40
0
40
0
40
1
40
1
40
1
40
1
41
1
10
84.9960023243745
20
-0.212565853905744
30
0
41
1
10
84.996122080991
20
-0.177566402638291
30
0
41
1
10
84.9958657669678
20
-0.142568482359792
30
0
41
1
10
84.9952171652865
20
-0.107572159090012
30
0
0
SPLINE
5
CB
100
AcDbEntity
8
1
62
256
6
ByLayer
370
18
48
1
60
0
100
AcDbSpline
70
4
71
3
72
8
73
4
40
0
40
0
40
0
40
0
40
1
40
1
40
1
40
1
41
1
10
16.8779797371274
20
7.04924512376201
30
0
41
1
10
16.3909996334826
20
7.07274645595129
30
0
41
1
10
15.9082338440471
20
7.0852419243835
30
0
41
1
10
15.4282288450241
20
7.08472400002785
30
0
0
SPLINE
5
CC
100
AcDbEntity
8
1
62
256
6
ByLayer
370
18
48
1
60
0
100
AcDbSpline
70
4
71
3
72
12
73
8
40
0
40
0
40
0
40
0
40
0.25
40
0.25
40
0.5
40
0.5
40
1
40
1
40
1
40
1
41
1
10
82.7586545708359
20
-7.29135755478652
30
0
41
1
10
82.9141380958834
20
-6.84340069631864
30
0
41
1
10
83.071557166322
20
-6.39659127075149
30
0
41
1
10
83.3898280583642
20
-5.50489274405325
30
0
41
1
10
83.5507074431897
20
-5.06002055636338
30
0
41
1
10
84.0376973792989
20
-3.72779680143628
30
0
41
1
10
84.3683219510912
20
-2.84289226863891
30
0
41
1
10
84.701696297248
20
-1.95974369074202
30
0
0
SPLINE
5
CD
100
AcDbEntity
8
1
62
256
6
ByLayer
370
13
48
1
60
0
100
AcDbSpline
70
4
71
3
72
14
73
10
40
0
40
0
40
0
40
0
40
0.105357164932493
40
0.105357164932493
40
0.254469391792479
40
0.254469391792479
40
0.403581618652465
40
0.403581618652465
40
1
40
1
40
1
40
1
41
1
10
2.00889863404544
20
6.41561032287979
30
0
41
1
10
2.0089132959711
20
6.46127762268523
30
0
41
1
10
2.00892765956027
20
6.5046482079309
30
0
41
1
10
2.00896170039067
20
6.60389602111016
30
0
41
1
10
2.00898110559135
20
6.65747209109176
30
0
41
1
10
2.00901898161732
20
6.75538584714408
30
0
41
1
10
2.00903750840607
20
6.79983889542427
30
0
41
1
10
2.00912732806361
20
6.99674895397504
30
0
41
1
10
2.00919040617592
20
7.07501759067787
30
0
41
1
10
2.00924972334835
20
7.07513303943952
30
0
0
SPLINE
5
CE
100
AcDbEntity
8
1
62
256
6
ByLayer
370
18
48
1
60
0
100
AcDbSpline
70
4
71
3
72
8
73
4
40
0
40
0
40
0
40
0
40
1
40
1
40
1
40
1
41
1
10
82.4112388069298
20
-3.71654544174711
30
0
41
1
10
81.9995305705597
20
-4.25150647270951
30
0
41
1
10
81.5811288119814
20
-4.77859385200722
30
0
41
1
10
81.1578464055133
20
-5.2999400803553
30
0
0
SPLINE
5
CF
100
AcDbEntity
8
1
62
256
6
ByLayer
370
18
48
1
60
0
100
AcDbSpline
70
4
71
3
72
10
73
6
40
0
40
0
40
0
40
0
40
0.5
40
0.5
40
1
40
1
40
1
40
1
41
1
10
82.4006605076859
20
1.74998867056777
30
0
41
1
10
82.7727564522171
20
1.73723492085048
30
0
41
1
10
83.1447478690352
20
1.72562640490577
30
0
41
1
10
83.8888200588722
20
1.70143036241842
30
0
41
1
10
84.2608495129288
20
1.68940510024626
30
0
41
1
10
84.6327827089568
20
1.67843446695585
30
0
0
SPLINE
5
D0
100
AcDbEntity
8
1
62
256
6
ByLayer
370
18
48
1
60
0
100
AcDbSpline
70
4
71
3
72
14
73
10
40
0
40
0
40
0
40
0
40
0.25
40
0.25
40
0.5
40
0.5
40
0.75
40
0.75
40
1
40
1
40
1
40
1
41
1
10
82.5757217481447
20
-7.11664291016967
30
0
41
1
10
82.5790151070735
20
-7.11597224581647
30
0
41
1
10
82.5816572132294
20
-7.11700845816227
30
0
41
1
10
82.5852430153694
20
-7.12355737995566
30
0
41
1
10
82.5861315095987
20
-7.12915502265469
30
0
41
1
10
82.5850618245954
20
-7.14593882102986
30
0
41
1
10
82.5830353105745
20
-7.1571459282242
30
0
41
1
10
82.5762054673197
20
-7.18260048459192
30
0
41
1
10
82.5714646877408
20
-7.19664827542704
30
0
41
1
10
82.5662524808227
20
-7.21000550546694
30
0
0
SPLINE
5
D1
100
AcDbEntity
8
1
62
256
6
ByLayer
370
18
48
1
60
0
100
AcDbSpline
70
4
71
3
72
10
73
6
40
0
40
0
40
0
40
0
40
0.5
40
0.5
40
1
40
1
40
1
40
1
41
1
10
84.9998526907838
20
0.0407689361847758
30
0
41
1
10
84.9966279269418
20
0.0175591147124976
30
0
41
1
10
84.9909074270269
20
-0.0082501930604337
30
0
41
1
10
84.973798608764
20
-0.0598805875645212
30
0
41
1
10
84.9625426081774
20
-0.0846651328076007
30
0
41
1
10
84.9508171366543
20
-0.103548747662529
30
0
0
SPLINE
5
D2
100
AcDbEntity
8
1
62
256
6
ByLayer
370
18
48
1
60
0
100
AcDbSpline
70
4
71
3
72
110
73
106
40
0
40
0
40
0
40
0
40
0.0164740386731637
40
0.0164740386731637
40
0.0340370022682859
40
0.0340370022682859
40
0.051599965863408
40
0.051599965863408
40
0.0691629294585301
40
0.0691629294585301
40
0.0867258930536522
40
0.0867258930536522
40
0.121851820243896
40
0.121851820243896
40
0.139414783839018
40
0.139414783839018
40
0.15697774743414
40
0.15697774743414
40
0.174540711029262
40
0.174540711029262
40
0.192103674624384
40
0.192103674624384
40
0.209666638219506
40
0.209666638219506
40
0.227229601814627
40
0.227229601814627
40
0.244792565409749
40
0.244792565409749
40
0.262355529004871
40
0.262355529004871
40
0.279918492599993
40
0.279918492599993
40
0.297481456195115
40
0.297481456195115
40
0.315044419790236
40
0.315044419790236
40
0.332607383385358
40
0.332607383385358
40
0.35017034698048
40
0.35017034698048
40
0.367733310575602
40
0.367733310575602
40
0.385296274170723
40
0.385296274170723
40
0.402859237765845
40
0.402859237765845
40
0.420422201360967
40
0.420422201360967
40
0.437985164956089
40
0.437985164956089
40
0.455548128551211
40
0.455548128551211
40
0.473111092146333
40
0.473111092146333
40
0.490674055741454
40
0.490674055741454
40
0.508237019336576
40
0.508237019336576
40
0.525799982931698
40
0.525799982931698
40
0.543362946526819
40
0.543362946526819
40
0.578488873717064
40
0.578488873717064
40
0.596051837312186
40
0.596051837312186
40
0.613614800907308
40
0.613614800907308
40
0.63117776450243
40
0.63117776450243
40
0.648740728097552
40
0.648740728097552
40
0.666303691692674
40
0.666303691692674
40
0.683866655287796
40
0.683866655287796
40
0.701429618882918
40
0.701429618882918
40
0.71899258247804
40
0.71899258247804
40
0.736555546073163
40
0.736555546073163
40
0.754118509668285
40
0.754118509668285
40
0.771681473263407
40
0.771681473263407
40
0.789244436858529
40
0.789244436858529
40
0.806807400453651
40
0.806807400453651
40
0.824370364048773
40
0.824370364048773
40
0.859496291239018
40
0.859496291239018
40
0.877059254834141
40
0.877059254834141
40
0.894622218429263
40
0.894622218429263
40
0.912185182024386
40
0.912185182024386
40
0.929748145619509
40
0.929748145619509
40
0.964874072809754
40
0.964874072809754
40
1
40
1
40
1
40
1
41
1
10
68.8342801513963
20
-5.40694015181026
30
0
41
1
10
68.5489873642297
20
-5.50213900819818
30
0
41
1
10
68.2637640792615
20
-5.59438842696179
30
0
41
1
10
67.6738861643707
20
-5.7776588156928
30
0
41
1
10
67.3688373105063
20
-5.86818904441927
30
0
41
1
10
66.7593454248945
20
-6.03993542861252
30
0
41
1
10
66.4548722130288
20
-6.12106716034003
30
0
41
1
10
65.846410247902
20
-6.2732494646001
30
0
41
1
10
65.5424696375856
20
-6.34412686582866
30
0
41
1
10
64.9348878378624
20
-6.47807045042302
30
0
41
1
10
64.6310274127508
20
-6.54083152178615
30
0
41
1
10
63.7190216831311
20
-6.71519038611603
30
0
41
1
10
63.1102984907425
20
-6.81146250020325
30
0
41
1
10
62.1964376340857
20
-6.92808583094544
30
0
41
1
10
61.891715074251
20
-6.96211658320948
30
0
41
1
10
61.2829076954015
20
-7.01938588886952
30
0
41
1
10
60.9786613989074
20
-7.04248199522391
30
0
41
1
10
60.3704432726185
20
-7.07817435188713
30
0
41
1
10
60.0665005852221
20
-7.09108290955183
30
0
41
1
10
59.4590403844821
20
-7.10744261934718
30
0
41
1
10
59.1553459429875
20
-7.11076406561349
30
0
41
1
10
58.5472456827616
20
-7.10655839901875
30
0
41
1
10
58.2428829677347
20
-7.09882889972241
30
0
41
1
10
57.633647337474
20
-7.07354776747371
30
0
41
1
10
57.328560130733
20
-7.05607165626688
30
0
41
1
10
56.719414908048
20
-7.01114972242516
30
0
41
1
10
56.4153188010258
20
-6.98361785696702
30
0
41
1
10
55.8070368254597
20
-6.91788104436941
30
0
41
1
10
55.5029448790591
20
-6.8796781396241
30
0
41
1
10
54.8948957301243
20
-6.79426499816134
30
0
41
1
10
54.5909509106743
20
-6.74696450363527
30
0
41
1
10
53.983242015718
20
-6.64240767611798
30
0
41
1
10
53.6795121733198
20
-6.58497792984551
30
0
41
1
10
53.0710515270348
20
-6.46018734465235
30
0
41
1
10
52.7664885927876
20
-6.39333607470999
30
0
41
1
10
52.156757154769
20
-6.25116787582925
30
0
41
1
10
51.851808374301
20
-6.17557858166873
30
0
41
1
10
51.2431193160806
20
-6.01507442902337
30
0
41
1
10
50.9392712895011
20
-5.92983442536624
30
0
41
1
10
50.3314248412033
20
-5.75152376169314
30
0
41
1
10
50.0275197699602
20
-5.65883912071143
30
0
41
1
10
49.4196348795808
20
-5.46553326323715
30
0
41
1
10
49.1156483231758
20
-5.36488904891942
30
0
41
1
10
48.5075613303987
20
-5.15519754693392
30
0
41
1
10
48.203544493973
20
-5.04582619688145
30
0
41
1
10
47.5948424530127
20
-4.82079973106912
30
0
41
1
10
47.2898864472865
20
-4.70504379268581
30
0
41
1
10
46.6804006375033
20
-4.46699609565755
30
0
41
1
10
46.3759394761493
20
-4.34481093155051
30
0
41
1
10
45.7675754205958
20
-4.09393091855765
30
0
41
1
10
45.4637717600911
20
-3.96513247369316
30
0
41
1
10
44.8563471477236
20
-3.70265066029259
30
0
41
1
10
44.5525709653733
20
-3.56900065656112
30
0
41
1
10
43.9446905952907
20
-3.29672578888608
30
0
41
1
10
43.6405343172985
20
-3.15797249654864
30
0
41
1
10
43.0319514425137
20
-2.87584403597325
30
0
41
1
10
42.7276245476763
20
-2.73243873952481
30
0
41
1
10
42.1185889183944
20
-2.4411690302988
30
0
41
1
10
41.8138017179718
20
-2.29384864734519
30
0
41
1
10
41.2050102938073
20
-1.99684085439492
30
0
41
1
10
40.9007608611229
20
-1.84699698643595
30
0
41
1
10
39.9886133626862
20
-1.39402353461401
30
0
41
1
10
39.3818937530371
20
-1.08605485152305
30
0
41
1
10
38.4698073156325
20
-0.622151704171927
30
0
41
1
10
38.165491300657
20
-0.467127047515334
30
0
41
1
10
37.5565116376552
20
-0.156182535956617
30
0
41
1
10
37.2515874283895
20
-0.0001017851672032
30
0
41
1
10
36.6425914146021
20
0.312299668287153
30
0
41
1
10
36.3384846181827
20
0.468140770908491
30
0
41
1
10
35.7302438393721
20
0.777935761450806
30
0
41
1
10
35.4262251772375
20
0.932178738410755
30
0
41
1
10
34.8183700694052
20
1.23917784031428
30
0
41
1
10
34.5145522423729
20
1.39198829666753
30
0
41
1
10
33.9070398709734
20
1.69573825959196
30
0
41
1
10
33.6032957157187
20
1.84653745607156
30
0
41
1
10
32.9950682390115
20
2.14508443011826
30
0
41
1
10
32.6906773698195
20
2.29295984216446
30
0
41
1
10
32.0812196597368
20
2.58552923785476
30
0
41
1
10
31.7763007574094
20
2.73019831837286
30
0
41
1
10
31.1677439451249
20
3.01449426621826
30
0
41
1
10
30.8639403010536
20
3.15465990823739
30
0
41
1
10
30.25622920146
20
3.43018784553277
30
0
41
1
10
29.9524009633074
20
3.56551153457269
30
0
41
1
10
29.3446937412401
20
3.83064032072164
30
0
41
1
10
29.040794530574
20
3.96027709403776
30
0
41
1
10
28.4328726461745
20
4.21350716670955
30
0
41
1
10
28.129036973738
20
4.3377733492249
30
0
41
1
10
27.5206065013609
20
4.58015904267322
30
0
41
1
10
27.2157936684354
20
4.6983665932149
30
0
41
1
10
26.6064323229703
20
4.92725992915103
30
0
41
1
10
26.3020393150177
20
5.03725813929961
30
0
41
1
10
25.3897566269143
20
5.35653401307084
30
0
41
1
10
24.7831289159657
20
5.55749928195311
30
0
41
1
10
23.8716045136713
20
5.83041942323374
30
0
41
1
10
23.5675291658444
20
5.91629380336005
30
0
41
1
10
22.9593071202287
20
6.08120884790335
30
0
41
1
10
22.6552385536609
20
6.16010842843525
30
0
41
1
10
22.0465392917435
20
6.30908815100599
30
0
41
1
10
21.7417563464576
20
6.37900439120702
30
0
41
1
10
21.1330985495022
20
6.50772682622247
30
0
41
1
10
20.8289594839941
20
6.5670046737346
30
0
41
1
10
19.9172445636138
20
6.73228245711351
30
0
41
1
10
19.3107385766803
20
6.82378375495315
30
0
41
1
10
18.0957691132997
20
6.96609056012989
30
0
41
1
10
17.487425720705
20
7.01828677992646
30
0
41
1
10
16.8779797371274
20
7.04924512376201
30
0
0
SPLINE
5
D3
100
AcDbEntity
8
1
62
256
6
ByLayer
370
18
48
1
60
0
100
AcDbSpline
70
4
71
3
72
12
73
8
40
0
40
0
40
0
40
0
40
0.061416750540712
40
0.061416750540712
40
0.530708375270356
40
0.530708375270356
40
1
40
1
40
1
40
1
41
1
10
1.84714497096181
20
0.0002048662200025
30
0
41
1
10
1.84389875092347
20
0.0019087383304566
30
0
41
1
10
1.84070248449854
20
0.0035885023408753
30
0
41
1
10
1.81352127942785
20
0.0178930209572457
30
0
41
1
10
1.79394569162491
20
0.0283349183167161
30
0
41
1
10
1.76605008032476
20
0.0434877840127115
30
0
41
1
10
1.75853843679624
20
0.0477605047814507
30
0
41
1
10
1.75853843679624
20
0.0479930257627927
30
0
0
SPLINE
5
D4
100
AcDbEntity
8
1
62
256
6
ByLayer
370
18
48
1
60
0
100
AcDbSpline
70
4
71
3
72
14
73
10
40
0
40
0
40
0
40
0
40
0.238973239806757
40
0.238973239806757
40
0.718357872208676
40
0.718357872208676
40
0.958050188409635
40
0.958050188409635
40
1
40
1
40
1
40
1
41
1
10
59.9467658026065
20
-0.0159271400157195
30
0
41
1
10
60.788727356099
20
-0.454049818129022
30
0
41
1
10
61.625171162432
20
-0.888840744674553
30
0
41
1
10
64.1310105627779
20
-2.17077392200602
30
0
41
1
10
65.791940426271
20
-2.99238890912605
30
0
41
1
10
68.3011007604438
20
-4.10983545872341
30
0
41
1
10
69.1402815136199
20
-4.46351693863329
30
0
41
1
10
70.1332057048729
20
-4.85041178565223
30
0
41
1
10
70.2813137884516
20
-4.90730068889295
30
0
41
1
10
70.4292807398984
20
-4.96328611022605
30
0
0
SPLINE
5
D5
100
AcDbEntity
8
1
62
256
6
ByLayer
370
13
48
1
60
0
100
AcDbSpline
70
4
71
3
72
20
73
16
40
0
40
0
40
0
40
0
40
0.0155409291253295
40
0.0155409291253295
40
0.067354564434524
40
0.067354564434524
40
0.170981835052913
40
0.170981835052913
40
0.585490917526461
40
0.585490917526461
40
0.792745458763233
40
0.792745458763233
40
0.896372729381617
40
0.896372729381617
40
1
40
1
40
1
40
1
41
1
10
70.4292807401005
20
-4.96328611030248
30
0
41
1
10
70.4926767242521
20
-4.9872728914641
30
0
41
1
10
70.5560468012355
20
-5.01109382337867
30
0
41
1
10
70.8304598371265
20
-5.1135588179454
30
0
41
1
10
71.0412047987467
20
-5.19049664786709
30
0
41
1
10
71.6724717814932
20
-5.41558172921063
30
0
41
1
10
72.0920505748792
20
-5.55797910764124
30
0
41
1
10
74.1857289400616
20
-6.22943665516985
30
0
41
1
10
75.8468270380666
20
-6.63727441728895
30
0
41
1
10
78.3515039246587
20
-7.02575965604498
30
0
41
1
10
79.188687535718
20
-7.11808997769916
30
0
41
1
10
80.4520642225468
20
-7.19761279088098
30
0
41
1
10
80.8751022214683
20
-7.21428011023801
30
0
41
1
10
81.7208354291891
20
-7.22732016703952
30
0
41
1
10
82.1434810176926
20
-7.2237290450669
30
0
41
1
10
82.5662524808226
20
-7.21000550546697
30
0
0
SPLINE
5
D6
100
AcDbEntity
8
1
62
256
6
ByLayer
370
18
48
1
60
0
100
AcDbSpline
70
4
71
3
72
42
73
38
40
0
40
0
40
0
40
0
40
0.031249999999999
40
0.031249999999999
40
0.0468749999999989
40
0.0468749999999989
40
0.0624999999999988
40
0.0624999999999988
40
0.124999999999999
40
0.124999999999999
40
0.140625
40
0.140625
40
0.14453125
40
0.14453125
40
0.148437500000001
40
0.148437500000001
40
0.152343750000002
40
0.152343750000002
40
0.156250000000002
40
0.156250000000002
40
0.171875000000002
40
0.171875000000002
40
0.187500000000002
40
0.187500000000002
40
0.250000000000002
40
0.250000000000002
40
0.312500000000002
40
0.312500000000002
40
0.375000000000002
40
0.375000000000002
40
0.500000000000001
40
0.500000000000001
40
0.750000000000001
40
0.750000000000001
40
0.875
40
0.875
40
1
40
1
40
1
40
1
41
1
10
2.28862542207227
20
-0.240893590907433
30
0
41
1
10
2.3663068024249
20
-0.097426226720529
30
0
41
1
10
2.45657011135015
20
0.0388415991580473
30
0
41
1
10
2.60737488921868
20
0.234415233293475
30
0
41
1
10
2.66005118215534
20
0.297880019026991
30
0
41
1
10
2.76850767230763
20
0.420439913676944
30
0
41
1
10
2.82446016165989
20
0.479755493009861
30
0
41
1
10
3.11175804362972
20
0.767762898011711
30
0
41
1
10
3.36518441133703
20
0.971348638095094
30
0
41
1
10
3.70161392836536
20
1.20367042444926
30
0
41
1
10
3.76971333438007
20
1.248858012863
30
0
41
1
10
3.85574329714228
20
1.30388076703153
30
0
41
1
10
3.87316774386375
20
1.31474008426957
30
0
41
1
10
3.91097642712046
20
1.33121262526416
30
0
41
1
10
3.93041025779203
20
1.33706745947649
30
0
41
1
10
3.9698482443479
20
1.34621453633488
30
0
41
1
10
3.98989382520284
20
1.34932054307094
30
0
41
1
10
4.03053267254319
20
1.35307313241444
30
0
41
1
10
4.0511557972734
20
1.35351150632127
30
0
41
1
10
4.15384360618268
20
1.35644308650725
30
0
41
1
10
4.23601144293428
20
1.35767213697434
30
0
41
1
10
4.40034583782853
20
1.36021134728506
30
0
41
1
10
4.48251950973355
20
1.36107012940238
30
0
41
1
10
4.89342004166835
20
1.36332291614735
30
0
41
1
10
5.22192900931538
20
1.35859645349436
30
0
41
1
10
5.87831082811311
20
1.33641197735716
30
0
41
1
10
6.2062203224591
20
1.3189455229697
30
0
41
1
10
6.86148801582991
20
1.27147319726322
30
0
41
1
10
7.18902091469269
20
1.24142867010568
30
0
41
1
10
8.16576163781949
20
1.133296092
30
0
41
1
10
8.81076072700745
20
1.03712502900495
30
0
41
1
10
10.7284683377099
20
0.680861726395733
30
0
41
1
10
11.9836049744998
20
0.351923359281017
30
0
41
1
10
13.8381166649462
20
-0.252965605680686
30
0
41
1
10
14.4516263632117
20
-0.473029824362186
30
0
41
1
10
15.6712340983463
20
-0.942721511485786
30
0
41
1
10
16.2775648139876
20
-1.19255952974859
30
0
41
1
10
16.8779797371274
20
-1.45132896984867
30
0
0
LINE
5
76
100
AcDbEntity
8
81
62
256
6
ByLayer
370
18
48
1
60
0
100
AcDbLine
10
85
20
0
30
0
11
90
21
0
31
0
39
0
210
0
220
0
230
1
0
LINE
5
77
100
AcDbEntity
8
1
62
256
6
ByLayer
370
18
48
1
60
0
100
AcDbLine
10
1.758538
20
7.449375
30
0
11
0.333541
21
7.448484
31
0
39
0
210
0
220
0
230
1
0
LINE
5
79
100
AcDbEntity
8
1
62
256
6
ByLayer
370
18
48
1
60
0
100
AcDbLine
10
38.140623
20
7.472114
30
0
11
35.937121
21
7.470737
31
0
39
0
210
0
220
0
230
1
0
LINE
5
7A
100
AcDbEntity
8
1
62
256
6
ByLayer
370
18
48
1
60
0
100
AcDbLine
10
81.691539
20
7.499333
30
0
11
79.482875
21
7.497953
31
0
39
0
210
0
220
0
230
1
0
LINE
5
7B
100
AcDbEntity
8
1
62
256
6
ByLayer
370
18
48
1
60
0
100
AcDbLine
10
79.482875
20
-7.497953
30
0
11
81.691526
21
-7.499333
31
0
39
0
210
0
220
0
230
1
0
LINE
5
7C
100
AcDbEntity
8
1
62
256
6
ByLayer
370
18
48
1
60
0
100
AcDbLine
10
35.937121
20
-7.470737
30
0
11
38.140362
21
-7.472114
31
0
39
0
210
0
220
0
230
1
0
LINE
5
7D
100
AcDbEntity
8
1
62
256
6
ByLayer
370
18
48
1
60
0
100
AcDbLine
10
0.333541
20
-7.448484
30
0
11
1.758538
21
-7.449375
31
0
39
0
210
0
220
0
230
1
0
LINE
5
7E
100
AcDbEntity
8
SK1
62
256
6
ByLayer
370
18
48
1
60
0
100
AcDbLine
10
0
20
8
30
0
11
-45.979274
21
8
31
0
39
0
210
0
220
0
230
1
0
LINE
5
80
100
AcDbEntity
8
SK1
62
256
6
ByLayer
370
18
48
1
60
0
100
AcDbLine
10
-45.979274
20
-8
30
0
11
0
21
-8
31
0
39
0
210
0
220
0
230
1
0
LINE
5
81
100
AcDbEntity
8
SK1
62
256
6
ByLayer
370
18
48
1
60
0
100
AcDbLine
10
-45.979274
20
8
30
0
11
-48
21
4.5
31
0
39
0
210
0
220
0
230
1
0
LINE
5
82
100
AcDbEntity
8
SK1
62
256
6
ByLayer
370
18
48
1
60
0
100
AcDbLine
10
-48
20
-4.5
30
0
11
-45.979274
21
-8
31
0
39
0
210
0
220
0
230
1
0
LINE
5
83
100
AcDbEntity
8
SK4
62
256
6
ByLayer
370
18
48
0.05
60
0
100
AcDbLine
10
90
20
0
30
0
11
-53
21
0
31
0
39
0
210
0
220
0
230
1
0
LINE
5
85
100
AcDbEntity
8
4
62
256
6
ByLayer
370
18
48
0.05
60
0
100
AcDbLine
10
85
20
0
30
0
11
0
21
0
31
0
39
0
210
0
220
0
230
1
0
LINE
5
87
100
AcDbEntity
8
80
62
256
6
ByLayer
370
18
48
1
60
0
100
AcDbLine
10
0
20
0
30
0
11
-5
21
0
31
0
39
0
210
0
220
0
230
1
0
LINE
5
88
100
AcDbEntity
8
SK1
62
256
6
ByLayer
370
18
48
1
60
0
100
AcDbLine
10
-48
20
4.5
30
0
11
-48
21
-2.484095
31
0
39
0
210
0
220
0
230
1
0
LINE
5
89
100
AcDbEntity
8
SK1
62
256
6
ByLayer
370
18
48
1
60
0
100
AcDbLine
10
-45.979274
20
8
30
0
11
-45.979274
21
-8
31
0
39
0
210
0
220
0
230
1
0
LINE
5
8A
100
AcDbEntity
8
SK1
62
256
6
ByLayer
370
18
48
1
60
0
100
AcDbLine
10
-48
20
-4.5
30
0
11
-48
21
-4.302455
31
0
39
0
210
0
220
0
230
1
0
LINE
5
8B
100
AcDbEntity
8
SK1
62
256
6
ByLayer
370
18
48
1
60
0
100
AcDbLine
10
0
20
8
30
0
11
0
21
-8
31
0
39
0
210
0
220
0
230
1
0
LINE
5
8C
100
AcDbEntity
8
SK1
62
256
6
ByLayer
370
18
48
1
60
0
100
AcDbLine
10
-48
20
-2.484041
30
0
11
-48
21
-4.302455
31
0
39
0
210
0
220
0
230
1
0
LINE
5
8D
100
AcDbEntity
8
SK1
62
256
6
ByLayer
370
18
48
1
60
0
100
AcDbLine
10
-46
20
-7.134374
30
0
11
-46
21
-5.468435
31
0
39
0
210
0
220
0
230
1
0
LINE
5
8E
100
AcDbEntity
8
SK1
62
256
6
ByLayer
370
13
48
1
60
0
100
AcDbLine
10
-46.1
20
-5.252142
30
0
11
-46.1
21
-7.037182
31
0
39
0
210
0
220
0
230
1
0
LINE
5
8F
100
AcDbEntity
8
1
62
256
6
ByLayer
370
13
48
1
60
0
100
AcDbLine
10
82.221389
20
1.624245
30
0
11
84.950817
21
-0.103549
31
0
39
0
210
0
220
0
230
1
0
LINE
5
90
100
AcDbEntity
8
1
62
256
6
ByLayer
370
13
48
1
60
0
100
AcDbLine
10
82.400661
20
1.749989
30
0
11
84.995217
21
0.107572
31
0
39
0
210
0
220
0
230
1
0
LINE
5
91
100
AcDbEntity
8
1
62
256
6
ByLayer
370
18
48
1
60
0
100
AcDbLine
10
1.758538
20
-7.449375
30
0
11
1.758538
21
0.048795
31
0
39
0
210
0
220
0
230
1
0
LINE
5
92
100
AcDbEntity
8
1
62
256
6
ByLayer
370
13
48
1
60
0
100
AcDbLine
10
0.333541
20
7.448484
30
0
11
0.333541
21
-7.448484
31
0
39
0
210
0
220
0
230
1
0
LINE
5
93
100
AcDbEntity
8
1
62
256
6
ByLayer
370
18
48
1
60
0
100
AcDbLine
10
1.758538
20
7.449375
30
0
11
1.758538
21
6.548172
31
0
39
0
210
0
220
0
230
1
0
MTEXT
5
D7
100
AcDbEntity
8
SK6
62
256
6
ByLayer
370
13
48
1
60
0
100
AcDbMText
10
20.629169
20
39.882694
30
0
210
0
220
0
230
1
1
\W0.7431;460.1-1500-068A1-XM GC34
40
3.5
41
0
44
1.084337
50
0
71
8
72
5
7
iso_b_vert
0
DIMENSION
5
E4
100
AcDbEntity
8
SK2
62
256
6
ByLayer
370
13
48
1
60
0
100
AcDbDimension
2
DimnDraft3D1
10
82.7625
20
-17.713398
30
0
11
39.512559
21
-17.713398
31
0
70
32
71
5
72
1
41
1
210
0
220
0
230
1
3
Standard
100
AcDbAlignedDimension
13
0
23
-1.5875
33
0
14
82.7625
24
-9.0875
34
0
50
0
100
AcDbRotatedDimension
1001
ACAD
1000
DSTYLE
1002
{
1070
   279
1070
     0
1070
   172
1070
     1
1070
   173
1070
     1
1070
   340
1005
D8
1070
   271
1070
     2
1070
   272
1070
     2
1070
    77
1070
     1
1070
    73
1070
     0
1070
   171
1070
     3
1070
   274
1070
     4
1070
   177
1070
    35
1070
   176
1070
    35
1070
   178
1070
    35
1070
    48
1040
-0.005
1070
    41
1041
3.5
1070
   147
1041
1.75
1070
    42
1041
1.5875
1070
    44
1041
2.0
1070
   140
1041
3.5
1070
   343
1005
0
1070
   344
1005
0
1002
}
0
DIMENSION
5
EE
100
AcDbEntity
8
SK2
62
256
6
ByLayer
370
13
48
1
60
0
100
AcDbDimension
2
DimnDraft3D2
10
85
20
-36.692985
30
0
11
17.6038
21
-36.692985
31
0
70
32
71
5
72
1
41
1
210
0
220
0
230
1
3
Standard
100
AcDbAlignedDimension
13
-48
23
-9.5875
33
0
14
85
24
-1.5875
34
0
50
0
100
AcDbRotatedDimension
1001
ACAD
1000
DSTYLE
1002
{
1070
   279
1070
     0
1070
   172
1070
     1
1070
   173
1070
     1
1070
   340
1005
D8
1070
   271
1070
     2
1070
   272
1070
     2
1070
    77
1070
     1
1070
    73
1070
     0
1070
   171
1070
     3
1070
   274
1070
     4
1070
   177
1070
    35
1070
   176
1070
    35
1070
   178
1070
    35
1070
    48
1040
-0.005
1070
    41
1041
3.5
1070
   147
1041
1.75
1070
    42
1041
1.5875
1070
    44
1041
2.0
1070
   140
1041
3.5
1070
   343
1005
0
1070
   344
1005
0
1002
}
0
DIMENSION
5
F8
100
AcDbEntity
8
SK2
62
256
6
ByLayer
370
13
48
1
60
0
100
AcDbDimension
2
DimnDraft3D3
10
85
20
19.109119
30
0
11
46.385
21
19.109119
31
0
70
32
71
5
72
1
41
1
210
0
220
0
230
1
3
Standard
100
AcDbAlignedDimension
13
7.77
23
9.0875
33
0
14
85
24
1.5875
34
0
50
0
100
AcDbRotatedDimension
1001
ACAD
1000
DSTYLE
1002
{
1070
   279
1070
     0
1070
   172
1070
     1
1070
   173
1070
     1
1070
   340
1005
D8
1070
   271
1070
     2
1070
   272
1070
     2
1070
    77
1070
     1
1070
    73
1070
     0
1070
   171
1070
     3
1070
   274
1070
     4
1070
   177
1070
    35
1070
   176
1070
    35
1070
   178
1070
    35
1070
    48
1040
-0.005
1070
    41
1041
3.5
1070
   147
1041
1.75
1070
    42
1041
1.5875
1070
    44
1041
2.0
1070
   140
1041
3.5
1070
   343
1005
0
1070
   344
1005
0
1002
}
0
DIMENSION
5
102
100
AcDbEntity
8
SK2
62
256
6
ByLayer
370
13
48
1
60
0
100
AcDbDimension
2
DimnDraft3D4
10
82.7625
20
-20.302503
30
0
11
94.981425
21
-20.302503
31
0
70
32
71
5
72
1
41
1
210
0
220
0
230
1
3
Standard
100
AcDbAlignedDimension
13
85
23
-1.5875
33
0
14
82.7625
24
-9.0875
34
0
50
0
100
AcDbRotatedDimension
1001
ACAD
1000
DSTYLE
1002
{
1070
   279
1070
     0
1070
   172
1070
     1
1070
   173
1070
     1
1070
   340
1005
D8
1070
   271
1070
     2
1070
   272
1070
     2
1070
    77
1070
     1
1070
    73
1070
     0
1070
   171
1070
     3
1070
   274
1070
     4
1070
   177
1070
    35
1070
   176
1070
    35
1070
   178
1070
    35
1070
    48
1040
-0.005
1070
    41
1041
3.5
1070
   147
1041
1.75
1070
    42
1041
1.5875
1070
    44
1041
2.0
1070
   140
1041
3.5
1070
   343
1005
0
1070
   344
1005
0
1002
}
0
DIMENSION
5
10C
100
AcDbEntity
8
SK2
62
256
6
ByLayer
370
13
48
1
60
0
100
AcDbDimension
2
DimnDraft3D5
10
82.7625
20
-26.343428
30
0
11
14.523176
21
-26.343428
31
0
70
32
71
5
72
1
41
1
210
0
220
0
230
1
3
Standard
100
AcDbAlignedDimension
13
-48
23
-9.5875
33
0
14
82.7625
24
-9.0875
34
0
50
0
100
AcDbRotatedDimension
1001
ACAD
1000
DSTYLE
1002
{
1070
   279
1070
     0
1070
   172
1070
     1
1070
   173
1070
     1
1070
   340
1005
D8
1070
   271
1070
     2
1070
   272
1070
     2
1070
    77
1070
     1
1070
    73
1070
     0
1070
   171
1070
     3
1070
   274
1070
     4
1070
   177
1070
    35
1070
   176
1070
    35
1070
   178
1070
    35
1070
    48
1040
-0.005
1070
    41
1041
3.5
1070
   147
1041
1.75
1070
    42
1041
1.5875
1070
    44
1041
2.0
1070
   140
1041
3.5
1070
   343
1005
0
1070
   344
1005
0
1002
}
0
DIMENSION
5
117
100
AcDbEntity
8
SK2
62
256
6
ByLayer
370
13
48
1
60
0
100
AcDbDimension
2
DimnDraft3D6
10
-58.625163
20
8
30
0
11
-59.250163
21
26.47418
31
0
70
33
71
5
72
1
41
1
210
0
220
0
230
1
3
Standard
100
AcDbAlignedDimension
13
-49.5875
23
-8
33
0
14
-49.5875
24
8
34
0
1001
ACAD
1000
DSTYLE
1002
{
1070
   279
1070
     0
1070
    74
1070
     0
1070
   173
1070
     1
1070
   340
1005
D8
1070
   271
1070
     3
1070
   272
1070
     2
1070
    77
1070
     1
1070
    73
1070
     0
1070
   171
1070
     3
1070
   274
1070
     4
1070
   177
1070
    35
1070
   176
1070
    35
1070
   178
1070
    35
1070
    48
1040
-0.005
1070
    41
1041
3.5
1070
   147
1041
1.75
1070
    42
1041
1.5875
1070
    44
1041
2.0
1070
   140
1041
3.5
1070
   343
1005
0
1070
   344
1005
0
1002
}
0
DIMENSION
5
122
100
AcDbEntity
8
2
62
256
6
ByLayer
370
13
48
1
60
0
100
AcDbDimension
2
DimnDraft3D7
10
99.083343
20
7.5
30
0
11
94.458343
21
24.567266
31
0
70
33
71
5
72
1
41
1
210
0
220
0
230
1
3
Standard
100
AcDbAlignedDimension
13
84.35
23
-7.5
33
0
14
84.35
24
7.5
34
0
1001
ACAD
1000
DSTYLE
1002
{
1070
   279
1070
     0
1070
    74
1070
     0
1070
   173
1070
     1
1070
   340
1005
D8
1070
   271
1070
     3
1070
   272
1070
     2
1070
    77
1070
     1
1070
    73
1070
     0
1070
   171
1070
     3
1070
   274
1070
     4
1070
   177
1070
    35
1070
   176
1070
    35
1070
   178
1070
    35
1070
    48
1040
-0.005
1070
    41
1041
3.5
1070
   147
1041
1.75
1070
    42
1041
1.5875
1070
    44
1041
2.0
1070
   140
1041
3.5
1070
   343
1005
0
1070
   344
1005
0
1002
}
0
ENDSEC
0
SECTION
2
OBJECTS
0
DICTIONARY
5
18d
330
0
100
AcDbDictionary
280
0
281
1
3
ACAD_GROUP
350
18e
3
ACAD_MLINESTYLE
350
18f
0
DICTIONARY
5
18e
330
0
100
AcDbDictionary
280
0
281
1
0
DICTIONARY
5
18f
330
0
100
AcDbDictionary
280
0
281
1
3
Standard
350
18
0
MLINESTYLE
5
18
330
18f
100
AcDbMlineStyle
2
Standard
70
0
3

62
256
51
90
52
90
71
2
49
-0.5
62
256
6
ByLayer
49
0.5
62
256
6
ByLayer
0
RASTERVARIABLES
5
17b
330

100
AcDbRasterVariables
90
0
70
1
71
1
72
1
0
ENDSEC
0
EOF
