0
SECTION
2
HEADER
9
$ACADVER
1
AC1015
9
$DWGCODEPAGE
3
ANSI_1252
9
$HANDSEED
5
196
9
$ANGBASE
50
0
9
$ANGDIR
70
0
9
$ATTMODE
70
1
9
$AUNITS
70
0
9
$AUPREC
70
0
9
$CECOLOR
62
256
9
$CELTSCALE
40
1
9
$CELTYPE
6
ByLayer
9
$CELWEIGHT
370
18
9
$CLAYER
8
0
9
$CMLJUST
70
0
9
$CMLSCALE
40
1
9
$CMLSTYLE
2
Standard
9
$DIMSTYLE
2
Standard
9
$TEXTSIZE
40
0.2
9
$TEXTSTYLE
7
Standard
9
$LUNITS
70
2
9
$LUPREC
70
4
9
$EXTNAMES
290
1
9
$INSUNITS
70
4
9
$LTSCALE
40
1
9
$LWDISPLAY
290
1
9
$PDMODE
70
0
9
$PDSIZE
40
0
9
$PLINEGEN
70
0
0
ENDSEC
0
SECTION
2
CLASSES
0
CLASS
1
RASTERVARIABLES
2
AcDbRasterVariables
3
ISM
90
0
280
0
281
0
0
ENDSEC
0
SECTION
2
TABLES
0
TABLE
2
VPORT
5
18c
100
AcDbSymbolTable
0
VPORT
5
1
100
AcDbSymbolTableRecord
100
AcDbViewportTableRecord
2
*Active
70
0
10
0
20
0
11
1
21
1
12
-1
22
1
13
0
23
0
14
0.5
24
0.5
15
10
25
10
16
0
26
0
36
1
17
0
27
0
37
0
0
ENDTAB
0
TABLE
2
LTYPE
5
18d
100
AcDbSymbolTable
0
LTYPE
5
14
100
AcDbSymbolTableRecord
100
AcDbLinetypeTableRecord
70
0
2
ByBlock
3

72
65
73
0
40
0
0
LTYPE
5
15
100
AcDbSymbolTableRecord
100
AcDbLinetypeTableRecord
70
0
2
ByLayer
3

72
65
73
0
40
0
0
LTYPE
5
16
100
AcDbSymbolTableRecord
100
AcDbLinetypeTableRecord
70
0
2
CONTINUOUS
3
Solid line
72
65
73
0
40
0
0
LTYPE
5
6A
100
AcDbSymbolTableRecord
100
AcDbLinetypeTableRecord
70
0
2
CENTER
3
____ _ ____ _ ____ _ ____
72
65
73
4
40
47.5
49
22
74
0
49
-8.5
74
0
49
8.5
74
0
49
-8.5
74
0
0
LTYPE
5
6B
100
AcDbSymbolTableRecord
100
AcDbLinetypeTableRecord
70
0
2
DASHED
3
__ __ __ __ __ __ __ __ __
72
65
73
2
40
25.72
49
12.86
74
0
49
-12.86
74
0
0
ENDTAB
0
TABLE
2
LAYER
5
18e
100
AcDbSymbolTable
0
LAYER
5
10
100
AcDbSymbolTableRecord
100
AcDbLayerTableRecord
2
0
70
0
62
7
6
CONTINUOUS
290
1
370
-3
390
0
0
LAYER
5
6D
100
AcDbSymbolTableRecord
100
AcDbLayerTableRecord
2
81
70
0
62
-3
6
CONTINUOUS
290
1
370
-3
390
0
0
LAYER
5
6F
100
AcDbSymbolTableRecord
100
AcDbLayerTableRecord
2
80
70
0
62
-6
6
CONTINUOUS
290
1
370
-3
390
0
0
LAYER
5
74
100
AcDbSymbolTableRecord
100
AcDbLayerTableRecord
2
2
70
0
62
7
6
CONTINUOUS
290
1
370
-3
390
0
0
LAYER
5
78
100
AcDbSymbolTableRecord
100
AcDbLayerTableRecord
2
1
70
0
62
4
6
CONTINUOUS
290
1
370
-3
390
0
0
LAYER
5
86
100
AcDbSymbolTableRecord
100
AcDbLayerTableRecord
2
4
70
0
62
-2
6
CENTER
290
1
370
-3
390
0
0
LAYER
5
178
100
AcDbSymbolTableRecord
100
AcDbLayerTableRecord
2
SK2
70
0
62
7
6
CONTINUOUS
290
1
370
-3
390
0
0
LAYER
5
179
100
AcDbSymbolTableRecord
100
AcDbLayerTableRecord
2
SK1
70
0
62
4
6
CONTINUOUS
290
1
370
-3
390
0
0
LAYER
5
17a
100
AcDbSymbolTableRecord
100
AcDbLayerTableRecord
2
SK4
70
0
62
2
6
CENTER
290
1
370
-3
390
0
0
LAYER
5
17b
100
AcDbSymbolTableRecord
100
AcDbLayerTableRecord
2
SK6
70
0
62
5
6
CONTINUOUS
290
1
370
-3
390
0
0
ENDTAB
0
TABLE
2
STYLE
5
18f
100
AcDbSymbolTable
0
STYLE
5
11
100
AcDbSymbolTableRecord
100
AcDbTextStyleTableRecord
2
Standard
3
txt
70
0
71
0
40
0
41
1
42
0
50
0
0
STYLE
5
D4
100
AcDbSymbolTableRecord
100
AcDbTextStyleTableRecord
2
iso_b_vert
3
simplex.shx
70
0
71
0
40
0
41
1
42
0
50
0
0
STYLE
5
D5
100
AcDbSymbolTableRecord
100
AcDbTextStyleTableRecord
2
DWGDirectTextStyle
3
simplex
70
0
71
0
40
0
41
1
42
0
50
0
0
ENDTAB
0
TABLE
2
DIMSTYLE
5
190
100
AcDbSymbolTable
100
AcDbDimStyleTable
0
DIMSTYLE
105
27
100
AcDbSymbolTableRecord
100
AcDbDimStyleTableRecord
2
Standard
70
0
3
<>
41
0.18
42
0.0625
44
0.18
140
0.18
147
0.09
73
0
74
0
77
1
271
2
275
0
278
52
280
0
340
11
0
ENDTAB
0
TABLE
2
VIEW
5
191
100
AcDbSymbolTable
0
ENDTAB
0
TABLE
2
UCS
5
192
100
AcDbSymbolTable
0
ENDTAB
0
TABLE
2
APPID
5
193
100
AcDbSymbolTable
0
APPID
5
12
100
AcDbSymbolTableRecord
100
AcDbRegAppTableRecord
2
ACAD
70
0
0
ENDTAB
0
TABLE
2
BLOCK_RECORD
5
194
100
AcDbSymbolTable
0
BLOCK_RECORD
5
1F
100
AcDbSymbolTableRecord
100
AcDbBlockTableRecord
2
*Model_Space
340
0
70
0
0
BLOCK_RECORD
5
1B
100
AcDbSymbolTableRecord
100
AcDbBlockTableRecord
2
*Paper_Space
340
0
70
0
0
BLOCK_RECORD
5
23
100
AcDbSymbolTableRecord
100
AcDbBlockTableRecord
2
*Paper_Space0
340
0
70
0
0
BLOCK_RECORD
5
D7
100
AcDbSymbolTableRecord
100
AcDbBlockTableRecord
2
DimnDraft3D1
340
0
70
0
0
BLOCK_RECORD
5
E1
100
AcDbSymbolTableRecord
100
AcDbBlockTableRecord
2
DimnDraft3D2
340
0
70
0
0
BLOCK_RECORD
5
EB
100
AcDbSymbolTableRecord
100
AcDbBlockTableRecord
2
DimnDraft3D3
340
0
70
0
0
BLOCK_RECORD
5
F5
100
AcDbSymbolTableRecord
100
AcDbBlockTableRecord
2
DimnDraft3D4
340
0
70
0
0
BLOCK_RECORD
5
FF
100
AcDbSymbolTableRecord
100
AcDbBlockTableRecord
2
DimnDraft3D5
340
0
70
0
0
BLOCK_RECORD
5
109
100
AcDbSymbolTableRecord
100
AcDbBlockTableRecord
2
DimnDraft3D6
340
0
70
0
0
BLOCK_RECORD
5
114
100
AcDbSymbolTableRecord
100
AcDbBlockTableRecord
2
DimnDraft3D7
340
0
70
0
0
ENDTAB
0
ENDSEC
0
SECTION
2
BLOCKS
0
BLOCK
5
20
100
AcDbEntity
8
0
100
AcDbBlockBegin
2
*Model_Space
70
0
10
0
20
0
30
0
3
*Model_Space
0
ENDBLK
5
21
100
AcDbEntity
8
0
100
AcDbBlockEnd
0
BLOCK
5
1C
100
AcDbEntity
8
0
100
AcDbBlockBegin
2
*Paper_Space
70
0
10
0
20
0
30
0
3
*Paper_Space
0
ENDBLK
5
1D
100
AcDbEntity
8
0
100
AcDbBlockEnd
0
BLOCK
5
24
100
AcDbEntity
8
0
100
AcDbBlockBegin
2
*Paper_Space0
70
0
10
0
20
0
30
0
3
*Paper_Space0
0
ENDBLK
5
25
100
AcDbEntity
8
0
100
AcDbBlockEnd
0
BLOCK
5
DE
100
AcDbEntity
8
0
100
AcDbBlockBegin
2
DimnDraft3D1
70
0
10
0
20
0
30
0
3
DimnDraft3D1
0
MTEXT
5
D8
100
AcDbEntity
8
SK2
62
256
6
ByLayer
370
13
48
1
60
0
100
AcDbMText
10
35.101575
20
-16.713398
30
0
210
0
220
0
230
1
1
\W0.7317;82,80
40
3.5
41
0
44
1.084337
50
0
71
7
72
5
7
iso_b_vert
0
LINE
5
D9
100
AcDbEntity
8
SK2
62
256
6
ByLayer
370
13
48
1
60
0
100
AcDbLine
10
0
20
-1.5875
30
0
11
0
21
-19.588398
31
0
39
0
210
0
220
0
230
1
0
LINE
5
DA
100
AcDbEntity
8
SK2
62
256
6
ByLayer
370
13
48
1
60
0
100
AcDbLine
10
82.8002
20
-8.9625
30
0
11
82.8002
21
-19.588398
31
0
39
0
210
0
220
0
230
1
0
LINE
5
DB
100
AcDbEntity
8
SK2
62
256
6
ByLayer
370
13
48
1
60
0
100
AcDbLine
10
0
20
-17.588398
30
0
11
82.8002
21
-17.588398
31
0
39
0
210
0
220
0
230
1
0
SOLID
5
DC
100
AcDbEntity
8
SK2
62
256
6
ByLayer
370
13
48
1
60
0
100
AcDbTrace
10
0
20
-17.588398
30
0
11
3.499998
21
-17.127615
31
0
12
3.500002
22
-18.049182
32
0
13
0
23
-17.588398
33
0
39
0
210
0
220
0
230
1
0
SOLID
5
DD
100
AcDbEntity
8
SK2
62
256
6
ByLayer
370
13
48
1
60
0
100
AcDbTrace
10
82.8002
20
-17.588398
30
0
11
79.300202
21
-18.049182
31
0
12
79.300198
22
-17.127615
32
0
13
82.8002
23
-17.588398
33
0
39
0
210
0
220
0
230
1
0
ENDBLK
5
DF
100
AcDbEntity
8
0
100
AcDbBlockEnd
0
BLOCK
5
E8
100
AcDbEntity
8
0
100
AcDbBlockBegin
2
DimnDraft3D2
70
0
10
0
20
0
30
0
3
DimnDraft3D2
0
MTEXT
5
E2
100
AcDbEntity
8
SK2
62
256
6
ByLayer
370
13
48
1
60
0
100
AcDbMText
10
12.322421
20
-35.817985
30
0
210
0
220
0
230
1
1
\W0.6930;133,00
40
3.5
41
0
44
1.084337
50
0
71
7
72
5
7
iso_b_vert
0
LINE
5
E3
100
AcDbEntity
8
SK2
62
256
6
ByLayer
370
13
48
1
60
0
100
AcDbLine
10
-48
20
-9.5875
30
0
11
-48
21
-38.692985
31
0
39
0
210
0
220
0
230
1
0
LINE
5
E4
100
AcDbEntity
8
SK2
62
256
6
ByLayer
370
13
48
1
60
0
100
AcDbLine
10
85
20
-1.5875
30
0
11
85
21
-38.692985
31
0
39
0
210
0
220
0
230
1
0
LINE
5
E5
100
AcDbEntity
8
SK2
62
256
6
ByLayer
370
13
48
1
60
0
100
AcDbLine
10
-48
20
-36.692985
30
0
11
85
21
-36.692985
31
0
39
0
210
0
220
0
230
1
0
SOLID
5
E6
100
AcDbEntity
8
SK2
62
256
6
ByLayer
370
13
48
1
60
0
100
AcDbTrace
10
-48
20
-36.692985
30
0
11
-44.500002
21
-36.232202
31
0
12
-44.499998
22
-37.153769
32
0
13
-48
23
-36.692985
33
0
39
0
210
0
220
0
230
1
0
SOLID
5
E7
100
AcDbEntity
8
SK2
62
256
6
ByLayer
370
13
48
1
60
0
100
AcDbTrace
10
85
20
-36.692985
30
0
11
81.500002
21
-37.153769
31
0
12
81.499998
22
-36.232202
32
0
13
85
23
-36.692985
33
0
39
0
210
0
220
0
230
1
0
ENDBLK
5
E9
100
AcDbEntity
8
0
100
AcDbBlockEnd
0
BLOCK
5
F2
100
AcDbEntity
8
0
100
AcDbBlockBegin
2
DimnDraft3D3
70
0
10
0
20
0
30
0
3
DimnDraft3D3
0
MTEXT
5
EC
100
AcDbEntity
8
SK2
62
256
6
ByLayer
370
13
48
1
60
0
100
AcDbMText
10
46.426316
20
19.859119
30
0
210
0
220
0
230
1
1
\W0.7317;68,25
40
3.5
41
0
44
1.084337
50
0
71
7
72
5
7
iso_b_vert
0
LINE
5
ED
100
AcDbEntity
8
SK2
62
256
6
ByLayer
370
13
48
1
60
0
100
AcDbLine
10
16.75
20
8.9625
30
0
11
16.75
21
20.984119
31
0
39
0
210
0
220
0
230
1
0
LINE
5
EE
100
AcDbEntity
8
SK2
62
256
6
ByLayer
370
13
48
1
60
0
100
AcDbLine
10
85
20
1.5875
30
0
11
85
21
20.984119
31
0
39
0
210
0
220
0
230
1
0
LINE
5
EF
100
AcDbEntity
8
SK2
62
256
6
ByLayer
370
13
48
1
60
0
100
AcDbLine
10
16.75
20
18.984119
30
0
11
85
21
18.984119
31
0
39
0
210
0
220
0
230
1
0
SOLID
5
F0
100
AcDbEntity
8
SK2
62
256
6
ByLayer
370
13
48
1
60
0
100
AcDbTrace
10
16.75
20
18.984119
30
0
11
20.249998
21
19.444903
31
0
12
20.250002
22
18.523335
32
0
13
16.75
23
18.984119
33
0
39
0
210
0
220
0
230
1
0
SOLID
5
F1
100
AcDbEntity
8
SK2
62
256
6
ByLayer
370
13
48
1
60
0
100
AcDbTrace
10
85
20
18.984119
30
0
11
81.500002
21
18.523335
31
0
12
81.499998
22
19.444903
32
0
13
85
23
18.984119
33
0
39
0
210
0
220
0
230
1
0
ENDBLK
5
F3
100
AcDbEntity
8
0
100
AcDbBlockEnd
0
BLOCK
5
FC
100
AcDbEntity
8
0
100
AcDbBlockBegin
2
DimnDraft3D4
70
0
10
0
20
0
30
0
3
DimnDraft3D4
0
MTEXT
5
F6
100
AcDbEntity
8
SK2
62
256
6
ByLayer
370
13
48
1
60
0
100
AcDbMText
10
91.840636
20
-19.302503
30
0
210
0
220
0
230
1
1
\W0.7150;2,20
40
3.5
41
0
44
1.084337
50
0
71
7
72
5
7
iso_b_vert
0
LINE
5
F7
100
AcDbEntity
8
SK2
62
256
6
ByLayer
370
13
48
1
60
0
100
AcDbLine
10
85
20
-1.5875
30
0
11
85
21
-22.177503
31
0
39
0
210
0
220
0
230
1
0
LINE
5
F8
100
AcDbEntity
8
SK2
62
256
6
ByLayer
370
13
48
1
60
0
100
AcDbLine
10
82.8002
20
-8.9625
30
0
11
82.8002
21
-22.177503
31
0
39
0
210
0
220
0
230
1
0
LINE
5
F9
100
AcDbEntity
8
SK2
62
256
6
ByLayer
370
13
48
1
60
0
100
AcDbLine
10
74.0502
20
-20.177503
30
0
11
98.997215
21
-20.177503
31
0
39
0
210
0
220
0
230
1
0
SOLID
5
FA
100
AcDbEntity
8
SK2
62
256
6
ByLayer
370
13
48
1
60
0
100
AcDbTrace
10
85
20
-20.177503
30
0
11
88.499998
21
-19.716719
31
0
12
88.500002
22
-20.638287
32
0
13
85
23
-20.177503
33
0
39
0
210
0
220
0
230
1
0
SOLID
5
FB
100
AcDbEntity
8
SK2
62
256
6
ByLayer
370
13
48
1
60
0
100
AcDbTrace
10
82.8002
20
-20.177503
30
0
11
79.300202
21
-20.638287
31
0
12
79.300198
22
-19.716719
32
0
13
82.8002
23
-20.177503
33
0
39
0
210
0
220
0
230
1
0
ENDBLK
5
FD
100
AcDbEntity
8
0
100
AcDbBlockEnd
0
BLOCK
5
106
100
AcDbEntity
8
0
100
AcDbBlockBegin
2
DimnDraft3D5
70
0
10
0
20
0
30
0
3
DimnDraft3D5
0
MTEXT
5
100
100
AcDbEntity
8
SK2
62
256
6
ByLayer
370
13
48
1
60
0
100
AcDbMText
10
9.241797
20
-25.468428
30
0
210
0
220
0
230
1
1
\W0.6930;130,80
40
3.5
41
0
44
1.084337
50
0
71
7
72
5
7
iso_b_vert
0
LINE
5
101
100
AcDbEntity
8
SK2
62
256
6
ByLayer
370
13
48
1
60
0
100
AcDbLine
10
-48
20
-9.5875
30
0
11
-48
21
-28.343428
31
0
39
0
210
0
220
0
230
1
0
LINE
5
102
100
AcDbEntity
8
SK2
62
256
6
ByLayer
370
13
48
1
60
0
100
AcDbLine
10
82.8002
20
-8.9625
30
0
11
82.8002
21
-28.343428
31
0
39
0
210
0
220
0
230
1
0
LINE
5
103
100
AcDbEntity
8
SK2
62
256
6
ByLayer
370
13
48
1
60
0
100
AcDbLine
10
-48
20
-26.343428
30
0
11
82.8002
21
-26.343428
31
0
39
0
210
0
220
0
230
1
0
SOLID
5
104
100
AcDbEntity
8
SK2
62
256
6
ByLayer
370
13
48
1
60
0
100
AcDbTrace
10
-48
20
-26.343428
30
0
11
-44.500002
21
-25.882645
31
0
12
-44.499998
22
-26.804212
32
0
13
-48
23
-26.343428
33
0
39
0
210
0
220
0
230
1
0
SOLID
5
105
100
AcDbEntity
8
SK2
62
256
6
ByLayer
370
13
48
1
60
0
100
AcDbTrace
10
82.8002
20
-26.343428
30
0
11
79.300202
21
-26.804212
31
0
12
79.300198
22
-25.882645
32
0
13
82.8002
23
-26.343428
33
0
39
0
210
0
220
0
230
1
0
ENDBLK
5
107
100
AcDbEntity
8
0
100
AcDbBlockEnd
0
BLOCK
5
111
100
AcDbEntity
8
0
100
AcDbBlockBegin
2
DimnDraft3D6
70
0
10
0
20
0
30
0
3
DimnDraft3D6
0
MTEXT
5
10A
100
AcDbEntity
8
SK2
62
256
6
ByLayer
370
13
48
1
60
0
100
AcDbMText
10
-58.375163
20
27.34918
30
0
210
0
220
0
230
1
1
\W0.6930;16,000
40
3.5
41
0
44
1.084337
50
90
71
7
72
5
7
iso_b_vert
0
MTEXT
5
10B
100
AcDbEntity
8
SK2
62
256
6
ByLayer
370
13
48
1
60
0
100
AcDbMText
10
-58.375163
20
22.126524
30
0
210
0
220
0
230
1
1
%%c
40
3.5
41
0
44
1.084337
50
90
71
7
72
5
7
iso_b_vert
0
LINE
5
10C
100
AcDbEntity
8
SK2
62
256
6
ByLayer
370
13
48
1
60
0
100
AcDbLine
10
-49.5875
20
-8
30
0
11
-58.625163
21
-8
31
0
39
0
210
0
220
0
230
1
0
LINE
5
10D
100
AcDbEntity
8
SK2
62
256
6
ByLayer
370
13
48
1
60
0
100
AcDbLine
10
-49.5875
20
8
30
0
11
-58.625163
21
8
31
0
39
0
210
0
220
0
230
1
0
LINE
5
10E
100
AcDbEntity
8
SK2
62
256
6
ByLayer
370
13
48
1
60
0
100
AcDbLine
10
-56.625163
20
-8
30
0
11
-56.625163
21
38.862338
31
0
39
0
210
0
220
0
230
1
0
SOLID
5
10F
100
AcDbEntity
8
SK2
62
256
6
ByLayer
370
13
48
1
60
0
100
AcDbTrace
10
-56.625163
20
-8
30
0
11
-57.085946
21
-4.500002
31
0
12
-56.164379
22
-4.499998
32
0
13
-56.625163
23
-8
33
0
39
0
210
0
220
0
230
1
0
SOLID
5
110
100
AcDbEntity
8
SK2
62
256
6
ByLayer
370
13
48
1
60
0
100
AcDbTrace
10
-56.625163
20
8
30
0
11
-56.164379
21
4.500002
31
0
12
-57.085946
22
4.499998
32
0
13
-56.625163
23
8
33
0
39
0
210
0
220
0
230
1
0
ENDBLK
5
112
100
AcDbEntity
8
0
100
AcDbBlockEnd
0
BLOCK
5
11C
100
AcDbEntity
8
0
100
AcDbBlockBegin
2
DimnDraft3D7
70
0
10
0
20
0
30
0
3
DimnDraft3D7
0
MTEXT
5
115
100
AcDbEntity
8
2
62
256
6
ByLayer
370
13
48
1
60
0
100
AcDbMText
10
95.333343
20
25.317266
30
0
210
0
220
0
230
1
1
\W0.7145;14,750
40
3.5
41
0
44
1.084337
50
90
71
7
72
5
7
iso_b_vert
0
MTEXT
5
116
100
AcDbEntity
8
2
62
256
6
ByLayer
370
13
48
1
60
0
100
AcDbMText
10
95.333343
20
20.09461
30
0
210
0
220
0
230
1
1
%%c
40
3.5
41
0
44
1.084337
50
90
71
7
72
5
7
iso_b_vert
0
LINE
5
117
100
AcDbEntity
8
2
62
256
6
ByLayer
370
13
48
1
60
0
100
AcDbLine
10
84.3877
20
-7.375
30
0
11
99.083343
21
-7.375
31
0
39
0
210
0
220
0
230
1
0
LINE
5
118
100
AcDbEntity
8
2
62
256
6
ByLayer
370
13
48
1
60
0
100
AcDbLine
10
84.3877
20
7.375
30
0
11
99.083343
21
7.375
31
0
39
0
210
0
220
0
230
1
0
LINE
5
119
100
AcDbEntity
8
2
62
256
6
ByLayer
370
13
48
1
60
0
100
AcDbLine
10
97.083343
20
-7.375
30
0
11
97.083343
21
37.198845
31
0
39
0
210
0
220
0
230
1
0
SOLID
5
11A
100
AcDbEntity
8
2
62
256
6
ByLayer
370
13
48
1
60
0
100
AcDbTrace
10
97.083343
20
-7.375
30
0
11
96.622559
21
-3.875002
31
0
12
97.544126
22
-3.874998
32
0
13
97.083343
23
-7.375
33
0
39
0
210
0
220
0
230
1
0
SOLID
5
11B
100
AcDbEntity
8
2
62
256
6
ByLayer
370
13
48
1
60
0
100
AcDbTrace
10
97.083343
20
7.375
30
0
11
97.544126
21
3.875002
31
0
12
96.622559
22
3.874998
32
0
13
97.083343
23
7.375
33
0
39
0
210
0
220
0
230
1
0
ENDBLK
5
11D
100
AcDbEntity
8
0
100
AcDbBlockEnd
0
ENDSEC
0
SECTION
2
ENTITIES
0
ARC
5
94
100
AcDbEntity
8
1
62
256
6
ByLayer
370
18
48
1
60
0
100
AcDbCircle
39
0
10
-0.35
20
7.673478
30
0
40
0.350000000000009
210
0
220
0
230
-1
100
AcDbArc
50
269.96419
51
0
0
ARC
5
95
100
AcDbEntity
8
1
62
256
6
ByLayer
370
18
48
1
60
0
100
AcDbCircle
39
0
10
-0.35
20
-7.673478
30
0
40
0.350000000000009
210
0
220
0
230
-1
100
AcDbArc
50
0
51
90.03581
0
ELLIPSE
5
96
100
AcDbEntity
8
1
62
256
6
ByLayer
370
18
48
1
60
0
100
AcDbEllipse
10
2.034923
20
7.206295
30
0
11
0.25
21
0
31
0
210
0
220
0
230
1
40
0.999987
41
-3.12985029495652
42
-1.55264105074949
0
ELLIPSE
5
97
100
AcDbEntity
8
1
62
256
6
ByLayer
370
18
48
1
60
0
100
AcDbEllipse
10
2.034923
20
-7.206295
30
0
11
0.25
21
0
31
0
210
0
220
0
230
1
40
0.999987
41
1.58327986869612
42
3.12985029495638
0
POINT
5
6C
100
AcDbEntity
8
81
62
256
6
ByLayer
370
18
48
1
60
0
100
AcDbPoint
10
85
20
0
30
0
39
0
210
0
220
0
230
1
50
360
0
POINT
5
6E
100
AcDbEntity
8
80
62
256
6
ByLayer
370
18
48
1
60
0
100
AcDbPoint
10
0
20
0
30
0
39
0
210
0
220
0
230
1
50
360
0
POINT
5
70
100
AcDbEntity
8
SK2
62
256
6
ByLayer
370
18
48
1
60
1
100
AcDbPoint
10
-48
20
-8
30
0
39
0
210
0
220
0
230
1
50
360
0
POINT
5
72
100
AcDbEntity
8
SK2
62
256
6
ByLayer
370
18
48
1
60
1
100
AcDbPoint
10
-48
20
8
30
0
39
0
210
0
220
0
230
1
50
360
0
POINT
5
73
100
AcDbEntity
8
2
62
256
6
ByLayer
370
18
48
1
60
1
100
AcDbPoint
10
82.8002
20
-7.375
30
0
39
0
210
0
220
0
230
1
50
360
0
POINT
5
75
100
AcDbEntity
8
2
62
256
6
ByLayer
370
18
48
1
60
1
100
AcDbPoint
10
82.8002
20
7.375
30
0
39
0
210
0
220
0
230
1
50
360
0
SPLINE
5
98
100
AcDbEntity
8
1
62
256
6
ByLayer
370
18
48
1
60
0
100
AcDbSpline
70
4
71
3
72
31
73
27
40
0
40
0
40
0
40
0
40
0.0604665864075772
40
0.128354362651364
40
0.185062299856171
40
0.234592784138597
40
0.270955470702182
40
0.299502327943259
40
0.327377126551205
40
0.354621242333544
40
0.381353066240725
40
0.427593837455497
40
0.480862714804776
40
0.53514070071354
40
0.565962926533958
40
0.593720444432069
40
0.627003003340339
40
0.667183866303919
40
0.708945573162646
40
0.740746799330389
40
0.762672490685865
40
0.787293080874835
40
0.861933664936009
40
0.93180483703747
40
0.991347516506376
40
1
40
1
40
1
40
1
41
1
10
2.03557225096529
20
-6.95623959052611
30
0
41
1
10
2.30466830747531
20
-6.95707403855474
30
0
41
1
10
2.87590277246898
20
-6.95850164690677
30
0
41
1
10
3.69959951603164
20
-6.95926078202316
30
0
41
1
10
4.4745974886919
20
-6.95944129779897
30
0
41
1
10
5.10927114976647
20
-6.95950792108349
30
0
41
1
10
5.61862231772096
20
-6.95952490451995
30
0
41
1
10
6.03158843178508
20
-6.95949452970353
30
0
41
1
10
6.40397018761436
20
-6.95972317484348
30
0
41
1
10
6.76827247456998
20
-6.96051394848377
30
0
41
1
10
7.21431747268034
20
-6.96146156279101
30
0
41
1
10
7.77619446200333
20
-6.9619101871717
30
0
41
1
10
8.46067269176075
20
-6.96195899736929
30
0
41
1
10
9.07652477783435
20
-6.96246956712719
30
0
41
1
10
9.57883348244823
20
-6.96313809776268
30
0
41
1
10
9.98769659702168
20
-6.96315989989304
30
0
41
1
10
10.4382128114446
20
-6.96289713069939
30
0
41
1
10
10.9510591532277
20
-6.96271270961779
30
0
41
1
10
11.4573125208428
20
-6.96323144121607
30
0
41
1
10
11.8823150341062
20
-6.96377274980864
30
0
41
1
10
12.2310261182384
20
-6.96408889249207
30
0
41
1
10
12.7704051949234
20
-6.96428765746552
30
0
41
1
10
13.523179055655
20
-6.96424592958147
30
0
41
1
10
14.4313873765458
20
-6.9657064987185
30
0
41
1
10
15.0458940117216
20
-6.96576066163189
30
0
41
1
10
15.3494179276852
20
-6.96588112846058
30
0
41
1
10
15.3879285150418
20
-6.96589539414421
30
0
0
SPLINE
5
99
100
AcDbEntity
8
1
62
256
6
ByLayer
370
18
48
1
60
0
100
AcDbSpline
70
4
71
2
72
6
73
3
40
0
40
0
40
0
40
1
40
1
40
1
41
1
10
81.9233815148696
20
-7.00581549371685
30
0
41
1
10
82.1857486723102
20
-7.00544633229617
30
0
41
1
10
82.4478048902855
20
-7.00605758161424
30
0
0
SPLINE
5
9A
100
AcDbEntity
8
1
62
256
6
ByLayer
370
18
48
1
60
0
100
AcDbSpline
70
4
71
3
72
38
73
34
40
0
40
0
40
0
40
0
40
0.0203407474993242
40
0.0448220827982278
40
0.0838736582891565
40
0.124470431273979
40
0.158826465561064
40
0.185356859123347
40
0.214054720749737
40
0.247912175259186
40
0.282011730739474
40
0.319901569034324
40
0.35869092323119
40
0.38885948380535
40
0.404658144550707
40
0.426766041592114
40
0.455535932654391
40
0.489420417611861
40
0.517573641544644
40
0.537896194572948
40
0.555589994235764
40
0.582334340470769
40
0.610105407473355
40
0.632306854695381
40
0.653625749392664
40
0.67725381086073
40
0.725475421738673
40
0.767398682222249
40
0.815413317314443
40
0.876809847816352
40
0.937786230276418
40
0.990822245756379
40
1
40
1
40
1
40
1
41
1
10
38.3168002328303
20
-6.97793049144374
30
0
41
1
10
38.4466883751063
20
-6.97760111705409
30
0
41
1
10
38.7377236183223
20
-6.97670954434432
30
0
41
1
10
39.306514576658
20
-6.97226064354754
30
0
41
1
10
40.0337224089231
20
-6.97229063085615
30
0
41
1
10
40.8012414298188
20
-6.97936034345597
30
0
41
1
10
41.4903048910483
20
-6.98083467087153
30
0
41
1
10
42.1065632937626
20
-6.98083150994412
30
0
41
1
10
42.7222205557603
20
-6.98105676174271
30
0
41
1
10
43.3881608459645
20
-6.98158623068721
30
0
41
1
10
44.1190268405812
20
-6.98252550490793
30
0
41
1
10
44.8835566858376
20
-6.98260896249019
30
0
41
1
10
45.6210582858524
20
-6.9826007902806
30
0
41
1
10
46.2060599879235
20
-6.98343657252687
30
0
41
1
10
46.6758995319579
20
-6.98367915778306
30
0
41
1
10
47.1361179497197
20
-6.9838154662088
30
0
41
1
10
47.7211669557783
20
-6.98356240023548
30
0
41
1
10
48.347921631739
20
-6.98429443557509
30
0
41
1
10
48.9163669891474
20
-6.98504811237157
30
0
41
1
10
49.3730821624767
20
-6.98514947483585
30
0
41
1
10
49.820077994298
20
-6.98511660259024
30
0
41
1
10
50.318455477452
20
-6.98479669511974
30
0
41
1
10
50.8480740863867
20
-6.98569354876921
30
0
41
1
10
51.3396372525295
20
-6.98641907337662
30
0
41
1
10
51.8028799283777
20
-6.98647514422578
30
0
41
1
10
52.4460861457744
20
-6.98617028192288
30
0
41
1
10
53.2308928054598
20
-6.98658911758429
30
0
41
1
10
54.1845919600801
20
-6.98806251934661
30
0
41
1
10
55.2291036065803
20
-6.98739527390492
30
0
41
1
10
56.4051744029443
20
-6.98996829103311
30
0
41
1
10
57.6158393117059
20
-6.98843333086137
30
0
41
1
10
58.4661337337368
20
-6.99052961803361
30
0
41
1
10
58.8955417171997
20
-6.99047127418899
30
0
41
1
10
58.9588878382658
20
-6.99045830553609
30
0
0
SPLINE
5
9B
100
AcDbEntity
8
1
62
256
6
ByLayer
370
18
48
1
60
0
100
AcDbSpline
70
4
71
3
72
25
73
21
40
0
40
0
40
0
40
0
40
0.039723143648719
40
0.0937925735354543
40
0.152508907822733
40
0.212407152041025
40
0.263025655859324
40
0.312031861739816
40
0.360432289053993
40
0.417159072394949
40
0.484037897733744
40
0.546880318861704
40
0.586776841848317
40
0.624365460338424
40
0.659640136255027
40
0.69924241045892
40
0.754628849972808
40
0.826171459379419
40
0.914119551364009
40
1
40
1
40
1
40
1
41
1
10
15.3740479949432
20
6.96585726346123
30
0
41
1
10
15.1974307692196
20
6.96587477635035
30
0
41
1
10
14.7804113235533
20
6.96581081081573
30
0
41
1
10
14.1023227105406
20
6.96515046423164
30
0
41
1
10
13.334565465055
20
6.96421122084038
30
0
41
1
10
12.5821161935482
20
6.96430183140006
30
0
41
1
10
11.8728425146641
20
6.96382553069824
30
0
41
1
10
11.2146924349156
20
6.96287075742865
30
0
41
1
10
10.5293810622579
20
6.96273640169125
30
0
41
1
10
9.76460552103279
20
6.9634763590723
30
0
41
1
10
8.93561807967151
20
6.96215791613162
30
0
41
1
10
8.18146252962424
20
6.96197532940681
30
0
41
1
10
7.55753747904669
20
6.96176988391667
30
0
41
1
10
7.05618253630072
20
6.96121921069403
30
0
41
1
10
6.55613843734116
20
6.95994579837003
30
0
41
1
10
5.97695658214616
20
6.95938660965024
30
0
41
1
10
5.23655603285724
20
6.95957019073597
30
0
41
1
10
4.28119502191956
20
6.95938589390639
30
0
41
1
10
3.19018572512755
20
6.95910669096094
30
0
41
1
10
2.41737783045699
20
6.95732078759613
30
0
41
1
10
2.0355813704
20
6.95617669940449
30
0
0
SPLINE
5
9C
100
AcDbEntity
8
1
62
256
6
ByLayer
370
18
48
1
60
0
100
AcDbSpline
70
4
71
3
72
24
73
20
40
0
40
0
40
0
40
0
40
0.0348418283926551
40
0.117365222610589
40
0.202219810401556
40
0.277939602164642
40
0.365375095620309
40
0.423263483373227
40
0.505732902587354
40
0.561720045704278
40
0.629052804447929
40
0.691011199603216
40
0.74783607012574
40
0.813333682391439
40
0.852721980437526
40
0.891831568254651
40
0.939837425174713
40
0.986690536531945
40
1
40
1
40
1
40
1
41
1
10
58.9500913609232
20
6.99035325607846
30
0
41
1
10
58.7585040469351
20
6.99026766644889
30
0
41
1
10
58.1131414627294
20
6.98995975461014
30
0
41
1
10
57.0012484108133
20
6.98903596080388
30
0
41
1
10
55.6644862322245
20
6.9884118584074
30
0
41
1
10
54.3007451638202
20
6.9879576594459
30
0
41
1
10
53.0852792923282
20
6.98580903811538
30
0
41
1
10
51.8326953152657
20
6.9870060712596
30
0
41
1
10
50.7530389728067
20
6.98499282830943
30
0
41
1
10
49.6214494275577
20
6.98519720766032
30
0
41
1
10
48.6026452459077
20
6.98482621260095
30
0
41
1
10
47.5792513261563
20
6.98343017654642
30
0
41
1
10
46.5659309441532
20
6.98397439148496
30
0
41
1
10
45.6767425401289
20
6.98254001953671
30
0
41
1
10
44.8849535340374
20
6.98260136619399
30
0
41
1
10
44.1893048932466
20
6.98258923222417
30
0
41
1
10
43.4527966388632
20
6.98159821006308
30
0
41
1
10
42.8575543598799
20
6.98130108741429
30
0
41
1
10
42.527392439256
20
6.98103508220569
30
0
41
1
10
42.4543632393788
20
6.98098262044468
30
0
0
SPLINE
5
9D
100
AcDbEntity
8
SK1
62
256
6
ByLayer
370
18
48
1
60
0
100
AcDbSpline
70
4
71
3
72
8
73
4
40
0
40
0
40
0
40
0
40
1
40
1
40
1
40
1
41
1
10
-47.961809799808
20
-2.4920230093212
30
0
41
1
10
-47.9741982644491
20
-2.46190096892792
30
0
41
1
10
-47.9869237998193
20
-2.43212271180113
30
0
41
1
10
-48
20
-2.40269265574563
30
0
0
SPLINE
5
9E
100
AcDbEntity
8
SK1
62
256
6
ByLayer
370
18
48
1
60
0
100
AcDbSpline
70
4
71
3
72
14
73
10
40
0
40
0
40
0
40
0
40
0.500000000000004
40
0.500000000000004
40
0.750000000000002
40
0.750000000000002
40
0.875000000000001
40
0.875000000000001
40
1
40
1
40
1
40
1
41
1
10
-46.1
20
-6.96353889298993
30
0
41
1
10
-46.078998416482
20
-6.99285109920868
30
0
41
1
10
-46.0586701890239
20
-7.01850855294401
30
0
41
1
10
-46.0304433385198
20
-7.04806313639057
30
0
41
1
10
-46.0214721393577
20
-7.05631470610081
30
0
41
1
10
-46.0103047485395
20
-7.06312766784839
30
0
41
1
10
-46.006895500949
20
-7.06449751054799
30
0
41
1
10
-46.001721316688
20
-7.06372460895361
30
0
41
1
10
-46
20
-7.06149934819078
30
0
41
1
10
-46
20
-7.05647844054843
30
0
0
SPLINE
5
9F
100
AcDbEntity
8
SK1
62
256
6
ByLayer
370
18
48
1
60
0
100
AcDbSpline
70
4
71
3
72
10
73
6
40
0
40
0
40
0
40
0
40
0.5
40
0.5
40
1
40
1
40
1
40
1
41
1
10
-48
20
-4.27305297960933
30
0
41
1
10
-47.6894709929538
20
-4.72415268940773
30
0
41
1
10
-47.3739388916719
20
-5.17314226447533
30
0
41
1
10
-46.7393929321384
20
-6.06942970922427
30
0
41
1
10
-46.4201569924819
20
-6.51669126466936
30
0
41
1
10
-46.1
20
-6.96353889298987
30
0
0
SPLINE
5
A0
100
AcDbEntity
8
SK1
62
256
6
ByLayer
370
18
48
1
60
0
100
AcDbSpline
70
4
71
3
72
14
73
10
40
0
40
0
40
0
40
0
40
0.125000000000002
40
0.125000000000002
40
0.250000000000003
40
0.250000000000003
40
0.499999999999999
40
0.499999999999999
40
1
40
1
40
1
40
1
41
1
10
-46
20
-5.34245095182641
30
0
41
1
10
-46
20
-5.33447599434942
30
0
41
1
10
-46.0017055870951
20
-5.32465452467781
30
0
41
1
10
-46.0068924291627
20
-5.30448656679405
30
0
41
1
10
-46.0102440228914
20
-5.29440400949201
30
0
41
1
10
-46.0215656644542
20
-5.26415909752922
30
0
41
1
10
-46.030416522685
20
-5.24495878100885
30
0
41
1
10
-46.0585951172059
20
-5.18946262912712
30
0
41
1
10
-46.0788864676936
20
-5.15654932408023
30
0
41
1
10
-46.1
20
-5.12708086935919
30
0
0
SPLINE
5
A1
100
AcDbEntity
8
SK1
62
256
6
ByLayer
370
18
48
1
60
0
100
AcDbSpline
70
4
71
3
72
10
73
6
40
0
40
0
40
0
40
0
40
0.5
40
0.5
40
1
40
1
40
1
40
1
41
1
10
-46.1
20
-5.12708086935919
30
0
41
1
10
-46.413616356013
20
-4.68936209957513
30
0
41
1
10
-46.7263405534067
20
-4.25125103239989
30
0
41
1
10
-47.3480578430283
20
-3.37338826734643
30
0
41
1
10
-47.657215101584
20
-2.93370875620798
30
0
41
1
10
-47.961809799808
20
-2.4920230093212
30
0
0
SPLINE
5
A2
100
AcDbEntity
8
1
62
256
6
ByLayer
370
18
48
1
60
0
100
AcDbSpline
70
4
71
3
72
8
73
4
40
0
40
0
40
0
40
0
40
1
40
1
40
1
40
1
41
1
10
82.8262168428049
20
-3.80426715549416
30
0
41
1
10
82.5207536889546
20
-4.37932245040756
30
0
41
1
10
82.2220778954163
20
-4.96054360640593
30
0
41
1
10
81.9302566233719
20
-5.54799163491336
30
0
0
SPLINE
5
A3
100
AcDbEntity
8
1
62
256
6
ByLayer
370
18
48
1
60
0
100
AcDbSpline
70
4
71
3
72
58
73
54
40
0
40
0
40
0
40
0
40
0.0284131143548917
40
0.0284131143548917
40
0.0568262287097833
40
0.0568262287097833
40
0.113652457419567
40
0.113652457419567
40
0.142065571774458
40
0.142065571774458
40
0.17047868612935
40
0.17047868612935
40
0.227304914839133
40
0.227304914839133
40
0.284131143548917
40
0.284131143548917
40
0.3409573722587
40
0.3409573722587
40
0.369370486613591
40
0.369370486613591
40
0.397783600968482
40
0.397783600968482
40
0.454609829678264
40
0.454609829678264
40
0.483022944033155
40
0.483022944033155
40
0.511436058388047
40
0.511436058388047
40
0.568262287097829
40
0.568262287097829
40
0.596675401452721
40
0.596675401452721
40
0.625088515807612
40
0.625088515807612
40
0.681914744517394
40
0.681914744517394
40
0.710327858872285
40
0.710327858872285
40
0.738740973227176
40
0.738740973227176
40
0.79556720193696
40
0.79556720193696
40
0.823980316291852
40
0.823980316291852
40
0.852393430646744
40
0.852393430646744
40
0.909219659356528
40
0.909219659356528
40
0.937632773711421
40
0.937632773711421
40
0.966045888066313
40
0.966045888066313
40
1
40
1
40
1
40
1
41
1
10
82.4027207798688
20
-7.3655140153241
30
0
41
1
10
81.9829407975447
20
-7.37644156437165
30
0
41
1
10
81.563194630211
20
-7.37721218332629
30
0
41
1
10
80.7230853069078
20
-7.35845626176328
30
0
41
1
10
80.3029939404431
20
-7.3389161142405
30
0
41
1
10
79.0450515894295
20
-7.25031927454941
30
0
41
1
10
78.2081375348706
20
-7.15127979022535
30
0
41
1
10
76.9509536058907
20
-6.94467763935606
30
0
41
1
10
76.5315678699449
20
-6.86614790242552
30
0
41
1
10
75.6913453669614
20
-6.69017396878192
30
0
41
1
10
75.2714820451141
20
-6.5928885815197
30
0
41
1
10
74.0138007018653
20
-6.27479294031923
30
0
41
1
10
73.1768276826004
20
-6.02762184223528
30
0
41
1
10
71.5000770317666
20
-5.46912497969188
30
0
41
1
10
70.6588675572414
20
-5.15719799572042
30
0
41
1
10
68.9822046735392
20
-4.48258247205504
30
0
41
1
10
68.1451719088815
20
-4.11949412241296
30
0
41
1
10
66.8870178607295
20
-3.54321200596601
30
0
41
1
10
66.4668609094649
20
-3.34562859913234
30
0
41
1
10
65.6266874671595
20
-2.94177344903275
30
0
41
1
10
65.2073091468743
20
-2.73578416834923
30
0
41
1
10
63.9500163615385
20
-2.10793867376947
30
0
41
1
10
63.112838428848
20
-1.67639828203281
30
0
41
1
10
61.8543033898603
20
-1.01746403187499
30
0
41
1
10
61.4338446844422
20
-0.795630073991305
30
0
41
1
10
60.5938876134613
20
-0.35101452978904
30
0
41
1
10
60.1745706411898
20
-0.128181134668807
30
0
41
1
10
58.9173674083361
20
0.539553256957731
30
0
41
1
10
58.0800143575821
20
0.983283940588166
30
0
41
1
10
56.821058438304
20
1.63900486229627
30
0
41
1
10
56.4004355872011
20
1.85609955343148
30
0
41
1
10
55.5607044251402
20
2.28356057095445
30
0
41
1
10
55.1414313942019
20
2.4941820675628
30
0
41
1
10
53.8842168198669
20
3.11466640250475
30
0
41
1
10
53.0467506570089
20
3.51292406104827
30
0
41
1
10
51.7872215983805
20
4.07974130066131
30
0
41
1
10
51.3665473316182
20
4.26367485238799
30
0
41
1
10
50.5270617819053
20
4.61838155043858
30
0
41
1
10
50.1078324131319
20
4.78938764516585
30
0
41
1
10
48.8505966500031
20
5.28187344973583
30
0
41
1
10
48.012967621655
20
5.58270942082885
30
0
41
1
10
46.7528527390314
20
5.98674812420722
30
0
41
1
10
46.3322606798912
20
6.11350747296024
30
0
41
1
10
45.4929557483321
20
6.34925602672254
30
0
41
1
10
45.0737611019412
20
6.45841412667309
30
0
41
1
10
43.8164710857312
20
6.75884646134861
30
0
41
1
10
42.978645146903
20
6.92304396206652
30
0
41
1
10
41.7179151602621
20
7.11158511038457
30
0
41
1
10
41.2975293527222
20
7.16469500980924
30
0
41
1
10
40.4583747367351
20
7.25089939264666
30
0
41
1
10
40.0392475215199
20
7.28406004888109
30
0
41
1
10
39.1192886615905
20
7.3348261245178
30
0
41
1
10
38.6184955102513
20
7.34814505870037
30
0
41
1
10
38.1171139596101
20
7.34704869213431
30
0
0
SPLINE
5
A4
100
AcDbEntity
8
1
62
256
6
ByLayer
370
18
48
1
60
0
100
AcDbSpline
70
4
71
3
72
10
73
6
40
0
40
0
40
0
40
0
40
0.5
40
0.5
40
1
40
1
40
1
40
1
41
1
10
82.4722846341814
20
1.72728405346481
30
0
41
1
10
82.8797148306169
20
1.71337242562271
30
0
41
1
10
83.2870985028227
20
1.69997290854914
30
0
41
1
10
84.1019111021516
20
1.67267573546201
30
0
41
1
10
84.5092955076334
20
1.65926814692651
30
0
41
1
10
84.9165267947556
20
1.64754599330294
30
0
0
SPLINE
5
A5
100
AcDbEntity
8
1
62
256
6
ByLayer
370
18
48
1
60
0
100
AcDbSpline
70
4
71
3
72
8
73
4
40
0
40
0
40
0
40
0
40
1
40
1
40
1
40
1
41
1
10
82.4027207798687
20
7.3655140153241
30
0
41
1
10
82.170818578691
20
7.37155080312797
30
0
41
1
10
81.9388154930657
20
7.37447575436718
30
0
41
1
10
81.7067930600056
20
7.37430321840256
30
0
0
SPLINE
5
A6
100
AcDbEntity
8
1
62
256
6
ByLayer
370
18
48
1
60
0
100
AcDbSpline
70
4
71
3
72
52
73
48
40
0
40
0
40
0
40
0
40
0.0078753067056689
40
0.0078753067056689
40
0.069883100036565
40
0.069883100036565
40
0.100886996702013
40
0.100886996702013
40
0.131890893367461
40
0.131890893367461
40
0.193898686698357
40
0.193898686698357
40
0.224902583363805
40
0.224902583363805
40
0.255906480029253
40
0.255906480029253
40
0.317914273360149
40
0.317914273360149
40
0.348918170025598
40
0.348918170025598
40
0.379922066691046
40
0.379922066691046
40
0.441929860021943
40
0.441929860021943
40
0.472933756687391
40
0.472933756687391
40
0.503937653352839
40
0.503937653352839
40
0.565945446683735
40
0.565945446683735
40
0.596949343349182
40
0.596949343349182
40
0.627953240014629
40
0.627953240014629
40
0.689961033345524
40
0.689961033345524
40
0.720964930010971
40
0.720964930010971
40
0.751968826676419
40
0.751968826676419
40
0.813976620007314
40
0.813976620007314
40
0.844980516672762
40
0.844980516672762
40
0.87598441333821
40
0.87598441333821
40
1
40
1
40
1
40
1
41
1
10
42.4897028336669
20
-6.99390215993054
30
0
41
1
10
42.383065153903
20
-7.0112206909829
30
0
41
1
10
42.2763873143425
20
-7.02792446263436
30
0
41
1
10
41.3293512869017
20
-7.17064774008892
30
0
41
1
10
40.4919031247109
20
-7.25796864055511
30
0
41
1
10
39.2355647414497
20
-7.32893252499863
30
0
41
1
10
38.8167335123289
20
-7.34258253078681
30
0
41
1
10
37.9782809163663
20
-7.34973842585396
30
0
41
1
10
37.5583565590872
20
-7.34322650173638
30
0
41
1
10
36.2982996150607
20
-7.29336701362183
30
0
41
1
10
35.4609548731365
20
-7.21987134116392
30
0
41
1
10
34.2044421253247
20
-7.05119687637435
30
0
41
1
10
33.7855265462852
20
-6.98523452402475
30
0
41
1
10
32.9467990505521
20
-6.8341768888707
30
0
41
1
10
32.5265151090154
20
-6.74897540974615
30
0
41
1
10
31.2668424929002
20
-6.46613195947199
30
0
41
1
10
30.4295563028179
20
-6.24153495865036
30
0
41
1
10
29.1728604009508
20
-5.85529052397035
30
0
41
1
10
28.7538067835748
20
-5.71835235090063
30
0
41
1
10
27.9147525785851
20
-5.42877007114029
30
0
41
1
10
27.4942714616523
20
-5.27594225241035
30
0
41
1
10
26.2348901265757
20
-4.79733887490033
30
0
41
1
10
25.3977188584791
20
-4.45090167102211
30
0
41
1
10
24.1407237365574
20
-3.89760716952341
30
0
41
1
10
23.721555925335
20
-3.70751726277226
30
0
41
1
10
22.8821752570531
20
-3.31710224251924
30
0
41
1
10
22.4616048619119
20
-3.11663976743208
30
0
41
1
10
21.2025463999663
20
-2.50479043069063
30
0
41
1
10
20.3653820972957
20
-2.08181653271453
30
0
41
1
10
19.1081905273095
20
-1.4334100097131
30
0
41
1
10
18.6888837059356
20
-1.21495679467822
30
0
41
1
10
17.8491072887248
20
-0.774654276264698
30
0
41
1
10
17.4285731160437
20
-0.552788591374707
30
0
41
1
10
16.1698114265481
20
0.112474813211861
30
0
41
1
10
15.3325825217826
20
0.556742919353155
30
0
41
1
10
14.0750734463124
20
1.21559422425008
30
0
41
1
10
13.6556208841134
20
1.43394336890577
30
0
41
1
10
12.8154508680995
20
1.86678182755153
30
0
41
1
10
12.3950924987421
20
2.08105869904858
30
0
41
1
10
11.1365666520837
20
2.71295698907571
30
0
41
1
10
10.2992775370846
20
3.12067390185339
30
0
41
1
10
9.04141009270745
20
3.70408584702912
30
0
41
1
10
8.62180994421777
20
3.89388272667836
30
0
41
1
10
7.78122590352876
20
4.26282014150217
30
0
41
1
10
7.36129913472763
20
4.44146497038858
30
0
41
1
10
5.26588962528552
20
5.30097775373875
30
0
41
1
10
3.59898958403272
20
5.88309727073732
30
0
41
1
10
1.91806920956702
20
6.32943717635777
30
0
0
SPLINE
5
A7
100
AcDbEntity
8
1
62
256
6
ByLayer
370
18
48
1
60
0
100
AcDbSpline
70
4
71
3
72
106
73
102
40
0
40
0
40
0
40
0
40
0.0134243039883577
40
0.0134243039883577
40
0.0486591502744879
40
0.0486591502744879
40
0.066276573417553
40
0.066276573417553
40
0.0838939965606181
40
0.0838939965606181
40
0.101511419703683
40
0.101511419703683
40
0.119128842846748
40
0.119128842846748
40
0.136746265989813
40
0.136746265989813
40
0.154363689132878
40
0.154363689132878
40
0.171981112275944
40
0.171981112275944
40
0.189598535419009
40
0.189598535419009
40
0.224833381705139
40
0.224833381705139
40
0.242450804848204
40
0.242450804848204
40
0.26006822799127
40
0.26006822799127
40
0.277685651134335
40
0.277685651134335
40
0.2953030742774
40
0.2953030742774
40
0.312920497420466
40
0.312920497420466
40
0.330537920563531
40
0.330537920563531
40
0.348155343706597
40
0.348155343706597
40
0.365772766849662
40
0.365772766849662
40
0.383390189992727
40
0.383390189992727
40
0.401007613135793
40
0.401007613135793
40
0.418625036278858
40
0.418625036278858
40
0.436242459421924
40
0.436242459421924
40
0.453859882564989
40
0.453859882564989
40
0.471477305708055
40
0.471477305708055
40
0.506712151994185
40
0.506712151994185
40
0.52432957513725
40
0.52432957513725
40
0.541946998280315
40
0.541946998280315
40
0.559564421423381
40
0.559564421423381
40
0.577181844566446
40
0.577181844566446
40
0.594799267709511
40
0.594799267709511
40
0.612416690852576
40
0.612416690852576
40
0.630034113995641
40
0.630034113995641
40
0.647651537138706
40
0.647651537138706
40
0.665268960281771
40
0.665268960281771
40
0.682886383424836
40
0.682886383424836
40
0.718121229710966
40
0.718121229710966
40
0.735738652854031
40
0.735738652854031
40
0.753356075997096
40
0.753356075997096
40
0.770973499140161
40
0.770973499140161
40
0.788590922283226
40
0.788590922283226
40
0.806208345426291
40
0.806208345426291
40
0.823825768569355
40
0.823825768569355
40
0.859060614855484
40
0.859060614855484
40
0.876678037998549
40
0.876678037998549
40
0.894295461141613
40
0.894295461141613
40
0.911912884284678
40
0.911912884284678
40
0.929530307427742
40
0.929530307427742
40
0.964765153713871
40
0.964765153713871
40
1
40
1
40
1
40
1
41
1
10
68.8469048306574
20
-5.29711861106199
30
0
41
1
10
68.6144551502081
20
-5.37373934477264
30
0
41
1
10
68.381996171571
20
-5.44835517750639
30
0
41
1
10
67.5393759490355
20
-5.71124158915435
30
0
41
1
10
66.9269939806838
20
-5.88597769778301
30
0
41
1
10
66.0109183363221
20
-6.1177806466689
30
0
41
1
10
65.7058115875556
20
-6.18976785337705
30
0
41
1
10
65.0961873305819
20
-6.32576844650441
30
0
41
1
10
64.7915068711694
20
-6.38974184773116
30
0
41
1
10
64.1817988315852
20
-6.50860142074708
30
0
41
1
10
63.8768385088253
20
-6.56346103669509
30
0
41
1
10
63.266564784503
20
-6.66293809692402
30
0
41
1
10
62.9612750201404
20
-6.70776895754136
30
0
41
1
10
62.3505583384273
20
-6.78854084814839
30
0
41
1
10
62.0448122845753
20
-6.82435984283171
30
0
41
1
10
61.4337034791207
20
-6.88536749275701
30
0
41
1
10
61.1283591196283
20
-6.91049798885658
30
0
41
1
10
60.5179947628719
20
-6.95003712304222
30
0
41
1
10
60.2129915771569
20
-6.96479326980887
30
0
41
1
10
59.6034650345923
20
-6.98502674978675
30
0
41
1
10
59.2989720023767
20
-6.99043963388345
30
0
41
1
10
58.3845343094072
20
-6.99072163789765
30
0
41
1
10
57.7738524500864
20
-6.96921012970111
30
0
41
1
10
56.8568499754716
20
-6.90884777377454
30
0
41
1
10
56.5513601368295
20
-6.88370792905562
30
0
41
1
10
55.9408821650734
20
-6.82291301851353
30
0
41
1
10
55.6357544622424
20
-6.7871221043192
30
0
41
1
10
55.0256991032333
20
-6.70654921485999
30
0
41
1
10
54.7207818248995
20
-6.66172325394737
30
0
41
1
10
54.111220786028
20
-6.56240284274878
30
0
41
1
10
53.8066885049615
20
-6.5077239438408
30
0
41
1
10
53.1969244711322
20
-6.38826112341221
30
0
41
1
10
52.8917426870264
20
-6.32390323949534
30
0
41
1
10
52.2809013882172
20
-6.18716248110684
30
0
41
1
10
51.9749537433678
20
-6.11431792715035
30
0
41
1
10
51.3636076505907
20
-5.95923917990223
30
0
41
1
10
51.058503312461
20
-5.87682579538495
30
0
41
1
10
50.4485203481234
20
-5.70367825468406
30
0
41
1
10
50.1435991177328
20
-5.61353202975056
30
0
41
1
10
49.5338178473765
20
-5.42564991295259
30
0
41
1
10
49.2289440361867
20
-5.32779181855588
30
0
41
1
10
48.6192071742536
20
-5.12385712038719
30
0
41
1
10
48.3144006489913
20
-5.0174990745214
30
0
41
1
10
47.7045223582693
20
-4.79794525629254
30
0
41
1
10
47.3993119424832
20
-4.68513215991288
30
0
41
1
10
46.7880498786141
20
-4.45256332187893
30
0
41
1
10
46.4819846521689
20
-4.33286381496063
30
0
41
1
10
45.8710528548394
20
-4.0872771056371
30
0
41
1
10
45.5659629087371
20
-3.96121645044107
30
0
41
1
10
44.9564183883676
20
-3.70385358956281
30
0
41
1
10
44.6516936273186
20
-3.57281980742547
30
0
41
1
10
43.7372131581315
20
-3.1722519505598
30
0
41
1
10
43.1270773645666
20
-2.89539358530152
30
0
41
1
10
42.2118866630399
20
-2.46682666992652
30
0
41
1
10
41.9064351765892
20
-2.3220016006164
30
0
41
1
10
41.2948468125939
20
-2.02946230731754
30
0
41
1
10
40.9893061044182
20
-1.88187453465932
30
0
41
1
10
40.3787299009727
20
-1.58449879033157
30
0
41
1
10
40.0737175125162
20
-1.43463488041377
30
0
41
1
10
39.4642790218769
20
-1.13237819628495
30
0
41
1
10
39.1597268616893
20
-0.980226727370507
30
0
41
1
10
38.5500719128576
20
-0.675517241830079
30
0
41
1
10
38.245050221885
20
-0.522806569500887
30
0
41
1
10
37.6347974252626
20
-0.216599495307662
30
0
41
1
10
37.3295592473978
20
-0.0630787917942826
30
0
41
1
10
36.7188095944339
20
0.244841857608776
30
0
41
1
10
36.4130167534762
20
0.399207143492816
30
0
41
1
10
35.8019547558973
20
0.705615298826245
30
0
41
1
10
35.4966040760133
20
0.858079794705702
30
0
41
1
10
34.8862616590735
20
1.1615334409301
30
0
41
1
10
34.5812881951918
20
1.31257571927523
30
0
41
1
10
33.9716712306849
20
1.6127034035753
30
0
41
1
10
33.6670301360092
20
1.76168283603658
30
0
41
1
10
32.7523245747305
20
2.2042012583068
30
0
41
1
10
32.1418739856377
20
2.49392549488957
30
0
41
1
10
31.2242365192965
20
2.91674524792913
30
0
41
1
10
30.9187219020839
20
3.05580261803934
30
0
41
1
10
30.3080693293255
20
3.32912516677081
30
0
41
1
10
30.0028693508955
20
3.46333679218978
30
0
41
1
10
29.3926342379945
20
3.72622646770401
30
0
41
1
10
29.0875862159813
20
3.85475955366775
30
0
41
1
10
28.4775935140809
20
4.10571551559471
30
0
41
1
10
28.1728208298933
20
4.22882124527186
30
0
41
1
10
27.5628243845477
20
4.46907064774416
30
0
41
1
10
27.2575737238006
20
4.58612162722622
30
0
41
1
10
26.6463736291889
20
4.81320826114191
30
0
41
1
10
26.3400853167638
20
4.92274530602299
30
0
41
1
10
25.4223883646824
20
5.24045378963228
30
0
41
1
10
24.8124739056268
20
5.44045877538164
30
0
41
1
10
23.8966339941136
20
5.71206942860917
30
0
41
1
10
23.5912282174909
20
5.79753307720088
30
0
41
1
10
22.980478364209
20
5.961645439541
30
0
41
1
10
22.6752018859222
20
6.04014316369387
30
0
41
1
10
22.0643526408606
20
6.18844661080882
30
0
41
1
10
21.7583173726907
20
6.25810823685353
30
0
41
1
10
21.1463201641952
20
6.38660539602006
30
0
41
1
10
20.8405406624928
20
6.44583046586058
30
0
41
1
10
19.9239647721851
20
6.61099059412686
30
0
41
1
10
19.3143232183246
20
6.70248795188257
30
0
41
1
10
18.0933825538117
20
6.84516236322534
30
0
41
1
10
17.482178793983
20
6.89767257579075
30
0
41
1
10
16.870016128237
20
6.92908471015505
30
0
0
SPLINE
5
A8
100
AcDbEntity
8
1
62
256
6
ByLayer
370
18
48
1
60
0
100
AcDbSpline
70
4
71
3
72
8
73
4
40
0
40
0
40
0
40
0
40
1
40
1
40
1
40
1
41
1
10
84.916526794756
20
1.64754599330291
30
0
41
1
10
84.9501794133323
20
1.14250399669879
30
0
41
1
10
84.9743874058561
20
0.63800600860182
30
0
41
1
10
84.9891429045745
20
0.134052482192942
30
0
0
SPLINE
5
A9
100
AcDbEntity
8
1
62
256
6
ByLayer
370
18
48
1
60
0
100
AcDbSpline
70
4
71
3
72
8
73
4
40
0
40
0
40
0
40
0
40
1
40
1
40
1
40
1
41
1
10
84.9999703412402
20
0.0481951736533119
30
0
41
1
10
85.0000098880758
20
0.0160635774887226
30
0
41
1
10
85.0000098844319
20
-0.0160665381437752
30
0
41
1
10
84.9999703412402
20
-0.048195173653454
30
0
0
SPLINE
5
AA
100
AcDbEntity
8
1
62
256
6
ByLayer
370
18
48
1
60
0
100
AcDbSpline
70
4
71
3
72
20
73
16
40
0
40
0
40
0
40
0
40
0.217036749139747
40
0.217036749139747
40
0.434073498279493
40
0.434073498279493
40
0.542591872849367
40
0.542591872849367
40
0.651110247419241
40
0.651110247419241
40
0.759628621989114
40
0.759628621989114
40
0.868146996558988
40
0.868146996558988
40
1
40
1
40
1
40
1
41
1
10
16.8700161282371
20
-6.92908471015485
30
0
41
1
10
17.4816781969245
20
-6.89769826311672
30
0
41
1
10
18.0922751606974
20
-6.84525360803619
30
0
41
1
10
19.3118110542758
20
-6.70281956144979
30
0
41
1
10
19.9206463363828
20
-6.61150651110711
30
0
41
1
10
20.8358495419766
20
-6.44671636548509
30
0
41
1
10
21.141148235227
20
-6.38762653010147
30
0
41
1
10
21.7521278049564
20
-6.25947140995856
30
0
41
1
10
22.0580657907281
20
-6.18990855407031
30
0
41
1
10
22.6688610792215
20
-6.04174567635863
30
0
41
1
10
22.9740178408738
20
-5.96332835711061
30
0
41
1
10
23.5843850658595
20
-5.79942379758299
30
0
41
1
10
23.8895316320719
20
-5.71409680041532
30
0
41
1
10
24.5649420668683
20
-5.51396314002835
30
0
41
1
10
24.9350550233743
20
-5.39723658177721
30
0
41
1
10
25.3053750356202
20
-5.27517089056678
30
0
0
SPLINE
5
AB
100
AcDbEntity
8
1
62
256
6
ByLayer
370
18
48
1
60
0
100
AcDbSpline
70
4
71
3
72
40
73
36
40
0
40
0
40
0
40
0
40
0.0028804509443412
40
0.0028804509443412
40
0.0582759814474331
40
0.0582759814474331
40
0.113671511950525
40
0.113671511950525
40
0.169067042453617
40
0.169067042453617
40
0.224462572956709
40
0.224462572956709
40
0.279858103459801
40
0.279858103459801
40
0.335253633962893
40
0.335253633962893
40
0.390649164465985
40
0.390649164465985
40
0.446044694969077
40
0.446044694969077
40
0.55683575597526
40
0.55683575597526
40
0.667626816981444
40
0.667626816981444
40
0.723022347484537
40
0.723022347484537
40
0.778417877987629
40
0.778417877987629
40
0.833813408490722
40
0.833813408490722
40
0.889208938993815
40
0.889208938993815
40
0.944604469496907
40
0.944604469496907
40
1
40
1
40
1
40
1
41
1
10
58.9450430875941
20
6.99050178286603
30
0
41
1
10
58.9609150683104
20
6.99052726593851
30
0
41
1
10
58.9767854140184
20
6.99053804279754
30
0
41
1
10
59.2978323185347
20
6.99045739247094
30
0
41
1
10
59.602542120168
20
6.98504874073384
30
0
41
1
10
60.2122361597873
20
6.9648269679976
30
0
41
1
10
60.5171924649224
20
6.95007798852683
30
0
41
1
10
61.1271811502259
20
6.91058536821811
30
0
41
1
10
61.4321871069887
20
6.88549591420687
30
0
41
1
10
62.0423159081295
20
6.82463186788908
30
0
41
1
10
62.3473453950397
20
6.7889343623917
30
0
41
1
10
62.9582767371541
20
6.70819660703185
30
0
41
1
10
63.2644079280111
20
6.66327125322772
30
0
41
1
10
63.875665111815
20
6.56367062495551
30
0
41
1
10
64.180964695219
20
6.50875770083795
30
0
41
1
10
64.791078017982
20
6.3898317681286
30
0
41
1
10
65.0958273012094
20
6.32584523211352
30
0
41
1
10
65.7053368756624
20
6.18987728470128
30
0
41
1
10
66.0102575076378
20
6.11793705269702
30
0
41
1
10
66.9252727367144
20
5.88643480488659
30
0
41
1
10
67.5356114339621
20
5.71237296225954
30
0
41
1
10
68.7583412112514
20
5.33098340816957
30
0
41
1
10
69.3691650753475
20
5.12598414165709
30
0
41
1
10
70.2845552850453
20
4.79943220926012
30
0
41
1
10
70.5895080442716
20
4.68723172788847
30
0
41
1
10
71.1990543893102
20
4.45480945218111
30
0
41
1
10
71.5039014612855
20
4.33496630818883
30
0
41
1
10
72.1142095800925
20
4.08918440960593
30
0
41
1
10
72.4196062950425
20
3.96319766124523
30
0
41
1
10
73.0308727102064
20
3.70522704595146
30
0
41
1
10
73.3369580406664
20
3.5731217244716
30
0
41
1
10
73.9479172206146
20
3.30377080927102
30
0
41
1
10
74.2530670086411
20
3.1666753186679
30
0
41
1
10
74.8634886919304
20
2.88928831455513
30
0
41
1
10
75.1686728766538
20
2.74893480537412
30
0
41
1
10
75.4737253450969
20
2.60648566193038
30
0
0
SPLINE
5
AC
100
AcDbEntity
8
1
62
256
6
ByLayer
370
18
48
1
60
0
100
AcDbSpline
70
4
71
3
72
100
73
96
40
0
40
0
40
0
40
0
40
0.0153729864177282
40
0.0153729864177282
40
0.0343753533614508
40
0.0343753533614508
40
0.0533777203051733
40
0.0533777203051733
40
0.0723800872488959
40
0.0723800872488959
40
0.0913824541926185
40
0.0913824541926185
40
0.110384821136341
40
0.110384821136341
40
0.148389555023786
40
0.148389555023786
40
0.167391921967509
40
0.167391921967509
40
0.186394288911232
40
0.186394288911232
40
0.205396655854955
40
0.205396655854955
40
0.224399022798678
40
0.224399022798678
40
0.262403756686123
40
0.262403756686123
40
0.281406123629846
40
0.281406123629846
40
0.300408490573569
40
0.300408490573569
40
0.319410857517292
40
0.319410857517292
40
0.338413224461015
40
0.338413224461015
40
0.357415591404738
40
0.357415591404738
40
0.376417958348461
40
0.376417958348461
40
0.395420325292184
40
0.395420325292184
40
0.414422692235906
40
0.414422692235906
40
0.433425059179629
40
0.433425059179629
40
0.452427426123352
40
0.452427426123352
40
0.471429793067075
40
0.471429793067075
40
0.490432160010798
40
0.490432160010798
40
0.528436893898244
40
0.528436893898244
40
0.547439260841966
40
0.547439260841966
40
0.566441627785689
40
0.566441627785689
40
0.585443994729412
40
0.585443994729412
40
0.604446361673135
40
0.604446361673135
40
0.623448728616858
40
0.623448728616858
40
0.642451095560581
40
0.642451095560581
40
0.680455829448027
40
0.680455829448027
40
0.69945819639175
40
0.69945819639175
40
0.718460563335472
40
0.718460563335472
40
0.737462930279195
40
0.737462930279195
40
0.756465297222918
40
0.756465297222918
40
0.775467664166641
40
0.775467664166641
40
0.794470031110364
40
0.794470031110364
40
0.832474764997809
40
0.832474764997809
40
0.851477131941532
40
0.851477131941532
40
0.870479498885255
40
0.870479498885255
40
0.889481865828978
40
0.889481865828978
40
0.908484232772701
40
0.908484232772701
40
0.946488966660147
40
0.946488966660147
40
0.965491333603869
40
0.965491333603869
40
0.984493700547592
40
0.984493700547592
40
1
40
1
40
1
40
1
41
1
10
25.2977609364098
20
5.2719211613024
30
0
41
1
10
25.5757666821487
20
5.37485322545814
30
0
41
1
10
25.8540480489924
20
5.47498142788291
30
0
41
1
10
26.4784675726885
20
5.69047631444903
30
0
41
1
10
26.8254465890685
20
5.80451520259655
30
0
41
1
10
27.5177811727752
20
6.02142921151579
30
0
41
1
10
27.8629218842979
20
6.12422578757136
30
0
41
1
10
28.5507174009933
20
6.31891813780857
30
0
41
1
10
28.8939691589495
20
6.41014490535545
30
0
41
1
10
29.5802746839748
20
6.57964853564582
30
0
41
1
10
29.9231056557712
20
6.65816299988799
30
0
41
1
10
30.6077550616567
20
6.80312905437521
30
0
41
1
10
30.9494010441035
20
6.86968928420143
30
0
41
1
10
31.9733622240304
20
7.05057648696618
30
0
41
1
10
32.6574674510945
20
7.14463867397683
30
0
41
1
10
33.6837991456018
20
7.24739881882232
30
0
41
1
10
34.0255580282741
20
7.27529075058013
30
0
41
1
10
34.7107325028266
20
7.31744182830806
30
0
41
1
10
35.0542451345484
20
7.3317437844866
30
0
41
1
10
35.7427119693485
20
7.34692578525298
30
0
41
1
10
36.0876672174915
20
7.34780627330227
30
0
41
1
10
36.7786637170831
20
7.3358095508427
30
0
41
1
10
37.1248727582089
20
7.32279093423031
30
0
41
1
10
38.1608430654628
20
7.26367878466112
30
0
41
1
10
38.8493372894126
20
7.1978740694849
30
0
41
1
10
39.8762608743017
20
7.05918225056175
30
0
41
1
10
40.2179756534705
20
7.00637205295391
30
0
41
1
10
40.901917964823
20
6.88879905357862
30
0
41
1
10
41.2438625068777
20
6.82390301957722
30
0
41
1
10
41.9272903237994
20
6.68167611090621
30
0
41
1
10
42.26870359848
20
6.60428134679069
30
0
41
1
10
42.9510146445211
20
6.43675247927257
30
0
41
1
10
43.2926562545971
20
6.34727874734335
30
0
41
1
10
43.9771138978153
20
6.15729476047349
30
0
41
1
10
44.3198126490172
20
6.05667647667116
30
0
41
1
10
45.0058299970253
20
5.84371053391644
30
0
41
1
10
45.3488269388587
20
5.73094412515172
30
0
41
1
10
46.0365916673195
20
5.49472729029515
30
0
41
1
10
46.3816736831518
20
5.37173231394019
30
0
41
1
10
47.0738842334337
20
5.11552066851672
30
0
41
1
10
47.4206300021975
20
4.98238587990309
30
0
41
1
10
48.1105196866349
20
4.70729117237127
30
0
41
1
10
48.4539702121735
20
4.56457341512191
30
0
41
1
10
49.1406996150517
20
4.27322738546567
30
0
41
1
10
49.4838083280088
20
4.12436317085439
30
0
41
1
10
50.1690629334299
20
3.81963721564543
30
0
41
1
10
50.5112501568516
20
3.66384365189589
30
0
41
1
10
51.1942158554669
20
3.34446089484302
30
0
41
1
10
51.535116419915
20
3.18105194998472
30
0
41
1
10
52.5595695416608
20
2.68580757730226
30
0
41
1
10
53.2435161112908
20
2.34675951362542
30
0
41
1
10
54.2686469912984
20
1.82043426539505
30
0
41
1
10
54.6109041069673
20
1.64326965109635
30
0
41
1
10
55.297322479561
20
1.28708685776491
30
0
41
1
10
55.6412876748234
20
1.10770185787433
30
0
41
1
10
56.3303864048958
20
0.745600968574166
30
0
41
1
10
56.6752985892361
20
0.562429566607449
30
0
41
1
10
57.3669558294599
20
0.193897041997076
30
0
41
1
10
57.7126543563841
20
0.0105311340259391
30
0
41
1
10
58.402255936513
20
-0.354357648050154
30
0
41
1
10
58.7463290055367
20
-0.536070959357232
30
0
41
1
10
59.43271952695
20
-0.898656522465558
30
0
41
1
10
59.7746532805899
20
-1.08025913296868
30
0
41
1
10
60.800603436302
20
-1.61838087439705
30
0
41
1
10
61.4846422941373
20
-1.96861920091973
30
0
41
1
10
62.5083535987409
20
-2.48590378243404
30
0
41
1
10
62.8490700137726
20
-2.65718241008807
30
0
41
1
10
63.5322001310562
20
-2.99250233806856
30
0
41
1
10
63.8743150957873
20
-3.15710010730399
30
0
41
1
10
64.5591729253495
20
-3.48101201859234
30
0
41
1
10
64.9019609048593
20
-3.64024848664806
30
0
41
1
10
65.5877361187468
20
-3.95405526646596
30
0
41
1
10
65.9312035322443
20
-4.10779690935638
30
0
41
1
10
66.6207667161034
20
-4.40651353814204
30
0
41
1
10
66.9669350172069
20
-4.55208015903054
30
0
41
1
10
67.6594647712009
20
-4.83525102248927
30
0
41
1
10
68.0049411586566
20
-4.97273390281373
30
0
41
1
10
69.039658686826
20
-5.37174588828282
30
0
41
1
10
69.7303844667636
20
-5.61567612453735
30
0
41
1
10
70.7659398114474
20
-5.95139396475238
30
0
41
1
10
71.1106337231011
20
-6.05864811578124
30
0
41
1
10
71.8014085921658
20
-6.26109233553544
30
0
41
1
10
72.1481218731415
20
-6.35631974152781
30
0
41
1
10
72.8396734024135
20
-6.53426300798074
30
0
41
1
10
73.1845559304703
20
-6.6170144629549
30
0
41
1
10
73.8721538253628
20
-6.77046780002405
30
0
41
1
10
74.2146458251892
20
-6.84127535093231
30
0
41
1
10
75.2424480195426
20
-7.03297123831914
30
0
41
1
10
75.9270597590186
20
-7.13438776607794
30
0
41
1
10
76.9504251931552
20
-7.2484770827171
30
0
41
1
10
77.2912746095691
20
-7.27992793217089
30
0
41
1
10
77.9742771763721
20
-7.32922488028609
30
0
41
1
10
78.3161334290123
20
-7.34720056883455
30
0
41
1
10
78.9372159899672
20
-7.36779432246141
30
0
41
1
10
79.2163606540679
20
-7.37262758136865
30
0
41
1
10
79.4955659469229
20
-7.37294155668502
30
0
0
SPLINE
5
AD
100
AcDbEntity
8
1
62
256
6
ByLayer
370
18
48
1
60
0
100
AcDbSpline
70
4
71
3
72
38
73
34
40
0
40
0
40
0
40
0
40
0.057331407978588
40
0.057331407978588
40
0.164303102614958
40
0.164303102614958
40
0.217788949933143
40
0.244531873592236
40
0.244531873592236
40
0.257903335421782
40
0.264589066336555
40
0.264589066336555
40
0.271274797251329
40
0.271274797251329
40
0.284646259080875
40
0.284646259080875
40
0.291331989995648
40
0.291331989995648
40
0.298017720910421
40
0.298017720910421
40
0.324760644569513
40
0.324760644569513
40
0.378246491887697
40
0.378246491887697
40
0.485218186524066
40
0.485218186524066
40
0.699161575796803
40
0.699161575796803
40
0.806133270433172
40
0.806133270433172
40
0.913104965069541
40
0.913104965069541
40
1
40
1
40
1
40
1
41
1
10
16.8700161282371
20
-1.38535771012815
30
0
41
1
10
16.8700161282371
20
-1.41719087434544
30
0
41
1
10
16.8700161282371
20
-1.45150956632617
30
0
41
1
10
16.8700161282371
20
-1.55698957200985
30
0
41
1
10
16.8700161282371
20
-1.63406446568428
30
0
41
1
10
16.8700161282371
20
-1.7616009283125
30
0
41
1
10
16.8700161282371
20
-1.82838783667955
30
0
41
1
10
16.8700161282371
20
-1.89968651711487
30
0
41
1
10
16.8700161282371
20
-1.93606176327305
30
0
41
1
10
16.8700161282371
20
-1.95443233710188
30
0
41
1
10
16.8700161282371
20
-1.97307696626623
30
0
41
1
10
16.8700161282371
20
-1.98556758621768
30
0
41
1
10
16.8700161282371
20
-1.99196248226477
30
0
41
1
10
16.8700161282371
20
-2.01742041278334
30
0
41
1
10
16.870016128237
20
-2.04072649361982
30
0
41
1
10
16.870016128237
20
-2.08188986580814
30
0
41
1
10
16.8700161282371
20
-2.09615803352733
30
0
41
1
10
16.8700161282371
20
-2.12424998445618
30
0
41
1
10
16.8700161282371
20
-2.13831280288736
30
0
41
1
10
16.8700161282371
20
-2.20871122346386
30
0
41
1
10
16.8700161282371
20
-2.26529361021792
30
0
41
1
10
16.8700161282371
20
-2.43571615097815
30
0
41
1
10
16.8700161282371
20
-2.55027472316911
30
0
41
1
10
16.8700161282371
20
-2.89680579081886
30
0
41
1
10
16.8700161282371
20
-3.13213971209208
30
0
41
1
10
16.8700161282371
20
-3.84630479857921
30
0
41
1
10
16.8700161282371
20
-4.33018474662779
30
0
41
1
10
16.8700161282371
20
-5.06801094296253
30
0
41
1
10
16.8700161282371
20
-5.31596402087271
30
0
41
1
10
16.8700161282371
20
-5.81608906553245
30
0
41
1
10
16.8700161282371
20
-6.06909603398171
30
0
41
1
10
16.8700161282371
20
-6.52384291211283
30
0
41
1
10
16.8700161282371
20
-6.72687162085083
30
0
41
1
10
16.8700161282371
20
-6.92908471015491
30
0
0
SPLINE
5
AE
100
AcDbEntity
8
1
62
256
6
ByLayer
370
18
48
1
60
0
100
AcDbSpline
70
4
71
3
72
14
73
10
40
0
40
0
40
0
40
0
40
0.25
40
0.25
40
0.5
40
0.5
40
0.75
40
0.75
40
1
40
1
40
1
40
1
41
1
10
82.7851812260911
20
-7.16964901762188
30
0
41
1
10
82.9507616071332
20
-6.70264032373925
30
0
41
1
10
83.119784385315
20
-6.23772983365097
30
0
41
1
10
83.4638812741167
20
-5.31137276904815
30
0
41
1
10
83.6389857447039
20
-4.8499447924691
30
0
41
1
10
83.9947795371172
20
-3.93011668592735
30
0
41
1
10
84.175507299075
20
-3.47173843260055
30
0
41
1
10
84.5421721860835
20
-2.55767696485304
30
0
41
1
10
84.7281080807639
20
-2.10199375994091
30
0
41
1
10
84.916526794756
20
-1.64754599330297
30
0
0
SPLINE
5
AF
100
AcDbEntity
8
1
62
256
6
ByLayer
370
18
48
1
60
0
100
AcDbSpline
70
4
71
3
72
8
73
4
40
0
40
0
40
0
40
0
40
1
40
1
40
1
40
1
41
1
10
84.9891429045745
20
-0.134052482192771
30
0
41
1
10
84.9898698962372
20
-0.109223093566129
30
0
41
1
10
84.9939212036566
20
-0.0796223464888612
30
0
41
1
10
84.9999703412402
20
-0.0481951736535109
30
0
0
SPLINE
5
B0
100
AcDbEntity
8
1
62
256
6
ByLayer
370
18
48
1
60
0
100
AcDbSpline
70
4
71
3
72
8
73
4
40
0
40
0
40
0
40
0
40
1
40
1
40
1
40
1
41
1
10
82.7851812260959
20
-7.1696490176079
30
0
41
1
10
82.6427420596349
20
-7.2766819096293
30
0
41
1
10
82.5156557482346
20
-7.34244948097185
30
0
41
1
10
82.4027207798687
20
-7.3655140153241
30
0
0
SPLINE
5
B1
100
AcDbEntity
8
1
62
256
6
ByLayer
370
18
48
1
60
0
100
AcDbSpline
70
4
71
3
72
14
73
10
40
0
40
0
40
0
40
0
40
0.25
40
0.25
40
0.5
40
0.5
40
0.75
40
0.75
40
1
40
1
40
1
40
1
41
1
10
82.2941853377923
20
1.60079798569078
30
0
41
1
10
82.2930776836837
20
1.6209599775016
30
0
41
1
10
82.297425609724
20
1.64136819286173
30
0
41
1
10
82.3178377411709
20
1.67669578833929
30
0
41
1
10
82.3338494456747
20
1.69139685718582
30
0
41
1
10
82.3697694404464
20
1.71220901520988
30
0
41
1
10
82.389988167609
20
1.71890956505229
30
0
41
1
10
82.4306298015324
20
1.72673373668542
30
0
41
1
10
82.4514853776212
20
1.72799424018927
30
0
41
1
10
82.4722846341814
20
1.72728405346481
30
0
0
SPLINE
5
B2
100
AcDbEntity
8
1
62
256
6
ByLayer
370
18
48
1
60
0
100
AcDbSpline
70
4
71
3
72
8
73
4
40
0
40
0
40
0
40
0
40
1
40
1
40
1
40
1
41
1
10
84.950455751478
20
-0.0806848116137928
30
0
41
1
10
84.4919721449024
20
-0.830618952237586
30
0
41
1
10
84.0458815057219
20
-1.59181127157558
30
0
41
1
10
83.6123830081334
20
-2.36444270601135
30
0
0
SPLINE
5
B3
100
AcDbEntity
8
1
62
256
6
ByLayer
370
18
48
1
60
0
100
AcDbSpline
70
4
71
3
72
32
73
28
40
0
40
0
40
0
40
0
40
0.0742129559660823
40
0.0742129559660823
40
0.148425911932165
40
0.148425911932165
40
0.222638867898247
40
0.222638867898247
40
0.296851823864329
40
0.296851823864329
40
0.371064779830411
40
0.371064779830411
40
0.445277735796494
40
0.445277735796494
40
0.519490691762576
40
0.519490691762576
40
0.593703647728658
40
0.593703647728658
40
0.66791660369474
40
0.66791660369474
40
0.742129559660823
40
0.742129559660823
40
0.890555471592972
40
0.890555471592972
40
0.964768427559054
40
0.964768427559054
40
1
40
1
40
1
40
1
41
1
10
83.612383008131
20
-2.36444270601481
30
0
41
1
10
83.6069617437543
20
-2.40527126076032
30
0
41
1
10
83.5995377136268
20
-2.44932511245065
30
0
41
1
10
83.5812795623787
20
-2.53983800715656
30
0
41
1
10
83.5704713465161
20
-2.58639696966958
30
0
41
1
10
83.5455635015556
20
-2.6820987197963
30
0
41
1
10
83.5313172255472
20
-2.73165089201183
30
0
41
1
10
83.5006415762404
20
-2.82963793882672
30
0
41
1
10
83.484136475053
20
-2.87843848920593
30
0
41
1
10
83.4489223366325
20
-2.97568127055459
30
0
41
1
10
83.4302007835488
20
-3.0240865800514
30
0
41
1
10
83.3919415509092
20
-3.11732896838674
30
0
41
1
10
83.3722486978216
20
-3.16260647160556
30
0
41
1
10
83.3318151248319
20
-3.25060979042902
30
0
41
1
10
83.3111640183362
20
-3.29310258376873
30
0
41
1
10
83.2700423596581
20
-3.37331565233597
30
0
41
1
10
83.2494295304528
20
-3.41134787672988
30
0
41
1
10
83.2081150048267
20
-3.48343763428571
30
0
41
1
10
83.1873823307335
20
-3.51751080412168
30
0
41
1
10
83.1468980593353
20
-3.58007019231945
30
0
41
1
10
83.1270072023631
20
-3.60880873792593
30
0
41
1
10
83.0683476415599
20
-3.68765401966516
30
0
41
1
10
83.0304635875228
20
-3.73038762082342
30
0
41
1
10
82.9783866405182
20
-3.77672081398023
30
0
41
1
10
82.9616959035833
20
-3.78936297914419
30
0
41
1
10
82.9380768916557
20
-3.8037645134454
30
0
41
1
10
82.9306129223485
20
-3.80774821210395
30
0
41
1
10
82.9233398686762
20
-3.81105115541965
30
0
0
SPLINE
5
B4
100
AcDbEntity
8
1
62
256
6
ByLayer
370
18
48
1
60
0
100
AcDbSpline
70
4
71
3
72
8
73
4
40
0
40
0
40
0
40
0
40
1
40
1
40
1
40
1
41
1
10
82.8601961867395
20
-3.82141713611253
30
0
41
1
10
82.8478371691803
20
-3.81894678685546
30
0
41
1
10
82.8364995250955
20
-3.81328003890582
30
0
41
1
10
82.8262168428049
20
-3.80426715549413
30
0
0
SPLINE
5
B5
100
AcDbEntity
8
1
62
256
6
ByLayer
370
18
48
1
60
0
100
AcDbSpline
70
4
71
3
72
8
73
4
40
0
40
0
40
0
40
0
40
1
40
1
40
1
40
1
41
1
10
16.8700161282371
20
6.92908471015505
30
0
41
1
10
16.3668053376873
20
6.95346595302766
30
0
41
1
10
15.8679696889889
20
6.96652427198165
30
0
41
1
10
15.3719896240153
20
6.9659767333647
30
0
0
SPLINE
5
B6
100
AcDbEntity
8
1
62
256
6
ByLayer
370
18
48
1
60
0
100
AcDbSpline
70
4
71
3
72
20
73
16
40
0
40
0
40
0
40
0
40
0.0658166674061448
40
0.0658166674061448
40
0.295543308260762
40
0.295543308260762
40
0.352974968474417
40
0.352974968474417
40
0.410406628688072
40
0.410406628688072
40
0.525269949115382
40
0.525269949115382
40
0.984723230824617
40
0.984723230824617
40
1
40
1
40
1
40
1
41
1
10
16.3807947220343
20
0.0013078175134353
30
0
41
1
10
16.6201612494764
20
-0.120668174062871
30
0
41
1
10
16.8596851862199
20
-0.24273088118079
30
0
41
1
10
17.9362431728512
20
-0.7906483844788
30
0
41
1
10
18.7757434948118
20
-1.21605550528068
30
0
41
1
10
19.8320454288086
20
-1.7400489735455
30
0
41
1
10
20.0436579180409
20
-1.84447443682441
30
0
41
1
10
20.4657577966873
20
-2.05143434448016
30
0
41
1
10
20.6764842731722
20
-2.15408768781805
30
0
41
1
10
21.3078488569663
20
-2.45929644136413
30
0
41
1
10
21.7276976835951
20
-2.65906544441836
30
0
41
1
10
23.8231103203067
20
-3.63677395708405
30
0
41
1
10
25.4872862103626
20
-4.35106086570485
30
0
41
1
10
27.2174952501461
20
-4.98063015514666
30
0
41
1
10
27.2731842395899
20
-5.00077430063448
30
0
41
1
10
27.3288851099876
20
-5.02080176538362
30
0
0
SPLINE
5
B7
100
AcDbEntity
8
1
62
256
6
ByLayer
370
13
48
1
60
0
100
AcDbSpline
70
4
71
3
72
18
73
14
40
0
40
0
40
0
40
0
40
0.180786959351566
40
0.180786959351566
40
0.277619800883619
40
0.277619800883619
40
0.374452642415671
40
0.374452642415671
40
0.761784008543878
40
0.761784008543878
40
0.955449691607981
40
0.955449691607981
40
1
40
1
40
1
40
1
41
1
10
27.3288851099658
20
-5.02080176537575
30
0
41
1
10
28.110794188527
20
-5.30194021790186
30
0
41
1
10
28.8950444743295
20
-5.56008608981452
30
0
41
1
10
30.1065958954316
20
-5.91547995978752
30
0
41
1
10
30.529004017326
20
-6.03130960015943
30
0
41
1
10
31.3705373937574
20
-6.24509102941158
30
0
41
1
10
31.7902325526476
20
-6.34323804459882
30
0
41
1
10
33.8848785200373
20
-6.78924337025143
30
0
41
1
10
35.5488397163769
20
-7.00228824502031
30
0
41
1
10
38.0603855651918
20
-7.09030849310469
30
0
41
1
10
38.9001980500773
20
-7.08114641337846
30
0
41
1
10
39.9398851370053
20
-7.02113570163868
30
0
41
1
10
40.1343581470225
20
-7.00782728272688
30
0
41
1
10
40.3288249810902
20
-6.99245808145582
30
0
0
SPLINE
5
B8
100
AcDbEntity
8
1
62
256
6
ByLayer
370
18
48
1
60
0
100
AcDbSpline
70
4
71
3
72
14
73
10
40
0
40
0
40
0
40
0
40
0.574300752199882
40
0.574300752199882
40
0.717875940249856
40
0.717875940249856
40
0.861451128299831
40
0.861451128299831
40
1
40
1
40
1
40
1
41
1
10
82.5213886397744
20
-6.99969920034056
30
0
41
1
10
80.8352201599701
20
-7.03539948034393
30
0
41
1
10
79.1609679926315
20
-6.91457987399207
30
0
41
1
10
77.0560000133839
20
-6.57776926429474
30
0
41
1
10
76.6337987362424
20
-6.50097160168687
30
0
41
1
10
75.7900226529155
20
-6.32969124081029
30
0
41
1
10
75.3695509495062
20
-6.23545408332544
30
0
41
1
10
74.5454561834393
20
-6.03425342285607
30
0
41
1
10
74.1417313895196
20
-5.92786090943909
30
0
41
1
10
73.7386901497878
20
-5.81429259441549
30
0
0
SPLINE
5
B9
100
AcDbEntity
8
1
62
256
6
ByLayer
370
13
48
1
60
0
100
AcDbSpline
70
4
71
3
72
20
73
16
40
0
40
0
40
0
40
0
40
0.0727750681077673
40
0.0727750681077673
40
0.354029304519571
40
0.354029304519571
40
0.42434286362252
40
0.42434286362252
40
0.494656422725471
40
0.494656422725471
40
0.635283540931372
40
0.635283540931372
40
0.916537777343176
40
0.916537777343176
40
1
40
1
40
1
40
1
41
1
10
73.7386893339122
20
-5.81429236451933
30
0
41
1
10
73.3064050719929
20
-5.69248398687373
30
0
41
1
10
72.8749071542952
20
-5.56242073833235
30
0
41
1
10
70.7778332894786
20
-4.89199674652684
30
0
41
1
10
69.1179696910295
20
-4.24368813872346
30
0
41
1
10
67.0234821200492
20
-3.32902074826455
30
0
41
1
10
66.6036118789011
20
-3.14088644267474
30
0
41
1
10
65.7612433442851
20
-2.75519984370573
30
0
41
1
10
65.3382158344572
20
-2.55736947120246
30
0
41
1
10
64.0756858888147
20
-1.9570258667903
30
0
41
1
10
63.2389899029558
20
-1.54648112747071
30
0
41
1
10
60.7359057533587
20
-0.300100269504355
30
0
41
1
10
59.0764083865889
20
0.55025665380856
30
0
41
1
10
56.9087860744072
20
1.62197177505638
30
0
41
1
10
56.4116165946135
20
1.86499080698076
30
0
41
1
10
55.9127924221832
20
2.10470420784148
30
0
0
SPLINE
5
BA
100
AcDbEntity
8
1
62
256
6
ByLayer
370
18
48
1
60
0
100
AcDbSpline
70
4
71
3
72
8
73
4
40
0
40
0
40
0
40
0
40
1
40
1
40
1
40
1
41
1
10
84.9891429045745
20
0.134052482192914
30
0
41
1
10
84.9898698962371
20
0.109223093566186
30
0
41
1
10
84.9939212036566
20
0.0796223464888044
30
0
41
1
10
84.9999703412402
20
0.0481951736533404
30
0
0
SPLINE
5
BB
100
AcDbEntity
8
1
62
256
6
ByLayer
370
13
48
1
60
0
100
AcDbSpline
70
4
71
3
72
44
73
40
40
0
40
0
40
0
40
0
40
2.89918927023E-05
40
2.89918927023E-05
40
0.0416944505638398
40
0.0416944505638398
40
0.0833599092349773
40
0.0833599092349773
40
0.166690826577252
40
0.166690826577252
40
0.250021743919527
40
0.250021743919527
40
0.333352661261802
40
0.333352661261802
40
0.37501811993294
40
0.37501811993294
40
0.416683578604077
40
0.416683578604077
40
0.500014495946352
40
0.500014495946352
40
0.541679954617489
40
0.541679954617489
40
0.583345413288626
40
0.583345413288626
40
0.666676330630901
40
0.666676330630901
40
0.750007247973176
40
0.750007247973176
40
0.791672706644313
40
0.791672706644313
40
0.83333816531545
40
0.83333816531545
40
0.916669082657725
40
0.916669082657725
40
0.958334541328863
40
0.958334541328863
40
0.979167270664431
40
0.979167270664431
40
1
40
1
40
1
40
1
41
1
10
2.03564046109478
20
-6.95638733758722
30
0
41
1
10
2.03564059634604
20
-6.9563883284995
30
0
41
1
10
2.0356407397628
20
-6.95638931825763
30
0
41
1
10
2.03565573751902
20
-6.95649257122682
30
0
41
1
10
2.03567063015623
20
-6.9517020782846
30
0
41
1
10
2.03569991180012
20
-6.93217266615883
30
0
41
1
10
2.03571419664169
20
-6.91752307549947
30
0
41
1
10
2.03575618543471
20
-6.85928913061508
30
0
41
1
10
2.03578303437581
20
-6.80147754971713
30
0
41
1
10
2.03583522782137
20
-6.64835862257064
30
0
41
1
10
2.03586057107634
20
-6.55305524331311
30
0
41
1
10
2.03591020046059
20
-6.32351909665388
30
0
41
1
10
2.03593417820633
20
-6.19064751930568
30
0
41
1
10
2.03596885838587
20
-5.96518372358727
30
0
41
1
10
2.03598020662372
20
-5.88559768520415
30
0
41
1
10
2.03600224883888
20
-5.71932362747694
30
0
41
1
10
2.03601297384267
20
-5.63244250467611
30
0
41
1
10
2.03604423843046
20
-5.36076646622163
30
0
41
1
10
2.03606388075036
20
-5.16498405460982
30
0
41
1
10
2.03609121870773
20
-4.84927027279539
30
0
41
1
10
2.03609997388077
20
-4.74034771564666
30
0
41
1
10
2.03611667329363
20
-4.51498511644184
30
0
41
1
10
2.03612463790421
20
-4.3981636200871
30
0
41
1
10
2.03614683430518
20
-4.04103142134187
30
0
41
1
10
2.03615947525154
20
-3.79303944313219
30
0
41
1
10
2.03617963927206
20
-3.27780302018067
30
0
41
1
10
2.0361871650141
20
-3.0105580467266
30
0
41
1
10
2.03619369881517
20
-2.5949302212569
30
0
41
1
10
2.0361950810302
20
-2.45348661019784
30
0
41
1
10
2.0361960475156
20
-2.16782506094975
30
0
41
1
10
2.03619563708995
20
-2.02381299536864
30
0
41
1
10
2.0361915293395
20
-1.58827816052613
30
0
41
1
10
2.03618496905199
20
-1.29327154331133
30
0
41
1
10
2.03616839518548
20
-0.843698555498236
30
0
41
1
10
2.03616174258133
20
-0.692739013510703
30
0
41
1
10
2.03615002576214
20
-0.466205642146008
30
0
41
1
10
2.03614582805204
20
-0.390609830689186
30
0
41
1
10
2.03613682991323
20
-0.239248715467937
30
0
41
1
10
2.03613199073627
20
-0.162934035881619
30
0
41
1
10
2.03612691773122
20
-0.0876334694079617
30
0
0
SPLINE
5
BC
100
AcDbEntity
8
1
62
256
6
ByLayer
370
18
48
1
60
0
100
AcDbSpline
70
4
71
3
72
8
73
4
40
0
40
0
40
0
40
0
40
1
40
1
40
1
40
1
41
1
10
84.9165267947559
20
-1.64754599330294
30
0
41
1
10
84.9501751252938
20
-1.14256834947781
30
0
41
1
10
84.9743855246995
20
-0.638070256888653
30
0
41
1
10
84.9891429045745
20
-0.134052482192885
30
0
0
SPLINE
5
BD
100
AcDbEntity
8
1
62
256
6
ByLayer
370
18
48
1
60
0
100
AcDbSpline
70
4
71
3
72
38
73
34
40
0
40
0
40
0
40
0
40
0.107938940811112
40
0.107938940811112
40
0.161908411216668
40
0.161908411216668
40
0.215877881622224
40
0.215877881622224
40
0.26984735202778
40
0.26984735202778
40
0.323816822433337
40
0.323816822433337
40
0.43175576324445
40
0.43175576324445
40
0.485725233650008
40
0.485725233650008
40
0.539694704055564
40
0.539694704055564
40
0.593664174461121
40
0.593664174461121
40
0.647633644866678
40
0.647633644866678
40
0.701603115272235
40
0.701603115272235
40
0.755572585677792
40
0.755572585677792
40
0.863511526488906
40
0.863511526488906
40
0.917480996894462
40
0.917480996894462
40
0.971450467300018
40
0.971450467300018
40
1
40
1
40
1
40
1
41
1
10
16.8700161282371
20
-1.40978754131425
30
0
41
1
10
17.561708510564
20
-1.77259899570029
30
0
41
1
10
18.2520258160039
20
-2.12270161395338
30
0
41
1
10
19.282713080007
20
-2.6353517499025
30
0
41
1
10
19.6251338904983
20
-2.80472575964487
30
0
41
1
10
20.3093200000803
20
-3.13743311477364
30
0
41
1
10
20.6514991483813
20
-3.30005453479666
30
0
41
1
10
21.3357084872438
20
-3.6185544394086
30
0
41
1
10
21.6777062738536
20
-3.77448786419958
30
0
41
1
10
22.3611684641747
20
-4.0802123831661
30
0
41
1
10
22.7022582379233
20
-4.23057633734461
30
0
41
1
10
23.7276864483393
20
-4.66758432356826
30
0
41
1
10
24.4138438355494
20
-4.94095386371833
30
0
41
1
10
25.4444225815121
20
-5.32736565662177
30
0
41
1
10
25.7881212776942
20
-5.45222928519135
30
0
41
1
10
26.4784675726884
20
-5.69047631444903
30
0
41
1
10
26.8254465890685
20
-5.80451520259655
30
0
41
1
10
27.5177811727752
20
-6.02142921151582
30
0
41
1
10
27.8629218842979
20
-6.12422578757136
30
0
41
1
10
28.5507174009934
20
-6.31891813780859
30
0
41
1
10
28.8939691589495
20
-6.41014490535545
30
0
41
1
10
29.5802746839748
20
-6.57964853564584
30
0
41
1
10
29.9231056557711
20
-6.65816299988799
30
0
41
1
10
30.6077550616568
20
-6.80312905437521
30
0
41
1
10
30.9494010441034
20
-6.86968928420143
30
0
41
1
10
31.9733622240304
20
-7.05057648696618
30
0
41
1
10
32.6574674510944
20
-7.14463867397683
30
0
41
1
10
33.6837991456018
20
-7.24739881882232
30
0
41
1
10
34.0255580282741
20
-7.27529075058013
30
0
41
1
10
34.7107325028266
20
-7.31744182830806
30
0
41
1
10
35.0542451345484
20
-7.3317437844866
30
0
41
1
10
35.5805760069103
20
-7.34335037946499
30
0
41
1
10
35.7628754552213
20
-7.34548813929851
30
0
41
1
10
35.9453504246404
20
-7.34572314529149
30
0
0
SPLINE
5
BE
100
AcDbEntity
8
1
62
256
6
ByLayer
370
18
48
1
60
0
100
AcDbSpline
70
4
71
3
72
30
73
26
40
0
40
0
40
0
40
0
40
0.113214694040792
40
0.113214694040792
40
0.187113469537391
40
0.187113469537391
40
0.26101224503399
40
0.26101224503399
40
0.334911020530589
40
0.334911020530589
40
0.408809796027189
40
0.408809796027189
40
0.55660734702039
40
0.55660734702039
40
0.630506122516991
40
0.630506122516991
40
0.704404898013593
40
0.704404898013593
40
0.778303673510194
40
0.778303673510194
40
0.852202449006796
40
0.852202449006796
40
0.926101224503398
40
0.926101224503398
40
1
40
1
40
1
40
1
41
1
10
68.834203897385
20
5.28886475486337
30
0
41
1
10
69.362882341468
20
5.48479790915235
30
0
41
1
10
69.8919228328635
20
5.66804542730551
30
0
41
1
10
70.7659398114475
20
5.95139396475241
30
0
41
1
10
71.1106337231011
20
6.05864811578127
30
0
41
1
10
71.8014085921659
20
6.26109233553547
30
0
41
1
10
72.1481218731415
20
6.35631974152781
30
0
41
1
10
72.8396734024135
20
6.53426300798077
30
0
41
1
10
73.1845559304703
20
6.6170144629549
30
0
41
1
10
73.8721538253629
20
6.77046780002405
30
0
41
1
10
74.2146458251892
20
6.84127535093231
30
0
41
1
10
75.2424480195427
20
7.03297123831914
30
0
41
1
10
75.9270597590187
20
7.13438776607791
30
0
41
1
10
76.9504251931552
20
7.24847708271713
30
0
41
1
10
77.2912746095691
20
7.27992793217092
30
0
41
1
10
77.9742771763721
20
7.32922488028609
30
0
41
1
10
78.3161334290123
20
7.34720056883455
30
0
41
1
10
79.0001377652064
20
7.36988067235836
30
0
41
1
10
79.3422364529591
20
7.37458230210297
30
0
41
1
10
80.0266134609255
20
7.37034491636797
30
0
41
1
10
80.3696310016024
20
7.36141540137936
30
0
41
1
10
81.0576504388565
20
7.33008537900594
30
0
41
1
10
81.4025180617476
20
7.30767869545747
30
0
41
1
10
82.0936630349891
20
7.24907218986209
30
0
41
1
10
82.4396734475679
20
7.21269120316049
30
0
41
1
10
82.7851812260961
20
7.16964901760764
30
0
0
SPLINE
5
BF
100
AcDbEntity
8
1
62
256
6
ByLayer
370
18
48
1
60
0
100
AcDbSpline
70
4
71
3
72
50
73
46
40
0
40
0
40
0
40
0
40
0.0625000000000105
40
0.0625000000000105
40
0.125000000000021
40
0.125000000000021
40
0.187500000000032
40
0.187500000000032
40
0.250000000000042
40
0.250000000000042
40
0.312500000000053
40
0.312500000000053
40
0.343750000000054
40
0.343750000000054
40
0.375000000000056
40
0.375000000000056
40
0.406250000000058
40
0.406250000000058
40
0.421875000000056
40
0.421875000000056
40
0.437500000000054
40
0.437500000000054
40
0.453125000000053
40
0.453125000000053
40
0.468750000000051
40
0.468750000000051
40
0.500000000000048
40
0.500000000000048
40
0.531250000000045
40
0.531250000000045
40
0.562500000000042
40
0.562500000000042
40
0.625000000000036
40
0.625000000000036
40
0.68750000000003
40
0.68750000000003
40
0.750000000000024
40
0.750000000000024
40
0.812500000000018
40
0.812500000000018
40
0.875000000000012
40
0.875000000000012
40
0.937500000000006
40
0.937500000000006
40
1
40
1
40
1
40
1
41
1
10
82.8262168428049
20
-3.80426715549413
30
0
41
1
10
82.6952362097459
20
-3.768401176597
30
0
41
1
10
82.563726194873
20
-3.72619670476467
30
0
41
1
10
82.3018773806902
20
-3.63018547263513
30
0
41
1
10
82.1722037953311
20
-3.57665493744753
30
0
41
1
10
81.9153930519283
20
-3.45839038746132
30
0
41
1
10
81.7882528430563
20
-3.39366984826594
30
0
41
1
10
81.5368201892924
20
-3.25165010637636
30
0
41
1
10
81.4125146455207
20
-3.17440876184668
30
0
41
1
10
81.1675456807551
20
-3.00383870137421
30
0
41
1
10
81.0463601099832
20
-2.91013006313102
30
0
41
1
10
80.8741576572986
20
-2.75578370730756
30
0
41
1
10
80.8181929896834
20
-2.70190292684768
30
0
41
1
10
80.7101636181948
20
-2.58753711610052
30
0
41
1
10
80.6576637159615
20
-2.52657614813631
30
0
41
1
10
80.560869554127
20
-2.39726037478246
30
0
41
1
10
80.51658109226
20
-2.32933614295544
30
0
41
1
10
80.4610161696925
20
-2.21880993638087
30
0
41
1
10
80.444381790138
20
-2.1804014302428
30
0
41
1
10
80.4176699922918
20
-2.10248146536088
30
0
41
1
10
80.4073499257203
20
-2.06207129267966
30
0
41
1
10
80.3960135552124
20
-1.98256652568952
30
0
41
1
10
80.3948686987725
20
-1.94337188741898
30
0
41
1
10
80.4034914531097
20
-1.86693799529021
30
0
41
1
10
80.4130052589607
20
-1.83186862864656
30
0
41
1
10
80.4554902919752
20
-1.73509671107519
30
0
41
1
10
80.500938033114
20
-1.68566422700158
30
0
41
1
10
80.6035534552431
20
-1.61077730291194
30
0
41
1
10
80.6607837418783
20
-1.58451291628415
30
0
41
1
10
80.7811055500351
20
-1.54492790225731
30
0
41
1
10
80.8429598547607
20
-1.53217606935465
30
0
41
1
10
81.0305982337707
20
-1.50692065322556
30
0
41
1
10
81.1591063682108
20
-1.50707364234401
30
0
41
1
10
81.4199047771839
20
-1.5261912516423
30
0
41
1
10
81.5512251758258
20
-1.5455340346264
30
0
41
1
10
81.8124476295847
20
-1.59719372271252
30
0
41
1
10
81.9428696087909
20
-1.62966829934726
30
0
41
1
10
82.2034082694975
20
-1.70533685319211
30
0
41
1
10
82.3335240348914
20
-1.74856299608996
30
0
41
1
10
82.5934734937615
20
-1.84491919474698
30
0
41
1
10
82.723635670275
20
-1.89820762453502
30
0
41
1
10
82.9817828677112
20
-2.01413903092799
30
0
41
1
10
83.1097291984325
20
-2.07672095766608
30
0
41
1
10
83.3631082514432
20
-2.21217817390155
30
0
41
1
10
83.4885521472088
20
-2.28500770740862
30
0
41
1
10
83.6123830081322
20
-2.3644427060166
30
0
0
SPLINE
5
C0
100
AcDbEntity
8
1
62
256
6
ByLayer
370
18
48
1
60
0
100
AcDbSpline
70
4
71
3
72
16
73
12
40
0
40
0
40
0
40
0
40
0.121078922692571
40
0.121078922692571
40
0.699031304226056
40
0.699031304226056
40
0.843519399609429
40
0.843519399609429
40
0.9880074949928
40
0.9880074949928
40
1
40
1
40
1
40
1
41
1
10
38.3056391103881
20
-6.97822092393264
30
0
41
1
10
37.9539244225804
20
-6.97706119522917
30
0
41
1
10
37.6028594232127
20
-6.96916737469209
30
0
41
1
10
35.5786382658573
20
-6.88520713483135
30
0
41
1
10
33.9150819653713
20
-6.66393919646549
30
0
41
1
10
31.8212578249456
20
-6.2113002950525
30
0
41
1
10
31.4017299949708
20
-6.11201780884053
30
0
41
1
10
30.5605801353445
20
-5.89635873535454
30
0
41
1
10
30.1383705237531
20
-5.77977734193462
30
0
41
1
10
29.6810288434388
20
-5.64495401081277
30
0
41
1
10
29.6459877001284
20
-5.63456988512266
30
0
41
1
10
29.6109553883146
20
-5.62413466845578
30
0
0
SPLINE
5
C1
100
AcDbEntity
8
1
62
256
6
ByLayer
370
13
48
1
60
0
100
AcDbSpline
70
4
71
3
72
22
73
18
40
0
40
0
40
0
40
0
40
0.137478490081492
40
0.137478490081492
40
0.424340225301299
40
0.424340225301299
40
0.49605565910625
40
0.49605565910625
40
0.531913376008725
40
0.531913376008725
40
0.567771092911201
40
0.567771092911201
40
0.711201960521103
40
0.711201960521103
40
0.998063695740907
40
0.998063695740907
40
1
40
1
40
1
40
1
41
1
10
29.6109553891598
20
-5.62413466870748
30
0
41
1
10
28.8018351224214
20
-5.3831187364118
30
0
41
1
10
27.9974259615606
20
-5.11484864613684
30
0
41
1
10
25.5214788768191
20
-4.21483721581095
30
0
41
1
10
23.8577112731079
20
-3.5045037544042
30
0
41
1
10
21.7631556839611
20
-2.53529571645922
30
0
41
1
10
21.343485353756
20
-2.33742545691561
30
0
41
1
10
20.7124249563654
20
-2.03534411324233
30
0
41
1
10
20.5018068096886
20
-1.933777682819
30
0
41
1
10
20.0799383729497
20
-1.7290820035349
30
0
41
1
10
19.8684554576464
20
-1.62583835019853
30
0
41
1
10
18.8128514098997
20
-1.10797098581017
30
0
41
1
10
17.9737669872327
20
-0.688005790248724
30
0
41
1
10
15.4643733275496
20
0.571946672374935
30
0
41
1
10
13.8019991167636
20
1.41209655957496
30
0
41
1
10
12.1172649063776
20
2.21418709846091
30
0
41
1
10
12.1059687650676
20
2.21956289764748
30
0
41
1
10
12.094672113324
20
2.22493670583381
30
0
0
SPLINE
5
C2
100
AcDbEntity
8
1
62
256
6
ByLayer
370
18
48
1
60
0
100
AcDbSpline
70
4
71
3
72
16
73
12
40
0
40
0
40
0
40
0
40
0.220767116036961
40
0.220767116036961
40
0.446500412852799
40
0.446500412852799
40
0.559367061260716
40
0.559367061260716
40
0.672233709668633
40
0.672233709668633
40
1
40
1
40
1
40
1
41
1
10
59.9420999853577
20
-0.0045931232898795
30
0
41
1
10
60.7564079415294
20
-0.421141530100385
30
0
41
1
10
61.5704522795654
20
-0.837593608833657
30
0
41
1
10
63.2214925240653
20
-1.66930007371462
30
0
41
1
10
64.0586058916326
20
-2.08429378594715
30
0
41
1
10
65.3219971064951
20
-2.69033274647256
30
0
41
1
10
65.7453143281244
20
-2.88990263516666
30
0
41
1
10
66.5880249621384
20
-3.27851438280345
30
0
41
1
10
67.0080532918093
20
-3.46789226793541
30
0
41
1
10
68.6439912847179
20
-4.18614341422068
30
0
41
1
10
69.8524422250328
20
-4.6747989592987
30
0
41
1
10
71.0610566752185
20
-5.10546013877635
30
0
0
SPLINE
5
C3
100
AcDbEntity
8
1
62
256
6
ByLayer
370
13
48
1
60
0
100
AcDbSpline
70
4
71
3
72
16
73
12
40
0
40
0
40
0
40
0
40
0.120491274884514
40
0.120491274884514
40
0.340368456163386
40
0.340368456163386
40
0.450307046802821
40
0.450307046802821
40
0.560245637442255
40
0.560245637442255
40
1
40
1
40
1
40
1
41
1
10
71.0610557341874
20
-5.10545980346217
30
0
41
1
10
71.5171919546396
20
-5.26799317083757
30
0
41
1
10
71.9733514641321
20
-5.42226617140986
30
0
41
1
10
73.2633019462259
20
-5.8328490075032
30
0
41
1
10
74.0982393553796
20
-6.06838272485291
30
0
41
1
10
75.3571594169534
20
-6.37166519796429
30
0
41
1
10
75.7779185770933
20
-6.46440606559017
30
0
41
1
10
76.6223645073744
20
-6.6322882596051
30
0
41
1
10
77.0447072518103
20
-6.70715631034886
30
0
41
1
10
79.1506164930344
20
-7.03348769325447
30
0
41
1
10
80.8255056868463
20
-7.14304916205131
30
0
41
1
10
82.5125641780834
20
-7.09363872024562
30
0
0
SPLINE
5
C4
100
AcDbEntity
8
1
62
256
6
ByLayer
370
18
48
1
60
0
100
AcDbSpline
70
4
71
3
72
8
73
4
40
0
40
0
40
0
40
0
40
1
40
1
40
1
40
1
41
1
10
82.7851812260956
20
7.16964901760809
30
0
41
1
10
82.6427420596347
20
7.27668190962939
30
0
41
1
10
82.5156557482345
20
7.34244948097185
30
0
41
1
10
82.4027207798687
20
7.3655140153241
30
0
0
SPLINE
5
C5
100
AcDbEntity
8
1
62
256
6
ByLayer
370
13
48
1
60
0
100
AcDbSpline
70
4
71
3
72
16
73
12
40
0
40
0
40
0
40
0
40
0.105842681262229
40
0.105842681262229
40
0.254799013228775
40
0.254799013228775
40
0.403755345195322
40
0.403755345195322
40
0.999580673061509
40
0.999580673061509
40
1
40
1
40
1
40
1
41
1
10
2.03528327290977
20
6.30576750428875
30
0
41
1
10
2.03529819277787
20
6.35098825426584
30
0
41
1
10
2.03531281915943
20
6.39392528607698
30
0
41
1
10
2.03534739024462
20
6.49183405757341
30
0
41
1
10
2.03536707302942
20
6.54456914741542
30
0
41
1
10
2.03540552598753
20
6.64095944951987
30
0
41
1
10
2.03542435288966
20
6.68472904963642
30
0
41
1
10
2.03551574653295
20
6.87875229974725
30
0
41
1
10
2.03558013766292
20
6.95597209922593
30
0
41
1
10
2.03564055053787
20
6.95638801635024
30
0
41
1
10
2.03564069881442
20
6.95638900540926
30
0
41
1
10
2.03564089278695
20
6.95638998653017
30
0
0
SPLINE
5
C6
100
AcDbEntity
8
1
62
256
6
ByLayer
370
18
48
1
60
0
100
AcDbSpline
70
4
71
3
72
8
73
4
40
0
40
0
40
0
40
0
40
1
40
1
40
1
40
1
41
1
10
1.7849230332817
20
0.0430326670493173
30
0
41
1
10
1.95492142028132
20
-0.0486594969443956
30
0
41
1
10
2.12499270902447
20
-0.140074116654006
30
0
41
1
10
2.29514646077766
20
-0.231195578917493
30
0
0
SPLINE
5
C7
100
AcDbEntity
8
1
62
256
6
ByLayer
370
18
48
1
60
0
100
AcDbSpline
70
4
71
3
72
12
73
8
40
0
40
0
40
0
40
0
40
0.0095982416210448
40
0.0095982416210448
40
0.504799120810522
40
0.504799120810522
40
1
40
1
40
1
40
1
41
1
10
1.8651782657017
20
-0.0002312788830068
30
0
41
1
10
1.86471039680853
20
1.0512705245E-05
30
0
41
1
10
1.86424364989387
20
0.0002517725811515
30
0
41
1
10
1.83975523386081
20
0.0129123108563647
30
0
41
1
10
1.82020565866688
20
0.0231538321250184
30
0
41
1
10
1.79241299234533
20
0.0379690474400434
30
0
41
1
10
1.7849230332817
20
0.0421417782932849
30
0
41
1
10
1.7849230332817
20
0.0423498960356028
30
0
0
SPLINE
5
C8
100
AcDbEntity
8
1
62
256
6
ByLayer
370
18
48
1
60
0
100
AcDbSpline
70
4
71
3
72
14
73
10
40
0
40
0
40
0
40
0
40
0.25
40
0.25
40
0.5
40
0.5
40
0.75
40
0.75
40
1
40
1
40
1
40
1
41
1
10
82.5213886395379
20
-6.99969920034559
30
0
41
1
10
82.5248194581303
20
-6.99910466687061
30
0
41
1
10
82.5276052445855
20
-7.0002120684282
30
0
41
1
10
82.5314781759378
20
-7.0068944189764
30
0
41
1
10
82.5325101940192
20
-7.01255492138017
30
0
41
1
10
82.5316437253423
20
-7.02945824944325
30
0
41
1
10
82.5296688659826
20
-7.04072982884156
30
0
41
1
10
82.5227696293131
20
-7.06628649714565
30
0
41
1
10
82.5179198316327
20
-7.08033256816759
30
0
41
1
10
82.5125641780896
20
-7.09363872024542
30
0
0
SPLINE
5
C9
100
AcDbEntity
8
1
62
256
6
ByLayer
370
18
48
1
60
0
100
AcDbSpline
70
4
71
3
72
34
73
30
40
0
40
0
40
0
40
0
40
0.0624999999999938
40
0.0624999999999938
40
0.0937499999999907
40
0.0937499999999907
40
0.124999999999988
40
0.124999999999988
40
0.187499999999981
40
0.187499999999981
40
0.249999999999975
40
0.249999999999975
40
0.374999999999963
40
0.374999999999963
40
0.406249999999961
40
0.406249999999961
40
0.437499999999962
40
0.437499999999962
40
0.499999999999967
40
0.499999999999967
40
0.624999999999978
40
0.624999999999978
40
0.687499999999983
40
0.687499999999983
40
0.749999999999989
40
0.749999999999989
40
0.874999999999994
40
0.874999999999994
40
1
40
1
40
1
40
1
41
1
10
75.4737253450971
20
2.6064856619299
30
0
41
1
10
75.4565532274795
20
2.38331710311718
30
0
41
1
10
75.4561513500897
20
2.15552480557068
30
0
41
1
10
75.4811313623752
20
1.80678289353764
30
0
41
1
10
75.4938173017295
20
1.68879951692819
30
0
41
1
10
75.5274855930266
20
1.45325493336429
30
0
41
1
10
75.5483588085758
20
1.33612077493547
30
0
41
1
10
75.6223707060543
20
0.986518163331368
30
0
41
1
10
75.6868674955252
20
0.755844179534051
30
0
41
1
10
75.8434416368404
20
0.298853669765805
30
0
41
1
10
75.9362575950289
20
0.0713213983555079
30
0
41
1
10
76.2439081440883
20
-0.586527069700111
30
0
41
1
10
76.4888438089749
20
-0.998398485542509
30
0
41
1
10
76.8323645427027
20
-1.48820818935698
30
0
41
1
10
76.9031489484921
20
-1.58511802787734
30
0
41
1
10
77.0471288937817
20
-1.77495486960379
30
0
41
1
10
77.1203784982967
20
-1.86798048106479
30
0
41
1
10
77.343592195343
20
-2.14185074341373
30
0
41
1
10
77.4970003980223
20
-2.31752003773525
30
0
41
1
10
77.9692000324188
20
-2.82653342324508
30
0
41
1
10
78.3001792235227
20
-3.14156334971236
30
0
41
1
10
78.8167996805873
20
-3.58382695475987
30
0
41
1
10
78.9928171327523
20
-3.72664749106985
30
0
41
1
10
79.3475968026117
20
-4.00059126960761
30
0
41
1
10
79.526511553356
20
-4.13187242317449
30
0
41
1
10
80.0673863566553
20
-4.51030134479166
30
0
41
1
10
80.433455789504
20
-4.74211357960894
30
0
41
1
10
81.1749992775164
20
-5.17064154131774
30
0
41
1
10
81.550471275548
20
-5.36736494508892
30
0
41
1
10
81.9302566233719
20
-5.54799163491336
30
0
0
SPLINE
5
CA
100
AcDbEntity
8
1
62
256
6
ByLayer
370
18
48
1
60
0
100
AcDbSpline
70
4
71
3
72
8
73
4
40
0
40
0
40
0
40
0
40
1
40
1
40
1
40
1
41
1
10
2.29514646077763
20
-0.231195578917465
30
0
41
1
10
2.46731740684325
20
-0.319485069743735
30
0
41
1
10
2.64221096356681
20
-0.40429755195882
30
0
41
1
10
2.81965373975223
20
-0.485633239528767
30
0
0
SPLINE
5
CB
100
AcDbEntity
8
1
62
256
6
ByLayer
370
18
48
1
60
0
100
AcDbSpline
70
4
71
3
72
8
73
4
40
0
40
0
40
0
40
0
40
1
40
1
40
1
40
1
41
1
10
82.5125641780885
20
-7.09363872024807
30
0
41
1
10
82.4760264881963
20
-7.1844168212524
30
0
41
1
10
82.4394100196187
20
-7.27504096384538
30
0
41
1
10
82.4027207798687
20
-7.3655140153241
30
0
0
SPLINE
5
CC
100
AcDbEntity
8
1
62
256
6
ByLayer
370
18
48
1
60
0
100
AcDbSpline
70
4
71
3
72
10
73
6
40
0
40
0
40
0
40
0
40
0.5
40
0.5
40
1
40
1
40
1
40
1
41
1
10
84.9999703412402
20
0.0481951736533404
30
0
41
1
10
84.9952286100536
20
0.0265995319228125
30
0
41
1
10
84.9884110389016
20
0.0031316021374437
30
0
41
1
10
84.9713399789155
20
-0.041860934897386
30
0
41
1
10
84.9609729097962
20
-0.0634820676725667
30
0
41
1
10
84.950455751478
20
-0.0806848116137644
30
0
0
SPLINE
5
CD
100
AcDbEntity
8
1
62
256
6
ByLayer
370
18
48
1
60
0
100
AcDbSpline
70
4
71
3
72
18
73
14
40
0
40
0
40
0
40
0
40
0.25
40
0.25
40
0.375
40
0.375
40
0.5
40
0.5
40
0.75
40
0.75
40
0.875
40
0.875
40
1
40
1
40
1
40
1
41
1
10
81.9302566233719
20
-5.54799163491336
30
0
41
1
10
81.9303785479035
20
-5.80006799722383
30
0
41
1
10
81.9423786488807
20
-6.0206957506926
30
0
41
1
10
81.9787334321245
20
-6.30537489478596
30
0
41
1
10
81.9939343219196
20
-6.39251313246516
30
0
41
1
10
82.0308892120675
20
-6.55088622094036
30
0
41
1
10
82.0525013859298
20
-6.62136055008568
30
0
41
1
10
82.1261814183059
20
-6.80544107507185
30
0
41
1
10
82.187244970635
20
-6.89290178273023
30
0
41
1
10
82.298141387883
20
-6.97240654942152
30
0
41
1
10
82.338483077246
20
-6.99026481077979
30
0
41
1
10
82.4254007144486
20
-7.00818199533498
30
0
41
1
10
82.4718484403022
20
-7.00828412141448
30
0
41
1
10
82.5213886395783
20
-6.99969920033857
30
0
0
SPLINE
5
CE
100
AcDbEntity
8
1
62
256
6
ByLayer
370
18
48
1
60
0
100
AcDbSpline
70
4
71
3
72
50
73
46
40
0
40
0
40
0
40
0
40
0.0312499999999998
40
0.0312499999999998
40
0.0468749999999997
40
0.0468749999999997
40
0.0624999999999996
40
0.0624999999999996
40
0.0781249999999995
40
0.0781249999999995
40
0.0937499999999994
40
0.0937499999999994
40
0.109374999999999
40
0.109374999999999
40
0.124999999999999
40
0.124999999999999
40
0.156249999999999
40
0.156249999999999
40
0.187499999999999
40
0.187499999999999
40
0.218749999999998
40
0.218749999999998
40
0.249999999999998
40
0.249999999999998
40
0.312499999999998
40
0.312499999999998
40
0.374999999999997
40
0.374999999999997
40
0.406249999999997
40
0.406249999999997
40
0.437499999999997
40
0.437499999999997
40
0.499999999999997
40
0.499999999999997
40
0.562499999999998
40
0.562499999999998
40
0.624999999999998
40
0.624999999999998
40
0.749999999999999
40
0.749999999999999
40
0.875
40
0.875
40
0.9375
40
0.9375
40
1
40
1
40
1
40
1
41
1
10
2.81965373975223
20
-0.485633239528767
30
0
41
1
10
2.73877642262502
20
-0.669783411633944
30
0
41
1
10
2.6833698584075
20
-0.859735318475032
30
0
41
1
10
2.64295996774666
20
-1.15423721151109
30
0
41
1
10
2.63682000778974
20
-1.25378820912982
30
0
41
1
10
2.63910028989147
20
-1.44927304038478
30
0
41
1
10
2.6473668648114
20
-1.54606592209083
30
0
41
1
10
2.67715070804997
20
-1.73784803761947
30
0
41
1
10
2.69889027939124
20
-1.83345262392126
30
0
41
1
10
2.75332625717101
20
-2.01839385448784
30
0
41
1
10
2.78596679151559
20
-2.10810395345021
30
0
41
1
10
2.86035861151621
20
-2.2828377851925
30
0
41
1
10
2.90211806491161
20
-2.36785774240863
30
0
41
1
10
2.99352527531377
20
-2.53380458494558
30
0
41
1
10
3.04341634683104
20
-2.61504117325819
30
0
41
1
10
3.201178010391
20
-2.8501171927075
30
0
41
1
10
3.31717279924572
20
-2.99601439962834
30
0
41
1
10
3.5644318951467
20
-3.2722403805237
30
0
41
1
10
3.69576098655332
20
-3.40250715325522
30
0
41
1
10
3.97007002478202
20
-3.65091069662046
30
0
41
1
10
4.11326183271689
20
-3.76909097749038
30
0
41
1
10
4.40440879541228
20
-3.99239026652953
30
0
41
1
10
4.55295458969456
20
-4.09804697952293
30
0
41
1
10
5.00546419157183
20
-4.40067785241104
30
0
41
1
10
5.31619527302837
20
-4.5834967736069
30
0
41
1
10
5.94966899762781
20
-4.92213417820591
30
0
41
1
10
6.27247195743789
20
-5.07784936571616
30
0
41
1
10
6.76313517234797
20
-5.29598823598423
30
0
41
1
10
6.92781131935641
20
-5.36601222371917
30
0
41
1
10
7.2592970199843
20
-5.50067387739179
30
0
41
1
10
7.42632618347932
20
-5.56542042461783
30
0
41
1
10
7.92805409604887
20
-5.75149685717753
30
0
41
1
10
8.26357222864632
20
-5.86483583582762
30
0
41
1
10
8.936127976477
20
-6.07360847380943
30
0
41
1
10
9.27316536461305
20
-6.16923708445239
30
0
41
1
10
9.94866360185185
20
-6.34279893561302
30
0
41
1
10
10.2871294485814
20
-6.42059949697247
30
0
41
1
10
11.3048610843184
20
-6.63035010748612
30
0
41
1
10
11.9863242436003
20
-6.73942349029326
30
0
41
1
10
13.3594972583365
20
-6.89354415652463
30
0
41
1
10
14.0511723896876
20
-6.94052159536088
30
0
41
1
10
15.1016056926522
20
-6.96672824117681
30
0
41
1
10
15.4532673456294
20
-6.96796092068593
30
0
41
1
10
16.1591081004359
20
-6.95771386829864
30
0
41
1
10
16.5135477046696
20
-6.94635608703035
30
0
41
1
10
16.8700161282371
20
-6.92908471015485
30
0
0
SPLINE
5
CF
100
AcDbEntity
8
1
62
256
6
ByLayer
370
18
48
1
60
0
100
AcDbSpline
70
4
71
3
72
43
73
39
40
0
40
0
40
0
40
0
40
0.125000000000004
40
0.125000000000004
40
0.187500000000005
40
0.187500000000005
40
0.250000000000007
40
0.250000000000007
40
0.375000000000011
40
0.375000000000011
40
0.500000000000014
40
0.500000000000014
40
0.625000000000018
40
0.625000000000018
40
0.750000000000022
40
0.750000000000022
40
0.81250000000002
40
0.81250000000002
40
0.843750000000019
40
0.843750000000019
40
0.851562500000019
40
0.851562500000019
40
0.859375000000019
40
0.859375000000019
40
0.863281250000019
40
0.863281250000019
40
0.867187500000019
40
0.867187500000019
40
0.871093750000019
40
0.871093750000019
40
0.875000000000019
40
0.875000000000019
40
0.890625000000016
40
0.890625000000016
40
0.906250000000014
40
0.937500000000009
40
0.937500000000009
40
1
40
1
40
1
40
1
41
1
10
75.4737253450972
20
2.60648566193027
30
0
41
1
10
75.7682556747927
20
2.34563086368769
30
0
41
1
10
76.070888494699
20
2.1017956883687
30
0
41
1
10
76.536979284368
20
1.76154678460949
30
0
41
1
10
76.6943652695048
20
1.65237859599205
30
0
41
1
10
77.0134750345961
20
1.44315393999298
30
0
41
1
10
77.1755973364911
20
1.34285013158367
30
0
41
1
10
77.6658766444001
20
1.05765083835439
30
0
41
1
10
77.9948473675688
20
0.88999625371946
30
0
41
1
10
78.6570369489956
20
0.599775595927554
30
0
41
1
10
78.9902444088403
20
0.477088543217803
30
0
41
1
10
79.6613713319102
20
0.281726316901228
30
0
41
1
10
79.9993472373534
20
0.209650205129918
30
0
41
1
10
80.6810539738194
20
0.126579143695693
30
0
41
1
10
81.017058971361
20
0.116386659468105
30
0
41
1
10
81.5111587120239
20
0.156360511068385
30
0
41
1
10
81.674646586024
20
0.17906234327063
30
0
41
1
10
81.9152660927045
20
0.228432624076874
30
0
41
1
10
81.9947532269795
20
0.2474481935065
30
0
41
1
10
82.092952919655
20
0.27454420027081
30
0
41
1
10
82.1125364881615
20
0.280130087873971
30
0
41
1
10
82.151589349652
20
0.291639775954252
30
0
41
1
10
82.1712448782635
20
0.297118243417174
30
0
41
1
10
82.2001218683863
20
0.306769115360453
30
0
41
1
10
82.2095285715045
20
0.310458936650264
30
0
41
1
10
82.2270392488368
20
0.320651937141548
30
0
41
1
10
82.2353022976208
20
0.327060727916915
30
0
41
1
10
82.2494675815279
20
0.342554689434422
30
0
41
1
10
82.2555783640123
20
0.351837213001915
30
0
41
1
10
82.2639591383402
20
0.372829379775226
30
0
41
1
10
82.2658913258692
20
0.384925427796247
30
0
41
1
10
82.2732002481619
20
0.445896557383946
30
0
41
1
10
82.2779358425317
20
0.495104682854191
30
0
41
1
10
82.2866595485971
20
0.593763568252399
30
0
41
1
10
82.2979155985397
20
0.742298954374377
30
0
41
1
10
82.3039747156156
20
0.892388322240663
30
0
41
1
10
82.3098229384672
20
1.19444191057317
30
0
41
1
10
82.3053462398291
20
1.39764249363347
30
0
41
1
10
82.2941853377922
20
1.60079798569078
30
0
0
SPLINE
5
D0
100
AcDbEntity
8
1
62
256
6
ByLayer
370
18
48
1
60
0
100
AcDbSpline
70
4
71
3
72
12
73
8
40
0
40
0
40
0
40
0
40
0.25
40
0.25
40
0.5
40
0.5
40
1
40
1
40
1
40
1
41
1
10
1.91806920956702
20
6.32943717635777
30
0
41
1
10
1.89791494110528
20
6.33478880063439
30
0
41
1
10
1.87965250794525
20
6.34136162691081
30
0
41
1
10
1.84680971308896
20
6.35681562929889
30
0
41
1
10
1.83244997717901
20
6.36566164818203
30
0
41
1
10
1.79761202925292
20
6.39408849125954
30
0
41
1
10
1.78492303328136
20
6.41595661523004
30
0
41
1
10
1.78492303328139
20
6.43770257579757
30
0
0
SPLINE
5
D1
100
AcDbEntity
8
1
62
256
6
ByLayer
370
18
48
1
60
0
100
AcDbSpline
70
4
71
3
72
41
73
37
40
0
40
0
40
0
40
0
40
0.0312500000000011
40
0.0312500000000011
40
0.0625000000000023
40
0.0625000000000023
40
0.0937500000000034
40
0.0937500000000034
40
0.125000000000005
40
0.125000000000005
40
0.132812500000004
40
0.132812500000004
40
0.136718750000003
40
0.136718750000003
40
0.140625000000002
40
0.140625000000002
40
0.148437500000001
40
0.148437500000001
40
0.15234375
40
0.15234375
40
0.156249999999999
40
0.187499999999999
40
0.187499999999999
40
0.25
40
0.25
40
0.375
40
0.375
40
0.500000000000001
40
0.500000000000001
40
0.750000000000002
40
0.750000000000002
40
0.812500000000001
40
0.812500000000001
40
0.875000000000001
40
0.875000000000001
40
1
40
1
40
1
40
1
41
1
10
2.29514646077766
20
-0.231195578917493
30
0
41
1
10
2.37482100453534
20
-0.0872842049259077
30
0
41
1
10
2.4674171534154
20
0.0493482679401041
30
0
41
1
10
2.6735596617645
20
0.310627475493192
30
0
41
1
10
2.78463693880428
20
0.432219420397843
30
0
41
1
10
3.01886178467134
20
0.66180960286809
30
0
41
1
10
3.14203684095213
20
0.769776093869098
30
0
41
1
10
3.3981033773058
20
0.97480561852808
30
0
41
1
10
3.5312275423592
20
1.07200288533087
30
0
41
1
10
3.70204713340459
20
1.1873779648023
30
0
41
1
10
3.73641569469117
20
1.2101351128031
30
0
41
1
10
3.78826131883128
20
1.24381683342688
30
0
41
1
10
3.80552736270485
20
1.25506289667618
30
0
41
1
10
3.8401980896345
20
1.27734386229019
30
0
41
1
10
3.85792695765187
20
1.28784345568263
30
0
41
1
10
3.91397720701735
20
1.31110703891022
30
0
41
1
10
3.95461967369224
20
1.3194635397501
30
0
41
1
10
4.01570080733285
20
1.32426521253771
30
0
41
1
10
4.03609479042046
20
1.32474784219579
30
0
41
1
10
4.07687844037483
20
1.32585670638326
30
0
41
1
10
4.26040777388323
20
1.33062021599807
30
0
41
1
10
4.44403715347727
20
1.33335059059706
30
0
41
1
10
4.93360458900383
20
1.33587565846344
30
0
41
1
10
5.25978989973859
20
1.33122291801956
30
0
41
1
10
6.23778081116495
20
1.29869153755578
30
0
41
1
10
6.88998887270282
20
1.2521023239284
30
0
41
1
10
8.18143240890373
20
1.1121655475342
30
0
41
1
10
8.82196275722291
20
1.01874071134932
30
0
41
1
10
10.7290210805285
20
0.67235077912062
30
0
41
1
10
11.9807096958189
20
0.35190675746847
30
0
41
1
10
13.5255642846395
20
-0.140771199113118
30
0
41
1
10
13.8335619186611
20
-0.243848964720172
30
0
41
1
10
14.44779190175
20
-0.458326062896418
30
0
41
1
10
14.7541407847764
20
-0.569775068678695
30
0
41
1
10
15.6680041360554
20
-0.914066596329093
30
0
41
1
10
16.2712498475602
20
-1.15724951265716
30
0
41
1
10
16.8700161282371
20
-1.40978754131425
30
0
0
SPLINE
5
D2
100
AcDbEntity
8
1
62
256
6
ByLayer
370
18
48
1
60
0
100
AcDbSpline
70
4
71
3
72
14
73
10
40
0
40
0
40
0
40
0
40
0.25
40
0.25
40
0.5
40
0.5
40
0.75
40
0.75
40
1
40
1
40
1
40
1
41
1
10
82.7851812260877
20
7.1696490176316
30
0
41
1
10
82.9495398353526
20
6.70608625157112
30
0
41
1
10
83.1178122704944
20
6.24312967453216
30
0
41
1
10
83.4611997458343
20
5.31850240759985
30
0
41
1
10
83.6363486068691
20
4.85683706308942
30
0
41
1
10
83.9929157810555
20
3.9348614403205
30
0
41
1
10
84.1744607487453
20
3.47436523481326
30
0
41
1
10
84.5419628067536
20
2.55818113938974
30
0
41
1
10
84.7280987561451
20
2.10201625002227
30
0
41
1
10
84.9165267947559
20
1.64754599330308
30
0
0
LINE
5
76
100
AcDbEntity
8
81
62
256
6
ByLayer
370
18
48
1
60
0
100
AcDbLine
10
85
20
0
30
0
11
90
21
0
31
0
39
0
210
0
220
0
230
1
0
LINE
5
77
100
AcDbEntity
8
1
62
256
6
ByLayer
370
18
48
1
60
0
100
AcDbLine
10
1.784923
20
7.324375
30
0
11
0.350219
21
7.323478
31
0
39
0
210
0
220
0
230
1
0
LINE
5
79
100
AcDbEntity
8
1
62
256
6
ByLayer
370
18
48
1
60
0
100
AcDbLine
10
38.157721
20
7.347108
30
0
11
35.961185
21
7.345735
31
0
39
0
210
0
220
0
230
1
0
LINE
5
7A
100
AcDbEntity
8
1
62
256
6
ByLayer
370
18
48
1
60
0
100
AcDbLine
10
35.961185
20
-7.345735
30
0
11
38.15742
21
-7.347108
31
0
39
0
210
0
220
0
230
1
0
LINE
5
7B
100
AcDbEntity
8
1
62
256
6
ByLayer
370
18
48
1
60
0
100
AcDbLine
10
0.350219
20
-7.323478
30
0
11
1.784923
21
-7.324375
31
0
39
0
210
0
220
0
230
1
0
LINE
5
7C
100
AcDbEntity
8
1
62
256
6
ByLayer
370
18
48
1
60
0
100
AcDbLine
10
81.708617
20
7.374327
30
0
11
79.508495
21
7.372952
31
0
39
0
210
0
220
0
230
1
0
LINE
5
7D
100
AcDbEntity
8
1
62
256
6
ByLayer
370
18
48
1
60
0
100
AcDbLine
10
79.508495
20
-7.372952
30
0
11
81.708606
21
-7.374327
31
0
39
0
210
0
220
0
230
1
0
LINE
5
7E
100
AcDbEntity
8
SK1
62
256
6
ByLayer
370
18
48
1
60
0
100
AcDbLine
10
0
20
8
30
0
11
-45.979274
21
8
31
0
39
0
210
0
220
0
230
1
0
LINE
5
80
100
AcDbEntity
8
SK1
62
256
6
ByLayer
370
18
48
1
60
0
100
AcDbLine
10
-45.979274
20
-8
30
0
11
0
21
-8
31
0
39
0
210
0
220
0
230
1
0
LINE
5
81
100
AcDbEntity
8
SK1
62
256
6
ByLayer
370
18
48
1
60
0
100
AcDbLine
10
-45.979274
20
8
30
0
11
-48
21
4.5
31
0
39
0
210
0
220
0
230
1
0
LINE
5
82
100
AcDbEntity
8
SK1
62
256
6
ByLayer
370
18
48
1
60
0
100
AcDbLine
10
-48
20
-4.5
30
0
11
-45.979274
21
-8
31
0
39
0
210
0
220
0
230
1
0
LINE
5
83
100
AcDbEntity
8
SK4
62
256
6
ByLayer
370
18
48
0.05
60
0
100
AcDbLine
10
90
20
0
30
0
11
-53
21
0
31
0
39
0
210
0
220
0
230
1
0
LINE
5
85
100
AcDbEntity
8
4
62
256
6
ByLayer
370
18
48
0.05
60
0
100
AcDbLine
10
85
20
0
30
0
11
0
21
0
31
0
39
0
210
0
220
0
230
1
0
LINE
5
87
100
AcDbEntity
8
80
62
256
6
ByLayer
370
18
48
1
60
0
100
AcDbLine
10
0
20
0
30
0
11
-5
21
0
31
0
39
0
210
0
220
0
230
1
0
LINE
5
88
100
AcDbEntity
8
SK1
62
256
6
ByLayer
370
18
48
1
60
0
100
AcDbLine
10
-45.979274
20
8
30
0
11
-45.979274
21
-8
31
0
39
0
210
0
220
0
230
1
0
LINE
5
89
100
AcDbEntity
8
SK1
62
256
6
ByLayer
370
18
48
1
60
0
100
AcDbLine
10
-46
20
-7.056478
30
0
11
-46
21
-5.342451
31
0
39
0
210
0
220
0
230
1
0
LINE
5
8A
100
AcDbEntity
8
SK1
62
256
6
ByLayer
370
18
48
1
60
0
100
AcDbLine
10
-48
20
-2.402606
30
0
11
-48
21
-4.273053
31
0
39
0
210
0
220
0
230
1
0
LINE
5
8B
100
AcDbEntity
8
SK1
62
256
6
ByLayer
370
18
48
1
60
0
100
AcDbLine
10
-48
20
4.5
30
0
11
-48
21
-2.402693
31
0
39
0
210
0
220
0
230
1
0
LINE
5
8C
100
AcDbEntity
8
SK1
62
256
6
ByLayer
370
13
48
1
60
0
100
AcDbLine
10
-46.1
20
-5.126898
30
0
11
-46.1
21
-6.963539
31
0
39
0
210
0
220
0
230
1
0
LINE
5
8D
100
AcDbEntity
8
SK1
62
256
6
ByLayer
370
18
48
1
60
0
100
AcDbLine
10
0
20
8
30
0
11
0
21
-8
31
0
39
0
210
0
220
0
230
1
0
LINE
5
8E
100
AcDbEntity
8
SK1
62
256
6
ByLayer
370
18
48
1
60
0
100
AcDbLine
10
-48
20
-4.5
30
0
11
-48
21
-4.273053
31
0
39
0
210
0
220
0
230
1
0
LINE
5
8F
100
AcDbEntity
8
1
62
256
6
ByLayer
370
18
48
1
60
0
100
AcDbLine
10
1.784923
20
7.324375
30
0
11
1.784923
21
6.437703
31
0
39
0
210
0
220
0
230
1
0
LINE
5
90
100
AcDbEntity
8
1
62
256
6
ByLayer
370
18
48
1
60
0
100
AcDbLine
10
1.784923
20
-7.324375
30
0
11
1.784923
21
0.043033
31
0
39
0
210
0
220
0
230
1
0
LINE
5
91
100
AcDbEntity
8
1
62
256
6
ByLayer
370
13
48
1
60
0
100
AcDbLine
10
0.350219
20
7.323478
30
0
11
0.350219
21
-7.323478
31
0
39
0
210
0
220
0
230
1
0
LINE
5
92
100
AcDbEntity
8
1
62
256
6
ByLayer
370
13
48
1
60
0
100
AcDbLine
10
82.294185
20
1.600798
30
0
11
84.950456
21
-0.080685
31
0
39
0
210
0
220
0
230
1
0
LINE
5
93
100
AcDbEntity
8
1
62
256
6
ByLayer
370
13
48
1
60
0
100
AcDbLine
10
82.472285
20
1.727284
30
0
11
84.989143
21
0.134052
31
0
39
0
210
0
220
0
230
1
0
MTEXT
5
D3
100
AcDbEntity
8
SK6
62
256
6
ByLayer
370
13
48
1
60
0
100
AcDbMText
10
20.629169
20
39.757694
30
0
210
0
220
0
230
1
1
\W0.7478;460.1-1475-066A1-XM GC34
40
3.5
41
0
44
1.084337
50
0
71
8
72
5
7
iso_b_vert
0
DIMENSION
5
E0
100
AcDbEntity
8
SK2
62
256
6
ByLayer
370
13
48
1
60
0
100
AcDbDimension
2
DimnDraft3D1
10
82.8002
20
-17.588398
30
0
11
39.550259
21
-17.588398
31
0
70
32
71
5
72
1
41
1
210
0
220
0
230
1
3
Standard
100
AcDbAlignedDimension
13
0
23
-1.5875
33
0
14
82.8002
24
-8.9625
34
0
50
0
100
AcDbRotatedDimension
1001
ACAD
1000
DSTYLE
1002
{
1070
   279
1070
     0
1070
   172
1070
     1
1070
   173
1070
     1
1070
   340
1005
D4
1070
   271
1070
     2
1070
   272
1070
     2
1070
    77
1070
     1
1070
    73
1070
     0
1070
   171
1070
     3
1070
   274
1070
     4
1070
   177
1070
    35
1070
   176
1070
    35
1070
   178
1070
    35
1070
    48
1040
-0.005
1070
    41
1041
3.5
1070
   147
1041
1.75
1070
    42
1041
1.5875
1070
    44
1041
2.0
1070
   140
1041
3.5
1070
   343
1005
0
1070
   344
1005
0
1002
}
0
DIMENSION
5
EA
100
AcDbEntity
8
SK2
62
256
6
ByLayer
370
13
48
1
60
0
100
AcDbDimension
2
DimnDraft3D2
10
85
20
-36.692985
30
0
11
17.6415
21
-36.692985
31
0
70
32
71
5
72
1
41
1
210
0
220
0
230
1
3
Standard
100
AcDbAlignedDimension
13
-48
23
-9.5875
33
0
14
85
24
-1.5875
34
0
50
0
100
AcDbRotatedDimension
1001
ACAD
1000
DSTYLE
1002
{
1070
   279
1070
     0
1070
   172
1070
     1
1070
   173
1070
     1
1070
   340
1005
D4
1070
   271
1070
     2
1070
   272
1070
     2
1070
    77
1070
     1
1070
    73
1070
     0
1070
   171
1070
     3
1070
   274
1070
     4
1070
   177
1070
    35
1070
   176
1070
    35
1070
   178
1070
    35
1070
    48
1040
-0.005
1070
    41
1041
3.5
1070
   147
1041
1.75
1070
    42
1041
1.5875
1070
    44
1041
2.0
1070
   140
1041
3.5
1070
   343
1005
0
1070
   344
1005
0
1002
}
0
DIMENSION
5
F4
100
AcDbEntity
8
SK2
62
256
6
ByLayer
370
13
48
1
60
0
100
AcDbDimension
2
DimnDraft3D3
10
85
20
18.984119
30
0
11
50.875
21
18.984119
31
0
70
32
71
5
72
1
41
1
210
0
220
0
230
1
3
Standard
100
AcDbAlignedDimension
13
16.75
23
8.9625
33
0
14
85
24
1.5875
34
0
50
0
100
AcDbRotatedDimension
1001
ACAD
1000
DSTYLE
1002
{
1070
   279
1070
     0
1070
   172
1070
     1
1070
   173
1070
     1
1070
   340
1005
D4
1070
   271
1070
     2
1070
   272
1070
     2
1070
    77
1070
     1
1070
    73
1070
     0
1070
   171
1070
     3
1070
   274
1070
     4
1070
   177
1070
    35
1070
   176
1070
    35
1070
   178
1070
    35
1070
    48
1040
-0.005
1070
    41
1041
3.5
1070
   147
1041
1.75
1070
    42
1041
1.5875
1070
    44
1041
2.0
1070
   140
1041
3.5
1070
   343
1005
0
1070
   344
1005
0
1002
}
0
DIMENSION
5
FE
100
AcDbEntity
8
SK2
62
256
6
ByLayer
370
13
48
1
60
0
100
AcDbDimension
2
DimnDraft3D4
10
82.8002
20
-20.177503
30
0
11
94.981425
21
-20.177503
31
0
70
32
71
5
72
1
41
1
210
0
220
0
230
1
3
Standard
100
AcDbAlignedDimension
13
85
23
-1.5875
33
0
14
82.8002
24
-8.9625
34
0
50
0
100
AcDbRotatedDimension
1001
ACAD
1000
DSTYLE
1002
{
1070
   279
1070
     0
1070
   172
1070
     1
1070
   173
1070
     1
1070
   340
1005
D4
1070
   271
1070
     2
1070
   272
1070
     2
1070
    77
1070
     1
1070
    73
1070
     0
1070
   171
1070
     3
1070
   274
1070
     4
1070
   177
1070
    35
1070
   176
1070
    35
1070
   178
1070
    35
1070
    48
1040
-0.005
1070
    41
1041
3.5
1070
   147
1041
1.75
1070
    42
1041
1.5875
1070
    44
1041
2.0
1070
   140
1041
3.5
1070
   343
1005
0
1070
   344
1005
0
1002
}
0
DIMENSION
5
108
100
AcDbEntity
8
SK2
62
256
6
ByLayer
370
13
48
1
60
0
100
AcDbDimension
2
DimnDraft3D5
10
82.8002
20
-26.343428
30
0
11
14.560876
21
-26.343428
31
0
70
32
71
5
72
1
41
1
210
0
220
0
230
1
3
Standard
100
AcDbAlignedDimension
13
-48
23
-9.5875
33
0
14
82.8002
24
-8.9625
34
0
50
0
100
AcDbRotatedDimension
1001
ACAD
1000
DSTYLE
1002
{
1070
   279
1070
     0
1070
   172
1070
     1
1070
   173
1070
     1
1070
   340
1005
D4
1070
   271
1070
     2
1070
   272
1070
     2
1070
    77
1070
     1
1070
    73
1070
     0
1070
   171
1070
     3
1070
   274
1070
     4
1070
   177
1070
    35
1070
   176
1070
    35
1070
   178
1070
    35
1070
    48
1040
-0.005
1070
    41
1041
3.5
1070
   147
1041
1.75
1070
    42
1041
1.5875
1070
    44
1041
2.0
1070
   140
1041
3.5
1070
   343
1005
0
1070
   344
1005
0
1002
}
0
DIMENSION
5
113
100
AcDbEntity
8
SK2
62
256
6
ByLayer
370
13
48
1
60
0
100
AcDbDimension
2
DimnDraft3D6
10
-58.625163
20
8
30
0
11
-59.250163
21
26.47418
31
0
70
33
71
5
72
1
41
1
210
0
220
0
230
1
3
Standard
100
AcDbAlignedDimension
13
-49.5875
23
-8
33
0
14
-49.5875
24
8
34
0
1001
ACAD
1000
DSTYLE
1002
{
1070
   279
1070
     0
1070
    74
1070
     0
1070
   173
1070
     1
1070
   340
1005
D4
1070
   271
1070
     3
1070
   272
1070
     2
1070
    77
1070
     1
1070
    73
1070
     0
1070
   171
1070
     3
1070
   274
1070
     4
1070
   177
1070
    35
1070
   176
1070
    35
1070
   178
1070
    35
1070
    48
1040
-0.005
1070
    41
1041
3.5
1070
   147
1041
1.75
1070
    42
1041
1.5875
1070
    44
1041
2.0
1070
   140
1041
3.5
1070
   343
1005
0
1070
   344
1005
0
1002
}
0
DIMENSION
5
11E
100
AcDbEntity
8
2
62
256
6
ByLayer
370
13
48
1
60
0
100
AcDbDimension
2
DimnDraft3D7
10
99.083343
20
7.375
30
0
11
94.458343
21
24.442266
31
0
70
33
71
5
72
1
41
1
210
0
220
0
230
1
3
Standard
100
AcDbAlignedDimension
13
84.3877
23
-7.375
33
0
14
84.3877
24
7.375
34
0
1001
ACAD
1000
DSTYLE
1002
{
1070
   279
1070
     0
1070
    74
1070
     0
1070
   173
1070
     1
1070
   340
1005
D4
1070
   271
1070
     3
1070
   272
1070
     2
1070
    77
1070
     1
1070
    73
1070
     0
1070
   171
1070
     3
1070
   274
1070
     4
1070
   177
1070
    35
1070
   176
1070
    35
1070
   178
1070
    35
1070
    48
1040
-0.005
1070
    41
1041
3.5
1070
   147
1041
1.75
1070
    42
1041
1.5875
1070
    44
1041
2.0
1070
   140
1041
3.5
1070
   343
1005
0
1070
   344
1005
0
1002
}
0
ENDSEC
0
SECTION
2
OBJECTS
0
DICTIONARY
5
189
330
0
100
AcDbDictionary
280
0
281
1
3
ACAD_GROUP
350
18a
3
ACAD_MLINESTYLE
350
18b
0
DICTIONARY
5
18a
330
0
100
AcDbDictionary
280
0
281
1
0
DICTIONARY
5
18b
330
0
100
AcDbDictionary
280
0
281
1
3
Standard
350
18
0
MLINESTYLE
5
18
330
18b
100
AcDbMlineStyle
2
Standard
70
0
3

62
256
51
90
52
90
71
2
49
-0.5
62
256
6
ByLayer
49
0.5
62
256
6
ByLayer
0
RASTERVARIABLES
5
177
330

100
AcDbRasterVariables
90
0
70
1
71
1
72
1
0
ENDSEC
0
EOF
