0
SECTION
2
HEADER
9
$ACADVER
1
AC1015
9
$DWGCODEPAGE
3
ANSI_1252
9
$HANDSEED
5
1ae
9
$ANGBASE
50
0
9
$ANGDIR
70
0
9
$ATTMODE
70
1
9
$AUNITS
70
0
9
$AUPREC
70
0
9
$CECOLOR
62
256
9
$CELTSCALE
40
1
9
$CELTYPE
6
ByLayer
9
$CELWEIGHT
370
18
9
$CLAYER
8
0
9
$CMLJUST
70
0
9
$CMLSCALE
40
1
9
$CMLSTYLE
2
Standard
9
$DIMSTYLE
2
Standard
9
$TEXTSIZE
40
0.2
9
$TEXTSTYLE
7
Standard
9
$LUNITS
70
2
9
$LUPREC
70
4
9
$EXTNAMES
290
1
9
$INSUNITS
70
4
9
$LTSCALE
40
1
9
$LWDISPLAY
290
1
9
$PDMODE
70
0
9
$PDSIZE
40
0
9
$PLINEGEN
70
0
0
ENDSEC
0
SECTION
2
CLASSES
0
CLASS
1
RASTERVARIABLES
2
AcDbRasterVariables
3
ISM
90
0
280
0
281
0
0
ENDSEC
0
SECTION
2
TABLES
0
TABLE
2
VPORT
5
1a4
100
AcDbSymbolTable
0
VPORT
5
1
100
AcDbSymbolTableRecord
100
AcDbViewportTableRecord
2
*Active
70
0
10
0
20
0
11
1
21
1
12
-1
22
1
13
0
23
0
14
0.5
24
0.5
15
10
25
10
16
0
26
0
36
1
17
0
27
0
37
0
0
ENDTAB
0
TABLE
2
LTYPE
5
1a5
100
AcDbSymbolTable
0
LTYPE
5
14
100
AcDbSymbolTableRecord
100
AcDbLinetypeTableRecord
70
0
2
ByBlock
3

72
65
73
0
40
0
0
LTYPE
5
15
100
AcDbSymbolTableRecord
100
AcDbLinetypeTableRecord
70
0
2
ByLayer
3

72
65
73
0
40
0
0
LTYPE
5
16
100
AcDbSymbolTableRecord
100
AcDbLinetypeTableRecord
70
0
2
CONTINUOUS
3
Solid line
72
65
73
0
40
0
0
LTYPE
5
6A
100
AcDbSymbolTableRecord
100
AcDbLinetypeTableRecord
70
0
2
CENTER
3
____ _ ____ _ ____ _ ____
72
65
73
4
40
47.5
49
22
74
0
49
-8.5
74
0
49
8.5
74
0
49
-8.5
74
0
0
LTYPE
5
6B
100
AcDbSymbolTableRecord
100
AcDbLinetypeTableRecord
70
0
2
DASHED
3
__ __ __ __ __ __ __ __ __
72
65
73
2
40
25.72
49
12.86
74
0
49
-12.86
74
0
0
ENDTAB
0
TABLE
2
LAYER
5
1a6
100
AcDbSymbolTable
0
LAYER
5
10
100
AcDbSymbolTableRecord
100
AcDbLayerTableRecord
2
0
70
0
62
7
6
CONTINUOUS
290
1
370
-3
390
0
0
LAYER
5
6D
100
AcDbSymbolTableRecord
100
AcDbLayerTableRecord
2
81
70
0
62
-3
6
CONTINUOUS
290
1
370
-3
390
0
0
LAYER
5
6F
100
AcDbSymbolTableRecord
100
AcDbLayerTableRecord
2
80
70
0
62
-6
6
CONTINUOUS
290
1
370
-3
390
0
0
LAYER
5
74
100
AcDbSymbolTableRecord
100
AcDbLayerTableRecord
2
2
70
0
62
7
6
CONTINUOUS
290
1
370
-3
390
0
0
LAYER
5
78
100
AcDbSymbolTableRecord
100
AcDbLayerTableRecord
2
1
70
0
62
4
6
CONTINUOUS
290
1
370
-3
390
0
0
LAYER
5
8A
100
AcDbSymbolTableRecord
100
AcDbLayerTableRecord
2
4
70
0
62
-2
6
CENTER
290
1
370
-3
390
0
0
LAYER
5
190
100
AcDbSymbolTableRecord
100
AcDbLayerTableRecord
2
SK2
70
0
62
7
6
CONTINUOUS
290
1
370
-3
390
0
0
LAYER
5
191
100
AcDbSymbolTableRecord
100
AcDbLayerTableRecord
2
SK1
70
0
62
4
6
CONTINUOUS
290
1
370
-3
390
0
0
LAYER
5
192
100
AcDbSymbolTableRecord
100
AcDbLayerTableRecord
2
SK4
70
0
62
2
6
CENTER
290
1
370
-3
390
0
0
LAYER
5
193
100
AcDbSymbolTableRecord
100
AcDbLayerTableRecord
2
SK6
70
0
62
5
6
CONTINUOUS
290
1
370
-3
390
0
0
ENDTAB
0
TABLE
2
STYLE
5
1a7
100
AcDbSymbolTable
0
STYLE
5
11
100
AcDbSymbolTableRecord
100
AcDbTextStyleTableRecord
2
Standard
3
txt
70
0
71
0
40
0
41
1
42
0
50
0
0
STYLE
5
EC
100
AcDbSymbolTableRecord
100
AcDbTextStyleTableRecord
2
iso_b_vert
3
simplex.shx
70
0
71
0
40
0
41
1
42
0
50
0
0
STYLE
5
ED
100
AcDbSymbolTableRecord
100
AcDbTextStyleTableRecord
2
DWGDirectTextStyle
3
simplex
70
0
71
0
40
0
41
1
42
0
50
0
0
ENDTAB
0
TABLE
2
DIMSTYLE
5
1a8
100
AcDbSymbolTable
100
AcDbDimStyleTable
0
DIMSTYLE
105
27
100
AcDbSymbolTableRecord
100
AcDbDimStyleTableRecord
2
Standard
70
0
3
<>
41
0.18
42
0.0625
44
0.18
140
0.18
147
0.09
73
0
74
0
77
1
271
2
275
0
278
52
280
0
340
11
0
ENDTAB
0
TABLE
2
VIEW
5
1a9
100
AcDbSymbolTable
0
ENDTAB
0
TABLE
2
UCS
5
1aa
100
AcDbSymbolTable
0
ENDTAB
0
TABLE
2
APPID
5
1ab
100
AcDbSymbolTable
0
APPID
5
12
100
AcDbSymbolTableRecord
100
AcDbRegAppTableRecord
2
ACAD
70
0
0
ENDTAB
0
TABLE
2
BLOCK_RECORD
5
1ac
100
AcDbSymbolTable
0
BLOCK_RECORD
5
1F
100
AcDbSymbolTableRecord
100
AcDbBlockTableRecord
2
*Model_Space
340
0
70
0
0
BLOCK_RECORD
5
1B
100
AcDbSymbolTableRecord
100
AcDbBlockTableRecord
2
*Paper_Space
340
0
70
0
0
BLOCK_RECORD
5
23
100
AcDbSymbolTableRecord
100
AcDbBlockTableRecord
2
*Paper_Space0
340
0
70
0
0
BLOCK_RECORD
5
EF
100
AcDbSymbolTableRecord
100
AcDbBlockTableRecord
2
DimnDraft3D1
340
0
70
0
0
BLOCK_RECORD
5
F9
100
AcDbSymbolTableRecord
100
AcDbBlockTableRecord
2
DimnDraft3D2
340
0
70
0
0
BLOCK_RECORD
5
103
100
AcDbSymbolTableRecord
100
AcDbBlockTableRecord
2
DimnDraft3D3
340
0
70
0
0
BLOCK_RECORD
5
10D
100
AcDbSymbolTableRecord
100
AcDbBlockTableRecord
2
DimnDraft3D4
340
0
70
0
0
BLOCK_RECORD
5
117
100
AcDbSymbolTableRecord
100
AcDbBlockTableRecord
2
DimnDraft3D5
340
0
70
0
0
BLOCK_RECORD
5
121
100
AcDbSymbolTableRecord
100
AcDbBlockTableRecord
2
DimnDraft3D6
340
0
70
0
0
BLOCK_RECORD
5
12C
100
AcDbSymbolTableRecord
100
AcDbBlockTableRecord
2
DimnDraft3D7
340
0
70
0
0
ENDTAB
0
ENDSEC
0
SECTION
2
BLOCKS
0
BLOCK
5
20
100
AcDbEntity
8
0
100
AcDbBlockBegin
2
*Model_Space
70
0
10
0
20
0
30
0
3
*Model_Space
0
ENDBLK
5
21
100
AcDbEntity
8
0
100
AcDbBlockEnd
0
BLOCK
5
1C
100
AcDbEntity
8
0
100
AcDbBlockBegin
2
*Paper_Space
70
0
10
0
20
0
30
0
3
*Paper_Space
0
ENDBLK
5
1D
100
AcDbEntity
8
0
100
AcDbBlockEnd
0
BLOCK
5
24
100
AcDbEntity
8
0
100
AcDbBlockBegin
2
*Paper_Space0
70
0
10
0
20
0
30
0
3
*Paper_Space0
0
ENDBLK
5
25
100
AcDbEntity
8
0
100
AcDbBlockEnd
0
BLOCK
5
F6
100
AcDbEntity
8
0
100
AcDbBlockBegin
2
DimnDraft3D1
70
0
10
0
20
0
30
0
3
DimnDraft3D1
0
MTEXT
5
F0
100
AcDbEntity
8
SK2
62
256
6
ByLayer
370
13
48
1
60
0
100
AcDbMText
10
81.30048
20
-16.482398
30
0
210
0
220
0
230
1
1
\W0.6930;176,87
40
3.5
41
0
44
1.084337
50
0
71
7
72
5
7
iso_b_vert
0
LINE
5
F1
100
AcDbEntity
8
SK2
62
256
6
ByLayer
370
13
48
1
60
0
100
AcDbLine
10
0
20
-1.5875
30
0
11
0
21
-19.357398
31
0
39
0
210
0
220
0
230
1
0
LINE
5
F2
100
AcDbEntity
8
SK2
62
256
6
ByLayer
370
13
48
1
60
0
100
AcDbLine
10
176.8695
20
-8.7315
30
0
11
176.8695
21
-19.357398
31
0
39
0
210
0
220
0
230
1
0
LINE
5
F3
100
AcDbEntity
8
SK2
62
256
6
ByLayer
370
13
48
1
60
0
100
AcDbLine
10
0
20
-17.357398
30
0
11
176.8695
21
-17.357398
31
0
39
0
210
0
220
0
230
1
0
SOLID
5
F4
100
AcDbEntity
8
SK2
62
256
6
ByLayer
370
13
48
1
60
0
100
AcDbTrace
10
0
20
-17.357398
30
0
11
3.499998
21
-16.896615
31
0
12
3.500002
22
-17.818182
32
0
13
0
23
-17.357398
33
0
39
0
210
0
220
0
230
1
0
SOLID
5
F5
100
AcDbEntity
8
SK2
62
256
6
ByLayer
370
13
48
1
60
0
100
AcDbTrace
10
176.8695
20
-17.357398
30
0
11
173.369502
21
-17.818182
31
0
12
173.369498
22
-16.896615
32
0
13
176.8695
23
-17.357398
33
0
39
0
210
0
220
0
230
1
0
ENDBLK
5
F7
100
AcDbEntity
8
0
100
AcDbBlockEnd
0
BLOCK
5
100
100
AcDbEntity
8
0
100
AcDbBlockBegin
2
DimnDraft3D2
70
0
10
0
20
0
30
0
3
DimnDraft3D2
0
MTEXT
5
FA
100
AcDbEntity
8
SK2
62
256
6
ByLayer
370
13
48
1
60
0
100
AcDbMText
10
58.954221
20
-35.817985
30
0
210
0
220
0
230
1
1
\W0.7421;227,00
40
3.5
41
0
44
1.084337
50
0
71
7
72
5
7
iso_b_vert
0
LINE
5
FB
100
AcDbEntity
8
SK2
62
256
6
ByLayer
370
13
48
1
60
0
100
AcDbLine
10
-48
20
-9.5875
30
0
11
-48
21
-38.692985
31
0
39
0
210
0
220
0
230
1
0
LINE
5
FC
100
AcDbEntity
8
SK2
62
256
6
ByLayer
370
13
48
1
60
0
100
AcDbLine
10
179
20
-1.5875
30
0
11
179
21
-38.692985
31
0
39
0
210
0
220
0
230
1
0
LINE
5
FD
100
AcDbEntity
8
SK2
62
256
6
ByLayer
370
13
48
1
60
0
100
AcDbLine
10
-48
20
-36.692985
30
0
11
179
21
-36.692985
31
0
39
0
210
0
220
0
230
1
0
SOLID
5
FE
100
AcDbEntity
8
SK2
62
256
6
ByLayer
370
13
48
1
60
0
100
AcDbTrace
10
-48
20
-36.692985
30
0
11
-44.500002
21
-36.232202
31
0
12
-44.499998
22
-37.153769
32
0
13
-48
23
-36.692985
33
0
39
0
210
0
220
0
230
1
0
SOLID
5
FF
100
AcDbEntity
8
SK2
62
256
6
ByLayer
370
13
48
1
60
0
100
AcDbTrace
10
179
20
-36.692985
30
0
11
175.500002
21
-37.153769
31
0
12
175.499998
22
-36.232202
32
0
13
179
23
-36.692985
33
0
39
0
210
0
220
0
230
1
0
ENDBLK
5
101
100
AcDbEntity
8
0
100
AcDbBlockEnd
0
BLOCK
5
10A
100
AcDbEntity
8
0
100
AcDbBlockBegin
2
DimnDraft3D3
70
0
10
0
20
0
30
0
3
DimnDraft3D3
0
MTEXT
5
104
100
AcDbEntity
8
SK2
62
256
6
ByLayer
370
13
48
1
60
0
100
AcDbMText
10
115.709211
20
19.628119
30
0
210
0
220
0
230
1
1
\W0.6654;116,45
40
3.5
41
0
44
1.084337
50
0
71
7
72
5
7
iso_b_vert
0
LINE
5
105
100
AcDbEntity
8
SK2
62
256
6
ByLayer
370
13
48
1
60
0
100
AcDbLine
10
62.55
20
8.7315
30
0
11
62.55
21
20.753119
31
0
39
0
210
0
220
0
230
1
0
LINE
5
106
100
AcDbEntity
8
SK2
62
256
6
ByLayer
370
13
48
1
60
0
100
AcDbLine
10
179
20
1.5875
30
0
11
179
21
20.753119
31
0
39
0
210
0
220
0
230
1
0
LINE
5
107
100
AcDbEntity
8
SK2
62
256
6
ByLayer
370
13
48
1
60
0
100
AcDbLine
10
62.55
20
18.753119
30
0
11
179
21
18.753119
31
0
39
0
210
0
220
0
230
1
0
SOLID
5
108
100
AcDbEntity
8
SK2
62
256
6
ByLayer
370
13
48
1
60
0
100
AcDbTrace
10
62.55
20
18.753119
30
0
11
66.049998
21
19.213903
31
0
12
66.050002
22
18.292335
32
0
13
62.55
23
18.753119
33
0
39
0
210
0
220
0
230
1
0
SOLID
5
109
100
AcDbEntity
8
SK2
62
256
6
ByLayer
370
13
48
1
60
0
100
AcDbTrace
10
179
20
18.753119
30
0
11
175.500002
21
18.292335
31
0
12
175.499998
22
19.213903
32
0
13
179
23
18.753119
33
0
39
0
210
0
220
0
230
1
0
ENDBLK
5
10B
100
AcDbEntity
8
0
100
AcDbBlockEnd
0
BLOCK
5
114
100
AcDbEntity
8
0
100
AcDbBlockBegin
2
DimnDraft3D4
70
0
10
0
20
0
30
0
3
DimnDraft3D4
0
MTEXT
5
10E
100
AcDbEntity
8
SK2
62
256
6
ByLayer
370
13
48
1
60
0
100
AcDbMText
10
186.278136
20
-19.071503
30
0
210
0
220
0
230
1
1
\W0.6367;2,13
40
3.5
41
0
44
1.084337
50
0
71
7
72
5
7
iso_b_vert
0
LINE
5
10F
100
AcDbEntity
8
SK2
62
256
6
ByLayer
370
13
48
1
60
0
100
AcDbLine
10
179
20
-1.5875
30
0
11
179
21
-21.946503
31
0
39
0
210
0
220
0
230
1
0
LINE
5
110
100
AcDbEntity
8
SK2
62
256
6
ByLayer
370
13
48
1
60
0
100
AcDbLine
10
176.8695
20
-8.7315
30
0
11
176.8695
21
-21.946503
31
0
39
0
210
0
220
0
230
1
0
LINE
5
111
100
AcDbEntity
8
SK2
62
256
6
ByLayer
370
13
48
1
60
0
100
AcDbLine
10
168.1195
20
-19.946503
30
0
11
192.559715
21
-19.946503
31
0
39
0
210
0
220
0
230
1
0
SOLID
5
112
100
AcDbEntity
8
SK2
62
256
6
ByLayer
370
13
48
1
60
0
100
AcDbTrace
10
179
20
-19.946503
30
0
11
182.499998
21
-19.485719
31
0
12
182.500002
22
-20.407287
32
0
13
179
23
-19.946503
33
0
39
0
210
0
220
0
230
1
0
SOLID
5
113
100
AcDbEntity
8
SK2
62
256
6
ByLayer
370
13
48
1
60
0
100
AcDbTrace
10
176.8695
20
-19.946503
30
0
11
173.369502
21
-20.407287
31
0
12
173.369498
22
-19.485719
32
0
13
176.8695
23
-19.946503
33
0
39
0
210
0
220
0
230
1
0
ENDBLK
5
115
100
AcDbEntity
8
0
100
AcDbBlockEnd
0
BLOCK
5
11E
100
AcDbEntity
8
0
100
AcDbBlockBegin
2
DimnDraft3D5
70
0
10
0
20
0
30
0
3
DimnDraft3D5
0
MTEXT
5
118
100
AcDbEntity
8
SK2
62
256
6
ByLayer
370
13
48
1
60
0
100
AcDbMText
10
55.689387
20
-25.468428
30
0
210
0
220
0
230
1
1
\W0.7636;224,87
40
3.5
41
0
44
1.084337
50
0
71
7
72
5
7
iso_b_vert
0
LINE
5
119
100
AcDbEntity
8
SK2
62
256
6
ByLayer
370
13
48
1
60
0
100
AcDbLine
10
-48
20
-9.5875
30
0
11
-48
21
-28.343428
31
0
39
0
210
0
220
0
230
1
0
LINE
5
11A
100
AcDbEntity
8
SK2
62
256
6
ByLayer
370
13
48
1
60
0
100
AcDbLine
10
176.8695
20
-8.7315
30
0
11
176.8695
21
-28.343428
31
0
39
0
210
0
220
0
230
1
0
LINE
5
11B
100
AcDbEntity
8
SK2
62
256
6
ByLayer
370
13
48
1
60
0
100
AcDbLine
10
-48
20
-26.343428
30
0
11
176.8695
21
-26.343428
31
0
39
0
210
0
220
0
230
1
0
SOLID
5
11C
100
AcDbEntity
8
SK2
62
256
6
ByLayer
370
13
48
1
60
0
100
AcDbTrace
10
-48
20
-26.343428
30
0
11
-44.500002
21
-25.882645
31
0
12
-44.499998
22
-26.804212
32
0
13
-48
23
-26.343428
33
0
39
0
210
0
220
0
230
1
0
SOLID
5
11D
100
AcDbEntity
8
SK2
62
256
6
ByLayer
370
13
48
1
60
0
100
AcDbTrace
10
176.8695
20
-26.343428
30
0
11
173.369502
21
-26.804212
31
0
12
173.369498
22
-25.882645
32
0
13
176.8695
23
-26.343428
33
0
39
0
210
0
220
0
230
1
0
ENDBLK
5
11F
100
AcDbEntity
8
0
100
AcDbBlockEnd
0
BLOCK
5
129
100
AcDbEntity
8
0
100
AcDbBlockBegin
2
DimnDraft3D6
70
0
10
0
20
0
30
0
3
DimnDraft3D6
0
MTEXT
5
122
100
AcDbEntity
8
SK2
62
256
6
ByLayer
370
13
48
1
60
0
100
AcDbMText
10
-58.375163
20
27.34918
30
0
210
0
220
0
230
1
1
\W0.6930;16,000
40
3.5
41
0
44
1.084337
50
90
71
7
72
5
7
iso_b_vert
0
MTEXT
5
123
100
AcDbEntity
8
SK2
62
256
6
ByLayer
370
13
48
1
60
0
100
AcDbMText
10
-58.375163
20
22.126524
30
0
210
0
220
0
230
1
1
%%c
40
3.5
41
0
44
1.084337
50
90
71
7
72
5
7
iso_b_vert
0
LINE
5
124
100
AcDbEntity
8
SK2
62
256
6
ByLayer
370
13
48
1
60
0
100
AcDbLine
10
-49.5875
20
-8
30
0
11
-58.625163
21
-8
31
0
39
0
210
0
220
0
230
1
0
LINE
5
125
100
AcDbEntity
8
SK2
62
256
6
ByLayer
370
13
48
1
60
0
100
AcDbLine
10
-49.5875
20
8
30
0
11
-58.625163
21
8
31
0
39
0
210
0
220
0
230
1
0
LINE
5
126
100
AcDbEntity
8
SK2
62
256
6
ByLayer
370
13
48
1
60
0
100
AcDbLine
10
-56.625163
20
-8
30
0
11
-56.625163
21
38.862338
31
0
39
0
210
0
220
0
230
1
0
SOLID
5
127
100
AcDbEntity
8
SK2
62
256
6
ByLayer
370
13
48
1
60
0
100
AcDbTrace
10
-56.625163
20
-8
30
0
11
-57.085946
21
-4.500002
31
0
12
-56.164379
22
-4.499998
32
0
13
-56.625163
23
-8
33
0
39
0
210
0
220
0
230
1
0
SOLID
5
128
100
AcDbEntity
8
SK2
62
256
6
ByLayer
370
13
48
1
60
0
100
AcDbTrace
10
-56.625163
20
8
30
0
11
-56.164379
21
4.500002
31
0
12
-57.085946
22
4.499998
32
0
13
-56.625163
23
8
33
0
39
0
210
0
220
0
230
1
0
ENDBLK
5
12A
100
AcDbEntity
8
0
100
AcDbBlockEnd
0
BLOCK
5
134
100
AcDbEntity
8
0
100
AcDbBlockBegin
2
DimnDraft3D7
70
0
10
0
20
0
30
0
3
DimnDraft3D7
0
MTEXT
5
12D
100
AcDbEntity
8
2
62
256
6
ByLayer
370
13
48
1
60
0
100
AcDbMText
10
189.333343
20
25.086266
30
0
210
0
220
0
230
1
1
\W0.7145;14,288
40
3.5
41
0
44
1.084337
50
90
71
7
72
5
7
iso_b_vert
0
MTEXT
5
12E
100
AcDbEntity
8
2
62
256
6
ByLayer
370
13
48
1
60
0
100
AcDbMText
10
189.333343
20
19.86361
30
0
210
0
220
0
230
1
1
%%c
40
3.5
41
0
44
1.084337
50
90
71
7
72
5
7
iso_b_vert
0
LINE
5
12F
100
AcDbEntity
8
2
62
256
6
ByLayer
370
13
48
1
60
0
100
AcDbLine
10
178.457
20
-7.144
30
0
11
193.083343
21
-7.144
31
0
39
0
210
0
220
0
230
1
0
LINE
5
130
100
AcDbEntity
8
2
62
256
6
ByLayer
370
13
48
1
60
0
100
AcDbLine
10
178.457
20
7.144
30
0
11
193.083343
21
7.144
31
0
39
0
210
0
220
0
230
1
0
LINE
5
131
100
AcDbEntity
8
2
62
256
6
ByLayer
370
13
48
1
60
0
100
AcDbLine
10
191.083343
20
-7.144
30
0
11
191.083343
21
36.967845
31
0
39
0
210
0
220
0
230
1
0
SOLID
5
132
100
AcDbEntity
8
2
62
256
6
ByLayer
370
13
48
1
60
0
100
AcDbTrace
10
191.083343
20
-7.144
30
0
11
190.622559
21
-3.644002
31
0
12
191.544126
22
-3.643998
32
0
13
191.083343
23
-7.144
33
0
39
0
210
0
220
0
230
1
0
SOLID
5
133
100
AcDbEntity
8
2
62
256
6
ByLayer
370
13
48
1
60
0
100
AcDbTrace
10
191.083343
20
7.144
30
0
11
191.544126
21
3.644002
31
0
12
190.622559
22
3.643998
32
0
13
191.083343
23
7.144
33
0
39
0
210
0
220
0
230
1
0
ENDBLK
5
135
100
AcDbEntity
8
0
100
AcDbBlockEnd
0
ENDSEC
0
SECTION
2
ENTITIES
0
ARC
5
9A
100
AcDbEntity
8
1
62
256
6
ByLayer
370
18
48
1
60
0
100
AcDbCircle
39
0
10
-0.35
20
7.38378
30
0
40
0.350000000000001
210
0
220
0
230
-1
100
AcDbArc
50
269.96419
51
0
0
ARC
5
9B
100
AcDbEntity
8
1
62
256
6
ByLayer
370
18
48
1
60
0
100
AcDbCircle
39
0
10
-0.35
20
-7.38378
30
0
40
0.350000000000001
210
0
220
0
230
-1
100
AcDbArc
50
0
51
90.03581
0
ELLIPSE
5
9C
100
AcDbEntity
8
1
62
256
6
ByLayer
370
18
48
1
60
0
100
AcDbEllipse
10
6.952432
20
6.930833
30
0
11
-0.25
21
3.06151588455594E-17
31
0
210
0
220
0
230
1
40
1
41
2.26936776092695E-05
42
1.58079949197144
0
ELLIPSE
5
9D
100
AcDbEntity
8
1
62
256
6
ByLayer
370
18
48
1
60
0
100
AcDbEllipse
10
6.952432
20
-6.930833
30
0
11
-0.25
21
3.06151588455594E-17
31
0
210
0
220
0
230
1
40
1
41
-1.56301200976432
42
-2.26936771580749E-05
0
POINT
5
6C
100
AcDbEntity
8
81
62
256
6
ByLayer
370
18
48
1
60
0
100
AcDbPoint
10
179
20
0
30
0
39
0
210
0
220
0
230
1
50
360
0
POINT
5
6E
100
AcDbEntity
8
80
62
256
6
ByLayer
370
18
48
1
60
0
100
AcDbPoint
10
0
20
0
30
0
39
0
210
0
220
0
230
1
50
360
0
POINT
5
70
100
AcDbEntity
8
SK2
62
256
6
ByLayer
370
18
48
1
60
1
100
AcDbPoint
10
-48
20
-8
30
0
39
0
210
0
220
0
230
1
50
360
0
POINT
5
72
100
AcDbEntity
8
SK2
62
256
6
ByLayer
370
18
48
1
60
1
100
AcDbPoint
10
-48
20
8
30
0
39
0
210
0
220
0
230
1
50
360
0
POINT
5
73
100
AcDbEntity
8
2
62
256
6
ByLayer
370
18
48
1
60
1
100
AcDbPoint
10
176.8695
20
-7.144
30
0
39
0
210
0
220
0
230
1
50
360
0
POINT
5
75
100
AcDbEntity
8
2
62
256
6
ByLayer
370
18
48
1
60
1
100
AcDbPoint
10
176.8695
20
7.144
30
0
39
0
210
0
220
0
230
1
50
360
0
SPLINE
5
9E
100
AcDbEntity
8
1
62
256
6
ByLayer
370
18
48
1
60
0
100
AcDbSpline
70
4
71
3
72
18
73
14
40
0
40
0
40
0
40
0
40
0.108100017771405
40
0.218121109371894
40
0.299460305656958
40
0.400583234602346
40
0.478901671542082
40
0.561693976838024
40
0.659444573663173
40
0.768231663376642
40
0.872023371542172
40
0.969210819417053
40
1
40
1
40
1
40
1
41
1
10
6.95269234826765
20
-6.68081430374826
30
0
41
1
10
7.24003179091477
20
-6.68116060273024
30
0
41
1
10
7.81982474762606
20
-6.68177076420986
30
0
41
1
10
8.61586719780766
20
-6.68238122358773
30
0
41
1
10
9.39334952103758
20
-6.68273628894877
30
0
41
1
10
10.0865607647826
20
-6.6829611500217
30
0
41
1
10
10.7836290682183
20
-6.6832514489397
30
0
41
1
10
11.4717388433515
20
-6.68352050700918
30
0
41
1
10
12.2404981214619
20
-6.68442289720872
30
0
41
1
10
13.0647727949563
20
-6.68445843435043
30
0
41
1
10
13.8884536682791
20
-6.68429580083816
30
0
41
1
10
14.5042415638267
20
-6.68545188735885
30
0
41
1
10
14.844141462489
20
-6.6856924263424
30
0
41
1
10
14.925907707374
20
-6.68574843296827
30
0
0
SPLINE
5
9F
100
AcDbEntity
8
1
62
256
6
ByLayer
370
18
48
1
60
0
100
AcDbSpline
70
4
71
3
72
30
73
26
40
0
40
0
40
0
40
0
40
0.0667695550950909
40
0.129949317775333
40
0.181681650020395
40
0.22409427290834
40
0.258251520140858
40
0.287272852856071
40
0.328110212486135
40
0.380757382611838
40
0.427834742144064
40
0.464188643223164
40
0.502663037354981
40
0.546113244200786
40
0.589982248333718
40
0.629616846140941
40
0.671711426033202
40
0.715692589742772
40
0.766292696954284
40
0.819784391876432
40
0.861464488017419
40
0.890158596513966
40
0.937096088836809
40
0.990755785932469
40
1
40
1
40
1
40
1
41
1
10
88.7153620967785
20
-6.73131801049141
30
0
41
1
10
89.0060170250164
20
-6.73111994643889
30
0
41
1
10
89.5737413170216
20
-6.73093557037006
30
0
41
1
10
90.3753706898461
20
-6.72908596644078
30
0
41
1
10
91.0700948306534
20
-6.73127227002351
30
0
41
1
10
91.6254273211654
20
-6.7332272116856
30
0
41
1
10
92.0900311244474
20
-6.73355106798235
30
0
41
1
10
92.5494560107289
20
-6.73379333576096
30
0
41
1
10
93.0900964599614
20
-6.73396301438299
30
0
41
1
10
93.7105898138024
20
-6.73396713906445
30
0
41
1
10
94.3112291326888
20
-6.73470868986797
30
0
41
1
10
94.84933151831
20
-6.7351302294021
30
0
41
1
10
95.3714211978403
20
-6.73531585507621
30
0
41
1
10
95.9266743459692
20
-6.73522588065669
30
0
41
1
10
96.4870548483609
20
-6.73530213692192
30
0
41
1
10
97.0414550564279
20
-6.73637747084382
30
0
41
1
10
97.5963487066111
20
-6.73666639869941
30
0
41
1
10
98.1996450809319
20
-6.73666675880207
30
0
41
1
10
98.8532486235192
20
-6.73653275199709
30
0
41
1
10
99.4966920011593
20
-6.73737499593693
30
0
41
1
10
100.043443014425
20
-6.73771547289826
30
0
41
1
10
100.561266187462
20
-6.73765871403856
30
0
41
1
10
101.131967702957
20
-6.73756079298565
30
0
41
1
10
101.616815865705
20
-6.73801899028211
30
0
41
1
10
101.894478191544
20
-6.73838078066839
30
0
41
1
10
101.935282805182
20
-6.73843703435321
30
0
0
SPLINE
5
A0
100
AcDbEntity
8
1
62
256
6
ByLayer
370
18
48
1
60
0
100
AcDbSpline
70
4
71
1
72
4
73
2
40
0
40
0
40
1
40
1
41
1
10
175.86217324103
20
-6.7864007790879
30
0
41
1
10
176.514860243126
20
-6.786655333434
30
0
0
SPLINE
5
A1
100
AcDbEntity
8
1
62
256
6
ByLayer
370
18
48
1
60
0
100
AcDbSpline
70
4
71
3
72
17
73
13
40
0
40
0
40
0
40
0
40
0.0511246920988142
40
0.193962949310334
40
0.322854951081933
40
0.440476657684829
40
0.536887279371207
40
0.609104951906506
40
0.700552094488867
40
0.781887922655099
40
0.891904458467878
40
1
40
1
40
1
40
1
41
1
10
14.92630025708
20
6.68571216590482
30
0
41
1
10
14.790556394675
20
6.68557554607779
30
0
41
1
10
14.2754786023508
20
6.68510710268799
30
0
41
1
10
13.4168744660743
20
6.68410134123897
30
0
41
1
10
12.3823636882094
20
6.68466184346443
30
0
41
1
10
11.4712857059362
20
6.68348244547548
30
0
41
1
10
10.7102815334493
20
6.68322158831259
30
0
41
1
10
10.0189319387292
20
6.68293907425073
30
0
41
1
10
9.36763905897868
20
6.68272488093279
30
0
41
1
10
8.61586728351136
20
6.68238110413455
30
0
41
1
10
7.81982472056907
20
6.68177080192154
30
0
41
1
10
7.24003179091471
20
6.68116060273016
30
0
41
1
10
6.95269234826759
20
6.68081430374824
30
0
0
SPLINE
5
A2
100
AcDbEntity
8
1
62
256
6
ByLayer
370
18
48
1
60
0
100
AcDbSpline
70
4
71
3
72
17
73
13
40
0
40
0
40
0
40
0
40
0.114510438527869
40
0.218780938163614
40
0.3800644149282
40
0.529234817098432
40
0.65789322342441
40
0.794850093083952
40
0.851209747981333
40
0.903984449221978
40
0.960378950889351
40
1
40
1
40
1
40
1
41
1
10
145.481568703032
20
6.765328292747
30
0
41
1
10
145.138148610253
20
6.76503306214425
30
0
41
1
10
144.482020313436
20
6.7645300187634
30
0
41
1
10
143.342202249248
20
6.76444068883504
30
0
41
1
10
142.098458983956
20
6.76299395160802
30
0
41
1
10
140.781544364601
20
6.76308783988799
30
0
41
1
10
139.537595901196
20
6.76189360479424
30
0
41
1
10
138.571984700815
20
6.76216235624537
30
0
41
1
10
137.833953065938
20
6.76102423926534
30
0
41
1
10
137.337532382134
20
6.76087380164449
30
0
41
1
10
136.891311439827
20
6.76084422384255
30
0
41
1
10
136.603353494085
20
6.76084668524405
30
0
41
1
10
136.484529197734
20
6.76083372229337
30
0
0
SPLINE
5
A3
100
AcDbEntity
8
1
62
256
6
ByLayer
370
18
48
1
60
0
100
AcDbSpline
70
4
71
3
72
23
73
19
40
0
40
0
40
0
40
0
40
0.0414199008940356
40
0.121324155618679
40
0.202558703135997
40
0.2861157331386
40
0.351720693794205
40
0.417191555337185
40
0.489067014182601
40
0.582966260756519
40
0.699261909122407
40
0.756919580976445
40
0.795338271261745
40
0.826348993455998
40
0.866564731178532
40
0.916115042199383
40
0.98547305266045
40
1
40
1
40
1
40
1
41
1
10
58.3935265661713
20
6.71246298876045
30
0
41
1
10
58.2682540546186
20
6.71223649722469
30
0
41
1
10
57.9013149186716
20
6.71167796020694
30
0
41
1
10
57.288686212494
20
6.71133343719058
30
0
41
1
10
56.5486142963929
20
6.71155735408036
30
0
41
1
10
55.8517897816773
20
6.71080739107555
30
0
41
1
10
55.2026481645782
20
6.70999634485844
30
0
41
1
10
54.5888452537561
20
6.70992408220295
30
0
41
1
10
53.8894739755785
20
6.70996137648851
30
0
41
1
10
53.0363604555794
20
6.70894287267609
30
0
41
1
10
52.2262548070576
20
6.70852797644895
30
0
41
1
10
51.5839869754259
20
6.70838804996683
30
0
41
1
10
51.1996186081907
20
6.70820227326715
30
0
41
1
10
50.8680048173512
20
6.70797450757632
30
0
41
1
10
50.5027191748694
20
6.70761826380527
30
0
41
1
10
50.0214611528147
20
6.70719348670602
30
0
41
1
10
49.6178956812983
20
6.70703304231631
30
0
41
1
10
49.3642182028232
20
6.70695064311315
30
0
41
1
10
49.3202868999483
20
6.70693656167541
30
0
0
SPLINE
5
A4
100
AcDbEntity
8
1
62
256
6
ByLayer
370
18
48
1
60
0
100
AcDbSpline
70
4
71
3
72
28
73
24
40
0
40
0
40
0
40
0
40
0.0638718729890857
40
0.124797318403532
40
0.176600623820642
40
0.220826158857952
40
0.257482495442587
40
0.292559835984848
40
0.337067330860217
40
0.388954509257542
40
0.42334307034085
40
0.449793507774259
40
0.475489645325526
40
0.516913111804529
40
0.568474002338263
40
0.614675545279152
40
0.654803692232532
40
0.688872096359385
40
0.75621555941875
40
0.822954380514769
40
0.889194535602527
40
0.952682462205791
40
1
40
1
40
1
40
1
41
1
10
45.1530942949798
20
-6.70409899282964
30
0
41
1
10
45.4274292506246
20
-6.70342656426379
30
0
41
1
10
45.9672387110394
20
-6.70269111990922
30
0
41
1
10
46.7517528973983
20
-6.69925131980321
30
0
41
1
10
47.4407437173344
20
-6.70405296695816
30
0
41
1
10
48.0151898424186
20
-6.7062414718126
30
0
41
1
10
48.5277923131335
20
-6.70664991811253
30
0
41
1
10
49.0423724747766
20
-6.70685912355754
30
0
41
1
10
49.6241526978437
20
-6.70701495045279
30
0
41
1
10
50.2029643558266
20
-6.70731575175628
30
0
41
1
10
50.7018631865192
20
-6.70782640055305
30
0
41
1
10
51.0848437146785
20
-6.70813715558833
30
0
41
1
10
51.4989665373111
20
-6.70835270523921
30
0
41
1
10
52.0241842094774
20
-6.70851993604691
30
0
41
1
10
52.6401693922411
20
-6.70858699648926
30
0
41
1
10
53.2504414104571
20
-6.70930322019373
30
0
41
1
10
53.7832935536587
20
-6.70982389762051
30
0
41
1
10
54.4097052374061
20
-6.70996499100491
30
0
41
1
10
55.1538743582341
20
-6.70981521962088
30
0
41
1
10
56.0404489940058
20
-6.71122677430293
30
0
41
1
10
56.9099645634435
20
-6.71149386246003
30
0
41
1
10
57.6935247256135
20
-6.71137032169304
30
0
41
1
10
58.1839222659691
20
-6.71213924029749
30
0
41
1
10
58.3933379094855
20
-6.71255276608653
30
0
0
SPLINE
5
A5
100
AcDbEntity
8
1
62
256
6
ByLayer
370
18
48
1
60
0
100
AcDbSpline
70
4
71
3
72
24
73
20
40
0
40
0
40
0
40
0
40
0.0633071214733563
40
0.124138253330952
40
0.169705243926104
40
0.201126384492708
40
0.241781724422322
40
0.293861893763063
40
0.342256350886677
40
0.398829345602819
40
0.455196952261381
40
0.516895012467076
40
0.577319163700436
40
0.645766658835828
40
0.724971934043404
40
0.816118711434783
40
0.882911297428415
40
0.94480650016749
40
1
40
1
40
1
40
1
41
1
10
132.285004889317
20
-6.75872389811303
30
0
41
1
10
132.562681396384
20
-6.75862557228879
30
0
41
1
10
133.1072829273
20
-6.75857561005859
30
0
41
1
10
133.854311807006
20
-6.75952429546078
30
0
41
1
10
134.458014728955
20
-6.75966060385892
30
0
41
1
10
134.976135673192
20
-6.75984949568289
30
0
41
1
10
135.522357140504
20
-6.7602782771078
30
0
41
1
10
136.14343940457
20
-6.76084691753715
30
0
41
1
10
136.834534227248
20
-6.7608635147526
30
0
41
1
10
137.544503713477
20
-6.76076706084359
30
0
41
1
10
138.313014965174
20
-6.76177155673406
30
0
41
1
10
139.098478261879
20
-6.76222237812587
30
0
41
1
10
139.937099917043
20
-6.7619865334772
30
0
41
1
10
140.852761358014
20
-6.76312595949412
30
0
41
1
10
141.903624456663
20
-6.76345727489792
30
0
41
1
10
142.947200191699
20
-6.7631512644096
30
0
41
1
10
143.914577642984
20
-6.76517099884745
30
0
41
1
10
144.723771831212
20
-6.76415878062809
30
0
41
1
10
145.239031064827
20
-6.76481231822186
30
0
41
1
10
145.481915462633
20
-6.76518880030142
30
0
0
SPLINE
5
A6
100
AcDbEntity
8
1
62
256
6
ByLayer
370
18
48
1
60
0
100
AcDbSpline
70
4
71
3
72
18
73
14
40
0
40
0
40
0
40
0
40
0.0647601435683222
40
0.184142209652363
40
0.294208742469398
40
0.440550384235485
40
0.578026653079765
40
0.697444445269576
40
0.777726381953563
40
0.85531585744161
40
0.92681089636419
40
0.984396308597408
40
1
40
1
40
1
40
1
41
1
10
101.923938689587
20
6.73848460857644
30
0
41
1
10
101.729181309339
20
6.73817844429274
30
0
41
1
10
101.175396486192
20
6.73743435862488
30
0
41
1
10
100.290591871108
20
6.7379845621235
30
0
41
1
10
99.1604222609687
20
6.73674318778151
30
0
41
1
10
97.9758967122381
20
6.73689839129034
30
0
41
1
10
96.7631773282255
20
6.73569993174351
30
0
41
1
10
95.7491741580681
20
6.73523891996257
30
0
41
1
10
94.9152506115268
20
6.7352417385209
30
0
41
1
10
94.2254358707723
20
6.73457635169524
30
0
41
1
10
93.6039393972672
20
6.73395082464069
30
0
41
1
10
93.1687054341371
20
6.73397635158673
30
0
41
1
10
92.9490435351788
20
6.73384973695252
30
0
41
1
10
92.9022143899936
20
6.73382081502905
30
0
0
SPLINE
5
A7
100
AcDbEntity
8
SK1
62
256
6
ByLayer
370
18
48
1
60
0
100
AcDbSpline
70
4
71
3
72
14
73
10
40
0
40
0
40
0
40
0
40
0.125000000000001
40
0.125000000000001
40
0.250000000000002
40
0.250000000000002
40
0.500000000000004
40
0.500000000000004
40
1
40
1
40
1
40
1
41
1
10
-46
20
-3.18939712418231
30
0
41
1
10
-46
20
-3.17954370409484
30
0
41
1
10
-46.0017055870951
20
-3.16868403049813
30
0
41
1
10
-46.0068924291627
20
-3.14764541321145
30
0
41
1
10
-46.0102440228913
20
-3.13769537457577
30
0
41
1
10
-46.0215656644541
20
-3.1087959495863
30
0
41
1
10
-46.030416522685
20
-3.09169350464791
30
0
41
1
10
-46.0585951172059
20
-3.04418751423924
30
0
41
1
10
-46.0788864676936
20
-3.01866949776223
30
0
41
1
10
-46.1
20
-2.99797469734634
30
0
0
SPLINE
5
A8
100
AcDbEntity
8
SK1
62
256
6
ByLayer
370
18
48
1
60
0
100
AcDbSpline
70
4
71
3
72
14
73
10
40
0
40
0
40
0
40
0
40
0.25
40
0.25
40
0.5
40
0.5
40
0.75
40
0.75
40
1
40
1
40
1
40
1
41
1
10
-47.5801596727717
20
-1.53317556715413
30
0
41
1
10
-47.6072254358671
20
-1.45084297757282
30
0
41
1
10
-47.6369875381703
20
-1.37025399659399
30
0
41
1
10
-47.699919843103
20
-1.21823184499885
30
0
41
1
10
-47.733187196077
20
-1.14635929556332
30
0
41
1
10
-47.8036126426258
20
-1.01075196281221
30
0
41
1
10
-47.841021132939
20
-0.946703103850069
30
0
41
1
10
-47.9183160606063
20
-0.830276703984168
30
0
41
1
10
-47.9583436101986
20
-0.777525613847388
30
0
41
1
10
-48
20
-0.73046318357234
30
0
0
SPLINE
5
A9
100
AcDbEntity
8
SK1
62
256
6
ByLayer
370
18
48
1
60
0
100
AcDbSpline
70
4
71
3
72
8
73
4
40
0
40
0
40
0
40
0
40
1
40
1
40
1
40
1
41
1
10
-46.1
20
-2.99797469734634
30
0
41
1
10
-46.5970050717544
20
-2.51082642597297
30
0
41
1
10
-47.092201871083
20
-2.02311339201131
30
0
41
1
10
-47.5801596727717
20
-1.53317556715413
30
0
0
SPLINE
5
AA
100
AcDbEntity
8
SK1
62
256
6
ByLayer
370
18
48
1
60
0
100
AcDbSpline
70
4
71
3
72
14
73
10
40
0
40
0
40
0
40
0
40
0.500000000000002
40
0.500000000000002
40
0.750000000000005
40
0.750000000000005
40
0.875000000000003
40
0.875000000000003
40
1
40
1
40
1
40
1
41
1
10
-46.1
20
-5.49290021465055
30
0
41
1
10
-46.078998416482
20
-5.51348528649055
30
0
41
1
10
-46.0586701890239
20
-5.52911609458488
30
0
41
1
10
-46.0304433385198
20
-5.5413335865764
30
0
41
1
10
-46.0214721393577
20
-5.54343310827423
30
0
41
1
10
-46.0103047485395
20
-5.54066579202728
30
0
41
1
10
-46.006895500949
20
-5.53871636669922
30
0
41
1
10
-46.001721316688
20
-5.53132308130367
30
0
41
1
10
-46
20
-5.52580340188879
30
0
41
1
10
-46
20
-5.51799427366623
30
0
0
SPLINE
5
AB
100
AcDbEntity
8
SK1
62
256
6
ByLayer
370
18
48
1
60
0
100
AcDbSpline
70
4
71
3
72
10
73
6
40
0
40
0
40
0
40
0
40
0.5
40
0.5
40
1
40
1
40
1
40
1
41
1
10
-48
20
-3.60345370222743
30
0
41
1
10
-47.6895025021683
20
-3.92021517785685
30
0
41
1
10
-47.3739502141527
20
-4.23554778080791
30
0
41
1
10
-46.739398465833
20
-4.86498905896039
30
0
41
1
10
-46.4201597311607
20
-5.17909001740694
30
0
41
1
10
-46.1
20
-5.49290021465052
30
0
0
SPLINE
5
AC
100
AcDbEntity
8
1
62
256
6
ByLayer
370
18
48
1
60
0
100
AcDbSpline
70
4
71
3
72
16
73
12
40
0
40
0
40
0
40
0
40
0.237950890468119
40
0.237950890468119
40
0.375653946500866
40
0.375653946500866
40
0.444505474517241
40
0.444505474517241
40
0.513357002533616
40
0.513357002533616
40
1
40
1
40
1
40
1
41
1
10
23.1991462278753
20
-0.0017270840267543
30
0
41
1
10
23.9608404796386
20
-0.374942190092611
30
0
41
1
10
24.7232836067977
20
-0.748700921501381
30
0
41
1
10
25.9315308299613
20
-1.33252314019248
30
0
41
1
10
26.3753694524361
20
-1.54529590351226
30
0
41
1
10
27.0430996158208
20
-1.86139513720192
30
0
41
1
10
27.2662582950081
20
-1.96636624880892
30
0
41
1
10
27.7117795516549
20
-2.17435367326911
30
0
41
1
10
27.9341617246086
20
-2.27738152426517
30
0
41
1
10
29.725679389762
20
-3.10012372936126
30
0
41
1
10
31.2789852353685
20
-3.76758695945523
30
0
41
1
10
32.8329940554831
20
-4.35330893555684
30
0
0
SPLINE
5
AD
100
AcDbEntity
8
1
62
256
6
ByLayer
370
13
48
1
60
0
100
AcDbSpline
70
4
71
3
72
20
73
16
40
0
40
0
40
0
40
0
40
0.0436000472160545
40
0.0436000472160545
40
0.230725872384243
40
0.230725872384243
40
0.324288784968338
40
0.324288784968338
40
0.417851697552432
40
0.417851697552432
40
0.792103347888814
40
0.792103347888814
40
0.979229173057005
40
0.979229173057005
40
1
40
1
40
1
40
1
41
1
10
32.8329940555021
20
-4.35330893556406
30
0
41
1
10
33.0379071945646
20
-4.43054281428289
30
0
41
1
10
33.2428325564701
20
-4.50635543163912
30
0
41
1
10
34.3275406289183
20
-4.89967993847395
30
0
41
1
10
35.2081724775149
20
-5.1913986113816
30
0
41
1
10
36.535070410665
20
-5.58089418195803
30
0
41
1
10
36.9783294187664
20
-5.70272316702847
30
0
41
1
10
37.8677068603517
20
-5.92911721178913
30
0
41
1
10
38.3143468121427
20
-6.03379496363118
30
0
41
1
10
40.5358984178804
20
-6.5072909260708
30
0
41
1
10
42.2918128962139
20
-6.72986866897742
30
0
41
1
10
44.9298226810496
20
-6.81734387679597
30
0
41
1
10
45.8100305002674
20
-6.80554119005839
30
0
41
1
10
46.7919518798687
20
-6.74635885600509
30
0
41
1
10
46.8901016807532
20
-6.73993479432207
30
0
41
1
10
46.9883031746109
20
-6.73299998919086
30
0
0
SPLINE
5
AE
100
AcDbEntity
8
1
62
256
6
ByLayer
370
18
48
1
60
0
100
AcDbSpline
70
4
71
3
72
20
73
16
40
0
40
0
40
0
40
0
40
0.229538142272685
40
0.229538142272685
40
0.342277737124327
40
0.342277737124327
40
0.455017331975971
40
0.455017331975971
40
0.680496521679248
40
0.680496521679248
40
0.793236116530887
40
0.793236116530887
40
0.905975711382526
40
0.905975711382526
40
1
40
1
40
1
40
1
41
1
10
110.260401862609
20
0.0172547596629897
30
0
41
1
10
111.156575213562
20
-0.425257654499575
30
0
41
1
10
112.054039787107
20
-0.868607185250397
30
0
41
1
10
113.399118655452
20
-1.52085005249111
30
0
41
1
10
113.843637999316
20
-1.73440026658972
30
0
41
1
10
114.734117402427
20
-2.15620367644738
30
0
41
1
10
115.178592268061
20
-2.36376737285218
30
0
41
1
10
116.510906558785
20
-2.97422000523375
30
0
41
1
10
117.397620423115
20
-3.36489829941775
30
0
41
1
10
118.730476490697
20
-3.91743514088861
30
0
41
1
10
119.17571964461
20
-4.09628712423614
30
0
41
1
10
120.06547198187
20
-4.44057318079731
30
0
41
1
10
120.508862442097
20
-4.60554006481414
30
0
41
1
10
121.320018789724
20
-4.89404480433478
30
0
41
1
10
121.688115913798
20
-5.0199146652507
30
0
41
1
10
122.055664030969
20
-5.14020428347345
30
0
0
SPLINE
5
AF
100
AcDbEntity
8
1
62
256
6
ByLayer
370
13
48
1
60
0
100
AcDbSpline
70
4
71
3
72
18
73
14
40
0
40
0
40
0
40
0
40
0.128783329999144
40
0.128783329999144
40
0.570576836604552
40
0.570576836604552
40
0.625801024930227
40
0.625801024930227
40
0.681025213255901
40
0.681025213255901
40
0.791473589907255
40
0.791473589907255
40
1
40
1
40
1
40
1
41
1
10
122.05566402885
20
-5.14020428277991
30
0
41
1
10
122.569531266391
20
-5.30838061383423
30
0
41
1
10
123.082325376591
20
-5.46564941173898
30
0
41
1
10
125.352190009129
20
-6.11102068012369
30
0
41
1
10
127.104536815924
20
-6.47367473224716
30
0
41
1
10
129.097467925194
20
-6.70002195387031
30
0
41
1
10
129.319205540706
20
-6.72264653686207
30
0
41
1
10
129.763390665226
20
-6.76277127036761
30
0
41
1
10
129.986094970597
20
-6.78028696566943
30
0
41
1
10
130.653309467425
20
-6.82488477503045
30
0
41
1
10
131.096602195773
20
-6.84405319471662
30
0
41
1
10
132.373539437467
20
-6.86908726645734
30
0
41
1
10
133.204339572727
20
-6.84805642841624
30
0
41
1
10
134.033725772899
20
-6.79061219235732
30
0
0
SPLINE
5
B0
100
AcDbEntity
8
1
62
256
6
ByLayer
370
18
48
1
60
0
100
AcDbSpline
70
4
71
3
72
8
73
4
40
0
40
0
40
0
40
0
40
1
40
1
40
1
40
1
41
1
10
178.758374020801
20
-1.68813273232806
30
0
41
1
10
178.840154700616
20
-1.1782292210469
30
0
41
1
10
178.912542494526
20
-0.66840088435373
30
0
41
1
10
178.975476875376
20
-0.158648206668801
30
0
0
SPLINE
5
B1
100
AcDbEntity
8
1
62
256
6
ByLayer
370
18
48
1
60
0
100
AcDbSpline
70
4
71
3
72
62
73
58
40
0
40
0
40
0
40
0
40
0.0435881758538532
40
0.0435881758538532
40
0.0653822637807795
40
0.0653822637807795
40
0.0871763517077058
40
0.0871763517077058
40
0.130764527561557
40
0.130764527561557
40
0.174352703415409
40
0.174352703415409
40
0.21794087926926
40
0.21794087926926
40
0.239734967196186
40
0.239734967196186
40
0.261529055123112
40
0.261529055123112
40
0.305117230976963
40
0.305117230976963
40
0.348705406830815
40
0.348705406830815
40
0.370499494757741
40
0.370499494757741
40
0.392293582684667
40
0.392293582684667
40
0.43588175853852
40
0.43588175853852
40
0.479469934392372
40
0.479469934392372
40
0.501264022319299
40
0.501264022319299
40
0.523058110246226
40
0.523058110246226
40
0.566646286100081
40
0.566646286100081
40
0.610234461953936
40
0.610234461953936
40
0.653822637807791
40
0.653822637807791
40
0.697410813661645
40
0.697410813661645
40
0.7409989895155
40
0.7409989895155
40
0.784587165369355
40
0.784587165369355
40
0.82817534122321
40
0.82817534122321
40
0.871763517077065
40
0.871763517077065
40
0.91535169293092
40
0.91535169293092
40
0.937145780857847
40
0.937145780857847
40
0.958939868784774
40
0.958939868784774
40
1
40
1
40
1
40
1
41
1
10
13.4750578097788
20
3.63343017484201
30
0
41
1
10
13.9020620574027
20
3.44618275431637
30
0
41
1
10
14.3281942584205
20
3.25546753485622
30
0
41
1
10
14.9663448603613
20
2.96480840129547
30
0
41
1
10
15.1788398624779
20
2.86706893829847
30
0
41
1
10
15.6030624083424
20
2.66927111862111
30
0
41
1
10
15.814557403094
20
2.56876550946623
30
0
41
1
10
16.449167530928
20
2.26619867665633
30
0
41
1
10
16.8721905078194
20
2.06269589971785
30
0
41
1
10
17.7165291539889
20
1.64904319059809
30
0
41
1
10
18.1379092927158
20
1.43899791296275
30
0
41
1
10
18.9815047353948
20
1.01723120178724
30
0
41
1
10
19.4038226003033
20
0.805736615978958
30
0
41
1
10
20.0365105498768
20
0.484413878244283
30
0
41
1
10
20.2473397236586
20
0.376750729854678
30
0
41
1
10
20.6697440856145
20
0.16209444461029
30
0
41
1
10
20.8811987920823
20
0.0548593270343929
30
0
41
1
10
21.5161310842823
20
-0.266948084331801
30
0
41
1
10
21.9396618545383
20
-0.482684108106895
30
0
41
1
10
22.7889360462062
20
-0.913068837871833
30
0
41
1
10
23.2150295622878
20
-1.12697846963704
30
0
41
1
10
23.8561488550942
20
-1.44637222790769
30
0
41
1
10
24.0699849276574
20
-1.55279273626951
30
0
41
1
10
24.4966900671865
20
-1.76471763239007
30
0
41
1
10
24.7100507077904
20
-1.86970238722037
30
0
41
1
10
25.3501002313624
20
-2.18188269350276
30
0
41
1
10
25.7766088086081
20
-2.38659986030112
30
0
41
1
10
26.6285053498383
20
-2.79057594772834
30
0
41
1
10
27.0544821216234
20
-2.98872967767596
30
0
41
1
10
27.6944175608294
20
-3.27858562746215
30
0
41
1
10
27.9078346124277
20
-3.37407818638437
30
0
41
1
10
28.3347054138422
20
-3.56310128462323
30
0
41
1
10
28.5478910055875
20
-3.65708818263178
30
0
41
1
10
29.1887288841304
20
-3.93395522047734
30
0
41
1
10
29.6164870432863
20
-4.11196417895928
30
0
41
1
10
30.4695618997264
20
-4.45702122177659
30
0
41
1
10
30.8953117517208
20
-4.62386712584618
30
0
41
1
10
31.7476559978231
20
-4.94260223561341
30
0
41
1
10
32.1743735937273
20
-5.09441657379281
30
0
41
1
10
33.0263147168094
20
-5.38631962887956
30
0
41
1
10
33.453047535501
20
-5.52434411614632
30
0
41
1
10
34.308312606553
20
-5.78432856674948
30
0
41
1
10
34.7351527925568
20
-5.90682795318057
30
0
41
1
10
35.5879149912081
20
-6.13387439197783
30
0
41
1
10
36.0143446725207
20
-6.23829930194429
30
0
41
1
10
36.8667356763844
20
-6.42966929983578
30
0
41
1
10
37.2920644528436
20
-6.51703825161508
30
0
41
1
10
38.1450473965791
20
-6.67190134876429
30
0
41
1
10
38.5719483093145
20
-6.74004553501425
30
0
41
1
10
39.4263376329537
20
-6.85759368449212
30
0
41
1
10
39.8528384132639
20
-6.9064108266584
30
0
41
1
10
40.4907881125521
20
-6.96465897114058
30
0
41
1
10
40.7031833264707
20
-6.98160822503584
30
0
41
1
10
41.1271662832514
20
-7.01066568989341
30
0
41
1
10
41.3385988067072
20
-7.02279070896751
30
0
41
1
10
41.9486448343677
20
-7.05042907846484
30
0
41
1
10
42.3470315260413
20
-7.05968008846162
30
0
41
1
10
42.7446036837944
20
-7.06026676318803
30
0
0
SPLINE
5
B2
100
AcDbEntity
8
1
62
256
6
ByLayer
370
18
48
1
60
0
100
AcDbSpline
70
4
71
3
72
122
73
118
40
0
40
0
40
0
40
0
40
0.0011040078637132
40
0.0011040078637132
40
0.0231839127019183
40
0.0231839127019183
40
0.0452638175401234
40
0.0452638175401234
40
0.0563037699592262
40
0.0563037699592262
40
0.067343722378329
40
0.067343722378329
40
0.0894236272165346
40
0.0894236272165346
40
0.11150353205474
40
0.11150353205474
40
0.122543484473844
40
0.122543484473844
40
0.133583436892947
40
0.133583436892947
40
0.155663341731152
40
0.155663341731152
40
0.177743246569358
40
0.177743246569358
40
0.199823151407563
40
0.199823151407563
40
0.221903056245769
40
0.221903056245769
40
0.243982961083975
40
0.243982961083975
40
0.26606286592218
40
0.26606286592218
40
0.277102818341282
40
0.277102818341282
40
0.288142770760385
40
0.288142770760385
40
0.310222675598588
40
0.310222675598588
40
0.332302580436791
40
0.332302580436791
40
0.343342532855893
40
0.343342532855893
40
0.354382485274994
40
0.354382485274994
40
0.376462390113197
40
0.376462390113197
40
0.398542294951399
40
0.398542294951399
40
0.409582247370501
40
0.409582247370501
40
0.420622199789602
40
0.420622199789602
40
0.442702104627806
40
0.442702104627806
40
0.464782009466009
40
0.464782009466009
40
0.486861914304212
40
0.486861914304212
40
0.497901866723313
40
0.497901866723313
40
0.508941819142414
40
0.508941819142414
40
0.531021723980617
40
0.531021723980617
40
0.553101628818819
40
0.553101628818819
40
0.564141581237919
40
0.564141581237919
40
0.57518153365702
40
0.57518153365702
40
0.597261438495222
40
0.597261438495222
40
0.619341343333424
40
0.619341343333424
40
0.630381295752525
40
0.630381295752525
40
0.641421248171625
40
0.641421248171625
40
0.663501153009828
40
0.663501153009828
40
0.68558105784803
40
0.68558105784803
40
0.707660962686232
40
0.707660962686232
40
0.718700915105333
40
0.718700915105333
40
0.729740867524434
40
0.729740867524434
40
0.751820772362637
40
0.751820772362637
40
0.773900677200839
40
0.773900677200839
40
0.795980582039041
40
0.795980582039041
40
0.818060486877243
40
0.818060486877243
40
0.840140391715446
40
0.840140391715446
40
0.851180344134546
40
0.851180344134546
40
0.862220296553647
40
0.862220296553647
40
0.884300201391848
40
0.884300201391848
40
0.906380106230049
40
0.906380106230049
40
0.92846001106825
40
0.92846001106825
40
0.93949996348735
40
0.93949996348735
40
0.950539915906451
40
0.950539915906451
40
0.972619820744652
40
0.972619820744652
40
0.994699725582853
40
0.994699725582853
40
1
40
1
40
1
40
1
41
1
10
72.1209416747931
20
3.67816697467342
30
0
41
1
10
72.1422395561443
20
3.68744679311138
30
0
41
1
10
72.1635368088084
20
3.69671439689944
30
0
41
1
10
72.6107594453228
20
3.89107845995653
30
0
41
1
10
73.0360499463171
20
4.07188856384468
30
0
41
1
10
73.888066445962
20
4.42042786050712
30
0
41
1
10
74.3148497458987
20
4.58812666557108
30
0
41
1
10
74.9554417195093
20
4.83091302708968
30
0
41
1
10
75.1686939739752
20
4.91073063430556
30
0
41
1
10
75.5947007378785
20
5.06563074381506
30
0
41
1
10
75.8074959232799
20
5.14099909764795
30
0
41
1
10
76.4451978315556
20
5.36108366675862
30
0
41
1
10
76.8689414853708
20
5.50044230137979
30
0
41
1
10
77.714532957955
20
5.76329419402998
30
0
41
1
10
78.1368697346109
20
5.88620269985626
30
0
41
1
10
78.7698359074018
20
6.05787883005516
30
0
41
1
10
78.9807588419414
20
6.11297115607175
30
0
41
1
10
79.4017894363319
20
6.21952718777769
30
0
41
1
10
79.6122539290404
20
6.27062357173784
30
0
41
1
10
80.2441299788246
20
6.4168446671278
30
0
41
1
10
80.6657759261337
20
6.50520057863196
30
0
41
1
10
81.5084700345435
20
6.66471473162198
30
0
41
1
10
81.9299686375238
20
6.73545082824023
30
0
41
1
10
82.7751002496877
20
6.85770068873396
30
0
41
1
10
83.1984250214539
20
6.90946694177751
30
0
41
1
10
84.0457943173215
20
6.99417728466273
30
0
41
1
10
84.4712111154631
20
7.02658208492556
30
0
41
1
10
85.3243462167604
20
7.07180010690161
30
0
41
1
10
85.7512888783997
20
7.08450131150883
30
0
41
1
10
86.6036549406184
20
7.08957356354495
30
0
41
1
10
87.0298333946807
20
7.0821005161886
30
0
41
1
10
87.6683213641433
20
7.05589434177841
30
0
41
1
10
87.8807510591871
20
7.04458323440682
30
0
41
1
10
88.3062183592641
20
7.01707354408424
30
0
41
1
10
88.5191097233814
20
7.00086019916606
30
0
41
1
10
89.1581746740112
20
6.94488933647713
30
0
41
1
10
89.584228355839
20
6.89761004837268
30
0
41
1
10
90.437342399131
20
6.78318293924403
30
0
41
1
10
90.8646282689262
20
6.71633823432606
30
0
41
1
10
91.5042245546547
20
6.60228095365841
30
0
41
1
10
91.7173285105732
20
6.56196179931473
30
0
41
1
10
92.1426938450036
20
6.4761739038799
30
0
41
1
10
92.3553809190071
20
6.43102330541086
30
0
41
1
10
92.9938335311723
20
6.28920149935766
30
0
41
1
10
93.4198002058264
20
6.1860593966008
30
0
41
1
10
94.2711120645205
20
5.96127306828268
30
0
41
1
10
94.6969735934516
20
5.84007312748159
30
0
41
1
10
95.3373693268619
20
5.64652018485853
30
0
41
1
10
95.5511196710331
20
5.57996505046793
30
0
41
1
10
95.9779228192003
20
5.44291370675629
30
0
41
1
10
96.1908717125399
20
5.37211003437449
30
0
41
1
10
96.8295872689326
20
5.15439770659196
30
0
41
1
10
97.2556951846919
20
5.00288375483308
30
0
41
1
10
98.1070224132417
20
4.68525981378318
30
0
41
1
10
98.532090491912
20
4.51884870902794
30
0
41
1
10
99.3836958740484
20
4.17476155786946
30
0
41
1
10
99.8102939143501
20
3.99726478860953
30
0
41
1
10
100.450260556412
20
3.72091804355114
30
0
41
1
10
100.663502375946
20
3.6268266117435
30
0
41
1
10
101.089514084815
20
3.43760373365959
30
0
41
1
10
101.302303684184
20
3.3421167804039
30
0
41
1
10
101.939909771631
20
3.05284465743878
30
0
41
1
10
102.36344393636
20
2.85527677678556
30
0
41
1
10
103.208822508295
20
2.45330430884926
30
0
41
1
10
103.631086769789
20
2.24970281179955
30
0
41
1
10
104.263780903459
20
1.94030449008491
30
0
41
1
10
104.474535626903
20
1.8364554437793
30
0
41
1
10
104.895317570443
20
1.62645809468921
30
0
41
1
10
105.10577453012
20
1.52114315467489
30
0
41
1
10
105.737422134837
20
1.20442295700442
30
0
41
1
10
106.158791373678
20
0.992059500968594
30
0
41
1
10
107.000944700606
20
0.56264911643251
30
0
41
1
10
107.422242579436
20
0.346610443310055
30
0
41
1
10
108.055711362379
20
0.0229497788078561
30
0
41
1
10
108.267069003147
20
-0.0849747649131984
30
0
41
1
10
108.690029665793
20
-0.301225415499829
30
0
41
1
10
108.901426027914
20
-0.409976129398217
30
0
41
1
10
109.536586037238
20
-0.73562310152073
30
0
41
1
10
109.961734488458
20
-0.951041573303172
30
0
41
1
10
110.814057451593
20
-1.3814306617555
30
0
41
1
10
111.240894457361
20
-1.59658032900049
30
0
41
1
10
112.092999568714
20
-2.01884296212779
30
0
41
1
10
112.519071963624
20
-2.22625116069148
30
0
41
1
10
113.157077211421
20
-2.53391007542399
30
0
41
1
10
113.369413855035
20
-2.63614735284608
30
0
41
1
10
113.794723087535
20
-2.83761552565957
30
0
41
1
10
114.007528856808
20
-2.93715616217608
30
0
41
1
10
114.646264098596
20
-3.2324631379694
30
0
41
1
10
115.071964862459
20
-3.42587417149872
30
0
41
1
10
115.92458091935
20
-3.80309730401049
30
0
41
1
10
116.351796083473
20
-3.98610804422467
30
0
41
1
10
117.204204798549
20
-4.33973546358183
30
0
41
1
10
117.629094875999
20
-4.51176462177239
30
0
41
1
10
118.480048250119
20
-4.84040451538508
30
0
41
1
10
118.905737028693
20
-4.99766659404665
30
0
41
1
10
119.756537559149
20
-5.29938815548914
30
0
41
1
10
120.182214794674
20
-5.44303042954488
30
0
41
1
10
120.822248349748
20
-5.64627761417239
30
0
41
1
10
121.035889676227
20
-5.71209643122034
30
0
41
1
10
121.462487133465
20
-5.83971849573277
30
0
41
1
10
121.675271742251
20
-5.90182733430564
30
0
41
1
10
122.313810977133
20
-6.08108298135852
30
0
41
1
10
122.739769030138
20
-6.19126212575478
30
0
41
1
10
123.590572776729
20
-6.39480205451625
30
0
41
1
10
124.015436102543
20
-6.48803349935613
30
0
41
1
10
124.866641949413
20
-6.6552737842575
30
0
41
1
10
125.293089085123
20
-6.72933126628249
30
0
41
1
10
125.932432572514
20
-6.82693301804875
30
0
41
1
10
126.145630248225
20
-6.85715563363874
30
0
41
1
10
126.571992081847
20
-6.91235777382144
30
0
41
1
10
126.785143342752
20
-6.93743289483714
30
0
41
1
10
127.424304231464
20
-7.00526119147497
30
0
41
1
10
127.849483303325
20
-7.04078684327734
30
0
41
1
10
128.699843175688
20
-7.09172390309925
30
0
41
1
10
129.125382323246
20
-7.1071213350935
30
0
41
1
10
129.653288262769
20
-7.11384297047331
30
0
41
1
10
129.755448903506
20
-7.11456361694226
30
0
41
1
10
129.857605288951
20
-7.1147036951387
30
0
0
SPLINE
5
B3
100
AcDbEntity
8
1
62
256
6
ByLayer
370
18
48
1
60
0
100
AcDbSpline
70
4
71
3
72
40
73
36
40
0
40
0
40
0
40
0
40
0.0163218374579893
40
0.0163218374579893
40
0.0527543619965816
40
0.0527543619965816
40
0.125619411073766
40
0.125619411073766
40
0.198484460150952
40
0.198484460150952
40
0.271349509228136
40
0.271349509228136
40
0.344214558305321
40
0.344214558305321
40
0.417079607382507
40
0.417079607382507
40
0.489944656459691
40
0.489944656459691
40
0.526377180998284
40
0.526377180998284
40
0.562809705536876
40
0.562809705536876
40
0.635674754614064
40
0.635674754614064
40
0.708539803691251
40
0.708539803691251
40
0.744972328229843
40
0.744972328229843
40
0.781404852768436
40
0.781404852768436
40
0.854269901845624
40
0.854269901845624
40
0.927134950922812
40
0.927134950922812
40
1
40
1
40
1
40
1
41
1
10
159.210837623252
20
3.69723164233051
30
0
41
1
10
159.305486907669
20
3.73882338344677
30
0
41
1
10
159.400161860659
20
3.78020033236385
30
0
41
1
10
159.706211274085
20
3.91330081194829
30
0
41
1
10
159.917449256255
20
4.00456836319864
30
0
41
1
10
160.55281247861
20
4.2729495011931
30
0
41
1
10
160.978076299558
20
4.44555733042657
30
0
41
1
10
161.830394963357
20
4.78066406464615
30
0
41
1
10
162.256284888059
20
4.94213742279655
30
0
41
1
10
163.107396581662
20
5.24878258601015
30
0
41
1
10
163.533070571214
20
5.39413095634194
30
0
41
1
10
164.382142610233
20
5.67196107927217
30
0
41
1
10
164.807264328304
20
5.80226810712938
30
0
41
1
10
165.658281464015
20
6.04637690383521
30
0
41
1
10
166.083551875602
20
6.1607956832728
30
0
41
1
10
166.936036275155
20
6.37163333176963
30
0
41
1
10
167.36245532599
20
6.46768090871015
30
0
41
1
10
168.00076439454
20
6.59804047316428
30
0
41
1
10
168.213125581969
20
6.63939299912758
30
0
41
1
10
168.637930021736
20
6.71719257168417
30
0
41
1
10
168.850426681877
20
6.75361627378649
30
0
41
1
10
169.488138318715
20
6.85559313533761
30
0
41
1
10
169.913262483742
20
6.91405484984909
30
0
41
1
10
170.763443825583
20
7.01171409879453
30
0
41
1
10
171.189096890999
20
7.05063074093499
30
0
41
1
10
171.828975764383
20
7.09399802031643
30
0
41
1
10
172.042185185178
20
7.10594286856735
30
0
41
1
10
172.467550058509
20
7.12484905050118
30
0
41
1
10
172.679708552495
20
7.1318034052025
30
0
41
1
10
173.316466610039
20
7.14499085914144
30
0
41
1
10
173.740793301
20
7.14373415793193
30
0
41
1
10
174.587457896191
20
7.12127337978745
30
0
41
1
10
175.010121852813
20
7.0999892020985
30
0
41
1
10
175.856283514214
20
7.03789980936077
30
0
41
1
10
176.279766488841
20
6.99722047743174
30
0
41
1
10
176.70254427828
20
6.94631426801996
30
0
0
SPLINE
5
B4
100
AcDbEntity
8
1
62
256
6
ByLayer
370
18
48
1
60
0
100
AcDbSpline
70
4
71
3
72
18
73
14
40
0
40
0
40
0
40
0
40
0.102846683681175
40
0.102846683681175
40
0.217630877808346
40
0.217630877808346
40
0.275022974871933
40
0.275022974871933
40
0.332415071935519
40
0.332415071935519
40
0.791551848444202
40
0.791551848444202
40
1
40
1
40
1
40
1
41
1
10
66.7059787995748
20
0.0193775863800454
30
0
41
1
10
67.1003401865595
20
-0.174543584861993
30
0
41
1
10
67.4951123927581
20
-0.36871075151123
30
0
41
1
10
68.3318999340525
20
-0.778961245193614
30
0
41
1
10
68.7740973339623
20
-0.994932648958212
30
0
41
1
10
69.4393019601094
20
-1.31696447328514
30
0
41
1
10
69.6613470848898
20
-1.4240053996977
30
0
41
1
10
70.1061534589341
20
-1.63728071132491
30
0
41
1
10
70.3291687442442
20
-1.74363438470698
30
0
41
1
10
72.3320922471889
20
-2.69252880177925
30
0
41
1
10
74.0887659066099
20
-3.47852131618978
30
0
41
1
10
76.6441366607505
20
-4.47578846037797
30
0
41
1
10
77.4421878651247
20
-4.76660834585559
30
0
41
1
10
78.2426985560145
20
-5.03309987176846
30
0
0
SPLINE
5
B5
100
AcDbEntity
8
1
62
256
6
ByLayer
370
13
48
1
60
0
100
AcDbSpline
70
4
71
3
72
16
73
12
40
0
40
0
40
0
40
0
40
0.0199781617144461
40
0.0199781617144461
40
0.128555410274216
40
0.128555410274216
40
0.237132658833984
40
0.237132658833984
40
0.671441653073061
40
0.671441653073061
40
1
40
1
40
1
40
1
41
1
10
78.2426985557093
20
-5.03309987166688
30
0
41
1
10
78.3238073358367
20
-5.06010113826778
30
0
41
1
10
78.4049413650647
20
-5.08685264981048
30
0
41
1
10
78.9272002390847
20
-5.25736090390328
30
0
41
1
10
79.3691333772293
20
-5.39384881823111
30
0
41
1
10
80.255342074819
20
-5.65074399016743
30
0
41
1
10
80.7001193306446
20
-5.77124444034271
30
0
41
1
10
82.9269253103578
20
-6.32858633450221
30
0
41
1
10
84.6837481405235
20
-6.62235060399425
30
0
41
1
10
87.7702638473754
20
-6.85149701526933
30
0
41
1
10
89.0995372980848
20
-6.85685115717851
30
0
41
1
10
90.4396249563668
20
-6.7666343285498
30
0
0
SPLINE
5
B6
100
AcDbEntity
8
1
62
256
6
ByLayer
370
18
48
1
60
0
100
AcDbSpline
70
4
71
3
72
16
73
12
40
0
40
0
40
0
40
0
40
0.138788395543942
40
0.138788395543942
40
0.6215301647932
40
0.6215301647932
40
0.742215607105517
40
0.742215607105517
40
0.862901049417835
40
0.862901049417835
40
1
40
1
40
1
40
1
41
1
10
153.829113135862
20
0.0080651434060997
30
0
41
1
10
154.335815950465
20
-0.243131416082775
30
0
41
1
10
154.841391037456
20
-0.493824961226267
30
0
41
1
10
157.103152966469
20
-1.6086770813728
30
0
41
1
10
158.853256457591
20
-2.45401651223943
30
0
41
1
10
161.063565289839
20
-3.4226765899287
30
0
41
1
10
161.50678242582
20
-3.6119750805465
30
0
41
1
10
162.396254205909
20
-3.98025148017644
30
0
41
1
10
162.840887762981
20
-4.15851441670657
30
0
41
1
10
163.788999398695
20
-4.52437711809722
30
0
41
1
10
164.292693057663
20
-4.71017183612307
30
0
41
1
10
164.796422636649
20
-4.88632454474211
30
0
0
SPLINE
5
B7
100
AcDbEntity
8
1
62
256
6
ByLayer
370
13
48
1
60
0
100
AcDbSpline
70
4
71
3
72
16
73
12
40
0
40
0
40
0
40
0
40
0.0974726811449962
40
0.0974726811449962
40
0.210288596001869
40
0.210288596001869
40
0.32310451085874
40
0.32310451085874
40
0.548736340572492
40
0.548736340572492
40
1
40
1
40
1
40
1
41
1
10
164.796422636214
20
-4.88632454458991
30
0
41
1
10
165.179539043978
20
-5.02029919241957
30
0
41
1
10
165.562676229712
20
-5.1486964099966
30
0
41
1
10
166.389857595678
20
-5.41285487759774
30
0
41
1
10
166.83399519342
20
-5.54660374317351
30
0
41
1
10
167.723798070913
20
-5.79709318629583
30
0
41
1
10
168.16750984088
20
-5.91325567658868
30
0
41
1
10
169.495151370329
20
-6.23322162965843
30
0
41
1
10
170.376025067269
20
-6.40877062072249
30
0
41
1
10
173.015572516673
20
-6.816017185909
30
0
41
1
10
174.771378833383
20
-6.9290947300361
30
0
41
1
10
176.547286812589
20
-6.87078871347489
30
0
0
SPLINE
5
B8
100
AcDbEntity
8
1
62
256
6
ByLayer
370
18
48
1
60
0
100
AcDbSpline
70
4
71
3
72
8
73
4
40
0
40
0
40
0
40
0
40
1
40
1
40
1
40
1
41
1
10
178.7583740208
20
1.68813273232803
30
0
41
1
10
178.840155939581
20
1.17822149608386
30
0
41
1
10
178.912543449987
20
0.668393145357953
30
0
41
1
10
178.975476875376
20
0.158648206668801
30
0
0
SPLINE
5
B9
100
AcDbEntity
8
1
62
256
6
ByLayer
370
18
48
1
60
0
100
AcDbSpline
70
4
71
3
72
14
73
10
40
0
40
0
40
0
40
0
40
0.558191474485862
40
0.558191474485862
40
0.837287211728797
40
0.837287211728797
40
0.976835080350261
40
0.976835080350261
40
1
40
1
40
1
40
1
41
1
10
176.565449356272
20
-6.77758301020762
30
0
41
1
10
174.789696247143
20
-6.82200007179662
30
0
41
1
10
173.033662605542
20
-6.69766684946939
30
0
41
1
10
170.393774147537
20
-6.27797252645814
30
0
41
1
10
169.512815759864
20
-6.09902617713698
30
0
41
1
10
168.185177707039
20
-5.77522082180641
30
0
41
1
10
167.741419878791
20
-5.65796908524877
30
0
41
1
10
167.222830205853
20
-5.51097982692269
30
0
41
1
10
167.149020438947
20
-5.48982503269747
30
0
41
1
10
167.075229187283
20
-5.46844429785773
30
0
0
SPLINE
5
BA
100
AcDbEntity
8
1
62
256
6
ByLayer
370
13
48
1
60
0
100
AcDbSpline
70
4
71
3
72
24
73
20
40
0
40
0
40
0
40
0
40
0.0638688929526658
40
0.0638688929526658
40
0.217031693363629
40
0.217031693363629
40
0.29361309356911
40
0.29361309356911
40
0.370194493774592
40
0.370194493774592
40
0.676520094596517
40
0.676520094596517
40
0.829682895007482
40
0.829682895007482
40
0.906264295212965
40
0.906264295212965
40
0.982845695418447
40
0.982845695418447
40
1
40
1
40
1
40
1
41
1
10
167.075229023869
20
-5.4684442505089
30
0
41
1
10
166.704494208388
20
-5.3610252444139
30
0
41
1
10
166.334226747332
20
-5.24790313429625
30
0
41
1
10
165.076867823074
20
-4.84517884934561
30
0
41
1
10
164.190950828765
20
-4.52992149364837
30
0
41
1
10
162.859544920295
20
-4.01752862425818
30
0
41
1
10
162.414930159164
20
-3.83994725918174
30
0
41
1
10
161.525787300196
20
-3.4736000141184
30
0
41
1
10
161.082687725106
20
-3.28546805456443
30
0
41
1
10
158.872809063597
20
-2.32356766444062
30
0
41
1
10
157.122493948344
20
-1.48670682498329
30
0
41
1
10
154.487207798541
20
-0.204570312058394
30
0
41
1
10
153.607195498886
20
0.227372655999915
30
0
41
1
10
152.280172538653
20
0.872493528732718
30
0
41
1
10
151.836506746441
20
1.08719926910334
30
0
41
1
10
150.946751867392
20
1.51359823982099
30
0
41
1
10
150.503379503841
20
1.72400020439579
30
0
41
1
10
149.962099596804
20
1.97728329966901
30
0
41
1
10
149.863098008356
20
2.02345876489315
30
0
41
1
10
149.764148694938
20
2.06944949709339
30
0
0
SPLINE
5
BB
100
AcDbEntity
8
1
62
256
6
ByLayer
370
18
48
1
60
0
100
AcDbSpline
70
4
71
3
72
12
73
8
40
0
40
0
40
0
40
0
40
0.290017478620148
40
0.290017478620148
40
0.93164720008868
40
0.93164720008868
40
1
40
1
40
1
40
1
41
1
10
88.8499951938522
20
-6.73130618643526
30
0
41
1
10
88.053502220579
20
-6.73369254996899
30
0
41
1
10
87.2592343488216
20
-6.70278989169992
30
0
41
1
10
84.7076124166212
20
-6.4982217298103
30
0
41
1
10
82.9505735426318
20
-6.19673680084296
30
0
41
1
10
80.9796396215908
20
-5.69862285650115
30
0
41
1
10
80.7900229543876
20
-5.64907401710803
30
0
41
1
10
80.6006029474887
20
-5.59801011238989
30
0
0
SPLINE
5
BC
100
AcDbEntity
8
1
62
256
6
ByLayer
370
13
48
1
60
0
100
AcDbSpline
70
4
71
3
72
24
73
20
40
0
40
0
40
0
40
0
40
0.0417249522324961
40
0.0417249522324961
40
0.114431695408702
40
0.114431695408702
40
0.259845181761117
40
0.259845181761117
40
0.550672154465946
40
0.550672154465946
40
0.587025526054049
40
0.587025526054049
40
0.623378897642151
40
0.623378897642151
40
0.696085640818356
40
0.696085640818356
40
0.841499127170762
40
0.841499127170762
40
1
40
1
40
1
40
1
41
1
10
80.6006029469255
20
-5.59801011223809
30
0
41
1
10
80.3455001750453
20
-5.52923942718382
30
0
41
1
10
80.0907540968055
20
-5.4577207845916
30
0
41
1
10
79.3935123949859
20
-5.25456799021222
30
0
41
1
10
78.9516341839147
20
-5.11766424022446
30
0
41
1
10
77.628442709232
20
-4.68499317621487
30
0
41
1
10
76.7494881856439
20
-4.36739266284459
30
0
41
1
10
74.1130973434417
20
-3.34222671659319
30
0
41
1
10
72.3562040684768
20
-2.56192598531715
30
0
41
1
10
70.3535510693823
20
-1.62327480071414
30
0
41
1
10
70.1306167662802
20
-1.51812850710897
30
0
41
1
10
69.685953846617
20
-1.30734068310338
30
0
41
1
10
69.4639711696193
20
-1.20158087956187
30
0
41
1
10
68.7989265226203
20
-0.883509319488496
30
0
41
1
10
68.3567909846246
20
-0.670348432436668
30
0
41
1
10
67.0328790781136
20
-0.0300508370054047
30
0
41
1
10
66.153526951248
20
0.397724232366187
30
0
41
1
10
64.3165250538084
20
1.28120778132316
30
0
41
1
10
63.358835236689
20
1.73568197026111
30
0
41
1
10
62.3976814904676
20
2.17591409911566
30
0
0
SPLINE
5
BD
100
AcDbEntity
8
1
62
256
6
ByLayer
370
18
48
1
60
0
100
AcDbSpline
70
4
71
3
72
8
73
4
40
0
40
0
40
0
40
0
40
1
40
1
40
1
40
1
41
1
10
178.956628447357
20
-0.0686474753076993
30
0
41
1
10
178.904720231805
20
-0.165275765454993
30
0
41
1
10
178.852998475593
20
-0.262070681568474
30
0
41
1
10
178.801463471677
20
-0.359032485406743
30
0
0
SPLINE
5
BE
100
AcDbEntity
8
1
62
256
6
ByLayer
370
18
48
1
60
0
100
AcDbSpline
70
4
71
3
72
44
73
40
40
0
40
0
40
0
40
0
40
0.125000000000026
40
0.125000000000026
40
0.187500000000039
40
0.187500000000039
40
0.250000000000052
40
0.250000000000052
40
0.281250000000058
40
0.281250000000058
40
0.312500000000065
40
0.312500000000065
40
0.343750000000071
40
0.343750000000071
40
0.359375000000075
40
0.359375000000075
40
0.375000000000078
40
0.375000000000078
40
0.390625000000081
40
0.390625000000081
40
0.406250000000084
40
0.406250000000084
40
0.437500000000084
40
0.437500000000084
40
0.468750000000085
40
0.468750000000085
40
0.500000000000085
40
0.500000000000085
40
0.562500000000075
40
0.562500000000075
40
0.625000000000064
40
0.625000000000064
40
0.687500000000053
40
0.687500000000053
40
0.750000000000042
40
0.750000000000042
40
0.875000000000021
40
0.875000000000021
40
1
40
1
40
1
40
1
41
1
10
176.057436423457
20
-4.08347763545146
30
0
41
1
10
175.88923809156
20
-3.97564542723157
30
0
41
1
10
175.723568001755
20
-3.85689933612053
30
0
41
1
10
175.487366077326
20
-3.65727896896942
30
0
41
1
10
175.410517326869
20
-3.58700508678763
30
0
41
1
10
175.262362052845
20
-3.43548072754575
30
0
41
1
10
175.190949226244
20
-3.35414005127842
30
0
41
1
10
175.094754476265
20
-3.22300917765216
30
0
41
1
10
175.064401551304
20
-3.17763325803844
30
0
41
1
10
175.008604213349
20
-3.08210583668421
30
0
41
1
10
174.983246373345
20
-3.03198701163052
30
0
41
1
10
174.941935147827
20
-2.9288238546151
30
0
41
1
10
174.925747991828
20
-2.87480645278109
30
0
41
1
10
174.912521672575
20
-2.79491256801788
30
0
41
1
10
174.909881913885
20
-2.76831846026428
30
0
41
1
10
174.908676848735
20
-2.71521589546617
30
0
41
1
10
174.910179460086
20
-2.68887059765748
30
0
41
1
10
174.917272249065
20
-2.63881176150772
30
0
41
1
10
174.922844928894
20
-2.61477812861872
30
0
41
1
10
174.937874616676
20
-2.568619753127
30
0
41
1
10
174.947372503502
20
-2.54653340336921
30
0
41
1
10
174.979959836614
20
-2.48531077781996
30
0
41
1
10
175.00766417729
20
-2.44985206013101
30
0
41
1
10
175.069835561045
20
-2.38842392348218
30
0
41
1
10
175.103867964509
20
-2.36269006583916
30
0
41
1
10
175.175860926279
20
-2.3178612896362
30
0
41
1
10
175.214078316216
20
-2.29873006250452
30
0
41
1
10
175.331099529585
20
-2.24961212380359
30
0
41
1
10
175.412268394583
20
-2.22738902679376
30
0
41
1
10
175.578154398267
20
-2.19477766968777
30
0
41
1
10
175.662935864191
20
-2.18460396529937
30
0
41
1
10
175.83501867918
20
-2.17266132138818
30
0
41
1
10
175.922133545102
20
-2.17098047301803
30
0
41
1
10
176.096032762373
20
-2.17391444870208
30
0
41
1
10
176.183144126913
20
-2.17852905256447
30
0
41
1
10
176.444856785593
20
-2.19973938003651
30
0
41
1
10
176.619830917485
20
-2.22359017159371
30
0
41
1
10
176.970494627539
20
-2.28521365846925
30
0
41
1
10
177.146188751822
20
-2.32307481696708
30
0
41
1
10
177.322186434687
20
-2.3668429366771
30
0
0
SPLINE
5
BF
100
AcDbEntity
8
1
62
256
6
ByLayer
370
18
48
1
60
0
100
AcDbSpline
70
4
71
3
72
10
73
6
40
0
40
0
40
0
40
0
40
0.5
40
0.5
40
1
40
1
40
1
40
1
41
1
10
176.70254427828
20
6.94631426801996
30
0
41
1
10
177.04762604462
20
6.07206917402482
30
0
41
1
10
177.392505877566
20
5.19716763529124
30
0
41
1
10
178.078736339015
20
3.44452790836908
30
0
41
1
10
178.420169723106
20
2.56688051114577
30
0
41
1
10
178.758374020801
20
1.68813273232797
30
0
0
SPLINE
5
C0
100
AcDbEntity
8
1
62
256
6
ByLayer
370
18
48
1
60
0
100
AcDbSpline
70
4
71
3
72
34
73
30
40
0
40
0
40
0
40
0
40
0.0819940556901669
40
0.0819940556901669
40
0.163988111380333
40
0.163988111380333
40
0.327976222760667
40
0.327976222760667
40
0.409970278450834
40
0.409970278450834
40
0.491964334141
40
0.491964334141
40
0.573958389831167
40
0.573958389831167
40
0.655952445521334
40
0.655952445521334
40
0.696949473366417
40
0.696949473366417
40
0.737946501211499
40
0.737946501211499
40
0.819940556901661
40
0.819940556901661
40
0.901934612591824
40
0.901934612591824
40
0.942931640436904
40
0.942931640436904
40
0.983928668281983
40
0.983928668281983
40
1
40
1
40
1
40
1
41
1
10
13.4750578097788
20
-6.65241149353525
30
0
41
1
10
13.8890228029677
20
-6.67203656663523
30
0
41
1
10
14.3024206233289
20
-6.68321443302497
30
0
41
1
10
15.1275346260584
20
-6.68778407404812
30
0
41
1
10
15.539367239557
20
-6.6808317332254
30
0
41
1
10
16.7765639977133
20
-6.63321115304018
30
0
41
1
10
17.600382012406
20
-6.56600019632998
30
0
41
1
10
18.8402985308754
20
-6.4140233874098
30
0
41
1
10
19.2541236548948
20
-6.3554774022447
30
0
41
1
10
20.0792962517817
20
-6.22135636528355
30
0
41
1
10
20.4921277130995
20
-6.14539860312399
30
0
41
1
10
21.3165512212002
20
-5.97679709171646
30
0
41
1
10
21.7284634052478
20
-5.8841620031169
30
0
41
1
10
22.5529055081768
20
-5.68364119147762
30
0
41
1
10
22.9654956693674
20
-5.57587918728817
30
0
41
1
10
23.5846288550728
20
-5.4031266495835
30
0
41
1
10
23.7910038029127
20
-5.34363851022391
30
0
41
1
10
24.2041008877278
20
-5.22144393048899
30
0
41
1
10
24.4110905967613
20
-5.15910117799135
30
0
41
1
10
25.0309325991442
20
-4.96707516980482
30
0
41
1
10
25.4433206981796
20
-4.83153478642345
30
0
41
1
10
26.2676273105139
20
-4.54736489068895
30
0
41
1
10
26.679628387734
20
-4.39922287935332
30
0
41
1
10
27.2977992896622
20
-4.16866272682387
30
0
41
1
10
27.5038403262769
20
-4.09034806505113
30
0
41
1
10
27.9158994168933
20
-3.93081713436396
30
0
41
1
10
28.1218040492578
20
-3.84940228174011
30
0
41
1
10
28.4088737926994
20
-3.73485581520862
30
0
41
1
10
28.4897454297452
20
-3.70242419187687
30
0
41
1
10
28.5706406203205
20
-3.66981521358537
30
0
0
SPLINE
5
C1
100
AcDbEntity
8
1
62
256
6
ByLayer
370
18
48
1
60
0
100
AcDbSpline
70
4
71
3
72
112
73
108
40
0
40
0
40
0
40
0
40
0.014804017725779
40
0.014804017725779
40
0.0363855340786285
40
0.0363855340786285
40
0.057967050431478
40
0.057967050431478
40
0.0687578086079024
40
0.0687578086079024
40
0.0795485667843269
40
0.0795485667843269
40
0.101130083137176
40
0.101130083137176
40
0.122711599490024
40
0.122711599490024
40
0.144293115842873
40
0.144293115842873
40
0.165874632195722
40
0.165874632195722
40
0.187456148548571
40
0.187456148548571
40
0.20903766490142
40
0.20903766490142
40
0.230619181254269
40
0.230619181254269
40
0.252200697607118
40
0.252200697607118
40
0.273782213959966
40
0.273782213959966
40
0.28457297213639
40
0.28457297213639
40
0.295363730312814
40
0.295363730312814
40
0.316945246665663
40
0.316945246665663
40
0.338526763018511
40
0.338526763018511
40
0.36010827937136
40
0.36010827937136
40
0.381689795724208
40
0.381689795724208
40
0.403271312077056
40
0.403271312077056
40
0.424852828429905
40
0.424852828429905
40
0.435643586606328
40
0.435643586606328
40
0.446434344782752
40
0.446434344782752
40
0.468015861135598
40
0.468015861135598
40
0.489597377488444
40
0.489597377488444
40
0.500388135664867
40
0.500388135664867
40
0.51117889384129
40
0.51117889384129
40
0.532760410194135
40
0.532760410194135
40
0.55434192654698
40
0.55434192654698
40
0.575923442899824
40
0.575923442899824
40
0.586714201076248
40
0.586714201076248
40
0.597504959252671
40
0.597504959252671
40
0.619086475605517
40
0.619086475605517
40
0.640667991958363
40
0.640667991958363
40
0.662249508311209
40
0.662249508311209
40
0.683831024664055
40
0.683831024664055
40
0.705412541016901
40
0.705412541016901
40
0.726994057369747
40
0.726994057369747
40
0.748575573722593
40
0.748575573722593
40
0.770157090075439
40
0.770157090075439
40
0.791738606428285
40
0.791738606428285
40
0.802529364604708
40
0.802529364604708
40
0.813320122781131
40
0.813320122781131
40
0.856483155486826
40
0.856483155486826
40
0.878064671839672
40
0.878064671839672
40
0.899646188192519
40
0.899646188192519
40
0.921227704545366
40
0.921227704545366
40
0.942809220898213
40
0.942809220898213
40
0.953599979074636
40
0.953599979074636
40
0.964390737251059
40
0.964390737251059
40
0.985972253603906
40
0.985972253603906
40
1
40
1
40
1
40
1
41
1
10
58.3939282968835
20
6.71244636645065
30
0
41
1
10
58.6762701617857
20
6.71281122782187
30
0
41
1
10
58.958595255065
20
6.70899355989701
30
0
41
1
10
59.6523361545053
20
6.68832581119725
30
0
41
1
10
60.0639206166401
20
6.66703172195699
30
0
41
1
10
60.8881983664341
20
6.60780176666665
30
0
41
1
10
61.3013592659282
20
6.56949519408823
30
0
41
1
10
61.9198101323148
20
6.4979830644472
30
0
41
1
10
62.1256727659626
20
6.47183334758705
30
0
41
1
10
62.5378206693412
20
6.41577194994645
30
0
41
1
10
62.7438061320788
20
6.38572293693511
30
0
41
1
10
63.3614275040084
20
6.28962135072391
30
0
41
1
10
63.7726734602215
20
6.21739552168725
30
0
41
1
10
64.5954776857204
20
6.05581797140863
30
0
41
1
10
65.0071290746063
20
5.96677441344119
30
0
41
1
10
65.8308779727166
20
5.77396019320915
30
0
41
1
10
66.2427316541405
20
5.66907095639189
30
0
41
1
10
67.0686558874597
20
5.4447096099403
30
0
41
1
10
67.4808795524748
20
5.32503965182434
30
0
41
1
10
68.3043543747393
20
5.07290466316869
30
0
41
1
10
68.7157181408321
20
4.94035702064579
30
0
41
1
10
69.5387640890464
20
4.66135365792792
30
0
41
1
10
69.9503209272285
20
4.51540145942772
30
0
41
1
10
70.7732382815225
20
4.21164998277112
30
0
41
1
10
71.1853847060367
20
4.05536296451211
30
0
41
1
10
72.0106479125932
20
3.72934177506164
30
0
41
1
10
72.4233641136784
20
3.56049829096844
30
0
41
1
10
73.2474280399217
20
3.21562142810293
30
0
41
1
10
73.6592158658191
20
3.03976812166835
30
0
41
1
10
74.2764431444293
20
2.76888322540714
30
0
41
1
10
74.4821136051613
20
2.67745368117005
30
0
41
1
10
74.8933428690135
20
2.49267666364409
30
0
41
1
10
75.09918768126
20
2.39986149210574
30
0
41
1
10
75.7168460375071
20
2.11915887962923
30
0
41
1
10
76.1285681681112
20
1.92879201946482
30
0
41
1
10
76.9529596868406
20
1.54231741926256
30
0
41
1
10
77.3661190632469
20
1.34627299075981
30
0
41
1
10
78.1909495250496
20
0.952586989772527
30
0
41
1
10
78.6027412265134
20
0.754223493704302
30
0
41
1
10
79.4254428033119
20
0.355166896094744
30
0
41
1
10
79.8373794247893
20
0.156566624320789
30
0
41
1
10
80.6604692982056
20
-0.242739050995055
30
0
41
1
10
81.0719866755153
20
-0.442689166238722
30
0
41
1
10
81.8960189617567
20
-0.840994228048174
30
0
41
1
10
82.3091177737557
20
-1.03922209975542
30
0
41
1
10
82.927923144107
20
-1.33466431428076
30
0
41
1
10
83.1339067789498
20
-1.43295118500171
30
0
41
1
10
83.5459032142468
20
-1.62799052658167
30
0
41
1
10
83.7520500316757
20
-1.72448500373915
30
0
41
1
10
84.3698776321798
20
-2.01307499430882
30
0
41
1
10
84.7812496906845
20
-2.20322489846924
30
0
41
1
10
85.6041649315967
20
-2.57673325096405
30
0
41
1
10
86.0157651825027
20
-2.76023682618344
30
0
41
1
10
86.633646500571
20
-3.03021801581761
30
0
41
1
10
86.8396427506173
20
-3.11940933400848
30
0
41
1
10
87.2517860146664
20
-3.29581276350098
30
0
41
1
10
87.4578214757755
20
-3.38320396122643
30
0
41
1
10
88.0772696774375
20
-3.64057787400449
30
0
41
1
10
88.4899213625825
20
-3.80701517497286
30
0
41
1
10
89.3137145104401
20
-4.13126689110763
30
0
41
1
10
89.7251634477708
20
-4.28795949568774
30
0
41
1
10
90.5483159097569
20
-4.58801336858559
30
0
41
1
10
90.9600046187191
20
-4.73184789048796
30
0
41
1
10
91.5773160370297
20
-4.94002376713362
30
0
41
1
10
91.7829847960033
20
-5.00821287047262
30
0
41
1
10
92.1951884578894
20
-5.13991448726239
30
0
41
1
10
92.4014108623934
20
-5.20398371129031
30
0
41
1
10
93.0203907343809
20
-5.39115010002735
30
0
41
1
10
93.4333252832818
20
-5.50882732067774
30
0
41
1
10
94.2576131351594
20
-5.73045848882157
30
0
41
1
10
94.6694587564809
20
-5.83383097334448
30
0
41
1
10
95.4927059964668
20
-6.02368030552355
30
0
41
1
10
95.9037344294631
20
-6.1105266335442
30
0
41
1
10
96.7273472575
20
-6.26844231992058
30
0
41
1
10
97.1391306601751
20
-6.34034350359212
30
0
41
1
10
97.9635560606305
20
-6.46516566399754
30
0
41
1
10
98.3766853264242
20
-6.51884032160959
30
0
41
1
10
99.2017482007927
20
-6.60917594717725
30
0
41
1
10
99.6137658264146
20
-6.64631821443029
30
0
41
1
10
100.436687620074
20
-6.70154483129392
30
0
41
1
10
100.848495665701
20
-6.71981357933441
30
0
41
1
10
101.671711317557
20
-6.73971668260089
30
0
41
1
10
102.083162708496
20
-6.74142139812662
30
0
41
1
10
102.907194159285
20
-6.72568515283194
30
0
41
1
10
103.320177719648
20
-6.70839315971313
30
0
41
1
10
103.939268024776
20
-6.66964506463165
30
0
41
1
10
104.145424984155
20
-6.65458508893218
30
0
41
1
10
104.557366089167
20
-6.62012798646535
30
0
41
1
10
104.763454896626
20
-6.60084599849759
30
0
41
1
10
105.793405767613
20
-6.49309908433173
30
0
41
1
10
106.615467988584
20
-6.37023037017022
30
0
41
1
10
107.851173372599
20
-6.13978177009031
30
0
41
1
10
108.263283696
20
-6.05391739028772
30
0
41
1
10
109.088428941881
20
-5.8655925989197
30
0
41
1
10
109.5015844914
20
-5.7645272149511
30
0
41
1
10
110.325594186409
20
-5.5471078120452
30
0
41
1
10
110.737075186312
20
-5.43046840455813
30
0
41
1
10
111.560187878676
20
-5.18349439232173
30
0
41
1
10
111.971842251705
20
-5.05365583877509
30
0
41
1
10
112.589211012784
20
-4.84837212196081
30
0
41
1
10
112.794909076491
20
-4.77803515967994
30
0
41
1
10
113.20681593765
20
-4.63434682944256
30
0
41
1
10
113.413119715979
20
-4.56116927288667
30
0
41
1
10
114.032081258221
20
-4.33646590429265
30
0
41
1
10
114.445158593534
20
-4.18023658156241
30
0
41
1
10
115.12528316458
20
-3.91456398150632
30
0
41
1
10
115.393052499171
20
-3.80778964335852
30
0
41
1
10
115.660731087848
20
-3.69899410165866
30
0
0
SPLINE
5
C2
100
AcDbEntity
8
1
62
256
6
ByLayer
370
18
48
1
60
0
100
AcDbSpline
70
4
71
3
72
54
73
50
40
0
40
0
40
0
40
0
40
0.0096219750239286
40
0.0096219750239286
40
0.0332024041900252
40
0.0332024041900252
40
0.0567828333561218
40
0.0567828333561218
40
0.103943691688315
40
0.103943691688315
40
0.151104550020509
40
0.151104550020509
40
0.198265408352703
40
0.198265408352703
40
0.221845837518801
40
0.221845837518801
40
0.245426266684899
40
0.245426266684899
40
0.292587125017093
40
0.292587125017093
40
0.339747983349286
40
0.339747983349286
40
0.38690884168148
40
0.38690884168148
40
0.434069700013674
40
0.434069700013674
40
0.481230558345868
40
0.481230558345868
40
0.528391416678062
40
0.528391416678062
40
0.575552275010256
40
0.575552275010256
40
0.62271313334245
40
0.62271313334245
40
0.669873991674644
40
0.669873991674644
40
0.717034850006837
40
0.717034850006837
40
0.764195708339031
40
0.764195708339031
40
0.811356566671224
40
0.811356566671224
40
0.858517425003418
40
0.858517425003418
40
0.905678283335612
40
0.905678283335612
40
0.952839141667806
40
0.952839141667806
40
1
40
1
40
1
40
1
41
1
10
145.491000163765
20
6.76481193533147
30
0
41
1
10
145.575129299809
20
6.76488095266697
30
0
41
1
10
145.659278541387
20
6.76460319346972
30
0
41
1
10
145.949718651619
20
6.76245998464069
30
0
41
1
10
146.155782813998
20
6.75879151009141
30
0
41
1
10
146.567508718492
20
6.7461485927133
30
0
41
1
10
146.773058203987
20
6.73738728804378
30
0
41
1
10
147.390338843205
20
6.70455174523516
30
0
41
1
10
147.801679322449
20
6.67384568385052
30
0
41
1
10
148.623632413743
20
6.5966158750021
30
0
41
1
10
149.034507413296
20
6.54887410697455
30
0
41
1
10
149.857186697354
20
6.43538855979716
30
0
41
1
10
150.26899296152
20
6.36971370109217
30
0
41
1
10
150.886899791728
20
6.25987417621411
30
0
41
1
10
151.092947995788
20
6.22108173775115
30
0
41
1
10
151.505157727307
20
6.13959179846069
30
0
41
1
10
151.71111056145
20
6.09670940717297
30
0
41
1
10
152.328523690083
20
5.96180776567485
30
0
41
1
10
152.739498229653
20
5.86320584068096
30
0
41
1
10
153.561348519192
20
5.65303240402324
30
0
41
1
10
153.972295773909
20
5.54075877883867
30
0
41
1
10
154.794466289811
20
5.30038097494227
30
0
41
1
10
155.205313919618
20
5.17183995666511
30
0
41
1
10
156.029159529999
20
4.90406895643301
30
0
41
1
10
156.441728224691
20
4.76362724964247
30
0
41
1
10
157.264904593391
20
4.46921607543098
30
0
41
1
10
157.675985642064
20
4.31573622415164
30
0
41
1
10
158.49807556501
20
3.99913716794927
30
0
41
1
10
158.908911840406
20
3.83601457787214
30
0
41
1
10
159.730180420126
20
3.4979302536201
30
0
41
1
10
160.141487813229
20
3.32474902707224
30
0
41
1
10
160.964418430761
20
2.96899083440653
30
0
41
1
10
161.376484653036
20
2.78640550415812
30
0
41
1
10
162.200191392555
20
2.41473128400995
30
0
41
1
10
162.611651612111
20
2.22601493813715
30
0
41
1
10
163.433634823143
20
1.84277206742061
30
0
41
1
10
163.844034225648
20
1.64807882000284
30
0
41
1
10
164.665880046887
20
1.25655379022902
30
0
41
1
10
165.076704911517
20
1.05844580587097
30
0
41
1
10
165.898887700402
20
0.659442439220044
30
0
41
1
10
166.310332215585
20
0.4587403504934
30
0
41
1
10
167.13480301699
20
0.0564255342143554
30
0
41
1
10
167.546227927749
20
-0.144972389112326
30
0
41
1
10
168.367791618908
20
-0.547469833995194
30
0
41
1
10
168.778942898073
20
-0.746550137205077
30
0
41
1
10
169.600040401572
20
-1.14429595710885
30
0
41
1
10
170.010373677346
20
-1.34211652118151
30
0
41
1
10
170.831741302641
20
-1.73352525730655
30
0
41
1
10
171.242761071809
20
-1.92726906790151
30
0
41
1
10
171.654080160745
20
-2.1188347431968
30
0
0
SPLINE
5
C3
100
AcDbEntity
8
1
62
256
6
ByLayer
370
18
48
1
60
0
100
AcDbSpline
70
4
71
3
72
14
73
10
40
0
40
0
40
0
40
0
40
0.25
40
0.25
40
0.5
40
0.5
40
0.75
40
0.75
40
1
40
1
40
1
40
1
41
1
10
176.337654025461
20
1.58922606584611
30
0
41
1
10
176.332907015225
20
1.60923027829327
30
0
41
1
10
176.331913334835
20
1.63029090072445
30
0
41
1
10
176.341928076079
20
1.66982613758239
30
0
41
1
10
176.353537495494
20
1.68822942769557
30
0
41
1
10
176.38522826106
20
1.71490433472448
30
0
41
1
10
176.404602280563
20
1.72346505982273
30
0
41
1
10
176.444456220543
20
1.73353386707902
30
0
41
1
10
176.46519280647
20
1.73520744910471
30
0
41
1
10
176.485803337194
20
1.73467119129708
30
0
0
SPLINE
5
C4
100
AcDbEntity
8
1
62
256
6
ByLayer
370
18
48
1
60
0
100
AcDbSpline
70
4
71
3
72
18
73
14
40
0
40
0
40
0
40
0
40
0.249999999999998
40
0.249999999999998
40
0.374999999999997
40
0.374999999999997
40
0.499999999999995
40
0.499999999999995
40
0.749999999999997
40
0.749999999999997
40
0.874999999999999
40
0.874999999999999
40
1
40
1
40
1
40
1
41
1
10
176.464438773583
20
-6.77995507212773
30
0
41
1
10
176.317693551653
20
-6.76321404670691
30
0
41
1
10
176.181625576168
20
-6.71553860201268
30
0
41
1
10
175.995014986984
20
-6.59334893320408
30
0
41
1
10
175.935646128758
20
-6.54389395506354
30
0
41
1
10
175.825460060402
20
-6.42940492969637
30
0
41
1
10
175.774314933005
20
-6.36421452250792
30
0
41
1
10
175.632800518263
20
-6.14465014330074
30
0
41
1
10
175.55424553773
20
-5.96649768795419
30
0
41
1
10
175.462129024861
20
-5.64751087077408
30
0
41
1
10
175.435763884786
20
-5.53224053530687
30
0
41
1
10
175.393049554512
20
-5.28854094761462
30
0
41
1
10
175.376521460628
20
-5.15959786469483
30
0
41
1
10
175.364864024237
20
-5.02350040782287
30
0
0
SPLINE
5
C5
100
AcDbEntity
8
1
62
256
6
ByLayer
370
13
48
1
60
0
100
AcDbSpline
70
4
71
3
72
44
73
40
40
0
40
0
40
0
40
0
40
0.0854376185796119
40
0.0854376185796119
40
0.161651150364644
40
0.161651150364644
40
0.237864682149677
40
0.237864682149677
40
0.314078213934709
40
0.314078213934709
40
0.352184979827225
40
0.352184979827225
40
0.390291745719742
40
0.390291745719742
40
0.428398511612258
40
0.428398511612258
40
0.466505277504774
40
0.466505277504774
40
0.542718809289806
40
0.542718809289806
40
0.580825575182322
40
0.580825575182322
40
0.618932341074838
40
0.618932341074838
40
0.695145872859871
40
0.695145872859871
40
0.771359404644903
40
0.771359404644903
40
0.809466170537419
40
0.809466170537419
40
0.847572936429935
40
0.847572936429935
40
0.923786468214967
40
0.923786468214967
40
0.961893234107484
40
0.961893234107484
40
0.980946617053742
40
0.980946617053742
40
1
40
1
40
1
40
1
41
1
10
6.95271175656745
20
-6.6808328006905
30
0
41
1
10
6.95271541206938
20
-6.68354600420722
30
0
41
1
10
6.95271837199732
20
-6.66274768734468
30
0
41
1
10
6.95272415734158
20
-6.57935908419597
30
0
41
1
10
6.95272696445585
20
-6.52068121155096
30
0
41
1
10
6.95273346255209
20
-6.3684872422011
30
0
41
1
10
6.95273716681555
20
-6.27490997800686
30
0
41
1
10
6.95274615094345
20
-6.05328223138392
30
0
41
1
10
6.9527514294393
20
-5.92523501756816
30
0
41
1
10
6.9527608936254
20
-5.70635522278448
30
0
41
1
10
6.95276429536517
20
-5.62914145698201
30
0
41
1
10
6.95277157427267
20
-5.46720609846349
30
0
41
1
10
6.95277545741888
20
-5.38234525872087
30
0
41
1
10
6.95278371887287
20
-5.20481140258636
30
0
41
1
10
6.95278809778273
20
-5.11213440301873
30
0
41
1
10
6.95279724229724
20
-4.92095703890814
30
0
41
1
10
6.95280201839932
20
-4.82222823364094
30
0
41
1
10
6.9528168995935
20
-4.51678876236312
30
0
41
1
10
6.95282756429501
20
-4.30086291732798
30
0
41
1
10
6.95284432742565
20
-3.95848896557271
30
0
41
1
10
6.95285004120169
20
-3.84127400237904
30
0
41
1
10
6.95286164071956
20
-3.60053914037982
30
0
41
1
10
6.95286754460369
20
-3.47662138712928
30
0
41
1
10
6.95288512669754
20
-3.10032206359455
30
0
41
1
10
6.95289673695379
20
-2.84228005372989
30
0
41
1
10
6.95291881143353
20
-2.31224675263411
30
0
41
1
10
6.95292927841291
20
-2.04025507737612
30
0
41
1
10
6.9529432808215
20
-1.62157319125856
30
0
41
1
10
6.9529476752632
20
-1.47978446363822
30
0
41
1
10
6.95295566340008
20
-1.19486891513449
30
0
41
1
10
6.95295925384036
20
-1.05194924134184
30
0
41
1
10
6.95296860933558
20
-0.621823884874544
30
0
41
1
10
6.95297296507886
20
-0.333257605716739
30
0
41
1
10
6.95297576354793
20
0.102343346239735
30
0
41
1
10
6.95297606972551
20
0.248193438296454
30
0
41
1
10
6.95297547249754
20
0.466107937005717
30
0
41
1
10
6.95297509804232
20
0.538657474620464
30
0
41
1
10
6.95297398132115
20
0.683579280155669
30
0
41
1
10
6.95297323134989
20
0.756488744123857
30
0
41
1
10
6.95297230403651
20
0.828234444520547
30
0
0
SPLINE
5
C6
100
AcDbEntity
8
1
62
256
6
ByLayer
370
18
48
1
60
0
100
AcDbSpline
70
4
71
3
72
12
73
8
40
0
40
0
40
0
40
0
40
0.250000000000009
40
0.250000000000009
40
0.500000000000018
40
0.500000000000018
40
1
40
1
40
1
40
1
41
1
10
176.485803337194
20
1.73467119129708
30
0
41
1
10
176.675315268373
20
1.72974035016088
30
0
41
1
10
176.864717366893
20
1.72569178207451
30
0
41
1
10
177.243585527916
20
1.71708083062077
30
0
41
1
10
177.433014623024
20
1.71281540205598
30
0
41
1
10
178.001257368445
20
1.70037690027763
30
0
41
1
10
178.379965443461
20
1.69305190120161
30
0
41
1
10
178.758374020801
20
1.68813273232809
30
0
0
SPLINE
5
C7
100
AcDbEntity
8
1
62
256
6
ByLayer
370
18
48
1
60
0
100
AcDbSpline
70
4
71
3
72
8
73
4
40
0
40
0
40
0
40
0
40
1
40
1
40
1
40
1
41
1
10
176.547286812596
20
-6.87078871347751
30
0
41
1
10
176.513245255807
20
-6.95769673648877
30
0
41
1
10
176.479172594523
20
-7.04450170891929
30
0
41
1
10
176.445073875831
20
-7.13120614187443
30
0
0
SPLINE
5
C8
100
AcDbEntity
8
1
62
256
6
ByLayer
370
18
48
1
60
0
100
AcDbSpline
70
4
71
3
72
8
73
4
40
0
40
0
40
0
40
0
40
1
40
1
40
1
40
1
41
1
10
176.70254427828
20
-6.94631426801999
30
0
41
1
10
176.603238656899
20
-7.04397834798823
30
0
41
1
10
176.517708386187
20
-7.10607416224562
30
0
41
1
10
176.445073875831
20
-7.1312061418744
30
0
0
SPLINE
5
C9
100
AcDbEntity
8
1
62
256
6
ByLayer
370
18
48
1
60
0
100
AcDbSpline
70
4
71
3
72
8
73
4
40
0
40
0
40
0
40
0
40
1
40
1
40
1
40
1
41
1
10
176.46443877358
20
-6.77995507212822
30
0
41
1
10
176.47938846156
20
-6.78480644464338
30
0
41
1
10
176.495254145708
20
-6.78702346754511
30
0
41
1
10
176.51205435081
20
-6.7866290837076
30
0
0
SPLINE
5
CA
100
AcDbEntity
8
1
62
256
6
ByLayer
370
18
48
1
60
0
100
AcDbSpline
70
4
71
3
72
8
73
4
40
0
40
0
40
0
40
0
40
1
40
1
40
1
40
1
41
1
10
7.07374221896546
20
0.811033378530027
30
0
41
1
10
7.17782456726206
20
0.744320046607896
30
0
41
1
10
7.28299065809034
20
0.679785388174992
30
0
41
1
10
7.38929999382089
20
0.617458952639652
30
0
0
SPLINE
5
CB
100
AcDbEntity
8
1
62
256
6
ByLayer
370
18
48
1
60
0
100
AcDbSpline
70
4
71
3
72
16
73
12
40
0
40
0
40
0
40
0
40
0.249999999999992
40
0.249999999999992
40
0.374999999999993
40
0.374999999999993
40
0.499999999999995
40
0.499999999999995
40
0.749999999999997
40
0.749999999999997
40
1
40
1
40
1
40
1
41
1
10
171.65408016076
20
-2.11883474320368
30
0
41
1
10
171.922402914224
20
-2.4298400326519
30
0
41
1
10
172.205884069431
20
-2.72057583693953
30
0
41
1
10
172.649228126143
20
-3.13244676595784
30
0
41
1
10
172.800065137382
20
-3.2656511148642
30
0
41
1
10
173.107421849479
20
-3.5244610437023
30
0
41
1
10
173.263419720752
20
-3.64960156249279
30
0
41
1
10
173.734563645971
20
-4.01088213509809
30
0
41
1
10
174.054167723687
20
-4.23408918948951
30
0
41
1
10
174.702727351471
20
-4.65054352385923
30
0
41
1
10
175.031691734222
20
-4.84376250613567
30
0
41
1
10
175.364864024237
20
-5.02350040782287
30
0
0
SPLINE
5
CC
100
AcDbEntity
8
1
62
256
6
ByLayer
370
18
48
1
60
0
100
AcDbSpline
70
4
71
3
72
10
73
6
40
0
40
0
40
0
40
0
40
0.5
40
0.5
40
1
40
1
40
1
40
1
41
1
10
178.9999730441
20
0.0393438350121187
30
0
41
1
10
178.994423986021
20
0.0207219871185487
30
0
41
1
10
178.987726672262
20
0.0012653261052549
30
0
41
1
10
178.972723818278
20
-0.0362458106405654
30
0
41
1
10
178.964680092229
20
-0.0536591604795262
30
0
41
1
10
178.956628447357
20
-0.0686474753075856
30
0
0
SPLINE
5
CD
100
AcDbEntity
8
1
62
256
6
ByLayer
370
18
48
1
60
0
100
AcDbSpline
70
4
71
3
72
114
73
110
40
0
40
0
40
0
40
0
40
0.0200853260860125
40
0.0200853260860125
40
0.0416361195284108
40
0.0416361195284108
40
0.0631869129708091
40
0.0631869129708091
40
0.0847377064132073
40
0.0847377064132073
40
0.106288499855606
40
0.106288499855606
40
0.127839293298004
40
0.127839293298004
40
0.138614690019203
40
0.138614690019203
40
0.149390086740402
40
0.149390086740402
40
0.170940880182802
40
0.170940880182802
40
0.192491673625201
40
0.192491673625201
40
0.2140424670676
40
0.2140424670676
40
0.224817863788801
40
0.224817863788801
40
0.235593260510001
40
0.235593260510001
40
0.2571440539524
40
0.2571440539524
40
0.2786948473948
40
0.2786948473948
40
0.289470244115999
40
0.289470244115999
40
0.300245640837198
40
0.300245640837198
40
0.321796434279598
40
0.321796434279598
40
0.343347227721997
40
0.343347227721997
40
0.364898021164397
40
0.364898021164397
40
0.386448814606796
40
0.386448814606796
40
0.407999608049195
40
0.407999608049195
40
0.429550401491595
40
0.429550401491595
40
0.440325798212795
40
0.440325798212795
40
0.451101194933995
40
0.451101194933995
40
0.472651988376395
40
0.472651988376395
40
0.494202781818794
40
0.494202781818794
40
0.515753575261194
40
0.515753575261194
40
0.537304368703593
40
0.537304368703593
40
0.558855162145993
40
0.558855162145993
40
0.580405955588392
40
0.580405955588392
40
0.601956749030792
40
0.601956749030792
40
0.623507542473191
40
0.623507542473191
40
0.645058335915591
40
0.645058335915591
40
0.655833732636791
40
0.655833732636791
40
0.666609129357992
40
0.666609129357992
40
0.688159922800392
40
0.688159922800392
40
0.709710716242793
40
0.709710716242793
40
0.731261509685193
40
0.731261509685193
40
0.742036906406394
40
0.742036906406394
40
0.752812303127594
40
0.752812303127594
40
0.774363096569995
40
0.774363096569995
40
0.795913890012395
40
0.795913890012395
40
0.806689286733596
40
0.806689286733596
40
0.817464683454796
40
0.817464683454796
40
0.839015476897196
40
0.839015476897196
40
0.860566270339597
40
0.860566270339597
40
0.882117063781997
40
0.882117063781997
40
0.903667857224398
40
0.903667857224398
40
0.9467694441092
40
0.9467694441092
40
0.957544840830401
40
0.957544840830401
40
0.968320237551601
40
0.968320237551601
40
0.989871030994001
40
0.989871030994001
40
1
40
1
40
1
40
1
41
1
10
159.23750246588
20
-3.70066687142184
30
0
41
1
10
158.854898127727
20
-3.85742909509301
30
0
41
1
10
158.472090181287
20
-4.00912953146124
30
0
41
1
10
157.678118631024
20
-4.31493078380893
30
0
41
1
10
157.267096017012
20
-4.46840903033163
30
0
41
1
10
156.443974802492
20
-4.7628469067879
30
0
41
1
10
156.031587147864
20
-4.90325420488168
30
0
41
1
10
155.208241263299
20
-5.17091404135198
30
0
41
1
10
154.797609584585
20
-5.29942047504971
30
0
41
1
10
153.975804282708
20
-5.53977415793591
30
0
41
1
10
153.565000502785
20
-5.65205674725212
30
0
41
1
10
152.743374622241
20
-5.86225587006297
30
0
41
1
10
152.332484182947
20
-5.96088720722977
30
0
41
1
10
151.715144190228
20
-6.09585528368711
30
0
41
1
10
151.50920780734
20
-6.13876326011086
30
0
41
1
10
151.097009355359
20
-6.22030617884164
30
0
41
1
10
150.891082696986
20
-6.25910167942035
30
0
41
1
10
150.273633216192
20
-6.36894582329759
30
0
41
1
10
149.862096689377
20
-6.43463773693628
30
0
41
1
10
149.039867007018
20
-6.5482073662119
30
0
41
1
10
148.629174989778
20
-6.59601439018437
30
0
41
1
10
147.807511437481
20
-6.67337730585078
30
0
41
1
10
147.396290169936
20
-6.70414885761005
30
0
41
1
10
146.779100494259
20
-6.73710809318172
30
0
41
1
10
146.573575711879
20
-6.74591266078446
30
0
41
1
10
146.16188110974
20
-6.75865243526283
30
0
41
1
10
145.955726125634
20
-6.76237207264032
30
0
41
1
10
145.33732165007
20
-6.76706421417728
30
0
41
1
10
144.925603036626
20
-6.76194777021274
30
0
41
1
10
144.103017714625
20
-6.7344539017466
30
0
41
1
10
143.692112521931
20
-6.7113695917617
30
0
41
1
10
143.075430092276
20
-6.66292039317182
30
0
41
1
10
142.86974683036
20
-6.64459273408337
30
0
41
1
10
142.458723439576
20
-6.60381445149304
30
0
41
1
10
142.253340080561
20
-6.58138696994681
30
0
41
1
10
141.636491733099
20
-6.50788795475475
30
0
41
1
10
141.224676616394
20
-6.45018131534903
30
0
41
1
10
140.400119626414
20
-6.31619779433791
30
0
41
1
10
139.988019810446
20
-6.24069620162757
30
0
41
1
10
139.164834394807
20
-6.07495393047205
30
0
41
1
10
138.753116736287
20
-5.98470913490382
30
0
41
1
10
137.931378940707
20
-5.78560364036028
30
0
41
1
10
137.520420725444
20
-5.67836398117691
30
0
41
1
10
136.697647968454
20
-5.45100679249762
30
0
41
1
10
136.286155870304
20
-5.33030202919548
30
0
41
1
10
135.462162271368
20
-5.07275698203475
30
0
41
1
10
135.049410112825
20
-4.9362589393848
30
0
41
1
10
134.43127050825
20
-4.72410209444493
30
0
41
1
10
134.225289475618
20
-4.65196782092849
30
0
41
1
10
133.813990081145
20
-4.50411507227406
30
0
41
1
10
133.608354620875
20
-4.42883013206753
30
0
41
1
10
132.991466368575
20
-4.19800851218889
30
0
41
1
10
132.5801458573
20
-4.0383385240545
30
0
41
1
10
131.757507895841
20
-3.70976356105129
30
0
41
1
10
131.346171955344
20
-3.54047123643665
30
0
41
1
10
130.522185091969
20
-3.19217045580751
30
0
41
1
10
130.108966647027
20
-3.01315265463205
30
0
41
1
10
129.284881673845
20
-2.6472592067299
30
0
41
1
10
128.8730014033
20
-2.4616994015918
30
0
41
1
10
128.049799714236
20
-2.08436434865953
30
0
41
1
10
127.638640231512
20
-1.89201633615531
30
0
41
1
10
126.816035002389
20
-1.50358766026116
30
0
41
1
10
126.404499086058
20
-1.30758848547526
30
0
41
1
10
125.580441373083
20
-0.912557598212572
30
0
41
1
10
125.168337842437
20
-0.711694802937387
30
0
41
1
10
124.343008247639
20
-0.310858896688643
30
0
41
1
10
123.930760195542
20
-0.110402775971579
30
0
41
1
10
123.107290101756
20
0.290796128085106
30
0
41
1
10
122.696013977755
20
0.491358510695477
30
0
41
1
10
122.078712412537
20
0.790029326239306
30
0
41
1
10
121.872891240679
20
0.889268379555517
30
0
41
1
10
121.461147866114
20
1.08711509600127
30
0
41
1
10
121.2555225668
20
1.1863281507743
30
0
41
1
10
120.638073522414
20
1.48212947572841
30
0
41
1
10
120.22581178659
20
1.67713239441014
30
0
41
1
10
119.400156275276
20
2.06279491631909
30
0
41
1
10
118.987606865051
20
2.25343924046456
30
0
41
1
10
118.163557951435
20
2.6277617872905
30
0
41
1
10
117.751654640371
20
2.81108448669031
30
0
41
1
10
117.13411537187
20
3.07977005614779
30
0
41
1
10
116.928584933898
20
3.16885052915012
30
0
41
1
10
116.517092206926
20
3.34436785630478
30
0
41
1
10
116.311253142057
20
3.43099582606942
30
0
41
1
10
115.693439388308
20
3.68728171704336
30
0
41
1
10
115.28133607846
20
3.85350875193146
30
0
41
1
10
114.456225710781
20
4.17600815184883
30
0
41
1
10
114.043132810925
20
4.33233996215424
30
0
41
1
10
113.42448255917
20
4.55709882005982
30
0
41
1
10
113.218263586983
20
4.63031603995739
30
0
41
1
10
112.806435494865
20
4.77404969618215
30
0
41
1
10
112.600776569757
20
4.84445805356509
30
0
41
1
10
111.983424328942
20
5.04993574823311
30
0
41
1
10
111.571682118695
20
5.17992077579066
30
0
41
1
10
110.748207992479
20
5.42724941853459
30
0
41
1
10
110.336450680508
20
5.54410943966258
30
0
41
1
10
109.51169471651
20
5.7619900462584
30
0
41
1
10
109.097910324786
20
5.86331541400577
30
0
41
1
10
108.273260149593
20
6.05175102069316
30
0
41
1
10
107.861317538527
20
6.13774837654665
30
0
41
1
10
106.62572494233
20
6.36859553602147
30
0
41
1
10
105.803345718221
20
6.49178527682236
30
0
41
1
10
104.772452498341
20
6.5999713186284
30
0
41
1
10
104.566136083039
20
6.61933291726606
30
0
41
1
10
104.1537113045
20
6.6539509777694
30
0
41
1
10
103.947183428794
20
6.669093786936
30
0
41
1
10
103.327943101996
20
6.7080157256394
30
0
41
1
10
102.915474509345
20
6.72539824367297
30
0
41
1
10
102.309928768579
20
6.73714955059856
30
0
41
1
10
102.116415897919
20
6.7387915745941
30
0
41
1
10
101.922928112228
20
6.73845492050418
30
0
0
SPLINE
5
CE
100
AcDbEntity
8
1
62
256
6
ByLayer
370
18
48
1
60
0
100
AcDbSpline
70
4
71
3
72
112
73
108
40
0
40
0
40
0
40
0
40
0.0088136049514566
40
0.0088136049514566
40
0.0299026771865326
40
0.0299026771865326
40
0.0509917494216089
40
0.0509917494216089
40
0.0720808216566852
40
0.0720808216566852
40
0.0931698938917616
40
0.0931698938917616
40
0.114258966126838
40
0.114258966126838
40
0.135348038361914
40
0.135348038361914
40
0.15643711059699
40
0.15643711059699
40
0.166981646714528
40
0.166981646714528
40
0.177526182832066
40
0.177526182832066
40
0.198615255067141
40
0.198615255067141
40
0.219704327302216
40
0.219704327302216
40
0.240793399537291
40
0.240793399537291
40
0.251337935654828
40
0.251337935654828
40
0.261882471772366
40
0.261882471772366
40
0.282971544007441
40
0.282971544007441
40
0.304060616242516
40
0.304060616242516
40
0.314605152360053
40
0.314605152360053
40
0.32514968847759
40
0.32514968847759
40
0.346238760712665
40
0.346238760712665
40
0.367327832947739
40
0.367327832947739
40
0.388416905182814
40
0.388416905182814
40
0.409505977417888
40
0.409505977417888
40
0.430595049652962
40
0.430595049652962
40
0.451684121888037
40
0.451684121888037
40
0.472773194123111
40
0.472773194123111
40
0.493862266358186
40
0.493862266358186
40
0.51495133859326
40
0.51495133859326
40
0.536040410828335
40
0.536040410828335
40
0.557129483063409
40
0.557129483063409
40
0.578218555298484
40
0.578218555298484
40
0.599307627533558
40
0.599307627533558
40
0.609852163651096
40
0.609852163651096
40
0.620396699768633
40
0.620396699768633
40
0.641485772003708
40
0.641485772003708
40
0.662574844238783
40
0.662574844238783
40
0.673119380356321
40
0.673119380356321
40
0.683663916473858
40
0.683663916473858
40
0.704752988708934
40
0.704752988708934
40
0.72584206094401
40
0.72584206094401
40
0.746931133179085
40
0.746931133179085
40
0.768020205414161
40
0.768020205414161
40
0.789109277649237
40
0.789109277649237
40
0.810198349884312
40
0.810198349884312
40
0.82074288600185
40
0.82074288600185
40
0.831287422119389
40
0.831287422119389
40
0.852376494354465
40
0.852376494354465
40
0.873465566589541
40
0.873465566589541
40
0.894554638824617
40
0.894554638824617
40
0.915643711059694
40
0.915643711059694
40
0.957821855529846
40
0.957821855529846
40
0.978910927764923
40
0.978910927764923
40
1
40
1
40
1
40
1
41
1
10
72.1067151903719
20
-3.68858573361774
30
0
41
1
10
71.9342133686312
20
-3.75858959874475
30
0
41
1
10
71.7617636849742
20
-3.82769713814196
30
0
41
1
10
71.1770736523118
20
-4.05856354321818
30
0
41
1
10
70.7650139105346
20
-4.21476398886412
30
0
41
1
10
69.941945105602
20
-4.51841324592675
30
0
41
1
10
69.5301567586335
20
-4.6643635772011
30
0
41
1
10
68.7063079990149
20
-4.94345278585533
30
0
41
1
10
68.2943485908378
20
-5.07607848835644
30
0
41
1
10
67.4693523517968
20
-5.32845597324368
30
0
41
1
10
67.0558849179484
20
-5.44833070796395
30
0
41
1
10
66.2304587606668
20
-5.6722483160022
30
0
41
1
10
65.8189588221747
20
-5.77689485876232
30
0
41
1
10
64.9952520727659
20
-5.96940544829357
30
0
41
1
10
64.5834647928862
20
-6.05834168897078
30
0
41
1
10
63.7600101534906
20
-6.21971256492134
30
0
41
1
10
63.3482436254296
20
-6.29185243632938
30
0
41
1
10
62.7295830605887
20
-6.38784158707748
30
0
41
1
10
62.5232048458483
20
-6.41785314592841
30
0
41
1
10
62.1102077579025
20
-6.47383677315295
30
0
41
1
10
61.903808476458
20
-6.49994803330921
30
0
41
1
10
61.2848716502295
20
-6.57115829082926
30
0
41
1
10
60.872560165013
20
-6.60913471182735
30
0
41
1
10
60.0486933194921
20
-6.66790868303579
30
0
41
1
10
59.6371344214975
20
-6.68900366868843
30
0
41
1
10
58.8138255699014
20
-6.71307297003756
30
0
41
1
10
58.4017929123122
20
-6.71533291331895
30
0
41
1
10
57.7835833215429
20
-6.7059987288832
30
0
41
1
10
57.5776716914984
20
-6.70076812602881
30
0
41
1
10
57.1652325093734
20
-6.68603968142563
30
0
41
1
10
56.9587881517115
20
-6.67652969453533
30
0
41
1
10
56.3390770641336
20
-6.64123102172752
30
0
41
1
10
55.9266906136768
20
-6.6082811188526
30
0
41
1
10
55.1027391856042
20
-6.5251230852848
30
0
41
1
10
54.6910617320427
20
-6.47544877109681
30
0
41
1
10
54.0732920476694
20
-6.38831388853393
30
0
41
1
10
53.8672479181635
20
-6.35721714271492
30
0
41
1
10
53.4556788669436
20
-6.29017202155026
30
0
41
1
10
53.2499335353779
20
-6.25430160493812
30
0
41
1
10
52.6321109251391
20
-6.14087940368816
30
0
41
1
10
52.2196632069306
20
-6.05782097340762
30
0
41
1
10
51.3939989040097
20
-5.87508714499529
30
0
41
1
10
50.981098448731
20
-5.77542099552298
30
0
41
1
10
50.1566414784134
20
-5.56121314862031
30
0
41
1
10
49.7442982003705
20
-5.44750130669581
30
0
41
1
10
48.9213271438089
20
-5.20472129308996
30
0
41
1
10
48.5096750367474
20
-5.07672424120392
30
0
41
1
10
47.6857957640788
20
-4.80673819511696
30
0
41
1
10
47.2737553402378
20
-4.66496266919964
30
0
41
1
10
46.4487359243437
20
-4.36971589062927
30
0
41
1
10
46.0353676329126
20
-4.21608413438236
30
0
41
1
10
45.2101300553957
20
-3.89850552665106
30
0
41
1
10
44.7985256079771
20
-3.73344590272066
30
0
41
1
10
43.9749047612034
20
-3.39592763763935
30
0
41
1
10
43.563082777327
20
-3.22299687572544
30
0
41
1
10
42.7395982931762
20
-2.86782157313263
30
0
41
1
10
42.3278387504278
20
-2.68565634161476
30
0
41
1
10
41.5030213321849
20
-2.31602003329169
30
0
41
1
10
41.0895377879752
20
-2.12796255257427
30
0
41
1
10
40.2645320632984
20
-1.74480078089311
30
0
41
1
10
39.8523317754326
20
-1.55130759164396
30
0
41
1
10
39.0283105875088
20
-1.16159115750506
30
0
41
1
10
38.6166818569079
20
-0.964875801071315
30
0
41
1
10
37.7933560839563
20
-0.56914572446999
30
0
41
1
10
37.3814940248042
20
-0.370350822024676
30
0
41
1
10
36.762969028565
20
-0.072220408058115
30
0
41
1
10
36.5569725269653
20
0.0278118188398082
30
0
41
1
10
36.1445454340014
20
0.227516210983907
30
0
41
1
10
35.9380750335942
20
0.327278051172641
30
0
41
1
10
35.3184659349027
20
0.625924052964848
30
0
41
1
10
34.9061078896885
20
0.82392780589916
30
0
41
1
10
34.0821136117816
20
1.21756929358028
30
0
41
1
10
33.670445896225
20
1.4131400872692
30
0
41
1
10
33.0527078217225
20
1.70251264909018
30
0
41
1
10
32.8467552288875
20
1.79825736659245
30
0
41
1
10
32.4348669494696
20
1.98859996435789
30
0
41
1
10
32.2291903155364
20
2.08376137037939
30
0
41
1
10
31.6113998257076
20
2.36629979496027
30
0
41
1
10
31.1989309751715
20
2.5514656641885
30
0
41
1
10
30.3731292456039
20
2.91551769995249
30
0
41
1
10
29.9603263250568
20
3.09374022366634
30
0
41
1
10
29.1359723236373
20
3.44076176995694
30
0
41
1
10
28.7237306865692
20
3.60927082363659
30
0
41
1
10
27.9002256955964
20
3.93776530724202
30
0
41
1
10
27.4888661789427
20
4.09753666527524
30
0
41
1
10
26.6648978927219
20
4.40457547092939
30
0
41
1
10
26.2527670680374
20
4.55263856475713
30
0
41
1
10
25.4276464061144
20
4.83678184644572
30
0
41
1
10
25.0143551676566
20
4.97238006529673
30
0
41
1
10
24.3956193607362
20
5.16380454791457
30
0
41
1
10
24.1893530761541
20
5.22586239886311
30
0
41
1
10
23.7775770941204
20
5.34755015555157
30
0
41
1
10
23.5717919067114
20
5.40677853921835
30
0
41
1
10
22.9543036188228
20
5.57885539509519
30
0
41
1
10
22.5426106627046
20
5.68626099851812
30
0
41
1
10
21.7195391182378
20
5.88621393585416
30
0
41
1
10
21.3080976525609
20
5.97863647110867
30
0
41
1
10
20.4841781243021
20
6.14691158391449
30
0
41
1
10
20.0714024343954
20
6.22275733402455
30
0
41
1
10
19.2458312920783
20
6.35670495259586
30
0
41
1
10
18.8327269969868
20
6.41503948632229
30
0
41
1
10
17.5953961883976
20
6.5664330345117
30
0
41
1
10
16.7729920718944
20
6.63341896156183
30
0
41
1
10
15.5374714259444
20
6.68086938575269
30
0
41
1
10
15.1261224948982
20
6.68779085472704
30
0
41
1
10
14.3018201334767
20
6.68319647036637
30
0
41
1
10
13.8887570523123
20
6.67202396804302
30
0
41
1
10
13.4750578097787
20
6.65241149353503
30
0
0
SPLINE
5
CF
100
AcDbEntity
8
1
62
256
6
ByLayer
370
18
48
1
60
0
100
AcDbSpline
70
4
71
3
72
16
73
12
40
0
40
0
40
0
40
0
40
0.116186789906885
40
0.116186789906885
40
0.279372226042172
40
0.279372226042172
40
0.360964944109817
40
0.360964944109817
40
0.442557662177462
40
0.442557662177462
40
1
40
1
40
1
40
1
41
1
10
132.501423224553
20
-6.75816233459381
30
0
41
1
10
132.187593513559
20
-6.76023900887864
30
0
41
1
10
131.873342507898
20
-6.75712082611224
30
0
41
1
10
131.11639050996
20
-6.73701795842015
30
0
41
1
10
130.673115388798
20
-6.71492590007887
30
0
41
1
10
130.005971061467
20
-6.66619779562441
30
0
41
1
10
129.783363848008
20
-6.64735491009239
30
0
41
1
10
129.339320257976
20
-6.60467212927517
30
0
41
1
10
129.117643989358
20
-6.5808158633638
30
0
41
1
10
127.383762855401
20
-6.37455972695554
30
0
41
1
10
125.88478807367
20
-6.07912174370065
30
0
41
1
10
124.384588166037
20
-5.6834922514339
30
0
0
SPLINE
5
D0
100
AcDbEntity
8
1
62
256
6
ByLayer
370
13
48
1
60
0
100
AcDbSpline
70
4
71
3
72
24
73
20
40
0
40
0
40
0
40
0
40
0.0424353134716242
40
0.0424353134716242
40
0.187763083544064
40
0.187763083544064
40
0.260426968580284
40
0.260426968580284
40
0.333090853616504
40
0.333090853616504
40
0.478418623688944
40
0.478418623688944
40
0.551082508725164
40
0.551082508725164
40
0.623746393761384
40
0.623746393761384
40
0.914401933906261
40
0.914401933906261
40
1
40
1
40
1
40
1
41
1
10
124.384588166324
20
-5.68349225150962
30
0
41
1
10
124.128116507267
20
-5.61585609733174
30
0
41
1
10
123.871609041764
20
-5.54529167117792
30
0
41
1
10
122.73615869214
20
-5.22044812171541
30
0
41
1
10
121.855929841004
20
-4.93574425883483
30
0
41
1
10
120.529084513118
20
-4.46403876537215
30
0
41
1
10
120.085715188686
20
-4.29937356393205
30
0
41
1
10
119.196061602441
20
-3.95617341509782
30
0
41
1
10
118.751009788445
20
-3.77812826484515
30
0
41
1
10
117.418486329219
20
-3.2285495943072
30
0
41
1
10
116.531908000532
20
-2.84070835336266
30
0
41
1
10
115.199823831401
20
-2.23569050162447
30
0
41
1
10
114.755421876195
20
-2.03014797458508
30
0
41
1
10
113.865122267653
20
-1.61277723773605
30
0
41
1
10
113.420805243416
20
-1.40167596351228
30
0
41
1
10
111.206090919014
20
-0.340408935467508
30
0
41
1
10
109.45143684915
20
0.529013626960875
30
0
41
1
10
107.170767112067
20
1.61503636290431
30
0
41
1
10
106.651328443906
20
1.85954514830104
30
0
41
1
10
106.130645417056
20
2.10011957882469
30
0
0
SPLINE
5
D1
100
AcDbEntity
8
1
62
256
6
ByLayer
370
18
48
1
60
0
100
AcDbSpline
70
4
71
3
72
14
73
10
40
0
40
0
40
0
40
0
40
0.17909044863265
40
0.17909044863265
40
0.824459493281514
40
0.824459493281514
40
0.985801754443726
40
0.985801754443726
40
1
40
1
40
1
40
1
41
1
10
45.5419467956589
20
-6.70259297678643
30
0
41
1
10
45.052923287051
20
-6.7081646436485
30
0
41
1
10
44.5646124443417
20
-6.70121821987601
30
0
41
1
10
42.3178219408658
20
-6.61209284513058
30
0
41
1
10
40.561663483686
20
-6.38057843364413
30
0
41
1
10
38.3403850769944
20
-5.90003374367092
30
0
41
1
10
37.893872191138
20
-5.79416394287446
30
0
41
1
10
37.4101878721086
20
-5.66995691141582
30
0
41
1
10
37.3710768337188
20
-5.65984543390877
30
0
41
1
10
37.3319762882169
20
-5.64966913985808
30
0
0
SPLINE
5
D2
100
AcDbEntity
8
1
62
256
6
ByLayer
370
13
48
1
60
0
100
AcDbSpline
70
4
71
3
72
24
73
20
40
0
40
0
40
0
40
0
40
0.0661636617909708
40
0.0661636617909708
40
0.21125942072523
40
0.21125942072523
40
0.501450938593747
40
0.501450938593747
40
0.537724878327312
40
0.537724878327312
40
0.573998818060878
40
0.573998818060878
40
0.646546697528008
40
0.646546697528008
40
0.791642456462271
40
0.791642456462271
40
0.936738215396534
40
0.936738215396534
40
1
40
1
40
1
40
1
41
1
10
37.3319772552385
20
-5.64966939153473
30
0
41
1
10
36.9267570569512
20
-5.54420693854752
30
0
41
1
10
36.522663826906
20
-5.4317829920191
30
0
41
1
10
35.2348797632518
20
-5.05208606342228
30
0
41
1
10
34.3542441240696
20
-4.76010471859624
30
0
41
1
10
31.71497523464
20
-3.80469245936732
30
0
41
1
10
29.9589963897895
20
-3.06158273664977
30
0
41
1
10
27.9607443528434
20
-2.15250535503131
30
0
41
1
10
27.7383932551944
20
-2.05049707781433
30
0
41
1
10
27.2929500596543
20
-1.84465418276949
30
0
41
1
10
27.0698771948952
20
-1.74082631292691
30
0
41
1
10
26.4023585572697
20
-1.42826671531913
30
0
41
1
10
25.9586253452352
20
-1.21801324669562
30
0
41
1
10
24.6301329481333
20
-0.584021074639509
30
0
41
1
10
23.7482144215308
20
-0.156741361235589
30
0
41
1
10
21.9854804552039
20
0.693519581927859
30
0
41
1
10
21.104637346928
20
1.11644438401552
30
0
41
1
10
19.8363019556225
20
1.71173239207278
30
0
41
1
10
19.4507973560729
20
1.89097978288015
30
0
41
1
10
19.0646052936691
20
2.06815195252358
30
0
0
SPLINE
5
D3
100
AcDbEntity
8
1
62
256
6
ByLayer
370
18
48
1
60
0
100
AcDbSpline
70
4
71
3
72
14
73
10
40
0
40
0
40
0
40
0
40
0.25
40
0.25
40
0.5
40
0.5
40
0.75
40
0.75
40
1
40
1
40
1
40
1
41
1
10
176.565449356271
20
-6.77758301020762
30
0
41
1
10
176.56783147729
20
-6.77686810967339
30
0
41
1
10
176.569516895585
20
-6.77799678822029
30
0
41
1
10
176.571040314931
20
-6.78510405357559
30
0
41
1
10
176.570801213184
20
-6.79107964043345
30
0
41
1
10
176.567773090131
20
-6.8081771571832
30
0
41
1
10
176.564941779543
20
-6.81933954367508
30
0
41
1
10
176.557178430775
20
-6.84433168485836
30
0
41
1
10
176.552383896959
20
-6.85777586780247
30
0
41
1
10
176.547286812597
20
-6.87078871347467
30
0
0
SPLINE
5
D4
100
AcDbEntity
8
1
62
256
6
ByLayer
370
18
48
1
60
0
100
AcDbSpline
70
4
71
3
72
10
73
6
40
0
40
0
40
0
40
0
40
0.5
40
0.5
40
1
40
1
40
1
40
1
41
1
10
178.975476875376
20
0.158648206668829
30
0
41
1
10
178.977578554137
20
0.141625136584423
30
0
41
1
10
178.980863466643
20
0.122869702296669
30
0
41
1
10
178.989161504963
20
0.0828243678042497
30
0
41
1
10
178.994242032319
20
0.0613359944564138
30
0
41
1
10
178.9999730441
20
0.0393438350120618
30
0
0
SPLINE
5
D5
100
AcDbEntity
8
1
62
256
6
ByLayer
370
18
48
1
60
0
100
AcDbSpline
70
4
71
3
72
37
73
33
40
0
40
0
40
0
40
0
40
0.124999999999992
40
0.124999999999992
40
0.249999999999984
40
0.249999999999984
40
0.312499999999981
40
0.312499999999981
40
0.374999999999978
40
0.374999999999978
40
0.437499999999975
40
0.437499999999975
40
0.468749999999974
40
0.468749999999974
40
0.484374999999974
40
0.484374999999974
40
0.492187499999975
40
0.492187499999975
40
0.499999999999975
40
0.499999999999975
40
0.507812499999976
40
0.507812499999976
40
0.515624999999977
40
0.531249999999978
40
0.531249999999978
40
0.562499999999981
40
0.562499999999981
40
0.624999999999985
40
0.624999999999985
40
0.74999999999999
40
0.74999999999999
40
1
40
1
40
1
40
1
41
1
10
7.07374221898161
20
0.811033378525224
30
0
41
1
10
7.13430983342204
20
1.15140607843412
30
0
41
1
10
7.2317126724295
20
1.47848552892196
30
0
41
1
10
7.50112678995953
20
2.10703605440824
30
0
41
1
10
7.668153142547
20
2.39679023225318
30
0
41
1
10
7.95909716537022
20
2.79990190987064
30
0
41
1
10
8.06330111110765
20
2.92948676765764
30
0
41
1
10
8.28214186043797
20
3.17650353386773
30
0
41
1
10
8.39682820061438
20
3.2940957494487
30
0
41
1
10
8.63578479731041
20
3.5188461062649
30
0
41
1
10
8.76009242638398
20
3.62600203730349
30
0
41
1
10
8.95211413690117
20
3.77898837122134
30
0
41
1
10
9.01710286901914
20
3.82873917118738
30
0
41
1
10
9.11586561915865
20
3.90152757572642
30
0
41
1
10
9.14900840398889
20
3.92548902716678
30
0
41
1
10
9.19902880240869
20
3.96097958101967
30
0
41
1
10
9.21509942607742
20
3.97356187809029
30
0
41
1
10
9.25462131622305
20
3.99035763327171
30
0
41
1
10
9.27571360165712
20
3.99476636648004
30
0
41
1
10
9.31952377477126
20
3.99873646855681
30
0
41
1
10
9.34162434876208
20
3.99995586796317
30
0
41
1
10
9.38564772926406
20
4.00306150457922
30
0
41
1
10
9.451698957541
20
4.00754557511468
30
0
41
1
10
9.51779861114417
20
4.01150784511003
30
0
41
1
10
9.65006196965686
20
4.01874409910315
30
0
41
1
10
9.73827648058628
20
4.02264808422953
30
0
41
1
10
10.0029132717613
20
4.03163710492805
30
0
41
1
10
10.1793803598987
20
4.034009878163
30
0
41
1
10
10.708907193264
20
4.03047265513104
30
0
41
1
10
11.0622155605261
20
4.01386911948734
30
0
41
1
10
12.1105781356826
20
3.92277887764285
30
0
41
1
10
12.7982711083051
20
3.80768177825914
30
0
41
1
10
13.4750578097788
20
3.63343017484201
30
0
0
SPLINE
5
D6
100
AcDbEntity
8
1
62
256
6
ByLayer
370
18
48
1
60
0
100
AcDbSpline
70
4
71
3
72
8
73
4
40
0
40
0
40
0
40
0
40
1
40
1
40
1
40
1
41
1
10
178.801463471684
20
-0.359032485395176
30
0
41
1
10
178.022455238984
20
-2.49934001430455
30
0
41
1
10
177.243447006285
20
-4.63964754321316
30
0
41
1
10
176.464438773586
20
-6.77995507212182
30
0
0
SPLINE
5
D7
100
AcDbEntity
8
1
62
256
6
ByLayer
370
18
48
1
60
0
100
AcDbSpline
70
4
71
3
72
42
73
38
40
0
40
0
40
0
40
0
40
0.0624999999999999
40
0.0624999999999999
40
0.0937499999999999
40
0.0937499999999999
40
0.125
40
0.125
40
0.1875
40
0.1875
40
0.21875
40
0.21875
40
0.25
40
0.25
40
0.312500000000001
40
0.312500000000001
40
0.375000000000001
40
0.375000000000001
40
0.406250000000001
40
0.406250000000001
40
0.437500000000001
40
0.437500000000001
40
0.500000000000001
40
0.500000000000001
40
0.5625
40
0.5625
40
0.59375
40
0.59375
40
0.625
40
0.625
40
0.75
40
0.75
40
0.875
40
0.875
40
0.9375
40
0.9375
40
1
40
1
40
1
40
1
41
1
10
7.38929999382089
20
0.617458952639652
30
0
41
1
10
7.34657071565289
20
0.357388409434662
30
0
41
1
10
7.32734315100964
20
0.0970032295207091
30
0
41
1
10
7.32932256605102
20
-0.293963026142535
30
0
41
1
10
7.33513947056721
20
-0.424350163641492
30
0
41
1
10
7.35657628799567
20
-0.685243961784295
30
0
41
1
10
7.37229095141461
20
-0.81610485316466
30
0
41
1
10
7.43224455140788
20
-1.20176808561556
30
0
41
1
10
7.48928423311861
20
-1.45195217548962
30
0
41
1
10
7.59591574500922
20
-1.81822959245881
30
0
41
1
10
7.6351168699475
20
-1.9391455147672
30
0
41
1
10
7.71953303632756
20
-2.17655113992396
30
0
41
1
10
7.76453470812382
20
-2.29251812906847
30
0
41
1
10
7.90694197082053
20
-2.63296876827258
30
0
41
1
10
8.0116903500155
20
-2.85004720454361
30
0
41
1
10
8.23747805021446
20
-3.26701587139749
30
0
41
1
10
8.35854072255407
20
-3.46688679600496
30
0
41
1
10
8.55109598338888
20
-3.75479692154306
30
0
41
1
10
8.6168852750252
20
-3.84840856066319
30
0
41
1
10
8.75056408169763
20
-4.02995000591298
30
0
41
1
10
8.81859008484355
20
-4.11808436111659
30
0
41
1
10
9.02601816435001
20
-4.37503523139242
30
0
41
1
10
9.16875071530589
20
-4.53642590495201
30
0
41
1
10
9.46256910031258
20
-4.8410124156857
30
0
41
1
10
9.6136605188122
20
-4.98419827098624
30
0
41
1
10
9.84659323508853
20
-5.18598004570114
30
0
41
1
10
9.92529069687731
20
-5.2510695315124
30
0
41
1
10
10.0848393945727
20
-5.37696705715126
30
0
41
1
10
10.1657902540674
20
-5.43783445952602
30
0
41
1
10
10.5726095241581
20
-5.7291736733948
30
0
41
1
10
10.9070812688656
20
-5.9230013855217
30
0
41
1
10
11.5982635906921
20
-6.24241131700705
30
0
41
1
10
11.9549501197708
20
-6.36806502953706
30
0
41
1
10
12.5113405195783
20
-6.50945217110555
30
0
41
1
10
12.700555394679
20
-6.54863889038884
30
0
41
1
10
13.0835773477404
20
-6.61156349183898
30
0
41
1
10
13.2777938370313
20
-6.63542525158422
30
0
41
1
10
13.4750578097788
20
-6.65241149353525
30
0
0
SPLINE
5
D8
100
AcDbEntity
8
1
62
256
6
ByLayer
370
18
48
1
60
0
100
AcDbSpline
70
4
71
3
72
8
73
4
40
0
40
0
40
0
40
0
40
1
40
1
40
1
40
1
41
1
10
7.38929999382091
20
0.617458952639652
30
0
41
1
10
7.24413572824517
20
0.687628266464571
30
0
41
1
10
7.09869243471891
20
0.757900202317273
30
0
41
1
10
6.95297230403654
20
0.828234444520518
30
0
0
SPLINE
5
D9
100
AcDbEntity
8
1
62
256
6
ByLayer
370
18
48
1
60
0
100
AcDbSpline
70
4
71
3
72
8
73
4
40
0
40
0
40
0
40
0
40
1
40
1
40
1
40
1
41
1
10
176.445073875831
20
7.1312061418744
30
0
41
1
10
176.169589777484
20
7.13948405910159
30
0
41
1
10
175.893872812201
20
7.14351836524705
30
0
41
1
10
175.618241190272
20
7.14331808011079
30
0
0
SPLINE
5
DA
100
AcDbEntity
8
1
62
256
6
ByLayer
370
18
48
1
60
0
100
AcDbSpline
70
4
71
3
72
56
73
52
40
0
40
0
40
0
40
0
40
0.0480355052943053
40
0.0480355052943053
40
0.0757057391039359
40
0.0757057391039359
40
0.103375972913566
40
0.103375972913566
40
0.158716440532828
40
0.158716440532828
40
0.186386674342459
40
0.186386674342459
40
0.214056908152089
40
0.214056908152089
40
0.26939737577135
40
0.26939737577135
40
0.324737843390612
40
0.324737843390612
40
0.380078311009873
40
0.380078311009873
40
0.407748544819505
40
0.407748544819505
40
0.435418778629136
40
0.435418778629136
40
0.490759246248398
40
0.490759246248398
40
0.518429480058029
40
0.518429480058029
40
0.54609971386766
40
0.54609971386766
40
0.601440181486922
40
0.601440181486922
40
0.656780649106185
40
0.656780649106185
40
0.684450882915816
40
0.684450882915816
40
0.712121116725448
40
0.712121116725448
40
0.76746158434471
40
0.76746158434471
40
0.795131818154342
40
0.795131818154342
40
0.822802051963974
40
0.822802051963974
40
0.878142519583239
40
0.878142519583239
40
0.933482987202503
40
0.933482987202503
40
0.988823454821767
40
0.988823454821767
40
1
40
1
40
1
40
1
41
1
10
136.390867709403
20
-6.7758561732787
30
0
41
1
10
135.623903511601
20
-6.89618180671573
30
0
41
1
10
134.858804532956
20
-6.98504125480949
30
0
41
1
10
133.652589306558
20
-7.07435927307088
30
0
41
1
10
133.211614109813
20
-7.09631977200328
30
0
41
1
10
132.32866908418
20
-7.1186389770626
30
0
41
1
10
131.886175312639
20
-7.11897159982121
30
0
41
1
10
130.56089077834
20
-7.08742919081755
30
0
41
1
10
129.679761799366
20
-7.02313372586255
30
0
41
1
10
128.35671316955
20
-6.86350670254228
30
0
41
1
10
127.915440779501
20
-6.79978622623665
30
0
41
1
10
127.031625575285
20
-6.65162460174253
30
0
41
1
10
126.589226070836
20
-6.56716656716239
30
0
41
1
10
125.264873186028
20
-6.28485977325093
30
0
41
1
10
124.383808691344
20
-6.05771814060083
30
0
41
1
10
122.618843146355
20
-5.53203675180609
30
0
41
1
10
121.733411671825
20
-5.2329832980702
30
0
41
1
10
119.968462712566
20
-4.57712790429682
30
0
41
1
10
119.087356343787
20
-4.21983846652162
30
0
41
1
10
117.762554240909
20
-3.64779826254343
30
0
41
1
10
117.319966889488
20
-3.45079656619342
30
0
41
1
10
116.436212098285
20
-3.04754637585478
30
0
41
1
10
115.994924767095
20
-2.84129784148703
30
0
41
1
10
114.671634107508
20
-2.21089617574353
30
0
41
1
10
113.79014783903
20
-1.7751826157342
30
0
41
1
10
112.464115316134
20
-1.107495467874
30
0
41
1
10
112.021589944243
20
-0.882602107627207
30
0
41
1
10
111.138454644902
20
-0.431920388412607
30
0
41
1
10
110.697332664208
20
-0.205888043388399
30
0
41
1
10
109.374138750327
20
0.471998250095197
30
0
41
1
10
108.492075160126
20
0.923762938187849
30
0
41
1
10
106.722331039117
20
1.81302357312327
30
0
41
1
10
105.840510252648
20
2.24777370954763
30
0
41
1
10
104.517122058788
20
2.87543691817856
30
0
41
1
10
104.075943470545
20
3.08069331022497
30
0
41
1
10
103.192596094074
20
3.48164656533635
30
0
41
1
10
102.749881607559
20
3.67749004191086
30
0
41
1
10
101.423706456337
20
4.24616232719049
30
0
41
1
10
100.542216251261
20
4.60083979421819
30
0
41
1
10
99.2183980416349
20
5.08793308894462
30
0
41
1
10
98.7768997161949
20
5.24287618937433
30
0
41
1
10
97.8926953144187
20
5.53680347891142
30
0
41
1
10
97.4500206517802
20
5.67567517666043
30
0
41
1
10
96.1248905192466
20
6.06473132449497
30
0
41
1
10
95.2434019515798
20
6.2881533043352
30
0
41
1
10
93.4774397970929
20
6.65661010190621
30
0
41
1
10
92.5915877268849
20
6.80173676302684
30
0
41
1
10
90.825634476428
20
7.00656953976096
30
0
41
1
10
89.9440411896789
20
7.06679021797711
30
0
41
1
10
88.8819440037715
20
7.08728533363035
30
0
41
1
10
88.7033246482641
20
7.08896566912523
30
0
41
1
10
88.5246537432419
20
7.08888200413483
30
0
0
SPLINE
5
DB
100
AcDbEntity
8
1
62
256
6
ByLayer
370
18
48
1
60
0
100
AcDbSpline
70
4
71
3
72
52
73
48
40
0
40
0
40
0
40
0
40
0.0020582348826644
40
0.0020582348826644
40
0.0644295952024987
40
0.0644295952024987
40
0.0956152753624155
40
0.0956152753624155
40
0.126800955522332
40
0.126800955522332
40
0.189172315842167
40
0.189172315842167
40
0.220357996002084
40
0.220357996002084
40
0.251543676162001
40
0.251543676162001
40
0.313915036481834
40
0.313915036481834
40
0.376286396801667
40
0.376286396801667
40
0.438657757121501
40
0.438657757121501
40
0.469843437281418
40
0.469843437281418
40
0.501029117441334
40
0.501029117441334
40
0.563400477761168
40
0.563400477761168
40
0.594586157921084
40
0.594586157921084
40
0.625771838081
40
0.625771838081
40
0.688143198400833
40
0.688143198400833
40
0.750514558720666
40
0.750514558720666
40
0.781700238880582
40
0.781700238880582
40
0.8128859190405
40
0.8128859190405
40
0.875257279360333
40
0.875257279360333
40
0.90644295952025
40
0.90644295952025
40
0.937628639680167
40
0.937628639680167
40
1
40
1
40
1
40
1
41
1
10
49.3805720080866
20
-6.7099128441165
30
0
41
1
10
49.3513453534332
20
-6.71455489272952
30
0
41
1
10
49.3221155026744
20
-6.71915267141614
30
0
41
1
10
48.4070202197756
20
-6.86168932653166
30
0
41
1
10
47.5240531383895
20
-6.95792124437824
30
0
41
1
10
46.1994037602552
20
-7.03826482467244
30
0
41
1
10
45.7577548759556
20
-7.05436136574502
30
0
41
1
10
44.8734128816433
20
-7.06502443877025
30
0
41
1
10
44.4302973126821
20
-7.05956573519754
30
0
41
1
10
43.1027463992693
20
-7.01084143622066
30
0
41
1
10
42.220073477243
20
-6.93540270793343
30
0
41
1
10
40.8949814570175
20
-6.75971770088171
30
0
41
1
10
40.4530493307926
20
-6.69076129171407
30
0
41
1
10
39.5679318200857
20
-6.53243594066228
30
0
41
1
10
39.1247414386343
20
-6.44301420828324
30
0
41
1
10
37.7981423575708
20
-6.14629408064212
30
0
41
1
10
36.9156413455857
20
-5.91023034060822
30
0
41
1
10
35.1478856389791
20
-5.36855585517819
30
0
41
1
10
34.261080746671
20
-5.06223106649108
30
0
41
1
10
32.493172844253
20
-4.39382140441106
30
0
41
1
10
31.6106226083517
20
-4.03132806409775
30
0
41
1
10
30.2838881864321
20
-3.45305129304074
30
0
41
1
10
29.8406311763692
20
-3.25433928993755
30
0
41
1
10
28.9553374261185
20
-2.84802078101185
30
0
41
1
10
28.5133297308787
20
-2.6404732546176
30
0
41
1
10
27.1878467924736
20
-2.00724583501685
30
0
41
1
10
26.3049527366536
20
-1.57090675929277
30
0
41
1
10
24.9769472637592
20
-0.904229511354146
30
0
41
1
10
24.5336443858674
20
-0.67989542440742
30
0
41
1
10
23.6490531489772
20
-0.230825708724581
30
0
41
1
10
23.2072465450696
20
-0.0058602595617003
30
0
41
1
10
21.8819322256933
20
0.667638211556948
30
0
41
1
10
20.9985549873358
20
1.11482342606516
30
0
41
1
10
19.2258542680546
20
1.99318442708332
30
0
41
1
10
18.3425294480175
20
2.42170760008088
30
0
41
1
10
17.0171289197197
20
3.03815368708035
30
0
41
1
10
16.5752423987539
20
3.23928751180287
30
0
41
1
10
15.6905114159854
20
3.63144202601097
30
0
41
1
10
15.247189886401
20
3.82264641818105
30
0
41
1
10
13.918607399153
20
4.37716967544827
30
0
41
1
10
13.03499557722
20
4.72135500670026
30
0
41
1
10
11.7077262714053
20
5.19196471170187
30
0
41
1
10
11.2647290847571
20
5.34134673537662
30
0
41
1
10
10.3786083643705
20
5.62332238092407
30
0
41
1
10
9.93615921967952
20
5.75569263822962
30
0
41
1
10
8.60931028553568
20
6.12556961044803
30
0
41
1
10
7.72537622123312
20
6.33584535740408
30
0
41
1
10
6.83919764700403
20
6.50688423249528
30
0
0
SPLINE
5
DC
100
AcDbEntity
8
1
62
256
6
ByLayer
370
18
48
1
60
0
100
AcDbSpline
70
4
71
3
72
8
73
4
40
0
40
0
40
0
40
0
40
1
40
1
40
1
40
1
41
1
10
178.9999730441
20
0.0393438350117776
30
0
41
1
10
179.00000898529
20
0.0131146184446322
30
0
41
1
10
179.00000898529
20
-0.0131146184446891
30
0
41
1
10
178.9999730441
20
-0.0393438350118345
30
0
0
SPLINE
5
DD
100
AcDbEntity
8
1
62
256
6
ByLayer
370
18
48
1
60
0
100
AcDbSpline
70
4
71
3
72
60
73
56
40
0
40
0
40
0
40
0
40
0.0298258988620243
40
0.0298258988620243
40
0.0596517977240486
40
0.0596517977240486
40
0.119303595448097
40
0.119303595448097
40
0.149129494310122
40
0.149129494310122
40
0.178955393172146
40
0.178955393172146
40
0.238607190896196
40
0.238607190896196
40
0.26843308975822
40
0.26843308975822
40
0.298258988620245
40
0.298258988620245
40
0.328084887482269
40
0.328084887482269
40
0.357910786344293
40
0.357910786344293
40
0.417562584068341
40
0.417562584068341
40
0.447388482930364
40
0.447388482930364
40
0.477214381792388
40
0.477214381792388
40
0.536866179516436
40
0.536866179516436
40
0.566692078378461
40
0.566692078378461
40
0.596517977240485
40
0.596517977240485
40
0.656169774964535
40
0.656169774964535
40
0.68599567382656
40
0.68599567382656
40
0.715821572688585
40
0.715821572688585
40
0.775473370412634
40
0.775473370412634
40
0.805299269274659
40
0.805299269274659
40
0.835125168136684
40
0.835125168136684
40
0.894776965860733
40
0.894776965860733
40
0.924602864722757
40
0.924602864722757
40
0.954428763584781
40
0.954428763584781
40
0.984254662446806
40
0.984254662446806
40
1
40
1
40
1
40
1
41
1
10
176.445073875831
20
-7.1312061418744
30
0
41
1
10
176.003622498875
20
-7.14447114693343
30
0
41
1
10
175.56175184458
20
-7.14684535215966
30
0
41
1
10
174.678378365526
20
-7.12984244852825
30
0
41
1
10
174.237358814319
20
-7.11048973628715
30
0
41
1
10
172.915183740658
20
-7.02028941247772
30
0
41
1
10
172.034805208273
20
-6.91730949495872
30
0
41
1
10
170.710949543402
20
-6.70048259376478
30
0
41
1
10
170.268716960353
20
-6.61772111022751
30
0
41
1
10
169.386112457801
20
-6.43270717849876
30
0
41
1
10
168.945351999383
20
-6.33041757658685
30
0
41
1
10
167.623496071124
20
-5.99540092439045
30
0
41
1
10
166.742830280889
20
-5.73449662837538
30
0
41
1
10
165.417559405097
20
-5.29215435971892
30
0
41
1
10
164.975716496073
20
-5.1363911752851
30
0
41
1
10
164.093647242985
20
-4.81037426872908
30
0
41
1
10
163.653018744797
20
-4.64000293287191
30
0
41
1
10
162.771789578666
20
-4.28572425901865
30
0
41
1
10
162.331182727364
20
-4.10182462674462
30
0
41
1
10
161.449111640296
20
-3.72185029528109
30
0
41
1
10
161.007267023993
20
-3.52562173652214
30
0
41
1
10
159.681832157406
20
-2.92171128038248
30
0
41
1
10
158.800987301257
20
-2.5002304180498
30
0
41
1
10
157.478889160826
20
-1.84892151834322
30
0
41
1
10
157.038063089114
20
-1.62861583461148
30
0
41
1
10
156.15526531206
20
-1.18326397126992
30
0
41
1
10
155.71287844648
20
-0.958034709994848
30
0
41
1
10
154.38854748945
20
-0.280383081338499
30
0
41
1
10
153.507917426709
20
0.174635403401794
30
0
41
1
10
152.185273214704
20
0.852103231018845
30
0
41
1
10
151.744129043298
20
1.07712245087254
30
0
41
1
10
150.860417653255
20
1.52380208093041
30
0
41
1
10
150.418429222505
20
1.74517387438121
30
0
41
1
10
149.094965814678
20
2.39907126763052
30
0
41
1
10
148.214340334634
20
2.82214559853651
30
0
41
1
10
146.890888067425
20
3.42831852152346
30
0
41
1
10
146.448958828624
20
3.62578716772765
30
0
41
1
10
145.565085374711
20
4.00908963042988
30
0
41
1
10
145.123844512513
20
4.19458376999296
30
0
41
1
10
143.800945825897
20
4.73071847517775
30
0
41
1
10
142.920168623199
20
5.06108285060813
30
0
41
1
10
141.595625886935
20
5.50863766722802
30
0
41
1
10
141.153150159888
20
5.64995849316858
30
0
41
1
10
140.270022788202
20
5.91435724462613
30
0
41
1
10
139.829012349962
20
6.03756263364917
30
0
41
1
10
138.506426802172
20
6.37904729582201
30
0
41
1
10
137.625241043437
20
6.56913260533474
30
0
41
1
10
136.299403244369
20
6.79349294708703
30
0
41
1
10
135.857266262784
20
6.85800885803312
30
0
41
1
10
134.974684349184
20
6.96577728359242
30
0
41
1
10
134.53384940304
20
7.00911093996834
30
0
41
1
10
133.652156169535
20
7.07438398282179
30
0
41
1
10
133.211301464405
20
7.0963291894349
30
0
41
1
10
132.537107930395
20
7.11336923173883
30
0
41
1
10
132.303955535102
20
7.11624536842183
30
0
41
1
10
132.070694528941
20
7.11610160015374
30
0
0
SPLINE
5
DE
100
AcDbEntity
8
1
62
256
6
ByLayer
370
18
48
1
60
0
100
AcDbSpline
70
4
71
3
72
62
73
58
40
0
40
0
40
0
40
0
40
0.0249459074149306
40
0.0249459074149306
40
0.0802589370095642
40
0.0802589370095642
40
0.10791545180688
40
0.10791545180688
40
0.135571966604196
40
0.135571966604196
40
0.190884996198828
40
0.190884996198828
40
0.218541510996144
40
0.218541510996144
40
0.24619802579346
40
0.24619802579346
40
0.301511055388091
40
0.301511055388091
40
0.329167570185405
40
0.329167570185405
40
0.356824084982719
40
0.356824084982719
40
0.384480599780033
40
0.384480599780033
40
0.412137114577347
40
0.412137114577347
40
0.467450144171974
40
0.467450144171974
40
0.495106658969288
40
0.495106658969288
40
0.522763173766601
40
0.522763173766601
40
0.578076203361228
40
0.578076203361228
40
0.605732718158542
40
0.605732718158542
40
0.633389232955855
40
0.633389232955855
40
0.688702262550483
40
0.688702262550483
40
0.716358777347797
40
0.716358777347797
40
0.74401529214511
40
0.74401529214511
40
0.799328321739737
40
0.799328321739737
40
0.82698483653705
40
0.82698483653705
40
0.854641351334363
40
0.854641351334363
40
0.909954380928989
40
0.909954380928989
40
0.937610895726302
40
0.937610895726302
40
0.965267410523615
40
0.965267410523615
40
1
40
1
40
1
40
1
41
1
10
92.9051489343238
20
-6.73980696259849
30
0
41
1
10
92.5061884113319
20
-6.80305826888525
30
0
41
1
10
92.1070994324695
20
-6.85793098995288
30
0
41
1
10
90.8253797670897
20
-7.00660247912327
30
0
41
1
10
89.9438195437288
20
-7.06678776314885
30
0
41
1
10
88.6190053048902
20
-7.09236258345479
30
0
41
1
10
88.1767367675317
20
-7.09010268676579
30
0
41
1
10
87.2918401817724
20
-7.06390428787995
30
0
41
1
10
86.8500820233897
20
-7.04001293533136
30
0
41
1
10
85.5256907605926
20
-6.93645263669862
30
0
41
1
10
84.6439789595919
20
-6.82485365147812
30
0
41
1
10
83.3181251081775
20
-6.59591577181678
30
0
41
1
10
82.875203287763
20
-6.50921950087493
30
0
41
1
10
81.9910826314447
20
-6.31657442484652
30
0
41
1
10
81.5495652727646
20
-6.21062892336613
30
0
41
1
10
80.22550679334
20
-5.86513163572602
30
0
41
1
10
79.343447164531
20
-5.59790494832541
30
0
41
1
10
78.0162862845857
20
-5.14722323938159
30
0
41
1
10
77.5736360291319
20
-4.98876919189792
30
0
41
1
10
76.6900781977545
20
-4.65788219192797
30
0
41
1
10
76.2487058585732
20
-4.48531434059794
30
0
41
1
10
75.3660578535534
20
-4.12705239567561
30
0
41
1
10
74.9247828549835
20
-3.94135211387473
30
0
41
1
10
74.0413427118418
20
-3.55839002042026
30
0
41
1
10
73.5989480707089
20
-3.36093314445191
30
0
41
1
10
72.2711662842965
20
-2.75373590317614
30
0
41
1
10
71.3888419056258
20
-2.33100906478759
30
0
41
1
10
70.0646582173983
20
-1.67938331417557
30
0
41
1
10
69.6231183648669
20
-1.45930930100283
30
0
41
1
10
68.7389885267634
20
-1.01486971809072
30
0
41
1
10
68.2959661910289
20
-0.790210808804602
30
0
41
1
10
66.9693757168356
20
-0.115105250458697
30
0
41
1
10
66.0872350952486
20
0.33703665794738
30
0
41
1
10
64.7625744766192
20
1.00885731863946
30
0
41
1
10
64.3207524112165
20
1.23167956153213
30
0
41
1
10
63.4357849707783
20
1.673543864263
30
0
41
1
10
62.9929884353828
20
1.89239049859671
30
0
41
1
10
61.6672297756318
20
2.53774458284431
30
0
41
1
10
60.7850967757354
20
2.95409433425897
30
0
41
1
10
59.459697733322
20
3.54915890794768
30
0
41
1
10
59.0172574358963
20
3.7426780663854
30
0
41
1
10
58.1318039792382
20
4.11774487518721
30
0
41
1
10
57.6897807163426
20
4.29891757740023
30
0
41
1
10
56.3646862220765
20
4.82169698319998
30
0
41
1
10
55.4824359450285
20
5.14232068148746
30
0
41
1
10
54.1559904166894
20
5.57458593244357
30
0
41
1
10
53.7128541822734
20
5.71067322417977
30
0
41
1
10
52.8281688495033
20
5.96437254886754
30
0
41
1
10
52.3864002407223
20
6.08212240989076
30
0
41
1
10
51.0616189679348
20
6.4069806062173
30
0
41
1
10
50.1790863555483
20
6.58563768636566
30
0
41
1
10
48.8513185544483
20
6.79250064426316
30
0
41
1
10
48.4083464678064
20
6.85117048184216
30
0
41
1
10
47.524219579817
20
6.94721419838874
30
0
41
1
10
47.0826695473364
20
6.98468948607677
30
0
41
1
10
46.0866234091124
20
7.0451088635368
30
0
41
1
10
45.5318982375189
20
7.06188032617544
30
0
41
1
10
44.9765864522416
20
7.06166394713151
30
0
0
SPLINE
5
DF
100
AcDbEntity
8
1
62
256
6
ByLayer
370
18
48
1
60
0
100
AcDbSpline
70
4
71
3
72
8
73
4
40
0
40
0
40
0
40
0
40
1
40
1
40
1
40
1
41
1
10
6.70243249665157
20
0.999830412721764
30
0
41
1
10
6.82620539742541
20
0.936952065238984
30
0
41
1
10
6.94997204031807
20
0.874013255757774
30
0
41
1
10
7.0737422189807
20
0.81103337852025
30
0
0
SPLINE
5
E0
100
AcDbEntity
8
1
62
256
6
ByLayer
370
18
48
1
60
0
100
AcDbSpline
70
4
71
3
72
38
73
34
40
0
40
0
40
0
40
0
40
0.174629462348697
40
0.174629462348697
40
0.273193812775258
40
0.273193812775258
40
0.371758163201819
40
0.371758163201819
40
0.47032251362838
40
0.47032251362838
40
0.51960468884166
40
0.51960468884166
40
0.53192523264498
40
0.53192523264498
40
0.538085504546641
40
0.538085504546641
40
0.544245776448301
40
0.544245776448301
40
0.547325912399131
40
0.547325912399131
40
0.550406048349961
40
0.550406048349961
40
0.556566320251621
40
0.556566320251621
40
0.568886864054941
40
0.568886864054941
40
0.766015564908063
40
0.766015564908063
40
0.864579915334624
40
0.864579915334624
40
0.963144265761186
40
0.963144265761186
40
1
40
1
40
1
40
1
41
1
10
13.4750578097788
20
3.63343017485931
30
0
41
1
10
13.4750578097788
20
3.21160407543795
30
0
41
1
10
13.4750578097788
20
2.76100772323082
30
0
41
1
10
13.4750578097788
20
2.01284838599139
30
0
41
1
10
13.4750578097788
20
1.73407697282803
30
0
41
1
10
13.4750578097788
20
1.15878689777506
30
0
41
1
10
13.4750578097788
20
0.862991587319982
30
0
41
1
10
13.4750578097788
20
0.25831618897351
30
0
41
1
10
13.4750578097788
20
-0.0510086544636863
30
0
41
1
10
13.4750578097788
20
-0.525453784993772
30
0
41
1
10
13.4750578097788
20
-0.685485528573508
30
0
41
1
10
13.4750578097788
20
-0.88730113816095
30
0
41
1
10
13.4750578097788
20
-0.927741747019098
30
0
41
1
10
13.4750578097788
20
-0.988518550679061
30
0
41
1
10
13.4750578097788
20
-1.0085133268002
30
0
41
1
10
13.4750578097788
20
-1.05028023618226
30
0
41
1
10
13.4750578097788
20
-1.0720145032758
30
0
41
1
10
13.4750578097788
20
-1.10611152879957
30
0
41
1
10
13.4750578097788
20
-1.11772962539649
30
0
41
1
10
13.4750578097788
20
-1.14157961836011
30
0
41
1
10
13.4750578097788
20
-1.15392149309437
30
0
41
1
10
13.4750578097788
20
-1.19076378846236
30
0
41
1
10
13.4750578097788
20
-1.21534334070154
30
0
41
1
10
13.4750578097788
20
-1.28913632905323
30
0
41
1
10
13.4750578097788
20
-1.33841238565722
30
0
41
1
10
13.4750578097788
20
-2.1770396544018
30
0
41
1
10
13.4750578097788
20
-2.97341745697432
30
0
41
1
10
13.4750578097788
20
-4.17972573956447
30
0
41
1
10
13.4750578097788
20
-4.58466132290175
30
0
41
1
10
13.4750578097788
20
-5.39328233289714
30
0
41
1
10
13.4750578097788
20
-5.79706907583528
30
0
41
1
10
13.4750578097788
20
-6.35108387780195
30
0
41
1
10
13.4750578097788
20
-6.50178723102934
30
0
41
1
10
13.4750578097788
20
-6.65241149353531
30
0
0
SPLINE
5
E1
100
AcDbEntity
8
1
62
256
6
ByLayer
370
13
48
1
60
0
100
AcDbSpline
70
4
71
3
72
12
73
8
40
0
40
0
40
0
40
0
40
0.227996711377429
40
0.227996711377429
40
0.507916879026906
40
0.507916879026906
40
1
40
1
40
1
40
1
41
1
10
6.9526858519333
20
6.48858680284926
30
0
41
1
10
6.95268868559396
20
6.51664643474115
30
0
41
1
10
6.95269127000506
20
6.54169469190262
30
0
41
1
10
6.95269655663643
20
6.59074371187324
30
0
41
1
10
6.95269915825463
20
6.61325461484159
30
0
41
1
10
6.95270559657692
20
6.66212385542656
30
0
41
1
10
6.95270889038198
20
6.67870544673963
30
0
41
1
10
6.95271175656723
20
6.68083280056049
30
0
0
SPLINE
5
E2
100
AcDbEntity
8
1
62
256
6
ByLayer
370
18
48
1
60
0
100
AcDbSpline
70
4
71
3
72
10
73
6
40
0
40
0
40
0
40
0
40
0.5
40
0.5
40
1
40
1
40
1
40
1
41
1
10
176.70254427828
20
-6.94631426801996
30
0
41
1
10
177.047641007775
20
-6.07203126572193
30
0
41
1
10
177.392538165864
20
-5.1970857550466
30
0
41
1
10
178.07880874112
20
-3.44434240814505
30
0
41
1
10
178.420244418929
20
-2.5666864308555
30
0
41
1
10
178.758374020801
20
-1.68813273232806
30
0
0
SPLINE
5
E3
100
AcDbEntity
8
1
62
256
6
ByLayer
370
18
48
1
60
0
100
AcDbSpline
70
4
71
3
72
12
73
8
40
0
40
0
40
0
40
0
40
0.25
40
0.25
40
0.5
40
0.5
40
1
40
1
40
1
40
1
41
1
10
6.83919764700406
20
6.50688423249528
30
0
41
1
10
6.81856871844855
20
6.51086576492798
30
0
41
1
10
6.7998458964156
20
6.51580600865495
30
0
41
1
10
6.7661148229846
20
6.52747590373497
30
0
41
1
10
6.75136878324406
20
6.53416476124553
30
0
41
1
10
6.71551699484982
20
6.5556756241896
30
0
41
1
10
6.70243249665154
20
6.57220048436378
30
0
41
1
10
6.70243249665154
20
6.58847009016131
30
0
0
SPLINE
5
E4
100
AcDbEntity
8
1
62
256
6
ByLayer
370
18
48
1
60
0
100
AcDbSpline
70
4
71
3
72
8
73
4
40
0
40
0
40
0
40
0
40
1
40
1
40
1
40
1
41
1
10
176.70254427828
20
6.94631426801999
30
0
41
1
10
176.603238656899
20
7.04397834798823
30
0
41
1
10
176.517708386187
20
7.10607416224562
30
0
41
1
10
176.445073875831
20
7.1312061418744
30
0
0
SPLINE
5
E5
100
AcDbEntity
8
1
62
256
6
ByLayer
370
18
48
1
60
0
100
AcDbSpline
70
4
71
3
72
43
73
39
40
0
40
0
40
0
40
0
40
0.124999999999993
40
0.124999999999993
40
0.249999999999986
40
0.249999999999986
40
0.374999999999979
40
0.374999999999979
40
0.437499999999975
40
0.437499999999975
40
0.499999999999971
40
0.499999999999971
40
0.562499999999968
40
0.562499999999968
40
0.593749999999968
40
0.593749999999968
40
0.624999999999969
40
0.624999999999969
40
0.749999999999982
40
0.749999999999982
40
0.812499999999991
40
0.812499999999991
40
0.828124999999993
40
0.828124999999993
40
0.835937499999995
40
0.835937499999995
40
0.839843749999995
40
0.839843749999995
40
0.843749999999995
40
0.843749999999995
40
0.851562499999995
40
0.851562499999995
40
0.859374999999994
40
0.859374999999994
40
0.867187499999994
40
0.867187499999994
40
0.874999999999994
40
1
40
1
40
1
40
1
41
1
10
171.65408016076
20
-2.11883474320374
30
0
41
1
10
171.959336751194
20
-2.18838146543416
30
0
41
1
10
172.265228821359
20
-2.24098675279771
30
0
41
1
10
172.876334657177
20
-2.29836600378695
30
0
41
1
10
173.176948528955
20
-2.30437534525066
30
0
41
1
10
173.766452645099
20
-2.26255869387884
30
0
41
1
10
174.055326666046
20
-2.21465820250009
30
0
41
1
10
174.477045673573
20
-2.08957645939486
30
0
41
1
10
174.614063707588
20
-2.03939343626479
30
0
41
1
10
174.878610969341
20
-1.92179534123048
30
0
41
1
10
175.00644955277
20
-1.85428251722587
30
0
41
1
10
175.252805292422
20
-1.70094255934683
30
0
41
1
10
175.37132509819
20
-1.61512063117595
30
0
41
1
10
175.541774335292
20
-1.47198516681539
30
0
41
1
10
175.597462416949
20
-1.42175714564314
30
0
41
1
10
175.705000053188
20
-1.31770363867062
30
0
41
1
10
175.757015593538
20
-1.2637524565541
30
0
41
1
10
176.008566636493
20
-0.984637534754796
30
0
41
1
10
176.182509233235
20
-0.731382569803202
30
0
41
1
10
176.407138518072
20
-0.311673493601944
30
0
41
1
10
176.475974804423
20
-0.164994156909472
30
0
41
1
10
176.553992395972
20
0.0239163913586538
30
0
41
1
10
176.569210560609
20
0.0620065636504137
30
0
41
1
10
176.591465978956
20
0.119549494613665
30
0
41
1
10
176.598789863785
20
0.138799842301808
30
0
41
1
10
176.609635707711
20
0.167774467764758
30
0
41
1
10
176.613210106991
20
0.177461717584009
30
0
41
1
10
176.620390944866
20
0.196813557566571
30
0
41
1
10
176.62400137687
20
0.206505548290437
30
0
41
1
10
176.631444985936
20
0.237202670946942
30
0
41
1
10
176.633082959878
20
0.259634659943743
30
0
41
1
10
176.631223645348
20
0.304902644980928
30
0
41
1
10
176.627561911549
20
0.3277605205935
30
0
41
1
10
176.617762823656
20
0.373679139316806
30
0
41
1
10
176.612321960975
20
0.39661211669565
30
0
41
1
10
176.60210594777
20
0.442516274653542
30
0
41
1
10
176.515073406362
20
0.832684629266225
30
0
41
1
10
176.424670162402
20
1.22253435818064
30
0
41
1
10
176.337654025461
20
1.58922606584608
30
0
0
SPLINE
5
E6
100
AcDbEntity
8
1
62
256
6
ByLayer
370
18
48
1
60
0
100
AcDbSpline
70
4
71
3
72
10
73
6
40
0
40
0
40
0
40
0
40
0.5
40
0.5
40
1
40
1
40
1
40
1
41
1
10
178.975476875376
20
-0.158648206668659
30
0
41
1
10
178.977578554137
20
-0.141625136584281
30
0
41
1
10
178.980863466643
20
-0.122869702296469
30
0
41
1
10
178.989161504963
20
-0.0828243678040792
30
0
41
1
10
178.994242032319
20
-0.0613359944562433
30
0
41
1
10
178.9999730441
20
-0.0393438350118913
30
0
0
SPLINE
5
E7
100
AcDbEntity
8
1
62
256
6
ByLayer
370
18
48
1
60
0
100
AcDbSpline
70
4
71
3
72
14
73
10
40
0
40
0
40
0
40
0
40
0.25
40
0.25
40
0.5
40
0.5
40
0.75
40
0.75
40
1
40
1
40
1
40
1
41
1
10
6.95297230403651
20
0.828234444520518
30
0
41
1
10
6.92147952561908
20
0.843434957273928
30
0
41
1
10
6.89079530985748
20
0.858964645559354
30
0
41
1
10
6.8315174201658
20
0.890717566521943
30
0
41
1
10
6.80446735397405
20
0.90611693326187
30
0
41
1
10
6.75671896115895
20
0.935602277480143
30
0
41
1
10
6.73726429826172
20
0.948944026158699
30
0
41
1
10
6.70983067890126
20
0.971286186303871
30
0
41
1
10
6.70243249665157
20
0.979850672880133
30
0
41
1
10
6.70243249665157
20
0.984844678179797
30
0
0
SPLINE
5
E8
100
AcDbEntity
8
1
62
256
6
ByLayer
370
18
48
1
60
0
100
AcDbSpline
70
4
71
3
72
114
73
110
40
0
40
0
40
0
40
0
40
0.0039330402038255
40
0.0039330402038255
40
0.0260285812428605
40
0.0260285812428605
40
0.0481241222818955
40
0.0481241222818955
40
0.0702196633209305
40
0.0702196633209305
40
0.0923152043599655
40
0.0923152043599655
40
0.114410745399
40
0.114410745399
40
0.136506286438035
40
0.136506286438035
40
0.15860182747707
40
0.15860182747707
40
0.180697368516105
40
0.180697368516105
40
0.20279290955514
40
0.20279290955514
40
0.213840680074658
40
0.213840680074658
40
0.224888450594175
40
0.224888450594175
40
0.24698399163321
40
0.24698399163321
40
0.269079532672245
40
0.269079532672245
40
0.29117507371128
40
0.29117507371128
40
0.313270614750315
40
0.313270614750315
40
0.33536615578935
40
0.33536615578935
40
0.357461696828385
40
0.357461696828385
40
0.368509467347903
40
0.368509467347903
40
0.37955723786742
40
0.37955723786742
40
0.401652778906456
40
0.401652778906456
40
0.423748319945491
40
0.423748319945491
40
0.434796090465009
40
0.434796090465009
40
0.445843860984527
40
0.445843860984527
40
0.467939402023563
40
0.467939402023563
40
0.490034943062599
40
0.490034943062599
40
0.512130484101635
40
0.512130484101635
40
0.534226025140671
40
0.534226025140671
40
0.556321566179707
40
0.556321566179707
40
0.578417107218743
40
0.578417107218743
40
0.589464877738261
40
0.589464877738261
40
0.600512648257779
40
0.600512648257779
40
0.622608189296814
40
0.622608189296814
40
0.644703730335849
40
0.644703730335849
40
0.655751500855366
40
0.655751500855366
40
0.666799271374884
40
0.666799271374884
40
0.688894812413919
40
0.688894812413919
40
0.710990353452954
40
0.710990353452954
40
0.733085894491989
40
0.733085894491989
40
0.755181435531024
40
0.755181435531024
40
0.777276976570059
40
0.777276976570059
40
0.799372517609093
40
0.799372517609093
40
0.810420288128611
40
0.810420288128611
40
0.821468058648129
40
0.821468058648129
40
0.843563599687165
40
0.843563599687165
40
0.8656591407262
40
0.8656591407262
40
0.876706911245718
40
0.876706911245718
40
0.887754681765237
40
0.887754681765237
40
0.909850222804275
40
0.909850222804275
40
0.931945763843313
40
0.931945763843313
40
0.95404130488235
40
0.95404130488235
40
0.976136845921388
40
0.976136845921388
40
0.998232386960426
40
0.998232386960426
40
1
40
1
40
1
40
1
41
1
10
28.5334952067528
20
3.65021905487174
30
0
41
1
10
28.6094642526028
20
3.68345166499483
30
0
41
1
10
28.685456881401
20
3.7165220235772
30
0
41
1
10
29.1887288841305
20
3.93395522047734
30
0
41
1
10
29.6164870432863
20
4.11196417895928
30
0
41
1
10
30.4695618997264
20
4.45702122177659
30
0
41
1
10
30.8953117517209
20
4.6238671258462
30
0
41
1
10
31.7476559978232
20
4.94260223561341
30
0
41
1
10
32.1743735937273
20
5.09441657379281
30
0
41
1
10
33.0263147168094
20
5.38631962887956
30
0
41
1
10
33.453047535501
20
5.5243441161463
30
0
41
1
10
34.3083126065531
20
5.78432856674948
30
0
41
1
10
34.7351527925569
20
5.90682795318057
30
0
41
1
10
35.5879149912081
20
6.13387439197783
30
0
41
1
10
36.0143446725207
20
6.23829930194429
30
0
41
1
10
36.8667356763844
20
6.42966929983578
30
0
41
1
10
37.2920644528436
20
6.51703825161508
30
0
41
1
10
38.1450473965791
20
6.67190134876429
30
0
41
1
10
38.5719483093145
20
6.74004553501422
30
0
41
1
10
39.4263376329538
20
6.85759368449212
30
0
41
1
10
39.8528384132639
20
6.9064108266584
30
0
41
1
10
40.4907881125522
20
6.96465897114058
30
0
41
1
10
40.7031833264708
20
6.98160822503584
30
0
41
1
10
41.1271662832515
20
7.01066568989344
30
0
41
1
10
41.3385988067073
20
7.02279070896751
30
0
41
1
10
41.9731813509388
20
7.05154071476838
30
0
41
1
10
42.3960878271875
20
7.06078587124102
30
0
41
1
10
43.2399701961178
20
7.05976737971102
30
0
41
1
10
43.6612079115554
20
7.04938777169352
30
0
41
1
10
44.5044712069496
20
7.00925156659244
30
0
41
1
10
44.9265702181655
20
6.97965067624329
30
0
41
1
10
45.7692354376144
20
6.90034978814833
30
0
41
1
10
46.1914410350195
20
6.85119469081991
30
0
41
1
10
47.0373311040273
20
6.7339760537821
30
0
41
1
10
47.4603953599408
20
6.66548861876024
30
0
41
1
10
48.3089993506815
20
6.50979227442829
30
0
41
1
10
48.7347559603461
20
6.42283651656899
30
0
41
1
10
49.3751663060847
20
6.27823136976011
30
0
41
1
10
49.5887964447423
20
6.22741819977017
30
0
41
1
10
50.0154951469086
20
6.12161264373575
30
0
41
1
10
50.2288327363119
20
6.06668566250954
30
0
41
1
10
50.8687535973004
20
5.89587414521392
30
0
41
1
10
51.294959919028
20
5.77367553867555
30
0
41
1
10
52.1464007738338
20
5.51235913428354
30
0
41
1
10
52.5722327012067
20
5.37392790818609
30
0
41
1
10
53.2117548187238
20
5.15550345338451
30
0
41
1
10
53.4250320971791
20
5.08087068119761
30
0
41
1
10
53.8514400485978
20
4.92742755392763
30
0
41
1
10
54.0644528956869
20
4.84843161487564
30
0
41
1
10
54.7048848591381
20
4.60742409249647
30
0
41
1
10
55.1327487051438
20
4.44077112905754
30
0
41
1
10
55.9854935524741
20
4.09422223347002
30
0
41
1
10
56.4111456574045
20
3.91461245101041
30
0
41
1
10
57.2632070693303
20
3.54639668100856
30
0
41
1
10
57.6895755358768
20
3.35778929630547
30
0
41
1
10
58.5408604759799
20
2.96772752890573
30
0
41
1
10
58.9675308084439
20
2.769357522196
30
0
41
1
10
59.8220208101429
20
2.36440643828445
30
0
41
1
10
60.2488947602471
20
2.15704536526707
30
0
41
1
10
61.10154794682
20
1.73881278608286
30
0
41
1
10
61.527884475243
20
1.52801216250325
30
0
41
1
10
62.1668189407224
20
1.2081797036397
30
0
41
1
10
62.3794233379997
20
1.10041913747054
30
0
41
1
10
62.8050619274334
20
0.884879876035001
30
0
41
1
10
63.0180507659465
20
0.777015769971996
30
0
41
1
10
63.6574626722373
20
0.453029133573523
30
0
41
1
10
64.0839254115079
20
0.235714331931916
30
0
41
1
10
64.9376229850777
20
-0.200838515144625
30
0
41
1
10
65.3648750256215
20
-0.418660992242735
30
0
41
1
10
66.0047137822239
20
-0.743028321581392
30
0
41
1
10
66.2179374437542
20
-0.850772567030106
30
0
41
1
10
66.6436297487441
20
-1.06675672886144
30
0
41
1
10
66.856293248819
20
-1.17461119204421
30
0
41
1
10
67.4949581462601
20
-1.49539307277629
30
0
41
1
10
67.9212000526053
20
-1.70640173060693
30
0
41
1
10
68.7730804923739
20
-2.12565767088859
30
0
41
1
10
69.1991538711063
20
-2.33305663534173
30
0
41
1
10
70.0535532612371
20
-2.73965438678971
30
0
41
1
10
70.4809365873213
20
-2.93910215624987
30
0
41
1
10
71.3326992833843
20
-3.33092440346593
30
0
41
1
10
71.7589072681094
20
-3.52086139854458
30
0
41
1
10
72.610759445323
20
-3.89107845995662
30
0
41
1
10
73.0360499463173
20
-4.07188856384474
30
0
41
1
10
73.8880664459621
20
-4.4204278605072
30
0
41
1
10
74.3148497458989
20
-4.58812666557108
30
0
41
1
10
74.9554417195095
20
-4.83091302708974
30
0
41
1
10
75.1686939739754
20
-4.91073063430562
30
0
41
1
10
75.5947007378787
20
-5.06563074381512
30
0
41
1
10
75.80749592328
20
-5.14099909764801
30
0
41
1
10
76.4451978315557
20
-5.36108366675867
30
0
41
1
10
76.868941485371
20
-5.50044230137985
30
0
41
1
10
77.7145329579553
20
-5.76329419402998
30
0
41
1
10
78.1368697346111
20
-5.88620269985628
30
0
41
1
10
78.7698359074019
20
-6.05787883005522
30
0
41
1
10
78.9807588419417
20
-6.11297115607178
30
0
41
1
10
79.4017894363321
20
-6.21952718777774
30
0
41
1
10
79.6122539290407
20
-6.2706235717379
30
0
41
1
10
80.2441299788249
20
-6.41684466712783
30
0
41
1
10
80.665775926134
20
-6.50520057863201
30
0
41
1
10
81.5084700345437
20
-6.66471473162204
30
0
41
1
10
81.9299686375241
20
-6.73545082824026
30
0
41
1
10
82.7751002496878
20
-6.85770068873396
30
0
41
1
10
83.1984250214541
20
-6.90946694177751
30
0
41
1
10
84.0457943173217
20
-6.99417728466273
30
0
41
1
10
84.4712111154632
20
-7.02658208492559
30
0
41
1
10
85.3243462167606
20
-7.07180010690161
30
0
41
1
10
85.7512888783997
20
-7.08450131150883
30
0
41
1
10
86.2115659686545
20
-7.08724032413696
30
0
41
1
10
86.2456599985078
20
-7.08737915422947
30
0
41
1
10
86.2797537352844
20
-7.08745393366024
30
0
0
SPLINE
5
E9
100
AcDbEntity
8
1
62
256
6
ByLayer
370
18
48
1
60
0
100
AcDbSpline
70
4
71
3
72
112
73
108
40
0
40
0
40
0
40
0
40
0.0201128506789845
40
0.0201128506789845
40
0.0421664908192415
40
0.0421664908192415
40
0.0642201309594982
40
0.0642201309594982
40
0.086273771099755
40
0.086273771099755
40
0.097300591169884
40
0.097300591169884
40
0.108327411240013
40
0.108327411240013
40
0.130381051380271
40
0.130381051380271
40
0.152434691520529
40
0.152434691520529
40
0.174488331660787
40
0.174488331660787
40
0.185515151730916
40
0.185515151730916
40
0.196541971801044
40
0.196541971801044
40
0.218595611941301
40
0.218595611941301
40
0.240649252081558
40
0.240649252081558
40
0.262702892221815
40
0.262702892221815
40
0.284756532362072
40
0.284756532362072
40
0.306810172502329
40
0.306810172502329
40
0.317836992572457
40
0.317836992572457
40
0.328863812642586
40
0.328863812642586
40
0.350917452782841
40
0.350917452782841
40
0.372971092923097
40
0.372971092923097
40
0.395024733063353
40
0.395024733063353
40
0.417078373203608
40
0.417078373203608
40
0.439132013343864
40
0.439132013343864
40
0.46118565348412
40
0.46118565348412
40
0.483239293624375
40
0.483239293624375
40
0.50529293376463
40
0.50529293376463
40
0.527346573904886
40
0.527346573904886
40
0.538373393975014
40
0.538373393975014
40
0.549400214045142
40
0.549400214045142
40
0.571453854185398
40
0.571453854185398
40
0.593507494325653
40
0.593507494325653
40
0.615561134465909
40
0.615561134465909
40
0.637614774606165
40
0.637614774606165
40
0.65966841474642
40
0.65966841474642
40
0.681722054886676
40
0.681722054886676
40
0.703775695026931
40
0.703775695026931
40
0.725829335167187
40
0.725829335167187
40
0.747882975307443
40
0.747882975307443
40
0.758909795377571
40
0.758909795377571
40
0.769936615447699
40
0.769936615447699
40
0.791990255587953
40
0.791990255587953
40
0.814043895728208
40
0.814043895728208
40
0.836097535868463
40
0.836097535868463
40
0.858151176008717
40
0.858151176008717
40
0.880204816148972
40
0.880204816148972
40
0.902258456289227
40
0.902258456289227
40
0.913285276359355
40
0.913285276359355
40
0.924312096429482
40
0.924312096429482
40
0.946365736569738
40
0.946365736569738
40
0.968419376709994
40
0.968419376709994
40
0.979446196780122
40
0.979446196780122
40
0.99047301685025
40
0.99047301685025
40
1
40
1
40
1
40
1
41
1
10
115.610841988219
20
3.66415043090055
30
0
41
1
10
115.999765638273
20
3.835260348389
30
0
41
1
10
116.389303402909
20
4.00166820491336
30
0
41
1
10
117.204204798549
20
4.33973546358186
30
0
41
1
10
117.629094875999
20
4.51176462177239
30
0
41
1
10
118.480048250119
20
4.8404045153851
30
0
41
1
10
118.905737028693
20
4.99766659404671
30
0
41
1
10
119.756537559149
20
5.29938815548908
30
0
41
1
10
120.182214794674
20
5.44303042954493
30
0
41
1
10
120.822248349748
20
5.64627761417239
30
0
41
1
10
121.035889676227
20
5.71209643122034
30
0
41
1
10
121.462487133465
20
5.83971849573277
30
0
41
1
10
121.675271742251
20
5.90182733430564
30
0
41
1
10
122.313810977133
20
6.08108298135852
30
0
41
1
10
122.739769030138
20
6.19126212575478
30
0
41
1
10
123.590572776729
20
6.39480205451628
30
0
41
1
10
124.015436102543
20
6.48803349935613
30
0
41
1
10
124.866641949413
20
6.65527378425747
30
0
41
1
10
125.293089085123
20
6.72933126628251
30
0
41
1
10
125.932432572515
20
6.82693301804875
30
0
41
1
10
126.145630248225
20
6.85715563363874
30
0
41
1
10
126.571992081847
20
6.91235777382141
30
0
41
1
10
126.785143342752
20
6.93743289483714
30
0
41
1
10
127.424304231464
20
7.00526119147497
30
0
41
1
10
127.849483303325
20
7.04078684327732
30
0
41
1
10
128.699843175688
20
7.09172390309925
30
0
41
1
10
129.125382323246
20
7.1071213350935
30
0
41
1
10
129.976809393864
20
7.11796224801518
30
0
41
1
10
130.401971708211
20
7.11330818862939
30
0
41
1
10
131.255171196103
20
7.08384585873694
30
0
41
1
10
131.682116850277
20
7.05909959822304
30
0
41
1
10
132.533325367258
20
6.98951741057778
30
0
41
1
10
132.958579425771
20
6.94480247380167
30
0
41
1
10
133.59683901773
20
6.86341853231423
30
0
41
1
10
133.809599538727
20
6.83388533756138
30
0
41
1
10
134.234956248105
20
6.76988836913895
30
0
41
1
10
134.447285584956
20
6.73524791885254
30
0
41
1
10
135.085284080652
20
6.62462016194124
30
0
41
1
10
135.511623735912
20
6.54184595564442
30
0
41
1
10
136.36461000276
20
6.35691467713892
30
0
41
1
10
136.790712414146
20
6.25491170272613
30
0
41
1
10
137.642308529857
20
6.03473675078629
30
0
41
1
10
138.068268541618
20
5.91673485677438
30
0
41
1
10
138.917933859759
20
5.66198760906954
30
0
41
1
10
139.343139547655
20
5.52688240833757
30
0
41
1
10
140.194619303437
20
5.24184275932916
30
0
41
1
10
140.62014300928
20
5.09089816842851
30
0
41
1
10
141.472960137788
20
4.77487329704752
30
0
41
1
10
141.899625590086
20
4.61056990116299
30
0
41
1
10
142.751215908129
20
4.26939334842268
30
0
41
1
10
143.175764332834
20
4.09135077118233
30
0
41
1
10
144.026434848517
20
3.72684296140042
30
0
41
1
10
144.451832435387
20
3.53926351231095
30
0
41
1
10
145.302430533845
20
3.15278592003082
30
0
41
1
10
145.728233302752
20
2.95491172988506
30
0
41
1
10
146.368394770961
20
2.65243081414277
30
0
41
1
10
146.581794102207
20
2.55068090110089
30
0
41
1
10
147.007824649716
20
2.34506639604518
30
0
41
1
10
147.220345181278
20
2.24080627623437
30
0
41
1
10
147.858503115773
20
1.92754919235639
30
0
41
1
10
148.284198869084
20
1.71709852079525
30
0
41
1
10
149.134394984081
20
1.28975420554392
30
0
41
1
10
149.559167789122
20
1.07335655749341
30
0
41
1
10
150.410356468811
20
0.639546811550105
30
0
41
1
10
150.83681119673
20
0.422240362508546
30
0
41
1
10
151.689026443408
20
-0.0180298061441988
30
0
41
1
10
152.11446428069
20
-0.23648154176496
30
0
41
1
10
152.962954737215
20
-0.670861661904752
30
0
41
1
10
153.38553439865
20
-0.887996477045334
30
0
41
1
10
154.229709134825
20
-1.31741954224464
30
0
41
1
10
154.651492056443
20
-1.52936355691082
30
0
41
1
10
155.493834248657
20
-1.94901824491245
30
0
41
1
10
155.913821386107
20
-2.15779068590902
30
0
41
1
10
156.755384972918
20
-2.56570071992996
30
0
41
1
10
157.176198214129
20
-2.76631271662399
30
0
41
1
10
158.017685536721
20
-3.16114474932766
30
0
41
1
10
158.438930869804
20
-3.35431644370536
30
0
41
1
10
159.072204712169
20
-3.63656108164787
30
0
41
1
10
159.283491622375
20
-3.72946060215196
30
0
41
1
10
159.706211274084
20
-3.91330081194806
30
0
41
1
10
159.917449256255
20
-4.0045683631985
30
0
41
1
10
160.55281247861
20
-4.27294950119293
30
0
41
1
10
160.978076299558
20
-4.44555733042642
30
0
41
1
10
161.830394963357
20
-4.780664064646
30
0
41
1
10
162.256284888059
20
-4.94213742279641
30
0
41
1
10
163.107396581662
20
-5.24878258601004
30
0
41
1
10
163.533070571213
20
-5.39413095634185
30
0
41
1
10
164.382142610233
20
-5.67196107927202
30
0
41
1
10
164.807264328304
20
-5.80226810712924
30
0
41
1
10
165.658281464015
20
-6.04637690383507
30
0
41
1
10
166.083551875601
20
-6.16079568327271
30
0
41
1
10
166.936036275154
20
-6.37163333176949
30
0
41
1
10
167.36245532599
20
-6.46768090871004
30
0
41
1
10
168.000764394539
20
-6.59804047316419
30
0
41
1
10
168.213125581969
20
-6.63939299912749
30
0
41
1
10
168.637930021736
20
-6.71719257168408
30
0
41
1
10
168.850426681876
20
-6.75361627378641
30
0
41
1
10
169.488138318714
20
-6.85559313533756
30
0
41
1
10
169.913262483742
20
-6.91405484984901
30
0
41
1
10
170.763443825582
20
-7.01171409879447
30
0
41
1
10
171.189096890998
20
-7.05063074093496
30
0
41
1
10
171.828975764383
20
-7.0939980203164
30
0
41
1
10
172.042185185177
20
-7.10594286856733
30
0
41
1
10
172.467550058508
20
-7.12484905050115
30
0
41
1
10
172.679708552495
20
-7.1318034052025
30
0
41
1
10
173.075343913375
20
-7.13999713441632
30
0
41
1
10
173.25869324362
20
-7.14191985933064
30
0
41
1
10
173.441943468967
20
-7.14197341591034
30
0
0
SPLINE
5
EA
100
AcDbEntity
8
1
62
256
6
ByLayer
370
18
48
1
60
0
100
AcDbSpline
70
4
71
3
72
50
73
46
40
0
40
0
40
0
40
0
40
0.0312499999999961
40
0.0312499999999961
40
0.0624999999999921
40
0.0624999999999921
40
0.0937499999999882
40
0.0937499999999882
40
0.124999999999984
40
0.124999999999984
40
0.18749999999998
40
0.18749999999998
40
0.249999999999975
40
0.249999999999975
40
0.281249999999976
40
0.281249999999976
40
0.312499999999976
40
0.312499999999976
40
0.374999999999978
40
0.374999999999978
40
0.437499999999979
40
0.437499999999979
40
0.49999999999998
40
0.49999999999998
40
0.562499999999981
40
0.562499999999981
40
0.593749999999982
40
0.593749999999982
40
0.624999999999982
40
0.624999999999982
40
0.656249999999982
40
0.656249999999982
40
0.687499999999983
40
0.687499999999983
40
0.718749999999983
40
0.718749999999983
40
0.749999999999983
40
0.749999999999983
40
0.812499999999988
40
0.812499999999988
40
0.874999999999992
40
0.874999999999992
40
0.937499999999996
40
0.937499999999996
40
1
40
1
40
1
40
1
41
1
10
176.057436423457
20
-4.08347763545143
30
0
41
1
10
176.053690220133
20
-4.12930113414112
30
0
41
1
10
176.052150111705
20
-4.17272634498349
30
0
41
1
10
176.053262624328
20
-4.25501877046082
30
0
41
1
10
176.055956613691
20
-4.29382595712951
30
0
41
1
10
176.065107379034
20
-4.36487497655619
30
0
41
1
10
176.071561308414
20
-4.39745709636162
30
0
41
1
10
176.08794977753
20
-4.45716961484436
30
0
41
1
10
176.097930009359
20
-4.48431037241241
30
0
41
1
10
176.132021468111
20
-4.55625129940626
30
0
41
1
10
176.160565759153
20
-4.59261912791891
30
0
41
1
10
176.226896744087
20
-4.64398051911485
30
0
41
1
10
176.264043719617
20
-4.65861590712998
30
0
41
1
10
176.325051852845
20
-4.6659000982163
30
0
41
1
10
176.346380778289
20
-4.66583548376144
30
0
41
1
10
176.390223409689
20
-4.66086177871253
30
0
41
1
10
176.412727209548
20
-4.65598196606598
30
0
41
1
10
176.48191013706
20
-4.63447556076986
30
0
41
1
10
176.530241524158
20
-4.61106115955494
30
0
41
1
10
176.63141170037
20
-4.54571505818254
30
0
41
1
10
176.683094671863
20
-4.50448783757219
30
0
41
1
10
176.787809542003
20
-4.40558570867515
30
0
41
1
10
176.841066038732
20
-4.34773980518813
30
0
41
1
10
176.949064101534
20
-4.21336849826733
30
0
41
1
10
177.0022165994
20
-4.13879335806993
30
0
41
1
10
177.079804321251
20
-4.01585142991189
30
0
41
1
10
177.105348988045
20
-3.97295375191942
30
0
41
1
10
177.155727431737
20
-3.88287160660417
30
0
41
1
10
177.180395086993
20
-3.83594286967133
30
0
41
1
10
177.227575907029
20
-3.74004032405591
30
0
41
1
10
177.250241291396
20
-3.69080267910218
30
0
41
1
10
177.293544559273
20
-3.58950787751587
30
0
41
1
10
177.314332791653
20
-3.53698969676444
30
0
41
1
10
177.352268720216
20
-3.43243577979416
30
0
41
1
10
177.369559907971
20
-3.38013150445758
30
0
41
1
10
177.400664976136
20
-3.27546630396461
30
0
41
1
10
177.414541399716
20
-3.22283554733067
30
0
41
1
10
177.450051921421
20
-3.06659436718556
30
0
41
1
10
177.464740385095
20
-2.96887260670292
30
0
41
1
10
177.476613835854
20
-2.78753642093042
30
0
41
1
10
177.473523606041
20
-2.70800708828523
30
0
41
1
10
177.451909208774
20
-2.57008782708104
30
0
41
1
10
177.433809850907
20
-2.51390887209197
30
0
41
1
10
177.385402476973
20
-2.42294858867882
30
0
41
1
10
177.355920097452
20
-2.38978947371413
30
0
41
1
10
177.322186434687
20
-2.36684293667713
30
0
0
LINE
5
76
100
AcDbEntity
8
81
62
256
6
ByLayer
370
18
48
1
60
0
100
AcDbLine
10
179
20
0
30
0
11
184
21
0
31
0
39
0
210
0
220
0
230
1
0
LINE
5
77
100
AcDbEntity
8
1
62
256
6
ByLayer
370
18
48
1
60
0
100
AcDbLine
10
6.702432
20
7.03775
30
0
11
0.350219
21
7.03378
31
0
39
0
210
0
220
0
230
1
0
LINE
5
79
100
AcDbEntity
8
1
62
256
6
ByLayer
370
18
48
1
60
0
100
AcDbLine
10
44.969756
20
7.061667
30
0
11
42.766281
21
7.06029
31
0
39
0
210
0
220
0
230
1
0
LINE
5
7A
100
AcDbEntity
8
1
62
256
6
ByLayer
370
18
48
1
60
0
100
AcDbLine
10
88.519628
20
7.088886
30
0
11
86.322934
21
7.087513
31
0
39
0
210
0
220
0
230
1
0
LINE
5
7B
100
AcDbEntity
8
1
62
256
6
ByLayer
370
18
48
1
60
0
100
AcDbLine
10
132.06981
20
7.116105
30
0
11
129.877246
21
7.114734
31
0
39
0
210
0
220
0
230
1
0
LINE
5
7C
100
AcDbEntity
8
1
62
256
6
ByLayer
370
18
48
1
60
0
100
AcDbLine
10
175.621211
20
7.143324
30
0
11
173.434066
21
7.141957
31
0
39
0
210
0
220
0
230
1
0
LINE
5
7D
100
AcDbEntity
8
1
62
256
6
ByLayer
370
18
48
1
60
0
100
AcDbLine
10
173.434066
20
-7.141957
30
0
11
175.620959
21
-7.143324
31
0
39
0
210
0
220
0
230
1
0
LINE
5
7E
100
AcDbEntity
8
1
62
256
6
ByLayer
370
18
48
1
60
0
100
AcDbLine
10
129.877246
20
-7.114734
30
0
11
132.070188
21
-7.116105
31
0
39
0
210
0
220
0
230
1
0
LINE
5
7F
100
AcDbEntity
8
1
62
256
6
ByLayer
370
18
48
1
60
0
100
AcDbLine
10
86.322934
20
-7.087513
30
0
11
88.51959
21
-7.088886
31
0
39
0
210
0
220
0
230
1
0
LINE
5
80
100
AcDbEntity
8
1
62
256
6
ByLayer
370
18
48
1
60
0
100
AcDbLine
10
42.766281
20
-7.06029
30
0
11
44.969528
21
-7.061667
31
0
39
0
210
0
220
0
230
1
0
LINE
5
81
100
AcDbEntity
8
1
62
256
6
ByLayer
370
18
48
1
60
0
100
AcDbLine
10
0.350219
20
-7.03378
30
0
11
6.702432
21
-7.03775
31
0
39
0
210
0
220
0
230
1
0
LINE
5
82
100
AcDbEntity
8
SK1
62
256
6
ByLayer
370
18
48
1
60
0
100
AcDbLine
10
-45.979274
20
8
30
0
11
-48
21
4.5
31
0
39
0
210
0
220
0
230
1
0
LINE
5
84
100
AcDbEntity
8
SK1
62
256
6
ByLayer
370
18
48
1
60
0
100
AcDbLine
10
-48
20
-4.5
30
0
11
-45.979274
21
-8
31
0
39
0
210
0
220
0
230
1
0
LINE
5
85
100
AcDbEntity
8
SK1
62
256
6
ByLayer
370
18
48
1
60
0
100
AcDbLine
10
0
20
8
30
0
11
-45.979274
21
8
31
0
39
0
210
0
220
0
230
1
0
LINE
5
86
100
AcDbEntity
8
SK1
62
256
6
ByLayer
370
18
48
1
60
0
100
AcDbLine
10
-45.979274
20
-8
30
0
11
0
21
-8
31
0
39
0
210
0
220
0
230
1
0
LINE
5
87
100
AcDbEntity
8
SK4
62
256
6
ByLayer
370
18
48
0.05
60
0
100
AcDbLine
10
184
20
0
30
0
11
-53
21
0
31
0
39
0
210
0
220
0
230
1
0
LINE
5
89
100
AcDbEntity
8
4
62
256
6
ByLayer
370
18
48
0.05
60
0
100
AcDbLine
10
179
20
0
30
0
11
0
21
0
31
0
39
0
210
0
220
0
230
1
0
LINE
5
8B
100
AcDbEntity
8
80
62
256
6
ByLayer
370
18
48
1
60
0
100
AcDbLine
10
0
20
0
30
0
11
-5
21
0
31
0
39
0
210
0
220
0
230
1
0
LINE
5
8C
100
AcDbEntity
8
SK1
62
256
6
ByLayer
370
13
48
1
60
0
100
AcDbLine
10
-46.1
20
-2.99791
30
0
11
-46.1
21
-5.4929
31
0
39
0
210
0
220
0
230
1
0
LINE
5
8D
100
AcDbEntity
8
SK1
62
256
6
ByLayer
370
18
48
1
60
0
100
AcDbLine
10
-48
20
-4.5
30
0
11
-48
21
-3.603454
31
0
39
0
210
0
220
0
230
1
0
LINE
5
8E
100
AcDbEntity
8
SK1
62
256
6
ByLayer
370
18
48
1
60
0
100
AcDbLine
10
0
20
8
30
0
11
0
21
-8
31
0
39
0
210
0
220
0
230
1
0
LINE
5
8F
100
AcDbEntity
8
SK1
62
256
6
ByLayer
370
18
48
1
60
0
100
AcDbLine
10
-48
20
4.5
30
0
11
-48
21
-0.730463
31
0
39
0
210
0
220
0
230
1
0
LINE
5
90
100
AcDbEntity
8
SK1
62
256
6
ByLayer
370
18
48
1
60
0
100
AcDbLine
10
-45.979274
20
8
30
0
11
-45.979274
21
-8
31
0
39
0
210
0
220
0
230
1
0
LINE
5
91
100
AcDbEntity
8
SK1
62
256
6
ByLayer
370
18
48
1
60
0
100
AcDbLine
10
-46
20
-5.517994
30
0
11
-46
21
-3.189397
31
0
39
0
210
0
220
0
230
1
0
LINE
5
92
100
AcDbEntity
8
SK1
62
256
6
ByLayer
370
18
48
1
60
0
100
AcDbLine
10
-48
20
-0.730511
30
0
11
-48
21
-3.603454
31
0
39
0
210
0
220
0
230
1
0
LINE
5
93
100
AcDbEntity
8
1
62
256
6
ByLayer
370
13
48
1
60
0
100
AcDbLine
10
176.337654
20
1.589226
30
0
11
178.956628
21
-0.068647
31
0
39
0
210
0
220
0
230
1
0
LINE
5
94
100
AcDbEntity
8
1
62
256
6
ByLayer
370
18
48
1
60
0
100
AcDbLine
10
177.322186
20
-2.366843
30
0
11
178.801463
21
-0.359032
31
0
39
0
210
0
220
0
230
1
0
LINE
5
95
100
AcDbEntity
8
1
62
256
6
ByLayer
370
18
48
1
60
0
100
AcDbLine
10
6.702432
20
-7.03775
30
0
11
6.702432
21
0.99983
31
0
39
0
210
0
220
0
230
1
0
LINE
5
96
100
AcDbEntity
8
1
62
256
6
ByLayer
370
18
48
1
60
0
100
AcDbLine
10
6.702432
20
7.03775
30
0
11
6.702432
21
6.58847
31
0
39
0
210
0
220
0
230
1
0
LINE
5
97
100
AcDbEntity
8
1
62
256
6
ByLayer
370
18
48
1
60
0
100
AcDbLine
10
175.364864
20
-5.0235
30
0
11
176.057436
21
-4.083478
31
0
39
0
210
0
220
0
230
1
0
LINE
5
98
100
AcDbEntity
8
1
62
256
6
ByLayer
370
13
48
1
60
0
100
AcDbLine
10
0.350219
20
7.03378
30
0
11
0.350219
21
-7.03378
31
0
39
0
210
0
220
0
230
1
0
LINE
5
99
100
AcDbEntity
8
1
62
256
6
ByLayer
370
13
48
1
60
0
100
AcDbLine
10
176.485803
20
1.734671
30
0
11
178.975477
21
0.158648
31
0
39
0
210
0
220
0
230
1
0
MTEXT
5
EB
100
AcDbEntity
8
SK6
62
256
6
ByLayer
370
13
48
1
60
0
100
AcDbMText
10
67.629169
20
39.526694
30
0
210
0
220
0
230
1
1
\W0.7371;460.1-1429-107A1-XM GC34
40
3.5
41
0
44
1.084337
50
0
71
8
72
5
7
iso_b_vert
0
DIMENSION
5
F8
100
AcDbEntity
8
SK2
62
256
6
ByLayer
370
13
48
1
60
0
100
AcDbDimension
2
DimnDraft3D1
10
176.8695
20
-17.357398
30
0
11
86.619559
21
-17.357398
31
0
70
32
71
5
72
1
41
1
210
0
220
0
230
1
3
Standard
100
AcDbAlignedDimension
13
0
23
-1.5875
33
0
14
176.8695
24
-8.7315
34
0
50
0
100
AcDbRotatedDimension
1001
ACAD
1000
DSTYLE
1002
{
1070
   279
1070
     0
1070
   172
1070
     1
1070
   173
1070
     1
1070
   340
1005
EC
1070
   271
1070
     2
1070
   272
1070
     2
1070
    77
1070
     1
1070
    73
1070
     0
1070
   171
1070
     3
1070
   274
1070
     4
1070
   177
1070
    35
1070
   176
1070
    35
1070
   178
1070
    35
1070
    48
1040
-0.005
1070
    41
1041
3.5
1070
   147
1041
1.75
1070
    42
1041
1.5875
1070
    44
1041
2.0
1070
   140
1041
3.5
1070
   343
1005
0
1070
   344
1005
0
1002
}
0
DIMENSION
5
102
100
AcDbEntity
8
SK2
62
256
6
ByLayer
370
13
48
1
60
0
100
AcDbDimension
2
DimnDraft3D2
10
179
20
-36.692985
30
0
11
64.7108
21
-36.692985
31
0
70
32
71
5
72
1
41
1
210
0
220
0
230
1
3
Standard
100
AcDbAlignedDimension
13
-48
23
-9.5875
33
0
14
179
24
-1.5875
34
0
50
0
100
AcDbRotatedDimension
1001
ACAD
1000
DSTYLE
1002
{
1070
   279
1070
     0
1070
   172
1070
     1
1070
   173
1070
     1
1070
   340
1005
EC
1070
   271
1070
     2
1070
   272
1070
     2
1070
    77
1070
     1
1070
    73
1070
     0
1070
   171
1070
     3
1070
   274
1070
     4
1070
   177
1070
    35
1070
   176
1070
    35
1070
   178
1070
    35
1070
    48
1040
-0.005
1070
    41
1041
3.5
1070
   147
1041
1.75
1070
    42
1041
1.5875
1070
    44
1041
2.0
1070
   140
1041
3.5
1070
   343
1005
0
1070
   344
1005
0
1002
}
0
DIMENSION
5
10C
100
AcDbEntity
8
SK2
62
256
6
ByLayer
370
13
48
1
60
0
100
AcDbDimension
2
DimnDraft3D3
10
179
20
18.753119
30
0
11
120.775
21
18.753119
31
0
70
32
71
5
72
1
41
1
210
0
220
0
230
1
3
Standard
100
AcDbAlignedDimension
13
62.55
23
8.7315
33
0
14
179
24
1.5875
34
0
50
0
100
AcDbRotatedDimension
1001
ACAD
1000
DSTYLE
1002
{
1070
   279
1070
     0
1070
   172
1070
     1
1070
   173
1070
     1
1070
   340
1005
EC
1070
   271
1070
     2
1070
   272
1070
     2
1070
    77
1070
     1
1070
    73
1070
     0
1070
   171
1070
     3
1070
   274
1070
     4
1070
   177
1070
    35
1070
   176
1070
    35
1070
   178
1070
    35
1070
    48
1040
-0.005
1070
    41
1041
3.5
1070
   147
1041
1.75
1070
    42
1041
1.5875
1070
    44
1041
2.0
1070
   140
1041
3.5
1070
   343
1005
0
1070
   344
1005
0
1002
}
0
DIMENSION
5
116
100
AcDbEntity
8
SK2
62
256
6
ByLayer
370
13
48
1
60
0
100
AcDbDimension
2
DimnDraft3D4
10
176.8695
20
-19.946503
30
0
11
188.981425
21
-19.946503
31
0
70
32
71
5
72
1
41
1
210
0
220
0
230
1
3
Standard
100
AcDbAlignedDimension
13
179
23
-1.5875
33
0
14
176.8695
24
-8.7315
34
0
50
0
100
AcDbRotatedDimension
1001
ACAD
1000
DSTYLE
1002
{
1070
   279
1070
     0
1070
   172
1070
     1
1070
   173
1070
     1
1070
   340
1005
EC
1070
   271
1070
     2
1070
   272
1070
     2
1070
    77
1070
     1
1070
    73
1070
     0
1070
   171
1070
     3
1070
   274
1070
     4
1070
   177
1070
    35
1070
   176
1070
    35
1070
   178
1070
    35
1070
    48
1040
-0.005
1070
    41
1041
3.5
1070
   147
1041
1.75
1070
    42
1041
1.5875
1070
    44
1041
2.0
1070
   140
1041
3.5
1070
   343
1005
0
1070
   344
1005
0
1002
}
0
DIMENSION
5
120
100
AcDbEntity
8
SK2
62
256
6
ByLayer
370
13
48
1
60
0
100
AcDbDimension
2
DimnDraft3D5
10
176.8695
20
-26.343428
30
0
11
61.630176
21
-26.343428
31
0
70
32
71
5
72
1
41
1
210
0
220
0
230
1
3
Standard
100
AcDbAlignedDimension
13
-48
23
-9.5875
33
0
14
176.8695
24
-8.7315
34
0
50
0
100
AcDbRotatedDimension
1001
ACAD
1000
DSTYLE
1002
{
1070
   279
1070
     0
1070
   172
1070
     1
1070
   173
1070
     1
1070
   340
1005
EC
1070
   271
1070
     2
1070
   272
1070
     2
1070
    77
1070
     1
1070
    73
1070
     0
1070
   171
1070
     3
1070
   274
1070
     4
1070
   177
1070
    35
1070
   176
1070
    35
1070
   178
1070
    35
1070
    48
1040
-0.005
1070
    41
1041
3.5
1070
   147
1041
1.75
1070
    42
1041
1.5875
1070
    44
1041
2.0
1070
   140
1041
3.5
1070
   343
1005
0
1070
   344
1005
0
1002
}
0
DIMENSION
5
12B
100
AcDbEntity
8
SK2
62
256
6
ByLayer
370
13
48
1
60
0
100
AcDbDimension
2
DimnDraft3D6
10
-58.625163
20
8
30
0
11
-59.250163
21
26.47418
31
0
70
33
71
5
72
1
41
1
210
0
220
0
230
1
3
Standard
100
AcDbAlignedDimension
13
-49.5875
23
-8
33
0
14
-49.5875
24
8
34
0
1001
ACAD
1000
DSTYLE
1002
{
1070
   279
1070
     0
1070
    74
1070
     0
1070
   173
1070
     1
1070
   340
1005
EC
1070
   271
1070
     3
1070
   272
1070
     2
1070
    77
1070
     1
1070
    73
1070
     0
1070
   171
1070
     3
1070
   274
1070
     4
1070
   177
1070
    35
1070
   176
1070
    35
1070
   178
1070
    35
1070
    48
1040
-0.005
1070
    41
1041
3.5
1070
   147
1041
1.75
1070
    42
1041
1.5875
1070
    44
1041
2.0
1070
   140
1041
3.5
1070
   343
1005
0
1070
   344
1005
0
1002
}
0
DIMENSION
5
136
100
AcDbEntity
8
2
62
256
6
ByLayer
370
13
48
1
60
0
100
AcDbDimension
2
DimnDraft3D7
10
193.083343
20
7.144
30
0
11
188.458343
21
24.211266
31
0
70
33
71
5
72
1
41
1
210
0
220
0
230
1
3
Standard
100
AcDbAlignedDimension
13
178.457
23
-7.144
33
0
14
178.457
24
7.144
34
0
1001
ACAD
1000
DSTYLE
1002
{
1070
   279
1070
     0
1070
    74
1070
     0
1070
   173
1070
     1
1070
   340
1005
EC
1070
   271
1070
     3
1070
   272
1070
     2
1070
    77
1070
     1
1070
    73
1070
     0
1070
   171
1070
     3
1070
   274
1070
     4
1070
   177
1070
    35
1070
   176
1070
    35
1070
   178
1070
    35
1070
    48
1040
-0.005
1070
    41
1041
3.5
1070
   147
1041
1.75
1070
    42
1041
1.5875
1070
    44
1041
2.0
1070
   140
1041
3.5
1070
   343
1005
0
1070
   344
1005
0
1002
}
0
ENDSEC
0
SECTION
2
OBJECTS
0
DICTIONARY
5
1a1
330
0
100
AcDbDictionary
280
0
281
1
3
ACAD_GROUP
350
1a2
3
ACAD_MLINESTYLE
350
1a3
0
DICTIONARY
5
1a2
330
0
100
AcDbDictionary
280
0
281
1
0
DICTIONARY
5
1a3
330
0
100
AcDbDictionary
280
0
281
1
3
Standard
350
18
0
MLINESTYLE
5
18
330
1a3
100
AcDbMlineStyle
2
Standard
70
0
3

62
256
51
90
52
90
71
2
49
-0.5
62
256
6
ByLayer
49
0.5
62
256
6
ByLayer
0
RASTERVARIABLES
5
18f
330

100
AcDbRasterVariables
90
0
70
1
71
1
72
1
0
ENDSEC
0
EOF
