0
SECTION
2
HEADER
9
$ACADVER
1
AC1015
9
$DWGCODEPAGE
3
ANSI_1252
9
$HANDSEED
5
18d
9
$ANGBASE
50
0
9
$ANGDIR
70
0
9
$ATTMODE
70
1
9
$AUNITS
70
0
9
$AUPREC
70
0
9
$CECOLOR
62
256
9
$CELTSCALE
40
1
9
$CELTYPE
6
ByLayer
9
$CELWEIGHT
370
18
9
$CLAYER
8
0
9
$CMLJUST
70
0
9
$CMLSCALE
40
1
9
$CMLSTYLE
2
Standard
9
$DIMSTYLE
2
Standard
9
$TEXTSIZE
40
0.2
9
$TEXTSTYLE
7
Standard
9
$LUNITS
70
2
9
$LUPREC
70
4
9
$EXTNAMES
290
1
9
$INSUNITS
70
4
9
$LTSCALE
40
1
9
$LWDISPLAY
290
1
9
$PDMODE
70
0
9
$PDSIZE
40
0
9
$PLINEGEN
70
0
0
ENDSEC
0
SECTION
2
CLASSES
0
CLASS
1
RASTERVARIABLES
2
AcDbRasterVariables
3
ISM
90
0
280
0
281
0
0
ENDSEC
0
SECTION
2
TABLES
0
TABLE
2
VPORT
5
183
100
AcDbSymbolTable
0
VPORT
5
1
100
AcDbSymbolTableRecord
100
AcDbViewportTableRecord
2
*Active
70
0
10
0
20
0
11
1
21
1
12
-1
22
1
13
0
23
0
14
0.5
24
0.5
15
10
25
10
16
0
26
0
36
1
17
0
27
0
37
0
0
ENDTAB
0
TABLE
2
LTYPE
5
184
100
AcDbSymbolTable
0
LTYPE
5
14
100
AcDbSymbolTableRecord
100
AcDbLinetypeTableRecord
70
0
2
ByBlock
3

72
65
73
0
40
0
0
LTYPE
5
15
100
AcDbSymbolTableRecord
100
AcDbLinetypeTableRecord
70
0
2
ByLayer
3

72
65
73
0
40
0
0
LTYPE
5
16
100
AcDbSymbolTableRecord
100
AcDbLinetypeTableRecord
70
0
2
CONTINUOUS
3
Solid line
72
65
73
0
40
0
0
LTYPE
5
6A
100
AcDbSymbolTableRecord
100
AcDbLinetypeTableRecord
70
0
2
CENTER
3
____ _ ____ _ ____ _ ____
72
65
73
4
40
47.5
49
22
74
0
49
-8.5
74
0
49
8.5
74
0
49
-8.5
74
0
0
LTYPE
5
6B
100
AcDbSymbolTableRecord
100
AcDbLinetypeTableRecord
70
0
2
DASHED
3
__ __ __ __ __ __ __ __ __
72
65
73
2
40
25.72
49
12.86
74
0
49
-12.86
74
0
0
ENDTAB
0
TABLE
2
LAYER
5
185
100
AcDbSymbolTable
0
LAYER
5
10
100
AcDbSymbolTableRecord
100
AcDbLayerTableRecord
2
0
70
0
62
7
6
CONTINUOUS
290
1
370
-3
390
0
0
LAYER
5
6D
100
AcDbSymbolTableRecord
100
AcDbLayerTableRecord
2
81
70
0
62
-3
6
CONTINUOUS
290
1
370
-3
390
0
0
LAYER
5
6F
100
AcDbSymbolTableRecord
100
AcDbLayerTableRecord
2
80
70
0
62
-6
6
CONTINUOUS
290
1
370
-3
390
0
0
LAYER
5
74
100
AcDbSymbolTableRecord
100
AcDbLayerTableRecord
2
2
70
0
62
7
6
CONTINUOUS
290
1
370
-3
390
0
0
LAYER
5
78
100
AcDbSymbolTableRecord
100
AcDbLayerTableRecord
2
1
70
0
62
4
6
CONTINUOUS
290
1
370
-3
390
0
0
LAYER
5
86
100
AcDbSymbolTableRecord
100
AcDbLayerTableRecord
2
4
70
0
62
-2
6
CENTER
290
1
370
-3
390
0
0
LAYER
5
16f
100
AcDbSymbolTableRecord
100
AcDbLayerTableRecord
2
SK2
70
0
62
7
6
CONTINUOUS
290
1
370
-3
390
0
0
LAYER
5
170
100
AcDbSymbolTableRecord
100
AcDbLayerTableRecord
2
SK1
70
0
62
4
6
CONTINUOUS
290
1
370
-3
390
0
0
LAYER
5
171
100
AcDbSymbolTableRecord
100
AcDbLayerTableRecord
2
SK4
70
0
62
2
6
CENTER
290
1
370
-3
390
0
0
LAYER
5
172
100
AcDbSymbolTableRecord
100
AcDbLayerTableRecord
2
SK6
70
0
62
5
6
CONTINUOUS
290
1
370
-3
390
0
0
ENDTAB
0
TABLE
2
STYLE
5
186
100
AcDbSymbolTable
0
STYLE
5
11
100
AcDbSymbolTableRecord
100
AcDbTextStyleTableRecord
2
Standard
3
txt
70
0
71
0
40
0
41
1
42
0
50
0
0
STYLE
5
CB
100
AcDbSymbolTableRecord
100
AcDbTextStyleTableRecord
2
iso_b_vert
3
simplex.shx
70
0
71
0
40
0
41
1
42
0
50
0
0
STYLE
5
CC
100
AcDbSymbolTableRecord
100
AcDbTextStyleTableRecord
2
DWGDirectTextStyle
3
simplex
70
0
71
0
40
0
41
1
42
0
50
0
0
ENDTAB
0
TABLE
2
DIMSTYLE
5
187
100
AcDbSymbolTable
100
AcDbDimStyleTable
0
DIMSTYLE
105
27
100
AcDbSymbolTableRecord
100
AcDbDimStyleTableRecord
2
Standard
70
0
3
<>
41
0.18
42
0.0625
44
0.18
140
0.18
147
0.09
73
0
74
0
77
1
271
2
275
0
278
52
280
0
340
11
0
ENDTAB
0
TABLE
2
VIEW
5
188
100
AcDbSymbolTable
0
ENDTAB
0
TABLE
2
UCS
5
189
100
AcDbSymbolTable
0
ENDTAB
0
TABLE
2
APPID
5
18a
100
AcDbSymbolTable
0
APPID
5
12
100
AcDbSymbolTableRecord
100
AcDbRegAppTableRecord
2
ACAD
70
0
0
ENDTAB
0
TABLE
2
BLOCK_RECORD
5
18b
100
AcDbSymbolTable
0
BLOCK_RECORD
5
1F
100
AcDbSymbolTableRecord
100
AcDbBlockTableRecord
2
*Model_Space
340
0
70
0
0
BLOCK_RECORD
5
1B
100
AcDbSymbolTableRecord
100
AcDbBlockTableRecord
2
*Paper_Space
340
0
70
0
0
BLOCK_RECORD
5
23
100
AcDbSymbolTableRecord
100
AcDbBlockTableRecord
2
*Paper_Space0
340
0
70
0
0
BLOCK_RECORD
5
CE
100
AcDbSymbolTableRecord
100
AcDbBlockTableRecord
2
DimnDraft3D1
340
0
70
0
0
BLOCK_RECORD
5
D8
100
AcDbSymbolTableRecord
100
AcDbBlockTableRecord
2
DimnDraft3D2
340
0
70
0
0
BLOCK_RECORD
5
E2
100
AcDbSymbolTableRecord
100
AcDbBlockTableRecord
2
DimnDraft3D3
340
0
70
0
0
BLOCK_RECORD
5
EC
100
AcDbSymbolTableRecord
100
AcDbBlockTableRecord
2
DimnDraft3D4
340
0
70
0
0
BLOCK_RECORD
5
F6
100
AcDbSymbolTableRecord
100
AcDbBlockTableRecord
2
DimnDraft3D5
340
0
70
0
0
BLOCK_RECORD
5
100
100
AcDbSymbolTableRecord
100
AcDbBlockTableRecord
2
DimnDraft3D6
340
0
70
0
0
BLOCK_RECORD
5
10B
100
AcDbSymbolTableRecord
100
AcDbBlockTableRecord
2
DimnDraft3D7
340
0
70
0
0
ENDTAB
0
ENDSEC
0
SECTION
2
BLOCKS
0
BLOCK
5
20
100
AcDbEntity
8
0
100
AcDbBlockBegin
2
*Model_Space
70
0
10
0
20
0
30
0
3
*Model_Space
0
ENDBLK
5
21
100
AcDbEntity
8
0
100
AcDbBlockEnd
0
BLOCK
5
1C
100
AcDbEntity
8
0
100
AcDbBlockBegin
2
*Paper_Space
70
0
10
0
20
0
30
0
3
*Paper_Space
0
ENDBLK
5
1D
100
AcDbEntity
8
0
100
AcDbBlockEnd
0
BLOCK
5
24
100
AcDbEntity
8
0
100
AcDbBlockBegin
2
*Paper_Space0
70
0
10
0
20
0
30
0
3
*Paper_Space0
0
ENDBLK
5
25
100
AcDbEntity
8
0
100
AcDbBlockEnd
0
BLOCK
5
D5
100
AcDbEntity
8
0
100
AcDbBlockBegin
2
DimnDraft3D1
70
0
10
0
20
0
30
0
3
DimnDraft3D1
0
MTEXT
5
CF
100
AcDbEntity
8
SK2
62
256
6
ByLayer
370
13
48
1
60
0
100
AcDbMText
10
34.961364
20
-16.463398
30
0
210
0
220
0
230
1
1
\W0.7494;82,41
40
3.5
41
0
44
1.084337
50
0
71
7
72
5
7
iso_b_vert
0
LINE
5
D0
100
AcDbEntity
8
SK2
62
256
6
ByLayer
370
13
48
1
60
0
100
AcDbLine
10
0
20
-1.5875
30
0
11
0
21
-19.338398
31
0
39
0
210
0
220
0
230
1
0
LINE
5
D1
100
AcDbEntity
8
SK2
62
256
6
ByLayer
370
13
48
1
60
0
100
AcDbLine
10
82.4067
20
-8.7125
30
0
11
82.4067
21
-19.338398
31
0
39
0
210
0
220
0
230
1
0
LINE
5
D2
100
AcDbEntity
8
SK2
62
256
6
ByLayer
370
13
48
1
60
0
100
AcDbLine
10
0
20
-17.338398
30
0
11
82.4067
21
-17.338398
31
0
39
0
210
0
220
0
230
1
0
SOLID
5
D3
100
AcDbEntity
8
SK2
62
256
6
ByLayer
370
13
48
1
60
0
100
AcDbTrace
10
0
20
-17.338398
30
0
11
3.499998
21
-16.877615
31
0
12
3.500002
22
-17.799182
32
0
13
0
23
-17.338398
33
0
39
0
210
0
220
0
230
1
0
SOLID
5
D4
100
AcDbEntity
8
SK2
62
256
6
ByLayer
370
13
48
1
60
0
100
AcDbTrace
10
82.4067
20
-17.338398
30
0
11
78.906702
21
-17.799182
31
0
12
78.906698
22
-16.877615
32
0
13
82.4067
23
-17.338398
33
0
39
0
210
0
220
0
230
1
0
ENDBLK
5
D6
100
AcDbEntity
8
0
100
AcDbBlockEnd
0
BLOCK
5
DF
100
AcDbEntity
8
0
100
AcDbBlockBegin
2
DimnDraft3D2
70
0
10
0
20
0
30
0
3
DimnDraft3D2
0
MTEXT
5
D9
100
AcDbEntity
8
SK2
62
256
6
ByLayer
370
13
48
1
60
0
100
AcDbMText
10
11.928921
20
-35.817985
30
0
210
0
220
0
230
1
1
\W0.6930;133,00
40
3.5
41
0
44
1.084337
50
0
71
7
72
5
7
iso_b_vert
0
LINE
5
DA
100
AcDbEntity
8
SK2
62
256
6
ByLayer
370
13
48
1
60
0
100
AcDbLine
10
-48
20
-9.5875
30
0
11
-48
21
-38.692985
31
0
39
0
210
0
220
0
230
1
0
LINE
5
DB
100
AcDbEntity
8
SK2
62
256
6
ByLayer
370
13
48
1
60
0
100
AcDbLine
10
85
20
-1.5875
30
0
11
85
21
-38.692985
31
0
39
0
210
0
220
0
230
1
0
LINE
5
DC
100
AcDbEntity
8
SK2
62
256
6
ByLayer
370
13
48
1
60
0
100
AcDbLine
10
-48
20
-36.692985
30
0
11
85
21
-36.692985
31
0
39
0
210
0
220
0
230
1
0
SOLID
5
DD
100
AcDbEntity
8
SK2
62
256
6
ByLayer
370
13
48
1
60
0
100
AcDbTrace
10
-48
20
-36.692985
30
0
11
-44.500002
21
-36.232202
31
0
12
-44.499998
22
-37.153769
32
0
13
-48
23
-36.692985
33
0
39
0
210
0
220
0
230
1
0
SOLID
5
DE
100
AcDbEntity
8
SK2
62
256
6
ByLayer
370
13
48
1
60
0
100
AcDbTrace
10
85
20
-36.692985
30
0
11
81.500002
21
-37.153769
31
0
12
81.499998
22
-36.232202
32
0
13
85
23
-36.692985
33
0
39
0
210
0
220
0
230
1
0
ENDBLK
5
E0
100
AcDbEntity
8
0
100
AcDbBlockEnd
0
BLOCK
5
E9
100
AcDbEntity
8
0
100
AcDbBlockBegin
2
DimnDraft3D3
70
0
10
0
20
0
30
0
3
DimnDraft3D3
0
MTEXT
5
E3
100
AcDbEntity
8
SK2
62
256
6
ByLayer
370
13
48
1
60
0
100
AcDbMText
10
50.178816
20
19.609119
30
0
210
0
220
0
230
1
1
\W0.6713;61,62
40
3.5
41
0
44
1.084337
50
0
71
7
72
5
7
iso_b_vert
0
LINE
5
E4
100
AcDbEntity
8
SK2
62
256
6
ByLayer
370
13
48
1
60
0
100
AcDbLine
10
23.38
20
8.7125
30
0
11
23.38
21
20.734119
31
0
39
0
210
0
220
0
230
1
0
LINE
5
E5
100
AcDbEntity
8
SK2
62
256
6
ByLayer
370
13
48
1
60
0
100
AcDbLine
10
85
20
1.5875
30
0
11
85
21
20.734119
31
0
39
0
210
0
220
0
230
1
0
LINE
5
E6
100
AcDbEntity
8
SK2
62
256
6
ByLayer
370
13
48
1
60
0
100
AcDbLine
10
23.38
20
18.734119
30
0
11
85
21
18.734119
31
0
39
0
210
0
220
0
230
1
0
SOLID
5
E7
100
AcDbEntity
8
SK2
62
256
6
ByLayer
370
13
48
1
60
0
100
AcDbTrace
10
23.38
20
18.734119
30
0
11
26.879998
21
19.194903
31
0
12
26.880002
22
18.273335
32
0
13
23.38
23
18.734119
33
0
39
0
210
0
220
0
230
1
0
SOLID
5
E8
100
AcDbEntity
8
SK2
62
256
6
ByLayer
370
13
48
1
60
0
100
AcDbTrace
10
85
20
18.734119
30
0
11
81.500002
21
18.273335
31
0
12
81.499998
22
19.194903
32
0
13
85
23
18.734119
33
0
39
0
210
0
220
0
230
1
0
ENDBLK
5
EA
100
AcDbEntity
8
0
100
AcDbBlockEnd
0
BLOCK
5
F3
100
AcDbEntity
8
0
100
AcDbBlockBegin
2
DimnDraft3D4
70
0
10
0
20
0
30
0
3
DimnDraft3D4
0
MTEXT
5
ED
100
AcDbEntity
8
SK2
62
256
6
ByLayer
370
13
48
1
60
0
100
AcDbMText
10
91.840636
20
-19.052503
30
0
210
0
220
0
230
1
1
\W0.7259;2,59
40
3.5
41
0
44
1.084337
50
0
71
7
72
5
7
iso_b_vert
0
LINE
5
EE
100
AcDbEntity
8
SK2
62
256
6
ByLayer
370
13
48
1
60
0
100
AcDbLine
10
85
20
-1.5875
30
0
11
85
21
-21.927503
31
0
39
0
210
0
220
0
230
1
0
LINE
5
EF
100
AcDbEntity
8
SK2
62
256
6
ByLayer
370
13
48
1
60
0
100
AcDbLine
10
82.4067
20
-8.7125
30
0
11
82.4067
21
-21.927503
31
0
39
0
210
0
220
0
230
1
0
LINE
5
F0
100
AcDbEntity
8
SK2
62
256
6
ByLayer
370
13
48
1
60
0
100
AcDbLine
10
73.6567
20
-19.927503
30
0
11
98.997215
21
-19.927503
31
0
39
0
210
0
220
0
230
1
0
SOLID
5
F1
100
AcDbEntity
8
SK2
62
256
6
ByLayer
370
13
48
1
60
0
100
AcDbTrace
10
85
20
-19.927503
30
0
11
88.499998
21
-19.466719
31
0
12
88.500002
22
-20.388287
32
0
13
85
23
-19.927503
33
0
39
0
210
0
220
0
230
1
0
SOLID
5
F2
100
AcDbEntity
8
SK2
62
256
6
ByLayer
370
13
48
1
60
0
100
AcDbTrace
10
82.4067
20
-19.927503
30
0
11
78.906702
21
-20.388287
31
0
12
78.906698
22
-19.466719
32
0
13
82.4067
23
-19.927503
33
0
39
0
210
0
220
0
230
1
0
ENDBLK
5
F4
100
AcDbEntity
8
0
100
AcDbBlockEnd
0
BLOCK
5
FD
100
AcDbEntity
8
0
100
AcDbBlockBegin
2
DimnDraft3D5
70
0
10
0
20
0
30
0
3
DimnDraft3D5
0
MTEXT
5
F7
100
AcDbEntity
8
SK2
62
256
6
ByLayer
370
13
48
1
60
0
100
AcDbMText
10
9.101587
20
-25.468428
30
0
210
0
220
0
230
1
1
\W0.7050;130,41
40
3.5
41
0
44
1.084337
50
0
71
7
72
5
7
iso_b_vert
0
LINE
5
F8
100
AcDbEntity
8
SK2
62
256
6
ByLayer
370
13
48
1
60
0
100
AcDbLine
10
-48
20
-9.5875
30
0
11
-48
21
-28.343428
31
0
39
0
210
0
220
0
230
1
0
LINE
5
F9
100
AcDbEntity
8
SK2
62
256
6
ByLayer
370
13
48
1
60
0
100
AcDbLine
10
82.4067
20
-8.7125
30
0
11
82.4067
21
-28.343428
31
0
39
0
210
0
220
0
230
1
0
LINE
5
FA
100
AcDbEntity
8
SK2
62
256
6
ByLayer
370
13
48
1
60
0
100
AcDbLine
10
-48
20
-26.343428
30
0
11
82.4067
21
-26.343428
31
0
39
0
210
0
220
0
230
1
0
SOLID
5
FB
100
AcDbEntity
8
SK2
62
256
6
ByLayer
370
13
48
1
60
0
100
AcDbTrace
10
-48
20
-26.343428
30
0
11
-44.500002
21
-25.882645
31
0
12
-44.499998
22
-26.804212
32
0
13
-48
23
-26.343428
33
0
39
0
210
0
220
0
230
1
0
SOLID
5
FC
100
AcDbEntity
8
SK2
62
256
6
ByLayer
370
13
48
1
60
0
100
AcDbTrace
10
82.4067
20
-26.343428
30
0
11
78.906702
21
-26.804212
31
0
12
78.906698
22
-25.882645
32
0
13
82.4067
23
-26.343428
33
0
39
0
210
0
220
0
230
1
0
ENDBLK
5
FE
100
AcDbEntity
8
0
100
AcDbBlockEnd
0
BLOCK
5
108
100
AcDbEntity
8
0
100
AcDbBlockBegin
2
DimnDraft3D6
70
0
10
0
20
0
30
0
3
DimnDraft3D6
0
MTEXT
5
101
100
AcDbEntity
8
SK2
62
256
6
ByLayer
370
13
48
1
60
0
100
AcDbMText
10
-58.375163
20
27.34918
30
0
210
0
220
0
230
1
1
\W0.6930;16,000
40
3.5
41
0
44
1.084337
50
90
71
7
72
5
7
iso_b_vert
0
MTEXT
5
102
100
AcDbEntity
8
SK2
62
256
6
ByLayer
370
13
48
1
60
0
100
AcDbMText
10
-58.375163
20
22.126524
30
0
210
0
220
0
230
1
1
%%c
40
3.5
41
0
44
1.084337
50
90
71
7
72
5
7
iso_b_vert
0
LINE
5
103
100
AcDbEntity
8
SK2
62
256
6
ByLayer
370
13
48
1
60
0
100
AcDbLine
10
-49.5875
20
-8
30
0
11
-58.625163
21
-8
31
0
39
0
210
0
220
0
230
1
0
LINE
5
104
100
AcDbEntity
8
SK2
62
256
6
ByLayer
370
13
48
1
60
0
100
AcDbLine
10
-49.5875
20
8
30
0
11
-58.625163
21
8
31
0
39
0
210
0
220
0
230
1
0
LINE
5
105
100
AcDbEntity
8
SK2
62
256
6
ByLayer
370
13
48
1
60
0
100
AcDbLine
10
-56.625163
20
-8
30
0
11
-56.625163
21
38.862338
31
0
39
0
210
0
220
0
230
1
0
SOLID
5
106
100
AcDbEntity
8
SK2
62
256
6
ByLayer
370
13
48
1
60
0
100
AcDbTrace
10
-56.625163
20
-8
30
0
11
-57.085946
21
-4.500002
31
0
12
-56.164379
22
-4.499998
32
0
13
-56.625163
23
-8
33
0
39
0
210
0
220
0
230
1
0
SOLID
5
107
100
AcDbEntity
8
SK2
62
256
6
ByLayer
370
13
48
1
60
0
100
AcDbTrace
10
-56.625163
20
8
30
0
11
-56.164379
21
4.500002
31
0
12
-57.085946
22
4.499998
32
0
13
-56.625163
23
8
33
0
39
0
210
0
220
0
230
1
0
ENDBLK
5
109
100
AcDbEntity
8
0
100
AcDbBlockEnd
0
BLOCK
5
113
100
AcDbEntity
8
0
100
AcDbBlockBegin
2
DimnDraft3D7
70
0
10
0
20
0
30
0
3
DimnDraft3D7
0
MTEXT
5
10C
100
AcDbEntity
8
2
62
256
6
ByLayer
370
13
48
1
60
0
100
AcDbMText
10
95.333343
20
25.067266
30
0
210
0
220
0
230
1
1
\W0.7145;14,250
40
3.5
41
0
44
1.084337
50
90
71
7
72
5
7
iso_b_vert
0
MTEXT
5
10D
100
AcDbEntity
8
2
62
256
6
ByLayer
370
13
48
1
60
0
100
AcDbMText
10
95.333343
20
19.84461
30
0
210
0
220
0
230
1
1
%%c
40
3.5
41
0
44
1.084337
50
90
71
7
72
5
7
iso_b_vert
0
LINE
5
10E
100
AcDbEntity
8
2
62
256
6
ByLayer
370
13
48
1
60
0
100
AcDbLine
10
83.9942
20
-7.125
30
0
11
99.083343
21
-7.125
31
0
39
0
210
0
220
0
230
1
0
LINE
5
10F
100
AcDbEntity
8
2
62
256
6
ByLayer
370
13
48
1
60
0
100
AcDbLine
10
83.9942
20
7.125
30
0
11
99.083343
21
7.125
31
0
39
0
210
0
220
0
230
1
0
LINE
5
110
100
AcDbEntity
8
2
62
256
6
ByLayer
370
13
48
1
60
0
100
AcDbLine
10
97.083343
20
-7.125
30
0
11
97.083343
21
36.948845
31
0
39
0
210
0
220
0
230
1
0
SOLID
5
111
100
AcDbEntity
8
2
62
256
6
ByLayer
370
13
48
1
60
0
100
AcDbTrace
10
97.083343
20
-7.125
30
0
11
96.622559
21
-3.625002
31
0
12
97.544126
22
-3.624998
32
0
13
97.083343
23
-7.125
33
0
39
0
210
0
220
0
230
1
0
SOLID
5
112
100
AcDbEntity
8
2
62
256
6
ByLayer
370
13
48
1
60
0
100
AcDbTrace
10
97.083343
20
7.125
30
0
11
97.544126
21
3.625002
31
0
12
96.622559
22
3.624998
32
0
13
97.083343
23
7.125
33
0
39
0
210
0
220
0
230
1
0
ENDBLK
5
114
100
AcDbEntity
8
0
100
AcDbBlockEnd
0
ENDSEC
0
SECTION
2
ENTITIES
0
ARC
5
90
100
AcDbEntity
8
1
62
256
6
ByLayer
370
18
48
1
60
0
100
AcDbCircle
39
0
10
-0.35
20
7.423419
30
0
40
0.350000000000009
210
0
220
0
230
-1
100
AcDbArc
50
269.96419
51
0
0
ARC
5
91
100
AcDbEntity
8
1
62
256
6
ByLayer
370
18
48
1
60
0
100
AcDbCircle
39
0
10
-0.35
20
-7.423419
30
0
40
0.350000000000009
210
0
220
0
230
-1
100
AcDbArc
50
0
51
90.03581
0
ELLIPSE
5
92
100
AcDbEntity
8
1
62
256
6
ByLayer
370
18
48
1
60
0
100
AcDbEllipse
10
4.25
20
6.97007
30
0
11
0.25
21
0
31
0
210
0
220
0
230
1
40
0.999993
41
-3.10965046621532
42
-1.55523104898181
0
ELLIPSE
5
93
100
AcDbEntity
8
1
62
256
6
ByLayer
370
18
48
1
60
0
100
AcDbEllipse
10
4.25
20
-6.97007
30
0
11
0.25
21
0
31
0
210
0
220
0
230
1
40
0.999993
41
1.58149661680106
42
3.10965046621531
0
POINT
5
6C
100
AcDbEntity
8
81
62
256
6
ByLayer
370
18
48
1
60
0
100
AcDbPoint
10
85
20
0
30
0
39
0
210
0
220
0
230
1
50
360
0
POINT
5
6E
100
AcDbEntity
8
80
62
256
6
ByLayer
370
18
48
1
60
0
100
AcDbPoint
10
0
20
0
30
0
39
0
210
0
220
0
230
1
50
360
0
POINT
5
70
100
AcDbEntity
8
SK2
62
256
6
ByLayer
370
18
48
1
60
1
100
AcDbPoint
10
-48
20
-8
30
0
39
0
210
0
220
0
230
1
50
360
0
POINT
5
72
100
AcDbEntity
8
SK2
62
256
6
ByLayer
370
18
48
1
60
1
100
AcDbPoint
10
-48
20
8
30
0
39
0
210
0
220
0
230
1
50
360
0
POINT
5
73
100
AcDbEntity
8
2
62
256
6
ByLayer
370
18
48
1
60
1
100
AcDbPoint
10
82.4067
20
-7.125
30
0
39
0
210
0
220
0
230
1
50
360
0
POINT
5
75
100
AcDbEntity
8
2
62
256
6
ByLayer
370
18
48
1
60
1
100
AcDbPoint
10
82.4067
20
7.125
30
0
39
0
210
0
220
0
230
1
50
360
0
SPLINE
5
94
100
AcDbEntity
8
1
62
256
6
ByLayer
370
18
48
1
60
0
100
AcDbSpline
70
4
71
2
72
6
73
3
40
0
40
0
40
0
40
1
40
1
40
1
41
1
10
60.0104436040306
20
0.0003404683523343
30
0
41
1
10
60.0104546763219
20
0.0003459456689825
30
0
41
1
10
60.0104657486049
20
0.000351206535413
30
0
0
SPLINE
5
95
100
AcDbEntity
8
1
62
256
6
ByLayer
370
18
48
1
60
0
100
AcDbSpline
70
4
71
3
72
34
73
30
40
0
40
0
40
0
40
0
40
0.0326508003472123
40
0.0647500500899728
40
0.0941800791180426
40
0.122330324528002
40
0.149429718688742
40
0.175145444992301
40
0.21139581512959
40
0.247851153960074
40
0.287088221361517
40
0.315095479445796
40
0.347522917405209
40
0.383927719002366
40
0.414742255503392
40
0.436473780221286
40
0.481115640093627
40
0.533379924264959
40
0.582939135485879
40
0.638997259317138
40
0.700581270964157
40
0.75696122581817
40
0.804535528418338
40
0.869485241733605
40
0.906008723493239
40
0.935071827334658
40
0.961889136062095
40
0.989255751474729
40
1
40
1
40
1
40
1
41
1
10
38.4220460534702
20
-6.740599155328
30
0
41
1
10
38.6401554612124
20
-6.7398944346391
30
0
41
1
10
39.0764561691206
20
-6.73914006565442
30
0
41
1
10
39.7383779714347
20
-6.73763748383425
30
0
41
1
10
40.3484714779622
20
-6.74201140536329
30
0
41
1
10
40.9314852266715
20
-6.74258956186571
30
0
41
1
10
41.4938384515416
20
-6.74275794618518
30
0
41
1
10
42.1127382551425
20
-6.74317660292229
30
0
41
1
10
42.7965393256785
20
-6.74394191896673
30
0
41
1
10
43.5743485760124
20
-6.74417173657224
30
0
41
1
10
44.2948533486904
20
-6.74438177960042
30
0
41
1
10
44.9873840820027
20
-6.74542219638033
30
0
41
1
10
45.6602410738075
20
-6.74577920344231
30
0
41
1
10
46.3525945774628
20
-6.74540320833256
30
0
41
1
10
46.9706026699295
20
-6.74611822635239
30
0
41
1
10
47.6457821834787
20
-6.74682115442431
30
0
41
1
10
48.4701476011437
20
-6.74655039967161
30
0
41
1
10
49.4877485851657
20
-6.74762347888912
30
0
41
1
10
50.5847435517729
20
-6.74821544416363
30
0
41
1
10
51.7464802318811
20
-6.74833225022738
30
0
41
1
10
52.9556061196178
20
-6.74969467514865
30
0
41
1
10
54.1057923234888
20
-6.74946550316054
30
0
41
1
10
55.2793571085635
20
-6.75136204034325
30
0
41
1
10
56.3149757351206
20
-6.75034611442129
30
0
41
1
10
57.2219021192686
20
-6.75254865742491
30
0
41
1
10
57.8640712073017
20
-6.75215374252303
30
0
41
1
10
58.4419115781616
20
-6.75171099994466
30
0
41
1
10
58.8903161722577
20
-6.75208160256818
30
0
41
1
10
59.1507568916804
20
-6.75145024598078
30
0
41
1
10
59.2240216667954
20
-6.75124280164877
30
0
0
SPLINE
5
96
100
AcDbEntity
8
1
62
256
6
ByLayer
370
18
48
1
60
0
100
AcDbSpline
70
4
71
3
72
32
73
28
40
0
40
0
40
0
40
0
40
0.0050370414413473
40
0.0301069056290275
40
0.0547759632918919
40
0.0790989858709372
40
0.107126591197953
40
0.140952582030083
40
0.180844927969061
40
0.225364184306711
40
0.263242158971323
40
0.317388149254596
40
0.387022869300172
40
0.459185326501451
40
0.524313093404837
40
0.582544829577262
40
0.617725545268404
40
0.6528184013878
40
0.684115778714239
40
0.711163296945857
40
0.743751213710862
40
0.789363684306558
40
0.858997145439975
40
0.913440748041113
40
0.960525914314353
40
0.990446288572765
40
1
40
1
40
1
40
1
41
1
10
59.2196704956937
20
6.75133679227517
30
0
41
1
10
59.1922017962764
20
6.75144418052025
30
0
41
1
10
59.0278406218625
20
6.75202840927076
30
0
41
1
10
58.7258099160791
20
6.7516753570836
30
0
41
1
10
58.3159563014892
20
6.75191477024046
30
0
41
1
10
57.8878024834479
20
6.75212123759681
30
0
41
1
10
57.4083603202522
20
6.75236975817521
30
0
41
1
10
56.8423856630821
20
6.75200897540969
30
0
41
1
10
56.1846331541776
20
6.7502710363851
30
0
41
1
10
55.5043599833281
20
6.75076641565846
30
0
41
1
10
54.7447891872451
20
6.7510124497999
30
0
41
1
10
53.8454999950409
20
6.74873088177688
30
0
41
1
10
52.7554882667199
20
6.75010952448554
30
0
41
1
10
51.6043930629397
20
6.7478845242336
30
0
41
1
10
50.5167239814232
20
6.74826197861603
30
0
41
1
10
49.6347829304854
20
6.74787611445868
30
0
41
1
10
48.9199332985815
20
6.74659807788115
30
0
41
1
10
48.3549333640715
20
6.74681772064784
30
0
41
1
10
47.8351381705675
20
6.74676849966747
30
0
41
1
10
47.3293089113707
20
6.74655357602595
30
0
41
1
10
46.7439040910132
20
6.74572359749962
30
0
41
1
10
45.9215418756215
20
6.74559056374844
30
0
41
1
10
44.9775664541143
20
6.74554680476058
30
0
41
1
10
44.02542731662
20
6.7441063523633
30
0
41
1
10
43.2941867235429
20
6.74416548615883
30
0
41
1
10
42.8126719188248
20
6.74386405726179
30
0
41
1
10
42.5930855347429
20
6.74367083643318
30
0
41
1
10
42.5399403256855
20
6.74362233947605
30
0
0
SPLINE
5
97
100
AcDbEntity
8
1
62
256
6
ByLayer
370
18
48
1
60
0
100
AcDbSpline
70
4
71
2
72
6
73
3
40
0
40
0
40
0
40
1
40
1
40
1
41
1
10
81.9881320394245
20
-6.7682462433994
30
0
41
1
10
82.2911500305348
20
-6.76802944839073
30
0
41
1
10
82.5919338298082
20
-6.76756889176446
30
0
0
SPLINE
5
98
100
AcDbEntity
8
1
62
256
6
ByLayer
370
18
48
1
60
0
100
AcDbSpline
70
4
71
3
72
27
73
23
40
0
40
0
40
0
40
0
40
0.0623577972242986
40
0.132718610587094
40
0.189019755445753
40
0.245382161971834
40
0.289631750338922
40
0.328340245634439
40
0.379485279075654
40
0.443997428320004
40
0.512218865232334
40
0.576287789817986
40
0.621430028305375
40
0.663778293464278
40
0.702576074749521
40
0.739207803492931
40
0.785307242564224
40
0.836404365783524
40
0.871649606906303
40
0.909708746442111
40
0.9586004533192
40
1
40
1
40
1
40
1
41
1
10
4.25056257564449
20
-6.71997480058832
30
0
41
1
10
4.48489324374987
20
-6.72058612030207
30
0
41
1
10
4.98362948796819
20
-6.7216593506073
30
0
41
1
10
5.69394108557782
20
-6.72225585641905
30
0
41
1
10
6.38172221886472
20
-6.72261575473235
30
0
41
1
10
6.97137388062381
20
-6.72295915047494
30
0
41
1
10
7.49492321575713
20
-6.72326680730919
30
0
41
1
10
7.99884845620937
20
-6.72333528680002
30
0
41
1
10
8.57894278908825
20
-6.72348642006872
30
0
41
1
10
9.26990785135834
20
-6.72546238579963
30
0
41
1
10
10.0094640018948
20
-6.72571676728128
30
0
41
1
10
10.6762356850442
20
-6.72572963571002
30
0
41
1
10
11.2457525543222
20
-6.7264126052691
30
0
41
1
10
11.7202931922292
20
-6.72694611429606
30
0
41
1
10
12.1628757748064
20
-6.72680362528712
30
0
41
1
10
12.6195705060726
20
-6.72655871992293
30
0
41
1
10
13.1224544923445
20
-6.72667335551378
30
0
41
1
10
13.620248707578
20
-6.7273227242938
30
0
41
1
10
14.0874628997754
20
-6.72778848460919
30
0
41
1
10
14.5471836240605
20
-6.72804052121535
30
0
41
1
10
15.0257793623815
20
-6.72775645748513
30
0
41
1
10
15.3649283702155
20
-6.72785547084837
30
0
41
1
10
15.5205378936081
20
-6.7279120209588
30
0
0
SPLINE
5
99
100
AcDbEntity
8
1
62
256
6
ByLayer
370
18
48
1
60
0
100
AcDbSpline
70
4
71
3
72
25
73
21
40
0
40
0
40
0
40
0
40
0.0235809943147815
40
0.071716526956492
40
0.110408762543235
40
0.142005958249899
40
0.185855201823543
40
0.254038585329163
40
0.305251752915836
40
0.360860385594844
40
0.422432865555327
40
0.497749719843517
40
0.578040282255901
40
0.646985922475346
40
0.697588781980829
40
0.745844706858966
40
0.810560477584818
40
0.866986636611885
40
0.937503683006851
40
1
40
1
40
1
40
1
41
1
10
15.495250182443
20
6.72788786762581
30
0
41
1
10
15.4067334548895
20
6.72781151155684
30
0
41
1
10
15.1377723428695
20
6.72762832411487
30
0
41
1
10
14.7273666567477
20
6.72807344583035
30
0
41
1
10
14.2837601524828
20
6.72788634081087
30
0
41
1
10
13.8557333360274
20
6.72760685160273
30
0
41
1
10
13.317243760898
20
6.72689463557694
30
0
41
1
10
12.705124774642
20
6.72644479427819
30
0
41
1
10
12.0489383049371
20
6.72692642989711
30
0
41
1
10
11.4175642657515
20
6.72676242350303
30
0
41
1
10
10.6958298335338
20
6.72562779612531
30
0
41
1
10
9.88149054788727
20
6.72582859334199
30
0
41
1
10
9.03953736512548
20
6.72491803905169
30
0
41
1
10
8.29024490110251
20
6.72315169377123
30
0
41
1
10
7.66105305787391
20
6.72337779093547
30
0
41
1
10
7.0477360887229
20
6.72299775852241
30
0
41
1
10
6.41257277521197
20
6.72263363356893
30
0
41
1
10
5.69394156425793
20
6.72225529079674
30
0
41
1
10
4.98362914239107
20
6.72165950580037
30
0
41
1
10
4.4848928157391
20
6.7205861195709
30
0
41
1
10
4.25056193362965
20
6.71997479924096
30
0
0
SPLINE
5
9A
100
AcDbEntity
8
1
62
256
6
ByLayer
370
18
48
1
60
0
100
AcDbSpline
70
4
71
3
72
66
73
62
40
0
40
0
40
0
40
0
40
0.0312499999999976
40
0.0312499999999976
40
0.0624999999999953
40
0.0624999999999953
40
0.0937499999999929
40
0.0937499999999929
40
0.12499999999999
40
0.12499999999999
40
0.14062499999999
40
0.14062499999999
40
0.156249999999989
40
0.156249999999989
40
0.171874999999988
40
0.171874999999988
40
0.179687499999987
40
0.179687499999987
40
0.187499999999987
40
0.187499999999987
40
0.218749999999985
40
0.218749999999985
40
0.249999999999983
40
0.249999999999983
40
0.265624999999982
40
0.265624999999982
40
0.281249999999982
40
0.281249999999982
40
0.312499999999981
40
0.312499999999981
40
0.32812499999998
40
0.32812499999998
40
0.33593749999998
40
0.33593749999998
40
0.33984374999998
40
0.33984374999998
40
0.341796874999979
40
0.341796874999979
40
0.343749999999979
40
0.343749999999979
40
0.34765624999998
40
0.34765624999998
40
0.35156249999998
40
0.35156249999998
40
0.35937499999998
40
0.35937499999998
40
0.37499999999998
40
0.37499999999998
40
0.437499999999982
40
0.437499999999982
40
0.499999999999985
40
0.499999999999985
40
0.624999999999988
40
0.624999999999988
40
0.749999999999992
40
0.749999999999992
40
0.812499999999994
40
0.812499999999994
40
0.874999999999996
40
0.874999999999996
40
1
40
1
40
1
40
1
41
1
10
4.00000005412926
20
-4.10702125212816
30
0
41
1
10
3.83561977353492
20
-3.99447121268304
30
0
41
1
10
3.67437056127707
20
-3.87630402663481
30
0
41
1
10
3.36014311981177
20
-3.62558323793269
30
0
41
1
10
3.20813115816759
20
-3.49379038163366
30
0
41
1
10
2.91896789549511
20
-3.2148041004283
30
0
41
1
10
2.7815684115796
20
-3.0675175220546
30
0
41
1
10
2.52697062395467
20
-2.75145100468407
30
0
41
1
10
2.40925578016686
20
-2.58159401211682
30
0
41
1
10
2.26057866205249
20
-2.31230340598884
30
0
41
1
10
2.21547913492023
20
-2.21988492759445
30
0
41
1
10
2.13603216456914
20
-2.02870483435282
30
0
41
1
10
2.10152012413798
20
-1.92922484384746
30
0
41
1
10
2.0469248929769
20
-1.72737836194216
30
0
41
1
10
2.02667244621853
20
-1.62487180963933
30
0
41
1
10
2.00805768425559
20
-1.46850442596994
30
0
41
1
10
2.00381656953209
20
-1.41594676068971
30
0
41
1
10
1.9995006044897
20
-1.30991446891994
30
0
41
1
10
1.99944452779522
20
-1.25617648348768
30
0
41
1
10
2.01000139139654
20
-0.989270105596916
30
0
41
1
10
2.05250482528311
20
-0.780738896841171
30
0
41
1
10
2.2008720622012
20
-0.373205688366028
30
0
41
1
10
2.30291911375531
20
-0.184062857294521
30
0
41
1
10
2.48562227316049
20
0.0821226037380995
30
0
41
1
10
2.5519517276168
20
0.168412718629128
30
0
41
1
10
2.69109965458162
20
0.333249472185457
30
0
41
1
10
2.76396528676327
20
0.411961223553874
30
0
41
1
10
2.99074019352221
20
0.638907430509647
30
0
41
1
10
3.15273792844243
20
0.778054424284164
30
0
41
1
10
3.4077317989979
20
0.973358260543534
30
0
41
1
10
3.49485474794687
20
1.03625758388631
30
0
41
1
10
3.62788168915719
20
1.12736217097989
30
0
41
1
10
3.67258504391557
20
1.15716989387184
30
0
41
1
10
3.74014746147671
20
1.20109553084899
30
0
41
1
10
3.76275148922241
20
1.21560843466568
30
0
41
1
10
3.79658889475957
20
1.23746677759218
30
0
41
1
10
3.80797269551897
20
1.24452643230134
30
0
41
1
10
3.83160760631807
20
1.25651479323989
30
0
41
1
10
3.84383548572623
20
1.26151395865651
30
0
41
1
10
3.88141293699152
20
1.274346313742
30
0
41
1
10
3.90792360940131
20
1.28007399822138
30
0
41
1
10
3.96094310303312
20
1.28700968397405
30
0
41
1
10
3.98755904328178
20
1.28773409452657
30
0
41
1
10
4.06740490486959
20
1.28995828891212
30
0
41
1
10
4.12062960503587
20
1.29159271613426
30
0
41
1
10
4.28034024351354
20
1.29555211400211
30
0
41
1
10
4.38685279607114
20
1.29752854441111
30
0
41
1
10
4.91936277662751
20
1.30412194277181
30
0
41
1
10
5.34513531407345
20
1.29888784664334
30
0
41
1
10
6.1962244621748
20
1.26804109819798
30
0
41
1
10
6.62191213075397
20
1.24236898470764
30
0
41
1
10
7.89150484075864
20
1.13601688082065
30
0
41
1
10
8.72995816821646
20
1.02581902675675
30
0
41
1
10
10.3922739460129
20
0.732467610508365
30
0
41
1
10
11.2160755975262
20
0.54900655559419
30
0
41
1
10
12.4420361364002
20
0.224206528923048
30
0
41
1
10
12.8490689025095
20
0.107684004332867
30
0
41
1
10
13.6602001940599
20
-0.140503738485876
30
0
41
1
10
14.0646984146196
20
-0.272322650787572
30
0
41
1
10
15.2710828781926
20
-0.686844339424169
30
0
41
1
10
16.0652613209211
20
-0.988347886094886
30
0
41
1
10
16.8523301218966
20
-1.30612194543045
30
0
0
SPLINE
5
9B
100
AcDbEntity
8
1
62
256
6
ByLayer
370
18
48
1
60
0
100
AcDbSpline
70
4
71
3
72
8
73
4
40
0
40
0
40
0
40
0
40
1
40
1
40
1
40
1
41
1
10
84.9960023243734
20
-0.212565853936269
30
0
41
1
10
84.9961208251091
20
-0.177933439969223
30
0
41
1
10
84.9958710943351
20
-0.143303973830342
30
0
41
1
10
84.9952375220548
20
-0.108677580483345
30
0
0
SPLINE
5
9C
100
AcDbEntity
8
1
62
256
6
ByLayer
370
18
48
1
60
0
100
AcDbSpline
70
4
71
3
72
12
73
8
40
0
40
0
40
0
40
0
40
0.5
40
0.5
40
0.75
40
0.75
40
1
40
1
40
1
40
1
41
1
10
84.6637888729445
20
1.6063329177538
30
0
41
1
10
84.7598231234376
20
1.37753685256155
30
0
41
1
10
84.8342559024745
20
1.14681876296837
30
0
41
1
10
84.9162472663408
20
0.798102779442445
30
0
41
1
10
84.9386473999647
20
0.681425435315276
30
0
41
1
10
84.9741608815169
20
0.447244440910964
30
0
41
1
10
84.987267590983
20
0.329605740697701
30
0
41
1
10
84.9960023243803
20
0.212565853843756
30
0
0
SPLINE
5
9D
100
AcDbEntity
8
1
62
256
6
ByLayer
370
18
48
1
60
0
100
AcDbSpline
70
4
71
3
72
8
73
4
40
0
40
0
40
0
40
0
40
1
40
1
40
1
40
1
41
1
10
84.72821768009
20
1.85980764822605
30
0
41
1
10
84.7078579462017
20
1.77494114628462
30
0
41
1
10
84.6863558017458
20
1.69045534651619
30
0
41
1
10
84.6637888729445
20
1.6063329177538
30
0
0
SPLINE
5
9E
100
AcDbEntity
8
1
62
256
6
ByLayer
370
18
48
1
60
0
100
AcDbSpline
70
4
71
3
72
8
73
4
40
0
40
0
40
0
40
0
40
1
40
1
40
1
40
1
41
1
10
84.9998422248772
20
-0.0421924460350169
30
0
41
1
10
85.0000525369642
20
-0.0140694765831597
30
0
41
1
10
85.0000526380464
20
0.0140559598338541
30
0
41
1
10
84.9998422248774
20
0.0421924460075047
30
0
0
SPLINE
5
9F
100
AcDbEntity
8
1
62
256
6
ByLayer
370
18
48
1
60
0
100
AcDbSpline
70
4
71
3
72
16
73
12
40
0
40
0
40
0
40
0
40
0.249999999999988
40
0.249999999999988
40
0.499999999999975
40
0.499999999999975
40
0.624999999999981
40
0.624999999999981
40
0.749999999999988
40
0.749999999999988
40
1
40
1
40
1
40
1
41
1
10
4.00000005413116
20
-3.95648741275662
30
0
41
1
10
4.00000005413102
20
-3.91821087464524
30
0
41
1
10
4.00384780793269
20
-3.88086288279266
30
0
41
1
10
4.0235997340481
20
-3.80915750178678
30
0
41
1
10
4.03988539684804
20
-3.77492491837973
30
0
41
1
10
4.07735801835338
20
-3.7393419506889
30
0
41
1
10
4.09202450665444
20
-3.73035582256421
30
0
41
1
10
4.12363221145583
20
-3.72040653858349
30
0
41
1
10
4.14057620093271
20
-3.71940069851951
30
0
41
1
10
4.19088689544415
20
-3.72648417364781
30
0
41
1
10
4.22236146331801
20
-3.74336572747137
30
0
41
1
10
4.25110552095171
20
-3.76505659523471
30
0
0
SPLINE
5
A0
100
AcDbEntity
8
1
62
256
6
ByLayer
370
18
48
1
60
0
100
AcDbSpline
70
4
71
3
72
8
73
4
40
0
40
0
40
0
40
0
40
1
40
1
40
1
40
1
41
1
10
82.6935725112157
20
-6.85335890544809
30
0
41
1
10
82.6600296036551
20
-6.93994710262183
30
0
41
1
10
82.6263876795006
20
-7.02640325910141
30
0
41
1
10
82.5926449526611
20
-7.11272622520596
30
0
0
SPLINE
5
A1
100
AcDbEntity
8
1
62
256
6
ByLayer
370
13
48
1
60
0
100
AcDbSpline
70
4
71
3
72
23
73
19
40
0
40
0
40
0
40
0
40
0.158807665212945
40
0.158807665212945
40
0.263956707061327
40
0.263956707061327
40
0.369105748909708
40
0.369105748909708
40
0.421680269833899
40
0.421680269833899
40
0.47425479075809
40
0.47425479075809
40
0.579403832606472
40
0.684552874454854
40
0.684552874454854
40
0.789701916303236
40
0.789701916303236
40
1
40
1
40
1
40
1
41
1
10
4.25060915891609
20
-6.7201157024856
30
0
41
1
10
4.25062939967842
20
-6.72155392750881
30
0
41
1
10
4.25065014816781
20
-6.69593539661417
30
0
41
1
10
4.25068729032884
20
-6.60895455513361
30
0
41
1
10
4.25070280031798
20
-6.56237741803903
30
0
41
1
10
4.2507354415705
20
-6.44521141204365
30
0
41
1
10
4.25075244079301
20
-6.37514027053902
30
0
41
1
10
4.2507790506952
20
-6.25284862845376
30
0
41
1
10
4.25078812102242
20
-6.20912577791111
30
0
41
1
10
4.2508064860063
20
-6.11661152006968
30
0
41
1
10
4.25081579195162
20
-6.06777532131258
30
0
41
1
10
4.25084404393635
20
-5.91367115971298
30
0
41
1
10
4.2508826147249
20
-5.68798312145933
30
0
41
1
10
4.25092233697242
20
-5.4223800080002
30
0
41
1
10
4.2509621173927
20
-5.13643899727307
30
0
41
1
10
4.2509821339747
20
-4.98240647147037
30
0
41
1
10
4.25103993505718
20
-4.49898173276131
30
0
41
1
10
4.25107585439545
20
-4.14679876460769
30
0
41
1
10
4.25110552095165
20
-3.76505659563577
30
0
0
SPLINE
5
A2
100
AcDbEntity
8
1
62
256
6
ByLayer
370
18
48
1
60
0
100
AcDbSpline
70
4
71
3
72
8
73
4
40
0
40
0
40
0
40
0
40
1
40
1
40
1
40
1
41
1
10
84.9960023243738
20
0.212565853844126
30
0
41
1
10
84.9961208860212
20
0.177915637941396
30
0
41
1
10
84.9958707644655
20
0.14328594558674
30
0
41
1
10
84.9952375220548
20
0.108677580483317
30
0
0
SPLINE
5
A3
100
AcDbEntity
8
1
62
256
6
ByLayer
370
18
48
1
60
0
100
AcDbSpline
70
4
71
3
72
26
73
22
40
0
40
0
40
0
40
0
40
0.0624999999999998
40
0.0624999999999998
40
0.125
40
0.125
40
0.1875
40
0.1875
40
0.249999999999999
40
0.249999999999999
40
0.374999999999999
40
0.374999999999999
40
0.499999999999999
40
0.499999999999999
40
0.624999999999998
40
0.624999999999998
40
0.749999999999998
40
0.749999999999998
40
0.874999999999999
40
0.874999999999999
40
1
40
1
40
1
40
1
41
1
10
4.25110552071595
20
-3.7650565950575
30
0
41
1
10
4.4780575208095
20
-3.93631932650968
30
0
41
1
10
4.71255636520272
20
-4.09299917159979
30
0
41
1
10
5.19182899267912
20
-4.38544923403683
30
0
41
1
10
5.43665575137672
20
-4.52112628744368
30
0
41
1
10
5.93401676879824
20
-4.77598535739452
30
0
41
1
10
6.18657372536779
20
-4.89512908569222
30
0
41
1
10
6.69779572450693
20
-5.11969404273157
30
0
41
1
10
6.9564244663151
20
-5.22505311675812
30
0
41
1
10
7.73310374069916
20
-5.52061886558366
30
0
41
1
10
8.25436369068365
20
-5.6913417350267
30
0
41
1
10
9.30145263708391
20
-5.99383663313068
30
0
41
1
10
9.8274536041292
20
-6.12301900654646
30
0
41
1
10
10.8842348531748
20
-6.34284115121392
30
0
41
1
10
11.4149628460613
20
-6.43445557336938
30
0
41
1
10
12.4827704441351
20
-6.57895844156374
30
0
41
1
10
13.0198125437572
20
-6.63273320166414
30
0
41
1
10
14.1025230756297
20
-6.70658829626495
30
0
41
1
10
14.6486768705677
20
-6.72518952771159
30
0
41
1
10
15.745051248352
20
-6.73050718504297
30
0
41
1
10
16.2962848856154
20
-6.71777996451934
30
0
41
1
10
16.8523301218966
20
-6.69093122336955
30
0
0
SPLINE
5
A4
100
AcDbEntity
8
1
62
256
6
ByLayer
370
18
48
1
60
0
100
AcDbSpline
70
4
71
3
72
106
73
102
40
0
40
0
40
0
40
0
40
0.0091301822858599
40
0.0091301822858599
40
0.0268242861736123
40
0.0268242861736123
40
0.0445183900613646
40
0.0445183900613646
40
0.0622124939491169
40
0.0622124939491169
40
0.0799065978368693
40
0.0799065978368693
40
0.115294805612374
40
0.115294805612374
40
0.132988909500126
40
0.132988909500126
40
0.150683013387879
40
0.150683013387879
40
0.168377117275631
40
0.168377117275631
40
0.186071221163383
40
0.186071221163383
40
0.203765325051136
40
0.203765325051136
40
0.221459428938888
40
0.221459428938888
40
0.23915353282664
40
0.23915353282664
40
0.256847636714393
40
0.256847636714393
40
0.274541740602145
40
0.274541740602145
40
0.292235844489897
40
0.292235844489897
40
0.327624052265402
40
0.327624052265402
40
0.363012260040907
40
0.363012260040907
40
0.380706363928659
40
0.380706363928659
40
0.398400467816411
40
0.398400467816411
40
0.416094571704164
40
0.416094571704164
40
0.433788675591916
40
0.433788675591916
40
0.451482779479668
40
0.451482779479668
40
0.469176883367421
40
0.469176883367421
40
0.504565091142926
40
0.504565091142926
40
0.522259195030678
40
0.522259195030678
40
0.539953298918431
40
0.539953298918431
40
0.557647402806184
40
0.557647402806184
40
0.575341506693936
40
0.575341506693936
40
0.593035610581689
40
0.593035610581689
40
0.610729714469442
40
0.610729714469442
40
0.628423818357194
40
0.628423818357194
40
0.646117922244947
40
0.646117922244947
40
0.6638120261327
40
0.6638120261327
40
0.681506130020452
40
0.681506130020452
40
0.699200233908205
40
0.699200233908205
40
0.716894337795958
40
0.716894337795958
40
0.73458844168371
40
0.73458844168371
40
0.752282545571463
40
0.752282545571463
40
0.769976649459216
40
0.769976649459216
40
0.787670753346968
40
0.787670753346968
40
0.805364857234721
40
0.805364857234721
40
0.823058961122474
40
0.823058961122474
40
0.840753065010226
40
0.840753065010226
40
0.858447168897979
40
0.858447168897979
40
0.876141272785732
40
0.876141272785732
40
0.893835376673484
40
0.893835376673484
40
0.929223584448989
40
0.929223584448989
40
0.964611792224495
40
0.964611792224495
40
1
40
1
40
1
40
1
41
1
10
68.8635345017694
20
-5.09492835142476
30
0
41
1
10
68.705410655553
20
-5.1456630232594
30
0
41
1
10
68.5472879931407
20
-5.19547821523543
30
0
41
1
10
68.0827347832023
20
-5.33905564309256
30
0
41
1
10
67.7763740865203
20
-5.43029835183958
30
0
41
1
10
67.1625923780145
20
-5.60376861691211
30
0
41
1
10
66.8549843950071
20
-5.68611732284518
30
0
41
1
10
66.2404880987688
20
-5.84091123904744
30
0
41
1
10
65.9335113578617
20
-5.91343684471428
30
0
41
1
10
65.3202175982767
20
-6.05136712142937
30
0
41
1
10
65.014004624827
20
-6.11664555116056
30
0
41
1
10
64.0950054261566
20
-6.29828093710645
30
0
41
1
10
63.4819305376749
20
-6.39990752626198
30
0
41
1
10
62.5619682516293
20
-6.52604037796459
30
0
41
1
10
62.2553744587611
20
-6.56354451844391
30
0
41
1
10
61.641103374937
20
-6.62767924090249
30
0
41
1
10
61.3334492787511
20
-6.65414564455978
30
0
41
1
10
60.7191351152795
20
-6.69859888066279
30
0
41
1
10
60.4122171649482
20
-6.71636517537496
30
0
41
1
10
59.798917110023
20
-6.74185981636259
30
0
41
1
10
59.4926446203977
20
-6.74951944772999
30
0
41
1
10
58.8798942640079
20
-6.75393496405482
30
0
41
1
10
58.5733925559674
20
-6.7513103037335
30
0
41
1
10
57.960158965231
20
-6.73721719068598
30
0
41
1
10
57.6534055056025
20
-6.72544114135303
30
0
41
1
10
57.0395560047469
20
-6.69133447258611
30
0
41
1
10
56.7325123979982
20
-6.66867887929746
30
0
41
1
10
56.1176796798576
20
-6.61375695146967
30
0
41
1
10
55.8104189832583
20
-6.58210548958294
30
0
41
1
10
55.196327566229
20
-6.50922136386302
30
0
41
1
10
54.8894622242081
20
-6.46800917220747
30
0
41
1
10
54.2760705802542
20
-6.37539386419368
30
0
41
1
10
53.9695915695827
20
-6.32386043749133
30
0
41
1
10
53.0504817555271
20
-6.15727213602025
30
0
41
1
10
52.4371375629629
20
-6.02908460122666
30
0
41
1
10
51.208147717571
20
-5.7342734091371
30
0
41
1
10
50.5932501005512
20
-5.56993758745171
30
0
41
1
10
49.6725684578877
20
-5.30017338275891
30
0
41
1
10
49.3657677725059
20
-5.20611899180199
30
0
41
1
10
48.7524061697652
20
-5.01091083784593
30
0
41
1
10
48.4458944509291
20
-4.90994790257795
30
0
41
1
10
47.8331278540923
20
-4.70009630094566
30
0
41
1
10
47.5266385724952
20
-4.59160739555469
30
0
41
1
10
46.9129307697977
20
-4.36801451701709
30
0
41
1
10
46.6057483706162
20
-4.25285772858476
30
0
41
1
10
45.9910063598538
20
-4.01696324395522
30
0
41
1
10
45.6832792346782
20
-3.89588723501498
30
0
41
1
10
45.0692072109391
20
-3.64756100653639
30
0
41
1
10
44.7625011499218
20
-3.52044413941329
30
0
41
1
10
43.8422674776627
20
-3.13289558571827
30
0
41
1
10
43.2291012926598
20
-2.86660124734951
30
0
41
1
10
42.3096166881649
20
-2.45264753152264
30
0
41
1
10
42.0031059453443
20
-2.31242479932791
30
0
41
1
10
41.389303091433
20
-2.02966030869598
30
0
41
1
10
41.0821408643335
20
-1.8869237934434
30
0
41
1
10
40.4670778563569
20
-1.59844038997403
30
0
41
1
10
40.1595516380485
20
-1.45284631847852
30
0
41
1
10
39.5456488398692
20
-1.15955185474826
30
0
41
1
10
39.2391202874167
20
-1.01173967296666
30
0
41
1
10
38.6259170839055
20
-0.715850147737314
30
0
41
1
10
38.319349377393
20
-0.567548956660858
30
0
41
1
10
37.7061179363068
20
-0.270462645955917
30
0
41
1
10
37.3994356638289
20
-0.121710135407227
30
0
41
1
10
36.786176681805
20
0.176559443645715
30
0
41
1
10
36.4796643374118
20
0.326222426350398
30
0
41
1
10
35.8657492553373
20
0.624304245449508
30
0
41
1
10
35.5582113674043
20
0.77296623191225
30
0
41
1
10
34.9430015544251
20
1.06831386340321
30
0
41
1
10
34.6356994530197
20
1.21510826996007
30
0
41
1
10
34.0218232806425
20
1.50744902070625
30
0
41
1
10
33.7153527366771
20
1.65311695867877
30
0
41
1
10
33.1022174161211
20
1.940789193885
30
0
41
1
10
32.7955626593572
20
2.08267502867304
30
0
41
1
10
32.1820753781651
20
2.36311782849555
30
0
41
1
10
31.8752829139191
20
2.50187244308455
30
0
41
1
10
31.2616662263946
20
2.77638275687284
30
0
41
1
10
30.9549873575685
20
2.91247825739305
30
0
41
1
10
30.3405752810346
20
3.17904040140837
30
0
41
1
10
30.0326054770557
20
3.30937096197383
30
0
41
1
10
29.4175721327121
20
3.56557012229985
30
0
41
1
10
29.1103121302688
20
3.69127352162593
30
0
41
1
10
28.4963856014552
20
3.93738420452334
30
0
41
1
10
28.1898293315052
20
4.05788350669448
30
0
41
1
10
27.5765551711808
20
4.29119055740992
30
0
41
1
10
27.2698100607141
20
4.40457883998045
30
0
41
1
10
26.6561329433258
20
4.62549335355462
30
0
41
1
10
26.3491872047539
20
4.732836919238
30
0
41
1
10
25.7350155414887
20
4.94040249958044
30
0
41
1
10
25.4278079543987
20
5.04029015274278
30
0
41
1
10
24.8127412553476
20
5.23296406153997
30
0
41
1
10
24.5050486591834
20
5.32585578144841
30
0
41
1
10
23.8909227168091
20
5.50327515559553
30
0
41
1
10
23.5842566274348
20
5.5878988389338
30
0
41
1
10
22.9717295447088
20
5.74784000864261
30
0
41
1
10
22.6659105367418
20
5.82320215885539
30
0
41
1
10
21.7493553043955
20
6.03810060686507
30
0
41
1
10
21.1384861144846
20
6.16358503225126
30
0
41
1
10
19.9165676442152
20
6.37782077898095
30
0
41
1
10
19.3061392501612
20
6.46812672687918
30
0
41
1
10
18.081736015877
20
6.60806083057588
30
0
41
1
10
17.4678513078707
20
6.65910564237907
30
0
41
1
10
16.8523301218966
20
6.69093122336963
30
0
0
SPLINE
5
A5
100
AcDbEntity
8
1
62
256
6
ByLayer
370
18
48
1
60
0
100
AcDbSpline
70
4
71
3
72
14
73
10
40
0
40
0
40
0
40
0
40
0.25
40
0.25
40
0.5
40
0.5
40
0.75
40
0.75
40
1
40
1
40
1
40
1
41
1
10
82.702807460783
20
-6.76023085865026
30
0
41
1
10
82.7061222898868
20
-6.7595398009922
30
0
41
1
10
82.7087728221407
20
-6.76058798647074
30
0
41
1
10
82.7123572925443
20
-6.76720282810126
30
0
41
1
10
82.713232759724
20
-6.77286904890602
30
0
41
1
10
82.7121455813764
20
-6.78970689855203
30
0
41
1
10
82.7101253052682
20
-6.8008749584744
30
0
41
1
10
82.7033990379421
20
-6.8260996228862
30
0
41
1
10
82.6987315610399
20
-6.8400412518547
30
0
41
1
10
82.6935725112169
20
-6.85335890544494
30
0
0
SPLINE
5
A6
100
AcDbEntity
8
1
62
256
6
ByLayer
370
13
48
1
60
0
100
AcDbSpline
70
4
71
3
72
21
73
17
40
0
40
0
40
0
40
0
40
0.24802291998043
40
0.24802291998043
40
0.331084889994159
40
0.331084889994159
40
0.414146860007887
40
0.414146860007887
40
0.580270800035344
40
0.746394740062801
40
0.746394740062801
40
0.829456710076529
40
0.829456710076529
40
0.912518680090258
40
0.912518680090258
40
1
40
1
40
1
40
1
41
1
10
4.25031564473437
20
5.46472976785316
30
0
41
1
10
4.25035220229717
20
5.66619059280998
30
0
41
1
10
4.25038362856836
20
5.8448042282464
30
0
41
1
10
4.25042112428076
20
6.05299600962189
30
0
41
1
10
4.25043017549942
20
6.10277447325316
30
0
41
1
10
4.25044753114875
20
6.19646319795254
30
0
41
1
10
4.25045583333133
20
6.24036493902381
30
0
41
1
10
4.2504798393384
20
6.36341613338303
30
0
41
1
10
4.2505094559275
20
6.50445185654297
30
0
41
1
10
4.25053644865272
20
6.60013286307293
30
0
41
1
10
4.25055643794224
20
6.65460847894812
30
0
41
1
10
4.25056305779543
20
6.66988054036821
30
0
41
1
10
4.25057632596787
20
6.6945338273282
30
0
41
1
10
4.25058296401559
20
6.70387531588699
30
0
41
1
10
4.25059657636362
20
6.71680355229233
30
0
41
1
10
4.25060357766495
20
6.72013227573217
30
0
41
1
10
4.25061064393071
20
6.72017267426631
30
0
0
SPLINE
5
A7
100
AcDbEntity
8
1
62
256
6
ByLayer
370
18
48
1
60
0
100
AcDbSpline
70
4
71
3
72
12
73
8
40
0
40
0
40
0
40
0
40
0.250000000000001
40
0.250000000000001
40
0.500000000000003
40
0.500000000000003
40
1
40
1
40
1
40
1
41
1
10
84.9507744549172
20
-0.102403421385304
30
0
41
1
10
84.6780945455382
20
-0.541447343337865
30
0
41
1
10
84.3957578505386
20
-0.97046121867524
30
0
41
1
10
83.817574286789
20
-1.8144565906876
30
0
41
1
10
83.5216774475861
20
-2.22938618541579
30
0
41
1
10
82.6188966634508
20
-3.45850142328368
30
0
41
1
10
81.9972395877321
20
-4.25721887717316
30
0
41
1
10
81.3646392404507
20
-5.0422536616083
30
0
0
SPLINE
5
A8
100
AcDbEntity
8
1
62
256
6
ByLayer
370
18
48
1
60
0
100
AcDbSpline
70
4
71
3
72
12
73
8
40
0
40
0
40
0
40
0
40
0.250000000000001
40
0.250000000000001
40
0.500000000000002
40
0.500000000000002
40
1
40
1
40
1
40
1
41
1
10
4.13630786162017
20
5.49374005018981
30
0
41
1
10
4.1157386746265
20
5.50034940950073
30
0
41
1
10
4.09707391718723
20
5.50855186586159
30
0
41
1
10
4.06345510115659
20
5.52799512388137
30
0
41
1
10
4.04875784214835
20
5.53917272612765
30
0
41
1
10
4.0130345244408
20
5.57529954492716
30
0
41
1
10
4.00000005412997
20
5.60330652361668
30
0
41
1
10
4.00000005412997
20
5.63127433584654
30
0
0
SPLINE
5
A9
100
AcDbEntity
8
1
62
256
6
ByLayer
370
18
48
1
60
0
100
AcDbSpline
70
4
71
3
72
10
73
6
40
0
40
0
40
0
40
0
40
0.5
40
0.5
40
1
40
1
40
1
40
1
41
1
10
82.8799916449419
20
6.92641460320752
30
0
41
1
10
82.8339182023209
20
6.97609828779525
30
0
41
1
10
82.7864684381657
20
7.01690902058624
30
0
41
1
10
82.6905203600626
20
7.07902311276294
30
0
41
1
10
82.6419417874265
20
7.10052120802126
30
0
41
1
10
82.5926449526611
20
7.11272622520596
30
0
0
SPLINE
5
AA
100
AcDbEntity
8
1
62
256
6
ByLayer
370
18
48
1
60
0
100
AcDbSpline
70
4
71
3
72
10
73
6
40
0
40
0
40
0
40
0
40
0.5
40
0.5
40
1
40
1
40
1
40
1
41
1
10
84.9952375220535
20
0.108677580485733
30
0
41
1
10
84.9950609628669
20
0.0990281560523556
30
0
41
1
10
84.9954120543009
20
0.0884697701208381
30
0
41
1
10
84.9970110966444
20
0.0660068719980416
30
0
41
1
10
84.998242621428
20
0.0542998245408626
30
0
41
1
10
84.9998422248793
20
0.0421924460102048
30
0
0
SPLINE
5
AB
100
AcDbEntity
8
1
62
256
6
ByLayer
370
18
48
1
60
0
100
AcDbSpline
70
4
71
3
72
20
73
16
40
0
40
0
40
0
40
0
40
0.250000000000009
40
0.250000000000009
40
0.375000000000014
40
0.375000000000014
40
0.437500000000015
40
0.437500000000015
40
0.500000000000015
40
0.500000000000015
40
0.750000000000006
40
0.750000000000006
40
0.875000000000003
40
0.875000000000003
40
1
40
1
40
1
40
1
41
1
10
81.3646392404507
20
-5.04225366160833
30
0
41
1
10
81.4734179850708
20
-5.33770714930992
30
0
41
1
10
81.5845632366622
20
-5.59636040763829
30
0
41
1
10
81.7538112760959
20
-5.93132421831569
30
0
41
1
10
81.8106631668877
20
-6.03407526256933
30
0
41
1
10
81.8965813722305
20
-6.17452104583776
30
0
41
1
10
81.925405593909
20
-6.21916118473624
30
0
41
1
10
81.9828282213896
20
-6.30312716374073
30
0
41
1
10
82.0114176511715
20
-6.34245710585554
30
0
41
1
10
82.1537807800963
20
-6.52607544484144
30
0
41
1
10
82.2657793259773
20
-6.63162940209065
30
0
41
1
10
82.4316926230201
20
-6.727965145041
30
0
41
1
10
82.48674192807
20
-6.74969099649076
30
0
41
1
10
82.5959714683043
20
-6.77137892489384
30
0
41
1
10
82.64974233647
20
-6.77129358900109
30
0
41
1
10
82.7028074607831
20
-6.76023085865026
30
0
0
SPLINE
5
AC
100
AcDbEntity
8
1
62
256
6
ByLayer
370
18
48
1
60
0
100
AcDbSpline
70
4
71
3
72
12
73
8
40
0
40
0
40
0
40
0
40
0.249999999999999
40
0.249999999999999
40
0.499999999999998
40
0.499999999999998
40
1
40
1
40
1
40
1
41
1
10
84.7282176800934
20
-1.85980764821315
30
0
41
1
10
84.7664717886386
20
-1.71337779831714
30
0
41
1
10
84.801450192373
20
-1.56894988264054
30
0
41
1
10
84.8631677216406
20
-1.28672512139934
30
0
41
1
10
84.890032355061
20
-1.14847709826904
30
0
41
1
10
84.9579108595074
20
-0.73982822410369
30
0
41
1
10
84.9861286228826
20
-0.475540845083231
30
0
41
1
10
84.9960023243734
20
-0.212565853936269
30
0
0
SPLINE
5
AD
100
AcDbEntity
8
1
62
256
6
ByLayer
370
18
48
1
60
0
100
AcDbSpline
70
4
71
3
72
8
73
4
40
0
40
0
40
0
40
0
40
1
40
1
40
1
40
1
41
1
10
82.5088934103234
20
1.68259295841912
30
0
41
1
10
83.2271922021654
20
1.65716932557444
30
0
41
1
10
83.9456344855125
20
1.63003903977554
30
0
41
1
10
84.6637888729445
20
1.6063329177538
30
0
0
SPLINE
5
AE
100
AcDbEntity
8
1
62
256
6
ByLayer
370
18
48
1
60
0
100
AcDbSpline
70
4
71
3
72
10
73
6
40
0
40
0
40
0
40
0
40
0.5
40
0.5
40
1
40
1
40
1
40
1
41
1
10
84.9998422248751
20
0.0421924460102332
30
0
41
1
10
84.9966242561469
20
0.0188855924408529
30
0
41
1
10
84.990893716512
20
-0.0069807996259499
30
0
41
1
10
84.9738411172327
20
-0.0585238472092726
30
0
41
1
10
84.9625050288613
20
-0.0835159382447443
30
0
41
1
10
84.9507744549172
20
-0.102403421385304
30
0
0
SPLINE
5
AF
100
AcDbEntity
8
1
62
256
6
ByLayer
370
18
48
1
60
0
100
AcDbSpline
70
4
71
3
72
100
73
96
40
0
40
0
40
0
40
0
40
0.0147353776294095
40
0.0147353776294095
40
0.0337485672083244
40
0.0337485672083244
40
0.0527617567872393
40
0.0527617567872393
40
0.0717749463661542
40
0.0717749463661542
40
0.0907881359450691
40
0.0907881359450691
40
0.109801325523984
40
0.109801325523984
40
0.147827704681814
40
0.147827704681814
40
0.166840894260729
40
0.166840894260729
40
0.185854083839644
40
0.185854083839644
40
0.204867273418559
40
0.204867273418559
40
0.223880462997474
40
0.223880462997474
40
0.261906842155304
40
0.261906842155304
40
0.280920031734219
40
0.280920031734219
40
0.299933221313134
40
0.299933221313134
40
0.31894641089205
40
0.31894641089205
40
0.337959600470965
40
0.337959600470965
40
0.35697279004988
40
0.35697279004988
40
0.375985979628795
40
0.375985979628795
40
0.414012358786626
40
0.414012358786626
40
0.433025548365542
40
0.433025548365542
40
0.452038737944457
40
0.452038737944457
40
0.471051927523373
40
0.471051927523373
40
0.490065117102288
40
0.490065117102288
40
0.509078306681204
40
0.509078306681204
40
0.528091496260119
40
0.528091496260119
40
0.56611787541795
40
0.56611787541795
40
0.585131064996866
40
0.585131064996866
40
0.604144254575782
40
0.604144254575782
40
0.623157444154697
40
0.623157444154697
40
0.642170633733613
40
0.642170633733613
40
0.680197012891444
40
0.680197012891444
40
0.69921020247036
40
0.69921020247036
40
0.718223392049276
40
0.718223392049276
40
0.737236581628191
40
0.737236581628191
40
0.756249771207107
40
0.756249771207107
40
0.775262960786023
40
0.775262960786023
40
0.794276150364938
40
0.794276150364938
40
0.813289339943854
40
0.813289339943854
40
0.83230252952277
40
0.83230252952277
40
0.851315719101686
40
0.851315719101686
40
0.870328908680602
40
0.870328908680602
40
0.889342098259517
40
0.889342098259517
40
0.908355287838433
40
0.908355287838433
40
0.946381666996265
40
0.946381666996265
40
0.965394856575182
40
0.965394856575182
40
0.984408046154099
40
0.984408046154099
40
1
40
1
40
1
40
1
41
1
10
25.331050100095
20
5.07105186409186
30
0
41
1
10
25.5977158025787
20
5.16687907331681
30
0
41
1
10
25.8646571950458
20
5.26015466314209
30
0
41
1
10
26.4779226487441
20
5.46614243163773
30
0
41
1
10
26.8246129355624
20
5.57713978911508
30
0
41
1
10
27.519178419684
20
5.78927724147059
30
0
41
1
10
27.8653784778093
20
5.88990427499624
30
0
41
1
10
28.5553137670789
20
6.08055820941669
30
0
41
1
10
28.8996875306347
20
6.16984507978395
30
0
41
1
10
29.5879970062895
20
6.33595327081082
30
0
41
1
10
29.931752422582
20
6.41297455987785
30
0
41
1
10
30.6181279220765
20
6.55534371386574
30
0
41
1
10
30.9605136110203
20
6.62084735885631
30
0
41
1
10
31.9869570148519
20
6.79883280139927
30
0
41
1
10
32.6723594348145
20
6.89175155954422
30
0
41
1
10
33.6999978091167
20
6.99409740272995
30
0
41
1
10
34.0421100252885
20
7.02205862133428
30
0
41
1
10
34.7280020501178
20
7.0647215418474
30
0
41
1
10
35.0717427611634
20
7.07950462205434
30
0
41
1
10
35.7603786440383
20
7.09611105560367
30
0
41
1
10
36.1052954890946
20
7.09793337495196
30
0
41
1
10
36.7959171071716
20
7.08829054054686
30
0
41
1
10
37.1418215805434
20
7.07673158098601
30
0
41
1
10
38.1827073599248
20
7.02228104281744
30
0
41
1
10
38.8739194239424
20
6.96021571181893
30
0
41
1
10
39.9044031453856
20
6.82811986010535
30
0
41
1
10
40.2474206344015
20
6.77780081952028
30
0
41
1
10
40.9334977969138
20
6.66547168923262
30
0
41
1
10
41.2763470876565
20
6.60335451964269
30
0
41
1
10
41.961309839313
20
6.46701731045619
30
0
41
1
10
42.303244262422
20
6.39263207342051
30
0
41
1
10
42.9867871770144
20
6.23188891803906
30
0
41
1
10
43.3290053433839
20
6.14611116420122
30
0
41
1
10
44.0141142742169
20
5.96373555371528
30
0
41
1
10
44.3569517613349
20
5.86708360171988
30
0
41
1
10
45.0429043500816
20
5.66240495376374
30
0
41
1
10
45.3856519924451
20
5.55388435319318
30
0
41
1
10
46.4167511458421
20
5.21389664820467
30
0
41
1
10
47.1080943268503
20
4.96864933653904
30
0
41
1
10
48.1488031007146
20
4.56872808347435
30
0
41
1
10
48.4942696119489
20
4.43051244479275
30
0
41
1
10
49.1847555217659
20
4.14867450050971
30
0
41
1
10
49.5295322202657
20
4.00461765640304
30
0
41
1
10
50.2177194007216
20
3.70958532889264
30
0
41
1
10
50.5611699467306
20
3.55867889095722
30
0
41
1
10
51.2462780448906
20
3.24915090892245
30
0
41
1
10
51.588435236352
20
3.09139967796202
30
0
41
1
10
52.273259344285
20
2.77236020238885
30
0
41
1
10
52.6156826114512
20
2.6106416256043
30
0
41
1
10
53.3001729851666
20
2.282120722336
30
0
41
1
10
53.6421173145258
20
2.11508155698249
30
0
41
1
10
54.6676795968826
20
1.60668872127113
30
0
41
1
10
55.3539407694052
20
1.26376182183918
30
0
41
1
10
56.3853951087187
20
0.739915557059959
30
0
41
1
10
56.7291958865862
20
0.562952800454724
30
0
41
1
10
57.4189051652519
20
0.208632951619933
30
0
41
1
10
57.7649471727005
20
0.0315770171201279
30
0
41
1
10
58.4590256678739
20
-0.32312611555858
30
0
41
1
10
58.8056694957284
20
-0.500068214667692
30
0
41
1
10
59.4961252976366
20
-0.853064165298235
30
0
41
1
10
59.8399960428009
20
-1.0296588886487
30
0
41
1
10
60.8715579747225
20
-1.55159918384308
30
0
41
1
10
61.558223683911
20
-1.89129026178301
30
0
41
1
10
62.5840866316972
20
-2.39353752911069
30
0
41
1
10
62.9257080840213
20
-2.55901796237109
30
0
41
1
10
63.6099276868689
20
-2.88311235192865
30
0
41
1
10
63.9522509755704
20
-3.04225229636185
30
0
41
1
10
64.6369255844815
20
-3.35544852253247
30
0
41
1
10
64.9792061715058
20
-3.50962636941267
30
0
41
1
10
65.6637722952039
20
-3.81280697290495
30
0
41
1
10
66.0067681594709
20
-3.96058215656012
30
0
41
1
10
66.6943388223063
20
-4.24830379237446
30
0
41
1
10
67.0388040916111
20
-4.38843777247592
30
0
41
1
10
67.7288034824946
20
-4.66165103024542
30
0
41
1
10
68.0740136568979
20
-4.79522798123443
30
0
41
1
10
68.7667395295845
20
-5.05320516291519
30
0
41
1
10
69.1135267617359
20
-5.17690526295689
30
0
41
1
10
69.8046899374347
20
-5.4134998052771
30
0
41
1
10
70.1495027328883
20
-5.52658047369201
30
0
41
1
10
70.8372514940315
20
-5.74278884096668
30
0
41
1
10
71.179911216735
20
-5.84619002871173
30
0
41
1
10
71.8655174124511
20
-6.04047600877152
30
0
41
1
10
72.2082620794505
20
-6.13165865332167
30
0
41
1
10
72.8931778927388
20
-6.30276863243992
30
0
41
1
10
73.2353972642046
20
-6.38265050690137
30
0
41
1
10
73.9188138166327
20
-6.53139099632727
30
0
41
1
10
74.2602415725755
20
-6.59999900033745
30
0
41
1
10
75.2866809273365
20
-6.78639393738376
30
0
41
1
10
75.972524144999
20
-6.88607890823747
30
0
41
1
10
77.0017596328045
20
-6.99876140933918
30
0
41
1
10
77.3456519803942
20
-7.02979989305993
30
0
41
1
10
78.0355012287648
20
-7.07877602286018
30
0
41
1
10
78.3813107721452
20
-7.09677482264857
30
0
41
1
10
79.0120454438764
20
-7.11758540504871
30
0
41
1
10
79.2962318742034
20
-7.1225177567909
30
0
41
1
10
79.5800737889912
20
-7.12292608446381
30
0
0
SPLINE
5
B0
100
AcDbEntity
8
1
62
256
6
ByLayer
370
18
48
1
60
0
100
AcDbSpline
70
4
71
3
72
10
73
6
40
0
40
0
40
0
40
0
40
0.5
40
0.5
40
1
40
1
40
1
40
1
41
1
10
82.8799916449405
20
-6.92641460320905
30
0
41
1
10
82.8338625017129
20
-6.97615835301445
30
0
41
1
10
82.786380000351
20
-7.016973807353
30
0
41
1
10
82.6904998755862
20
-7.07902883066529
30
0
41
1
10
82.641939722821
20
-7.10052171918076
30
0
41
1
10
82.5926449526611
20
-7.11272622520596
30
0
0
SPLINE
5
B1
100
AcDbEntity
8
1
62
256
6
ByLayer
370
18
48
1
60
0
100
AcDbSpline
70
4
71
3
72
12
73
8
40
0
40
0
40
0
40
0
40
0.250000000000001
40
0.250000000000001
40
0.500000000000002
40
0.500000000000002
40
1
40
1
40
1
40
1
41
1
10
82.8799916449419
20
6.92641460320749
30
0
41
1
10
83.0268935593308
20
6.50379429275037
30
0
41
1
10
83.1759999619566
20
6.08089741490403
30
0
41
1
10
83.4781759079797
20
5.23482139129831
30
0
41
1
10
83.6312569918348
20
4.81163939928305
30
0
41
1
10
84.0956549032061
20
3.54182241665566
30
0
41
1
10
84.4108127152185
20
2.69889090407997
30
0
41
1
10
84.72821768009
20
1.85980764822605
30
0
0
SPLINE
5
B2
100
AcDbEntity
8
1
62
256
6
ByLayer
370
18
48
1
60
0
100
AcDbSpline
70
4
71
3
72
8
73
4
40
0
40
0
40
0
40
0
40
1
40
1
40
1
40
1
41
1
10
16.8523301218966
20
6.69093122336963
30
0
41
1
10
16.3946862646328
20
6.71302863678269
30
0
41
1
10
15.9404260764986
20
6.72555409194263
30
0
41
1
10
15.4885602537833
20
6.72781952974739
30
0
0
SPLINE
5
B3
100
AcDbEntity
8
1
62
256
6
ByLayer
370
18
48
1
60
0
100
AcDbSpline
70
4
71
3
72
18
73
14
40
0
40
0
40
0
40
0
40
0.252341840938125
40
0.252341840938125
40
0.377263443406841
40
0.377263443406841
40
0.439724244641199
40
0.439724244641199
40
0.502185045875557
40
0.502185045875557
40
0.752028250812989
40
0.752028250812989
40
1
40
1
40
1
40
1
41
1
10
16.4672050222489
20
-0.0036927836190443
30
0
41
1
10
17.288480972428
20
-0.408144924987823
30
0
41
1
10
18.1105259687422
20
-0.813031487488416
30
0
41
1
10
19.3444044494026
20
-1.41124365160795
30
0
41
1
10
19.7537565730212
20
-1.60819580533604
30
0
41
1
10
20.3694773809445
20
-1.90084282252926
30
0
41
1
10
20.5750002416923
20
-1.99792731625223
30
0
41
1
10
20.9866804519715
20
-2.19102308029162
30
0
41
1
10
21.1929396545115
20
-2.28707977148358
30
0
41
1
10
22.221727688932
20
-2.76235484758232
30
0
41
1
10
23.0400597093584
20
-3.12792154155625
30
0
41
1
10
24.666355979468
20
-3.8183723092512
30
0
41
1
10
25.4742639809185
20
-4.14364998083317
30
0
41
1
10
26.2824010007613
20
-4.44643497371175
30
0
0
SPLINE
5
B4
100
AcDbEntity
8
1
62
256
6
ByLayer
370
13
48
1
60
0
100
AcDbSpline
70
4
71
3
72
18
73
14
40
0
40
0
40
0
40
0
40
0.175843069579226
40
0.175843069579226
40
0.263110955913263
40
0.263110955913263
40
0.3503788422473
40
0.3503788422473
40
0.524914614915372
40
0.524914614915372
40
0.873986160251514
40
0.873986160251514
40
1
40
1
40
1
40
1
41
1
10
26.2824019376634
20
-4.44643532474117
30
0
41
1
10
27.1027367500313
20
-4.7537904512935
30
0
41
1
10
27.9233075474052
20
-5.03796877702052
30
0
41
1
10
29.1552419245658
20
-5.42248665658724
30
0
41
1
10
29.5644813097131
20
-5.54338064441166
30
0
41
1
10
30.3849486270017
20
-5.77085635304459
30
0
41
1
10
30.7967827026111
20
-5.87756865929745
30
0
41
1
10
32.0321746070633
20
-6.17391299980167
30
0
41
1
10
32.8508674525794
20
-6.33870460139656
30
0
41
1
10
35.2999093487853
20
-6.7310270020393
30
0
41
1
10
36.9231730061702
20
-6.85616214460086
30
0
41
1
10
39.1460890625768
20
-6.8321218214983
30
0
41
1
10
39.737036305045
20
-6.80716041636566
30
0
41
1
10
40.3302148427459
20
-6.76345389744571
30
0
0
SPLINE
5
B5
100
AcDbEntity
8
1
62
256
6
ByLayer
370
18
48
1
60
0
100
AcDbSpline
70
4
71
3
72
12
73
8
40
0
40
0
40
0
40
0
40
0.589980323897228
40
0.589980323897228
40
0.890683839038957
40
0.890683839038957
40
1
40
1
40
1
40
1
41
1
10
38.4917062188229
20
-6.74086063301914
30
0
41
1
10
36.8905506488852
20
-6.74156800961467
30
0
41
1
10
35.2983753811095
20
-6.60712657931691
30
0
41
1
10
32.8813030436303
20
-6.20983475217309
30
0
41
1
10
32.0629510287573
20
-6.0423852050555
30
0
41
1
10
30.9405914110855
20
-5.77036123953567
30
0
41
1
10
30.6413753277834
20
-5.69375611755976
30
0
41
1
10
30.342750985932
20
-5.61340606135849
30
0
0
SPLINE
5
B6
100
AcDbEntity
8
1
62
256
6
ByLayer
370
13
48
1
60
0
100
AcDbSpline
70
4
71
3
72
23
73
19
40
0
40
0
40
0
40
0
40
0.0186568546487904
40
0.0186568546487904
40
0.0870145532123717
40
0.0870145532123717
40
0.360445347466698
40
0.360445347466698
40
0.49716074459386
40
0.49716074459386
40
0.53133959387565
40
0.53133959387565
40
0.565518443157439
40
0.633876141721019
40
0.633876141721019
40
0.907306935975338
40
0.907306935975338
40
1
40
1
40
1
40
1
41
1
10
30.3427500200877
20
-5.61340580148132
30
0
41
1
10
30.2306513818273
20
-5.5832437163273
30
0
41
1
10
30.1186361275644
20
-5.55255392227326
30
0
41
1
10
29.5967334206094
20
-5.40703991958574
30
0
41
1
10
29.1877055659629
20
-5.28574335102203
30
0
41
1
10
27.1456548114328
20
-4.64690882615781
30
0
41
1
10
25.5225381461972
20
-4.03160652171456
30
0
41
1
10
23.0748831754468
20
-2.99923515337261
30
0
41
1
10
22.2568975883997
20
-2.63682387624323
30
0
41
1
10
21.2286894871386
20
-2.1663720090713
30
0
41
1
10
21.0225624511251
20
-2.07133171767958
30
0
41
1
10
20.6111491104616
20
-1.88034708662261
30
0
41
1
10
19.994956090911
20
-1.59236308045629
30
0
41
1
10
19.3812398960486
20
-1.3004984463644
30
0
41
1
10
17.3393247541822
20
-0.32261162511864
30
0
41
1
10
15.7182492275823
20
0.476304680476517
30
0
41
1
10
13.5390147409124
20
1.51492011947173
30
0
41
1
10
12.9865481647828
20
1.77519590805272
30
0
41
1
10
12.4326015979053
20
2.03124826555313
30
0
0
SPLINE
5
B7
100
AcDbEntity
8
1
62
256
6
ByLayer
370
18
48
1
60
0
100
AcDbSpline
70
4
71
3
72
8
73
4
40
0
40
0
40
0
40
0
40
1
40
1
40
1
40
1
41
1
10
84.9952375220525
20
-0.108677580487011
30
0
41
1
10
84.9948841918812
20
-0.0893671562779161
30
0
41
1
10
84.9966381800772
20
-0.06644382107973
30
0
41
1
10
84.9998422248755
20
-0.0421924460391665
30
0
0
SPLINE
5
B8
100
AcDbEntity
8
1
62
256
6
ByLayer
370
18
48
1
60
0
100
AcDbSpline
70
4
71
3
72
22
73
18
40
0
40
0
40
0
40
0
40
0.216943653142537
40
0.216943653142537
40
0.433887306285073
40
0.433887306285073
40
0.542359132856342
40
0.542359132856342
40
0.65083095942761
40
0.65083095942761
40
0.759302785998879
40
0.759302785998879
40
0.867774612570147
40
0.867774612570147
40
0.976246439141415
40
0.976246439141415
40
1
40
1
40
1
40
1
41
1
10
16.8523301218965
20
-6.69093122336955
30
0
41
1
10
17.4674937285281
20
-6.65912413105266
30
0
41
1
10
18.0817681605349
20
-6.60808198232911
30
0
41
1
10
19.3084047482363
20
-6.46784293651464
30
0
41
1
10
19.9207337664952
20
-6.37722029723875
30
0
41
1
10
20.8411216993109
20
-6.21565508925411
30
0
41
1
10
21.1481086384686
20
-6.15734447458189
30
0
41
1
10
21.7624410320779
20
-6.03106346577852
30
0
41
1
10
22.0699863944399
20
-5.9630739881982
30
0
41
1
10
22.6846379134324
20
-5.81865323298939
30
0
41
1
10
22.9917950384622
20
-5.74280036328969
30
0
41
1
10
23.6057607113777
20
-5.58206995562841
30
0
41
1
10
23.9125398005398
20
-5.49720695726128
30
0
41
1
10
24.5258196554738
20
-5.31966550227335
30
0
41
1
10
24.8323188550062
20
-5.22697158051767
30
0
41
1
10
25.2058436668204
20
-5.10978596708375
30
0
41
1
10
25.2729478992235
20
-5.08855871905232
30
0
41
1
10
25.3400573949672
20
-5.06715220504887
30
0
0
SPLINE
5
B9
100
AcDbEntity
8
1
62
256
6
ByLayer
370
18
48
1
60
0
100
AcDbSpline
70
4
71
3
72
38
73
34
40
0
40
0
40
0
40
0
40
0.053820895931272
40
0.053820895931272
40
0.109478490288256
40
0.109478490288256
40
0.165136084645241
40
0.165136084645241
40
0.220793679002225
40
0.220793679002225
40
0.27645127335921
40
0.27645127335921
40
0.332108867716194
40
0.332108867716194
40
0.387766462073179
40
0.387766462073179
40
0.443424056430164
40
0.443424056430164
40
0.499081650787148
40
0.499081650787148
40
0.554739245144133
40
0.554739245144133
40
0.666054433858102
40
0.666054433858102
40
0.721712028215086
40
0.721712028215086
40
0.777369622572069
40
0.777369622572069
40
0.888684811286035
40
0.888684811286035
40
0.944342405643018
40
0.944342405643018
40
1
40
1
40
1
40
1
41
1
10
59.220089678646
20
6.75146157749944
30
0
41
1
10
59.5170751793815
20
6.74893480268989
30
0
41
1
10
59.8136070533998
20
6.74129693145889
30
0
41
1
10
60.4167874545831
20
6.71612503505554
30
0
41
1
10
60.7233322948061
20
6.6983285928161
30
0
41
1
10
61.3362381779537
20
6.65391001984847
30
0
41
1
10
61.6426038915686
20
6.62752940357018
30
0
41
1
10
62.255030605447
20
6.5635735781388
30
0
41
1
10
62.5611105177268
20
6.52614790820576
30
0
41
1
10
63.1741191005854
20
6.44212052693444
30
0
41
1
10
63.4809328657195
20
6.39557435100983
30
0
41
1
10
64.0950949088426
20
6.29341471495312
30
0
41
1
10
64.4026324795485
20
6.23749908995367
30
0
41
1
10
65.0164488021633
20
6.11614332473798
30
0
41
1
10
65.3228702831657
20
6.05079122433582
30
0
41
1
10
65.9359331391313
20
5.91287131814923
30
0
41
1
10
66.2424866631448
20
5.84041995583442
30
0
41
1
10
66.8553235326214
20
5.6860196836964
30
0
41
1
10
67.1616118918311
20
5.60402958948723
30
0
41
1
10
67.774085313968
20
5.43096126872445
30
0
41
1
10
68.0801856187745
20
5.33982448582728
30
0
41
1
10
68.999800709151
20
5.05565989635681
30
0
41
1
10
69.6152327950862
20
4.85122122840181
30
0
41
1
10
70.5358587242562
20
4.52627120163936
30
0
41
1
10
70.8423148688987
20
4.41484402353944
30
0
41
1
10
71.4550802533748
20
4.18506581158596
30
0
41
1
10
71.7614343644352
20
4.06694816722731
30
0
41
1
10
72.6805059463186
20
3.7037231758884
30
0
41
1
10
73.2928938282543
20
3.44932940793328
30
0
41
1
10
74.2128252903225
20
3.05282932013011
30
0
41
1
10
74.5200664603809
20
2.91842171951478
30
0
41
1
10
75.134659400549
20
2.64589398409805
30
0
41
1
10
75.441467968906
20
2.50811769459992
30
0
41
1
10
75.7476836034176
20
2.36855254536502
30
0
0
SPLINE
5
BA
100
AcDbEntity
8
1
62
256
6
ByLayer
370
18
48
1
60
0
100
AcDbSpline
70
4
71
3
72
14
73
10
40
0
40
0
40
0
40
0
40
0.500563130354999
40
0.500563130354999
40
0.750844695532498
40
0.750844695532498
40
0.875985478121248
40
0.875985478121248
40
1
40
1
40
1
40
1
41
1
10
82.7028074607831
20
-6.76023085865026
30
0
41
1
10
81.0602051799043
20
-6.79968939915216
30
0
41
1
10
79.4350879926175
20
-6.69512401206961
30
0
41
1
10
76.9960537175898
20
-6.3384513341388
30
0
41
1
10
76.1826824380168
20
-6.18614558893245
30
0
41
1
10
74.9586880766863
20
-5.91010519903921
30
0
41
1
10
74.5500223011979
20
-5.81013798081247
30
0
41
1
10
73.7344172436721
20
-5.59574958224687
30
0
41
1
10
73.3269726034
20
-5.48131053151752
30
0
41
1
10
72.9194309841102
20
-5.3598498366851
30
0
0
SPLINE
5
BB
100
AcDbEntity
8
1
62
256
6
ByLayer
370
13
48
1
60
0
100
AcDbSpline
70
4
71
3
72
22
73
18
40
0
40
0
40
0
40
0
40
0.0006533474342364
40
0.0006533474342364
40
0.291013260896125
40
0.291013260896125
40
0.581373174358013
40
0.581373174358013
40
0.617668163540749
40
0.617668163540749
40
0.653963152723485
40
0.653963152723485
40
0.726553131088958
40
0.726553131088958
40
0.871733087819903
40
0.871733087819903
40
1
40
1
40
1
40
1
41
1
10
72.9194316860845
20
-5.35985004589631
30
0
41
1
10
72.9157302878551
20
-5.35874690857295
30
0
41
1
10
72.9120288816261
20
-5.35764319205225
30
0
41
1
10
71.2633496867189
20
-4.86576930269203
30
0
41
1
10
69.6387928131355
20
-4.26816549436776
30
0
41
1
10
66.3918358591715
20
-2.92707804366972
30
0
41
1
10
64.7698570163384
20
-2.18268780594241
30
0
41
1
10
62.925067173266
20
-1.30291354545372
30
0
41
1
10
62.7198157305288
20
-1.20456799858641
30
0
41
1
10
62.3086784622448
20
-1.00685448986141
30
0
41
1
10
62.1027051034069
20
-0.907443551865526
30
0
41
1
10
61.4863319494067
20
-0.609200500432394
30
0
41
1
10
61.0766422735959
20
-0.409944313209934
30
0
41
1
10
59.8504383446981
20
0.187440771319643
30
0
41
1
10
59.0366007982055
20
0.584774579576163
30
0
41
1
10
57.5062198166001
20
1.32238753880986
30
0
41
1
10
56.7893716294706
20
1.66387858317677
30
0
41
1
10
56.0719113986794
20
1.99756317342732
30
0
0
SPLINE
5
BC
100
AcDbEntity
8
1
62
256
6
ByLayer
370
18
48
1
60
0
100
AcDbSpline
70
4
71
3
72
58
73
54
40
0
40
0
40
0
40
0
40
0.0276273816966782
40
0.0276273816966782
40
0.0552547633933564
40
0.0552547633933564
40
0.110509526786714
40
0.110509526786714
40
0.138136908483394
40
0.138136908483394
40
0.165764290180074
40
0.165764290180074
40
0.221019053573433
40
0.221019053573433
40
0.248646435270113
40
0.248646435270113
40
0.276273816966792
40
0.276273816966792
40
0.331528580360152
40
0.331528580360152
40
0.359155962056832
40
0.359155962056832
40
0.386783343753512
40
0.386783343753512
40
0.442038107146872
40
0.442038107146872
40
0.469665488843552
40
0.469665488843552
40
0.497292870540231
40
0.497292870540231
40
0.552547633933592
40
0.552547633933592
40
0.580175015630272
40
0.580175015630272
40
0.607802397326952
40
0.607802397326952
40
0.663057160720311
40
0.663057160720311
40
0.690684542416991
40
0.690684542416991
40
0.71831192411367
40
0.71831192411367
40
0.77356668750703
40
0.77356668750703
40
0.828821450900389
40
0.828821450900389
40
0.884076214293748
40
0.884076214293748
40
0.939330977687107
40
0.939330977687107
40
0.994585741080467
40
0.994585741080467
40
1
40
1
40
1
40
1
41
1
10
82.5926449526611
20
-7.11272622520596
30
0
41
1
10
82.1836173459499
20
-7.12472921074209
30
0
41
1
10
81.7746359324133
20
-7.12741097379887
30
0
41
1
10
80.9561755820293
20
-7.11415415976435
30
0
41
1
10
80.5466915040382
20
-7.09819436717609
30
0
41
1
10
79.3205111359052
20
-7.02275455160262
30
0
41
1
10
78.5047569385338
20
-6.93571293241212
30
0
41
1
10
77.2798910417515
20
-6.7516929749309
30
0
41
1
10
76.8713739887829
20
-6.68145429612559
30
0
41
1
10
76.0531684263748
20
-6.52355851842188
30
0
41
1
10
75.6435968847733
20
-6.43587552921468
30
0
41
1
10
74.4174826748621
20
-6.1485616002312
30
0
41
1
10
73.6017216572872
20
-5.924415311118
30
0
41
1
10
72.3767233752065
20
-5.54341080170741
30
0
41
1
10
71.9681673638088
20
-5.4089391390178
30
0
41
1
10
71.1498293668287
20
-5.1259564184389
30
0
41
1
10
70.7402772998973
20
-4.97744788208922
30
0
41
1
10
69.5141535721609
20
-4.51394412983939
30
0
41
1
10
68.6983374457144
20
-4.18051495547962
30
0
41
1
10
67.47301787002
20
-3.65006764997867
30
0
41
1
10
67.0643302119902
20
-3.46817417383207
30
0
41
1
10
66.2458365635973
20
-3.09522002448142
30
0
41
1
10
65.8363461158156
20
-2.90426927210674
30
0
41
1
10
64.6102622914086
20
-2.32199047738249
30
0
41
1
10
63.7943586678181
20
-1.920697168929
30
0
41
1
10
62.5689398076282
20
-1.30624728491935
30
0
41
1
10
62.1602090127283
20
-1.09934021792463
30
0
41
1
10
61.3415532478782
20
-0.682631285420541
30
0
41
1
10
60.9320669933461
20
-0.473023944901144
30
0
41
1
10
59.7059176557584
20
0.155697230798523
30
0
41
1
10
58.8899590792486
20
0.575191483404296
30
0
41
1
10
57.6644173188858
20
1.19749561106622
30
0
41
1
10
57.2556467219958
20
1.40379464168188
30
0
41
1
10
56.4368394169135
20
1.81265370425879
30
0
41
1
10
56.0273732529862
20
2.01495202141851
30
0
41
1
10
54.8011400948854
20
2.61219970359247
30
0
41
1
10
53.9851345468086
20
2.99796050884498
30
0
41
1
10
52.7594329044047
20
3.55097674433364
30
0
41
1
10
52.3505884362605
20
3.73105346915412
30
0
41
1
10
51.5316248884283
20
4.08141535145361
30
0
41
1
10
51.1222171748786
20
4.25141216420988
30
0
41
1
10
49.895950217645
20
4.74334307323051
30
0
41
1
10
49.0798757968474
20
5.04757212043842
30
0
41
1
10
47.4453756543607
20
5.60122455994562
30
0
41
1
10
46.6253842265524
20
5.85093099154571
30
0
41
1
10
44.9902798508713
20
6.28524063826447
30
0
41
1
10
44.1741493819181
20
6.47031898861172
30
0
41
1
10
42.5394268784912
20
6.77178234197544
30
0
41
1
10
41.7193488845058
20
6.88819530875884
30
0
41
1
10
40.0842167661728
20
7.04731525506941
30
0
41
1
10
39.268009218513
20
7.09035473644073
30
0
41
1
10
38.3704176844647
20
7.09695834770585
30
0
41
1
10
38.2902887971223
20
7.09718997001434
30
0
41
1
10
38.2101392863578
20
7.09706454113564
30
0
0
SPLINE
5
BD
100
AcDbEntity
8
1
62
256
6
ByLayer
370
18
48
1
60
0
100
AcDbSpline
70
4
71
3
72
18
73
14
40
0
40
0
40
0
40
0
40
0.0592922010796237
40
0.0592922010796237
40
0.176470434480591
40
0.176470434480591
40
0.235059551181072
40
0.235059551181072
40
0.293648667881554
40
0.293648667881554
40
0.762361601485394
40
0.762361601485394
40
1
40
1
40
1
40
1
41
1
10
60.0300159548115
20
-0.0100605407896524
30
0
41
1
10
60.2365106782412
20
-0.112165161053383
30
0
41
1
10
60.4432074581289
20
-0.21437662188157
30
0
41
1
10
61.0591132335189
20
-0.51866755006273
30
0
41
1
10
61.4690614698411
20
-0.720743908614281
30
0
41
1
10
62.0858837738199
20
-1.0230163885754
30
0
41
1
10
62.2920049133432
20
-1.12373146251039
30
0
41
1
10
62.703335239529
20
-1.32391819833145
30
0
41
1
10
62.9086774862026
20
-1.42345554920203
30
0
41
1
10
64.754232059259
20
-2.313567091821
30
0
41
1
10
66.376516877773
20
-3.06436061376689
30
0
41
1
10
68.8238832928308
20
-4.08007756743623
30
0
41
1
10
69.6475515335191
20
-4.40233451030522
30
0
41
1
10
70.4741185269853
20
-4.70067215257151
30
0
0
SPLINE
5
BE
100
AcDbEntity
8
1
62
256
6
ByLayer
370
13
48
1
60
0
100
AcDbSpline
70
4
71
3
72
16
73
12
40
0
40
0
40
0
40
0
40
0.197753064280033
40
0.197753064280033
40
0.298033931245029
40
0.298033931245029
40
0.398314798210024
40
0.398314798210024
40
0.598876532140018
40
0.598876532140018
40
1
40
1
40
1
40
1
41
1
10
70.4741185259782
20
-4.70067215220803
30
0
41
1
10
71.2778547277384
20
-4.99076934378351
30
0
41
1
10
72.0843317596298
20
-5.25825034665647
30
0
41
1
10
73.3075080275818
20
-5.62110972239572
30
0
41
1
10
73.7187634346272
20
-5.7357999554234
30
0
41
1
10
74.5383587108616
20
-5.94910823377199
30
0
41
1
10
74.9471549843003
20
-6.04786096034826
30
0
41
1
10
76.1714859169822
20
-6.31971322271178
30
0
41
1
10
76.9850387679739
20
-6.46846943396113
30
0
41
1
10
79.4246001288364
20
-6.81258099416877
30
0
41
1
10
81.0501537636653
20
-6.9061578642324
30
0
41
1
10
82.6935725112094
20
-6.85335890544516
30
0
0
SPLINE
5
BF
100
AcDbEntity
8
1
62
256
6
ByLayer
370
18
48
1
60
0
100
AcDbSpline
70
4
71
3
72
38
73
34
40
0
40
0
40
0
40
0
40
0.107509588734181
40
0.107509588734181
40
0.161264383101272
40
0.161264383101272
40
0.215019177468363
40
0.215019177468363
40
0.268773971835454
40
0.268773971835454
40
0.322528766202546
40
0.322528766202546
40
0.430038354936728
40
0.430038354936728
40
0.48379314930382
40
0.48379314930382
40
0.537547943670912
40
0.537547943670912
40
0.591302738038004
40
0.591302738038004
40
0.645057532405096
40
0.645057532405096
40
0.698812326772188
40
0.698812326772188
40
0.75256712113928
40
0.75256712113928
40
0.860076709873464
40
0.860076709873464
40
0.913831504240556
40
0.913831504240556
40
0.967586298607648
40
0.967586298607648
40
1
40
1
40
1
40
1
41
1
10
16.8523301218965
20
-1.30612194543042
30
0
41
1
10
17.5454187195036
20
-1.65782477625172
30
0
41
1
10
18.2371133501369
20
-1.99734964615965
30
0
41
1
10
19.2699405684555
20
-2.49490994343907
30
0
41
1
10
19.6130922858923
20
-2.65939892673356
30
0
41
1
10
20.2987804912389
20
-2.98249558083822
30
0
41
1
10
20.6416821088084
20
-3.14045230498138
30
0
41
1
10
21.3272854195079
20
-3.44991362080125
30
0
41
1
10
21.6699570909981
20
-3.60147118681431
30
0
41
1
10
22.3547266514931
20
-3.89874172953259
30
0
41
1
10
22.6964771087932
20
-4.04500602678141
30
0
41
1
10
23.7238023256387
20
-4.47002123707171
30
0
41
1
10
24.4109916189013
20
-4.73602155852575
30
0
41
1
10
25.4427942993505
20
-5.11244037950007
30
0
41
1
10
25.7869225087151
20
-5.23404460839274
30
0
41
1
10
26.4779226487441
20
-5.46614243163773
30
0
41
1
10
26.8246129355624
20
-5.57713978911511
30
0
41
1
10
27.519178419684
20
-5.78927724147059
30
0
41
1
10
27.8653784778094
20
-5.8899042749963
30
0
41
1
10
28.5553137670789
20
-6.08055820941667
30
0
41
1
10
28.8996875306347
20
-6.16984507978398
30
0
41
1
10
29.5879970062895
20
-6.33595327081082
30
0
41
1
10
29.931752422582
20
-6.41297455987785
30
0
41
1
10
30.6181279220765
20
-6.55534371386574
30
0
41
1
10
30.9605136110204
20
-6.62084735885631
30
0
41
1
10
31.9869570148518
20
-6.7988328013993
30
0
41
1
10
32.6723594348145
20
-6.89175155954422
30
0
41
1
10
33.6999978091166
20
-6.99409740272995
30
0
41
1
10
34.0421100252885
20
-7.02205862133428
30
0
41
1
10
34.7280020501178
20
-7.0647215418474
30
0
41
1
10
35.0717427611634
20
-7.07950462205434
30
0
41
1
10
35.623681605428
20
-7.09281461063975
30
0
41
1
10
35.8315202690943
20
-7.09546493373736
30
0
41
1
10
36.0395317611364
20
-7.09572310608237
30
0
0
SPLINE
5
C0
100
AcDbEntity
8
1
62
256
6
ByLayer
370
18
48
1
60
0
100
AcDbSpline
70
4
71
3
72
32
73
28
40
0
40
0
40
0
40
0
40
0.0435439009629224
40
0.0435439009629224
40
0.117117447042697
40
0.117117447042697
40
0.190690993122471
40
0.190690993122471
40
0.264264539202246
40
0.264264539202246
40
0.33783808528202
40
0.33783808528202
40
0.411411631361795
40
0.411411631361795
40
0.558558723521347
40
0.558558723521347
40
0.632132269601122
40
0.632132269601122
40
0.705705815680898
40
0.705705815680898
40
0.779279361760673
40
0.779279361760673
40
0.852852907840449
40
0.852852907840449
40
0.926426453920225
40
0.926426453920225
40
1
40
1
40
1
40
1
41
1
10
68.8445904210951
20
5.07950896701215
30
0
41
1
10
69.0496267728695
20
5.15328350579668
30
0
41
1
10
69.2545787158008
20
5.22518926258061
30
0
41
1
10
69.8046899374347
20
5.41349980527713
30
0
41
1
10
70.1495027328882
20
5.52658047369204
30
0
41
1
10
70.8372514940315
20
5.74278884096665
30
0
41
1
10
71.179911216735
20
5.84619002871173
30
0
41
1
10
71.8655174124511
20
6.04047600877152
30
0
41
1
10
72.2082620794504
20
6.13165865332167
30
0
41
1
10
72.8931778927387
20
6.30276863243992
30
0
41
1
10
73.2353972642045
20
6.38265050690137
30
0
41
1
10
73.9188138166327
20
6.53139099632727
30
0
41
1
10
74.2602415725755
20
6.59999900033745
30
0
41
1
10
75.2866809273365
20
6.78639393738379
30
0
41
1
10
75.9725241449991
20
6.88607890823747
30
0
41
1
10
77.0017596328046
20
6.99876140933921
30
0
41
1
10
77.3456519803942
20
7.02979989305993
30
0
41
1
10
78.0355012287648
20
7.07877602286018
30
0
41
1
10
78.381310772145
20
7.09677482264857
30
0
41
1
10
79.0744029949054
20
7.11964284221227
30
0
41
1
10
79.420945938955
20
7.124468327393
30
0
41
1
10
80.112783815232
20
7.12061283852216
30
0
41
1
10
80.4588600587963
20
7.11200636529358
30
0
41
1
10
81.1509776092355
20
7.08168194918579
30
0
41
1
10
81.496994196401
20
7.05995926886774
30
0
41
1
10
82.1885992525924
20
7.00319399972835
30
0
41
1
10
82.5338619951189
20
6.96797213095559
30
0
41
1
10
82.8799916449418
20
6.92641460320752
30
0
0
SPLINE
5
C1
100
AcDbEntity
8
1
62
256
6
ByLayer
370
18
48
1
60
0
100
AcDbSpline
70
4
71
3
72
51
73
47
40
0
40
0
40
0
40
0
40
0.0581551972615053
40
0.0581551972615053
40
0.122813077751393
40
0.122813077751393
40
0.155142017996337
40
0.155142017996337
40
0.187470958241282
40
0.187470958241282
40
0.316786719221058
40
0.316786719221058
40
0.446102480200835
40
0.446102480200835
40
0.510760360690723
40
0.510760360690723
40
0.543089300935667
40
0.543089300935667
40
0.559253771058139
40
0.559253771058139
40
0.567336006119376
40
0.571377123649993
40
0.571377123649993
40
0.575418241180611
40
0.575418241180611
40
0.583500476241848
40
0.583500476241848
40
0.587541593772466
40
0.587541593772466
40
0.591582711303083
40
0.591582711303083
40
0.607747181425555
40
0.607747181425555
40
0.640076121670499
40
0.640076121670499
40
0.704734002160388
40
0.704734002160388
40
0.834049763140164
40
0.834049763140164
40
0.898707643630052
40
0.898707643630052
40
0.931036583874996
40
0.931036583874996
40
0.963365524119941
40
0.963365524119941
40
1
40
1
40
1
40
1
41
1
10
16.8523301218965
20
-1.27599047898028
30
0
41
1
10
16.8523301218965
20
-1.22566953804633
30
0
41
1
10
16.8523301218965
20
-1.18304423462467
30
0
41
1
10
16.8523301218965
20
-1.10891491106548
30
0
41
1
10
16.8523301218965
20
-1.07923534028296
30
0
41
1
10
16.8523301218965
20
-1.04878863496725
30
0
41
1
10
16.8523301218965
20
-1.04097879845941
30
0
41
1
10
16.8523301218965
20
-1.03015779860633
30
0
41
1
10
16.8523301218965
20
-1.02713218195643
30
0
41
1
10
16.8523301218965
20
-1.02359699355347
30
0
41
1
10
16.8523301218965
20
-1.05764818418501
30
0
41
1
10
16.8523301218965
20
-1.19482835069016
30
0
41
1
10
16.8523301218965
20
-1.29798566125891
30
0
41
1
10
16.8523301218965
20
-1.50474033863242
30
0
41
1
10
16.8523301218965
20
-1.58212669026295
30
0
41
1
10
16.8523301218965
20
-1.71012325159407
30
0
41
1
10
16.8523301218966
20
-1.75480520165217
30
0
41
1
10
16.8523301218966
20
-1.82484227850517
30
0
41
1
10
16.8523301218965
20
-1.84869188271443
30
0
41
1
10
16.8523301218965
20
-1.8851937467908
30
0
41
1
10
16.8523301218966
20
-1.90362802921135
30
0
41
1
10
16.8523301218966
20
-1.92233697649348
30
0
41
1
10
16.8523301218966
20
-1.93487061182546
30
0
41
1
10
16.8523301218964
20
-1.94072995681128
30
0
41
1
10
16.8523301218964
20
-1.96443789054629
30
0
41
1
10
16.8523301218965
20
-1.98709996011405
30
0
41
1
10
16.8523301218965
20
-2.02749844969759
30
0
41
1
10
16.8523301218965
20
-2.04193343507296
30
0
41
1
10
16.8523301218965
20
-2.07008197052104
30
0
41
1
10
16.8523301218966
20
-2.08417266910936
30
0
41
1
10
16.8523301218966
20
-2.1547084141306
30
0
41
1
10
16.8523301218965
20
-2.21140570810829
30
0
41
1
10
16.8523301218965
20
-2.38225613383955
30
0
41
1
10
16.8523301218966
20
-2.49705888907241
30
0
41
1
10
16.8523301218966
20
-2.8441926648687
30
0
41
1
10
16.8523301218965
20
-3.07933351939849
30
0
41
1
10
16.8523301218965
20
-3.79541449132552
30
0
41
1
10
16.8523301218965
20
-4.27975426158815
30
0
41
1
10
16.8523301218965
20
-5.01690946597446
30
0
41
1
10
16.8523301218965
20
-5.26441102001951
30
0
41
1
10
16.8523301218965
20
-5.63845573849497
30
0
41
1
10
16.8523301218966
20
-5.76360339658237
30
0
41
1
10
16.8523301218966
20
-6.0148597294461
30
0
41
1
10
16.8523301218965
20
-6.14086445757343
30
0
41
1
10
16.8523301218965
20
-6.40826703290617
30
0
41
1
10
16.8523301218965
20
-6.54983982626104
30
0
41
1
10
16.8523301218965
20
-6.69093122336506
30
0
0
SPLINE
5
C2
100
AcDbEntity
8
1
62
256
6
ByLayer
370
18
48
1
60
0
100
AcDbSpline
70
4
71
3
72
8
73
4
40
0
40
0
40
0
40
0
40
1
40
1
40
1
40
1
41
1
10
82.592644952661
20
7.11272622520596
30
0
41
1
10
82.3227504235361
20
7.12064632662751
30
0
41
1
10
82.0527176886433
20
7.12449440337448
30
0
41
1
10
81.7826690608211
20
7.12428986268901
30
0
0
SPLINE
5
C3
100
AcDbEntity
8
1
62
256
6
ByLayer
370
18
48
1
60
0
100
AcDbSpline
70
4
71
3
72
50
73
46
40
0
40
0
40
0
40
0
40
0.0111355760099336
40
0.0111355760099336
40
0.0430344283967104
40
0.0430344283967104
40
0.106832133170264
40
0.106832133170264
40
0.138730985557041
40
0.138730985557041
40
0.170629837943818
40
0.170629837943818
40
0.234427542717372
40
0.234427542717372
40
0.266326395104148
40
0.266326395104148
40
0.298225247490925
40
0.298225247490925
40
0.362022952264477
40
0.362022952264477
40
0.393921804651253
40
0.393921804651253
40
0.425820657038029
40
0.425820657038029
40
0.489618361811581
40
0.489618361811581
40
0.521517214198357
40
0.521517214198357
40
0.553416066585132
40
0.553416066585132
40
0.617213771358685
40
0.617213771358685
40
0.649112623745462
40
0.649112623745462
40
0.681011476132238
40
0.681011476132238
40
0.744809180905791
40
0.744809180905791
40
0.776708033292567
40
0.776708033292567
40
0.808606885679343
40
0.808606885679343
40
0.872404590452895
40
0.872404590452895
40
1
40
1
40
1
40
1
41
1
10
42.5555430631436
20
-6.75765271432951
30
0
41
1
10
42.4126040725036
20
-6.78001993731905
30
0
41
1
10
42.2696340348487
20
-6.80131388165751
30
0
41
1
10
41.7171026685184
20
-6.87939160558486
30
0
41
1
10
41.3081524068675
20
-6.92824432792088
30
0
41
1
10
40.0821101958643
20
-7.04745161704193
30
0
41
1
10
39.265832489016
20
-7.09044682460936
30
0
41
1
10
38.0390813159071
20
-7.09935778736028
30
0
41
1
10
37.629419263752
20
-7.09305279521089
30
0
41
1
10
36.8103153841301
20
-7.06188427609021
30
0
41
1
10
36.4013681377405
20
-7.03705395410896
30
0
41
1
10
35.175262002877
20
-6.93525428368463
30
0
41
1
10
34.3589209816433
20
-6.83093985036479
30
0
41
1
10
33.1319831180772
20
-6.62166535785667
30
0
41
1
10
32.7221951738871
20
-6.54304207216651
30
0
41
1
10
31.9031097004857
20
-6.36892584774037
30
0
41
1
10
31.4941703139614
20
-6.27352483130389
30
0
41
1
10
30.2679685082419
20
-5.9635265567747
30
0
41
1
10
29.4515894335299
20
-5.72485833715754
30
0
41
1
10
28.2244006654693
20
-5.32351867604351
30
0
41
1
10
27.8145209230784
20
-5.18233282153483
30
0
41
1
10
26.9954628674968
20
-4.88694147760845
30
0
41
1
10
26.5865068488587
20
-4.73286598177847
30
0
41
1
10
25.3602361371702
20
-4.25324832551337
30
0
41
1
10
24.5437683236324
20
-3.90992514131446
30
0
41
1
10
23.3164012755103
20
-3.36630675592488
30
0
41
1
10
22.9064272850576
20
-3.18009526631283
30
0
41
1
10
22.0873810178728
20
-2.80015526296739
30
0
41
1
10
21.6784258740743
20
-2.60652779278297
30
0
41
1
10
20.452156489769
20
-2.01674905837712
30
0
41
1
10
19.6355427428535
20
-1.61150656898215
30
0
41
1
10
18.4079980918837
20
-0.993076830608004
30
0
41
1
10
17.9979344235401
20
-0.784965020834846
30
0
41
1
10
17.1788672811803
20
-0.367718033666819
30
0
41
1
10
16.7698898045188
20
-0.158618685425523
30
0
41
1
10
15.5435446017848
20
0.467981393723591
30
0
41
1
10
14.726849984628
20
0.884952757426618
30
0
41
1
10
13.4991046072937
20
1.50140709843555
30
0
41
1
10
13.0887801761799
20
1.70568250041453
30
0
41
1
10
12.2704892924109
20
2.10808614307228
30
0
41
1
10
11.862436984097
20
2.30625050322428
30
0
41
1
10
10.6405234078345
20
2.88981804649666
30
0
41
1
10
9.82898983510998
20
3.26444441617369
30
0
41
1
10
7.39554351917673
20
4.33128096912668
30
0
41
1
10
5.7752224492892
20
4.96711858512504
30
0
41
1
10
4.13630786162017
20
5.49374005018981
30
0
0
SPLINE
5
C4
100
AcDbEntity
8
1
62
256
6
ByLayer
370
18
48
1
60
0
100
AcDbSpline
70
4
71
3
72
34
73
30
40
0
40
0
40
0
40
0
40
0.249999999999987
40
0.249999999999987
40
0.374999999999981
40
0.374999999999981
40
0.499999999999975
40
0.499999999999975
40
0.562499999999971
40
0.562499999999971
40
0.624999999999968
40
0.624999999999968
40
0.749999999999962
40
0.749999999999962
40
0.812499999999955
40
0.812499999999955
40
0.843749999999952
40
0.843749999999952
40
0.851562499999951
40
0.851562499999951
40
0.859374999999951
40
0.859374999999951
40
0.86718749999995
40
0.86718749999995
40
0.871093749999951
40
0.871093749999951
40
0.874999999999952
40
0.874999999999952
40
1
40
1
40
1
40
1
41
1
10
75.7476836034178
20
2.36855254536499
30
0
41
1
10
76.3248050671634
20
1.88196326232281
30
0
41
1
10
76.9295114537275
20
1.4588935298236
30
0
41
1
10
77.882874416504
20
0.930911309237786
30
0
41
1
10
78.2031429685111
20
0.775609430062758
30
0
41
1
10
78.8470791573323
20
0.50810608176289
30
0
41
1
10
79.1709892781909
20
0.395461632079758
30
0
41
1
10
79.6602363515295
20
0.263251591179483
30
0
41
1
10
79.8238924756709
20
0.225417648843603
30
0
41
1
10
80.1524169189656
20
0.162924699167832
30
0
41
1
10
80.3173990994603
20
0.138338661694746
30
0
41
1
10
80.807747677407
20
0.0869256205445197
30
0
41
1
10
81.1307473547265
20
0.0816944647376374
30
0
41
1
10
81.6077692820511
20
0.126166553739239
30
0
41
1
10
81.7646481936854
20
0.149693613102642
30
0
41
1
10
81.995869805691
20
0.199329137352379
30
0
41
1
10
82.0722248756546
20
0.218263264058351
30
0
41
1
10
82.166601797491
20
0.245050312496573
30
0
41
1
10
82.1853604011701
20
0.250724320029519
30
0
41
1
10
82.2230565430957
20
0.261635452426418
30
0
41
1
10
82.2421349670828
20
0.266512645247474
30
0
41
1
10
82.2759827590551
20
0.287086264890718
30
0
41
1
10
82.2903944597379
20
0.302415675209176
30
0
41
1
10
82.3019079156602
20
0.333406687910667
30
0
41
1
10
82.303541197217
20
0.345366487356131
30
0
41
1
10
82.3060613855472
20
0.369039376973063
30
0
41
1
10
82.3074007071936
20
0.38084508606832
30
0
41
1
10
82.3495931710979
20
0.771211369433701
30
0
41
1
10
82.3526984020684
20
1.16375695396314
30
0
41
1
10
82.3306790982371
20
1.55617969833634
30
0
0
SPLINE
5
C5
100
AcDbEntity
8
1
62
256
6
ByLayer
370
18
48
1
60
0
100
AcDbSpline
70
4
71
3
72
8
73
4
40
0
40
0
40
0
40
0
40
1
40
1
40
1
40
1
41
1
10
4.00000005412997
20
-4.10702125212822
30
0
41
1
10
4.00000005412997
20
-4.05694490372423
30
0
41
1
10
4.00000005412997
20
-4.00676709076012
30
0
41
1
10
4.00000005412997
20
-3.95648741275042
30
0
0
SPLINE
5
C6
100
AcDbEntity
8
1
62
256
6
ByLayer
370
18
48
1
60
0
100
AcDbSpline
70
4
71
3
72
12
73
8
40
0
40
0
40
0
40
0
40
0.249999999999999
40
0.249999999999999
40
0.499999999999998
40
0.499999999999998
40
1
40
1
40
1
40
1
41
1
10
84.9960023243771
20
0.212565853839351
30
0
41
1
10
84.991057333468
20
0.344270153623796
30
0
41
1
10
84.9815185329115
20
0.476593038891025
30
0
41
1
10
84.9533876576605
20
0.74423200202105
30
0
41
1
10
84.9347311757447
20
0.879895811054439
30
0
41
1
10
84.8662289418517
20
1.29071636501249
30
0
41
1
10
84.8039517398842
20
1.56991128338075
30
0
41
1
10
84.72821768009
20
1.85980764822605
30
0
0
SPLINE
5
C7
100
AcDbEntity
8
1
62
256
6
ByLayer
370
18
48
1
60
0
100
AcDbSpline
70
4
71
3
72
30
73
26
40
0
40
0
40
0
40
0
40
0.0624999999999997
40
0.0624999999999997
40
0.0937499999999997
40
0.0937499999999997
40
0.125
40
0.125
40
0.1875
40
0.1875
40
0.25
40
0.25
40
0.375000000000001
40
0.375000000000001
40
0.4375
40
0.4375
40
0.499999999999999
40
0.499999999999999
40
0.749999999999993
40
0.749999999999993
40
0.812499999999995
40
0.812499999999995
40
0.874999999999997
40
0.874999999999997
40
1
40
1
40
1
40
1
41
1
10
75.7476836034177
20
2.36855254536474
30
0
41
1
10
75.7393554731339
20
2.16963783360373
30
0
41
1
10
75.7446084513199
20
1.96774240831601
30
0
41
1
10
75.7728209167163
20
1.66043668600389
30
0
41
1
10
75.785619665759
20
1.55725641679834
30
0
41
1
10
75.8180715105325
20
1.34939152077635
30
0
41
1
10
75.8376602306407
20
1.24528013152462
30
0
41
1
10
75.9053234399413
20
0.936087774131749
30
0
41
1
10
75.9624932559694
20
0.732627115644988
30
0
41
1
10
76.098531003204
20
0.330504853977232
30
0
41
1
10
76.1775927795718
20
0.13144356479404
30
0
41
1
10
76.4437441516902
20
-0.456559545332027
30
0
41
1
10
76.6534321857061
20
-0.824207443523846
30
0
41
1
10
77.0035886631282
20
-1.34878001379295
30
0
41
1
10
77.1263533677885
20
-1.51907241753463
30
0
41
1
10
77.3827499555087
20
-1.85145164048703
30
0
41
1
10
77.5157228138501
20
-2.01261889626125
30
0
41
1
10
78.1946325065654
20
-2.78869082458053
30
0
41
1
10
78.7886376059777
20
-3.32455498525721
30
0
41
1
10
79.5751752500015
20
-3.92082854685736
30
0
41
1
10
79.7344164268243
20
-4.03607831235865
30
0
41
1
10
80.054657882974
20
-4.25795505261632
30
0
41
1
10
80.215932017566
20
-4.36479075172471
30
0
41
1
10
80.7029493207704
20
-4.67393358059849
30
0
41
1
10
81.0318774073936
20
-4.86491194584741
30
0
41
1
10
81.3646392404507
20
-5.04225366160833
30
0
0
SPLINE
5
C8
100
AcDbEntity
8
1
62
256
6
ByLayer
370
18
48
1
60
0
100
AcDbSpline
70
4
71
3
72
14
73
10
40
0
40
0
40
0
40
0
40
0.25
40
0.25
40
0.5
40
0.5
40
0.75
40
0.75
40
1
40
1
40
1
40
1
41
1
10
82.3306790982371
20
1.55617969833631
30
0
41
1
10
82.3295468801346
20
1.57635781742638
30
0
41
1
10
82.333876144497
20
1.59678762128283
30
0
41
1
10
82.3542933772128
20
1.63214724061336
30
0
41
1
10
82.3703251432358
20
1.64685020185726
30
0
41
1
10
82.4062837983775
20
1.66763982152031
30
0
41
1
10
82.4265247934882
20
1.67431952425164
30
0
41
1
10
82.4672017001852
20
1.68209580809236
30
0
41
1
10
82.4880791864844
20
1.68332966185068
30
0
41
1
10
82.5088934103234
20
1.68259295841912
30
0
0
SPLINE
5
C9
100
AcDbEntity
8
1
62
256
6
ByLayer
370
18
48
1
60
0
100
AcDbSpline
70
4
71
3
72
12
73
8
40
0
40
0
40
0
40
0
40
0.249999999999999
40
0.249999999999999
40
0.499999999999997
40
0.499999999999997
40
1
40
1
40
1
40
1
41
1
10
82.8799916449345
20
-6.92641460322898
30
0
41
1
10
83.027971158771
20
-6.50069416017624
30
0
41
1
10
83.1777166127125
20
-6.07604379000435
30
0
41
1
10
83.4804208780977
20
-5.22858331624144
30
0
41
1
10
83.6333881189994
20
-4.80577919268936
30
0
41
1
10
84.0964532193998
20
-3.53970610579913
30
0
41
1
10
84.4108413633657
20
-2.69881517060551
30
0
41
1
10
84.7282176800966
20
-1.85980764820843
30
0
0
LINE
5
76
100
AcDbEntity
8
81
62
256
6
ByLayer
370
18
48
1
60
0
100
AcDbLine
10
85
20
0
30
0
11
90
21
0
31
0
39
0
210
0
220
0
230
1
0
LINE
5
77
100
AcDbEntity
8
1
62
256
6
ByLayer
370
18
48
1
60
0
100
AcDbLine
10
4
20
7.0757
30
0
11
0.350219
21
7.073419
31
0
39
0
210
0
220
0
230
1
0
LINE
5
79
100
AcDbEntity
8
1
62
256
6
ByLayer
370
18
48
1
60
0
100
AcDbLine
10
38.233982
20
7.097096
30
0
11
36.052565
21
7.095733
31
0
39
0
210
0
220
0
230
1
0
LINE
5
7A
100
AcDbEntity
8
1
62
256
6
ByLayer
370
18
48
1
60
0
100
AcDbLine
10
81.785123
20
7.124316
30
0
11
79.602332
21
7.122952
31
0
39
0
210
0
220
0
230
1
0
LINE
5
7B
100
AcDbEntity
8
1
62
256
6
ByLayer
370
18
48
1
60
0
100
AcDbLine
10
79.602332
20
-7.122952
30
0
11
81.785089
21
-7.124316
31
0
39
0
210
0
220
0
230
1
0
LINE
5
7C
100
AcDbEntity
8
1
62
256
6
ByLayer
370
18
48
1
60
0
100
AcDbLine
10
36.052565
20
-7.095733
30
0
11
38.233739
21
-7.097096
31
0
39
0
210
0
220
0
230
1
0
LINE
5
7D
100
AcDbEntity
8
1
62
256
6
ByLayer
370
18
48
1
60
0
100
AcDbLine
10
0.350219
20
-7.073419
30
0
11
4
21
-7.0757
31
0
39
0
210
0
220
0
230
1
0
LINE
5
7E
100
AcDbEntity
8
SK1
62
256
6
ByLayer
370
18
48
1
60
0
100
AcDbLine
10
0
20
8
30
0
11
-45.979274
21
8
31
0
39
0
210
0
220
0
230
1
0
LINE
5
80
100
AcDbEntity
8
SK1
62
256
6
ByLayer
370
18
48
1
60
0
100
AcDbLine
10
-45.979274
20
-8
30
0
11
0
21
-8
31
0
39
0
210
0
220
0
230
1
0
LINE
5
81
100
AcDbEntity
8
SK1
62
256
6
ByLayer
370
18
48
1
60
0
100
AcDbLine
10
-45.979274
20
8
30
0
11
-48
21
4.5
31
0
39
0
210
0
220
0
230
1
0
LINE
5
82
100
AcDbEntity
8
SK1
62
256
6
ByLayer
370
18
48
1
60
0
100
AcDbLine
10
-48
20
-4.5
30
0
11
-45.979274
21
-8
31
0
39
0
210
0
220
0
230
1
0
LINE
5
83
100
AcDbEntity
8
SK4
62
256
6
ByLayer
370
18
48
0.05
60
0
100
AcDbLine
10
90
20
0
30
0
11
-53
21
0
31
0
39
0
210
0
220
0
230
1
0
LINE
5
85
100
AcDbEntity
8
4
62
256
6
ByLayer
370
18
48
0.05
60
0
100
AcDbLine
10
85
20
0
30
0
11
0
21
0
31
0
39
0
210
0
220
0
230
1
0
LINE
5
87
100
AcDbEntity
8
80
62
256
6
ByLayer
370
18
48
1
60
0
100
AcDbLine
10
0
20
0
30
0
11
-5
21
0
31
0
39
0
210
0
220
0
230
1
0
LINE
5
88
100
AcDbEntity
8
SK1
62
256
6
ByLayer
370
18
48
1
60
0
100
AcDbLine
10
-45.979274
20
8
30
0
11
-45.979274
21
-8
31
0
39
0
210
0
220
0
230
1
0
LINE
5
89
100
AcDbEntity
8
SK1
62
256
6
ByLayer
370
18
48
1
60
0
100
AcDbLine
10
0
20
8
30
0
11
0
21
-8
31
0
39
0
210
0
220
0
230
1
0
LINE
5
8A
100
AcDbEntity
8
SK1
62
256
6
ByLayer
370
18
48
1
60
0
100
AcDbLine
10
-48
20
4.5
30
0
11
-48
21
-4.5
31
0
39
0
210
0
220
0
230
1
0
LINE
5
8B
100
AcDbEntity
8
1
62
256
6
ByLayer
370
13
48
1
60
0
100
AcDbLine
10
0.350219
20
7.073419
30
0
11
0.350219
21
-7.073419
31
0
39
0
210
0
220
0
230
1
0
LINE
5
8C
100
AcDbEntity
8
1
62
256
6
ByLayer
370
13
48
1
60
0
100
AcDbLine
10
82.330679
20
1.55618
30
0
11
84.950774
21
-0.102403
31
0
39
0
210
0
220
0
230
1
0
LINE
5
8D
100
AcDbEntity
8
1
62
256
6
ByLayer
370
13
48
1
60
0
100
AcDbLine
10
82.508893
20
1.682593
30
0
11
84.995238
21
0.108678
31
0
39
0
210
0
220
0
230
1
0
LINE
5
8E
100
AcDbEntity
8
1
62
256
6
ByLayer
370
18
48
1
60
0
100
AcDbLine
10
4
20
7.0757
30
0
11
4
21
5.631274
31
0
39
0
210
0
220
0
230
1
0
LINE
5
8F
100
AcDbEntity
8
1
62
256
6
ByLayer
370
18
48
1
60
0
100
AcDbLine
10
4
20
-7.0757
30
0
11
4
21
-4.107021
31
0
39
0
210
0
220
0
230
1
0
MTEXT
5
CA
100
AcDbEntity
8
SK6
62
256
6
ByLayer
370
13
48
1
60
0
100
AcDbMText
10
20.629169
20
39.507694
30
0
210
0
220
0
230
1
1
\W0.7478;460.1-1425-071A0-XM GC34
40
3.5
41
0
44
1.084337
50
0
71
8
72
5
7
iso_b_vert
0
DIMENSION
5
D7
100
AcDbEntity
8
SK2
62
256
6
ByLayer
370
13
48
1
60
0
100
AcDbDimension
2
DimnDraft3D1
10
82.4067
20
-17.338398
30
0
11
39.156759
21
-17.338398
31
0
70
32
71
5
72
1
41
1
210
0
220
0
230
1
3
Standard
100
AcDbAlignedDimension
13
0
23
-1.5875
33
0
14
82.4067
24
-8.7125
34
0
50
0
100
AcDbRotatedDimension
1001
ACAD
1000
DSTYLE
1002
{
1070
   279
1070
     0
1070
   172
1070
     1
1070
   173
1070
     1
1070
   340
1005
CB
1070
   271
1070
     2
1070
   272
1070
     2
1070
    77
1070
     1
1070
    73
1070
     0
1070
   171
1070
     3
1070
   274
1070
     4
1070
   177
1070
    35
1070
   176
1070
    35
1070
   178
1070
    35
1070
    48
1040
-0.005
1070
    41
1041
3.5
1070
   147
1041
1.75
1070
    42
1041
1.5875
1070
    44
1041
2.0
1070
   140
1041
3.5
1070
   343
1005
0
1070
   344
1005
0
1002
}
0
DIMENSION
5
E1
100
AcDbEntity
8
SK2
62
256
6
ByLayer
370
13
48
1
60
0
100
AcDbDimension
2
DimnDraft3D2
10
85
20
-36.692985
30
0
11
17.248
21
-36.692985
31
0
70
32
71
5
72
1
41
1
210
0
220
0
230
1
3
Standard
100
AcDbAlignedDimension
13
-48
23
-9.5875
33
0
14
85
24
-1.5875
34
0
50
0
100
AcDbRotatedDimension
1001
ACAD
1000
DSTYLE
1002
{
1070
   279
1070
     0
1070
   172
1070
     1
1070
   173
1070
     1
1070
   340
1005
CB
1070
   271
1070
     2
1070
   272
1070
     2
1070
    77
1070
     1
1070
    73
1070
     0
1070
   171
1070
     3
1070
   274
1070
     4
1070
   177
1070
    35
1070
   176
1070
    35
1070
   178
1070
    35
1070
    48
1040
-0.005
1070
    41
1041
3.5
1070
   147
1041
1.75
1070
    42
1041
1.5875
1070
    44
1041
2.0
1070
   140
1041
3.5
1070
   343
1005
0
1070
   344
1005
0
1002
}
0
DIMENSION
5
EB
100
AcDbEntity
8
SK2
62
256
6
ByLayer
370
13
48
1
60
0
100
AcDbDimension
2
DimnDraft3D3
10
85
20
18.734119
30
0
11
54.19
21
18.734119
31
0
70
32
71
5
72
1
41
1
210
0
220
0
230
1
3
Standard
100
AcDbAlignedDimension
13
23.38
23
8.7125
33
0
14
85
24
1.5875
34
0
50
0
100
AcDbRotatedDimension
1001
ACAD
1000
DSTYLE
1002
{
1070
   279
1070
     0
1070
   172
1070
     1
1070
   173
1070
     1
1070
   340
1005
CB
1070
   271
1070
     2
1070
   272
1070
     2
1070
    77
1070
     1
1070
    73
1070
     0
1070
   171
1070
     3
1070
   274
1070
     4
1070
   177
1070
    35
1070
   176
1070
    35
1070
   178
1070
    35
1070
    48
1040
-0.005
1070
    41
1041
3.5
1070
   147
1041
1.75
1070
    42
1041
1.5875
1070
    44
1041
2.0
1070
   140
1041
3.5
1070
   343
1005
0
1070
   344
1005
0
1002
}
0
DIMENSION
5
F5
100
AcDbEntity
8
SK2
62
256
6
ByLayer
370
13
48
1
60
0
100
AcDbDimension
2
DimnDraft3D4
10
82.4067
20
-19.927503
30
0
11
94.981425
21
-19.927503
31
0
70
32
71
5
72
1
41
1
210
0
220
0
230
1
3
Standard
100
AcDbAlignedDimension
13
85
23
-1.5875
33
0
14
82.4067
24
-8.7125
34
0
50
0
100
AcDbRotatedDimension
1001
ACAD
1000
DSTYLE
1002
{
1070
   279
1070
     0
1070
   172
1070
     1
1070
   173
1070
     1
1070
   340
1005
CB
1070
   271
1070
     2
1070
   272
1070
     2
1070
    77
1070
     1
1070
    73
1070
     0
1070
   171
1070
     3
1070
   274
1070
     4
1070
   177
1070
    35
1070
   176
1070
    35
1070
   178
1070
    35
1070
    48
1040
-0.005
1070
    41
1041
3.5
1070
   147
1041
1.75
1070
    42
1041
1.5875
1070
    44
1041
2.0
1070
   140
1041
3.5
1070
   343
1005
0
1070
   344
1005
0
1002
}
0
DIMENSION
5
FF
100
AcDbEntity
8
SK2
62
256
6
ByLayer
370
13
48
1
60
0
100
AcDbDimension
2
DimnDraft3D5
10
82.4067
20
-26.343428
30
0
11
14.167376
21
-26.343428
31
0
70
32
71
5
72
1
41
1
210
0
220
0
230
1
3
Standard
100
AcDbAlignedDimension
13
-48
23
-9.5875
33
0
14
82.4067
24
-8.7125
34
0
50
0
100
AcDbRotatedDimension
1001
ACAD
1000
DSTYLE
1002
{
1070
   279
1070
     0
1070
   172
1070
     1
1070
   173
1070
     1
1070
   340
1005
CB
1070
   271
1070
     2
1070
   272
1070
     2
1070
    77
1070
     1
1070
    73
1070
     0
1070
   171
1070
     3
1070
   274
1070
     4
1070
   177
1070
    35
1070
   176
1070
    35
1070
   178
1070
    35
1070
    48
1040
-0.005
1070
    41
1041
3.5
1070
   147
1041
1.75
1070
    42
1041
1.5875
1070
    44
1041
2.0
1070
   140
1041
3.5
1070
   343
1005
0
1070
   344
1005
0
1002
}
0
DIMENSION
5
10A
100
AcDbEntity
8
SK2
62
256
6
ByLayer
370
13
48
1
60
0
100
AcDbDimension
2
DimnDraft3D6
10
-58.625163
20
8
30
0
11
-59.250163
21
26.47418
31
0
70
33
71
5
72
1
41
1
210
0
220
0
230
1
3
Standard
100
AcDbAlignedDimension
13
-49.5875
23
-8
33
0
14
-49.5875
24
8
34
0
1001
ACAD
1000
DSTYLE
1002
{
1070
   279
1070
     0
1070
    74
1070
     0
1070
   173
1070
     1
1070
   340
1005
CB
1070
   271
1070
     3
1070
   272
1070
     2
1070
    77
1070
     1
1070
    73
1070
     0
1070
   171
1070
     3
1070
   274
1070
     4
1070
   177
1070
    35
1070
   176
1070
    35
1070
   178
1070
    35
1070
    48
1040
-0.005
1070
    41
1041
3.5
1070
   147
1041
1.75
1070
    42
1041
1.5875
1070
    44
1041
2.0
1070
   140
1041
3.5
1070
   343
1005
0
1070
   344
1005
0
1002
}
0
DIMENSION
5
115
100
AcDbEntity
8
2
62
256
6
ByLayer
370
13
48
1
60
0
100
AcDbDimension
2
DimnDraft3D7
10
99.083343
20
7.125
30
0
11
94.458343
21
24.192266
31
0
70
33
71
5
72
1
41
1
210
0
220
0
230
1
3
Standard
100
AcDbAlignedDimension
13
83.9942
23
-7.125
33
0
14
83.9942
24
7.125
34
0
1001
ACAD
1000
DSTYLE
1002
{
1070
   279
1070
     0
1070
    74
1070
     0
1070
   173
1070
     1
1070
   340
1005
CB
1070
   271
1070
     3
1070
   272
1070
     2
1070
    77
1070
     1
1070
    73
1070
     0
1070
   171
1070
     3
1070
   274
1070
     4
1070
   177
1070
    35
1070
   176
1070
    35
1070
   178
1070
    35
1070
    48
1040
-0.005
1070
    41
1041
3.5
1070
   147
1041
1.75
1070
    42
1041
1.5875
1070
    44
1041
2.0
1070
   140
1041
3.5
1070
   343
1005
0
1070
   344
1005
0
1002
}
0
ENDSEC
0
SECTION
2
OBJECTS
0
DICTIONARY
5
180
330
0
100
AcDbDictionary
280
0
281
1
3
ACAD_GROUP
350
181
3
ACAD_MLINESTYLE
350
182
0
DICTIONARY
5
181
330
0
100
AcDbDictionary
280
0
281
1
0
DICTIONARY
5
182
330
0
100
AcDbDictionary
280
0
281
1
3
Standard
350
18
0
MLINESTYLE
5
18
330
182
100
AcDbMlineStyle
2
Standard
70
0
3

62
256
51
90
52
90
71
2
49
-0.5
62
256
6
ByLayer
49
0.5
62
256
6
ByLayer
0
RASTERVARIABLES
5
16e
330

100
AcDbRasterVariables
90
0
70
1
71
1
72
1
0
ENDSEC
0
EOF
