0
SECTION
2
HEADER
9
$ACADVER
1
AC1015
9
$DWGCODEPAGE
3
ANSI_1252
9
$HANDSEED
5
1b2
9
$ANGBASE
50
0
9
$ANGDIR
70
0
9
$ATTMODE
70
1
9
$AUNITS
70
0
9
$AUPREC
70
0
9
$CECOLOR
62
256
9
$CELTSCALE
40
1
9
$CELTYPE
6
ByLayer
9
$CELWEIGHT
370
18
9
$CLAYER
8
0
9
$CMLJUST
70
0
9
$CMLSCALE
40
1
9
$CMLSTYLE
2
Standard
9
$DIMSTYLE
2
Standard
9
$TEXTSIZE
40
0.2
9
$TEXTSTYLE
7
Standard
9
$LUNITS
70
2
9
$LUPREC
70
4
9
$EXTNAMES
290
1
9
$INSUNITS
70
4
9
$LTSCALE
40
1
9
$LWDISPLAY
290
1
9
$PDMODE
70
0
9
$PDSIZE
40
0
9
$PLINEGEN
70
0
0
ENDSEC
0
SECTION
2
CLASSES
0
CLASS
1
RASTERVARIABLES
2
AcDbRasterVariables
3
ISM
90
0
280
0
281
0
0
ENDSEC
0
SECTION
2
TABLES
0
TABLE
2
VPORT
5
1a8
100
AcDbSymbolTable
0
VPORT
5
1
100
AcDbSymbolTableRecord
100
AcDbViewportTableRecord
2
*Active
70
0
10
0
20
0
11
1
21
1
12
-1
22
1
13
0
23
0
14
0.5
24
0.5
15
10
25
10
16
0
26
0
36
1
17
0
27
0
37
0
0
ENDTAB
0
TABLE
2
LTYPE
5
1a9
100
AcDbSymbolTable
0
LTYPE
5
14
100
AcDbSymbolTableRecord
100
AcDbLinetypeTableRecord
70
0
2
ByBlock
3

72
65
73
0
40
0
0
LTYPE
5
15
100
AcDbSymbolTableRecord
100
AcDbLinetypeTableRecord
70
0
2
ByLayer
3

72
65
73
0
40
0
0
LTYPE
5
16
100
AcDbSymbolTableRecord
100
AcDbLinetypeTableRecord
70
0
2
CONTINUOUS
3
Solid line
72
65
73
0
40
0
0
LTYPE
5
6A
100
AcDbSymbolTableRecord
100
AcDbLinetypeTableRecord
70
0
2
CENTER
3
____ _ ____ _ ____ _ ____
72
65
73
4
40
47.5
49
22
74
0
49
-8.5
74
0
49
8.5
74
0
49
-8.5
74
0
0
LTYPE
5
6B
100
AcDbSymbolTableRecord
100
AcDbLinetypeTableRecord
70
0
2
DASHED
3
__ __ __ __ __ __ __ __ __
72
65
73
2
40
25.72
49
12.86
74
0
49
-12.86
74
0
0
ENDTAB
0
TABLE
2
LAYER
5
1aa
100
AcDbSymbolTable
0
LAYER
5
10
100
AcDbSymbolTableRecord
100
AcDbLayerTableRecord
2
0
70
0
62
7
6
CONTINUOUS
290
1
370
-3
390
0
0
LAYER
5
6D
100
AcDbSymbolTableRecord
100
AcDbLayerTableRecord
2
81
70
0
62
-3
6
CONTINUOUS
290
1
370
-3
390
0
0
LAYER
5
6F
100
AcDbSymbolTableRecord
100
AcDbLayerTableRecord
2
80
70
0
62
-6
6
CONTINUOUS
290
1
370
-3
390
0
0
LAYER
5
74
100
AcDbSymbolTableRecord
100
AcDbLayerTableRecord
2
2
70
0
62
7
6
CONTINUOUS
290
1
370
-3
390
0
0
LAYER
5
78
100
AcDbSymbolTableRecord
100
AcDbLayerTableRecord
2
1
70
0
62
4
6
CONTINUOUS
290
1
370
-3
390
0
0
LAYER
5
8A
100
AcDbSymbolTableRecord
100
AcDbLayerTableRecord
2
4
70
0
62
-2
6
CENTER
290
1
370
-3
390
0
0
LAYER
5
194
100
AcDbSymbolTableRecord
100
AcDbLayerTableRecord
2
SK2
70
0
62
7
6
CONTINUOUS
290
1
370
-3
390
0
0
LAYER
5
195
100
AcDbSymbolTableRecord
100
AcDbLayerTableRecord
2
SK1
70
0
62
4
6
CONTINUOUS
290
1
370
-3
390
0
0
LAYER
5
196
100
AcDbSymbolTableRecord
100
AcDbLayerTableRecord
2
SK4
70
0
62
2
6
CENTER
290
1
370
-3
390
0
0
LAYER
5
197
100
AcDbSymbolTableRecord
100
AcDbLayerTableRecord
2
SK6
70
0
62
5
6
CONTINUOUS
290
1
370
-3
390
0
0
ENDTAB
0
TABLE
2
STYLE
5
1ab
100
AcDbSymbolTable
0
STYLE
5
11
100
AcDbSymbolTableRecord
100
AcDbTextStyleTableRecord
2
Standard
3
txt
70
0
71
0
40
0
41
1
42
0
50
0
0
STYLE
5
F0
100
AcDbSymbolTableRecord
100
AcDbTextStyleTableRecord
2
iso_b_vert
3
simplex.shx
70
0
71
0
40
0
41
1
42
0
50
0
0
STYLE
5
F1
100
AcDbSymbolTableRecord
100
AcDbTextStyleTableRecord
2
DWGDirectTextStyle
3
simplex
70
0
71
0
40
0
41
1
42
0
50
0
0
ENDTAB
0
TABLE
2
DIMSTYLE
5
1ac
100
AcDbSymbolTable
100
AcDbDimStyleTable
0
DIMSTYLE
105
27
100
AcDbSymbolTableRecord
100
AcDbDimStyleTableRecord
2
Standard
70
0
3
<>
41
0.18
42
0.0625
44
0.18
140
0.18
147
0.09
73
0
74
0
77
1
271
2
275
0
278
52
280
0
340
11
0
ENDTAB
0
TABLE
2
VIEW
5
1ad
100
AcDbSymbolTable
0
ENDTAB
0
TABLE
2
UCS
5
1ae
100
AcDbSymbolTable
0
ENDTAB
0
TABLE
2
APPID
5
1af
100
AcDbSymbolTable
0
APPID
5
12
100
AcDbSymbolTableRecord
100
AcDbRegAppTableRecord
2
ACAD
70
0
0
ENDTAB
0
TABLE
2
BLOCK_RECORD
5
1b0
100
AcDbSymbolTable
0
BLOCK_RECORD
5
1F
100
AcDbSymbolTableRecord
100
AcDbBlockTableRecord
2
*Model_Space
340
0
70
0
0
BLOCK_RECORD
5
1B
100
AcDbSymbolTableRecord
100
AcDbBlockTableRecord
2
*Paper_Space
340
0
70
0
0
BLOCK_RECORD
5
23
100
AcDbSymbolTableRecord
100
AcDbBlockTableRecord
2
*Paper_Space0
340
0
70
0
0
BLOCK_RECORD
5
F3
100
AcDbSymbolTableRecord
100
AcDbBlockTableRecord
2
DimnDraft3D1
340
0
70
0
0
BLOCK_RECORD
5
FD
100
AcDbSymbolTableRecord
100
AcDbBlockTableRecord
2
DimnDraft3D2
340
0
70
0
0
BLOCK_RECORD
5
107
100
AcDbSymbolTableRecord
100
AcDbBlockTableRecord
2
DimnDraft3D3
340
0
70
0
0
BLOCK_RECORD
5
111
100
AcDbSymbolTableRecord
100
AcDbBlockTableRecord
2
DimnDraft3D4
340
0
70
0
0
BLOCK_RECORD
5
11B
100
AcDbSymbolTableRecord
100
AcDbBlockTableRecord
2
DimnDraft3D5
340
0
70
0
0
BLOCK_RECORD
5
125
100
AcDbSymbolTableRecord
100
AcDbBlockTableRecord
2
DimnDraft3D6
340
0
70
0
0
BLOCK_RECORD
5
130
100
AcDbSymbolTableRecord
100
AcDbBlockTableRecord
2
DimnDraft3D7
340
0
70
0
0
ENDTAB
0
ENDSEC
0
SECTION
2
BLOCKS
0
BLOCK
5
20
100
AcDbEntity
8
0
100
AcDbBlockBegin
2
*Model_Space
70
0
10
0
20
0
30
0
3
*Model_Space
0
ENDBLK
5
21
100
AcDbEntity
8
0
100
AcDbBlockEnd
0
BLOCK
5
1C
100
AcDbEntity
8
0
100
AcDbBlockBegin
2
*Paper_Space
70
0
10
0
20
0
30
0
3
*Paper_Space
0
ENDBLK
5
1D
100
AcDbEntity
8
0
100
AcDbBlockEnd
0
BLOCK
5
24
100
AcDbEntity
8
0
100
AcDbBlockBegin
2
*Paper_Space0
70
0
10
0
20
0
30
0
3
*Paper_Space0
0
ENDBLK
5
25
100
AcDbEntity
8
0
100
AcDbBlockEnd
0
BLOCK
5
FA
100
AcDbEntity
8
0
100
AcDbBlockBegin
2
DimnDraft3D1
70
0
10
0
20
0
30
0
3
DimnDraft3D1
0
MTEXT
5
F4
100
AcDbEntity
8
SK2
62
256
6
ByLayer
370
13
48
1
60
0
100
AcDbMText
10
70.235269
20
-16.088398
30
0
210
0
220
0
230
1
1
\W0.7213;154,99
40
3.5
41
0
44
1.084337
50
0
71
7
72
5
7
iso_b_vert
0
LINE
5
F5
100
AcDbEntity
8
SK2
62
256
6
ByLayer
370
13
48
1
60
0
100
AcDbLine
10
0
20
-1.5875
30
0
11
0
21
-18.963398
31
0
39
0
210
0
220
0
230
1
0
LINE
5
F6
100
AcDbEntity
8
SK2
62
256
6
ByLayer
370
13
48
1
60
0
100
AcDbLine
10
154.9885
20
-8.3375
30
0
11
154.9885
21
-18.963398
31
0
39
0
210
0
220
0
230
1
0
LINE
5
F7
100
AcDbEntity
8
SK2
62
256
6
ByLayer
370
13
48
1
60
0
100
AcDbLine
10
0
20
-16.963398
30
0
11
154.9885
21
-16.963398
31
0
39
0
210
0
220
0
230
1
0
SOLID
5
F8
100
AcDbEntity
8
SK2
62
256
6
ByLayer
370
13
48
1
60
0
100
AcDbTrace
10
0
20
-16.963398
30
0
11
3.499998
21
-16.502615
31
0
12
3.500002
22
-17.424182
32
0
13
0
23
-16.963398
33
0
39
0
210
0
220
0
230
1
0
SOLID
5
F9
100
AcDbEntity
8
SK2
62
256
6
ByLayer
370
13
48
1
60
0
100
AcDbTrace
10
154.9885
20
-16.963398
30
0
11
151.488502
21
-17.424182
31
0
12
151.488498
22
-16.502615
32
0
13
154.9885
23
-16.963398
33
0
39
0
210
0
220
0
230
1
0
ENDBLK
5
FB
100
AcDbEntity
8
0
100
AcDbBlockEnd
0
BLOCK
5
104
100
AcDbEntity
8
0
100
AcDbBlockBegin
2
DimnDraft3D2
70
0
10
0
20
0
30
0
3
DimnDraft3D2
0
MTEXT
5
FE
100
AcDbEntity
8
SK2
62
256
6
ByLayer
370
13
48
1
60
0
100
AcDbMText
10
49.573221
20
-34.817985
30
0
210
0
220
0
230
1
1
\W0.7421;202,00
40
3.5
41
0
44
1.084337
50
0
71
7
72
5
7
iso_b_vert
0
LINE
5
FF
100
AcDbEntity
8
SK2
62
256
6
ByLayer
370
13
48
1
60
0
100
AcDbLine
10
-45
20
-8.5875
30
0
11
-45
21
-37.692985
31
0
39
0
210
0
220
0
230
1
0
LINE
5
100
100
AcDbEntity
8
SK2
62
256
6
ByLayer
370
13
48
1
60
0
100
AcDbLine
10
157
20
-1.5875
30
0
11
157
21
-37.692985
31
0
39
0
210
0
220
0
230
1
0
LINE
5
101
100
AcDbEntity
8
SK2
62
256
6
ByLayer
370
13
48
1
60
0
100
AcDbLine
10
-45
20
-35.692985
30
0
11
157
21
-35.692985
31
0
39
0
210
0
220
0
230
1
0
SOLID
5
102
100
AcDbEntity
8
SK2
62
256
6
ByLayer
370
13
48
1
60
0
100
AcDbTrace
10
-45
20
-35.692985
30
0
11
-41.500002
21
-35.232202
31
0
12
-41.499998
22
-36.153769
32
0
13
-45
23
-35.692985
33
0
39
0
210
0
220
0
230
1
0
SOLID
5
103
100
AcDbEntity
8
SK2
62
256
6
ByLayer
370
13
48
1
60
0
100
AcDbTrace
10
157
20
-35.692985
30
0
11
153.500002
21
-36.153769
31
0
12
153.499998
22
-35.232202
32
0
13
157
23
-35.692985
33
0
39
0
210
0
220
0
230
1
0
ENDBLK
5
105
100
AcDbEntity
8
0
100
AcDbBlockEnd
0
BLOCK
5
10E
100
AcDbEntity
8
0
100
AcDbBlockBegin
2
DimnDraft3D3
70
0
10
0
20
0
30
0
3
DimnDraft3D3
0
MTEXT
5
108
100
AcDbEntity
8
SK2
62
256
6
ByLayer
370
13
48
1
60
0
100
AcDbMText
10
97.550921
20
19.234119
30
0
210
0
220
0
230
1
1
\W0.6303;110,01
40
3.5
41
0
44
1.084337
50
0
71
7
72
5
7
iso_b_vert
0
LINE
5
109
100
AcDbEntity
8
SK2
62
256
6
ByLayer
370
13
48
1
60
0
100
AcDbLine
10
46.99
20
8.3375
30
0
11
46.99
21
20.359119
31
0
39
0
210
0
220
0
230
1
0
LINE
5
10A
100
AcDbEntity
8
SK2
62
256
6
ByLayer
370
13
48
1
60
0
100
AcDbLine
10
157
20
1.5875
30
0
11
157
21
20.359119
31
0
39
0
210
0
220
0
230
1
0
LINE
5
10B
100
AcDbEntity
8
SK2
62
256
6
ByLayer
370
13
48
1
60
0
100
AcDbLine
10
46.99
20
18.359119
30
0
11
157
21
18.359119
31
0
39
0
210
0
220
0
230
1
0
SOLID
5
10C
100
AcDbEntity
8
SK2
62
256
6
ByLayer
370
13
48
1
60
0
100
AcDbTrace
10
46.99
20
18.359119
30
0
11
50.489998
21
18.819903
31
0
12
50.490002
22
17.898335
32
0
13
46.99
23
18.359119
33
0
39
0
210
0
220
0
230
1
0
SOLID
5
10D
100
AcDbEntity
8
SK2
62
256
6
ByLayer
370
13
48
1
60
0
100
AcDbTrace
10
157
20
18.359119
30
0
11
153.500002
21
17.898335
31
0
12
153.499998
22
18.819903
32
0
13
157
23
18.359119
33
0
39
0
210
0
220
0
230
1
0
ENDBLK
5
10F
100
AcDbEntity
8
0
100
AcDbBlockEnd
0
BLOCK
5
118
100
AcDbEntity
8
0
100
AcDbBlockBegin
2
DimnDraft3D4
70
0
10
0
20
0
30
0
3
DimnDraft3D4
0
MTEXT
5
112
100
AcDbEntity
8
SK2
62
256
6
ByLayer
370
13
48
1
60
0
100
AcDbMText
10
164.278136
20
-18.677503
30
0
210
0
220
0
230
1
1
\W0.6993;2,01
40
3.5
41
0
44
1.084337
50
0
71
7
72
5
7
iso_b_vert
0
LINE
5
113
100
AcDbEntity
8
SK2
62
256
6
ByLayer
370
13
48
1
60
0
100
AcDbLine
10
157
20
-1.5875
30
0
11
157
21
-21.552503
31
0
39
0
210
0
220
0
230
1
0
LINE
5
114
100
AcDbEntity
8
SK2
62
256
6
ByLayer
370
13
48
1
60
0
100
AcDbLine
10
154.9885
20
-8.3375
30
0
11
154.9885
21
-21.552503
31
0
39
0
210
0
220
0
230
1
0
LINE
5
115
100
AcDbEntity
8
SK2
62
256
6
ByLayer
370
13
48
1
60
0
100
AcDbLine
10
146.2385
20
-19.552503
30
0
11
170.559715
21
-19.552503
31
0
39
0
210
0
220
0
230
1
0
SOLID
5
116
100
AcDbEntity
8
SK2
62
256
6
ByLayer
370
13
48
1
60
0
100
AcDbTrace
10
157
20
-19.552503
30
0
11
160.499998
21
-19.091719
31
0
12
160.500002
22
-20.013287
32
0
13
157
23
-19.552503
33
0
39
0
210
0
220
0
230
1
0
SOLID
5
117
100
AcDbEntity
8
SK2
62
256
6
ByLayer
370
13
48
1
60
0
100
AcDbTrace
10
154.9885
20
-19.552503
30
0
11
151.488502
21
-20.013287
31
0
12
151.488498
22
-19.091719
32
0
13
154.9885
23
-19.552503
33
0
39
0
210
0
220
0
230
1
0
ENDBLK
5
119
100
AcDbEntity
8
0
100
AcDbBlockEnd
0
BLOCK
5
122
100
AcDbEntity
8
0
100
AcDbBlockBegin
2
DimnDraft3D5
70
0
10
0
20
0
30
0
3
DimnDraft3D5
0
MTEXT
5
11C
100
AcDbEntity
8
SK2
62
256
6
ByLayer
370
13
48
1
60
0
100
AcDbMText
10
46.930097
20
-24.468428
30
0
210
0
220
0
230
1
1
\W0.6996;199,99
40
3.5
41
0
44
1.084337
50
0
71
7
72
5
7
iso_b_vert
0
LINE
5
11D
100
AcDbEntity
8
SK2
62
256
6
ByLayer
370
13
48
1
60
0
100
AcDbLine
10
-45
20
-8.5875
30
0
11
-45
21
-27.343428
31
0
39
0
210
0
220
0
230
1
0
LINE
5
11E
100
AcDbEntity
8
SK2
62
256
6
ByLayer
370
13
48
1
60
0
100
AcDbLine
10
154.9885
20
-8.3375
30
0
11
154.9885
21
-27.343428
31
0
39
0
210
0
220
0
230
1
0
LINE
5
11F
100
AcDbEntity
8
SK2
62
256
6
ByLayer
370
13
48
1
60
0
100
AcDbLine
10
-45
20
-25.343428
30
0
11
154.9885
21
-25.343428
31
0
39
0
210
0
220
0
230
1
0
SOLID
5
120
100
AcDbEntity
8
SK2
62
256
6
ByLayer
370
13
48
1
60
0
100
AcDbTrace
10
-45
20
-25.343428
30
0
11
-41.500002
21
-24.882645
31
0
12
-41.499998
22
-25.804212
32
0
13
-45
23
-25.343428
33
0
39
0
210
0
220
0
230
1
0
SOLID
5
121
100
AcDbEntity
8
SK2
62
256
6
ByLayer
370
13
48
1
60
0
100
AcDbTrace
10
154.9885
20
-25.343428
30
0
11
151.488502
21
-25.804212
31
0
12
151.488498
22
-24.882645
32
0
13
154.9885
23
-25.343428
33
0
39
0
210
0
220
0
230
1
0
ENDBLK
5
123
100
AcDbEntity
8
0
100
AcDbBlockEnd
0
BLOCK
5
12D
100
AcDbEntity
8
0
100
AcDbBlockBegin
2
DimnDraft3D6
70
0
10
0
20
0
30
0
3
DimnDraft3D6
0
MTEXT
5
126
100
AcDbEntity
8
SK2
62
256
6
ByLayer
370
13
48
1
60
0
100
AcDbMText
10
-55.375163
20
26.34918
30
0
210
0
220
0
230
1
1
\W0.7145;14,000
40
3.5
41
0
44
1.084337
50
90
71
7
72
5
7
iso_b_vert
0
MTEXT
5
127
100
AcDbEntity
8
SK2
62
256
6
ByLayer
370
13
48
1
60
0
100
AcDbMText
10
-55.375163
20
21.126524
30
0
210
0
220
0
230
1
1
%%c
40
3.5
41
0
44
1.084337
50
90
71
7
72
5
7
iso_b_vert
0
LINE
5
128
100
AcDbEntity
8
SK2
62
256
6
ByLayer
370
13
48
1
60
0
100
AcDbLine
10
-46.5875
20
-7
30
0
11
-55.625163
21
-7
31
0
39
0
210
0
220
0
230
1
0
LINE
5
129
100
AcDbEntity
8
SK2
62
256
6
ByLayer
370
13
48
1
60
0
100
AcDbLine
10
-46.5875
20
7
30
0
11
-55.625163
21
7
31
0
39
0
210
0
220
0
230
1
0
LINE
5
12A
100
AcDbEntity
8
SK2
62
256
6
ByLayer
370
13
48
1
60
0
100
AcDbLine
10
-53.625163
20
-7
30
0
11
-53.625163
21
38.230759
31
0
39
0
210
0
220
0
230
1
0
SOLID
5
12B
100
AcDbEntity
8
SK2
62
256
6
ByLayer
370
13
48
1
60
0
100
AcDbTrace
10
-53.625163
20
-7
30
0
11
-54.085946
21
-3.500002
31
0
12
-53.164379
22
-3.499998
32
0
13
-53.625163
23
-7
33
0
39
0
210
0
220
0
230
1
0
SOLID
5
12C
100
AcDbEntity
8
SK2
62
256
6
ByLayer
370
13
48
1
60
0
100
AcDbTrace
10
-53.625163
20
7
30
0
11
-53.164379
21
3.500002
31
0
12
-54.085946
22
3.499998
32
0
13
-53.625163
23
7
33
0
39
0
210
0
220
0
230
1
0
ENDBLK
5
12E
100
AcDbEntity
8
0
100
AcDbBlockEnd
0
BLOCK
5
138
100
AcDbEntity
8
0
100
AcDbBlockBegin
2
DimnDraft3D7
70
0
10
0
20
0
30
0
3
DimnDraft3D7
0
MTEXT
5
131
100
AcDbEntity
8
2
62
256
6
ByLayer
370
13
48
1
60
0
100
AcDbMText
10
167.333343
20
24.692266
30
0
210
0
220
0
230
1
1
\W0.6930;13,500
40
3.5
41
0
44
1.084337
50
90
71
7
72
5
7
iso_b_vert
0
MTEXT
5
132
100
AcDbEntity
8
2
62
256
6
ByLayer
370
13
48
1
60
0
100
AcDbMText
10
167.333343
20
19.46961
30
0
210
0
220
0
230
1
1
%%c
40
3.5
41
0
44
1.084337
50
90
71
7
72
5
7
iso_b_vert
0
LINE
5
133
100
AcDbEntity
8
2
62
256
6
ByLayer
370
13
48
1
60
0
100
AcDbLine
10
156.576
20
-6.75
30
0
11
171.083343
21
-6.75
31
0
39
0
210
0
220
0
230
1
0
LINE
5
134
100
AcDbEntity
8
2
62
256
6
ByLayer
370
13
48
1
60
0
100
AcDbLine
10
156.576
20
6.75
30
0
11
171.083343
21
6.75
31
0
39
0
210
0
220
0
230
1
0
LINE
5
135
100
AcDbEntity
8
2
62
256
6
ByLayer
370
13
48
1
60
0
100
AcDbLine
10
169.083343
20
-6.75
30
0
11
169.083343
21
36.205424
31
0
39
0
210
0
220
0
230
1
0
SOLID
5
136
100
AcDbEntity
8
2
62
256
6
ByLayer
370
13
48
1
60
0
100
AcDbTrace
10
169.083343
20
-6.75
30
0
11
168.622559
21
-3.250002
31
0
12
169.544126
22
-3.249998
32
0
13
169.083343
23
-6.75
33
0
39
0
210
0
220
0
230
1
0
SOLID
5
137
100
AcDbEntity
8
2
62
256
6
ByLayer
370
13
48
1
60
0
100
AcDbTrace
10
169.083343
20
6.75
30
0
11
169.544126
21
3.250002
31
0
12
168.622559
22
3.249998
32
0
13
169.083343
23
6.75
33
0
39
0
210
0
220
0
230
1
0
ENDBLK
5
139
100
AcDbEntity
8
0
100
AcDbBlockEnd
0
ENDSEC
0
SECTION
2
ENTITIES
0
ARC
5
9A
100
AcDbEntity
8
1
62
256
6
ByLayer
370
18
48
1
60
0
100
AcDbCircle
39
0
10
-0.166667
20
6.820004
30
0
40
0.166666999999997
210
0
220
0
230
-1
100
AcDbArc
50
269.96419
51
0
0
ARC
5
9B
100
AcDbEntity
8
1
62
256
6
ByLayer
370
18
48
1
60
0
100
AcDbCircle
39
0
10
-0.166667
20
-6.820004
30
0
40
0.166666999999997
210
0
220
0
230
-1
100
AcDbArc
50
0
51
90.03581
0
ELLIPSE
5
9C
100
AcDbEntity
8
1
62
256
6
ByLayer
370
18
48
1
60
0
100
AcDbEllipse
10
6.077204
20
-6.569529
30
0
11
-0.25
21
3.06151588455594E-17
31
0
210
0
220
0
230
1
40
0.999999
41
-1.55671473267064
42
-0.00227687136357429
0
ELLIPSE
5
9D
100
AcDbEntity
8
1
62
256
6
ByLayer
370
18
48
1
60
0
100
AcDbEllipse
10
6.077204
20
6.569529
30
0
11
-0.25
21
3.06151588455594E-17
31
0
210
0
220
0
230
1
40
0.999999
41
0.0022768713637235
42
1.5861679275661
0
POINT
5
6C
100
AcDbEntity
8
81
62
256
6
ByLayer
370
18
48
1
60
0
100
AcDbPoint
10
157
20
0
30
0
39
0
210
0
220
0
230
1
50
360
0
POINT
5
6E
100
AcDbEntity
8
80
62
256
6
ByLayer
370
18
48
1
60
0
100
AcDbPoint
10
0
20
0
30
0
39
0
210
0
220
0
230
1
50
360
0
POINT
5
70
100
AcDbEntity
8
SK2
62
256
6
ByLayer
370
18
48
1
60
1
100
AcDbPoint
10
-45
20
-7
30
0
39
0
210
0
220
0
230
1
50
360
0
POINT
5
72
100
AcDbEntity
8
SK2
62
256
6
ByLayer
370
18
48
1
60
1
100
AcDbPoint
10
-45
20
7
30
0
39
0
210
0
220
0
230
1
50
360
0
POINT
5
73
100
AcDbEntity
8
2
62
256
6
ByLayer
370
18
48
1
60
1
100
AcDbPoint
10
154.9885
20
-6.75
30
0
39
0
210
0
220
0
230
1
50
360
0
POINT
5
75
100
AcDbEntity
8
2
62
256
6
ByLayer
370
18
48
1
60
1
100
AcDbPoint
10
154.9885
20
6.75
30
0
39
0
210
0
220
0
230
1
50
360
0
SPLINE
5
9E
100
AcDbEntity
8
1
62
256
6
ByLayer
370
18
48
1
60
0
100
AcDbSpline
70
4
71
3
72
16
73
12
40
0
40
0
40
0
40
0
40
0.0928334614393739
40
0.198319177338913
40
0.283478870345287
40
0.361790664593977
40
0.433884125256561
40
0.508475341665331
40
0.709161322444797
40
0.936142948904369
40
1
40
1
40
1
40
1
41
1
10
6.07735205912311
20
-6.3195401229614
30
0
41
1
10
6.26643594665609
20
-6.31966667340777
30
0
41
1
10
6.67037197427464
20
-6.31992902639479
30
0
41
1
10
7.24777451121761
20
-6.32031890064064
30
0
41
1
10
7.79555992758117
20
-6.32059918020653
30
0
41
1
10
8.27535076928126
20
-6.32075359136215
30
0
41
1
10
8.73359507765372
20
-6.32077812124339
30
0
41
1
10
9.44111304020026
20
-6.32067709062738
30
0
41
1
10
10.4642038074535
20
-6.32153618263257
30
0
41
1
10
11.4650383994101
20
-6.32183392294902
30
0
41
1
10
12.0574220800752
20
-6.32235275868564
30
0
41
1
10
12.1874885034777
20
-6.32247133597957
30
0
0
SPLINE
5
9F
100
AcDbEntity
8
1
62
256
6
ByLayer
370
18
48
1
60
0
100
AcDbSpline
70
4
71
3
72
28
73
24
40
0
40
0
40
0
40
0
40
0.0776398359799753
40
0.15019124840089
40
0.211380796653509
40
0.262357977386779
40
0.304436124174801
40
0.354346526676155
40
0.416854464367189
40
0.466846111588142
40
0.500303311793385
40
0.53246224112695
40
0.577741512823768
40
0.629788086742738
40
0.676558566687414
40
0.717769504693905
40
0.757615160003822
40
0.802771212805869
40
0.853324288489144
40
0.901471090457816
40
0.936812332399567
40
0.972713873622714
40
1
40
1
40
1
40
1
41
1
10
77.8883885819739
20
-6.36393179467208
30
0
41
1
10
78.1513789039522
20
-6.3632130399377
30
0
41
1
10
78.6631704375267
20
-6.36251980258044
30
0
41
1
10
79.4073422695701
20
-6.36015565528356
30
0
41
1
10
80.0390129211856
20
-6.36486097206671
30
0
41
1
10
80.5697924916514
20
-6.36584311336836
30
0
41
1
10
81.0688916142058
20
-6.36608176614297
30
0
41
1
10
81.6075268184784
20
-6.36621660958286
30
0
41
1
10
82.1740660655455
20
-6.36626519830335
30
0
41
1
10
82.6831184733055
20
-6.36693695287903
30
0
41
1
10
83.0863316781183
20
-6.3672178683772
30
0
41
1
10
83.4731228382631
20
-6.3673567419327
30
0
41
1
10
83.9247388456774
20
-6.36734941147037
30
0
41
1
10
84.4273257156904
20
-6.36721025176757
30
0
41
1
10
84.91572344779
20
-6.3681580033529
30
0
41
1
10
85.3615663366663
20
-6.36853619745651
30
0
41
1
10
85.8017786157915
20
-6.36855127598741
30
0
41
1
10
86.274574553021
20
-6.36847947833667
30
0
41
1
10
86.7763207376799
20
-6.36853690316721
30
0
41
1
10
87.2438290904912
20
-6.36922026906049
30
0
41
1
10
87.6602419723806
20
-6.36940853389635
30
0
41
1
10
88.0038966943188
20
-6.3693284329745
30
0
41
1
10
88.2242864913833
20
-6.36934800073757
30
0
41
1
10
88.3194567650933
20
-6.3693558368681
30
0
0
SPLINE
5
A0
100
AcDbEntity
8
1
62
256
6
ByLayer
370
18
48
1
60
0
100
AcDbSpline
70
4
71
1
72
4
73
2
40
0
40
0
40
1
40
1
41
1
10
154.143813552879
20
-6.41218523905277
30
0
41
1
10
154.650075897169
20
-6.41238551891297
30
0
0
SPLINE
5
A1
100
AcDbEntity
8
1
62
256
6
ByLayer
370
18
48
1
60
0
100
AcDbSpline
70
4
71
3
72
26
73
22
40
0
40
0
40
0
40
0
40
0.0471972515328309
40
0.102002781526612
40
0.157728160168074
40
0.215273097443932
40
0.26428843593819
40
0.300368105606988
40
0.325636053066551
40
0.357744484152748
40
0.404581039183347
40
0.448664939174952
40
0.477268166604332
40
0.504934362736028
40
0.543564881123739
40
0.593140803075946
40
0.645780951408548
40
0.694051425873237
40
0.820529877237178
40
0.946464078856104
40
1
40
1
40
1
40
1
41
1
10
39.7700428814448
20
-6.34021519937571
30
0
41
1
10
39.9253657250881
20
-6.33974834853657
30
0
41
1
10
40.2659911721253
20
-6.33876943886071
30
0
41
1
10
40.814974766601
20
-6.33532075992909
30
0
41
1
10
41.4066714127188
20
-6.33613605368714
30
0
41
1
10
41.9633132017521
20
-6.34067060607907
30
0
41
1
10
42.4533662869466
20
-6.34215509186183
30
0
41
1
10
42.8392031065216
20
-6.34244401260926
30
0
41
1
10
43.165200379213
20
-6.34239841538255
30
0
41
1
10
43.5299770899349
20
-6.34234794515433
30
0
41
1
10
43.9600648871965
20
-6.34262862309515
30
0
41
1
10
44.3776969991457
20
-6.34313782233599
30
0
41
1
10
44.7288546486313
20
-6.34348267177316
30
0
41
1
10
45.0609520675369
20
-6.34367009981884
30
0
41
1
10
45.4664203587191
20
-6.34378634086403
30
0
41
1
10
45.9592947008149
20
-6.34386686950853
30
0
41
1
10
46.4859154450683
20
-6.34427771902349
30
0
41
1
10
47.2816550280868
20
-6.34514162851178
30
0
41
1
10
48.3338409060758
20
-6.34483927316418
30
0
41
1
10
49.4045023777592
20
-6.34602544680121
30
0
41
1
10
50.032548021779
20
-6.34602167887908
30
0
41
1
10
50.2198943918822
20
-6.34600683467377
30
0
0
SPLINE
5
A2
100
AcDbEntity
8
1
62
256
6
ByLayer
370
18
48
1
60
0
100
AcDbSpline
70
4
71
3
72
17
73
13
40
0
40
0
40
0
40
0
40
0.135023641061283
40
0.296001398166348
40
0.373081444803936
40
0.434760231528127
40
0.488274669294189
40
0.554846537528733
40
0.636024299379808
40
0.738480626147241
40
0.872982507764587
40
1
40
1
40
1
40
1
41
1
10
12.2198571640267
20
6.32233524979105
30
0
41
1
10
11.9433211039904
20
6.3221520711252
30
0
41
1
10
11.337152874748
20
6.32174584564203
30
0
41
1
10
10.5736130287869
20
6.32151219449787
30
0
41
1
10
9.959913078075
20
6.32097015534509
30
0
41
1
10
9.56613319626587
20
6.32077787163445
30
0
41
1
10
9.19410731072301
20
6.32068183111573
30
0
41
1
10
8.78191233111716
20
6.32069366321673
30
0
41
1
10
8.26962629958643
20
6.32072273050335
30
0
41
1
10
7.61824842403911
20
6.32052116600599
30
0
41
1
10
6.87290096748001
20
6.32005808763151
30
0
41
1
10
6.33742515275401
20
6.3197187243868
30
0
41
1
10
6.07735206855941
20
6.31953809549611
30
0
0
SPLINE
5
A3
100
AcDbEntity
8
1
62
256
6
ByLayer
370
18
48
1
60
0
100
AcDbSpline
70
4
71
3
72
15
73
11
40
0
40
0
40
0
40
0
40
0.0223493414653794
40
0.185706543188892
40
0.410909014098933
40
0.59117715859302
40
0.778860380224047
40
0.855450436989583
40
0.928431001952419
40
1
40
1
40
1
40
1
41
1
10
126.417487300829
20
6.39343641010407
30
0
41
1
10
126.366881226445
20
6.39342103754177
30
0
41
1
10
125.946382529706
20
6.39328228747701
30
0
41
1
10
125.01598284569
20
6.39171925895101
30
0
41
1
10
123.727972071815
20
6.39243778187557
30
0
41
1
10
122.38488966091
20
6.39059151273983
30
0
41
1
10
121.378308754251
20
6.3909738726029
30
0
41
1
10
120.614657694125
20
6.38986741277543
30
0
41
1
10
120.11393591326
20
6.38983953932214
30
0
41
1
10
119.78661109916
20
6.38989951491851
30
0
41
1
10
119.624563738273
20
6.3898819364135
30
0
0
SPLINE
5
A4
100
AcDbEntity
8
1
62
256
6
ByLayer
370
18
48
1
60
0
100
AcDbSpline
70
4
71
3
72
17
73
13
40
0
40
0
40
0
40
0
40
0.116314302992321
40
0.25714206401208
40
0.39171308501517
40
0.55191757714252
40
0.723833224524282
40
0.77605033465024
40
0.814086151854
40
0.86746670291754
40
0.942660320773124
40
1
40
1
40
1
40
1
41
1
10
50.2176206706543
20
6.34573073983765
30
0
41
1
10
49.9514415229871
20
6.34597930852163
30
0
41
1
10
49.3629878367852
20
6.34631338987663
30
0
41
1
10
48.4665688740895
20
6.34501160349916
30
0
41
1
10
47.4697528886169
20
6.34505970308302
30
0
41
1
10
46.4017537894387
20
6.3441325535828
30
0
41
1
10
45.5222218248079
20
6.34381708725837
30
0
41
1
10
44.9223010379154
20
6.34360514522695
30
0
41
1
10
44.5935904606237
20
6.34337286757665
30
0
41
1
10
44.2124360823001
20
6.34291887578868
30
0
41
1
10
43.7881956867275
20
6.34250329013986
30
0
41
1
10
43.4842170269231
20
6.34235966591913
30
0
41
1
10
43.3532600988297
20
6.34236437365232
30
0
0
SPLINE
5
A5
100
AcDbEntity
8
1
62
256
6
ByLayer
370
18
48
1
60
0
100
AcDbSpline
70
4
71
3
72
21
73
17
40
0
40
0
40
0
40
0
40
0.0605489658399414
40
0.125056707823867
40
0.175617867529569
40
0.210220350968981
40
0.254532502857899
40
0.311569340063079
40
0.364942346557964
40
0.447124093558275
40
0.533218328397795
40
0.622904996672066
40
0.713908826328536
40
0.822696970394756
40
0.934843970419973
40
1
40
1
40
1
40
1
41
1
10
116.007403007434
20
-6.38806734580129
30
0
41
1
10
116.215921660923
20
-6.38782520834812
30
0
41
1
10
116.646928150508
20
-6.38753928859617
30
0
41
1
10
117.257122982334
20
-6.3888403068855
30
0
41
1
10
117.771915898969
20
-6.38879241305563
30
0
41
1
10
118.222414545659
20
-6.3890018355176
30
0
41
1
10
118.694378186732
20
-6.38929214891888
30
0
41
1
10
119.232015431734
20
-6.38986683451748
30
0
41
1
10
119.90106234589
20
-6.38989316083544
30
0
41
1
10
120.671109764359
20
-6.38975827885224
30
0
41
1
10
121.567293490552
20
-6.3912429501342
30
0
41
1
10
122.494135647382
20
-6.39062950557573
30
0
41
1
10
123.499808367707
20
-6.39214876016209
30
0
41
1
10
124.583530718551
20
-6.39158734874363
30
0
41
1
10
125.577405587867
20
-6.39333018554032
30
0
41
1
10
126.193376372792
20
-6.39330114142234
30
0
41
1
10
126.419736492487
20
-6.39325746938871
30
0
0
SPLINE
5
A6
100
AcDbEntity
8
1
62
256
6
ByLayer
370
18
48
1
60
0
100
AcDbSpline
70
4
71
3
72
18
73
14
40
0
40
0
40
0
40
0
40
0.0164566291011806
40
0.118987395575424
40
0.244585041933024
40
0.383818926005695
40
0.517583029709482
40
0.645684287323543
40
0.757229390609933
40
0.841724706331553
40
0.914800120920361
40
0.995801684455488
40
1
40
1
40
1
40
1
41
1
10
88.3181910977821
20
6.36935209896899
30
0
41
1
10
88.2806131824567
20
6.36933939245048
30
0
41
1
10
88.0089112025864
20
6.36924629285056
30
0
41
1
10
87.4504130769736
20
6.36960236473948
30
0
41
1
10
86.6115565117126
20
6.3681942485137
30
0
41
1
10
85.7014201193806
20
6.36881650586179
30
0
41
1
10
84.7855125422454
20
6.36779395019892
30
0
41
1
10
83.9328789340851
20
6.36722043337153
30
0
41
1
10
83.1927117531895
20
6.36737277067641
30
0
41
1
10
82.5781936495039
20
6.3667976870349
30
0
41
1
10
82.0334536049895
20
6.36620548584264
30
0
41
1
10
81.6719600387147
20
6.36620997857852
30
0
41
1
10
81.4774792725157
20
6.36618195787455
30
0
41
1
10
81.4678963486751
20
6.36618048996269
30
0
0
SPLINE
5
A7
100
AcDbEntity
8
SK1
62
256
6
ByLayer
370
18
48
1
60
0
100
AcDbSpline
70
4
71
3
72
14
73
10
40
0
40
0
40
0
40
0
40
0.5
40
0.5
40
0.75
40
0.75
40
0.875
40
0.875
40
1
40
1
40
1
40
1
41
1
10
-43.4
20
-3.25495315224549
30
0
41
1
10
-43.3790445776494
20
-3.26642239419383
30
0
41
1
10
-43.3587362712602
20
-3.2722610643309
30
0
41
1
10
-43.3304966181166
20
-3.26871947161047
30
0
41
1
10
-43.3215144183093
20
-3.26540509173543
30
0
41
1
10
-43.3103236218556
20
-3.25466302058817
30
0
41
1
10
-43.3069030532022
20
-3.25001962451381
30
0
41
1
10
-43.3017205322972
20
-3.23753497920328
30
0
41
1
10
-43.3
20
-3.22962725102869
30
0
41
1
10
-43.3
20
-3.2200539997163
30
0
0
SPLINE
5
A8
100
AcDbEntity
8
SK1
62
256
6
ByLayer
370
18
48
1
60
0
100
AcDbSpline
70
4
71
3
72
14
73
10
40
0
40
0
40
0
40
0
40
0.125
40
0.125
40
0.250000000000001
40
0.250000000000001
40
0.499999999999998
40
0.499999999999998
40
1
40
1
40
1
40
1
41
1
10
-43.3
20
-1.03378197706326
30
0
41
1
10
-43.3
20
-1.02318370692845
30
0
41
1
10
-43.3017012565589
20
-1.01235388544208
30
0
41
1
10
-43.3069010451287
20
-0.992293341926
30
0
41
1
10
-43.3102603620514
20
-0.983274226713064
30
0
41
1
10
-43.3216024497887
20
-0.957898439013661
30
0
41
1
10
-43.3304674144333
20
-0.943987298846423
30
0
41
1
10
-43.3586594529452
20
-0.907206368790895
30
0
41
1
10
-43.3789281721554
20
-0.890103471486839
30
0
41
1
10
-43.4
20
-0.878570518926864
30
0
0
SPLINE
5
A9
100
AcDbEntity
8
SK1
62
256
6
ByLayer
370
18
48
1
60
0
100
AcDbSpline
70
4
71
3
72
8
73
4
40
0
40
0
40
0
40
0
40
1
40
1
40
1
40
1
41
1
10
-45.0000000000002
20
0.235405794032118
30
0
41
1
10
-44.9716598739407
20
0.232193854354932
30
0
41
1
10
-44.9434151588468
20
0.228895717887326
30
0
41
1
10
-44.9152805617886
20
0.225498097873128
30
0
0
SPLINE
5
AA
100
AcDbEntity
8
SK1
62
256
6
ByLayer
370
18
48
1
60
0
100
AcDbSpline
70
4
71
4
72
10
73
5
40
0
40
0
40
0
40
0
40
0
40
1
40
1
40
1
40
1
40
1
41
1.00503789573671
10
-45.0000000448047
20
0.319044542737599
30
0
41
1.00229958524957
10
-44.999999805678
20
0.306998275605794
30
0
41
0.999709080680329
10
-44.9999995331364
20
0.289100310785026
30
0
41
0.997677859115477
10
-44.999999229152
20
0.265138705850844
30
0
41
0.996356059629298
10
-44.9999988981646
20
0.235405542745485
30
0
0
SPLINE
5
AB
100
AcDbEntity
8
SK1
62
256
6
ByLayer
370
18
48
1
60
0
100
AcDbSpline
70
4
71
3
72
10
73
6
40
0
40
0
40
0
40
0
40
0.448178891221987
40
0.448178891221987
40
1
40
1
40
1
40
1
41
1
10
-44.7701156817438
20
-0.0077448758683829
30
0
41
1
10
-44.7899453550386
20
-0.0459744170925092
30
0
41
1
10
-44.8105912200296
20
-0.0815680737111393
30
0
41
1
10
-44.8585508315605
20
-0.155316412753564
30
0
41
1
10
-44.8864276608054
20
-0.192275157491054
30
0
41
1
10
-44.9154892315255
20
-0.224966690432837
30
0
0
SPLINE
5
AC
100
AcDbEntity
8
SK1
62
256
6
ByLayer
370
18
48
1
60
0
100
AcDbSpline
70
4
71
3
72
10
73
6
40
0
40
0
40
0
40
0
40
0.770575877941554
40
0.770575877941554
40
1
40
1
40
1
40
1
41
1
10
-45.0000000000002
20
-0.235405794032118
30
0
41
1
10
-44.9188231977453
20
-0.226205588236212
30
0
41
1
10
-44.838429209546
20
-0.216298167513486
30
0
41
1
10
-44.7355638821167
20
-0.202118005640699
30
0
41
1
10
-44.7120908730287
20
-0.198779574600252
30
0
41
1
10
-44.6887765973741
20
-0.195342384757993
30
0
0
SPLINE
5
AD
100
AcDbEntity
8
SK1
62
256
6
ByLayer
370
18
48
1
60
0
100
AcDbSpline
70
4
71
3
72
10
73
6
40
0
40
0
40
0
40
0
40
0.5
40
0.5
40
1
40
1
40
1
40
1
41
1
10
-45
20
-2.36822559156127
30
0
41
1
10
-44.7376820956627
20
-2.51676824496437
30
0
41
1
10
-44.4718891712513
20
-2.66472267802416
30
0
41
1
10
-43.9377182933829
20
-2.9601511149159
30
0
41
1
10
-43.6692045757723
20
-3.10761312914886
30
0
41
1
10
-43.4
20
-3.25495315224538
30
0
0
SPLINE
5
AE
100
AcDbEntity
8
SK1
62
256
6
ByLayer
370
18
48
1
60
0
100
AcDbSpline
70
4
71
3
72
8
73
4
40
0
40
0
40
0
40
0
40
1
40
1
40
1
40
1
41
1
10
-43.4
20
-0.878570518926864
30
0
41
1
10
-43.8340336955448
20
-0.641016849778509
30
0
41
1
10
-44.2666366302755
20
-0.403201408271173
30
0
41
1
10
-44.6933746479416
20
-0.164387656023706
30
0
0
SPLINE
5
AF
100
AcDbEntity
8
SK1
62
256
6
ByLayer
370
18
48
1
60
0
100
AcDbSpline
70
4
71
3
72
12
73
8
40
0
40
0
40
0
40
0
40
0.25
40
0.25
40
0.5
40
0.5
40
1
40
1
40
1
40
1
41
1
10
-44.6933746479416
20
-0.164387656023706
30
0
41
1
10
-44.7135863088059
20
-0.111618332151295
30
0
41
1
10
-44.7355412883501
20
-0.061300054694982
30
0
41
1
10
-44.7820606060472
20
0.0322338761377523
30
0
41
1
10
-44.8064705643894
20
0.0752316689835482
30
0
41
1
10
-44.8833159878682
20
0.193398229630731
30
0
41
1
10
-44.9398361886186
20
0.2581721473301
30
0
41
1
10
-45
20
0.305097344608981
30
0
0
SPLINE
5
B0
100
AcDbEntity
8
1
62
256
6
ByLayer
370
18
48
1
60
0
100
AcDbSpline
70
4
71
3
72
50
73
46
40
0
40
0
40
0
40
0
40
0.0312500000000013
40
0.0312500000000013
40
0.0625000000000027
40
0.0625000000000027
40
0.125000000000005
40
0.125000000000005
40
0.187500000000008
40
0.187500000000008
40
0.25000000000001
40
0.25000000000001
40
0.312500000000013
40
0.312500000000013
40
0.375000000000015
40
0.375000000000015
40
0.437500000000018
40
0.437500000000018
40
0.500000000000021
40
0.500000000000021
40
0.562500000000024
40
0.562500000000024
40
0.625000000000026
40
0.625000000000026
40
0.656250000000024
40
0.656250000000024
40
0.687500000000021
40
0.687500000000021
40
0.718750000000019
40
0.718750000000019
40
0.750000000000016
40
0.750000000000016
40
0.781250000000013
40
0.781250000000013
40
0.812500000000011
40
0.812500000000011
40
0.843750000000008
40
0.843750000000008
40
0.875000000000006
40
0.875000000000006
40
0.906250000000003
40
0.906250000000003
40
0.937500000000001
40
0.937500000000001
40
1
40
1
40
1
40
1
41
1
10
154.47440939356
20
-3.51749943834716
30
0
41
1
10
154.469177276153
20
-3.55795353777396
30
0
41
1
10
154.465969664828
20
-3.59619361369309
30
0
41
1
10
154.463259886116
20
-3.66862144874196
30
0
41
1
10
154.463775880864
20
-3.70299470433523
30
0
41
1
10
154.470635467445
20
-3.79887499883881
30
0
41
1
10
154.482095841505
20
-3.85238221727488
30
0
41
1
10
154.516143969608
20
-3.94011164087158
30
0
41
1
10
154.538261109083
20
-3.97336028172575
30
0
41
1
10
154.591153097337
20
-4.02181132446199
30
0
41
1
10
154.621341420075
20
-4.03635191811139
30
0
41
1
10
154.687615683408
20
-4.04833754195209
30
0
41
1
10
154.724051508935
20
-4.04563828755499
30
0
41
1
10
154.800203420835
20
-4.0242977753098
30
0
41
1
10
154.840183047448
20
-4.00578008740942
30
0
41
1
10
154.923986575757
20
-3.95289759738259
30
0
41
1
10
154.967069746168
20
-3.91892576703358
30
0
41
1
10
155.054168668338
20
-3.8369704903858
30
0
41
1
10
155.098498810877
20
-3.78875993953824
30
0
41
1
10
155.188356116682
20
-3.67627289069159
30
0
41
1
10
155.232532859207
20
-3.61366818648375
30
0
41
1
10
155.318331831333
20
-3.47565982296894
30
0
41
1
10
155.36061677771
20
-3.39890357087168
30
0
41
1
10
155.418549338156
20
-3.27783320801043
30
0
41
1
10
155.437039501356
20
-3.23636264796931
30
0
41
1
10
155.472192920267
20
-3.15094220137021
30
0
41
1
10
155.488817999338
20
-3.10699045174681
30
0
41
1
10
155.518764181371
20
-3.01992253568096
30
0
41
1
10
155.532268162734
20
-2.97638546343001
30
0
41
1
10
155.556176807219
20
-2.88930474899433
30
0
41
1
10
155.566656059103
20
-2.84529786075143
30
0
41
1
10
155.58353022111
20
-2.76069090295778
30
0
41
1
10
155.590027917715
20
-2.71984968495369
30
0
41
1
10
155.599242846311
20
-2.64101765114424
30
0
41
1
10
155.601941701769
20
-2.60276381153273
30
0
41
1
10
155.603468576874
20
-2.53164149678719
30
0
41
1
10
155.60235668028
20
-2.49848057415548
30
0
41
1
10
155.596652600005
20
-2.4366131382549
30
0
41
1
10
155.592017689884
20
-2.40788193913906
30
0
41
1
10
155.579786829528
20
-2.35616126854182
30
0
41
1
10
155.572178474388
20
-2.3329267550244
30
0
41
1
10
155.554232792122
20
-2.29125756338718
30
0
41
1
10
155.543837874713
20
-2.27279399684386
30
0
41
1
10
155.509630336688
20
-2.22534790971537
30
0
41
1
10
155.482667947301
20
-2.2036292937922
30
0
41
1
10
155.452118565844
20
-2.1904628891846
30
0
0
SPLINE
5
B1
100
AcDbEntity
8
1
62
256
6
ByLayer
370
18
48
1
60
0
100
AcDbSpline
70
4
71
3
72
8
73
4
40
0
40
0
40
0
40
0
40
1
40
1
40
1
40
1
41
1
10
156.764040576822
20
-1.63900493530321
30
0
41
1
10
156.843831543221
20
-1.14549986112584
30
0
41
1
10
156.914313298591
20
-0.652065486815872
30
0
41
1
10
156.97542395652
20
-0.158702282376737
30
0
0
SPLINE
5
B2
100
AcDbEntity
8
1
62
256
6
ByLayer
370
18
48
1
60
0
100
AcDbSpline
70
4
71
3
72
12
73
8
40
0
40
0
40
0
40
0
40
0.249999999999999
40
0.249999999999999
40
0.499999999999997
40
0.499999999999997
40
1
40
1
40
1
40
1
41
1
10
154.827484361814
20
6.56374238726519
30
0
41
1
10
154.991034816448
20
6.15564943149801
30
0
41
1
10
155.154409680472
20
5.74708979507164
30
0
41
1
10
155.480314239073
20
4.92881695321012
30
0
41
1
10
155.642935477786
20
4.51918508231054
30
0
41
1
10
156.128438981623
20
3.28792840309586
30
0
41
1
10
156.449010599793
20
2.46412078266297
30
0
41
1
10
156.764040576823
20
1.63900493530321
30
0
0
SPLINE
5
B3
100
AcDbEntity
8
1
62
256
6
ByLayer
370
18
48
1
60
0
100
AcDbSpline
70
4
71
3
72
8
73
4
40
0
40
0
40
0
40
0
40
1
40
1
40
1
40
1
41
1
10
154.827484361814
20
-6.56374238726522
30
0
41
1
10
154.731177184763
20
-6.65835829664931
30
0
41
1
10
154.64859955419
20
-6.71755176830055
30
0
41
1
10
154.578860711083
20
-6.73986180916049
30
0
0
SPLINE
5
B4
100
AcDbEntity
8
1
62
256
6
ByLayer
370
18
48
1
60
0
100
AcDbSpline
70
4
71
3
72
36
73
32
40
0
40
0
40
0
40
0
40
0.125000000000038
40
0.125000000000038
40
0.187500000000049
40
0.187500000000049
40
0.250000000000061
40
0.250000000000061
40
0.281250000000061
40
0.281250000000061
40
0.31250000000006
40
0.31250000000006
40
0.34375000000006
40
0.34375000000006
40
0.37500000000006
40
0.37500000000006
40
0.40625000000006
40
0.40625000000006
40
0.437500000000059
40
0.437500000000059
40
0.500000000000058
40
0.500000000000058
40
0.562500000000057
40
0.562500000000057
40
0.625000000000056
40
0.625000000000056
40
0.750000000000038
40
0.750000000000038
40
0.875000000000019
40
0.875000000000019
40
1
40
1
40
1
40
1
41
1
10
154.474409393563
20
-3.51749943834702
30
0
41
1
10
154.352987538602
20
-3.43414812859663
30
0
41
1
10
154.234711304063
20
-3.34371790226999
30
0
41
1
10
154.065209148524
20
-3.19026692515865
30
0
41
1
10
154.009843022944
20
-3.13585581606591
30
0
41
1
10
153.905065970292
20
-3.01979639912423
30
0
41
1
10
153.855084156638
20
-2.95761248175106
30
0
41
1
10
153.789360426879
20
-2.85760294496936
30
0
41
1
10
153.768972273832
20
-2.82310596509734
30
0
41
1
10
153.732523814392
20
-2.75080731500424
30
0
41
1
10
153.716562484911
20
-2.71307114948365
30
0
41
1
10
153.692341383385
20
-2.63620557135161
30
0
41
1
10
153.683988574484
20
-2.59631939677038
30
0
41
1
10
153.678200643813
20
-2.51917402518481
30
0
41
1
10
153.680784645176
20
-2.48063754278107
30
0
41
1
10
153.696956883666
20
-2.41031830542457
30
0
41
1
10
153.710555095255
20
-2.37786505316035
30
0
41
1
10
153.744953030931
20
-2.32091724587906
30
0
41
1
10
153.765572426134
20
-2.29623034129386
30
0
41
1
10
153.8347733541
20
-2.23029930123056
30
0
41
1
10
153.887939310826
20
-2.19903521988513
30
0
41
1
10
154.000757740744
20
-2.14926449105511
30
0
41
1
10
154.060091757616
20
-2.13136223048502
30
0
41
1
10
154.180018449075
20
-2.104353641969
30
0
41
1
10
154.241083205837
20
-2.09519093064742
30
0
41
1
10
154.426529452446
20
-2.07657972063757
30
0
41
1
10
154.553572230375
20
-2.07588640716367
30
0
41
1
10
154.808914434504
20
-2.08853449624542
30
0
41
1
10
154.937077288783
20
-2.10198926894057
30
0
41
1
10
155.194100314539
20
-2.13901036894887
30
0
41
1
10
155.322965033194
20
-2.16264263332485
30
0
41
1
10
155.452118565844
20
-2.1904628891846
30
0
0
SPLINE
5
B5
100
AcDbEntity
8
1
62
256
6
ByLayer
370
18
48
1
60
0
100
AcDbSpline
70
4
71
3
72
8
73
4
40
0
40
0
40
0
40
0
40
1
40
1
40
1
40
1
41
1
10
5.82720427706127
20
1.10479959455427
30
0
41
1
10
5.94228578741993
20
1.04201631730584
30
0
41
1
10
6.05734489458129
20
0.979128013442875
30
0
41
1
10
6.17239475853904
20
0.916158707164811
30
0
0
SPLINE
5
B6
100
AcDbEntity
8
1
62
256
6
ByLayer
370
18
48
1
60
0
100
AcDbSpline
70
4
71
3
72
12
73
8
40
0
40
0
40
0
40
0
40
0.500000000000008
40
0.500000000000008
40
0.750000000000004
40
0.750000000000004
40
1
40
1
40
1
40
1
41
1
10
150.707556912923
20
-2.68494267370823
30
0
41
1
10
151.145418562396
20
-3.10773460955201
30
0
41
1
10
151.608138369442
20
-3.48549272927664
30
0
41
1
10
152.330649981234
20
-4.00062178691374
30
0
41
1
10
152.575137854655
20
-4.16270450778197
30
0
41
1
10
153.068179925068
20
-4.46820387822706
30
0
41
1
10
153.317137897247
20
-4.61189893992773
30
0
41
1
10
153.568321280772
20
-4.74732531756743
30
0
0
SPLINE
5
B7
100
AcDbEntity
8
1
62
256
6
ByLayer
370
18
48
1
60
0
100
AcDbSpline
70
4
71
3
72
36
73
32
40
0
40
0
40
0
40
0
40
0.0312500000000011
40
0.0312500000000011
40
0.0625000000000022
40
0.0625000000000022
40
0.125000000000004
40
0.125000000000004
40
0.187500000000007
40
0.187500000000007
40
0.250000000000009
40
0.250000000000009
40
0.375000000000013
40
0.375000000000013
40
0.500000000000018
40
0.500000000000018
40
0.507812500000017
40
0.507812500000017
40
0.515625000000016
40
0.515625000000016
40
0.523437500000015
40
0.523437500000015
40
0.531250000000014
40
0.531250000000014
40
0.562500000000013
40
0.562500000000013
40
0.625000000000011
40
0.625000000000011
40
0.750000000000007
40
0.750000000000007
40
1
40
1
40
1
40
1
41
1
10
6.17239475853904
20
0.916158707164811
30
0
41
1
10
6.19306544217554
20
0.98956690596296
30
0
41
1
10
6.21564969270844
20
1.06248354933948
30
0
41
1
10
6.2647409318466
20
1.20731993410686
30
0
41
1
10
6.29134616291083
20
1.27947965851433
30
0
41
1
10
6.37630296672552
20
1.49233699269962
30
0
41
1
10
6.43968887492201
20
1.6293855665555
30
0
41
1
10
6.5792367872682
20
1.89453805716806
30
0
41
1
10
6.65535972004829
20
2.0226612251362
30
0
41
1
10
6.81981051684318
20
2.27058110023597
30
0
41
1
10
6.90862748679371
20
2.39093816139913
30
0
41
1
10
7.18841810501249
20
2.7351162880492
30
0
41
1
10
7.3923708760791
20
2.9426603490339
30
0
41
1
10
7.82912003316557
20
3.32370705830928
30
0
41
1
10
8.06233199588013
20
3.4973408175855
30
0
41
1
10
8.32282513225368
20
3.66638153349788
30
0
41
1
10
8.3381886890779
20
3.67626400015803
30
0
41
1
10
8.36899583525548
20
3.69590852894544
30
0
41
1
10
8.38421704803667
20
3.70598994059972
30
0
41
1
10
8.41567876690792
20
3.72465260880423
30
0
41
1
10
8.43366866071824
20
3.73151110880446
30
0
41
1
10
8.47149556475881
20
3.73880905008591
30
0
41
1
10
8.49079689312362
20
3.73936434176721
30
0
41
1
10
8.5867516707774
20
3.74654092215477
30
0
41
1
10
8.66363971926668
20
3.75147209255155
30
0
41
1
10
8.89436703832916
20
3.7638553330853
30
0
41
1
10
9.04829968815793
20
3.76890422249784
30
0
41
1
10
9.51043463640252
20
3.77465902180535
30
0
41
1
10
9.81877004886755
20
3.76595239191059
30
0
41
1
10
10.7348506917995
20
3.70362721547841
30
0
41
1
10
11.3372087377353
20
3.61439056404157
30
0
41
1
10
11.9313692845088
20
3.47385628996963
30
0
0
SPLINE
5
B8
100
AcDbEntity
8
1
62
256
6
ByLayer
370
18
48
1
60
0
100
AcDbSpline
70
4
71
3
72
8
73
4
40
0
40
0
40
0
40
0
40
1
40
1
40
1
40
1
41
1
10
156.956622078875
20
-0.0686228671009985
30
0
41
1
10
156.90471098073
20
-0.165233698232413
30
0
41
1
10
156.852997148674
20
-0.262020835357447
30
0
41
1
10
156.801480910854
20
-0.3589845716578
30
0
0
SPLINE
5
B9
100
AcDbEntity
8
1
62
256
6
ByLayer
370
18
48
1
60
0
100
AcDbSpline
70
4
71
3
72
14
73
10
40
0
40
0
40
0
40
0
40
0.25
40
0.25
40
0.5
40
0.5
40
0.75
40
0.75
40
1
40
1
40
1
40
1
41
1
10
154.463977157206
20
1.50928107444818
30
0
41
1
10
154.459120991843
20
1.52917154807551
30
0
41
1
10
154.457876552946
20
1.55011398410281
30
0
41
1
10
154.466968487292
20
1.58968258995682
30
0
41
1
10
154.477857890066
20
1.6082981605343
30
0
41
1
10
154.508651313338
20
1.63586317037871
30
0
41
1
10
154.52772813402
20
1.64486566323188
30
0
41
1
10
154.567115027161
20
1.65560191663198
30
0
41
1
10
154.587753345051
20
1.6575329852005
30
0
41
1
10
154.608254026846
20
1.65717754850039
30
0
0
SPLINE
5
BA
100
AcDbEntity
8
1
62
256
6
ByLayer
370
18
48
1
60
0
100
AcDbSpline
70
4
71
3
72
14
73
10
40
0
40
0
40
0
40
0
40
0.537050529147681
40
0.537050529147681
40
0.805575793721522
40
0.805575793721522
40
0.939838426008442
40
0.939838426008442
40
1
40
1
40
1
40
1
41
1
10
154.692322871896
20
-6.40556225941222
30
0
41
1
10
153.136567572971
20
-6.44300948405342
30
0
41
1
10
151.601531565201
20
-6.32079380949335
30
0
41
1
10
149.295250784113
20
-5.91861919717985
30
0
41
1
10
148.525844571478
20
-5.74789419604519
30
0
41
1
10
147.366116650342
20
-5.43973880016074
30
0
41
1
10
146.978626267408
20
-5.32832035044399
30
0
41
1
10
146.415603220648
20
-5.15478758580215
30
0
41
1
10
146.241020073979
20
-5.09936151321867
30
0
41
1
10
146.066443734299
20
-5.04238205324694
30
0
0
SPLINE
5
BB
100
AcDbEntity
8
1
62
256
6
ByLayer
370
13
48
1
60
0
100
AcDbSpline
70
4
71
3
72
22
73
18
40
0
40
0
40
0
40
0
40
0.0428305965781623
40
0.0428305965781623
40
0.353247136531488
40
0.353247136531488
40
0.508455406508152
40
0.508455406508152
40
0.586059541496483
40
0.586059541496483
40
0.624861608990649
40
0.624861608990649
40
0.663663676484815
40
0.663663676484815
40
0.974080216438119
40
0.974080216438119
40
1
40
1
40
1
40
1
41
1
10
146.066443746444
20
-5.04238205721111
30
0
41
1
10
145.851417926657
20
-4.97220041003953
30
0
41
1
10
145.636402433653
20
-4.89966213920977
30
0
41
1
10
143.868858244414
20
-4.28467030095709
30
0
41
1
10
142.337349167866
20
-3.63340949129025
30
0
41
1
10
140.03647706931
20
-2.55087406934663
30
0
41
1
10
139.268921955005
20
-2.17241418773477
30
0
41
1
10
138.112403198202
20
-1.58581098991613
30
0
41
1
10
137.726033789878
20
-1.38710838796567
30
0
41
1
10
137.144553500132
20
-1.08542547667545
30
0
41
1
10
136.950405797094
20
-0.984260983772145
30
0
41
1
10
136.561369544072
20
-0.780900519469355
30
0
41
1
10
136.366232304231
20
-0.678565075824508
30
0
41
1
10
134.612849435367
20
0.243099379008328
30
0
41
1
10
133.076229002509
20
1.06426806313257
30
0
41
1
10
131.408691896031
20
1.90632585450626
30
0
41
1
10
131.280168117197
20
1.97091614243234
30
0
41
1
10
131.151615153067
20
2.03517690839342
30
0
0
SPLINE
5
BC
100
AcDbEntity
8
1
62
256
6
ByLayer
370
18
48
1
60
0
100
AcDbSpline
70
4
71
3
72
14
73
10
40
0
40
0
40
0
40
0
40
0.255591349010593
40
0.255591349010593
40
0.788080411822994
40
0.788080411822994
40
0.921202677526095
40
0.921202677526095
40
1
40
1
40
1
40
1
41
1
10
78.0269842912058
20
-6.36403740120107
30
0
41
1
10
77.2775767994281
20
-6.36694816940701
30
0
41
1
10
76.532573736428
20
-6.33340622135728
30
0
41
1
10
74.2443274997053
20
-6.12216726502982
30
0
41
1
10
72.709205226826
20
-5.82744129288747
30
0
41
1
10
70.773878313196
20
-5.28971683318679
30
0
41
1
10
70.3860295626672
20
-5.1736537448443
30
0
41
1
10
69.7666741206942
20
-4.97593161383341
30
0
41
1
10
69.5356324635667
20
-4.8994528197243
30
0
41
1
10
69.3046294996407
20
-4.8203809369449
30
0
0
SPLINE
5
BD
100
AcDbEntity
8
1
62
256
6
ByLayer
370
13
48
1
60
0
100
AcDbSpline
70
4
71
3
72
20
73
16
40
0
40
0
40
0
40
0
40
0.0333507227917524
40
0.0333507227917524
40
0.196801702397203
40
0.196801702397203
40
0.523703661608102
40
0.523703661608102
40
0.605429151410829
40
0.605429151410829
40
0.687154641213555
40
0.687154641213555
40
0.850605620819006
40
0.850605620819006
40
1
40
1
40
1
40
1
41
1
10
69.3046285512322
20
-4.82038061230639
30
0
41
1
10
69.145369358272
20
-4.76586648331264
30
0
41
1
10
68.9861285569612
20
-4.71011984219317
30
0
41
1
10
68.0480843895207
20
-4.37459780197739
30
0
41
1
10
67.2740753634111
20
-4.06895868572443
30
0
41
1
10
64.9579319993988
20
-3.08671616090862
30
0
41
1
10
63.421767038992
20
-2.34448780800219
30
0
41
1
10
61.4818413364763
20
-1.358713718605
30
0
41
1
10
61.0928441587133
20
-1.15870521902403
30
0
41
1
10
60.3120490470445
20
-0.754356847528555
30
0
41
1
10
59.9219712064588
20
-0.550844260810322
30
0
41
1
10
58.7566025968402
20
0.0587371142443942
30
0
41
1
10
57.9839562800926
20
0.464719571367596
30
0
41
1
10
56.5077738178057
20
1.23056177317972
30
0
41
1
10
55.8039297782079
20
1.59119567600334
30
0
41
1
10
55.0989144534863
20
1.94247609141883
30
0
0
SPLINE
5
BE
100
AcDbEntity
8
1
62
256
6
ByLayer
370
18
48
1
60
0
100
AcDbSpline
70
4
71
3
72
18
73
14
40
0
40
0
40
0
40
0
40
0.249999999999996
40
0.249999999999996
40
0.374999999999997
40
0.374999999999997
40
0.499999999999998
40
0.499999999999998
40
0.749999999999999
40
0.749999999999999
40
0.874999999999999
40
0.874999999999999
40
1
40
1
40
1
40
1
41
1
10
154.600805837587
20
-6.4052896430394
30
0
41
1
10
154.463016587474
20
-6.38863305598676
30
0
41
1
10
154.335280196431
20
-6.34296732682574
30
0
41
1
10
154.16013183576
20
-6.22698164585461
30
0
41
1
10
154.104392011326
20
-6.1801261149738
30
0
41
1
10
154.000932598627
20
-6.07180336734558
30
0
41
1
10
153.952914134247
20
-6.0101979137774
30
0
41
1
10
153.820057858133
20
-5.80291815105838
30
0
41
1
10
153.746320291816
20
-5.63497875845005
30
0
41
1
10
153.659828570036
20
-5.33470009048202
30
0
41
1
10
153.635046054961
20
-5.22616986377091
30
0
41
1
10
153.594870368258
20
-4.99673799928843
30
0
41
1
10
153.579312498856
20
-4.8753797214309
30
0
41
1
10
153.568321280772
20
-4.74732531756743
30
0
0
SPLINE
5
BF
100
AcDbEntity
8
1
62
256
6
ByLayer
370
18
48
1
60
0
100
AcDbSpline
70
4
71
3
72
48
73
44
40
0
40
0
40
0
40
0
40
0.0598302440088076
40
0.0598302440088076
40
0.119660488017615
40
0.119660488017615
40
0.14957561002202
40
0.14957561002202
40
0.179490732026424
40
0.179490732026424
40
0.239320976035232
40
0.239320976035232
40
0.269236098039636
40
0.269236098039636
40
0.299151220044039
40
0.299151220044039
40
0.329066342048443
40
0.329066342048443
40
0.358981464052847
40
0.358981464052847
40
0.478641952070461
40
0.478641952070461
40
0.538472196079267
40
0.538472196079267
40
0.568387318083671
40
0.568387318083671
40
0.598302440088074
40
0.598302440088074
40
0.658132684096881
40
0.658132684096881
40
0.688047806101283
40
0.688047806101283
40
0.717962928105686
40
0.717962928105686
40
0.837623416123296
40
0.837623416123296
40
0.897453660132102
40
0.897453660132102
40
0.957283904140908
40
0.957283904140908
40
0.98719902614531
40
0.98719902614531
40
1
40
1
40
1
40
1
41
1
10
154.578860711083
20
-6.73986180916049
30
0
41
1
10
153.804078682427
20
-6.76284880904106
30
0
41
1
10
153.027722650622
20
-6.74427199968935
30
0
41
1
10
151.480139741112
20
-6.62547431165879
30
0
41
1
10
150.707644930034
20
-6.52539919417364
30
0
41
1
10
149.545977114112
20
-6.31613519911713
30
0
41
1
10
149.157779278747
20
-6.23640560932418
30
0
41
1
10
148.382912070833
20
-6.05843668829905
30
0
41
1
10
147.99603662544
20
-5.96019482875053
30
0
41
1
10
146.835886408542
20
-5.63884855084456
30
0
41
1
10
146.063091735423
20
-5.3891073308576
30
0
41
1
10
144.89978923528
20
-4.96613681206091
30
0
41
1
10
144.511939144937
20
-4.81727454657687
30
0
41
1
10
143.737801280938
20
-4.50594059090238
30
0
41
1
10
143.35111952338
20
-4.34334189281461
30
0
41
1
10
142.577719534577
20
-4.0054324688102
30
0
41
1
10
142.191006909059
20
-3.83011316437396
30
0
41
1
10
141.41671059692
20
-3.46794780342338
30
0
41
1
10
141.028427050882
20
-3.28076287570539
30
0
41
1
10
139.091648259201
20
-2.32356118246622
30
0
41
1
10
137.564221495567
20
-1.49378293448788
30
0
41
1
10
135.267248766507
20
-0.22347058313585
30
0
41
1
10
134.500647178104
20
0.204288171876698
30
0
41
1
10
133.344445415162
20
0.843513687448251
30
0
41
1
10
132.958008326717
20
1.05621179346005
30
0
41
1
10
132.182208515917
20
1.47929784337813
30
0
41
1
10
131.794464860505
20
1.6887675637328
30
0
41
1
10
130.633172857181
20
2.30734238242425
30
0
41
1
10
129.860453937787
20
2.70734038173413
30
0
41
1
10
128.698497036388
20
3.28017783667312
30
0
41
1
10
128.309964745642
20
3.46696380182362
30
0
41
1
10
127.535452837649
20
3.82811389106647
30
0
41
1
10
127.14954706614
20
4.00244890139192
30
0
41
1
10
125.224691383607
20
4.84045362557319
30
0
41
1
10
123.699818770818
20
5.40308094796433
30
0
41
1
10
121.396427325366
20
6.04070690502942
30
0
41
1
10
120.625981429744
20
6.21892527402181
30
0
41
1
10
119.073245778487
20
6.49936542576975
30
0
41
1
10
118.299653224241
20
6.59991171608155
30
0
41
1
10
117.138961264988
20
6.68974565748402
30
0
41
1
10
116.751978884026
20
6.70952732472023
30
0
41
1
10
116.198704250318
20
6.72310275151878
30
0
41
1
10
116.03271953878
20
6.72528472452703
30
0
41
1
10
115.866685827925
20
6.72557948360486
30
0
0
SPLINE
5
C0
100
AcDbEntity
8
1
62
256
6
ByLayer
370
18
48
1
60
0
100
AcDbSpline
70
4
71
3
72
60
73
56
40
0
40
0
40
0
40
0
40
0.0266533503214781
40
0.0266533503214781
40
0.0821811409284924
40
0.0821811409284924
40
0.137708931535507
40
0.137708931535507
40
0.165472826839014
40
0.165472826839014
40
0.193236722142521
40
0.193236722142521
40
0.248764512749536
40
0.248764512749536
40
0.276528408053043
40
0.276528408053043
40
0.30429230335655
40
0.30429230335655
40
0.359820093963565
40
0.359820093963565
40
0.387583989267072
40
0.387583989267072
40
0.415347884570579
40
0.415347884570579
40
0.470875675177593
40
0.470875675177593
40
0.4986395704811
40
0.4986395704811
40
0.526403465784607
40
0.526403465784607
40
0.554167361088115
40
0.554167361088115
40
0.581931256391622
40
0.581931256391622
40
0.637459046998636
40
0.637459046998636
40
0.665222942302144
40
0.665222942302144
40
0.69298683760565
40
0.69298683760565
40
0.748514628212664
40
0.748514628212664
40
0.804042418819678
40
0.804042418819678
40
0.859570209426692
40
0.859570209426692
40
0.887334104730199
40
0.887334104730199
40
0.915098000033706
40
0.915098000033706
40
0.97062579064072
40
0.97062579064072
40
0.998389685944228
40
0.998389685944228
40
1
40
1
40
1
40
1
41
1
10
81.4401842337517
20
-6.38940295569097
30
0
41
1
10
81.0679989488833
20
-6.45147809529826
30
0
41
1
10
80.6962095993827
20
-6.50444474491329
30
0
41
1
10
79.5499718247694
20
-6.63927941046862
30
0
41
1
10
78.7752689561041
20
-6.69031185529508
30
0
41
1
10
77.2213796610155
20
-6.70983290656307
30
0
41
1
10
76.4473445060054
20
-6.67830717678098
30
0
41
1
10
75.2854284702751
20
-6.57035330471294
30
0
41
1
10
74.898021761273
20
-6.52424938553631
30
0
41
1
10
74.1221114361368
20
-6.412046674588
30
0
41
1
10
73.7332140424351
20
-6.34586377084648
30
0
41
1
10
72.5692379718695
20
-6.11887761535246
30
0
41
1
10
71.7954508750885
20
-5.92945802949214
30
0
41
1
10
70.6329227778975
20
-5.59253210184158
30
0
41
1
10
70.2451396812697
20
-5.4713938599736
30
0
41
1
10
69.4681170634756
20
-5.21225857783585
30
0
41
1
10
69.079841034927
20
-5.07458859290827
30
0
41
1
10
67.9168925010049
20
-4.63953534864768
30
0
41
1
10
67.1430381813971
20
-4.31989923929606
30
0
41
1
10
65.9794971419023
20
-3.80266920833486
30
0
41
1
10
65.5907129600291
20
-3.6236925164902
30
0
41
1
10
64.8141656541807
20
-3.25585815475614
30
0
41
1
10
64.426502556419
20
-3.06695948394281
30
0
41
1
10
63.264127375475
20
-2.48735506849371
30
0
41
1
10
62.4899916711689
20
-2.08379914622896
30
0
41
1
10
61.3249733207836
20
-1.46112997623163
30
0
41
1
10
60.9361751465431
20
-1.25084299338317
30
0
41
1
10
60.1604277511199
20
-0.828079971415434
30
0
41
1
10
59.7730328345165
20
-0.615286923111739
30
0
41
1
10
58.9982361125907
20
-0.188630985571564
30
0
41
1
10
58.6108344691102
20
0.0252318850722304
30
0
41
1
10
57.8352643459108
20
0.452643546562541
30
0
41
1
10
57.4467906981483
20
0.666426720484679
30
0
41
1
10
56.281166162716
20
1.30365074571708
30
0
41
1
10
55.5068023457829
20
1.72145498412905
30
0
41
1
10
54.3443118316077
20
2.32886910955159
30
0
41
1
10
53.9566563100497
20
2.52812413606654
30
0
41
1
10
53.180242066358
20
2.91883166814668
30
0
41
1
10
52.7912028317261
20
3.11040553682915
30
0
41
1
10
51.6269685578578
20
3.66851104073834
30
0
41
1
10
50.8527587531785
20
4.01912797106661
30
0
41
1
10
49.3018516071167
20
4.66813058536778
30
0
41
1
10
48.5234971019
20
4.96686106128567
30
0
41
1
10
46.972425568489
20
5.49787844982774
30
0
41
1
10
46.1981647730966
20
5.73068477383134
30
0
41
1
10
45.0338838256581
20
6.02601119511553
30
0
41
1
10
44.6448108268566
20
6.11555377594581
30
0
41
1
10
43.8680852409959
20
6.2752146705225
30
0
41
1
10
43.4803288112128
20
6.34540340267534
30
0
41
1
10
42.3174914344644
20
6.5263879106248
30
0
41
1
10
41.5428824579266
20
6.60764546706162
30
0
41
1
10
40.3771730975811
20
6.66832646652244
30
0
41
1
10
39.9883347565274
20
6.6782889250776
30
0
41
1
10
39.5778072601223
20
6.67796514770714
30
0
41
1
10
39.5553034719232
20
6.67791292025504
30
0
41
1
10
39.5328011934814
20
6.67782622795858
30
0
0
SPLINE
5
C1
100
AcDbEntity
8
1
62
256
6
ByLayer
370
13
48
1
60
0
100
AcDbSpline
70
4
71
3
72
12
73
8
40
0
40
0
40
0
40
0
40
0.503993295421799
40
0.503993295421799
40
0.826445120916607
40
0.826445120916607
40
1
40
1
40
1
40
1
41
1
10
6.07740372945307
20
6.19195076229619
30
0
41
1
10
6.07739895316334
20
6.23459324201721
30
0
41
1
10
6.07739325198815
20
6.26660374667696
30
0
41
1
10
6.07738294786611
20
6.30173239860633
30
0
41
1
10
6.07737867850875
20
6.31100992868403
30
0
41
1
10
6.07737196659002
20
6.31830532331421
30
0
41
1
10
6.07736958718652
20
6.31956166907284
30
0
41
1
10
6.07736719073873
20
6.31953487920143
30
0
0
SPLINE
5
C2
100
AcDbEntity
8
1
62
256
6
ByLayer
370
18
48
1
60
0
100
AcDbSpline
70
4
71
3
72
14
73
10
40
0
40
0
40
0
40
0
40
0.25
40
0.25
40
0.5
40
0.5
40
0.75
40
0.75
40
1
40
1
40
1
40
1
41
1
10
154.827484361814
20
-6.56374238726519
30
0
41
1
10
154.991058607309
20
-6.15559006826911
30
0
41
1
10
155.154459261281
20
-5.74696579325902
30
0
41
1
10
155.480419322216
20
-4.92855262849429
30
0
41
1
10
155.643070031237
20
-4.51884565494964
30
0
41
1
10
155.966802046318
20
-3.6978444532725
30
0
41
1
10
156.127990796876
20
-3.28641487363521
30
0
41
1
10
156.44789934649
20
-2.4631681694076
30
0
41
1
10
156.606640801982
20
-2.05126109522851
30
0
41
1
10
156.764040576823
20
-1.63900493530321
30
0
0
SPLINE
5
C3
100
AcDbEntity
8
1
62
256
6
ByLayer
370
18
48
1
60
0
100
AcDbSpline
70
4
71
3
72
18
73
14
40
0
40
0
40
0
40
0
40
0.0821817952989385
40
0.0821817952989385
40
0.188359807166808
40
0.188359807166808
40
0.294537819034677
40
0.294537819034677
40
0.719249866506157
40
0.719249866506157
40
0.931605890241898
40
0.931605890241898
40
1
40
1
40
1
40
1
41
1
10
58.5971745160043
20
0.0315409650335141
30
0
41
1
10
58.896796093059
20
-0.12781117438027
30
0
41
1
10
59.1969035823176
20
-0.28746803421302
30
0
41
1
10
59.8862486845341
20
-0.653370662823022
30
0
41
1
10
60.2765316957501
20
-0.859859723648782
30
0
41
1
10
61.057593684501
20
-1.2696933736735
30
0
41
1
10
61.4466961364896
20
-1.47224933295334
30
0
41
1
10
63.3869938751989
20
-2.46985802459261
30
0
41
1
10
64.9231516896327
20
-3.21836936050278
30
0
41
1
10
67.2396478601435
20
-4.20535462810648
30
0
41
1
10
68.0138514033439
20
-4.51176753631506
30
0
41
1
10
69.0442872441162
20
-4.88013802576825
30
0
41
1
10
69.2959995648115
20
-4.96701400745317
30
0
41
1
10
69.547369732697
20
-5.05054866276487
30
0
0
SPLINE
5
C4
100
AcDbEntity
8
1
62
256
6
ByLayer
370
13
48
1
60
0
100
AcDbSpline
70
4
71
3
72
18
73
14
40
0
40
0
40
0
40
0
40
0.0412833571554704
40
0.0412833571554704
40
0.157295323311716
40
0.157295323311716
40
0.621343187936696
40
0.621343187936696
40
0.737355154092939
40
0.737355154092939
40
0.853367120249183
40
0.853367120249183
40
1
40
1
40
1
40
1
41
1
10
69.5473697314433
20
-5.05054866234829
30
0
41
1
10
69.686237623414
20
-5.09669686517091
30
0
41
1
10
69.8250010923467
20
-5.14182531470635
30
0
41
1
10
70.3526509842191
20
-5.30957861742257
30
0
41
1
10
70.7405752861418
20
-5.42494597855418
30
0
41
1
10
72.6761739302102
20
-5.958141081973
30
0
41
1
10
74.2112852559595
20
-6.24592225087656
30
0
41
1
10
76.1443346172429
20
-6.41206604228179
30
0
41
1
10
76.5316431991693
20
-6.43561966895089
30
0
41
1
10
77.3083906138941
20
-6.46300518069515
30
0
41
1
10
77.6981408891446
20
-6.46684489917686
30
0
41
1
10
78.5825875746985
20
-6.45267524975819
30
0
41
1
10
79.0758021427156
20
-6.42869484964731
30
0
41
1
10
79.5691639269794
20
-6.38884557651502
30
0
0
SPLINE
5
C5
100
AcDbEntity
8
1
62
256
6
ByLayer
370
18
48
1
60
0
100
AcDbSpline
70
4
71
3
72
18
73
14
40
0
40
0
40
0
40
0
40
0.14206644805368
40
0.14206644805368
40
0.207959806111011
40
0.207959806111011
40
0.273853164168342
40
0.273853164168342
40
0.405639880283005
40
0.405639880283005
40
0.669213312512328
40
0.669213312512328
40
1
40
1
40
1
40
1
41
1
10
134.8953368382
20
-0.0154908602962678
30
0
41
1
10
135.312804340496
20
-0.239178188964018
30
0
41
1
10
135.731428029331
20
-0.463474750964309
30
0
41
1
10
136.346626981232
20
-0.791363211478142
30
0
41
1
10
136.541797956502
20
-0.895108841665774
30
0
41
1
10
136.930895069388
20
-1.10118882469234
30
0
41
1
10
137.125066994941
20
-1.20366112107411
30
0
41
1
10
137.706606919651
20
-1.5091084131661
30
0
41
1
10
138.092999207143
20
-1.71010680388912
30
0
41
1
10
139.249537540304
20
-2.30301149752251
30
0
41
1
10
140.017054245738
20
-2.68486253949993
30
0
41
1
10
141.746512236389
20
-3.50440241955061
30
0
41
1
10
142.708117582848
20
-3.93151333333466
30
0
41
1
10
143.674921592759
20
-4.31960560749488
30
0
0
SPLINE
5
C6
100
AcDbEntity
8
1
62
256
6
ByLayer
370
13
48
1
60
0
100
AcDbSpline
70
4
71
3
72
16
73
12
40
0
40
0
40
0
40
0
40
0.157006079178002
40
0.157006079178002
40
0.26238031928075
40
0.26238031928075
40
0.367754559383498
40
0.367754559383498
40
0.578503039588999
40
0.578503039588999
40
1
40
1
40
1
40
1
41
1
10
143.674920664951
20
-4.31960523505649
30
0
41
1
10
144.248831028676
20
-4.54998304796553
30
0
41
1
10
144.824573296742
20
-4.76661147376018
30
0
41
1
10
145.791920888557
20
-5.10214934140652
30
0
41
1
10
146.18274812426
20
-5.23002086608264
30
0
41
1
10
146.960474824465
20
-5.46800917444423
30
0
41
1
10
147.347994837513
20
-5.57835949033441
30
0
41
1
10
148.507741522689
20
-5.88267604271121
30
0
41
1
10
149.277081470194
20
-6.05000508438306
30
0
41
1
10
151.583112317327
20
-6.43971977549748
30
0
41
1
10
153.118018819974
20
-6.55064926287901
30
0
41
1
10
154.674076871021
20
-6.49924760254126
30
0
0
SPLINE
5
C7
100
AcDbEntity
8
1
62
256
6
ByLayer
370
18
48
1
60
0
100
AcDbSpline
70
4
71
3
72
8
73
4
40
0
40
0
40
0
40
0
40
1
40
1
40
1
40
1
41
1
10
6.44238501686587
20
0.729354154556859
30
0
41
1
10
6.32101882710805
20
0.792522643148942
30
0
41
1
10
6.19940784938473
20
0.855749391424894
30
0
41
1
10
6.07755447248306
20
0.918998091994951
30
0
0
SPLINE
5
C8
100
AcDbEntity
8
1
62
256
6
ByLayer
370
18
48
1
60
0
100
AcDbSpline
70
4
71
3
72
16
73
12
40
0
40
0
40
0
40
0
40
0.358424892789212
40
0.358424892789212
40
0.460424014404327
40
0.460424014404327
40
0.562423136019441
40
0.562423136019441
40
0.766421379249669
40
0.766421379249669
40
1
40
1
40
1
40
1
41
1
10
20.5622872312338
20
-0.0054340483922886
30
0
41
1
10
21.9174209710117
20
-0.723823655946433
30
0
41
1
10
23.2714786596546
20
-1.44165597163752
30
0
41
1
10
25.0306911416004
20
-2.32215581735332
30
0
41
1
10
25.4224468654869
20
-2.51496916388811
30
0
41
1
10
26.2020477838039
20
-2.89031740122695
30
0
41
1
10
26.5905797113527
20
-3.0731988047398
30
0
41
1
10
27.7535253608724
20
-3.60571885875345
30
0
41
1
10
28.5252733250799
20
-3.93919493302676
30
0
41
1
10
30.1796370155432
20
-4.59897417113402
30
0
41
1
10
31.0620566989428
20
-4.91722021871112
30
0
41
1
10
31.9484065404508
20
-5.19516930763817
30
0
0
SPLINE
5
C9
100
AcDbEntity
8
1
62
256
6
ByLayer
370
13
48
1
60
0
100
AcDbSpline
70
4
71
3
72
18
73
14
40
0
40
0
40
0
40
0
40
0.208180728544329
40
0.208180728544329
40
0.329924285959516
40
0.329924285959516
40
0.451667843374703
40
0.451667843374703
40
0.695154958205078
40
0.695154958205078
40
0.938642073035452
40
0.938642073035452
40
1
40
1
40
1
40
1
41
1
10
31.9484065404133
20
-5.19516930762643
30
0
41
1
10
32.6102618383622
20
-5.40271949656116
30
0
41
1
10
33.274308557107
20
-5.58780046396353
30
0
41
1
10
34.333203082603
20
-5.84131528471019
30
0
41
1
10
34.7236505129521
20
-5.92578443120789
30
0
41
1
10
35.5012077396815
20
-6.07557163796474
30
0
41
1
10
35.8888630902583
20
-6.14103923410076
30
0
41
1
10
37.0495710240479
20
-6.30873029209869
30
0
41
1
10
37.8205789470978
20
-6.3822181471995
30
0
41
1
10
39.3625324380692
20
-6.45142504239402
30
0
41
1
10
40.1337856696404
20
-6.44714494492305
30
0
41
1
10
41.1031143151987
20
-6.39249337502784
30
0
41
1
10
41.2984177435578
20
-6.37899199643456
30
0
41
1
10
41.4939821904395
20
-6.36299211299982
30
0
0
SPLINE
5
CA
100
AcDbEntity
8
1
62
256
6
ByLayer
370
18
48
1
60
0
100
AcDbSpline
70
4
71
3
72
16
73
12
40
0
40
0
40
0
40
0
40
0.201174805694642
40
0.201174805694642
40
0.306062593077725
40
0.306062593077725
40
0.410950380460808
40
0.410950380460808
40
0.620725955226981
40
0.620725955226981
40
1
40
1
40
1
40
1
41
1
10
96.8040400524521
20
-0.0227102224365012
30
0
41
1
10
97.5425368173284
20
-0.417017539667199
30
0
41
1
10
98.2809977185987
20
-0.81126901640593
30
0
41
1
10
99.4085550711336
20
-1.40307190234452
30
0
41
1
10
99.7957073600231
20
-1.60443650284881
30
0
41
1
10
100.572247091079
20
-2.00281878487127
30
0
41
1
10
100.9622203557
20
-2.20013874978787
30
0
41
1
10
102.132733562561
20
-2.78135973273513
30
0
41
1
10
102.907299757074
20
-3.15126464719049
30
0
41
1
10
105.075390940965
20
-4.12680333119221
30
0
41
1
10
106.46296218152
20
-4.68183169570872
30
0
41
1
10
107.860208031301
20
-5.13793178213379
30
0
0
SPLINE
5
CB
100
AcDbEntity
8
1
62
256
6
ByLayer
370
13
48
1
60
0
100
AcDbSpline
70
4
71
3
72
18
73
14
40
0
40
0
40
0
40
0
40
0.0454655170039236
40
0.0454655170039236
40
0.163864729306399
40
0.163864729306399
40
0.282263941608877
40
0.282263941608877
40
0.519062366213828
40
0.519062366213828
40
0.99265921542374
40
0.99265921542374
40
1
40
1
40
1
40
1
41
1
10
107.86020803098
20
-5.13793178202894
30
0
41
1
10
108.008588913569
20
-5.18636744808288
30
0
41
1
10
108.157078900913
20
-5.23368745714029
30
0
41
1
10
108.692730976101
20
-5.40010356077954
30
0
41
1
10
109.0806457409
20
-5.51257823992339
30
0
41
1
10
109.859138546583
20
-5.72083925045749
30
0
41
1
10
110.250232154041
20
-5.81674047820462
30
0
41
1
10
111.416989210927
20
-6.07551685762616
30
0
41
1
10
112.18985150071
20
-6.21051616922151
30
0
41
1
10
114.502676182986
20
-6.5001576802668
30
0
41
1
10
116.037045354953
20
-6.53928750572462
30
0
41
1
10
117.61242199086
20
-6.4173794037674
30
0
41
1
10
117.636471848504
20
-6.41548043058117
30
0
41
1
10
117.660525922785
20
-6.41354322381707
30
0
0
SPLINE
5
CC
100
AcDbEntity
8
1
62
256
6
ByLayer
370
18
48
1
60
0
100
AcDbSpline
70
4
71
3
72
8
73
4
40
0
40
0
40
0
40
0
40
1
40
1
40
1
40
1
41
1
10
154.674076871027
20
-6.49924760254478
30
0
41
1
10
154.642359928549
20
-6.5795640673428
30
0
41
1
10
154.610619603788
20
-6.65976793510364
30
0
41
1
10
154.578860711083
20
-6.73986180916046
30
0
0
SPLINE
5
CD
100
AcDbEntity
8
1
62
256
6
ByLayer
370
18
48
1
60
0
100
AcDbSpline
70
4
71
3
72
10
73
6
40
0
40
0
40
0
40
0
40
0.5
40
0.5
40
1
40
1
40
1
40
1
41
1
10
156.97542395652
20
-0.158702282376567
30
0
41
1
10
156.977533776339
20
-0.141669124792202
30
0
41
1
10
156.98082714635
20
-0.12290279517859
30
0
41
1
10
156.989142343569
20
-0.0828345603573837
30
0
41
1
10
156.994231659975
20
-0.0613340724840441
30
0
41
1
10
156.999971476667
20
-0.0393296423135894
30
0
0
SPLINE
5
CE
100
AcDbEntity
8
1
62
256
6
ByLayer
370
18
48
1
60
0
100
AcDbSpline
70
4
71
3
72
30
73
26
40
0
40
0
40
0
40
0
40
0.13679575245762
40
0.13679575245762
40
0.341537194904577
40
0.341537194904577
40
0.443907916128054
40
0.443907916128054
40
0.495093276739793
40
0.520685957045663
40
0.52708412712213
40
0.52708412712213
40
0.533482297198598
40
0.533482297198598
40
0.539880467275065
40
0.539880467275065
40
0.546278637351532
40
0.546278637351532
40
0.648649358575011
40
0.648649358575011
40
0.751020079798489
40
0.751020079798489
40
0.955761522245445
40
0.955761522245445
40
1
40
1
40
1
40
1
41
1
10
11.9313692845088
20
3.47385628996963
30
0
41
1
10
11.9313692845088
20
3.14363473577086
30
0
41
1
10
11.9313692845088
20
2.79927845940656
30
0
41
1
10
11.9313692845088
20
1.90586194043851
30
0
41
1
10
11.9313692845088
20
1.34004589701095
30
0
41
1
10
11.9313692845088
20
0.446271508393238
30
0
41
1
10
11.9313692845087
20
0.140421461663607
30
0
41
1
10
11.9313692845087
20
-0.328625620515879
30
0
41
1
10
11.9313692845087
20
-0.564915067015988
30
0
41
1
10
11.9313692845088
20
-0.823726138613324
30
0
41
1
10
11.9313692845087
20
-0.923720210755789
30
0
41
1
10
11.9313692845087
20
-0.963753904132318
30
0
41
1
10
11.9313692845087
20
-0.983593447119603
30
0
41
1
10
11.9313692845087
20
-1.02516785274929
30
0
41
1
10
11.9313692845102
20
-1.046710392481
30
0
41
1
10
11.9313692845102
20
-1.09163130597662
30
0
41
1
10
11.9313692845088
20
-1.11535878323548
30
0
41
1
10
11.9313692845088
20
-1.51513960870375
30
0
41
1
10
11.9313692845087
20
-1.89570936609718
30
0
41
1
10
11.9313692845087
20
-2.66612317540429
30
0
41
1
10
11.9313692845087
20
-3.05340236477858
30
0
41
1
10
11.9313692845087
20
-4.22123904661564
30
0
41
1
10
11.9313692845088
20
-5.00796254936697
30
0
41
1
10
11.9313692845088
20
-5.97616965577987
30
0
41
1
10
11.9313692845088
20
-6.14877833695363
30
0
41
1
10
11.9313692845088
20
-6.32160418085724
30
0
0
SPLINE
5
CF
100
AcDbEntity
8
1
62
256
6
ByLayer
370
18
48
1
60
0
100
AcDbSpline
70
4
71
3
72
14
73
10
40
0
40
0
40
0
40
0
40
0.249999999999972
40
0.249999999999972
40
0.374999999999976
40
0.374999999999976
40
0.499999999999981
40
0.499999999999981
40
1
40
1
40
1
40
1
41
1
10
154.608254026846
20
1.65717754850033
30
0
41
1
10
154.78816153103
20
1.6540583483559
30
0
41
1
10
154.968056764634
20
1.65105205723492
30
0
41
1
10
155.237844152705
20
1.64705296300093
30
0
41
1
10
155.327778317259
20
1.64573916230077
30
0
41
1
10
155.507509285278
20
1.64383026426464
30
0
41
1
10
155.59730136258
20
1.64327106975486
30
0
41
1
10
156.046298593936
20
1.64027670807957
30
0
41
1
10
156.405427891047
20
1.63824998858871
30
0
41
1
10
156.764040576822
20
1.63900493530318
30
0
0
SPLINE
5
D0
100
AcDbEntity
8
1
62
256
6
ByLayer
370
18
48
1
60
0
100
AcDbSpline
70
4
71
3
72
8
73
4
40
0
40
0
40
0
40
0
40
1
40
1
40
1
40
1
41
1
10
156.801480910867
20
-0.358984571624688
30
0
41
1
10
156.067922553107
20
-2.37441959542892
30
0
41
1
10
155.334364195347
20
-4.38985461923284
30
0
41
1
10
154.600805837587
20
-6.40528964303689
30
0
0
SPLINE
5
D1
100
AcDbEntity
8
1
62
256
6
ByLayer
370
18
48
1
60
0
100
AcDbSpline
70
4
71
3
72
64
73
60
40
0
40
0
40
0
40
0
40
0.0434782608695641
40
0.0434782608695641
40
0.0652173913043464
40
0.0652173913043464
40
0.0869565217391287
40
0.0869565217391287
40
0.130434782608693
40
0.130434782608693
40
0.173913043478258
40
0.173913043478258
40
0.217391304347822
40
0.217391304347822
40
0.239130434782605
40
0.239130434782605
40
0.260869565217388
40
0.260869565217388
40
0.304347826086953
40
0.304347826086953
40
0.347826086956518
40
0.347826086956518
40
0.369565217391301
40
0.369565217391301
40
0.391304347826083
40
0.391304347826083
40
0.434782608695648
40
0.434782608695648
40
0.478260869565212
40
0.478260869565212
40
0.499999999999994
40
0.499999999999994
40
0.521739130434777
40
0.521739130434777
40
0.565217391304341
40
0.565217391304341
40
0.608695652173905
40
0.608695652173905
40
0.652173913043469
40
0.652173913043469
40
0.673913043478252
40
0.673913043478252
40
0.695652173913034
40
0.695652173913034
40
0.739130434782601
40
0.739130434782601
40
0.782608695652167
40
0.782608695652167
40
0.826086956521734
40
0.826086956521734
40
0.8695652173913
40
0.8695652173913
40
0.913043478260867
40
0.913043478260867
40
0.93478260869565
40
0.93478260869565
40
0.956521739130433
40
0.956521739130433
40
1
40
1
40
1
40
1
41
1
10
11.9313692845088
20
3.47385628996963
30
0
41
1
10
12.3055061451578
20
3.29696380785143
30
0
41
1
10
12.6789054831628
20
3.11678903811904
30
0
41
1
10
13.2382505944821
20
2.84235879147954
30
0
41
1
10
13.4245193394237
20
2.7500950286088
30
0
41
1
10
13.7963295273586
20
2.56335765066356
30
0
41
1
10
13.981572566817
20
2.46835862192918
30
0
41
1
10
14.5375216666682
20
2.1823254701728
30
0
41
1
10
14.9082752663215
20
1.98998225081866
30
0
41
1
10
15.6482263543369
20
1.59884770955608
30
0
41
1
10
16.0174702477602
20
1.40011556065912
30
0
41
1
10
16.7569541853766
20
1.00078162093175
30
0
41
1
10
17.127355733703
20
0.800500620292951
30
0
41
1
10
17.6823722689118
20
0.496225338808585
30
0
41
1
10
17.8672090839275
20
0.394018370654948
30
0
41
1
10
18.2378006335312
20
0.190386427604636
30
0
41
1
10
18.4233849018597
20
0.088645106710743
30
0
41
1
10
18.9808255599
20
-0.216684271554101
30
0
41
1
10
19.3528008566065
20
-0.421463972359163
30
0
41
1
10
20.0990426452842
20
-0.830529459509137
30
0
41
1
10
20.4743669768586
20
-1.03445260601615
30
0
41
1
10
21.0363185118545
20
-1.33715327386906
30
0
41
1
10
21.2234243659597
20
-1.43767313652
30
0
41
1
10
21.596843650927
20
-1.63859315535561
30
0
41
1
10
21.7836338022402
20
-1.73813972467934
30
0
41
1
10
22.3441952767014
20
-2.03416893385793
30
0
41
1
10
22.718046632456
20
-2.22825047769823
30
0
41
1
10
23.464937197461
20
-2.61173665906955
30
0
41
1
10
23.8385583800047
20
-2.80012457280517
30
0
41
1
10
24.4004023440192
20
-3.0757670885335
30
0
41
1
10
24.5879621019335
20
-3.16663187549014
30
0
41
1
10
24.9627990981959
20
-3.34626767352643
30
0
41
1
10
25.1496419905481
20
-3.43550250684075
30
0
41
1
10
25.7104166933151
20
-3.69829252873569
30
0
41
1
10
26.0845992750291
20
-3.86701568289524
30
0
41
1
10
26.8317686919964
20
-4.19447912241324
30
0
41
1
10
27.2047999674355
20
-4.35307719367452
30
0
41
1
10
27.9523035903042
20
-4.6564120059717
30
0
41
1
10
28.3269819489838
20
-4.80095969719227
30
0
41
1
10
28.8885180317971
20
-5.00939102727401
30
0
41
1
10
29.0755844286556
20
-5.07736010004362
30
0
41
1
10
29.4493223515214
20
-5.20857933957279
30
0
41
1
10
29.6360186081539
20
-5.27207930612977
30
0
41
1
10
30.1953842233227
20
-5.45662190829208
30
0
41
1
10
30.5667721981283
20
-5.57230847644885
30
0
41
1
10
31.3082688174354
20
-5.78715126056562
30
0
41
1
10
31.6787195264101
20
-5.8860217897398
30
0
41
1
10
32.4188972436912
20
-6.06709909118411
30
0
41
1
10
32.7877313587551
20
-6.14993358163849
30
0
41
1
10
33.5269505074916
20
-6.29712203024613
30
0
41
1
10
33.8968990897972
20
-6.36190329168306
30
0
41
1
10
34.6364039763494
20
-6.47429958197858
30
0
41
1
10
35.0065154563498
20
-6.52156182277966
30
0
41
1
10
35.5633580206069
20
-6.57858004613135
30
0
41
1
10
35.7491999108302
20
-6.59530064045998
30
0
41
1
10
36.12118200519
20
-6.62418199088134
30
0
41
1
10
36.3070287434204
20
-6.6364030580649
30
0
41
1
10
36.8658395507378
20
-6.66588376036634
30
0
41
1
10
37.2408961705846
20
-6.67605299528159
30
0
41
1
10
37.6153275024612
20
-6.67672731903266
30
0
0
SPLINE
5
D2
100
AcDbEntity
8
1
62
256
6
ByLayer
370
18
48
1
60
0
100
AcDbSpline
70
4
71
3
72
128
73
124
40
0
40
0
40
0
40
0
40
0.0104936434164455
40
0.0104936434164455
40
0.0323553898258764
40
0.0323553898258764
40
0.054217136235307
40
0.054217136235307
40
0.0651480094400222
40
0.0651480094400222
40
0.0760788826447373
40
0.0760788826447373
40
0.0979406290541681
40
0.0979406290541681
40
0.119802375463599
40
0.119802375463599
40
0.130733248668314
40
0.130733248668314
40
0.14166412187303
40
0.14166412187303
40
0.16352586828246
40
0.16352586828246
40
0.18538761469189
40
0.18538761469189
40
0.20724936110132
40
0.20724936110132
40
0.218180234306035
40
0.218180234306035
40
0.22911110751075
40
0.22911110751075
40
0.240041980715465
40
0.240041980715465
40
0.25097285392018
40
0.25097285392018
40
0.27283460032961
40
0.27283460032961
40
0.283765473534326
40
0.283765473534326
40
0.294696346739041
40
0.294696346739041
40
0.316558093148472
40
0.316558093148472
40
0.338419839557903
40
0.338419839557903
40
0.349350712762619
40
0.349350712762619
40
0.360281585967335
40
0.360281585967335
40
0.382143332376767
40
0.382143332376767
40
0.404005078786199
40
0.404005078786199
40
0.425866825195631
40
0.425866825195631
40
0.436797698400347
40
0.436797698400347
40
0.447728571605064
40
0.447728571605064
40
0.469590318014496
40
0.469590318014496
40
0.491452064423928
40
0.491452064423928
40
0.502382937628644
40
0.502382937628644
40
0.51331381083336
40
0.51331381083336
40
0.535175557242792
40
0.535175557242792
40
0.557037303652224
40
0.557037303652224
40
0.567968176856941
40
0.567968176856941
40
0.578899050061658
40
0.578899050061658
40
0.600760796471091
40
0.600760796471091
40
0.622622542880524
40
0.622622542880524
40
0.644484289289958
40
0.644484289289958
40
0.655415162494674
40
0.655415162494674
40
0.66634603569939
40
0.66634603569939
40
0.688207782108823
40
0.688207782108823
40
0.710069528518256
40
0.710069528518256
40
0.721000401722972
40
0.721000401722972
40
0.731931274927688
40
0.731931274927688
40
0.75379302133712
40
0.75379302133712
40
0.775654767746552
40
0.775654767746552
40
0.786585640951269
40
0.786585640951269
40
0.797516514155986
40
0.797516514155986
40
0.819378260565419
40
0.819378260565419
40
0.841240006974852
40
0.841240006974852
40
0.863101753384286
40
0.863101753384286
40
0.874032626589001
40
0.874032626589001
40
0.884963499793718
40
0.884963499793718
40
0.906825246203149
40
0.906825246203149
40
0.928686992612582
40
0.928686992612582
40
0.939617865817298
40
0.939617865817298
40
0.950548739022015
40
0.950548739022015
40
0.972410485431449
40
0.972410485431449
40
0.994272231840884
40
0.994272231840884
40
1
40
1
40
1
40
1
41
1
10
62.8028634115076
20
3.229191551242
30
0
41
1
10
62.982394947166
20
3.3160760695225
30
0
41
1
10
63.1617422725757
20
3.40154153459869
30
0
41
1
10
63.7140100327201
20
3.66103968258733
30
0
41
1
10
64.0855836430314
20
3.8316213370353
30
0
41
1
10
64.8271755758909
20
4.16079335188044
30
0
41
1
10
65.1975659446016
20
4.31885727922588
30
0
41
1
10
65.7525206015878
20
4.54641641185034
30
0
41
1
10
65.9373539326124
20
4.62074613704041
30
0
41
1
10
66.3062446880125
20
4.76693735167086
30
0
41
1
10
66.4907906192583
20
4.83814869610859
30
0
41
1
10
67.0447181408986
20
5.04623064145446
30
0
41
1
10
67.4143032717884
20
5.17769332194328
30
0
41
1
10
68.1528612138651
20
5.427443444132
30
0
41
1
10
68.5223761713181
20
5.54505732012382
30
0
41
1
10
69.0782171291738
20
5.7093127415182
30
0
41
1
10
69.2637093350797
20
5.76209438838856
30
0
41
1
10
69.6349603006768
20
5.86384545072437
30
0
41
1
10
69.8204571555418
20
5.91304883306665
30
0
41
1
10
70.3779586580889
20
6.05426239334966
30
0
41
1
10
70.7514170116601
20
6.13958008366396
30
0
41
1
10
71.500317332909
20
6.29373162979238
30
0
41
1
10
71.8736069561275
20
6.36211783990669
30
0
41
1
10
72.620327755211
20
6.47997671234657
30
0
41
1
10
72.9939158172619
20
6.52951031273221
30
0
41
1
10
73.5534074344083
20
6.59025860387447
30
0
41
1
10
73.7395364846805
20
6.60829137577392
30
0
41
1
10
74.1125908027455
20
6.63942867996675
30
0
41
1
10
74.2993195511029
20
6.65260914629695
30
0
41
1
10
74.6730823590068
20
6.67425277745468
30
0
41
1
10
74.8600497413725
20
6.68272978943722
30
0
41
1
10
75.2339793619033
20
6.69495922039874
30
0
41
1
10
75.4211517196622
20
6.69869600189156
30
0
41
1
10
75.9814896711452
20
6.70268679895469
30
0
41
1
10
76.354106501808
20
6.69578095699615
30
0
41
1
10
76.9117019292933
20
6.67148253846926
30
0
41
1
10
77.0973307580197
20
6.66106288236961
30
0
41
1
10
77.4674830515982
20
6.63539641528129
30
0
41
1
10
77.6525146985495
20
6.62026072750197
30
0
41
1
10
78.2075679423685
20
6.56810817785853
30
0
41
1
10
78.5774469881078
20
6.52436565718477
30
0
41
1
10
79.3155898997261
20
6.41842404512624
30
0
41
1
10
79.684382491179
20
6.35639963574789
30
0
41
1
10
80.2384211875826
20
6.25062626861805
30
0
41
1
10
80.4231947850464
20
6.21322505516645
30
0
41
1
10
80.7927708623686
20
6.13401622472594
30
0
41
1
10
80.9773388092171
20
6.09202685846404
30
0
41
1
10
81.5315090098829
20
5.95964161044671
30
0
41
1
10
81.9022522687871
20
5.86346731337707
30
0
41
1
10
82.6448214246204
20
5.65397667611467
30
0
41
1
10
83.0164291095274
20
5.540333265188
30
0
41
1
10
83.7629216731468
20
5.29763938509083
30
0
41
1
10
84.1381062582047
20
5.16867775821117
30
0
41
1
10
84.6984571078774
20
4.96425190359008
30
0
41
1
10
84.8846887485873
20
4.89382214159366
30
0
41
1
10
85.2576792835025
20
4.75040081012611
30
0
41
1
10
85.4442490275777
20
4.67718563269224
30
0
41
1
10
86.0040750866671
20
4.45294874366334
30
0
41
1
10
86.3768698787171
20
4.29655644669089
30
0
41
1
10
87.1227525293235
20
3.97137172627782
30
0
41
1
10
87.4963072205545
20
3.80326666017694
30
0
41
1
10
88.0577222482698
20
3.54312083077693
30
0
41
1
10
88.2450409078764
20
3.45512435561903
30
0
41
1
10
88.6183250772905
20
3.27562619989956
30
0
41
1
10
88.8049203643999
20
3.18488375880074
30
0
41
1
10
89.3649046597455
20
2.91026670371224
30
0
41
1
10
89.7383121594789
20
2.72373670020392
30
0
41
1
10
90.4838521411052
20
2.34137722267826
30
0
41
1
10
90.8565248934173
20
2.14642254438542
30
0
41
1
10
91.416737778706
20
1.85067499575646
30
0
41
1
10
91.6036266021346
20
1.75145780594656
30
0
41
1
10
91.9775411656767
20
1.55145497291616
30
0
41
1
10
92.1644862026937
20
1.45013595179293
30
0
41
1
10
92.7247169584575
20
1.14533607056646
30
0
41
1
10
93.097649545065
20
0.942421381661887
30
0
41
1
10
93.8409109019805
20
0.534240644020258
30
0
41
1
10
94.21105148505
20
0.328635840053096
30
0
41
1
10
94.9509510419394
20
-0.0807496695611292
30
0
41
1
10
95.3207927410334
20
-0.284390527307408
30
0
41
1
10
95.8745112168638
20
-0.589923044494213
30
0
41
1
10
96.0585960787698
20
-0.692352918714533
30
0
41
1
10
96.4273804682998
20
-0.895459834697903
30
0
41
1
10
96.6118981113058
20
-0.996473017239026
30
0
41
1
10
97.1657356568419
20
-1.29806942018419
30
0
41
1
10
97.5347976722658
20
-1.49819479079591
30
0
41
1
10
98.2735433679297
20
-1.89481224979406
30
0
41
1
10
98.6436914970858
20
-2.09047176119802
30
0
41
1
10
99.2003345966039
20
-2.37952841131198
30
0
41
1
10
99.3861677505557
20
-2.47505718026523
30
0
41
1
10
99.7575204966494
20
-2.66601514977219
30
0
41
1
10
99.9434438213108
20
-2.7607299841462
30
0
41
1
10
100.50272132703
20
-3.04123731425648
30
0
41
1
10
100.877751675013
20
-3.22416287547
30
0
41
1
10
101.624396213832
20
-3.58137842295213
30
0
41
1
10
101.997068071131
20
-3.75511436101402
30
0
41
1
10
102.556559544456
20
-4.00630030609022
30
0
41
1
10
102.743093292033
20
-4.08853151036521
30
0
41
1
10
103.116068530333
20
-4.25024104709621
30
0
41
1
10
103.302325654193
20
-4.32997656478781
30
0
41
1
10
103.861076275333
20
-4.56481136573996
30
0
41
1
10
104.234640030938
20
-4.71409138070101
30
0
41
1
10
104.982444897273
20
-5.00010289378363
30
0
41
1
10
105.356045342743
20
-5.13701452494772
30
0
41
1
10
106.102397220977
20
-5.39427469177394
30
0
41
1
10
106.475654018639
20
-5.51478161502564
30
0
41
1
10
107.034894390032
20
-5.68424160000413
30
0
41
1
10
107.220846096734
20
-5.7391675039344
30
0
41
1
10
107.593457791929
20
-5.84430798022251
30
0
41
1
10
107.77994841573
20
-5.89469825536099
30
0
41
1
10
108.339886437816
20
-6.0394648786625
30
0
41
1
10
108.713359622505
20
-6.12792181707494
30
0
41
1
10
109.460906173217
20
-6.28751506919286
30
0
41
1
10
109.834319135318
20
-6.3580779692258
30
0
41
1
10
110.394156580583
20
-6.45018257777471
30
0
41
1
10
110.580766528506
20
-6.47858116913167
30
0
41
1
10
110.953061459328
20
-6.53115030949692
30
0
41
1
10
111.139208675481
20
-6.55509133401694
30
0
41
1
10
111.698280398756
20
-6.61970428516941
30
0
41
1
10
112.071570016454
20
-6.65334572078078
30
0
41
1
10
112.817737328059
20
-6.70207706450864
30
0
41
1
10
113.191593817616
20
-6.71696119405303
30
0
41
1
10
113.663286317697
20
-6.72360105403791
30
0
41
1
10
113.761191708956
20
-6.72432489147693
30
0
41
1
10
113.85906411328
20
-6.7243954796117
30
0
0
SPLINE
5
D3
100
AcDbEntity
8
1
62
256
6
ByLayer
370
18
48
1
60
0
100
AcDbSpline
70
4
71
3
72
42
73
38
40
0
40
0
40
0
40
0
40
0.0126920858773626
40
0.0126920858773626
40
0.0832140797432625
40
0.0832140797432625
40
0.118475076676213
40
0.118475076676213
40
0.153736073609163
40
0.153736073609163
40
0.224258067475067
40
0.224258067475067
40
0.294780061340971
40
0.294780061340971
40
0.330041058273924
40
0.330041058273924
40
0.365302055206876
40
0.365302055206876
40
0.43582404907278
40
0.43582404907278
40
0.506346042938684
40
0.506346042938684
40
0.576868036804588
40
0.576868036804588
40
0.647390030670492
40
0.647390030670492
40
0.717912024536394
40
0.717912024536394
40
0.788434018402298
40
0.788434018402298
40
0.823695015335249
40
0.823695015335249
40
0.858956012268199
40
0.858956012268199
40
0.929478006134099
40
0.929478006134099
40
1
40
1
40
1
40
1
41
1
10
139.04242160741
20
3.26142424094755
30
0
41
1
10
139.109543161106
20
3.29414067041549
30
0
41
1
10
139.176651844983
20
3.32668695516008
30
0
41
1
10
139.616561545074
20
3.53884882679844
30
0
41
1
10
139.989457378214
20
3.71299386986814
30
0
41
1
10
140.548293104349
20
3.96674857065847
30
0
41
1
10
140.734116483733
20
4.05061918222194
30
0
41
1
10
141.106405600363
20
4.21464790452035
30
0
41
1
10
141.292742080851
20
4.29500366741746
30
0
41
1
10
141.8522545812
20
4.53123819515963
30
0
41
1
10
142.225768524375
20
4.68312864922748
30
0
41
1
10
142.972271833599
20
4.97370701598658
30
0
41
1
10
143.344445402454
20
5.1112239247598
30
0
41
1
10
143.901479034799
20
5.30575534531789
30
0
41
1
10
144.087001811218
20
5.36859401308297
30
0
41
1
10
144.456873183112
20
5.49121293469557
30
0
41
1
10
144.641520443411
20
5.5506405164879
30
0
41
1
10
145.195725189962
20
5.72216043974791
30
0
41
1
10
145.565153076811
20
5.82799038243016
30
0
41
1
10
146.302243416567
20
6.0243070946498
30
0
41
1
10
146.670342483671
20
6.11431716854531
30
0
41
1
10
147.407649806452
20
6.27657046320587
30
0
41
1
10
147.776813303304
20
6.34895238621149
30
0
41
1
10
148.513979344164
20
6.47726955518124
30
0
41
1
10
148.883820534178
20
6.5321234114958
30
0
41
1
10
149.624928416432
20
6.62389971149926
30
0
41
1
10
149.995710536587
20
6.66092858640621
30
0
41
1
10
150.740298506793
20
6.71597640670166
30
0
41
1
10
151.114832441846
20
6.73403320515416
30
0
41
1
10
151.674026232709
20
6.74678118986773
30
0
41
1
10
151.859812509653
20
6.74865844769283
30
0
41
1
10
152.231386669644
20
6.74760535393898
30
0
41
1
10
152.417153678163
20
6.74469288371333
30
0
41
1
10
152.974335325865
20
6.72891887314927
30
0
41
1
10
153.34522949528
20
6.70898979178972
30
0
41
1
10
154.086054083139
20
6.65023126653631
30
0
41
1
10
154.456539813581
20
6.61153029730491
30
0
41
1
10
154.827484361814
20
6.56374238726528
30
0
0
SPLINE
5
D4
100
AcDbEntity
8
1
62
256
6
ByLayer
370
18
48
1
60
0
100
AcDbSpline
70
4
71
3
72
32
73
28
40
0
40
0
40
0
40
0
40
0.0851062847438864
40
0.0851062847438864
40
0.12765942711583
40
0.12765942711583
40
0.170212569487773
40
0.170212569487773
40
0.340425138975548
40
0.340425138975548
40
0.425531423719436
40
0.425531423719436
40
0.510637708463322
40
0.510637708463322
40
0.595743993207209
40
0.595743993207209
40
0.680850277951095
40
0.680850277951095
40
0.723403420323037
40
0.723403420323037
40
0.765956562694979
40
0.765956562694979
40
0.851062847438863
40
0.851062847438863
40
0.936169132182747
40
0.936169132182747
40
1
40
1
40
1
40
1
41
1
10
11.9313692845088
20
-6.32160418085721
30
0
41
1
10
12.2957520592434
20
-6.32468135698667
30
0
41
1
10
12.6589231129405
20
-6.31956263513581
30
0
41
1
10
13.2014150458537
20
-6.29890078377494
30
0
41
1
10
13.3819010171025
20
-6.28982270167296
30
0
41
1
10
13.7424628204504
20
-6.26735162271424
30
0
41
1
10
13.9227798251127
20
-6.25403981920363
30
0
41
1
10
14.8238739472247
20
-6.17747152035651
30
0
41
1
10
15.54126760503
20
-6.08351308278438
30
0
41
1
10
16.6182280220658
20
-5.89658687602454
30
0
41
1
10
16.9770299414577
20
-5.82733607772792
30
0
41
1
10
17.6945202407386
20
-5.67162610934275
30
0
41
1
10
18.0545075313067
20
-5.58556565686777
30
0
41
1
10
18.7745154480881
20
-5.3985417096055
30
0
41
1
10
19.1349226501773
20
-5.29747946263905
30
0
41
1
10
19.8577648206067
20
-5.08167841927758
30
0
41
1
10
20.2202567261718
20
-4.96705627922506
30
0
41
1
10
20.7652133668945
20
-4.78461706259841
30
0
41
1
10
20.947128861508
20
-4.72200802790593
30
0
41
1
10
21.3103260447608
20
-4.59386251146648
30
0
41
1
10
21.4921702261253
20
-4.52888529908478
30
0
41
1
10
22.0369914486182
20
-4.32901281103193
30
0
41
1
10
22.3994992529213
20
-4.18873819309815
30
0
41
1
10
23.1244956545953
20
-3.89737505754968
30
0
41
1
10
23.4870278612432
20
-3.74641089178533
30
0
41
1
10
24.1220525783548
20
-3.47380359379153
30
0
41
1
10
24.394137807796
20
-3.35384890742051
30
0
41
1
10
24.6664794769273
20
-3.23133663893825
30
0
0
SPLINE
5
D5
100
AcDbEntity
8
1
62
256
6
ByLayer
370
18
48
1
60
0
100
AcDbSpline
70
4
71
3
72
126
73
122
40
0
40
0
40
0
40
0
40
0.0154474039079055
40
0.0154474039079055
40
0.0261453416782712
40
0.0261453416782712
40
0.036843279448637
40
0.036843279448637
40
0.0582391549893686
40
0.0582391549893686
40
0.0796350305301003
40
0.0796350305301003
40
0.0903329683004661
40
0.0903329683004661
40
0.101030906070832
40
0.101030906070832
40
0.122426781611564
40
0.122426781611564
40
0.143822657152296
40
0.143822657152296
40
0.154520594922662
40
0.154520594922662
40
0.165218532693028
40
0.165218532693028
40
0.186614408233761
40
0.186614408233761
40
0.197312346004128
40
0.197312346004128
40
0.208010283774494
40
0.208010283774494
40
0.229406159315227
40
0.229406159315227
40
0.240104097085593
40
0.240104097085593
40
0.25080203485596
40
0.25080203485596
40
0.272197910396694
40
0.272197910396694
40
0.293593785937427
40
0.293593785937427
40
0.314989661478161
40
0.314989661478161
40
0.336385537018894
40
0.336385537018894
40
0.357781412559628
40
0.357781412559628
40
0.379177288100361
40
0.379177288100361
40
0.389875225870728
40
0.389875225870728
40
0.400573163641095
40
0.400573163641095
40
0.421969039181828
40
0.421969039181828
40
0.443364914722562
40
0.443364914722562
40
0.454062852492929
40
0.454062852492929
40
0.464760790263295
40
0.464760790263295
40
0.48615666580403
40
0.48615666580403
40
0.507552541344764
40
0.507552541344764
40
0.528948416885498
40
0.528948416885498
40
0.550344292426232
40
0.550344292426232
40
0.571740167966966
40
0.571740167966966
40
0.593136043507701
40
0.593136043507701
40
0.603833981278068
40
0.603833981278068
40
0.614531919048435
40
0.614531919048435
40
0.635927794589167
40
0.635927794589167
40
0.6573236701299
40
0.6573236701299
40
0.678719545670633
40
0.678719545670633
40
0.689417483441
40
0.689417483441
40
0.700115421211366
40
0.700115421211366
40
0.721511296752099
40
0.721511296752099
40
0.742907172292832
40
0.742907172292832
40
0.753605110063198
40
0.753605110063198
40
0.764303047833564
40
0.764303047833564
40
0.785698923374297
40
0.785698923374297
40
0.80709479891503
40
0.80709479891503
40
0.817792736685397
40
0.817792736685397
40
0.828490674455764
40
0.828490674455764
40
0.849886549996498
40
0.849886549996498
40
0.871282425537232
40
0.871282425537232
40
0.892678301077966
40
0.892678301077966
40
0.903376238848333
40
0.903376238848333
40
0.9140741766187
40
0.9140741766187
40
0.935470052159434
40
0.935470052159434
40
0.956865927700169
40
0.956865927700169
40
0.978261803240903
40
0.978261803240903
40
0.999657678781637
40
0.999657678781637
40
1
40
1
40
1
40
1
41
1
10
50.1638394309286
20
6.34585297395512
30
0
41
1
10
50.4256984661472
20
6.34640524503661
30
0
41
1
10
50.6875873528829
20
6.34257671705092
30
0
41
1
10
51.1309234286231
20
6.32897489081287
30
0
41
1
10
51.3128131385459
20
6.32133114670259
30
0
41
1
10
51.676633823668
20
6.30152458458394
30
0
41
1
10
51.8586626481567
20
6.289368452649
30
0
41
1
10
52.4038266314469
20
6.24652807494186
30
0
41
1
10
52.7666330707885
20
6.20966077597268
30
0
41
1
10
53.4921031214429
20
6.1200969096584
30
0
41
1
10
53.8548341571135
20
6.06710286017122
30
0
41
1
10
54.3985915885132
20
5.97469026146513
30
0
41
1
10
54.5797132889385
20
5.94173107186779
30
0
41
1
10
54.9423566285988
20
5.87214517467703
30
0
41
1
10
55.124076167053
20
5.83571120422471
30
0
41
1
10
55.6689642164402
20
5.72029683290972
30
0
41
1
10
56.0327180265316
20
5.63518984779458
30
0
41
1
10
56.7595007622946
20
5.44963713827724
30
0
41
1
10
57.1224976713334
20
5.3496498996652
30
0
41
1
10
57.6666688594932
20
5.18983178917779
30
0
41
1
10
57.8479500457235
20
5.13472136701407
30
0
41
1
10
58.2103519412954
20
5.02061268116137
30
0
41
1
10
58.3913216734135
20
4.96148526415607
30
0
41
1
10
58.9354032728202
20
4.78045682611932
30
0
41
1
10
59.2984324064468
20
4.6534835978978
30
0
41
1
10
59.8428653778699
20
4.4537098377447
30
0
41
1
10
60.0244156533271
20
4.38558530852299
30
0
41
1
10
60.3879422877399
20
4.24594689347035
30
0
41
1
10
60.5698853118
20
4.17446691590771
30
0
41
1
10
61.1144553903141
20
3.95661839927416
30
0
41
1
10
61.4765204901757
20
3.8065745133334
30
0
41
1
10
62.0178748894757
20
3.57443153465999
30
0
41
1
10
62.1979633363787
20
3.49574973550369
30
0
41
1
10
62.5585267426284
20
3.33725983341282
30
0
41
1
10
62.7386206606039
20
3.25679350260654
30
0
41
1
10
63.2783390774252
20
3.01208221277719
30
0
41
1
10
63.6373623880117
20
2.84450154150304
30
0
41
1
10
64.3552369144743
20
2.50352468768747
30
0
41
1
10
64.7140687504435
20
2.33013861103873
30
0
41
1
10
65.4318311763737
20
1.97637801549695
30
0
41
1
10
65.7901805730501
20
1.79539289138702
30
0
41
1
10
66.5092606600366
20
1.43226460244588
30
0
41
1
10
66.8688834826532
20
1.24817196770846
30
0
41
1
10
67.5893778102921
20
0.875415228802552
30
0
41
1
10
67.9504326443729
20
0.687285287080215
30
0
41
1
10
68.6746642610933
20
0.309303615451427
30
0
41
1
10
69.0382294637368
20
0.11889513883537
30
0
41
1
10
69.582958484288
20
-0.167650141688881
30
0
41
1
10
69.7644289613507
20
-0.262947692653995
30
0
41
1
10
70.1275881949232
20
-0.452385067203721
30
0
41
1
10
70.3090344291954
20
-0.546993404670104
30
0
41
1
10
70.8529995148239
20
-0.830474910804639
30
0
41
1
10
71.2151140666119
20
-1.0191272354956
30
0
41
1
10
71.9397583476094
20
-1.39265836101851
30
0
41
1
10
72.3024103854377
20
-1.57716788890323
30
0
41
1
10
72.8465932065761
20
-1.8514133573747
30
0
41
1
10
73.0280107291628
20
-1.94242515747723
30
0
41
1
10
73.3909342764375
20
-2.12358434533994
30
0
41
1
10
73.5728704299866
20
-2.21332168666666
30
0
41
1
10
74.1179881113951
20
-2.47953462885462
30
0
41
1
10
74.4798475253667
20
-2.65331311215118
30
0
41
1
10
75.2017642823692
20
-2.99290115996161
30
0
41
1
10
75.561929684202
20
-3.15865369296449
30
0
41
1
10
76.281312597648
20
-3.48080534879657
30
0
41
1
10
76.6402969152092
20
-3.6370612556573
30
0
41
1
10
77.3570679488378
20
-3.94039703958026
30
0
41
1
10
77.7160933040483
20
-4.08572213164356
30
0
41
1
10
78.4328887053904
20
-4.36801376763177
30
0
41
1
10
78.7911800528464
20
-4.50315527570558
30
0
41
1
10
79.5087665559064
20
-4.76097294915385
30
0
41
1
10
79.8681002920172
20
-4.88379940646973
30
0
41
1
10
80.4074006141592
20
-5.06009326474128
30
0
41
1
10
80.587249852023
20
-5.11724825624489
30
0
41
1
10
80.9473192498115
20
-5.22802057882814
30
0
41
1
10
81.1279326277086
20
-5.28124380611303
30
0
41
1
10
81.670101000843
20
-5.43616071778601
30
0
41
1
10
82.0322389420501
20
-5.53272208741595
30
0
41
1
10
82.7587048939242
20
-5.71288732121693
30
0
41
1
10
83.1216163814248
20
-5.79497457174554
30
0
41
1
10
83.8467064646387
20
-5.94236172511205
30
0
41
1
10
84.2085773951729
20
-6.00787965145739
30
0
41
1
10
84.7514128146018
20
-6.09557857070925
30
0
41
1
10
84.9326952865338
20
-6.12274344774076
30
0
41
1
10
85.2949854593644
20
-6.17266875036805
30
0
41
1
10
85.476124366591
20
-6.19543217593306
30
0
41
1
10
86.0195877005887
20
-6.25749419264372
30
0
41
1
10
86.3821568641937
20
-6.29037736339899
30
0
41
1
10
87.1086927134656
20
-6.34018640251711
30
0
41
1
10
87.4713834901159
20
-6.35675964028601
30
0
41
1
10
88.0130359694917
20
-6.36807786021393
30
0
41
1
10
88.1931353189174
20
-6.36968413033594
30
0
41
1
10
88.5535796470908
20
-6.36878957544397
30
0
41
1
10
88.7337667564639
20
-6.36632536432938
30
0
41
1
10
89.2734692526433
20
-6.35289335384687
30
0
41
1
10
89.6323104612397
20
-6.3358513305553
30
0
41
1
10
90.3495233005041
20
-6.28420523805124
30
0
41
1
10
90.7079290148981
20
-6.24981182019695
30
0
41
1
10
91.2454581910351
20
-6.18637551765235
30
0
41
1
10
91.4245635091107
20
-6.16332423165539
30
0
41
1
10
91.7826592140639
20
-6.11340107691351
30
0
41
1
10
91.9615144766377
20
-6.08633465575377
30
0
41
1
10
92.4994459259788
20
-5.99925357427318
30
0
41
1
10
92.8584373886011
20
-5.93281583298921
30
0
41
1
10
93.5768658296857
20
-5.78416344076882
30
0
41
1
10
93.9365489823856
20
-5.70260100282908
30
0
41
1
10
94.6579387052857
20
-5.52392867693268
30
0
41
1
10
95.0197190319444
20
-5.42653332611229
30
0
41
1
10
95.5635579515903
20
-5.26887876584718
30
0
41
1
10
95.7450436674304
20
-5.21429132350053
30
0
41
1
10
96.108238885268
20
-5.10280407977638
30
0
41
1
10
96.289689465666
20
-5.0454443040299
30
0
41
1
10
96.8335513947716
20
-4.8680667387485
30
0
41
1
10
97.1954433540465
20
-4.74248080454086
30
0
41
1
10
97.9194002899253
20
-4.47981779244444
30
0
41
1
10
98.2814600672559
20
-4.34298617940135
30
0
41
1
10
99.0058037424701
20
-4.05710105418407
30
0
41
1
10
99.3676589779438
20
-3.90714330269142
30
0
41
1
10
100.094161490282
20
-3.59923493147826
30
0
41
1
10
100.457494044793
20
-3.43999593981289
30
0
41
1
10
100.825696695106
20
-3.27386690604919
30
0
41
1
10
100.831494859744
20
-3.27124970654708
30
0
41
1
10
100.837292937025
20
-3.26863142010811
30
0
0
SPLINE
5
D6
100
AcDbEntity
8
1
62
256
6
ByLayer
370
18
48
1
60
0
100
AcDbSpline
70
4
71
3
72
60
73
56
40
0
40
0
40
0
40
0
40
0.0192533138817376
40
0.0192533138817376
40
0.0638327087052934
40
0.0638327087052934
40
0.108412103528849
40
0.108412103528849
40
0.130701800940627
40
0.130701800940627
40
0.152991498352406
40
0.152991498352406
40
0.197570893175961
40
0.197570893175961
40
0.242150287999517
40
0.242150287999517
40
0.286729682823073
40
0.286729682823073
40
0.331309077646629
40
0.331309077646629
40
0.375888472470185
40
0.375888472470185
40
0.42046786729374
40
0.42046786729374
40
0.465047262117296
40
0.465047262117296
40
0.509626656940853
40
0.509626656940853
40
0.554206051764409
40
0.554206051764409
40
0.576495749176187
40
0.576495749176187
40
0.598785446587967
40
0.598785446587967
40
0.643364841411525
40
0.643364841411525
40
0.687944236235083
40
0.687944236235083
40
0.732523631058642
40
0.732523631058642
40
0.754813328470421
40
0.754813328470421
40
0.7771030258822
40
0.7771030258822
40
0.821682420705758
40
0.821682420705758
40
0.866261815529317
40
0.866261815529317
40
0.888551512941098
40
0.888551512941098
40
0.910841210352878
40
0.910841210352878
40
0.955420605176439
40
0.955420605176439
40
1
40
1
40
1
40
1
41
1
10
126.384351728011
20
6.39328524905372
30
0
41
1
10
126.54120135209
20
6.39343950613193
30
0
41
1
10
126.697977382506
20
6.39195864101222
30
0
41
1
10
127.217109047211
20
6.38185171115654
30
0
41
1
10
127.579263487041
20
6.36699612981451
30
0
41
1
10
128.303593378368
20
6.32020805897287
30
0
41
1
10
128.665710499676
20
6.28771046147668
30
0
41
1
10
129.208643190461
20
6.2260802997443
30
0
41
1
10
129.389696524909
20
6.20349377071986
30
0
41
1
10
129.752392126183
20
6.15479075390576
30
0
41
1
10
129.933778434416
20
6.12850528222469
30
0
41
1
10
130.478148418481
20
6.04317901643859
30
0
41
1
10
130.841405934152
20
5.97728305620532
30
0
41
1
10
131.566569919067
20
5.82978586692695
30
0
41
1
10
131.928958607169
20
5.74882378383532
30
0
41
1
10
132.653006346473
20
5.57199967906709
30
0
41
1
10
133.01449373403
20
5.47529884403048
30
0
41
1
10
133.739304260108
20
5.26785857430491
30
0
41
1
10
134.101659457653
20
5.15684378588173
30
0
41
1
10
134.82713238248
20
4.92167147121177
30
0
41
1
10
135.190501793992
20
4.79684924291595
30
0
41
1
10
135.915801131756
20
4.5353668173554
30
0
41
1
10
136.277940156031
20
4.39838059960164
30
0
41
1
10
137.001259276338
20
4.11299969069825
30
0
41
1
10
137.363759894225
20
3.96575902129811
30
0
41
1
10
138.087977671331
20
3.65872302907158
30
0
41
1
10
138.450182565057
20
3.49966579223684
30
0
41
1
10
139.175794173439
20
3.17337318613363
30
0
41
1
10
139.53930025139
20
3.00576522533117
30
0
41
1
10
140.081561255571
20
2.74886456462389
30
0
41
1
10
140.261944970003
20
2.66220598902183
30
0
41
1
10
140.622348596013
20
2.48755564425249
30
0
41
1
10
140.80271055983
20
2.40019015353752
30
0
41
1
10
141.342751734467
20
2.13515711243326
30
0
41
1
10
141.701747724664
20
1.95518672570498
30
0
41
1
10
142.419008813063
20
1.5911690176344
30
0
41
1
10
142.777316669326
20
1.40723718558837
30
0
41
1
10
143.493814473834
20
1.03656158898107
30
0
41
1
10
143.851550585756
20
0.848920503785763
30
0
41
1
10
144.388630222029
20
0.566331173661979
30
0
41
1
10
144.568043525961
20
0.472548400593752
30
0
41
1
10
144.926677128125
20
0.283962032013363
30
0
41
1
10
145.106024337997
20
0.189404856491308
30
0
41
1
10
145.64422908401
20
-0.0949329180293716
30
0
41
1
10
146.003427790645
20
-0.285044460955163
30
0
41
1
10
146.723758301849
20
-0.664264144030682
30
0
41
1
10
147.084935393614
20
-0.853257339455411
30
0
41
1
10
147.62776983053
20
-1.13666326228844
30
0
41
1
10
147.808845606207
20
-1.23137775997938
30
0
41
1
10
148.171904721254
20
-1.41900863663557
30
0
41
1
10
148.353500205132
20
-1.51191890638233
30
0
41
1
10
148.897534090032
20
-1.78967976668568
30
0
41
1
10
149.259494643623
20
-1.97301840585993
30
0
41
1
10
149.983404226475
20
-2.33383991811121
30
0
41
1
10
150.345344306445
20
-2.51138970397142
30
0
41
1
10
150.707556912923
20
-2.68494267370815
30
0
0
SPLINE
5
D7
100
AcDbEntity
8
1
62
256
6
ByLayer
370
18
48
1
60
0
100
AcDbSpline
70
4
71
3
72
8
73
4
40
0
40
0
40
0
40
0
40
1
40
1
40
1
40
1
41
1
10
156.999971476667
20
0.0393296423133336
30
0
41
1
10
157.000009507764
20
0.0131098883529432
30
0
41
1
10
157.000009507765
20
-0.0131098883530569
30
0
41
1
10
156.999971476667
20
-0.0393296423134473
30
0
0
SPLINE
5
D8
100
AcDbEntity
8
1
62
256
6
ByLayer
370
18
48
1
60
0
100
AcDbSpline
70
4
71
3
72
14
73
10
40
0
40
0
40
0
40
0
40
0.25
40
0.25
40
0.5
40
0.5
40
0.75
40
0.75
40
1
40
1
40
1
40
1
41
1
10
6.07755447248306
20
0.918998091994951
30
0
41
1
10
6.04627931903241
20
0.935231641414561
30
0
41
1
10
6.0158439258617
20
0.951857267565259
30
0
41
1
10
5.95682157426148
20
0.986121395806606
30
0
41
1
10
5.92990967578299
20
1.00278738178142
30
0
41
1
10
5.8820418613879
20
1.03510839670227
30
0
41
1
10
5.86253218365977
20
1.04980666371236
30
0
41
1
10
5.83468930195292
20
1.07494989007981
30
0
41
1
10
5.8272042770613
20
1.08468470786696
30
0
41
1
10
5.82720427706127
20
1.09057205301698
30
0
0
SPLINE
5
D9
100
AcDbEntity
8
1
62
256
6
ByLayer
370
13
48
1
60
0
100
AcDbSpline
70
4
71
3
72
47
73
43
40
0
40
0
40
0
40
0
40
0.0170634074890917
40
0.0170634074890917
40
0.0926739146053154
40
0.0926739146053154
40
0.130479168163427
40
0.130479168163427
40
0.168284421721539
40
0.168284421721539
40
0.243894928837763
40
0.243894928837763
40
0.319505435953986
40
0.319505435953986
40
0.39511594307021
40
0.39511594307021
40
0.432921196628322
40
0.432921196628322
40
0.470726450186434
40
0.470726450186434
40
0.546336957302657
40
0.546336957302657
40
0.584142210860769
40
0.584142210860769
40
0.621947464418881
40
0.621947464418881
40
0.697557971535105
40
0.697557971535105
40
0.773168478651329
40
0.773168478651329
40
0.810973732209441
40
0.810973732209441
40
0.848778985767552
40
0.848778985767552
40
0.924389492883776
40
0.924389492883776
40
0.962194746441888
40
0.962194746441888
40
0.981097373220944
40
0.990548686610472
40
0.990548686610472
40
1
40
1
40
1
40
1
41
1
10
6.0773670516069
20
-6.31953188287437
30
0
41
1
10
6.07736504145825
20
-6.31946778065461
30
0
41
1
10
6.07736301951215
20
-6.31850154809385
30
0
41
1
10
6.07735201824005
20
-6.30839649323451
30
0
41
1
10
6.07734297470364
20
-6.28264539203383
30
0
41
1
10
6.07733027545603
20
-6.21776751156071
30
0
41
1
10
6.07732618562403
20
-6.19175287962753
30
0
41
1
10
6.07731844481765
20
-6.13077994620213
30
0
41
1
10
6.07731478267732
20
-6.09566487919821
30
0
41
1
10
6.07730479621614
20
-5.97800582038678
30
0
41
1
10
6.07729945233194
20
-5.88320934030745
30
0
41
1
10
6.07729212798552
20
-5.6618910421011
30
0
41
1
10
6.07729014563819
20
-5.53536775326276
30
0
41
1
10
6.07729010724961
20
-5.2499603216142
30
0
41
1
10
6.07729208012276
20
-5.09057943807454
30
0
41
1
10
6.07729812732575
20
-4.83097030008733
30
0
41
1
10
6.07730065758955
20
-4.74081264093829
30
0
41
1
10
6.07730666235386
20
-4.55512075056242
30
0
41
1
10
6.07731014082992
20
-4.45938322359828
30
0
41
1
10
6.07732191570705
20
-4.1636533919
30
0
41
1
10
6.07733155706131
20
-3.95517871618421
30
0
41
1
10
6.07734826107418
20
-3.62546400350885
30
0
41
1
10
6.07735420144866
20
-3.51271660790266
30
0
41
1
10
6.07736673444271
20
-3.28142453767237
30
0
41
1
10
6.07737335070541
20
-3.16247151456776
30
0
41
1
10
6.07739373856325
20
-2.80149318356698
30
0
41
1
10
6.07740809728404
20
-2.55445761914095
30
0
41
1
10
6.07743714626366
20
-2.04798634966906
30
0
41
1
10
6.07745183998082
20
-1.7885502332397
30
0
41
1
10
6.07747312055045
20
-1.38989519238362
30
0
41
1
10
6.07748010882983
20
-1.25495163095951
30
0
41
1
10
6.0774935181916
20
-0.984208896036648
30
0
41
1
10
6.07749992516366
20
-0.84872830795922
30
0
41
1
10
6.07751800407164
20
-0.441966594657316
30
0
41
1
10
6.07752853742593
20
-0.170366819948015
30
0
41
1
10
6.07754102807587
20
0.237664784141003
30
0
41
1
10
6.07754463938852
20
0.373780970853204
30
0
41
1
10
6.07754908928621
20
0.578115982294747
30
0
41
1
10
6.07755107233294
20
0.680323702647769
30
0
41
1
10
6.07755266507866
20
0.782592467010431
30
0
41
1
10
6.07755363700724
20
0.850785310678248
30
0
41
1
10
6.07755408182845
20
0.885238045435329
30
0
41
1
10
6.07755447248306
20
0.918998091994951
30
0
0
SPLINE
5
DA
100
AcDbEntity
8
1
62
256
6
ByLayer
370
18
48
1
60
0
100
AcDbSpline
70
4
71
3
72
8
73
4
40
0
40
0
40
0
40
0
40
1
40
1
40
1
40
1
41
1
10
6.17239475853904
20
0.916158707164811
30
0
41
1
10
6.26128384769353
20
0.8519667620657
30
0
41
1
10
6.35125974156688
20
0.789687363292586
30
0
41
1
10
6.44238501686584
20
0.729354154556887
30
0
0
SPLINE
5
DB
100
AcDbEntity
8
1
62
256
6
ByLayer
370
18
48
1
60
0
100
AcDbSpline
70
4
71
3
72
8
73
4
40
0
40
0
40
0
40
0
40
1
40
1
40
1
40
1
41
1
10
154.578860711083
20
6.73986180916049
30
0
41
1
10
154.358320417923
20
6.74640501680474
30
0
41
1
10
154.137590126944
20
6.74959199271441
30
0
41
1
10
153.916856315147
20
6.74942702703765
30
0
0
SPLINE
5
DC
100
AcDbEntity
8
1
62
256
6
ByLayer
370
18
48
1
60
0
100
AcDbSpline
70
4
71
3
72
62
73
58
40
0
40
0
40
0
40
0
40
0.0495032979004541
40
0.0495032979004541
40
0.105000274347125
40
0.105000274347125
40
0.160497250793795
40
0.160497250793795
40
0.18824573901713
40
0.18824573901713
40
0.215994227240466
40
0.215994227240466
40
0.271491203687136
40
0.271491203687136
40
0.299239691910471
40
0.299239691910471
40
0.326988180133805
40
0.326988180133805
40
0.35473666835714
40
0.35473666835714
40
0.382485156580474
40
0.382485156580474
40
0.437982133027143
40
0.437982133027143
40
0.465730621250478
40
0.465730621250478
40
0.493479109473814
40
0.493479109473814
40
0.548976085920484
40
0.548976085920484
40
0.57672457414382
40
0.57672457414382
40
0.604473062367157
40
0.604473062367157
40
0.659970038813829
40
0.659970038813829
40
0.687718527037165
40
0.687718527037165
40
0.715467015260501
40
0.715467015260501
40
0.770963991707173
40
0.770963991707173
40
0.798712479930509
40
0.798712479930509
40
0.826460968153845
40
0.826460968153845
40
0.854209456377181
40
0.854209456377181
40
0.881957944600517
40
0.881957944600517
40
0.937454921047189
40
0.937454921047189
40
0.965203409270526
40
0.965203409270526
40
0.992951897493862
40
0.992951897493862
40
1
40
1
40
1
40
1
41
1
10
119.518799761061
20
-6.41651664758146
30
0
41
1
10
118.828642293327
20
-6.53123443769002
30
0
41
1
10
118.139764159564
20
-6.61453215180381
30
0
41
1
10
116.67641774445
20
-6.72275008429955
30
0
41
1
10
115.900150758058
20
-6.73916587204019
30
0
41
1
10
114.353135841954
20
-6.68961344998937
30
0
41
1
10
113.580928130395
20
-6.62391995495003
30
0
41
1
10
112.419637903619
20
-6.46522822296782
30
0
41
1
10
112.031539483041
20
-6.40222083211489
30
0
41
1
10
111.256900773567
20
-6.25705218764338
30
0
41
1
10
110.870175908941
20
-6.17488500618961
30
0
41
1
10
109.710394782833
20
-5.90076424987208
30
0
41
1
10
108.93782835998
20
-5.68112673251807
30
0
41
1
10
107.775009646376
20
-5.30044040282218
30
0
41
1
10
107.387265646713
20
-5.16520315316228
30
0
41
1
10
106.613355663243
20
-4.87998556743753
30
0
41
1
10
106.226798388557
20
-4.72987291167777
30
0
41
1
10
105.453642817701
20
-4.41574995059983
30
0
41
1
10
105.067080388795
20
-4.25169055848008
30
0
41
1
10
104.293076849087
20
-3.91078714073115
30
0
41
1
10
103.905169069442
20
-3.73375304132071
30
0
41
1
10
102.742344029423
20
-3.18675226848185
30
0
41
1
10
101.969783250532
20
-2.80147940314538
30
0
41
1
10
100.809724354512
20
-2.2013051007967
30
0
41
1
10
100.422850045797
20
-1.99751286348155
30
0
41
1
10
99.6478666594426
20
-1.58390266205924
30
0
41
1
10
99.259709730636
20
-1.37402796807768
30
0
41
1
10
98.0981997530417
20
-0.740578088547409
30
0
41
1
10
97.3257776904239
20
-0.312215590579143
30
0
41
1
10
96.1649090861019
20
0.330158664367673
30
0
41
1
10
95.777456161907
20
0.544420070583499
30
0
41
1
10
95.0016707465213
20
0.971004858996395
30
0
41
1
10
94.6144719641466
20
1.18268059407413
30
0
41
1
10
93.4537855148769
20
1.81081491441549
30
0
41
1
10
92.6812330963039
20
2.22041928162969
30
0
41
1
10
91.5191579224904
20
2.81220090503081
30
0
41
1
10
91.1308843498452
20
3.00593690649924
30
0
41
1
10
90.3560855627546
20
3.38270373313443
30
0
41
1
10
89.9692148235631
20
3.56589274728691
30
0
41
1
10
88.8088484712473
20
4.09791075082492
30
0
41
1
10
88.035996098641
20
4.42976326964433
30
0
41
1
10
86.8722256990381
20
4.88514067001759
30
0
41
1
10
86.4844922243902
20
5.0295868577476
30
0
41
1
10
85.7103779548498
20
5.30226528607
30
0
41
1
10
85.3236791928221
20
5.43055374780053
30
0
41
1
10
84.5501631451247
20
5.67017505223058
30
0
41
1
10
84.1633577238668
20
5.78152146271697
30
0
41
1
10
83.3888771360644
20
5.98648119488126
30
0
41
1
10
83.000686579831
20
6.08017243162701
30
0
41
1
10
81.8376192015058
20
6.33240834913141
30
0
41
1
10
81.0647238406623
20
6.46222549217399
30
0
41
1
10
79.9040129720257
20
6.5970301928418
30
0
41
1
10
79.5169272036949
20
6.63199695327984
30
0
41
1
10
78.7414556704383
20
6.68158186380853
30
0
41
1
10
78.3532267569582
20
6.69616114207983
30
0
41
1
10
77.8675614810356
20
6.70154615153126
30
0
41
1
10
77.769218881903
20
6.7019752279538
30
0
41
1
10
77.670898840493
20
6.70174370590087
30
0
0
SPLINE
5
DD
100
AcDbEntity
8
1
62
256
6
ByLayer
370
18
48
1
60
0
100
AcDbSpline
70
4
71
3
72
48
73
44
40
0
40
0
40
0
40
0
40
0.0081209333662919
40
0.0081209333662919
40
0.0391171541985942
40
0.0391171541985942
40
0.0701133750308964
40
0.0701133750308964
40
0.132105816695501
40
0.132105816695501
40
0.163102037527804
40
0.163102037527804
40
0.194098258360107
40
0.194098258360107
40
0.256090700024713
40
0.256090700024713
40
0.287086920857016
40
0.287086920857016
40
0.318083141689319
40
0.318083141689319
40
0.380075583353925
40
0.380075583353925
40
0.504060466683137
40
0.504060466683137
40
0.566052908347744
40
0.566052908347744
40
0.597049129180047
40
0.597049129180047
40
0.628045350012351
40
0.628045350012351
40
0.690037791676959
40
0.690037791676959
40
0.721034012509263
40
0.721034012509263
40
0.752030233341567
40
0.752030233341567
40
0.814022675006175
40
0.814022675006175
40
0.845018895838479
40
0.845018895838479
40
0.876015116670783
40
0.876015116670783
40
1
40
1
40
1
40
1
41
1
10
43.4058947541845
20
-6.3548557736641
30
0
41
1
10
43.3044764340834
20
-6.3720198613789
30
0
41
1
10
43.2030581870663
20
-6.38851673922457
30
0
41
1
10
42.7145078565922
20
-6.46474493797214
30
0
41
1
10
42.3272470478669
20
-6.51535594559729
30
0
41
1
10
41.5517040362171
20
-6.59659405796415
30
0
41
1
10
41.163065641236
20
-6.62724832137962
30
0
41
1
10
39.9995546107048
20
-6.68831430823289
30
0
41
1
10
39.2259256082484
20
-6.68808869837983
30
0
41
1
10
38.0640198576041
20
-6.62666021015653
30
0
41
1
10
37.6764131518632
20
-6.59600718411411
30
0
41
1
10
36.8997824193551
20
-6.51443892124991
30
0
41
1
10
36.5115897321521
20
-6.46354963701208
30
0
41
1
10
35.3490560522962
20
-6.28178098139082
30
0
41
1
10
34.575497883966
20
-6.1216737562236
30
0
41
1
10
33.4125673325159
20
-5.82636059693888
30
0
41
1
10
33.0237279229639
20
-5.7185483197816
30
0
41
1
10
32.2482484283836
20
-5.48631509579022
30
0
41
1
10
31.8619003972208
20
-5.36199197338817
30
0
41
1
10
30.7056092910584
20
-4.96635443029183
30
0
41
1
10
29.9385124633114
20
-4.67226681993031
30
0
41
1
10
27.638917076142
20
-3.71280542132172
30
0
41
1
10
26.1084600854336
20
-2.96961489661925
30
0
41
1
10
23.7777649182376
20
-1.75693073397818
30
0
41
1
10
23.0030450533942
20
-1.34077103992973
30
0
41
1
10
21.8412655248022
20
-0.708246372028782
30
0
41
1
10
21.4539857473263
20
-0.495916764506433
30
0
41
1
10
20.6785419436311
20
-0.0698044707484939
30
0
41
1
10
20.2898573192869
20
0.144210240181309
30
0
41
1
10
19.125330421151
20
0.783338701210482
30
0
41
1
10
18.3512153684501
20
1.20543908654432
30
0
41
1
10
17.1888501981972
20
1.82447659625319
30
0
41
1
10
16.8012604351806
20
2.02858209894319
30
0
41
1
10
16.0248360602676
20
2.43056237163589
30
0
41
1
10
15.636129530435
20
2.62835315601339
30
0
41
1
10
14.4727407614161
20
3.20711291027663
30
0
41
1
10
13.6988474916388
20
3.57452813594804
30
0
41
1
10
12.535794461549
20
4.09058504723561
30
0
41
1
10
12.147434754269
20
4.25688100113086
30
0
41
1
10
11.370474317523
20
4.57595230628849
30
0
41
1
10
10.9830154219473
20
4.72825584966847
30
0
41
1
10
9.04874086228796
20
5.45136165158598
30
0
41
1
10
7.51070045018815
20
5.9066029381388
30
0
41
1
10
5.95686830177641
20
6.21231491379271
30
0
0
SPLINE
5
DE
100
AcDbEntity
8
1
62
256
6
ByLayer
370
18
48
1
60
0
100
AcDbSpline
70
4
71
3
72
45
73
41
40
0
40
0
40
0
40
0
40
0.0625000000000014
40
0.0625000000000014
40
0.125000000000003
40
0.125000000000003
40
0.187500000000004
40
0.187500000000004
40
0.250000000000006
40
0.250000000000006
40
0.312500000000007
40
0.312500000000007
40
0.375000000000008
40
0.375000000000008
40
0.43750000000001
40
0.43750000000001
40
0.46875000000001
40
0.46875000000001
40
0.500000000000011
40
0.500000000000011
40
0.625000000000009
40
0.625000000000009
40
0.687500000000008
40
0.687500000000008
40
0.750000000000007
40
0.750000000000007
40
0.812500000000006
40
0.812500000000006
40
0.828125000000005
40
0.828125000000005
40
0.835937500000005
40
0.835937500000005
40
0.843750000000004
40
0.843750000000004
40
0.851562500000004
40
0.851562500000004
40
0.859375000000004
40
0.859375000000004
40
0.875000000000003
40
1
40
1
40
1
40
1
41
1
10
150.707556912923
20
-2.68494267370821
30
0
41
1
10
150.84917086107
20
-2.71056739426697
30
0
41
1
10
150.99125574942
20
-2.7316371817449
30
0
41
1
10
151.273628969473
20
-2.76309727787492
30
0
41
1
10
151.41368646671
20
-2.77350249562247
30
0
41
1
10
151.691260074852
20
-2.78232790083936
30
0
41
1
10
151.828554270388
20
-2.77970154831442
30
0
41
1
10
152.100167855984
20
-2.76041983348566
30
0
41
1
10
152.234515559297
20
-2.74389799482847
30
0
41
1
10
152.49985123104
20
-2.69501000301767
30
0
41
1
10
152.630845075138
20
-2.66267155916842
30
0
41
1
10
152.888848498805
20
-2.57920511143149
30
0
41
1
10
153.014096955588
20
-2.52850044764895
30
0
41
1
10
153.253755901168
20
-2.40835490777536
30
0
41
1
10
153.368570800479
20
-2.33880546500615
30
0
41
1
10
153.532802316787
20
-2.21938001514778
30
0
41
1
10
153.586214592634
20
-2.17705510923469
30
0
41
1
10
153.690295462889
20
-2.0872202160686
30
0
41
1
10
153.741119945585
20
-2.03953155036476
30
0
41
1
10
153.984945227777
20
-1.79122027399788
30
0
41
1
10
154.149053991683
20
-1.55970631616694
30
0
41
1
10
154.35612140496
20
-1.17092267852755
30
0
41
1
10
154.418729832622
20
-1.03401064868447
30
0
41
1
10
154.530490895194
20
-0.75231684442457
30
0
41
1
10
154.579949605619
20
-0.607063127328956
30
0
41
1
10
154.667967483045
20
-0.309076152345881
30
0
41
1
10
154.70651623174
20
-0.156298366122456
30
0
41
1
10
154.748724012267
20
0.0375910375040007
30
0
41
1
10
154.756843243535
20
0.0765458300846547
30
0
41
1
10
154.768679437646
20
0.135153818113622
30
0
41
1
10
154.773082971738
20
0.154656371729317
30
0
41
1
10
154.776200984534
20
0.195270403984381
30
0
41
1
10
154.775188695124
20
0.216290353443839
30
0
41
1
10
154.769824410644
20
0.258971021030675
30
0
41
1
10
154.765151876237
20
0.280189394685351
30
0
41
1
10
154.754759485794
20
0.322561967962343
30
0
41
1
10
154.749472670853
20
0.343745903578594
30
0
41
1
10
154.733847467346
20
0.407314155840624
30
0
41
1
10
154.640134429675
20
0.788728366548611
30
0
41
1
10
154.546766002213
20
1.17018443843412
30
0
41
1
10
154.463977157206
20
1.50928107444818
30
0
0
SPLINE
5
DF
100
AcDbEntity
8
1
62
256
6
ByLayer
370
18
48
1
60
0
100
AcDbSpline
70
4
71
3
72
10
73
6
40
0
40
0
40
0
40
0
40
0.5
40
0.5
40
1
40
1
40
1
40
1
41
1
10
156.999971476667
20
0.039329642313561
30
0
41
1
10
156.994420004714
20
0.0207122971188198
30
0
41
1
10
156.987720505154
20
0.0012617516636908
30
0
41
1
10
156.972716425009
20
-0.036233511874201
30
0
41
1
10
156.964672676273
20
-0.0536400419723861
30
0
41
1
10
156.956622078875
20
-0.0686228671009985
30
0
0
SPLINE
5
E0
100
AcDbEntity
8
1
62
256
6
ByLayer
370
18
48
1
60
0
100
AcDbSpline
70
4
71
3
72
8
73
4
40
0
40
0
40
0
40
0
40
1
40
1
40
1
40
1
41
1
10
156.764040576823
20
1.63900493530321
30
0
41
1
10
156.843832857048
20
1.14549173513458
30
0
41
1
10
156.914314307022
20
0.652057345467199
30
0
41
1
10
156.97542395652
20
0.158702282376851
30
0
0
SPLINE
5
E1
100
AcDbEntity
8
1
62
256
6
ByLayer
370
18
48
1
60
0
100
AcDbSpline
70
4
71
3
72
120
73
116
40
0
40
0
40
0
40
0
40
0.0042314901939531
40
0.0042314901939531
40
0.0256035893510787
40
0.0256035893510787
40
0.0469756885082043
40
0.0469756885082043
40
0.06834778766533
40
0.06834778766533
40
0.0897198868224555
40
0.0897198868224555
40
0.111091985979581
40
0.111091985979581
40
0.132464085136707
40
0.132464085136707
40
0.153836184293832
40
0.153836184293832
40
0.175208283450958
40
0.175208283450958
40
0.18589433302952
40
0.18589433302952
40
0.196580382608082
40
0.196580382608082
40
0.217952481765207
40
0.217952481765207
40
0.239324580922331
40
0.239324580922331
40
0.260696680079455
40
0.260696680079455
40
0.271382729658017
40
0.271382729658017
40
0.28206877923658
40
0.28206877923658
40
0.303440878393704
40
0.303440878393704
40
0.324812977550828
40
0.324812977550828
40
0.33549902712939
40
0.33549902712939
40
0.346185076707953
40
0.346185076707953
40
0.367557175865076
40
0.367557175865076
40
0.388929275022199
40
0.388929275022199
40
0.410301374179322
40
0.410301374179322
40
0.420987423757883
40
0.420987423757883
40
0.431673473336444
40
0.431673473336444
40
0.453045572493565
40
0.453045572493565
40
0.474417671650687
40
0.474417671650687
40
0.485103721229248
40
0.485103721229248
40
0.495789770807809
40
0.495789770807809
40
0.51716186996493
40
0.51716186996493
40
0.538533969122052
40
0.538533969122052
40
0.549220018700614
40
0.549220018700614
40
0.559906068279175
40
0.559906068279175
40
0.581278167436298
40
0.581278167436298
40
0.624022365750544
40
0.624022365750544
40
0.634708415329105
40
0.634708415329105
40
0.645394464907667
40
0.645394464907667
40
0.666766564064789
40
0.666766564064789
40
0.688138663221911
40
0.688138663221911
40
0.709510762379034
40
0.709510762379034
40
0.730882861536156
40
0.730882861536156
40
0.752254960693279
40
0.752254960693279
40
0.773627059850401
40
0.773627059850401
40
0.794999159007523
40
0.794999159007523
40
0.816371258164646
40
0.816371258164646
40
0.837743357321768
40
0.837743357321768
40
0.84842940690033
40
0.84842940690033
40
0.859115456478891
40
0.859115456478891
40
0.880487555636013
40
0.880487555636013
40
0.901859654793135
40
0.901859654793135
40
0.923231753950258
40
0.923231753950258
40
0.933917803528819
40
0.933917803528819
40
0.94460385310738
40
0.94460385310738
40
0.965975952264502
40
0.965975952264502
40
0.987348051421625
40
0.987348051421625
40
0.998034101000185
40
0.998034101000185
40
1
40
1
40
1
40
1
41
1
10
138.975858809917
20
-3.26300482442449
30
0
41
1
10
138.904219171991
20
-3.29546423751128
30
0
41
1
10
138.832576540287
20
-3.32776130114812
30
0
41
1
10
138.399076909633
20
-3.52221999432385
30
0
41
1
10
138.037116940927
20
-3.68079093099547
30
0
41
1
10
137.311687587441
20
-3.98725301693463
30
0
41
1
10
136.948434115513
20
-4.13439244424615
30
0
41
1
10
136.224988456738
20
-4.41863569757697
30
0
41
1
10
135.86318533235
20
-4.55488852874598
30
0
41
1
10
135.139627837762
20
-4.81455204512281
30
0
41
1
10
134.778061791039
20
-4.93813386241396
30
0
41
1
10
134.054501969818
20
-5.1714959303327
30
0
41
1
10
133.692333632744
20
-5.28191703277506
30
0
41
1
10
132.966428133865
20
-5.48835355548997
30
0
41
1
10
132.604240718011
20
-5.58457110741702
30
0
41
1
10
131.880226449091
20
-5.75996715613366
30
0
41
1
10
131.518344255833
20
-5.84022796503325
30
0
41
1
10
130.795078196914
20
-5.98598455265159
30
0
41
1
10
130.433694099869
20
-6.05078558747488
30
0
41
1
10
129.890791995964
20
-6.13486250802447
30
0
41
1
10
129.709695717921
20
-6.16078892119461
30
0
41
1
10
129.347226058294
20
-6.20886123248386
30
0
41
1
10
129.166188956613
20
-6.23119085253185
30
0
41
1
10
128.622473627483
20
-6.29191892961083
30
0
41
1
10
128.259945565078
20
-6.32366280934735
30
0
41
1
10
127.538085529732
20
-6.36894131911939
30
0
41
1
10
127.178244650756
20
-6.38311887392103
30
0
41
1
10
126.459763909856
20
-6.39603278479629
30
0
41
1
10
126.100978576187
20
-6.39418628340144
30
0
41
1
10
125.563264548011
20
-6.37794536141479
30
0
41
1
10
125.384509189712
20
-6.37020120471735
30
0
41
1
10
125.026766162834
20
-6.35081950833711
30
0
41
1
10
124.847864242002
20
-6.33922886790722
30
0
41
1
10
124.311019490198
20
-6.29858356005133
30
0
41
1
10
123.953119576032
20
-6.26367565806501
30
0
41
1
10
123.237207554222
20
-6.17592644277477
30
0
41
1
10
122.879142679249
20
-6.12335437148497
30
0
41
1
10
122.340799118541
20
-6.03389628577725
30
0
41
1
10
122.161144632244
20
-6.00225408276012
30
0
41
1
10
121.801561739598
20
-5.93484621491945
30
0
41
1
10
121.62198541977
20
-5.89881718599906
30
0
41
1
10
121.08201046423
20
-5.78467087599137
30
0
41
1
10
120.720737775818
20
-5.7001547549749
30
0
41
1
10
119.996343976619
20
-5.51741492304512
30
0
41
1
10
119.633302049541
20
-5.41885459199636
30
0
41
1
10
118.909364617303
20
-5.20654732323337
30
0
41
1
10
118.547439707662
20
-5.09292534206031
30
0
41
1
10
118.005032140977
20
-4.91338737010022
30
0
41
1
10
117.824562310807
20
-4.85167229691109
30
0
41
1
10
117.463158447839
20
-4.72566111594904
30
0
41
1
10
117.282368773256
20
-4.66120334722385
30
0
41
1
10
116.739715015465
20
-4.46284868857532
30
0
41
1
10
116.37776552918
20
-4.32324285839263
30
0
41
1
10
115.652999771243
20
-4.03410295085465
30
0
41
1
10
115.290191322119
20
-3.884118793558
30
0
41
1
10
114.746797394101
20
-3.65250380871007
30
0
41
1
10
114.56560710789
20
-3.57426344286648
30
0
41
1
10
114.204096994803
20
-3.41410642661415
30
0
41
1
10
114.023516592815
20
-3.33266818777599
30
0
41
1
10
113.481345603091
20
-3.08631932478781
30
0
41
1
10
113.119609436044
20
-2.91878319358088
30
0
41
1
10
112.396201688362
20
-2.57528373446163
30
0
41
1
10
112.034458577907
20
-2.39897477436375
30
0
41
1
10
111.490825235383
20
-2.13024668053615
30
0
41
1
10
111.309317312827
20
-2.0400356639928
30
0
41
1
10
110.946530726283
20
-1.85870022005921
30
0
41
1
10
110.765134435697
20
-1.76773500966789
30
0
41
1
10
110.222425594534
20
-1.49113308358619
30
0
41
1
10
109.860830817528
20
-1.30497670555516
30
0
41
1
10
108.775795653306
20
-0.743073477101461
30
0
41
1
10
108.053468028483
20
-0.361995762222932
30
0
41
1
10
107.146693008742
20
0.113927080904006
30
0
41
1
10
106.965100182817
20
0.209188098894288
30
0
41
1
10
106.602793314084
20
0.400338762750124
30
0
41
1
10
106.421692607121
20
0.49559331863054
30
0
41
1
10
105.878479266145
20
0.780236624669499
30
0
41
1
10
105.516469420155
20
0.968578984954121
30
0
41
1
10
104.793228016626
20
1.34268515690275
30
0
41
1
10
104.43183408883
20
1.52840339711264
30
0
41
1
10
103.708094045314
20
1.89486422567674
30
0
41
1
10
103.345638930707
20
2.0753549382714
30
0
41
1
10
102.621010096766
20
2.43289882233091
30
0
41
1
10
102.257918342553
20
2.60796954883938
30
0
41
1
10
101.533221921164
20
2.95039322730906
30
0
41
1
10
101.171411711954
20
3.11796518862903
30
0
41
1
10
100.448060521468
20
3.44416879191243
30
0
41
1
10
100.086292501753
20
3.60263425393566
30
0
41
1
10
99.3618946682307
20
3.90952086283804
30
0
41
1
10
99.0003174739754
20
4.05933617299826
30
0
41
1
10
98.2748153499859
20
4.34553776072121
30
0
41
1
10
97.9116224913016
20
4.48272578119409
30
0
41
1
10
97.1870500866839
20
4.7454379915529
30
0
41
1
10
96.8252942416293
20
4.87086012953705
30
0
41
1
10
96.2823691105226
20
5.0477800099485
30
0
41
1
10
96.1013468063915
20
5.10495428189978
30
0
41
1
10
95.7392385483529
20
5.21603744419127
30
0
41
1
10
95.5585524790617
20
5.27036079957338
30
0
41
1
10
95.0158027909289
20
5.42760543057929
30
0
41
1
10
94.6533498528397
20
5.52516265886194
30
0
41
1
10
93.9276010514121
20
5.70471794972551
30
0
41
1
10
93.5645855071341
20
5.78691995619738
30
0
41
1
10
92.8399396248334
20
5.93641836442333
30
0
41
1
10
92.477597463805
20
6.00313335390882
30
0
41
1
10
91.9345321940749
20
6.09051244222158
30
0
41
1
10
91.7538942805368
20
6.11762012415863
30
0
41
1
10
91.3921093710395
20
6.16760123894764
30
0
41
1
10
91.2111097688261
20
6.19067034018107
30
0
41
1
10
90.6677703184199
20
6.25398823339057
30
0
41
1
10
90.3053282569862
20
6.28811696459644
30
0
41
1
10
89.5795679249972
20
6.33881569749599
30
0
41
1
10
89.2168249416388
20
6.35511154874854
30
0
41
1
10
88.6744512601847
20
6.36729076864324
30
0
41
1
10
88.493719165979
20
6.36931686523329
30
0
41
1
10
88.2803447534812
20
6.36930896112526
30
0
41
1
10
88.2472022167606
20
6.36923756716777
30
0
41
1
10
88.2140697791746
20
6.36909555333094
30
0
0
SPLINE
5
E2
100
AcDbEntity
8
1
62
256
6
ByLayer
370
18
48
1
60
0
100
AcDbSpline
70
4
71
3
72
118
73
114
40
0
40
0
40
0
40
0
40
0.0078518602939782
40
0.0078518602939782
40
0.0185201198607105
40
0.0185201198607105
40
0.0398566389941741
40
0.0398566389941741
40
0.0611931581276377
40
0.0611931581276377
40
0.0825296772611012
40
0.0825296772611012
40
0.0931979368278332
40
0.0931979368278332
40
0.103866196394565
40
0.103866196394565
40
0.12520271552803
40
0.12520271552803
40
0.146539234661494
40
0.146539234661494
40
0.157207494228226
40
0.157207494228226
40
0.167875753794958
40
0.167875753794958
40
0.189212272928422
40
0.189212272928422
40
0.210548792061885
40
0.210548792061885
40
0.221217051628617
40
0.221217051628617
40
0.231885311195349
40
0.231885311195349
40
0.274558349462275
40
0.274558349462275
40
0.295894868595738
40
0.295894868595738
40
0.306563128162469
40
0.306563128162469
40
0.317231387729201
40
0.317231387729201
40
0.338567906862663
40
0.338567906862663
40
0.359904425996125
40
0.359904425996125
40
0.381240945129588
40
0.381240945129588
40
0.40257746426305
40
0.40257746426305
40
0.423913983396513
40
0.423913983396513
40
0.445250502529975
40
0.445250502529975
40
0.466587021663437
40
0.466587021663437
40
0.487923540796899
40
0.487923540796899
40
0.509260059930362
40
0.509260059930362
40
0.519928319497094
40
0.519928319497094
40
0.530596579063825
40
0.530596579063825
40
0.551933098197288
40
0.551933098197288
40
0.573269617330751
40
0.573269617330751
40
0.594606136464214
40
0.594606136464214
40
0.605274396030945
40
0.605274396030945
40
0.615942655597677
40
0.615942655597677
40
0.637279174731139
40
0.637279174731139
40
0.658615693864601
40
0.658615693864601
40
0.669283953431333
40
0.669283953431333
40
0.679952212998064
40
0.679952212998064
40
0.701288732131526
40
0.701288732131526
40
0.722625251264989
40
0.722625251264989
40
0.73329351083172
40
0.73329351083172
40
0.743961770398452
40
0.743961770398452
40
0.765298289531914
40
0.765298289531914
40
0.786634808665377
40
0.786634808665377
40
0.807971327798839
40
0.807971327798839
40
0.81863958736557
40
0.81863958736557
40
0.829307846932301
40
0.829307846932301
40
0.850644366065764
40
0.850644366065764
40
0.871980885199226
40
0.871980885199226
40
0.893317404332688
40
0.893317404332688
40
0.91465392346615
40
0.91465392346615
40
0.957326961733075
40
0.957326961733075
40
0.967995221299807
40
0.967995221299807
40
0.978663480866538
40
0.978663480866538
40
1
40
1
40
1
40
1
41
1
10
62.7190474137059
20
-3.26516536904842
30
0
41
1
10
62.5871142780721
20
-3.32431141994414
30
0
41
1
10
62.4551309019946
20
-3.38280923546102
30
0
41
1
10
62.1438203887443
20
-3.51934426101064
30
0
41
1
10
61.9647907686357
20
-3.59740122804371
30
0
41
1
10
61.4267152503391
20
-3.82741476897851
30
0
41
1
10
61.0671738702977
20
-3.97593122607466
30
0
41
1
10
60.3469485087139
20
-4.26319941516533
30
0
41
1
10
59.9861923036378
20
-4.40150773231517
30
0
41
1
10
59.2623909569133
20
-4.66627628296698
30
0
41
1
10
58.8984345397667
20
-4.79301953944969
30
0
41
1
10
58.3543183269222
20
-4.97364422127865
30
0
41
1
10
58.1733557384713
20
-5.03249482893486
30
0
41
1
10
57.8112099189603
20
-5.14600359677138
30
0
41
1
10
57.6301638793736
20
-5.20076787138586
30
0
41
1
10
57.0870114639938
20
-5.3595703457799
30
0
41
1
10
56.7250871631595
20
-5.45885512208827
30
0
41
1
10
56.0012246601457
20
-5.64275720215397
30
0
41
1
10
55.6392464322721
20
-5.72699110569451
30
0
41
1
10
55.0951235387478
20
-5.84161875877552
30
0
41
1
10
54.9134567127767
20
-5.87784859844825
30
0
41
1
10
54.5505912518406
20
-5.94713405613697
30
0
41
1
10
54.369209097842
20
-5.97989115455121
30
0
41
1
10
53.8259496051643
20
-6.07154273714536
30
0
41
1
10
53.464648262651
20
-6.12384529609332
30
0
41
1
10
52.7440780243684
20
-6.21206061859004
30
0
41
1
10
52.3847008564639
20
-6.24825462534713
30
0
41
1
10
51.8461949595693
20
-6.2902293944768
30
0
41
1
10
51.6667572080836
20
-6.30212063376638
30
0
41
1
10
51.3079962923969
20
-6.32153257619945
30
0
41
1
10
51.1285843444505
20
-6.32904608270258
30
0
41
1
10
50.2336491748987
20
-6.35650611244131
30
0
41
1
10
49.5172860050069
20
-6.34711400888952
30
0
41
1
10
48.4415266502522
20
-6.28012740438624
30
0
41
1
10
48.082535688117
20
-6.24970452713657
30
0
41
1
10
47.5426247552407
20
-6.19224572988526
30
0
41
1
10
47.3624179870954
20
-6.17109668120145
30
0
41
1
10
47.0022268571432
20
-6.12419275961062
30
0
41
1
10
46.8218492738962
20
-6.09858520863412
30
0
41
1
10
46.2797443825604
20
-6.01546619059684
30
0
41
1
10
45.916553191697
20
-5.95207804681766
30
0
41
1
10
45.190631317608
20
-5.80963641263111
30
0
41
1
10
44.8284145496894
20
-5.73050483735562
30
0
41
1
10
44.1041379353369
20
-5.55653164506418
30
0
41
1
10
43.7417603042424
20
-5.46281397052792
30
0
41
1
10
43.0184067441922
20
-5.26023563137139
30
0
41
1
10
42.6563203829782
20
-5.1521130214087
30
0
41
1
10
41.9313525769503
20
-4.92147403144807
30
0
41
1
10
41.568324586587
20
-4.79876164456249
30
0
41
1
10
40.8424246149023
20
-4.54151578327463
30
0
41
1
10
40.4798842331723
20
-4.40727232470016
30
0
41
1
10
39.7549682594135
20
-4.12764019557295
30
0
41
1
10
39.393594559096
20
-3.98067625778884
30
0
41
1
10
38.6695457728437
20
-3.67887280069317
30
0
41
1
10
38.3073113909659
20
-3.5233106552632
30
0
41
1
10
37.5825322380883
20
-3.20188382978424
30
0
41
1
10
37.2196644348046
20
-3.03570337395411
30
0
41
1
10
36.6748497402191
20
-2.78204767247797
30
0
41
1
10
36.4933148095921
20
-2.69677560542712
30
0
41
1
10
36.1304086577384
20
-2.52468602483921
30
0
41
1
10
35.949430746424
20
-2.43716546522597
30
0
41
1
10
35.4063489839801
20
-2.17279254021003
30
0
41
1
10
35.0442482584006
20
-1.99366868344813
30
0
41
1
10
34.3200152036757
20
-1.63116534184445
30
0
41
1
10
33.9579644033098
20
-1.44756645577198
30
0
41
1
10
33.2332142537352
20
-1.07609961803908
30
0
41
1
10
32.8698810271504
20
-0.888659300367095
30
0
41
1
10
32.3248560732555
20
-0.606229824348077
30
0
41
1
10
32.1436907043564
20
-0.511210123209054
30
0
41
1
10
31.7811317162933
20
-0.321849088179448
30
0
41
1
10
31.5998803946242
20
-0.22723051424353
30
0
41
1
10
31.0561820529595
20
0.0563643213234002
30
0
41
1
10
30.6940536035866
20
0.245541492083476
30
0
41
1
10
29.9698679609032
20
0.623129640812834
30
0
41
1
10
29.607803884402
20
0.811534342491569
30
0
41
1
10
29.0637199538406
20
1.09154669339179
30
0
41
1
10
28.8821083397289
20
1.18428078225276
30
0
41
1
10
28.5191569767928
20
1.36999187600801
30
0
41
1
10
28.3376246363496
20
1.46296281336547
30
0
41
1
10
27.7932049307307
20
1.73885629617431
30
0
41
1
10
27.4309605087059
20
1.91955717023114
30
0
41
1
10
26.7086669321809
20
2.27538588282098
30
0
41
1
10
26.3487166400051
20
2.45000339875912
30
0
41
1
10
25.809468888605
20
2.7059535286819
30
0
41
1
10
25.6297747585919
20
2.79026748018796
30
0
41
1
10
25.2704821026299
20
2.9568266114967
30
0
41
1
10
25.0907557282617
20
3.03885551816151
30
0
41
1
10
24.5529022207789
20
3.28377035304646
30
0
41
1
10
24.194561523242
20
3.44279955113404
30
0
41
1
10
23.4772709029876
20
3.75047148324424
30
0
41
1
10
23.1187014480703
20
3.89972367087353
30
0
41
1
10
22.401114181279
20
4.18806904023799
30
0
41
1
10
22.0420565338142
20
4.32705541208006
30
0
41
1
10
21.5020208561209
20
4.52531943565725
30
0
41
1
10
21.3217039869689
20
4.58978538965431
30
0
41
1
10
20.96144387352
20
4.7170156441849
30
0
41
1
10
20.7811001935909
20
4.77919044907986
30
0
41
1
10
20.239123903803
20
4.96094162476385
30
0
41
1
10
19.8766048250277
20
5.07584318485152
30
0
41
1
10
19.1496051096373
20
5.29329722976649
30
0
41
1
10
18.7872212964348
20
5.39508544448984
30
0
41
1
10
18.0637583055822
20
5.58331397113579
30
0
41
1
10
17.7022073535428
20
5.66984838721339
30
0
41
1
10
16.9820700017501
20
5.82634982790114
30
0
41
1
10
16.6221509042783
20
5.89586479394964
30
0
41
1
10
15.542302009232
20
6.08341542494793
30
0
41
1
10
14.8237131284815
20
6.17750545440151
30
0
41
1
10
13.9219863978645
20
6.254102159838
30
0
41
1
10
13.7415891130759
20
6.26741326892903
30
0
41
1
10
13.3809619816901
20
6.28987399369413
30
0
41
1
10
13.2004893841985
20
6.29894300630838
30
0
41
1
10
12.6581711461403
20
6.31957729110715
30
0
41
1
10
12.2952898903691
20
6.32467745401692
30
0
41
1
10
11.9313692845088
20
6.32160418085743
30
0
0
SPLINE
5
E3
100
AcDbEntity
8
1
62
256
6
ByLayer
370
18
48
1
60
0
100
AcDbSpline
70
4
71
3
72
8
73
4
40
0
40
0
40
0
40
0
40
1
40
1
40
1
40
1
41
1
10
154.600805837591
20
-6.40528964303655
30
0
41
1
10
154.615453153504
20
-6.41035107755067
30
0
41
1
10
154.631044991959
20
-6.4126984682087
30
0
41
1
10
154.647601304033
20
-6.41235646802198
30
0
0
SPLINE
5
E4
100
AcDbEntity
8
1
62
256
6
ByLayer
370
18
48
1
60
0
100
AcDbSpline
70
4
71
3
72
10
73
6
40
0
40
0
40
0
40
0
40
0.5
40
0.5
40
1
40
1
40
1
40
1
41
1
10
156.97542395652
20
0.158702282376908
30
0
41
1
10
156.977533776339
20
0.141669124792486
30
0
41
1
10
156.98082714635
20
0.122902795178817
30
0
41
1
10
156.989142343569
20
0.0828345603574974
30
0
41
1
10
156.994231659975
20
0.0613340724840157
30
0
41
1
10
156.999971476667
20
0.0393296423134757
30
0
0
SPLINE
5
E5
100
AcDbEntity
8
1
62
256
6
ByLayer
370
18
48
1
60
0
100
AcDbSpline
70
4
71
3
72
8
73
4
40
0
40
0
40
0
40
0
40
1
40
1
40
1
40
1
41
1
10
154.827484361814
20
6.56374238726519
30
0
41
1
10
154.731177184763
20
6.65835829664931
30
0
41
1
10
154.64859955419
20
6.71755176830055
30
0
41
1
10
154.578860711083
20
6.73986180916049
30
0
0
SPLINE
5
E6
100
AcDbEntity
8
1
62
256
6
ByLayer
370
18
48
1
60
0
100
AcDbSpline
70
4
71
3
72
128
73
124
40
0
40
0
40
0
40
0
40
0.0019692686649323
40
0.0019692686649323
40
0.0129082715414
40
0.0129082715414
40
0.0347862772943362
40
0.0347862772943362
40
0.0566642830472723
40
0.0566642830472723
40
0.0785422888002084
40
0.0785422888002084
40
0.0894812916766768
40
0.0894812916766768
40
0.100420294553145
40
0.100420294553145
40
0.122298300306081
40
0.122298300306081
40
0.144176306059017
40
0.144176306059017
40
0.166054311811954
40
0.166054311811954
40
0.18793231756489
40
0.18793231756489
40
0.209810323317826
40
0.209810323317826
40
0.220749326194294
40
0.220749326194294
40
0.231688329070763
40
0.231688329070763
40
0.253566334823699
40
0.253566334823699
40
0.275444340576636
40
0.275444340576636
40
0.297322346329573
40
0.297322346329573
40
0.308261349206041
40
0.308261349206041
40
0.31920035208251
40
0.31920035208251
40
0.341078357835448
40
0.341078357835448
40
0.362956363588386
40
0.362956363588386
40
0.373895366464855
40
0.373895366464855
40
0.384834369341324
40
0.384834369341324
40
0.406712375094262
40
0.406712375094262
40
0.4285903808472
40
0.4285903808472
40
0.439529383723669
40
0.439529383723669
40
0.450468386600137
40
0.450468386600137
40
0.472346392353075
40
0.472346392353075
40
0.494224398106013
40
0.494224398106013
40
0.516102403858951
40
0.516102403858951
40
0.52704140673542
40
0.52704140673542
40
0.537980409611889
40
0.537980409611889
40
0.559858415364827
40
0.559858415364827
40
0.581736421117764
40
0.581736421117764
40
0.592675423994232
40
0.592675423994232
40
0.603614426870701
40
0.603614426870701
40
0.625492432623638
40
0.625492432623638
40
0.647370438376574
40
0.647370438376574
40
0.658309441253043
40
0.658309441253043
40
0.669248444129511
40
0.669248444129511
40
0.691126449882448
40
0.691126449882448
40
0.713004455635385
40
0.713004455635385
40
0.734882461388321
40
0.734882461388321
40
0.74582146426479
40
0.74582146426479
40
0.756760467141258
40
0.756760467141258
40
0.778638472894195
40
0.778638472894195
40
0.800516478647131
40
0.800516478647131
40
0.8114554815236
40
0.8114554815236
40
0.822394484400069
40
0.822394484400069
40
0.844272490153006
40
0.844272490153006
40
0.866150495905944
40
0.866150495905944
40
0.877089498782413
40
0.877089498782413
40
0.888028501658882
40
0.888028501658882
40
0.909906507411819
40
0.909906507411819
40
0.931784513164756
40
0.931784513164756
40
0.953662518917694
40
0.953662518917694
40
0.964601521794162
40
0.964601521794162
40
0.975540524670631
40
0.975540524670631
40
0.986479527547099
40
0.986479527547099
40
0.997418530423567
40
0.997418530423567
40
1
40
1
40
1
40
1
41
1
10
24.6741505712022
20
3.20784039333068
30
0
41
1
10
24.7078968597305
20
3.22407732817206
30
0
41
1
10
24.7416410188829
20
3.24028051519971
30
0
41
1
10
24.962799098196
20
3.34626767352643
30
0
41
1
10
25.1496419905481
20
3.43550250684075
30
0
41
1
10
25.7104166933151
20
3.69829252873569
30
0
41
1
10
26.0845992750291
20
3.86701568289524
30
0
41
1
10
26.8317686919964
20
4.19447912241324
30
0
41
1
10
27.2047999674355
20
4.35307719367452
30
0
41
1
10
27.9523035903043
20
4.6564120059717
30
0
41
1
10
28.3269819489838
20
4.80095969719235
30
0
41
1
10
28.8885180317972
20
5.00939102727398
30
0
41
1
10
29.0755844286556
20
5.07736010004362
30
0
41
1
10
29.4493223515215
20
5.20857933957279
30
0
41
1
10
29.636018608154
20
5.27207930612977
30
0
41
1
10
30.1953842233228
20
5.45662190829211
30
0
41
1
10
30.5667721981284
20
5.57230847644888
30
0
41
1
10
31.3082688174354
20
5.78715126056565
30
0
41
1
10
31.6787195264102
20
5.8860217897398
30
0
41
1
10
32.4188972436913
20
6.06709909118413
30
0
41
1
10
32.7877313587552
20
6.14993358163852
30
0
41
1
10
33.5269505074917
20
6.29712203024613
30
0
41
1
10
33.8968990897973
20
6.36190329168306
30
0
41
1
10
34.6364039763495
20
6.47429958197858
30
0
41
1
10
35.0065154563499
20
6.52156182277966
30
0
41
1
10
35.563358020607
20
6.57858004613135
30
0
41
1
10
35.7491999108303
20
6.59530064046001
30
0
41
1
10
36.1211820051901
20
6.62418199088137
30
0
41
1
10
36.3070287434205
20
6.6364030580649
30
0
41
1
10
36.8658395507379
20
6.66588376036634
30
0
41
1
10
37.2408961705848
20
6.67605299528159
30
0
41
1
10
37.9897588343379
20
6.67740164278374
30
0
41
1
10
38.3630978685761
20
6.66849405707725
30
0
41
1
10
39.1101880828247
20
6.63183498067446
30
0
41
1
10
39.4841082663789
20
6.60424273787396
30
0
41
1
10
40.0439639410865
20
6.54850080200541
30
0
41
1
10
40.230326528809
20
6.52746277766659
30
0
41
1
10
40.603854217904
20
6.48096378599115
30
0
41
1
10
40.7908420331756
20
6.45544917444903
30
0
41
1
10
41.3522850301385
20
6.37206668224741
30
0
41
1
10
41.7270110153442
20
6.30693394949805
30
0
41
1
10
42.4748467242413
20
6.15905694484022
30
0
41
1
10
42.848648830138
20
6.07658647763958
30
0
41
1
10
43.4091109894825
20
5.94022865944635
30
0
41
1
10
43.5958021789595
20
5.89259428675626
30
0
41
1
10
43.9686529730594
20
5.79265057404544
30
0
41
1
10
44.1552649619274
20
5.74073888807735
30
0
41
1
10
44.7155950175496
20
5.57921250158458
30
0
41
1
10
45.0896862378916
20
5.46372771671616
30
0
41
1
10
45.8379102792275
20
5.21586006011191
30
0
41
1
10
46.2122901737804
20
5.084149494483
30
0
41
1
10
46.7717736895412
20
4.87773937115853
30
0
41
1
10
46.9580331985831
20
4.80734549709129
30
0
41
1
10
47.3299247660207
20
4.663183265372
30
0
41
1
10
47.5152371483466
20
4.58897370149606
30
0
41
1
10
48.071216240482
20
4.36259899385379
30
0
41
1
10
48.4419016994038
20
4.20673117962428
30
0
41
1
10
49.1815693030084
20
3.88272266318779
30
0
41
1
10
49.5505682632071
20
3.71454298080363
30
0
41
1
10
50.2893717609356
20
3.36963785339992
30
0
41
1
10
50.6593198185511
20
3.19320303720809
30
0
41
1
10
51.213621267635
20
2.92019916537515
30
0
41
1
10
51.3981595207591
20
2.82757843694336
30
0
41
1
10
51.7681297917223
20
2.64136547786029
30
0
41
1
10
51.9533807445055
20
2.54747541505694
30
0
41
1
10
52.5097713244316
20
2.26319773393831
30
0
41
1
10
52.8809781848548
20
2.06918630464071
30
0
41
1
10
53.6254387175733
20
1.67458822737652
30
0
41
1
10
53.9994679612602
20
1.47453705709103
30
0
41
1
10
54.5613989962712
20
1.17132660966686
30
0
41
1
10
54.7485126761039
20
1.06983070506644
30
0
41
1
10
55.1218062955734
20
0.865004235255782
30
0
41
1
10
55.3084985545033
20
0.762604043837371
30
0
41
1
10
55.8687208593359
20
0.455463041548853
30
0
41
1
10
56.2422889439452
20
0.250587701987314
30
0
41
1
10
56.9883900542137
20
-0.16159519087185
30
0
41
1
10
57.3614952462442
20
-0.367861552969941
30
0
41
1
10
57.9224460246059
20
-0.675309568236997
30
0
41
1
10
58.1095914728997
20
-0.777564787943078
30
0
41
1
10
58.4840401668116
20
-0.981924755156911
30
0
41
1
10
58.6710259976884
20
-1.08457708996741
30
0
41
1
10
59.2316728838454
20
-1.38999443278467
30
0
41
1
10
59.6056827086369
20
-1.59015840590098
30
0
41
1
10
60.3523911712131
20
-1.98689508306273
30
0
41
1
10
60.7250678606488
20
-2.18346760417984
30
0
41
1
10
61.4716631434432
20
-2.5685218786511
30
0
41
1
10
61.8457462761659
20
-2.7567645096583
30
0
41
1
10
62.4064774111111
20
-3.03528876167988
30
0
41
1
10
62.593393462478
20
-3.12769566976337
30
0
41
1
10
62.9674491145344
20
-3.30895177102795
30
0
41
1
10
63.1542792836541
20
-3.39803484464977
30
0
41
1
10
63.7140100327205
20
-3.66103968258747
30
0
41
1
10
64.0855836430317
20
-3.83162133703547
30
0
41
1
10
64.8271755758912
20
-4.16079335188059
30
0
41
1
10
65.197565944602
20
-4.31885727922602
30
0
41
1
10
65.7525206015881
20
-4.54641641185046
30
0
41
1
10
65.9373539326127
20
-4.62074613704053
30
0
41
1
10
66.3062446880129
20
-4.76693735167098
30
0
41
1
10
66.4907906192587
20
-4.8381486961087
30
0
41
1
10
67.044718140899
20
-5.04623064145457
30
0
41
1
10
67.4143032717888
20
-5.17769332194339
30
0
41
1
10
68.1528612138654
20
-5.42744344413211
30
0
41
1
10
68.5223761713184
20
-5.54505732012393
30
0
41
1
10
69.0782171291741
20
-5.70931274151829
30
0
41
1
10
69.26370933508
20
-5.76209438838865
30
0
41
1
10
69.6349603006772
20
-5.86384545072445
30
0
41
1
10
69.8204571555421
20
-5.91304883306674
30
0
41
1
10
70.3779586580893
20
-6.05426239334975
30
0
41
1
10
70.7514170116605
20
-6.13958008366404
30
0
41
1
10
71.5003173329094
20
-6.29373162979243
30
0
41
1
10
71.8736069561279
20
-6.36211783990677
30
0
41
1
10
72.6203277552114
20
-6.4799767123466
30
0
41
1
10
72.9939158172623
20
-6.52951031273227
30
0
41
1
10
73.5534074344087
20
-6.5902586038745
30
0
41
1
10
73.7395364846809
20
-6.60829137577397
30
0
41
1
10
74.1125908027459
20
-6.63942867996678
30
0
41
1
10
74.2993195511033
20
-6.65260914629698
30
0
41
1
10
74.6730823590072
20
-6.67425277745471
30
0
41
1
10
74.860049741373
20
-6.68272978943725
30
0
41
1
10
75.2339793619038
20
-6.69495922039877
30
0
41
1
10
75.4211517196626
20
-6.69869600189156
30
0
41
1
10
75.6520086488513
20
-6.7003401938521
30
0
41
1
10
75.6960731485773
20
-6.70052093188392
30
0
41
1
10
75.740124626778
20
-6.70056893059496
30
0
0
SPLINE
5
E7
100
AcDbEntity
8
1
62
256
6
ByLayer
370
18
48
1
60
0
100
AcDbSpline
70
4
71
3
72
120
73
116
40
0
40
0
40
0
40
0
40
0.0075993678502238
40
0.0075993678502238
40
0.0294410930675322
40
0.0294410930675322
40
0.0403619556761855
40
0.0403619556761855
40
0.051282818284839
40
0.051282818284839
40
0.0731245435021446
40
0.0731245435021446
40
0.0949662687194506
40
0.0949662687194506
40
0.116807993936756
40
0.116807993936756
40
0.127728856545409
40
0.127728856545409
40
0.138649719154062
40
0.138649719154062
40
0.160491444371368
40
0.160491444371368
40
0.182333169588673
40
0.182333169588673
40
0.193254032197327
40
0.193254032197327
40
0.20417489480598
40
0.20417489480598
40
0.226016620023287
40
0.226016620023287
40
0.247858345240594
40
0.247858345240594
40
0.258779207849248
40
0.258779207849248
40
0.269700070457901
40
0.269700070457901
40
0.291541795675209
40
0.291541795675209
40
0.313383520892517
40
0.313383520892517
40
0.335225246109826
40
0.335225246109826
40
0.34614610871848
40
0.34614610871848
40
0.357066971327134
40
0.357066971327134
40
0.378908696544443
40
0.378908696544443
40
0.400750421761753
40
0.400750421761753
40
0.411671284370407
40
0.411671284370407
40
0.422592146979062
40
0.422592146979062
40
0.44443387219637
40
0.44443387219637
40
0.466275597413679
40
0.466275597413679
40
0.477196460022333
40
0.477196460022333
40
0.488117322630986
40
0.488117322630986
40
0.509959047848295
40
0.509959047848295
40
0.531800773065603
40
0.531800773065603
40
0.553642498282911
40
0.553642498282911
40
0.564563360891566
40
0.564563360891566
40
0.575484223500219
40
0.575484223500219
40
0.619167673934838
40
0.619167673934838
40
0.630088536543494
40
0.630088536543494
40
0.641009399152149
40
0.641009399152149
40
0.662851124369461
40
0.662851124369461
40
0.684692849586773
40
0.684692849586773
40
0.706534574804085
40
0.706534574804085
40
0.728376300021397
40
0.728376300021397
40
0.750218025238709
40
0.750218025238709
40
0.772059750456021
40
0.772059750456021
40
0.782980613064677
40
0.782980613064677
40
0.793901475673333
40
0.793901475673333
40
0.815743200890645
40
0.815743200890645
40
0.837584926107957
40
0.837584926107957
40
0.848505788716613
40
0.848505788716613
40
0.859426651325269
40
0.859426651325269
40
0.88126837654258
40
0.88126837654258
40
0.90311010175989
40
0.90311010175989
40
0.924951826977201
40
0.924951826977201
40
0.946793552194512
40
0.946793552194512
40
0.968635277411822
40
0.968635277411822
40
0.990477002629133
40
0.990477002629133
40
1
40
1
40
1
40
1
41
1
10
100.860948495079
20
3.21478420052182
30
0
41
1
10
100.991087946286
20
3.27796234207778
30
0
41
1
10
101.121184330682
20
3.34062783951734
30
0
41
1
10
101.624396213832
20
3.58137842295238
30
0
41
1
10
101.997068071132
20
3.75511436101428
30
0
41
1
10
102.556559544456
20
4.00630030609048
30
0
41
1
10
102.743093292033
20
4.08853151036544
30
0
41
1
10
103.116068530334
20
4.25024104709647
30
0
41
1
10
103.302325654193
20
4.3299765647881
30
0
41
1
10
103.861076275334
20
4.56481136574016
30
0
41
1
10
104.234640030938
20
4.7140913807012
30
0
41
1
10
104.982444897273
20
5.00010289378386
30
0
41
1
10
105.356045342744
20
5.13701452494792
30
0
41
1
10
106.102397220978
20
5.39427469177414
30
0
41
1
10
106.47565401864
20
5.51478161502575
30
0
41
1
10
107.034894390032
20
5.68424160000433
30
0
41
1
10
107.220846096735
20
5.73916750393457
30
0
41
1
10
107.593457791929
20
5.84430798022265
30
0
41
1
10
107.779948415731
20
5.89469825536116
30
0
41
1
10
108.339886437816
20
6.03946487866264
30
0
41
1
10
108.713359622505
20
6.12792181707511
30
0
41
1
10
109.460906173217
20
6.28751506919295
30
0
41
1
10
109.834319135318
20
6.35807796922589
30
0
41
1
10
110.394156580584
20
6.4501825777748
30
0
41
1
10
110.580766528507
20
6.47858116913176
30
0
41
1
10
110.953061459328
20
6.53115030949701
30
0
41
1
10
111.139208675481
20
6.55509133401702
30
0
41
1
10
111.698280398757
20
6.61970428516946
30
0
41
1
10
112.071570016454
20
6.65334572078081
30
0
41
1
10
112.81773732806
20
6.70207706450867
30
0
41
1
10
113.191593817617
20
6.71696119405306
30
0
41
1
10
113.752242780525
20
6.72485326486978
30
0
41
1
10
113.939048799966
20
6.7250997549568
30
0
41
1
10
114.312342131496
20
6.72084369429572
30
0
41
1
10
114.498622093134
20
6.71632244274241
30
0
41
1
10
115.05722513088
20
6.69555452882278
30
0
41
1
10
115.43024952575
20
6.67230894827713
30
0
41
1
10
116.1760375948
20
6.60697080542835
30
0
41
1
10
116.548520949131
20
6.56467971551962
30
0
41
1
10
117.295399526405
20
6.46168050545117
30
0
41
1
10
117.670049714683
20
6.40106091223919
30
0
41
1
10
118.230005019646
20
6.29652671086819
30
0
41
1
10
118.416094196103
20
6.25916280889979
30
0
41
1
10
118.788784749597
20
6.18045564896772
30
0
41
1
10
118.975205273339
20
6.13900853840704
30
0
41
1
10
119.534597117267
20
6.00839887196025
30
0
41
1
10
119.907130857932
20
5.91251655576175
30
0
41
1
10
120.652443479365
20
5.70377947003536
30
0
41
1
10
121.025703428843
20
5.59138480207963
30
0
41
1
10
121.586708351381
20
5.41101272784979
30
0
41
1
10
121.773869971298
20
5.34899024981272
30
0
41
1
10
122.146839519623
20
5.22036631445292
30
0
41
1
10
122.333245060949
20
5.15427228892162
30
0
41
1
10
122.892720417734
20
4.95130244399309
30
0
41
1
10
123.265825827985
20
4.8095256836834
30
0
41
1
10
124.010765446488
20
4.51113743050269
30
0
41
1
10
124.383126023565
20
4.3551487449447
30
0
41
1
10
124.942898469273
20
4.11293451432516
30
0
41
1
10
125.129647109459
20
4.03076506049092
30
0
41
1
10
125.503295104485
20
3.86331099189076
30
0
41
1
10
125.690149206857
20
3.77760863635891
30
0
41
1
10
126.249767751525
20
3.51693228598356
30
0
41
1
10
126.622302917067
20
3.33977745835244
30
0
41
1
10
127.364872464502
20
2.97655080957031
30
0
41
1
10
127.734655929501
20
2.79002950591723
30
0
41
1
10
128.473847372848
20
2.41165729871582
30
0
41
1
10
128.843327683698
20
2.21995590060956
30
0
41
1
10
129.396624886299
20
1.92735955845222
30
0
41
1
10
129.580558973142
20
1.82837386735503
30
0
41
1
10
129.949014128123
20
1.63028522072932
30
0
41
1
10
130.13337157464
20
1.53089721372339
30
0
41
1
10
131.055679256042
20
1.03204060262445
30
0
41
1
10
131.792791511504
20
0.622432437640924
30
0
41
1
10
132.719943832607
20
0.109366792941074
30
0
41
1
10
132.905671274562
20
0.0067255399854105
30
0
41
1
10
133.276866548832
20
-0.200257110277988
30
0
41
1
10
133.462638714287
20
-0.304025297638674
30
0
41
1
10
134.0215775725
20
-0.614058498500356
30
0
41
1
10
134.39632515053
20
-0.820009017375469
30
0
41
1
10
135.14229498964
20
-1.23015517007519
30
0
41
1
10
135.514612768227
20
-1.43382522653374
30
0
41
1
10
136.25994041524
20
-1.83481813204727
30
0
41
1
10
136.632751504306
20
-2.03251674062938
30
0
41
1
10
137.377118609368
20
-2.42491510586302
30
0
41
1
10
137.750383419027
20
-2.61668905312448
30
0
41
1
10
138.497745051577
20
-2.9936793969384
30
0
41
1
10
138.870935101399
20
-3.17924434024033
30
0
41
1
10
139.616561545075
20
-3.5388488267989
30
0
41
1
10
139.989457378215
20
-3.71299386986848
30
0
41
1
10
140.54829310435
20
-3.96674857065889
30
0
41
1
10
140.734116483734
20
-4.05061918222233
30
0
41
1
10
141.106405600364
20
-4.21464790452075
30
0
41
1
10
141.292742080851
20
-4.29500366741783
30
0
41
1
10
141.852254581201
20
-4.53123819516006
30
0
41
1
10
142.225768524376
20
-4.6831286492278
30
0
41
1
10
142.9722718336
20
-4.97370701598692
30
0
41
1
10
143.344445402455
20
-5.11122392476014
30
0
41
1
10
143.9014790348
20
-5.30575534531823
30
0
41
1
10
144.087001811218
20
-5.36859401308328
30
0
41
1
10
144.456873183113
20
-5.49121293469585
30
0
41
1
10
144.641520443412
20
-5.55064051648819
30
0
41
1
10
145.195725189963
20
-5.72216043974819
30
0
41
1
10
145.565153076811
20
-5.82799038243044
30
0
41
1
10
146.302243416568
20
-6.02430709465
30
0
41
1
10
146.670342483672
20
-6.11431716854557
30
0
41
1
10
147.407649806453
20
-6.27657046320607
30
0
41
1
10
147.776813303305
20
-6.34895238621172
30
0
41
1
10
148.513979344165
20
-6.47726955518138
30
0
41
1
10
148.883820534179
20
-6.53212341149595
30
0
41
1
10
149.624928416433
20
-6.62389971149935
30
0
41
1
10
149.995710536588
20
-6.66092858640633
30
0
41
1
10
150.740298506794
20
-6.71597640670171
30
0
41
1
10
151.114832441847
20
-6.73403320515419
30
0
41
1
10
151.650167385979
20
-6.74623727786732
30
0
41
1
10
151.812241377615
20
-6.7481390077553
30
0
41
1
10
151.974256370173
20
-6.74821600968514
30
0
0
SPLINE
5
E8
100
AcDbEntity
8
1
62
256
6
ByLayer
370
18
48
1
60
0
100
AcDbSpline
70
4
71
3
72
16
73
12
40
0
40
0
40
0
40
0
40
0.392114648507419
40
0.392114648507419
40
0.66216563234103
40
0.66216563234103
40
0.797191124257836
40
0.797191124257836
40
0.932216616174641
40
0.932216616174641
40
1
40
1
40
1
40
1
41
1
10
116.340362747435
20
-6.38616516541498
30
0
41
1
10
115.21973951485
20
-6.40073980335956
30
0
41
1
10
114.10431405911
20
-6.33348359500539
30
0
41
1
10
112.214104654278
20
-6.08540837817313
30
0
41
1
10
111.441290632761
20
-5.94651984729117
30
0
41
1
10
110.274780124377
20
-5.68312769049155
30
0
41
1
10
109.883847316102
20
-5.5859097976772
30
0
41
1
10
109.105708918709
20
-5.37548734591138
30
0
41
1
10
108.717937241427
20
-5.26214120175746
30
0
41
1
10
108.136788125191
20
-5.08053038248934
30
0
41
1
10
107.94277032212
20
-5.01792553914265
30
0
41
1
10
107.748921055763
20
-4.95348337946663
30
0
0
SPLINE
5
E9
100
AcDbEntity
8
1
62
256
6
ByLayer
370
13
48
1
60
0
100
AcDbSpline
70
4
71
3
72
20
73
16
40
0
40
0
40
0
40
0
40
0.272006029171024
40
0.272006029171024
40
0.427527071751903
40
0.427527071751903
40
0.505287593042344
40
0.505287593042344
40
0.583048114332786
40
0.583048114332786
40
0.894090199494561
40
0.894090199494561
40
0.971850720785004
40
0.971850720785004
40
1
40
1
40
1
40
1
41
1
10
107.748922004451
20
-4.9534836948429
30
0
41
1
10
106.398168656182
20
-4.50444689298067
30
0
41
1
10
105.05559842001
20
-3.96620128215182
30
0
41
1
10
102.933252771042
20
-3.01669888055898
30
0
41
1
10
102.158771988835
20
-2.64970054430788
30
0
41
1
10
100.988575931695
20
-2.07412257107137
30
0
41
1
10
100.598862596291
20
-1.87896873634466
30
0
41
1
10
99.8226155943214
20
-1.48515132726911
30
0
41
1
10
99.435579991929
20
-1.28622471237287
30
0
41
1
10
97.5039491869637
20
-0.285183371583656
30
0
41
1
10
95.9699069769671
20
0.53597941381193
30
0
41
1
10
94.0363976044274
20
1.52944938112674
30
0
41
1
10
93.6488952163173
20
1.72648884849082
30
0
41
1
10
93.1195462449048
20
1.99166988001258
30
0
41
1
10
92.9786980800619
20
2.0618371468357
30
0
41
1
10
92.8376757597874
20
2.1316530804676
30
0
0
SPLINE
5
EA
100
AcDbEntity
8
1
62
256
6
ByLayer
370
18
48
1
60
0
100
AcDbSpline
70
4
71
3
72
16
73
12
40
0
40
0
40
0
40
0
40
0.165369028092606
40
0.165369028092606
40
0.443765632906708
40
0.443765632906708
40
0.582963935313759
40
0.582963935313759
40
0.722162237720809
40
0.722162237720809
40
1
40
1
40
1
40
1
41
1
10
40.0059941491645
20
-6.33994525823945
30
0
41
1
10
39.5473323988189
20
-6.34338682694627
30
0
41
1
10
39.0893131059944
20
-6.33322285279351
30
0
41
1
10
37.8604847770078
20
-6.26977399191711
30
0
41
1
10
37.0895219861632
20
-6.19171677203315
30
0
41
1
10
35.9290027905406
20
-6.01830284908789
30
0
41
1
10
35.5414229293067
20
-5.95111102018836
30
0
41
1
10
34.7640522945414
20
-5.79828617396174
30
0
41
1
10
34.3737268369067
20
-5.71248827046296
30
0
41
1
10
33.2036231691583
20
-5.42890973246907
30
0
41
1
10
32.4295178896411
20
-5.20658603341587
30
0
41
1
10
31.6578902418731
20
-4.95505713946639
30
0
0
SPLINE
5
EB
100
AcDbEntity
8
1
62
256
6
ByLayer
370
13
48
1
60
0
100
AcDbSpline
70
4
71
3
72
20
73
16
40
0
40
0
40
0
40
0
40
0.154344763290269
40
0.154344763290269
40
0.30838032113919
40
0.30838032113919
40
0.385398100063651
40
0.385398100063651
40
0.462415878988111
40
0.462415878988111
40
0.770486994685954
40
0.770486994685954
40
0.924522552534875
40
0.924522552534875
40
1
40
1
40
1
40
1
41
1
10
31.6578902485503
20
-4.95505714164298
30
0
41
1
10
30.8831584967301
20
-4.70251639731842
30
0
41
1
10
30.1109243507993
20
-4.42053501211842
30
0
41
1
10
28.5670004251671
20
-3.80679357992884
30
0
41
1
10
27.7953114419983
20
-3.47519351486761
30
0
41
1
10
26.632605924217
20
-2.94669078574316
30
0
41
1
10
26.2441604792248
20
-2.76538281912337
30
0
41
1
10
25.4648037008936
20
-2.39359462483617
30
0
41
1
10
25.0732356460541
20
-2.20278491036879
30
0
41
1
10
23.1253503431529
20
-1.23824790360103
30
0
41
1
10
21.5864815357774
20
-0.427280539595955
30
0
41
1
10
19.271847787089
20
0.778636438461859
30
0
41
1
10
18.4990734071678
20
1.17851104806641
30
0
41
1
10
17.341494253989
20
1.76274615645619
30
0
41
1
10
16.9598979729622
20
1.95315685289952
30
0
41
1
10
16.5769914363713
20
2.14107411229637
30
0
0
SPLINE
5
EC
100
AcDbEntity
8
1
62
256
6
ByLayer
370
18
48
1
60
0
100
AcDbSpline
70
4
71
3
72
40
73
36
40
0
40
0
40
0
40
0
40
0.0624999999999997
40
0.0624999999999997
40
0.0937499999999995
40
0.0937499999999995
40
0.124999999999999
40
0.124999999999999
40
0.187499999999999
40
0.187499999999999
40
0.218749999999999
40
0.218749999999999
40
0.249999999999999
40
0.249999999999999
40
0.312499999999999
40
0.312499999999999
40
0.374999999999999
40
0.374999999999999
40
0.406249999999999
40
0.406249999999999
40
0.437499999999998
40
0.437499999999998
40
0.499999999999998
40
0.499999999999998
40
0.562499999999999
40
0.562499999999999
40
0.624999999999999
40
0.624999999999999
40
0.75
40
0.75
40
0.8125
40
0.8125
40
0.875
40
0.875
40
1
40
1
40
1
40
1
41
1
10
6.44238501686587
20
0.729354154556859
30
0
41
1
10
6.37434783275347
20
0.477845924928772
30
0
41
1
10
6.33025997712326
20
0.223839706480987
30
0
41
1
10
6.29595103146502
20
-0.16049516258019
30
0
41
1
10
6.28983190518645
20
-0.289162437755465
30
0
41
1
10
6.28772725757463
20
-0.547557104173734
30
0
41
1
10
6.29181791762352
20
-0.678002432512443
30
0
41
1
10
6.31844557331064
20
-1.06514954646465
30
0
41
1
10
6.35483713122358
20
-1.31648495818999
30
0
41
1
10
6.43186113421018
20
-1.684698765316
30
0
41
1
10
6.4613068329385
20
-1.80596273026382
30
0
41
1
10
6.52714006776446
20
-2.04567541892882
30
0
41
1
10
6.56362966410524
20
-2.16433653403044
30
0
41
1
10
6.68084849231815
20
-2.51077769888613
30
0
41
1
10
6.76970507622292
20
-2.73099065655481
30
0
41
1
10
6.96472452106013
20
-3.15290503555113
30
0
41
1
10
7.07092145920592
20
-3.35458135207565
30
0
41
1
10
7.24176907343752
20
-3.64426021262744
30
0
41
1
10
7.30078706405752
20
-3.73884327545261
30
0
41
1
10
7.42113726267161
20
-3.92168224871992
30
0
41
1
10
7.48261371904042
20
-4.01020354443341
30
0
41
1
10
7.67071889071138
20
-4.26757945919499
30
0
41
1
10
7.80099771981031
20
-4.42827789914941
30
0
41
1
10
8.07084407330956
20
-4.72961649904727
30
0
41
1
10
8.2104184131104
20
-4.87024391055053
30
0
41
1
10
8.49916543149331
20
-5.13223811289242
30
0
41
1
10
8.64895991963945
20
-5.2539679240974
30
0
41
1
10
9.10645550998618
20
-5.58557697520263
30
0
41
1
10
9.42371822970469
20
-5.76388611552679
30
0
41
1
10
9.9233007077446
20
-5.97509680128204
30
0
41
1
10
10.0940947062453
20
-6.03614710894274
30
0
41
1
10
10.4435320107003
20
-6.13982782641017
30
0
41
1
10
10.6210952374358
20
-6.18218688250712
30
0
41
1
10
11.1638103196831
20
-6.28336527482463
30
0
41
1
10
11.5390534298296
20
-6.31622852285065
30
0
41
1
10
11.9313692845088
20
-6.32160418085721
30
0
0
SPLINE
5
ED
100
AcDbEntity
8
1
62
256
6
ByLayer
370
18
48
1
60
0
100
AcDbSpline
70
4
71
3
72
14
73
10
40
0
40
0
40
0
40
0
40
0.25
40
0.25
40
0.5
40
0.5
40
0.75
40
0.75
40
1
40
1
40
1
40
1
41
1
10
154.692322871896
20
-6.40556225941222
30
0
41
1
10
154.694695975386
20
-6.40491962520585
30
0
41
1
10
154.696390942608
20
-6.40606452319074
30
0
41
1
10
154.697971963813
20
-6.41310603063411
30
0
41
1
10
154.697784657557
20
-6.41902016784158
30
0
41
1
10
154.694813534508
20
-6.43610895221616
30
0
41
1
10
154.691980983613
20
-6.44733637892151
30
0
41
1
10
154.684121594026
20
-6.47257393988505
30
0
41
1
10
154.679240433104
20
-6.48617197105429
30
0
41
1
10
154.674076871028
20
-6.499247602541
30
0
0
SPLINE
5
EE
100
AcDbEntity
8
1
62
256
6
ByLayer
370
18
48
1
60
0
100
AcDbSpline
70
4
71
3
72
12
73
8
40
0
40
0
40
0
40
0
40
0.249999999999991
40
0.249999999999991
40
0.499999999999982
40
0.499999999999982
40
1
40
1
40
1
40
1
41
1
10
5.95686830177644
20
6.21231491379271
30
0
41
1
10
5.93717400252561
20
6.21618971014007
30
0
41
1
10
5.91935583037952
20
6.22089148361914
30
0
41
1
10
5.88736670433337
20
6.23182420785224
30
0
41
1
10
5.87337927400938
20
6.23804091122267
30
0
41
1
10
5.83951148810277
20
6.25783764486886
30
0
41
1
10
5.82720427706104
20
6.27285752244066
30
0
41
1
10
5.82720427706107
20
6.28761593491762
30
0
0
LINE
5
76
100
AcDbEntity
8
81
62
256
6
ByLayer
370
18
48
1
60
0
100
AcDbLine
10
157
20
0
30
0
11
162
21
0
31
0
39
0
210
0
220
0
230
1
0
LINE
5
77
100
AcDbEntity
8
1
62
256
6
ByLayer
370
18
48
1
60
0
100
AcDbLine
10
5.827204
20
6.656875
30
0
11
0.166771
21
6.653337
31
0
39
0
210
0
220
0
230
1
0
LINE
5
79
100
AcDbEntity
8
1
62
256
6
ByLayer
370
18
48
1
60
0
100
AcDbLine
10
39.60406
20
6.677986
30
0
11
37.640289
21
6.676758
31
0
39
0
210
0
220
0
230
1
0
LINE
5
7A
100
AcDbEntity
8
1
62
256
6
ByLayer
370
18
48
1
60
0
100
AcDbLine
10
77.708714
20
6.701801
30
0
11
75.750283
21
6.700577
31
0
39
0
210
0
220
0
230
1
0
LINE
5
7B
100
AcDbEntity
8
1
62
256
6
ByLayer
370
18
48
1
60
0
100
AcDbLine
10
115.813659
20
6.725617
30
0
11
113.859573
21
6.724395
31
0
39
0
210
0
220
0
230
1
0
LINE
5
7C
100
AcDbEntity
8
1
62
256
6
ByLayer
370
18
48
1
60
0
100
AcDbLine
10
153.919476
20
6.749433
30
0
11
151.970811
21
6.748215
31
0
39
0
210
0
220
0
230
1
0
LINE
5
7D
100
AcDbEntity
8
1
62
256
6
ByLayer
370
18
48
1
60
0
100
AcDbLine
10
151.970811
20
-6.748215
30
0
11
153.91935
21
-6.749433
31
0
39
0
210
0
220
0
230
1
0
LINE
5
7E
100
AcDbEntity
8
1
62
256
6
ByLayer
370
18
48
1
60
0
100
AcDbLine
10
113.859573
20
-6.724395
30
0
11
115.814411
21
-6.725617
31
0
39
0
210
0
220
0
230
1
0
LINE
5
7F
100
AcDbEntity
8
1
62
256
6
ByLayer
370
18
48
1
60
0
100
AcDbLine
10
75.750283
20
-6.700577
30
0
11
77.709223
21
-6.701801
31
0
39
0
210
0
220
0
230
1
0
LINE
5
80
100
AcDbEntity
8
1
62
256
6
ByLayer
370
18
48
1
60
0
100
AcDbLine
10
37.640289
20
-6.676758
30
0
11
39.603276
21
-6.677985
31
0
39
0
210
0
220
0
230
1
0
LINE
5
81
100
AcDbEntity
8
1
62
256
6
ByLayer
370
18
48
1
60
0
100
AcDbLine
10
0.166771
20
-6.653337
30
0
11
5.827204
21
-6.656875
31
0
39
0
210
0
220
0
230
1
0
LINE
5
82
100
AcDbEntity
8
SK1
62
256
6
ByLayer
370
18
48
1
60
0
100
AcDbLine
10
-43.267949
20
7
30
0
11
-45
21
4
31
0
39
0
210
0
220
0
230
1
0
LINE
5
84
100
AcDbEntity
8
SK1
62
256
6
ByLayer
370
18
48
1
60
0
100
AcDbLine
10
-45
20
-4
30
0
11
-43.267949
21
-7
31
0
39
0
210
0
220
0
230
1
0
LINE
5
85
100
AcDbEntity
8
SK1
62
256
6
ByLayer
370
18
48
1
60
0
100
AcDbLine
10
0
20
7
30
0
11
-43.267949
21
7
31
0
39
0
210
0
220
0
230
1
0
LINE
5
86
100
AcDbEntity
8
SK1
62
256
6
ByLayer
370
18
48
1
60
0
100
AcDbLine
10
-43.267949
20
-7
30
0
11
0
21
-7
31
0
39
0
210
0
220
0
230
1
0
LINE
5
87
100
AcDbEntity
8
SK4
62
256
6
ByLayer
370
18
48
0.05
60
0
100
AcDbLine
10
162
20
0
30
0
11
-50
21
0
31
0
39
0
210
0
220
0
230
1
0
LINE
5
89
100
AcDbEntity
8
4
62
256
6
ByLayer
370
18
48
0.05
60
0
100
AcDbLine
10
157
20
0
30
0
11
0
21
0
31
0
39
0
210
0
220
0
230
1
0
LINE
5
8B
100
AcDbEntity
8
80
62
256
6
ByLayer
370
18
48
1
60
0
100
AcDbLine
10
0
20
0
30
0
11
-5
21
0
31
0
39
0
210
0
220
0
230
1
0
LINE
5
8C
100
AcDbEntity
8
SK1
62
256
6
ByLayer
370
18
48
1
60
0
100
AcDbLine
10
-43.3
20
-3.220054
30
0
11
-43.3
21
-1.033782
31
0
39
0
210
0
220
0
230
1
0
LINE
5
8D
100
AcDbEntity
8
SK1
62
256
6
ByLayer
370
18
48
1
60
0
100
AcDbLine
10
0
20
7
30
0
11
0
21
-7
31
0
39
0
210
0
220
0
230
1
0
LINE
5
8E
100
AcDbEntity
8
SK1
62
256
6
ByLayer
370
18
48
1
60
0
100
AcDbLine
10
-45
20
4
30
0
11
-45
21
0.305097
31
0
39
0
210
0
220
0
230
1
0
LINE
5
8F
100
AcDbEntity
8
SK1
62
256
6
ByLayer
370
13
48
1
60
0
100
AcDbLine
10
-43.4
20
-0.878629
30
0
11
-43.4
21
-3.254953
31
0
39
0
210
0
220
0
230
1
0
LINE
5
90
100
AcDbEntity
8
SK1
62
256
6
ByLayer
370
18
48
1
60
0
100
AcDbLine
10
-43.267949
20
7
30
0
11
-43.267949
21
-7
31
0
39
0
210
0
220
0
230
1
0
LINE
5
91
100
AcDbEntity
8
SK1
62
256
6
ByLayer
370
18
48
1
60
0
100
AcDbLine
10
-45
20
-0.235406
30
0
11
-45
21
-2.368226
31
0
39
0
210
0
220
0
230
1
0
LINE
5
92
100
AcDbEntity
8
SK1
62
256
6
ByLayer
370
18
48
1
60
0
100
AcDbLine
10
-45
20
-4
30
0
11
-45
21
-2.368226
31
0
39
0
210
0
220
0
230
1
0
LINE
5
93
100
AcDbEntity
8
1
62
256
6
ByLayer
370
18
48
1
60
0
100
AcDbLine
10
155.452119
20
-2.190463
30
0
11
156.801481
21
-0.358985
31
0
39
0
210
0
220
0
230
1
0
LINE
5
94
100
AcDbEntity
8
1
62
256
6
ByLayer
370
18
48
1
60
0
100
AcDbLine
10
5.827204
20
-6.656875
30
0
11
5.827204
21
1.1048
31
0
39
0
210
0
220
0
230
1
0
LINE
5
95
100
AcDbEntity
8
1
62
256
6
ByLayer
370
13
48
1
60
0
100
AcDbLine
10
0.166771
20
6.653337
30
0
11
0.166771
21
-6.653337
31
0
39
0
210
0
220
0
230
1
0
LINE
5
96
100
AcDbEntity
8
1
62
256
6
ByLayer
370
18
48
1
60
0
100
AcDbLine
10
153.568321
20
-4.747325
30
0
11
154.474409
21
-3.517499
31
0
39
0
210
0
220
0
230
1
0
LINE
5
97
100
AcDbEntity
8
1
62
256
6
ByLayer
370
13
48
1
60
0
100
AcDbLine
10
154.463977
20
1.509281
30
0
11
156.956622
21
-0.068623
31
0
39
0
210
0
220
0
230
1
0
LINE
5
98
100
AcDbEntity
8
1
62
256
6
ByLayer
370
18
48
1
60
0
100
AcDbLine
10
5.827204
20
6.656875
30
0
11
5.827204
21
6.287616
31
0
39
0
210
0
220
0
230
1
0
LINE
5
99
100
AcDbEntity
8
1
62
256
6
ByLayer
370
13
48
1
60
0
100
AcDbLine
10
154.608254
20
1.657178
30
0
11
156.975424
21
0.158702
31
0
39
0
210
0
220
0
230
1
0
MTEXT
5
EF
100
AcDbEntity
8
SK6
62
256
6
ByLayer
370
13
48
1
60
0
100
AcDbMText
10
58.129169
20
39.132694
30
0
210
0
220
0
230
1
1
\W0.7217;460.1-1350-101A1-XM GC34
40
3.5
41
0
44
1.084337
50
0
71
8
72
5
7
iso_b_vert
0
DIMENSION
5
FC
100
AcDbEntity
8
SK2
62
256
6
ByLayer
370
13
48
1
60
0
100
AcDbDimension
2
DimnDraft3D1
10
154.9885
20
-16.963398
30
0
11
75.738559
21
-16.963398
31
0
70
32
71
5
72
1
41
1
210
0
220
0
230
1
3
Standard
100
AcDbAlignedDimension
13
0
23
-1.5875
33
0
14
154.9885
24
-8.3375
34
0
50
0
100
AcDbRotatedDimension
1001
ACAD
1000
DSTYLE
1002
{
1070
   279
1070
     0
1070
   172
1070
     1
1070
   173
1070
     1
1070
   340
1005
F0
1070
   271
1070
     2
1070
   272
1070
     2
1070
    77
1070
     1
1070
    73
1070
     0
1070
   171
1070
     3
1070
   274
1070
     4
1070
   177
1070
    35
1070
   176
1070
    35
1070
   178
1070
    35
1070
    48
1040
-0.005
1070
    41
1041
3.5
1070
   147
1041
1.75
1070
    42
1041
1.5875
1070
    44
1041
2.0
1070
   140
1041
3.5
1070
   343
1005
0
1070
   344
1005
0
1002
}
0
DIMENSION
5
106
100
AcDbEntity
8
SK2
62
256
6
ByLayer
370
13
48
1
60
0
100
AcDbDimension
2
DimnDraft3D2
10
157
20
-35.692985
30
0
11
55.3298
21
-35.692985
31
0
70
32
71
5
72
1
41
1
210
0
220
0
230
1
3
Standard
100
AcDbAlignedDimension
13
-45
23
-8.5875
33
0
14
157
24
-1.5875
34
0
50
0
100
AcDbRotatedDimension
1001
ACAD
1000
DSTYLE
1002
{
1070
   279
1070
     0
1070
   172
1070
     1
1070
   173
1070
     1
1070
   340
1005
F0
1070
   271
1070
     2
1070
   272
1070
     2
1070
    77
1070
     1
1070
    73
1070
     0
1070
   171
1070
     3
1070
   274
1070
     4
1070
   177
1070
    35
1070
   176
1070
    35
1070
   178
1070
    35
1070
    48
1040
-0.005
1070
    41
1041
3.5
1070
   147
1041
1.75
1070
    42
1041
1.5875
1070
    44
1041
2.0
1070
   140
1041
3.5
1070
   343
1005
0
1070
   344
1005
0
1002
}
0
DIMENSION
5
110
100
AcDbEntity
8
SK2
62
256
6
ByLayer
370
13
48
1
60
0
100
AcDbDimension
2
DimnDraft3D3
10
157
20
18.359119
30
0
11
101.995
21
18.359119
31
0
70
32
71
5
72
1
41
1
210
0
220
0
230
1
3
Standard
100
AcDbAlignedDimension
13
46.99
23
8.3375
33
0
14
157
24
1.5875
34
0
50
0
100
AcDbRotatedDimension
1001
ACAD
1000
DSTYLE
1002
{
1070
   279
1070
     0
1070
   172
1070
     1
1070
   173
1070
     1
1070
   340
1005
F0
1070
   271
1070
     2
1070
   272
1070
     2
1070
    77
1070
     1
1070
    73
1070
     0
1070
   171
1070
     3
1070
   274
1070
     4
1070
   177
1070
    35
1070
   176
1070
    35
1070
   178
1070
    35
1070
    48
1040
-0.005
1070
    41
1041
3.5
1070
   147
1041
1.75
1070
    42
1041
1.5875
1070
    44
1041
2.0
1070
   140
1041
3.5
1070
   343
1005
0
1070
   344
1005
0
1002
}
0
DIMENSION
5
11A
100
AcDbEntity
8
SK2
62
256
6
ByLayer
370
13
48
1
60
0
100
AcDbDimension
2
DimnDraft3D4
10
154.9885
20
-19.552503
30
0
11
166.981425
21
-19.552503
31
0
70
32
71
5
72
1
41
1
210
0
220
0
230
1
3
Standard
100
AcDbAlignedDimension
13
157
23
-1.5875
33
0
14
154.9885
24
-8.3375
34
0
50
0
100
AcDbRotatedDimension
1001
ACAD
1000
DSTYLE
1002
{
1070
   279
1070
     0
1070
   172
1070
     1
1070
   173
1070
     1
1070
   340
1005
F0
1070
   271
1070
     2
1070
   272
1070
     2
1070
    77
1070
     1
1070
    73
1070
     0
1070
   171
1070
     3
1070
   274
1070
     4
1070
   177
1070
    35
1070
   176
1070
    35
1070
   178
1070
    35
1070
    48
1040
-0.005
1070
    41
1041
3.5
1070
   147
1041
1.75
1070
    42
1041
1.5875
1070
    44
1041
2.0
1070
   140
1041
3.5
1070
   343
1005
0
1070
   344
1005
0
1002
}
0
DIMENSION
5
124
100
AcDbEntity
8
SK2
62
256
6
ByLayer
370
13
48
1
60
0
100
AcDbDimension
2
DimnDraft3D5
10
154.9885
20
-25.343428
30
0
11
52.249176
21
-25.343428
31
0
70
32
71
5
72
1
41
1
210
0
220
0
230
1
3
Standard
100
AcDbAlignedDimension
13
-45
23
-8.5875
33
0
14
154.9885
24
-8.3375
34
0
50
0
100
AcDbRotatedDimension
1001
ACAD
1000
DSTYLE
1002
{
1070
   279
1070
     0
1070
   172
1070
     1
1070
   173
1070
     1
1070
   340
1005
F0
1070
   271
1070
     2
1070
   272
1070
     2
1070
    77
1070
     1
1070
    73
1070
     0
1070
   171
1070
     3
1070
   274
1070
     4
1070
   177
1070
    35
1070
   176
1070
    35
1070
   178
1070
    35
1070
    48
1040
-0.005
1070
    41
1041
3.5
1070
   147
1041
1.75
1070
    42
1041
1.5875
1070
    44
1041
2.0
1070
   140
1041
3.5
1070
   343
1005
0
1070
   344
1005
0
1002
}
0
DIMENSION
5
12F
100
AcDbEntity
8
SK2
62
256
6
ByLayer
370
13
48
1
60
0
100
AcDbDimension
2
DimnDraft3D6
10
-55.625163
20
7
30
0
11
-56.250163
21
25.47418
31
0
70
33
71
5
72
1
41
1
210
0
220
0
230
1
3
Standard
100
AcDbAlignedDimension
13
-46.5875
23
-7
33
0
14
-46.5875
24
7
34
0
1001
ACAD
1000
DSTYLE
1002
{
1070
   279
1070
     0
1070
    74
1070
     0
1070
   173
1070
     1
1070
   340
1005
F0
1070
   271
1070
     3
1070
   272
1070
     2
1070
    77
1070
     1
1070
    73
1070
     0
1070
   171
1070
     3
1070
   274
1070
     4
1070
   177
1070
    35
1070
   176
1070
    35
1070
   178
1070
    35
1070
    48
1040
-0.005
1070
    41
1041
3.5
1070
   147
1041
1.75
1070
    42
1041
1.5875
1070
    44
1041
2.0
1070
   140
1041
3.5
1070
   343
1005
0
1070
   344
1005
0
1002
}
0
DIMENSION
5
13A
100
AcDbEntity
8
2
62
256
6
ByLayer
370
13
48
1
60
0
100
AcDbDimension
2
DimnDraft3D7
10
171.083343
20
6.75
30
0
11
166.458343
21
23.817266
31
0
70
33
71
5
72
1
41
1
210
0
220
0
230
1
3
Standard
100
AcDbAlignedDimension
13
156.576
23
-6.75
33
0
14
156.576
24
6.75
34
0
1001
ACAD
1000
DSTYLE
1002
{
1070
   279
1070
     0
1070
    74
1070
     0
1070
   173
1070
     1
1070
   340
1005
F0
1070
   271
1070
     3
1070
   272
1070
     2
1070
    77
1070
     1
1070
    73
1070
     0
1070
   171
1070
     3
1070
   274
1070
     4
1070
   177
1070
    35
1070
   176
1070
    35
1070
   178
1070
    35
1070
    48
1040
-0.005
1070
    41
1041
3.5
1070
   147
1041
1.75
1070
    42
1041
1.5875
1070
    44
1041
2.0
1070
   140
1041
3.5
1070
   343
1005
0
1070
   344
1005
0
1002
}
0
ENDSEC
0
SECTION
2
OBJECTS
0
DICTIONARY
5
1a5
330
0
100
AcDbDictionary
280
0
281
1
3
ACAD_GROUP
350
1a6
3
ACAD_MLINESTYLE
350
1a7
0
DICTIONARY
5
1a6
330
0
100
AcDbDictionary
280
0
281
1
0
DICTIONARY
5
1a7
330
0
100
AcDbDictionary
280
0
281
1
3
Standard
350
18
0
MLINESTYLE
5
18
330
1a7
100
AcDbMlineStyle
2
Standard
70
0
3

62
256
51
90
52
90
71
2
49
-0.5
62
256
6
ByLayer
49
0.5
62
256
6
ByLayer
0
RASTERVARIABLES
5
193
330

100
AcDbRasterVariables
90
0
70
1
71
1
72
1
0
ENDSEC
0
EOF
