0
SECTION
2
HEADER
9
$ACADVER
1
AC1015
9
$DWGCODEPAGE
3
ANSI_1252
9
$HANDSEED
5
1a2
9
$ANGBASE
50
0
9
$ANGDIR
70
0
9
$ATTMODE
70
1
9
$AUNITS
70
0
9
$AUPREC
70
0
9
$CECOLOR
62
256
9
$CELTSCALE
40
1
9
$CELTYPE
6
ByLayer
9
$CELWEIGHT
370
18
9
$CLAYER
8
0
9
$CMLJUST
70
0
9
$CMLSCALE
40
1
9
$CMLSTYLE
2
Standard
9
$DIMSTYLE
2
Standard
9
$TEXTSIZE
40
0.2
9
$TEXTSTYLE
7
Standard
9
$LUNITS
70
2
9
$LUPREC
70
4
9
$EXTNAMES
290
1
9
$INSUNITS
70
4
9
$LTSCALE
40
1
9
$LWDISPLAY
290
1
9
$PDMODE
70
0
9
$PDSIZE
40
0
9
$PLINEGEN
70
0
0
ENDSEC
0
SECTION
2
CLASSES
0
CLASS
1
RASTERVARIABLES
2
AcDbRasterVariables
3
ISM
90
0
280
0
281
0
0
ENDSEC
0
SECTION
2
TABLES
0
TABLE
2
VPORT
5
198
100
AcDbSymbolTable
0
VPORT
5
1
100
AcDbSymbolTableRecord
100
AcDbViewportTableRecord
2
*Active
70
0
10
0
20
0
11
1
21
1
12
-1
22
1
13
0
23
0
14
0.5
24
0.5
15
10
25
10
16
0
26
0
36
1
17
0
27
0
37
0
0
ENDTAB
0
TABLE
2
LTYPE
5
199
100
AcDbSymbolTable
0
LTYPE
5
14
100
AcDbSymbolTableRecord
100
AcDbLinetypeTableRecord
70
0
2
ByBlock
3

72
65
73
0
40
0
0
LTYPE
5
15
100
AcDbSymbolTableRecord
100
AcDbLinetypeTableRecord
70
0
2
ByLayer
3

72
65
73
0
40
0
0
LTYPE
5
16
100
AcDbSymbolTableRecord
100
AcDbLinetypeTableRecord
70
0
2
CONTINUOUS
3
Solid line
72
65
73
0
40
0
0
LTYPE
5
6A
100
AcDbSymbolTableRecord
100
AcDbLinetypeTableRecord
70
0
2
CENTER
3
____ _ ____ _ ____ _ ____
72
65
73
4
40
47.5
49
22
74
0
49
-8.5
74
0
49
8.5
74
0
49
-8.5
74
0
0
LTYPE
5
6B
100
AcDbSymbolTableRecord
100
AcDbLinetypeTableRecord
70
0
2
DASHED
3
__ __ __ __ __ __ __ __ __
72
65
73
2
40
25.72
49
12.86
74
0
49
-12.86
74
0
0
ENDTAB
0
TABLE
2
LAYER
5
19a
100
AcDbSymbolTable
0
LAYER
5
10
100
AcDbSymbolTableRecord
100
AcDbLayerTableRecord
2
0
70
0
62
7
6
CONTINUOUS
290
1
370
-3
390
0
0
LAYER
5
6D
100
AcDbSymbolTableRecord
100
AcDbLayerTableRecord
2
81
70
0
62
-3
6
CONTINUOUS
290
1
370
-3
390
0
0
LAYER
5
6F
100
AcDbSymbolTableRecord
100
AcDbLayerTableRecord
2
80
70
0
62
-6
6
CONTINUOUS
290
1
370
-3
390
0
0
LAYER
5
74
100
AcDbSymbolTableRecord
100
AcDbLayerTableRecord
2
2
70
0
62
7
6
CONTINUOUS
290
1
370
-3
390
0
0
LAYER
5
78
100
AcDbSymbolTableRecord
100
AcDbLayerTableRecord
2
1
70
0
62
4
6
CONTINUOUS
290
1
370
-3
390
0
0
LAYER
5
86
100
AcDbSymbolTableRecord
100
AcDbLayerTableRecord
2
4
70
0
62
-2
6
CENTER
290
1
370
-3
390
0
0
LAYER
5
184
100
AcDbSymbolTableRecord
100
AcDbLayerTableRecord
2
SK2
70
0
62
7
6
CONTINUOUS
290
1
370
-3
390
0
0
LAYER
5
185
100
AcDbSymbolTableRecord
100
AcDbLayerTableRecord
2
SK1
70
0
62
4
6
CONTINUOUS
290
1
370
-3
390
0
0
LAYER
5
186
100
AcDbSymbolTableRecord
100
AcDbLayerTableRecord
2
SK4
70
0
62
2
6
CENTER
290
1
370
-3
390
0
0
LAYER
5
187
100
AcDbSymbolTableRecord
100
AcDbLayerTableRecord
2
SK6
70
0
62
5
6
CONTINUOUS
290
1
370
-3
390
0
0
ENDTAB
0
TABLE
2
STYLE
5
19b
100
AcDbSymbolTable
0
STYLE
5
11
100
AcDbSymbolTableRecord
100
AcDbTextStyleTableRecord
2
Standard
3
txt
70
0
71
0
40
0
41
1
42
0
50
0
0
STYLE
5
E0
100
AcDbSymbolTableRecord
100
AcDbTextStyleTableRecord
2
iso_b_vert
3
simplex.shx
70
0
71
0
40
0
41
1
42
0
50
0
0
STYLE
5
E1
100
AcDbSymbolTableRecord
100
AcDbTextStyleTableRecord
2
DWGDirectTextStyle
3
simplex
70
0
71
0
40
0
41
1
42
0
50
0
0
ENDTAB
0
TABLE
2
DIMSTYLE
5
19c
100
AcDbSymbolTable
100
AcDbDimStyleTable
0
DIMSTYLE
105
27
100
AcDbSymbolTableRecord
100
AcDbDimStyleTableRecord
2
Standard
70
0
3
<>
41
0.18
42
0.0625
44
0.18
140
0.18
147
0.09
73
0
74
0
77
1
271
2
275
0
278
52
280
0
340
11
0
ENDTAB
0
TABLE
2
VIEW
5
19d
100
AcDbSymbolTable
0
ENDTAB
0
TABLE
2
UCS
5
19e
100
AcDbSymbolTable
0
ENDTAB
0
TABLE
2
APPID
5
19f
100
AcDbSymbolTable
0
APPID
5
12
100
AcDbSymbolTableRecord
100
AcDbRegAppTableRecord
2
ACAD
70
0
0
ENDTAB
0
TABLE
2
BLOCK_RECORD
5
1a0
100
AcDbSymbolTable
0
BLOCK_RECORD
5
1F
100
AcDbSymbolTableRecord
100
AcDbBlockTableRecord
2
*Model_Space
340
0
70
0
0
BLOCK_RECORD
5
1B
100
AcDbSymbolTableRecord
100
AcDbBlockTableRecord
2
*Paper_Space
340
0
70
0
0
BLOCK_RECORD
5
23
100
AcDbSymbolTableRecord
100
AcDbBlockTableRecord
2
*Paper_Space0
340
0
70
0
0
BLOCK_RECORD
5
E3
100
AcDbSymbolTableRecord
100
AcDbBlockTableRecord
2
DimnDraft3D1
340
0
70
0
0
BLOCK_RECORD
5
ED
100
AcDbSymbolTableRecord
100
AcDbBlockTableRecord
2
DimnDraft3D2
340
0
70
0
0
BLOCK_RECORD
5
F7
100
AcDbSymbolTableRecord
100
AcDbBlockTableRecord
2
DimnDraft3D3
340
0
70
0
0
BLOCK_RECORD
5
101
100
AcDbSymbolTableRecord
100
AcDbBlockTableRecord
2
DimnDraft3D4
340
0
70
0
0
BLOCK_RECORD
5
10B
100
AcDbSymbolTableRecord
100
AcDbBlockTableRecord
2
DimnDraft3D5
340
0
70
0
0
BLOCK_RECORD
5
115
100
AcDbSymbolTableRecord
100
AcDbBlockTableRecord
2
DimnDraft3D6
340
0
70
0
0
BLOCK_RECORD
5
120
100
AcDbSymbolTableRecord
100
AcDbBlockTableRecord
2
DimnDraft3D7
340
0
70
0
0
ENDTAB
0
ENDSEC
0
SECTION
2
BLOCKS
0
BLOCK
5
20
100
AcDbEntity
8
0
100
AcDbBlockBegin
2
*Model_Space
70
0
10
0
20
0
30
0
3
*Model_Space
0
ENDBLK
5
21
100
AcDbEntity
8
0
100
AcDbBlockEnd
0
BLOCK
5
1C
100
AcDbEntity
8
0
100
AcDbBlockBegin
2
*Paper_Space
70
0
10
0
20
0
30
0
3
*Paper_Space
0
ENDBLK
5
1D
100
AcDbEntity
8
0
100
AcDbBlockEnd
0
BLOCK
5
24
100
AcDbEntity
8
0
100
AcDbBlockBegin
2
*Paper_Space0
70
0
10
0
20
0
30
0
3
*Paper_Space0
0
ENDBLK
5
25
100
AcDbEntity
8
0
100
AcDbBlockEnd
0
BLOCK
5
EA
100
AcDbEntity
8
0
100
AcDbBlockBegin
2
DimnDraft3D1
70
0
10
0
20
0
30
0
3
DimnDraft3D1
0
MTEXT
5
E4
100
AcDbEntity
8
SK2
62
256
6
ByLayer
370
13
48
1
60
0
100
AcDbMText
10
33.285475
20
-15.688398
30
0
210
0
220
0
230
1
1
\W0.6563;77,11
40
3.5
41
0
44
1.084337
50
0
71
7
72
5
7
iso_b_vert
0
LINE
5
E5
100
AcDbEntity
8
SK2
62
256
6
ByLayer
370
13
48
1
60
0
100
AcDbLine
10
0
20
-1.5875
30
0
11
0
21
-18.563398
31
0
39
0
210
0
220
0
230
1
0
LINE
5
E6
100
AcDbEntity
8
SK2
62
256
6
ByLayer
370
13
48
1
60
0
100
AcDbLine
10
77.1091
20
-7.9375
30
0
11
77.1091
21
-18.563398
31
0
39
0
210
0
220
0
230
1
0
LINE
5
E7
100
AcDbEntity
8
SK2
62
256
6
ByLayer
370
13
48
1
60
0
100
AcDbLine
10
0
20
-16.563398
30
0
11
77.1091
21
-16.563398
31
0
39
0
210
0
220
0
230
1
0
SOLID
5
E8
100
AcDbEntity
8
SK2
62
256
6
ByLayer
370
13
48
1
60
0
100
AcDbTrace
10
0
20
-16.563398
30
0
11
3.499998
21
-16.102615
31
0
12
3.500002
22
-17.024182
32
0
13
0
23
-16.563398
33
0
39
0
210
0
220
0
230
1
0
SOLID
5
E9
100
AcDbEntity
8
SK2
62
256
6
ByLayer
370
13
48
1
60
0
100
AcDbTrace
10
77.1091
20
-16.563398
30
0
11
73.609102
21
-17.024182
31
0
12
73.609098
22
-16.102615
32
0
13
77.1091
23
-16.563398
33
0
39
0
210
0
220
0
230
1
0
ENDBLK
5
EB
100
AcDbEntity
8
0
100
AcDbBlockEnd
0
BLOCK
5
F4
100
AcDbEntity
8
0
100
AcDbBlockBegin
2
DimnDraft3D2
70
0
10
0
20
0
30
0
3
DimnDraft3D2
0
MTEXT
5
EE
100
AcDbEntity
8
SK2
62
256
6
ByLayer
370
13
48
1
60
0
100
AcDbMText
10
10.947111
20
-34.817985
30
0
210
0
220
0
230
1
1
\W0.7145;124,00
40
3.5
41
0
44
1.084337
50
0
71
7
72
5
7
iso_b_vert
0
LINE
5
EF
100
AcDbEntity
8
SK2
62
256
6
ByLayer
370
13
48
1
60
0
100
AcDbLine
10
-45
20
-8.5875
30
0
11
-45
21
-37.692985
31
0
39
0
210
0
220
0
230
1
0
LINE
5
F0
100
AcDbEntity
8
SK2
62
256
6
ByLayer
370
13
48
1
60
0
100
AcDbLine
10
79
20
-1.5875
30
0
11
79
21
-37.692985
31
0
39
0
210
0
220
0
230
1
0
LINE
5
F1
100
AcDbEntity
8
SK2
62
256
6
ByLayer
370
13
48
1
60
0
100
AcDbLine
10
-45
20
-35.692985
30
0
11
79
21
-35.692985
31
0
39
0
210
0
220
0
230
1
0
SOLID
5
F2
100
AcDbEntity
8
SK2
62
256
6
ByLayer
370
13
48
1
60
0
100
AcDbTrace
10
-45
20
-35.692985
30
0
11
-41.500002
21
-35.232202
31
0
12
-41.499998
22
-36.153769
32
0
13
-45
23
-35.692985
33
0
39
0
210
0
220
0
230
1
0
SOLID
5
F3
100
AcDbEntity
8
SK2
62
256
6
ByLayer
370
13
48
1
60
0
100
AcDbTrace
10
79
20
-35.692985
30
0
11
75.500002
21
-36.153769
31
0
12
75.499998
22
-35.232202
32
0
13
79
23
-35.692985
33
0
39
0
210
0
220
0
230
1
0
ENDBLK
5
F5
100
AcDbEntity
8
0
100
AcDbBlockEnd
0
BLOCK
5
FE
100
AcDbEntity
8
0
100
AcDbBlockBegin
2
DimnDraft3D3
70
0
10
0
20
0
30
0
3
DimnDraft3D3
0
MTEXT
5
F8
100
AcDbEntity
8
SK2
62
256
6
ByLayer
370
13
48
1
60
0
100
AcDbMText
10
44.108816
20
18.834119
30
0
210
0
220
0
230
1
1
\W0.6713;61,76
40
3.5
41
0
44
1.084337
50
0
71
7
72
5
7
iso_b_vert
0
LINE
5
F9
100
AcDbEntity
8
SK2
62
256
6
ByLayer
370
13
48
1
60
0
100
AcDbLine
10
17.24
20
7.9375
30
0
11
17.24
21
19.959119
31
0
39
0
210
0
220
0
230
1
0
LINE
5
FA
100
AcDbEntity
8
SK2
62
256
6
ByLayer
370
13
48
1
60
0
100
AcDbLine
10
79
20
1.5875
30
0
11
79
21
19.959119
31
0
39
0
210
0
220
0
230
1
0
LINE
5
FB
100
AcDbEntity
8
SK2
62
256
6
ByLayer
370
13
48
1
60
0
100
AcDbLine
10
17.24
20
17.959119
30
0
11
79
21
17.959119
31
0
39
0
210
0
220
0
230
1
0
SOLID
5
FC
100
AcDbEntity
8
SK2
62
256
6
ByLayer
370
13
48
1
60
0
100
AcDbTrace
10
17.24
20
17.959119
30
0
11
20.739998
21
18.419903
31
0
12
20.740002
22
17.498335
32
0
13
17.24
23
17.959119
33
0
39
0
210
0
220
0
230
1
0
SOLID
5
FD
100
AcDbEntity
8
SK2
62
256
6
ByLayer
370
13
48
1
60
0
100
AcDbTrace
10
79
20
17.959119
30
0
11
75.500002
21
17.498335
31
0
12
75.499998
22
18.419903
32
0
13
79
23
17.959119
33
0
39
0
210
0
220
0
230
1
0
ENDBLK
5
FF
100
AcDbEntity
8
0
100
AcDbBlockEnd
0
BLOCK
5
108
100
AcDbEntity
8
0
100
AcDbBlockBegin
2
DimnDraft3D4
70
0
10
0
20
0
30
0
3
DimnDraft3D4
0
MTEXT
5
102
100
AcDbEntity
8
SK2
62
256
6
ByLayer
370
13
48
1
60
0
100
AcDbMText
10
86.278136
20
-18.277503
30
0
210
0
220
0
230
1
1
\W0.6463;1,89
40
3.5
41
0
44
1.084337
50
0
71
7
72
5
7
iso_b_vert
0
LINE
5
103
100
AcDbEntity
8
SK2
62
256
6
ByLayer
370
13
48
1
60
0
100
AcDbLine
10
79
20
-1.5875
30
0
11
79
21
-21.152503
31
0
39
0
210
0
220
0
230
1
0
LINE
5
104
100
AcDbEntity
8
SK2
62
256
6
ByLayer
370
13
48
1
60
0
100
AcDbLine
10
77.1091
20
-7.9375
30
0
11
77.1091
21
-21.152503
31
0
39
0
210
0
220
0
230
1
0
LINE
5
105
100
AcDbEntity
8
SK2
62
256
6
ByLayer
370
13
48
1
60
0
100
AcDbLine
10
68.3591
20
-19.152503
30
0
11
92.559715
21
-19.152503
31
0
39
0
210
0
220
0
230
1
0
SOLID
5
106
100
AcDbEntity
8
SK2
62
256
6
ByLayer
370
13
48
1
60
0
100
AcDbTrace
10
79
20
-19.152503
30
0
11
82.499998
21
-18.691719
31
0
12
82.500002
22
-19.613287
32
0
13
79
23
-19.152503
33
0
39
0
210
0
220
0
230
1
0
SOLID
5
107
100
AcDbEntity
8
SK2
62
256
6
ByLayer
370
13
48
1
60
0
100
AcDbTrace
10
77.1091
20
-19.152503
30
0
11
73.609102
21
-19.613287
31
0
12
73.609098
22
-18.691719
32
0
13
77.1091
23
-19.152503
33
0
39
0
210
0
220
0
230
1
0
ENDBLK
5
109
100
AcDbEntity
8
0
100
AcDbBlockEnd
0
BLOCK
5
112
100
AcDbEntity
8
0
100
AcDbBlockBegin
2
DimnDraft3D5
70
0
10
0
20
0
30
0
3
DimnDraft3D5
0
MTEXT
5
10C
100
AcDbEntity
8
SK2
62
256
6
ByLayer
370
13
48
1
60
0
100
AcDbMText
10
8.925697
20
-24.468428
30
0
210
0
220
0
230
1
1
\W0.6303;122,11
40
3.5
41
0
44
1.084337
50
0
71
7
72
5
7
iso_b_vert
0
LINE
5
10D
100
AcDbEntity
8
SK2
62
256
6
ByLayer
370
13
48
1
60
0
100
AcDbLine
10
-45
20
-8.5875
30
0
11
-45
21
-27.343428
31
0
39
0
210
0
220
0
230
1
0
LINE
5
10E
100
AcDbEntity
8
SK2
62
256
6
ByLayer
370
13
48
1
60
0
100
AcDbLine
10
77.1091
20
-7.9375
30
0
11
77.1091
21
-27.343428
31
0
39
0
210
0
220
0
230
1
0
LINE
5
10F
100
AcDbEntity
8
SK2
62
256
6
ByLayer
370
13
48
1
60
0
100
AcDbLine
10
-45
20
-25.343428
30
0
11
77.1091
21
-25.343428
31
0
39
0
210
0
220
0
230
1
0
SOLID
5
110
100
AcDbEntity
8
SK2
62
256
6
ByLayer
370
13
48
1
60
0
100
AcDbTrace
10
-45
20
-25.343428
30
0
11
-41.500002
21
-24.882645
31
0
12
-41.499998
22
-25.804212
32
0
13
-45
23
-25.343428
33
0
39
0
210
0
220
0
230
1
0
SOLID
5
111
100
AcDbEntity
8
SK2
62
256
6
ByLayer
370
13
48
1
60
0
100
AcDbTrace
10
77.1091
20
-25.343428
30
0
11
73.609102
21
-25.804212
31
0
12
73.609098
22
-24.882645
32
0
13
77.1091
23
-25.343428
33
0
39
0
210
0
220
0
230
1
0
ENDBLK
5
113
100
AcDbEntity
8
0
100
AcDbBlockEnd
0
BLOCK
5
11D
100
AcDbEntity
8
0
100
AcDbBlockBegin
2
DimnDraft3D6
70
0
10
0
20
0
30
0
3
DimnDraft3D6
0
MTEXT
5
116
100
AcDbEntity
8
SK2
62
256
6
ByLayer
370
13
48
1
60
0
100
AcDbMText
10
-55.375163
20
26.34918
30
0
210
0
220
0
230
1
1
\W0.7145;14,000
40
3.5
41
0
44
1.084337
50
90
71
7
72
5
7
iso_b_vert
0
MTEXT
5
117
100
AcDbEntity
8
SK2
62
256
6
ByLayer
370
13
48
1
60
0
100
AcDbMText
10
-55.375163
20
21.126524
30
0
210
0
220
0
230
1
1
%%c
40
3.5
41
0
44
1.084337
50
90
71
7
72
5
7
iso_b_vert
0
LINE
5
118
100
AcDbEntity
8
SK2
62
256
6
ByLayer
370
13
48
1
60
0
100
AcDbLine
10
-46.5875
20
-7
30
0
11
-55.625163
21
-7
31
0
39
0
210
0
220
0
230
1
0
LINE
5
119
100
AcDbEntity
8
SK2
62
256
6
ByLayer
370
13
48
1
60
0
100
AcDbLine
10
-46.5875
20
7
30
0
11
-55.625163
21
7
31
0
39
0
210
0
220
0
230
1
0
LINE
5
11A
100
AcDbEntity
8
SK2
62
256
6
ByLayer
370
13
48
1
60
0
100
AcDbLine
10
-53.625163
20
-7
30
0
11
-53.625163
21
38.230759
31
0
39
0
210
0
220
0
230
1
0
SOLID
5
11B
100
AcDbEntity
8
SK2
62
256
6
ByLayer
370
13
48
1
60
0
100
AcDbTrace
10
-53.625163
20
-7
30
0
11
-54.085946
21
-3.500002
31
0
12
-53.164379
22
-3.499998
32
0
13
-53.625163
23
-7
33
0
39
0
210
0
220
0
230
1
0
SOLID
5
11C
100
AcDbEntity
8
SK2
62
256
6
ByLayer
370
13
48
1
60
0
100
AcDbTrace
10
-53.625163
20
7
30
0
11
-53.164379
21
3.500002
31
0
12
-54.085946
22
3.499998
32
0
13
-53.625163
23
7
33
0
39
0
210
0
220
0
230
1
0
ENDBLK
5
11E
100
AcDbEntity
8
0
100
AcDbBlockEnd
0
BLOCK
5
128
100
AcDbEntity
8
0
100
AcDbBlockBegin
2
DimnDraft3D7
70
0
10
0
20
0
30
0
3
DimnDraft3D7
0
MTEXT
5
121
100
AcDbEntity
8
2
62
256
6
ByLayer
370
13
48
1
60
0
100
AcDbMText
10
89.333343
20
24.292266
30
0
210
0
220
0
230
1
1
\W0.6930;12,700
40
3.5
41
0
44
1.084337
50
90
71
7
72
5
7
iso_b_vert
0
MTEXT
5
122
100
AcDbEntity
8
2
62
256
6
ByLayer
370
13
48
1
60
0
100
AcDbMText
10
89.333343
20
19.06961
30
0
210
0
220
0
230
1
1
%%c
40
3.5
41
0
44
1.084337
50
90
71
7
72
5
7
iso_b_vert
0
LINE
5
123
100
AcDbEntity
8
2
62
256
6
ByLayer
370
13
48
1
60
0
100
AcDbLine
10
78.6966
20
-6.35
30
0
11
93.083343
21
-6.35
31
0
39
0
210
0
220
0
230
1
0
LINE
5
124
100
AcDbEntity
8
2
62
256
6
ByLayer
370
13
48
1
60
0
100
AcDbLine
10
78.6966
20
6.35
30
0
11
93.083343
21
6.35
31
0
39
0
210
0
220
0
230
1
0
LINE
5
125
100
AcDbEntity
8
2
62
256
6
ByLayer
370
13
48
1
60
0
100
AcDbLine
10
91.083343
20
-6.35
30
0
11
91.083343
21
35.805424
31
0
39
0
210
0
220
0
230
1
0
SOLID
5
126
100
AcDbEntity
8
2
62
256
6
ByLayer
370
13
48
1
60
0
100
AcDbTrace
10
91.083343
20
-6.35
30
0
11
90.622559
21
-2.850002
31
0
12
91.544126
22
-2.849998
32
0
13
91.083343
23
-6.35
33
0
39
0
210
0
220
0
230
1
0
SOLID
5
127
100
AcDbEntity
8
2
62
256
6
ByLayer
370
13
48
1
60
0
100
AcDbTrace
10
91.083343
20
6.35
30
0
11
91.544126
21
2.850002
31
0
12
90.622559
22
2.849998
32
0
13
91.083343
23
6.35
33
0
39
0
210
0
220
0
230
1
0
ENDBLK
5
129
100
AcDbEntity
8
0
100
AcDbBlockEnd
0
ENDSEC
0
SECTION
2
ENTITIES
0
ARC
5
96
100
AcDbEntity
8
1
62
256
6
ByLayer
370
18
48
1
60
0
100
AcDbCircle
39
0
10
-0.35
20
6.652028
30
0
40
0.350000000000001
210
0
220
0
230
-1
100
AcDbArc
50
269.96419
51
0
0
ARC
5
97
100
AcDbEntity
8
1
62
256
6
ByLayer
370
18
48
1
60
0
100
AcDbCircle
39
0
10
-0.35
20
-6.652028
30
0
40
0.350000000000001
210
0
220
0
230
-1
100
AcDbArc
50
0
51
90.03581
0
ELLIPSE
5
98
100
AcDbEntity
8
1
62
256
6
ByLayer
370
18
48
1
60
0
100
AcDbEllipse
10
2.355303
20
-6.236119
30
0
11
0.25
21
0
31
0
210
0
220
0
230
1
40
0.999999
41
1.57684479030305
42
3.1392519129576
0
POINT
5
6C
100
AcDbEntity
8
81
62
256
6
ByLayer
370
18
48
1
60
0
100
AcDbPoint
10
79
20
0
30
0
39
0
210
0
220
0
230
1
50
360
0
POINT
5
6E
100
AcDbEntity
8
80
62
256
6
ByLayer
370
18
48
1
60
0
100
AcDbPoint
10
0
20
0
30
0
39
0
210
0
220
0
230
1
50
360
0
POINT
5
70
100
AcDbEntity
8
SK2
62
256
6
ByLayer
370
18
48
1
60
1
100
AcDbPoint
10
-45
20
-7
30
0
39
0
210
0
220
0
230
1
50
360
0
POINT
5
72
100
AcDbEntity
8
SK2
62
256
6
ByLayer
370
18
48
1
60
1
100
AcDbPoint
10
-45
20
7
30
0
39
0
210
0
220
0
230
1
50
360
0
POINT
5
73
100
AcDbEntity
8
2
62
256
6
ByLayer
370
18
48
1
60
1
100
AcDbPoint
10
77.1091
20
-6.35
30
0
39
0
210
0
220
0
230
1
50
360
0
POINT
5
75
100
AcDbEntity
8
2
62
256
6
ByLayer
370
18
48
1
60
1
100
AcDbPoint
10
77.1091
20
6.35
30
0
39
0
210
0
220
0
230
1
50
360
0
SPLINE
5
99
100
AcDbEntity
8
1
62
256
6
ByLayer
370
18
48
1
60
0
100
AcDbSpline
70
4
71
1
72
4
73
2
40
0
40
0
40
1
40
1
41
1
10
57.1095817893335
20
0.0006141125209638
30
0
41
1
10
57.1095661151402
20
0.0006199931762012
30
0
0
SPLINE
5
9A
100
AcDbEntity
8
1
62
256
6
ByLayer
370
18
48
1
60
0
100
AcDbSpline
70
4
71
3
72
28
73
24
40
0
40
0
40
0
40
0
40
0.0427391928979597
40
0.0896541193324697
40
0.125055204688035
40
0.14990950601954
40
0.173906765399044
40
0.20003832490911
40
0.268362279173912
40
0.318498941295868
40
0.374083713294058
40
0.439534615574032
40
0.495601131427021
40
0.555777460302453
40
0.620215694654828
40
0.694946265611479
40
0.743286417212278
40
0.780614151709617
40
0.808449210844432
40
0.838887177252753
40
0.87432985819204
40
0.914186733225747
40
1
40
1
40
1
40
1
41
1
10
2.35581947471249
20
-5.984925024202
30
0
41
1
10
2.57903095980401
20
-5.98593470870665
30
0
41
1
10
3.04799910407578
20
-5.9875918624542
30
0
41
1
10
3.70415903019253
20
-5.98806542987143
30
0
41
1
10
4.26838789100549
20
-5.98814617073936
30
0
41
1
10
4.71174588788284
20
-5.9884977863727
30
0
41
1
10
5.10607152231953
20
-5.98869585732561
30
0
41
1
10
5.72970168799264
20
-5.98885707243184
30
0
41
1
10
6.49104053345556
20
-5.98916180297471
30
0
41
1
10
7.40742217626075
20
-5.99109891530421
30
0
41
1
10
8.30869482978579
20
-5.99098298537157
30
0
41
1
10
9.24117263948006
20
-5.99251313303711
30
0
41
1
10
10.1978416474069
20
-5.9919853651991
30
0
41
1
10
11.1491757160074
20
-5.99252800463864
30
0
41
1
10
12.1987770947676
20
-5.993630791904
30
0
41
1
10
13.1860549580936
20
-5.99365200501671
30
0
41
1
10
14.0305915886308
20
-5.99493934325412
30
0
41
1
10
14.6282171649257
20
-5.99490183706683
30
0
41
1
10
15.1315758913702
20
-5.9949260034972
30
0
41
1
10
15.6250161354114
20
-5.99538664401797
30
0
41
1
10
16.181745318679
20
-5.9962515572247
30
0
41
1
10
17.0300286897997
20
-5.99647605656202
30
0
41
1
10
17.691716842646
20
-5.99696213201167
30
0
41
1
10
18.1435519616617
20
-5.99724432382916
30
0
0
SPLINE
5
9B
100
AcDbEntity
8
1
62
256
6
ByLayer
370
18
48
1
60
0
100
AcDbSpline
70
4
71
3
72
34
73
30
40
0
40
0
40
0
40
0
40
0.0256609025826674
40
0.0502227852208972
40
0.0662916728575506
40
0.0805823323411985
40
0.103007281290977
40
0.120414830749187
40
0.132651750419105
40
0.150173955217476
40
0.173331626570333
40
0.204711882961059
40
0.231509764269603
40
0.259548404939275
40
0.281134834450712
40
0.305794023473156
40
0.33423934517699
40
0.366087917561142
40
0.397115702360224
40
0.45695565052429
40
0.514104118923234
40
0.566616227347019
40
0.613923124880264
40
0.678352317359537
40
0.755201800345811
40
0.835790068586993
40
0.919034855699514
40
0.991311621902449
40
1
40
1
40
1
40
1
41
1
10
38.2285269846975
20
-6.0077158998034
30
0
41
1
10
38.3724146996981
20
-6.00720799644529
30
0
41
1
10
38.6598473749221
20
-6.00632442661211
30
0
41
1
10
39.055207267451
20
-6.00306058024435
30
0
41
1
10
39.391560871515
20
-6.00381372558971
30
0
41
1
10
39.693982874133
20
-6.00853305781121
30
0
41
1
10
39.95599466508
20
-6.00945066264916
30
0
41
1
10
40.2843217624351
20
-6.00843783506261
30
0
41
1
10
40.5597864874601
20
-6.00973019121682
30
0
41
1
10
40.8813419027455
20
-6.00992220484963
30
0
41
1
10
41.3160892537078
20
-6.01041651974998
30
0
41
1
10
41.8080305802923
20
-6.01062291539273
30
0
41
1
10
42.3291188104743
20
-6.01064185875427
30
0
41
1
10
42.7910874534699
20
-6.01094087624412
30
0
41
1
10
43.2400858849175
20
-6.01145298564973
30
0
41
1
10
43.6915865650956
20
-6.01172062132699
30
0
41
1
10
44.2050870484706
20
-6.01186277144024
30
0
41
1
10
44.7570509635524
20
-6.01164860507242
30
0
41
1
10
45.4988520726259
20
-6.01274979165501
30
0
41
1
10
46.3935333451146
20
-6.01313401674423
30
0
41
1
10
47.4180182472782
20
-6.01308885439462
30
0
41
1
10
48.3668737495498
20
-6.01483041032301
30
0
41
1
10
49.3596961682586
20
-6.0134981027935
30
0
41
1
10
50.4997214057116
20
-6.01599152270674
30
0
41
1
10
51.8405182451481
20
-6.01571281472306
30
0
41
1
10
53.295525350722
20
-6.01643235327748
30
0
41
1
10
54.7223835436597
20
-6.01818321181386
30
0
41
1
10
55.7151900260218
20
-6.0175580526425
30
0
41
1
10
56.2044873875079
20
-6.01811848000369
30
0
41
1
10
56.2569932652948
20
-6.01818133544734
30
0
0
SPLINE
5
9C
100
AcDbEntity
8
1
62
256
6
ByLayer
370
18
48
1
60
0
100
AcDbSpline
70
4
71
2
72
6
73
3
40
0
40
0
40
0
40
1
40
1
40
1
41
1
10
76.384732128586
20
-6.03215405826356
30
0
41
1
10
76.6298013511801
20
-6.03137928028124
30
0
41
1
10
76.8746737503778
20
-6.03245607962461
30
0
0
SPLINE
5
9D
100
AcDbEntity
8
1
62
256
6
ByLayer
370
18
48
1
60
0
100
AcDbSpline
70
4
71
3
72
23
73
19
40
0
40
0
40
0
40
0
40
0.0176361833570369
40
0.0879161878638033
40
0.166161945543046
40
0.250421818375151
40
0.326367839042521
40
0.402679085874849
40
0.488110177881416
40
0.548925418349447
40
0.621892035919332
40
0.697234674037782
40
0.780042550883775
40
0.866902048596108
40
0.901604050838814
40
0.932347748300667
40
0.974640110431587
40
1
40
1
40
1
40
1
41
1
10
56.2517944369848
20
6.01829183331122
30
0
41
1
10
56.1667166182512
20
6.01814628417318
30
0
41
1
10
55.7426061534865
20
6.01747472841026
30
0
41
1
10
54.9410081012993
20
6.01850182536896
30
0
41
1
10
53.8181643531006
20
6.01585268178869
30
0
41
1
10
52.6678404531693
20
6.01750062853858
30
0
41
1
10
51.5271562099803
20
6.0150206199325
30
0
41
1
10
50.3806075871726
20
6.01600138413184
30
0
41
1
10
49.3069483397387
20
6.01344671357776
30
0
41
1
10
48.2494614869239
20
6.01493419139595
30
0
41
1
10
47.2405879786968
20
6.01255916583941
30
0
41
1
10
46.1258500688747
20
6.013507347206
30
0
41
1
10
44.9438316071437
20
6.01154163926006
30
0
41
1
10
43.958048590516
20
6.0119069808504
30
0
41
1
10
43.2232947156638
20
6.01144536792077
30
0
41
1
10
42.7035930751354
20
6.01082730319246
30
0
41
1
10
42.228933079057
20
6.0106577577011
30
0
41
1
10
41.9025503467758
20
6.01061046043114
30
0
41
1
10
41.7802128964949
20
6.01057732768578
30
0
0
SPLINE
5
9E
100
AcDbEntity
8
1
62
256
6
ByLayer
370
18
48
1
60
0
100
AcDbSpline
70
4
71
3
72
28
73
24
40
0
40
0
40
0
40
0
40
0.0685113040045656
40
0.128546837309865
40
0.185438052837732
40
0.239465056932494
40
0.291193288779418
40
0.343800595727983
40
0.401514703695121
40
0.456864863962771
40
0.512044634250323
40
0.575253794484984
40
0.641928033224413
40
0.673107659538349
40
0.699179154298007
40
0.722999691938756
40
0.75594967905549
40
0.798607298986451
40
0.841760565884303
40
0.880132094467212
40
0.92202921476649
40
0.974702257328018
40
1
40
1
40
1
40
1
41
1
10
18.1354503480182
20
5.99721745948466
30
0
41
1
10
17.8065399242556
20
5.99688031124029
30
0
41
1
10
17.189413407881
20
5.99628724631046
30
0
41
1
10
16.2991939200487
20
5.99652608057315
30
0
41
1
10
15.4784808249434
20
5.99506308577688
30
0
41
1
10
14.6976504443779
20
5.99488091840132
30
0
41
1
10
13.9373855872838
20
5.9948947989769
30
0
41
1
10
13.15942100596
20
5.99366277827477
30
0
41
1
10
12.3640673017595
20
5.99342845913293
30
0
41
1
10
11.5563813137476
20
5.99329344310274
30
0
41
1
10
10.7223301279759
20
5.99184776486698
30
0
41
1
10
9.83387369011518
20
5.99249672997189
30
0
41
1
10
9.06065172715159
20
5.99192526081785
30
0
41
1
10
8.46571628584118
20
5.99130009969485
30
0
41
1
10
8.07650584001158
20
5.99115161431172
30
0
41
1
10
7.67880885782262
20
5.99098009007719
30
0
41
1
10
7.20146872887295
20
5.99069735094142
30
0
41
1
10
6.63134382394736
20
5.98954554069891
30
0
41
1
10
6.03515602110105
20
5.98886644320561
30
0
41
1
10
5.4426727668133
20
5.98881150125766
30
0
41
1
10
4.80439350469928
20
5.98863141793029
30
0
41
1
10
4.22911831325038
20
5.98846286348495
30
0
41
1
10
3.85512395518001
20
5.98818547858633
30
0
41
1
10
3.73380966558682
20
5.98806412458845
30
0
0
SPLINE
5
9F
100
AcDbEntity
8
SK1
62
256
6
ByLayer
370
18
48
1
60
0
100
AcDbSpline
70
4
71
3
72
10
73
6
40
0
40
0
40
0
40
0
40
0.5
40
0.5
40
1
40
1
40
1
40
1
41
1
10
-43.4
20
-0.690981109707337
30
0
41
1
10
-43.6692148959513
20
-0.556270342622526
30
0
41
1
10
-43.9377433951557
20
-0.421445756403216
30
0
41
1
10
-44.4719248255154
20
-0.15134484752312
30
0
41
1
10
-44.7376960943029
20
-0.0160883765013011
30
0
41
1
10
-45
20
0.119709483921326
30
0
0
SPLINE
5
A0
100
AcDbEntity
8
SK1
62
256
6
ByLayer
370
18
48
1
60
0
100
AcDbSpline
70
4
71
4
72
13
73
8
40
0
40
0
40
0
40
0
40
0
40
0.806816227748452
40
0.806816227748452
40
0.806816227748452
40
1
40
1
40
1
40
1
40
1
41
0.99583235562422
10
-45.0000005461647
20
-0.130186503260191
30
0
41
0.998607270668189
10
-45.0000004205458
20
-0.243148636792338
30
0
41
1.00621165011189
10
-45.0000002591233
20
-0.328532646761119
30
0
41
1.0166117137858
10
-45.0000000773524
20
-0.37723972422907
30
0
41
1.0166117137858
10
-44.9999998625009
20
-0.401816695751383
30
0
41
1.01601546427855
10
-44.9999998195788
20
-0.405141653800908
30
0
41
1.01500410847523
10
-44.9999997754596
20
-0.406872731206402
30
0
41
1.01372210151988
10
-44.9999997303749
20
-0.406891503255431
30
0
0
SPLINE
5
A1
100
AcDbEntity
8
SK1
62
256
6
ByLayer
370
18
48
1
60
0
100
AcDbSpline
70
4
71
3
72
26
73
22
40
0
40
0
40
0
40
0
40
0.125
40
0.125
40
0.25
40
0.25
40
0.3125
40
0.3125
40
0.375
40
0.375
40
0.5
40
0.5
40
0.625
40
0.625
40
0.6875
40
0.6875
40
0.75
40
0.75
40
0.875
40
0.875
40
1
40
1
40
1
40
1
41
1
10
-44.9999999999999
20
-0.383203367070251
30
0
41
1
10
-44.9521893883484
20
-0.376161692368214
30
0
41
1
10
-44.9049356477209
20
-0.36856130694585
30
0
41
1
10
-44.8141773264692
20
-0.35199345982997
30
0
41
1
10
-44.7706665126233
20
-0.343057305328358
30
0
41
1
10
-44.7101282075154
20
-0.328002580777991
30
0
41
1
10
-44.6907479247243
20
-0.32270535902606
30
0
41
1
10
-44.6542733974042
20
-0.311312870473841
30
0
41
1
10
-44.6370962609862
20
-0.305172157855736
30
0
41
1
10
-44.5927063073374
20
-0.285745686367278
30
0
41
1
10
-44.5718029737596
20
-0.270917246553836
30
0
41
1
10
-44.5675797812677
20
-0.239608859945889
30
0
41
1
10
-44.5850274861029
20
-0.224373847446174
30
0
41
1
10
-44.6277424347104
20
-0.204616479058387
30
0
41
1
10
-44.6447525955817
20
-0.198427156325778
30
0
41
1
10
-44.6813837380395
20
-0.187058391099299
30
0
41
1
10
-44.7011685306822
20
-0.181805008330457
30
0
41
1
10
-44.7636911908965
20
-0.166974283714609
30
0
41
1
10
-44.8093457137512
20
-0.158375888237771
30
0
41
1
10
-44.9026514336146
20
-0.143103837994175
30
0
41
1
10
-44.9508214258053
20
-0.136351420355425
30
0
41
1
10
-45
20
-0.130186420590633
30
0
0
SPLINE
5
A2
100
AcDbEntity
8
SK1
62
256
6
ByLayer
370
18
48
1
60
0
100
AcDbSpline
70
4
71
3
72
10
73
6
40
0
40
0
40
0
40
0
40
0.5
40
0.5
40
1
40
1
40
1
40
1
41
1
10
-45
20
-2.27740194604451
30
0
41
1
10
-44.7376885653504
20
-2.41320370429565
30
0
41
1
10
-44.4718903387432
20
-2.54847378854157
30
0
41
1
10
-43.9377188587749
20
-2.8185695194893
30
0
41
1
10
-43.6692048545317
20
-2.95338679715189
30
0
41
1
10
-43.4
20
-3.08809253967317
30
0
0
SPLINE
5
A3
100
AcDbEntity
8
SK1
62
256
6
ByLayer
370
18
48
1
60
0
100
AcDbSpline
70
4
71
3
72
14
73
10
40
0
40
0
40
0
40
0
40
0.125
40
0.125
40
0.249999999999999
40
0.249999999999999
40
0.500000000000002
40
0.500000000000002
40
1
40
1
40
1
40
1
41
1
10
-43.3
20
-0.841863324265859
30
0
41
1
10
-43.3
20
-0.831224680428221
30
0
41
1
10
-43.3017012565589
20
-0.820437440896256
30
0
41
1
10
-43.3069010451286
20
-0.80055684632498
30
0
41
1
10
-43.3102603620514
20
-0.791669025588618
30
0
41
1
10
-43.3216024497887
20
-0.766755811667053
30
0
41
1
10
-43.3304674144333
20
-0.753228705419758
30
0
41
1
10
-43.3586594529452
20
-0.717696277352189
30
0
41
1
10
-43.3789281721554
20
-0.701525110561391
30
0
41
1
10
-43.4
20
-0.690981109707366
30
0
0
SPLINE
5
A4
100
AcDbEntity
8
SK1
62
256
6
ByLayer
370
18
48
1
60
0
100
AcDbSpline
70
4
71
3
72
14
73
10
40
0
40
0
40
0
40
0
40
0.499999999999999
40
0.499999999999999
40
0.749999999999999
40
0.749999999999999
40
0.874999999999999
40
0.874999999999999
40
1
40
1
40
1
40
1
41
1
10
-43.4
20
-3.08809253967328
30
0
41
1
10
-43.3790445776494
20
-3.09857829310627
30
0
41
1
10
-43.3587362712602
20
-3.10338514944607
30
0
41
1
10
-43.3304966181166
20
-3.09824080407336
30
0
41
1
10
-43.3215144183093
20
-3.0943851234442
30
0
41
1
10
-43.3103236218556
20
-3.08287460424654
30
0
41
1
10
-43.3069030532022
20
-3.07797698712918
30
0
41
1
10
-43.3017205322972
20
-3.06502979612947
30
0
41
1
10
-43.3
20
-3.05691509464066
30
0
41
1
10
-43.3
20
-3.04720583983442
30
0
0
SPLINE
5
A5
100
AcDbEntity
8
SK1
62
256
6
ByLayer
370
18
48
1
60
0
100
AcDbSpline
70
4
71
3
72
8
73
4
40
0
40
0
40
0
40
0
40
1
40
1
40
1
40
1
41
1
10
-44.7670140051299
20
0.0003373187409181
30
0
41
1
10
-44.8449409828191
20
-0.0396369086201673
30
0
41
1
10
-44.9226213610947
20
-0.0796496396814064
30
0
41
1
10
-45
20
-0.119709483921326
30
0
0
SPLINE
5
A6
100
AcDbEntity
8
1
62
256
6
ByLayer
370
18
48
1
60
0
100
AcDbSpline
70
4
71
3
72
50
73
46
40
0
40
0
40
0
40
0
40
0.0624999999999943
40
0.0624999999999943
40
0.124999999999988
40
0.124999999999988
40
0.187499999999983
40
0.187499999999983
40
0.249999999999977
40
0.249999999999977
40
0.312499999999971
40
0.312499999999971
40
0.343749999999968
40
0.343749999999968
40
0.374999999999965
40
0.374999999999965
40
0.390624999999965
40
0.390624999999965
40
0.406249999999965
40
0.406249999999965
40
0.421874999999965
40
0.421874999999965
40
0.437499999999965
40
0.437499999999965
40
0.453124999999965
40
0.453124999999965
40
0.468749999999965
40
0.468749999999965
40
0.484374999999965
40
0.484374999999965
40
0.499999999999964
40
0.499999999999964
40
0.531249999999964
40
0.531249999999964
40
0.562499999999964
40
0.562499999999964
40
0.624999999999969
40
0.624999999999969
40
0.687499999999975
40
0.687499999999975
40
0.74999999999998
40
0.74999999999998
40
0.87499999999999
40
0.87499999999999
40
1
40
1
40
1
40
1
41
1
10
76.8047657997723
20
-3.15741231389984
30
0
41
1
10
76.7022295904727
20
-3.11854946577887
30
0
41
1
10
76.5996509899059
20
-3.07538517580866
30
0
41
1
10
76.3972154849411
20
-2.9812701047839
30
0
41
1
10
76.2970225783354
20
-2.93021076715016
30
0
41
1
10
76.0989140441135
20
-2.8191998085621
30
0
41
1
10
76.0009914837308
20
-2.75927525856665
30
0
41
1
10
75.8079450642032
20
-2.62849783383209
30
0
41
1
10
75.7122000144445
20
-2.55720230701382
30
0
41
1
10
75.5282479740117
20
-2.40201960011294
30
0
41
1
10
75.4399455380658
20
-2.31850964866265
30
0
41
1
10
75.3169453055316
20
-2.17801409200265
30
0
41
1
10
75.2772017133271
20
-2.12808140301814
30
0
41
1
10
75.2048913954588
20
-2.02325609480695
30
0
41
1
10
75.1721937558489
20
-1.96849248109058
30
0
41
1
10
75.131731627773
20
-1.88051009638698
30
0
41
1
10
75.1196099492437
20
-1.84984889632145
30
0
41
1
10
75.1002218806137
20
-1.78795456844131
30
0
41
1
10
75.0928767194924
20
-1.75667473335082
30
0
41
1
10
75.084299550824
20
-1.69324925660467
30
0
41
1
10
75.0832650253402
20
-1.662323849177
30
0
41
1
10
75.0882592740927
20
-1.60243039753539
30
0
41
1
10
75.0944722729646
20
-1.57323360080335
30
0
41
1
10
75.1131650330379
20
-1.52023385014397
30
0
41
1
10
75.125813083358
20
-1.49569258405813
30
0
41
1
10
75.1555498589002
20
-1.45187231570924
30
0
41
1
10
75.172509296661
20
-1.43257541220473
30
0
41
1
10
75.2095981651155
20
-1.397943214337
30
0
41
1
10
75.2298413156322
20
-1.38258089511959
30
0
41
1
10
75.2717358412655
20
-1.35570961360545
30
0
41
1
10
75.2935109794647
20
-1.34407128937838
30
0
41
1
10
75.3607351928748
20
-1.31327860679585
30
0
41
1
10
75.4083497974769
20
-1.29812634022491
30
0
41
1
10
75.5053930916336
20
-1.27547528722042
30
0
41
1
10
75.554724572205
20
-1.2679766311843
30
0
41
1
10
75.7044124688294
20
-1.25348308905387
30
0
41
1
10
75.8064337102328
20
-1.25435533986982
30
0
41
1
10
76.0132834881877
20
-1.26936572268025
30
0
41
1
10
76.1166337080383
20
-1.28353320350658
30
0
41
1
10
76.3231330598261
20
-1.32135143708047
30
0
41
1
10
76.4263006032269
20
-1.3450662055528
30
0
41
1
10
76.7356004957887
20
-1.42807288656215
30
0
41
1
10
76.9415497071453
20
-1.49894801109627
30
0
41
1
10
77.3529019102893
20
-1.66918107691373
30
0
41
1
10
77.5554608641644
20
-1.76724976082161
30
0
41
1
10
77.754142098682
20
-1.88143086914187
30
0
0
SPLINE
5
A7
100
AcDbEntity
8
1
62
256
6
ByLayer
370
18
48
1
60
0
100
AcDbSpline
70
4
71
3
72
18
73
14
40
0
40
0
40
0
40
0
40
0.0246215227358812
40
0.0246215227358812
40
0.087426252909046
40
0.087426252909046
40
0.213035713255376
40
0.213035713255376
40
0.71547355464069
40
0.71547355464069
40
0.966692475333347
40
0.966692475333347
40
1
40
1
40
1
40
1
41
1
10
19.007161248906
20
-0.0006905497479863
30
0
41
1
10
19.0840071862924
20
-0.039321503273527
30
0
41
1
10
19.1608460698337
20
-0.0779513930582993
30
0
41
1
10
19.4334541361393
20
-0.214982152476296
30
0
41
1
10
19.62895454847
20
-0.31321671522602
30
0
41
1
10
20.2146135872835
20
-0.606989216549437
30
0
41
1
10
20.603958508007
20
-0.801546981752892
30
0
41
1
10
22.5467528494413
20
-1.7648531181666
30
0
41
1
10
24.0881807050375
20
-2.50541912384574
30
0
41
1
10
26.4155939696429
20
-3.50571129603912
30
0
41
1
10
27.1938901486839
20
-3.82083111534271
30
0
41
1
10
28.0814150621562
20
-4.15102802038928
30
0
41
1
10
28.1853000402525
20
-4.18922544945465
30
0
41
1
10
28.2891463404697
20
-4.22694510976126
30
0
0
SPLINE
5
A8
100
AcDbEntity
8
1
62
256
6
ByLayer
370
13
48
1
60
0
100
AcDbSpline
70
4
71
3
72
18
73
14
40
0
40
0
40
0
40
0
40
0.0727354356942339
40
0.0727354356942339
40
0.171717638099191
40
0.171717638099191
40
0.567646447719022
40
0.567646447719022
40
0.765610852528936
40
0.765610852528936
40
0.963575257338852
40
0.963575257338852
40
1
40
1
40
1
40
1
41
1
10
28.2891454006335
20
-4.22694476838848
30
0
41
1
10
28.576924966219
20
-4.33147375246918
30
0
41
1
10
28.8644075023114
20
-4.432333670448
30
0
41
1
10
29.5410379881093
20
-4.66071418795869
30
0
41
1
10
29.9299988340335
20
-4.78498166769722
30
0
41
1
10
31.8710181857364
20
-5.36774295308453
30
0
41
1
10
33.4122511187789
20
-5.70972966076144
30
0
41
1
10
35.7404908810505
20
-6.00687223156001
30
0
41
1
10
36.5195931627922
20
-6.07000582214962
30
0
41
1
10
38.0879252250761
20
-6.12009213892713
30
0
41
1
10
38.870777473831
20
-6.10689286338066
30
0
41
1
10
39.799142855575
20
-6.04612558215712
30
0
41
1
10
39.9432230441175
20
-6.03540759779722
30
0
41
1
10
40.0871305162275
20
-6.02343095502312
30
0
0
SPLINE
5
A9
100
AcDbEntity
8
1
62
256
6
ByLayer
370
18
48
1
60
0
100
AcDbSpline
70
4
71
3
72
10
73
6
40
0
40
0
40
0
40
0
40
0.5
40
0.5
40
1
40
1
40
1
40
1
41
1
10
76.7939368948313
20
1.50109307678235
30
0
41
1
10
77.1095813332847
20
1.4902855919253
30
0
41
1
10
77.4252141440123
20
1.47960186249088
30
0
41
1
10
78.0565134197547
20
1.45787621659542
30
0
41
1
10
78.3721516543907
20
1.4471347597871
30
0
41
1
10
78.6877132519083
20
1.43720896195154
30
0
0
SPLINE
5
AA
100
AcDbEntity
8
1
62
256
6
ByLayer
370
18
48
1
60
0
100
AcDbSpline
70
4
71
3
72
12
73
8
40
0
40
0
40
0
40
0
40
0.25
40
0.25
40
0.5
40
0.5
40
1
40
1
40
1
40
1
41
1
10
2.10530316224723
20
0.521583127783117
30
0
41
1
10
2.07224372998553
20
0.621664641373428
30
0
41
1
10
2.04628589637343
20
0.722698754447833
30
0
41
1
10
2.01046566623461
20
0.926958948394173
30
0
41
1
10
2.00058781966877
20
1.03046758589298
30
0
41
1
10
1.99882706477211
20
1.34307277783148
30
0
41
1
10
2.03469071568742
20
1.54333392408211
30
0
41
1
10
2.10530316224083
20
1.73542252230692
30
0
0
SPLINE
5
AB
100
AcDbEntity
8
1
62
256
6
ByLayer
370
18
48
1
60
0
100
AcDbSpline
70
4
71
3
72
32
73
28
40
0
40
0
40
0
40
0
40
0.0624999999999967
40
0.0624999999999967
40
0.124999999999993
40
0.124999999999993
40
0.18749999999999
40
0.18749999999999
40
0.218749999999989
40
0.218749999999989
40
0.249999999999987
40
0.249999999999987
40
0.374999999999986
40
0.374999999999986
40
0.437499999999985
40
0.437499999999985
40
0.499999999999984
40
0.499999999999984
40
0.624999999999986
40
0.624999999999986
40
0.687499999999988
40
0.687499999999988
40
0.749999999999991
40
0.749999999999991
40
0.874999999999995
40
0.874999999999995
40
1
40
1
40
1
40
1
41
1
10
70.7539071098383
20
2.22118211484866
30
0
41
1
10
70.741287333191
20
2.04324386637848
30
0
41
1
10
70.7410487374976
20
1.86202843488701
30
0
41
1
10
70.7656212502509
20
1.49296714905486
30
0
41
1
10
70.7908740895998
20
1.30369063082398
30
0
41
1
10
70.8641646195497
20
0.93156968379472
30
0
41
1
10
70.9121072448507
20
0.747438076010525
30
0
41
1
10
70.9993666942157
20
0.473860695051599
30
0
41
1
10
71.0310176760599
20
0.383106086899034
30
0
41
1
10
71.0992536637887
20
0.202439285955563
30
0
41
1
10
71.1359816224083
20
0.112216321835149
30
0
41
1
10
71.3293156740982
20
-0.331843780439584
30
0
41
1
10
71.5146036642798
20
-0.666076259740947
30
0
41
1
10
71.8267655772863
20
-1.14393232802348
30
0
41
1
10
71.9369265572828
20
-1.29963702088665
30
0
41
1
10
72.1663597842982
20
-1.60208554742746
30
0
41
1
10
72.2847156806159
20
-1.74772937941475
30
0
41
1
10
72.6492629429081
20
-2.17012501477652
30
0
41
1
10
72.9050236170734
20
-2.43220335923792
30
0
41
1
10
73.3042120983071
20
-2.80148057760445
30
0
41
1
10
73.4398463330959
20
-2.92063001892245
30
0
41
1
10
73.7157797519174
20
-3.15177572604216
30
0
41
1
10
73.8563973907375
20
-3.26397931917842
30
0
41
1
10
74.2814238455734
20
-3.58795555222994
30
0
41
1
10
74.5695827370216
20
-3.78777425992649
30
0
41
1
10
75.1540706810201
20
-4.15994152836169
30
0
41
1
10
75.4504064765761
20
-4.33226741741086
30
0
41
1
10
75.7504097751745
20
-4.4922622341229
30
0
0
SPLINE
5
AC
100
AcDbEntity
8
1
62
256
6
ByLayer
370
18
48
1
60
0
100
AcDbSpline
70
4
71
3
72
10
73
6
40
0
40
0
40
0
40
0
40
0.5
40
0.5
40
1
40
1
40
1
40
1
41
1
10
78.9956864215878
20
0.205576016799
30
0
41
1
10
78.9858202643656
20
0.441202421052793
30
0
41
1
10
78.9586587401735
20
0.680299323106425
30
0
41
1
10
78.8740398614767
20
1.16778638110006
30
0
41
1
10
78.8167154409324
20
1.41715802250684
30
0
41
1
10
78.7471246909308
20
1.67736464523853
30
0
0
SPLINE
5
AD
100
AcDbEntity
8
1
62
256
6
ByLayer
370
18
48
1
60
0
100
AcDbSpline
70
4
71
3
72
14
73
10
40
0
40
0
40
0
40
0
40
0.148257769403694
40
0.148257769403694
40
0.296515538807388
40
0.296515538807388
40
0.593031077614781
40
0.593031077614781
40
1
40
1
40
1
40
1
41
1
10
76.9454935557835
20
-6.0259872156785
30
0
41
1
10
76.5540751578317
20
-6.03480768098251
30
0
41
1
10
76.1621890519472
20
-6.03413203353213
30
0
41
1
10
75.3813775578606
20
-6.01400872829703
30
0
41
1
10
74.9921586272333
20
-5.99459242822775
30
0
41
1
10
73.8270830100762
20
-5.90902714569637
30
0
41
1
10
73.0537001444011
20
-5.81558605047431
30
0
41
1
10
71.2204583985256
20
-5.5120292063817
30
0
41
1
10
70.1610727857038
20
-5.27114468899399
30
0
41
1
10
69.0956586844466
20
-4.97126458154406
30
0
0
SPLINE
5
AE
100
AcDbEntity
8
1
62
256
6
ByLayer
370
13
48
1
60
0
100
AcDbSpline
70
4
71
3
72
26
73
22
40
0
40
0
40
0
40
0
40
0.0920487006262718
40
0.0920487006262718
40
0.165394793336768
40
0.165394793336768
40
0.238740886047264
40
0.238740886047264
40
0.385433071468258
40
0.385433071468258
40
0.678817442310249
40
0.678817442310249
40
0.715490488665497
40
0.715490488665497
40
0.752163535020745
40
0.752163535020745
40
0.825509627731239
40
0.825509627731239
40
0.972201813152229
40
0.972201813152229
40
1
40
1
40
1
40
1
41
1
10
69.0956589996826
20
-4.97126467027297
30
0
41
1
10
68.6085621342203
20
-4.83416243493031
30
0
41
1
10
68.1202051770011
20
-4.68472877239066
30
0
41
1
10
67.2392191572785
20
-4.39514461734575
30
0
41
1
10
66.8471477428548
20
-4.25919606482427
30
0
41
1
10
66.0670931454344
20
-3.97590720428062
30
0
41
1
10
65.6782134924606
20
-3.82826803173293
30
0
41
1
10
64.5139633349049
20
-3.36933095515641
30
0
41
1
10
63.7408432282124
20
-3.0421610466995
30
0
41
1
10
61.4223225643901
20
-2.01253134909285
30
0
41
1
10
59.8782685522309
20
-1.26065963811803
30
0
41
1
10
58.117851579844
20
-0.389436194836463
30
0
41
1
10
57.9218988959652
20
-0.292277600236275
30
0
41
1
10
57.5310692142715
20
-0.098375158425057
30
0
41
1
10
57.3359646296216
20
-0.0015186513751928
30
0
41
1
10
56.7514426209523
20
0.288472371287753
30
0
41
1
10
56.3628484766442
20
0.481099371198439
30
0
41
1
10
55.1993615145539
20
1.0550475240675
30
0
41
1
10
54.4264081608408
20
1.43157674874578
30
0
41
1
10
53.50742175995
20
1.86680296283703
30
0
41
1
10
53.3610205624915
20
1.93573471118569
30
0
41
1
10
53.2146040689723
20
2.00422640817394
30
0
0
SPLINE
5
AF
100
AcDbEntity
8
1
62
256
6
ByLayer
370
18
48
1
60
0
100
AcDbSpline
70
4
71
3
72
12
73
8
40
0
40
0
40
0
40
0
40
0.249999999999998
40
0.249999999999998
40
0.499999999999996
40
0.499999999999996
40
1
40
1
40
1
40
1
41
1
10
77.1052933156869
20
-6.17418113830942
30
0
41
1
10
77.0849291645556
20
-6.19632260143007
30
0
41
1
10
77.0643013630562
20
-6.21644051084769
30
0
41
1
10
77.0224750071905
20
-6.25257158206804
30
0
41
1
10
77.0012402773217
20
-6.26859873795243
30
0
41
1
10
76.9372310536573
20
-6.31005398355646
30
0
41
1
10
76.8939800569428
20
-6.32904719872755
30
0
41
1
10
76.8500513290488
20
-6.33966791742603
30
0
0
SPLINE
5
B0
100
AcDbEntity
8
1
62
256
6
ByLayer
370
18
48
1
60
0
100
AcDbSpline
70
4
71
3
72
8
73
4
40
0
40
0
40
0
40
0
40
1
40
1
40
1
40
1
41
1
10
78.9956864215879
20
0.205576016799
30
0
41
1
10
78.9959068721711
20
0.172920363378495
30
0
41
1
10
78.9957507232531
20
0.140274922538055
30
0
41
1
10
78.995201027894
20
0.107640153842709
30
0
0
SPLINE
5
B1
100
AcDbEntity
8
1
62
256
6
ByLayer
370
18
48
1
60
0
100
AcDbSpline
70
4
71
3
72
12
73
8
40
0
40
0
40
0
40
0
40
0.249999999999999
40
0.249999999999999
40
0.499999999999999
40
0.499999999999999
40
1
40
1
40
1
40
1
41
1
10
78.7471246909345
20
-1.677364645225
30
0
41
1
10
78.7823262209856
20
-1.54574268038874
30
0
41
1
10
78.8144334930026
20
-1.41664708637131
30
0
41
1
10
78.871294665241
20
-1.16443242491948
30
0
41
1
10
78.8961452289914
20
-1.04094958565591
30
0
41
1
10
78.9592091121555
20
-0.67607504788387
30
0
41
1
10
78.9858588325962
20
-0.440281323476682
30
0
41
1
10
78.9956864215878
20
-0.205576016799
30
0
0
SPLINE
5
B2
100
AcDbEntity
8
1
62
256
6
ByLayer
370
18
48
1
60
0
100
AcDbSpline
70
4
71
3
72
8
73
4
40
0
40
0
40
0
40
0
40
1
40
1
40
1
40
1
41
1
10
78.9952010278919
20
-0.107640153846262
30
0
41
1
10
78.9948759202723
20
-0.0883388958057196
30
0
41
1
10
78.9966350209485
20
-0.0654248376254998
30
0
41
1
10
78.9998261536331
20
-0.0412258641406993
30
0
0
SPLINE
5
B3
100
AcDbEntity
8
1
62
256
6
ByLayer
370
18
48
1
60
0
100
AcDbSpline
70
4
71
3
72
10
73
6
40
0
40
0
40
0
40
0
40
0.5
40
0.5
40
1
40
1
40
1
40
1
41
1
10
77.1052933156877
20
6.17418113830851
30
0
41
1
10
77.0646240689877
20
6.21839985482413
30
0
41
1
10
77.0228045438491
20
6.25461101558855
30
0
41
1
10
76.9373100597318
20
6.31002447348584
30
0
41
1
10
76.8940076001411
20
6.32904053956449
30
0
41
1
10
76.8500513290488
20
6.33966791742597
30
0
0
SPLINE
5
B4
100
AcDbEntity
8
1
62
256
6
ByLayer
370
18
48
1
60
0
100
AcDbSpline
70
4
71
3
72
10
73
6
40
0
40
0
40
0
40
0
40
0.619963411983885
40
0.619963411983885
40
1
40
1
40
1
40
1
41
1
10
2.10530316224083
20
2.11659098535304
30
0
41
1
10
2.10530316224083
20
2.05232059049453
30
0
41
1
10
2.10530316224083
20
1.98811324790469
30
0
41
1
10
2.10530316224083
20
1.88422434196917
30
0
41
1
10
2.10530316224086
20
1.84467817740233
30
0
41
1
10
2.10530316224086
20
1.80506798535294
30
0
0
SPLINE
5
B5
100
AcDbEntity
8
1
62
256
6
ByLayer
370
18
48
1
60
0
100
AcDbSpline
70
4
71
3
72
14
73
10
40
0
40
0
40
0
40
0
40
0.25
40
0.25
40
0.5
40
0.5
40
0.75
40
0.75
40
1
40
1
40
1
40
1
41
1
10
76.6150138356769
20
1.37512847057027
30
0
41
1
10
76.6140439003908
20
1.39527812619329
30
0
41
1
10
76.6185799215768
20
1.41563122991005
30
0
41
1
10
76.6392758607415
20
1.45078765753408
30
0
41
1
10
76.6553708056794
20
1.4653891185425
30
0
41
1
10
76.6913787704203
20
1.48608391038317
30
0
41
1
10
76.7116112428815
20
1.49275533438552
30
0
41
1
10
76.7522804387208
20
1.50054913070625
30
0
41
1
10
76.7731291078978
20
1.50180552349383
30
0
41
1
10
76.7939368948313
20
1.5010930767823
30
0
0
SPLINE
5
B6
100
AcDbEntity
8
1
62
256
6
ByLayer
370
18
48
1
60
0
100
AcDbSpline
70
4
71
3
72
8
73
4
40
0
40
0
40
0
40
0
40
1
40
1
40
1
40
1
41
1
10
78.9507725861124
20
-0.103462766705576
30
0
41
1
10
78.5701326988046
20
-0.715040601911511
30
0
41
1
10
78.1682292143549
20
-1.30455631954462
30
0
41
1
10
77.7541420986819
20
-1.88143086914189
30
0
0
SPLINE
5
B7
100
AcDbEntity
8
1
62
256
6
ByLayer
370
18
48
1
60
0
100
AcDbSpline
70
4
71
3
72
8
73
4
40
0
40
0
40
0
40
0
40
1
40
1
40
1
40
1
41
1
10
76.8047657997724
20
-3.15741231389984
30
0
41
1
10
76.4583716380317
20
-3.60830436574
30
0
41
1
10
76.1064244781252
20
-4.0526726231339
30
0
41
1
10
75.7504097751745
20
-4.49226223412293
30
0
0
SPLINE
5
B8
100
AcDbEntity
8
1
62
256
6
ByLayer
370
18
48
1
60
0
100
AcDbSpline
70
4
71
3
72
8
73
4
40
0
40
0
40
0
40
0
40
1
40
1
40
1
40
1
41
1
10
78.9998261536377
20
-0.0412258641285348
30
0
41
1
10
79.0000578433717
20
-0.0137519741878407
30
0
41
1
10
79.0000580421939
20
0.0137283977264815
30
0
41
1
10
78.999826153638
20
0.0412258641007099
30
0
0
SPLINE
5
B9
100
AcDbEntity
8
1
62
256
6
ByLayer
370
18
48
1
60
0
100
AcDbSpline
70
4
71
3
72
20
73
16
40
0
40
0
40
0
40
0
40
0.0016237616332418
40
0.0016237616332418
40
0.059615551419201
40
0.059615551419201
40
0.11760734120516
40
0.11760734120516
40
0.581541659492823
40
0.581541659492823
40
0.813508818636653
40
0.813508818636653
40
0.92949239820857
40
0.92949239820857
40
1
40
1
40
1
40
1
41
1
10
57.1062147508467
20
0.0023123636673859
30
0
41
1
10
57.1116735277859
20
-0.0004408788936701
30
0
41
1
10
57.117132525127
20
-0.003194233499471
30
0
41
1
10
57.3175648573157
20
-0.104286244094567
30
0
41
1
10
57.5128118186823
20
-0.20278300559059
30
0
41
1
10
57.9039480969645
20
-0.399898139689128
30
0
41
1
10
58.1000634698454
20
-0.498630059579938
30
0
41
1
10
59.8613533406663
20
-1.3833132195621
30
0
41
1
10
61.4056947139532
20
-2.14404666701125
30
0
41
1
10
63.7250267629537
20
-3.18188474634096
30
0
41
1
10
64.4984558086582
20
-3.51099406987589
30
0
41
1
10
65.6633145519643
20
-3.97160099375634
30
0
41
1
10
66.0524288940002
20
-4.11957730767816
30
0
41
1
10
66.6800129534913
20
-4.34750742734167
30
0
41
1
10
66.9180612081924
20
-4.43149538483408
30
0
41
1
10
67.1560651679799
20
-4.51287088927981
30
0
0
SPLINE
5
BA
100
AcDbEntity
8
1
62
256
6
ByLayer
370
13
48
1
60
0
100
AcDbSpline
70
4
71
3
72
16
73
12
40
0
40
0
40
0
40
0
40
0.0467213535355251
40
0.0467213535355251
40
0.523360676767764
40
0.523360676767764
40
0.761680338383882
40
0.761680338383882
40
0.880840169191942
40
0.880840169191942
40
1
40
1
40
1
40
1
41
1
10
67.156065167356
20
-4.51287088906651
30
0
41
1
10
67.3095729101616
20
-4.56535644442857
30
0
41
1
10
67.463062226331
20
-4.61675522213693
30
0
41
1
10
69.1797427728773
20
-5.1790576606312
30
0
41
1
10
70.7230041338707
20
-5.56825333395099
30
0
41
1
10
73.0418874170161
20
-5.93940010181566
30
0
41
1
10
73.8156054448858
20
-6.02779799991322
30
0
41
1
10
74.9813779438799
20
-6.10468753030847
30
0
41
1
10
75.3708613351673
20
-6.12102105539526
30
0
41
1
10
76.1522789802899
20
-6.13459983086028
30
0
41
1
10
76.5444500553853
20
-6.13181001373277
30
0
41
1
10
76.9361122825051
20
-6.11935690699778
30
0
0
SPLINE
5
BB
100
AcDbEntity
8
1
62
256
6
ByLayer
370
18
48
1
60
0
100
AcDbSpline
70
4
71
3
72
10
73
6
40
0
40
0
40
0
40
0
40
0.5
40
0.5
40
1
40
1
40
1
40
1
41
1
10
78.9998261536379
20
0.0412258641006531
30
0
41
1
10
78.996637795531
20
0.0178499202559976
30
0
41
1
10
78.9908851070038
20
-0.0081277897758696
30
0
41
1
10
78.9739051439267
20
-0.0594792290306998
30
0
41
1
10
78.9625048108911
20
-0.0846124862395072
30
0
41
1
10
78.9507725861124
20
-0.103462766705576
30
0
0
SPLINE
5
BC
100
AcDbEntity
8
1
62
256
6
ByLayer
370
18
48
1
60
0
100
AcDbSpline
70
4
71
3
72
8
73
4
40
0
40
0
40
0
40
0
40
1
40
1
40
1
40
1
41
1
10
76.8500513290488
20
6.33966791742594
30
0
41
1
10
76.6204155137168
20
6.34633448202393
30
0
41
1
10
76.3907790310788
20
6.34958136183198
30
0
41
1
10
76.1610716491887
20
6.34940999775549
30
0
0
SPLINE
5
BD
100
AcDbEntity
8
1
62
256
6
ByLayer
370
18
48
1
60
0
100
AcDbSpline
70
4
71
3
72
50
73
46
40
0
40
0
40
0
40
0
40
0.0261464969739163
40
0.0261464969739163
40
0.0556572091868276
40
0.0556572091868276
40
0.114678633612651
40
0.114678633612651
40
0.173700058038474
40
0.173700058038474
40
0.232721482464297
40
0.232721482464297
40
0.262232194677209
40
0.262232194677209
40
0.291742906890121
40
0.291742906890121
40
0.350764331315944
40
0.350764331315944
40
0.380275043528856
40
0.380275043528856
40
0.409785755741767
40
0.409785755741767
40
0.468807180167591
40
0.468807180167591
40
0.498317892380504
40
0.498317892380504
40
0.527828604593416
40
0.527828604593416
40
0.586850029019239
40
0.586850029019239
40
0.645871453445062
40
0.645871453445062
40
0.675382165657973
40
0.675382165657973
40
0.704892877870885
40
0.704892877870885
40
0.763914302296708
40
0.763914302296708
40
0.79342501450962
40
0.79342501450962
40
0.822935726722531
40
0.822935726722531
40
0.881957151148354
40
0.881957151148354
40
1
40
1
40
1
40
1
41
1
10
41.7710596105706
20
-6.03373122072398
30
0
41
1
10
41.4280395685652
20
-6.08745309711884
30
0
41
1
10
41.0842508116378
20
-6.13405541083517
30
0
41
1
10
40.3502200763601
20
-6.21756505570488
30
0
41
1
10
39.9599350425785
20
-6.25239204401646
30
0
41
1
10
38.7924974436833
20
-6.32741787116589
30
0
41
1
10
38.0159679747181
20
-6.33852032830586
30
0
41
1
10
36.4603835534645
20
-6.28275845370433
30
0
41
1
10
35.6796787789659
20
-6.21555439678377
30
0
41
1
10
34.123610072027
20
-6.00587578626241
30
0
41
1
10
33.3469922310214
20
-5.86351924332817
30
0
41
1
10
32.1795899899007
20
-5.59679611603622
30
0
41
1
10
31.7896545892732
20
-5.49891938082351
30
0
41
1
10
31.0100682351617
20
-5.28649225497253
30
0
41
1
10
30.62091913392
20
-5.1721081871456
30
0
41
1
10
29.4542212791466
20
-4.80590151890024
30
0
41
1
10
28.677435461313
20
-4.53100685637355
30
0
41
1
10
27.509290433354
20
-4.07821250730279
30
0
41
1
10
27.1189421938298
20
-3.9204113153111
30
0
41
1
10
26.3398525450324
20
-3.59385087621197
30
0
41
1
10
25.9508594035592
20
-3.42499423377652
30
0
41
1
10
24.7843362079316
20
-2.90370901036437
30
0
41
1
10
24.0073663596585
20
-2.53637999859549
30
0
41
1
10
22.83817897512
20
-1.96388778390374
30
0
41
1
10
22.447958595712
20
-1.76940334414186
30
0
41
1
10
21.6693395859838
20
-1.37658184485383
30
0
41
1
10
21.2804516734557
20
-1.17803694578203
30
0
41
1
10
20.1139308023803
20
-0.578148263386424
30
0
41
1
10
19.3366705133992
20
-0.172105626110181
30
0
41
1
10
17.7763625832155
20
0.639506181094845
30
0
41
1
10
16.9985136238382
20
1.04253458061817
30
0
41
1
10
15.8319827711116
20
1.6334493404471
30
0
41
1
10
15.443095498301
20
1.82817757814305
30
0
41
1
10
14.664540847451
20
2.21184336342182
30
0
41
1
10
14.2744649544334
20
2.40094935134451
30
0
41
1
10
13.1046610099191
20
2.955798346769
30
0
41
1
10
12.3273603187454
20
3.30838259809119
30
0
41
1
10
11.1605993154618
20
3.80371699088715
30
0
41
1
10
10.7715389050369
20
3.96323382087903
30
0
41
1
10
9.99242991494847
20
4.26994548000081
30
0
41
1
10
9.60179889023655
20
4.41731848619821
30
0
41
1
10
8.4341564909258
20
4.83656961627693
30
0
41
1
10
7.6600154767913
20
5.08638161761166
30
0
41
1
10
5.34092891997204
20
5.7373290204784
30
0
41
1
10
3.79977131258301
20
6.04039833923073
30
0
41
1
10
2.2399540299707
20
6.19149213369172
30
0
0
SPLINE
5
BE
100
AcDbEntity
8
1
62
256
6
ByLayer
370
18
48
1
60
0
100
AcDbSpline
70
4
71
3
72
52
73
48
40
0
40
0
40
0
40
0
40
0.0312500000000001
40
0.0312500000000001
40
0.0468750000000001
40
0.0468750000000001
40
0.0625000000000001
40
0.0625000000000001
40
0.0781250000000001
40
0.0781250000000001
40
0.0937500000000001
40
0.0937500000000001
40
0.109375
40
0.109375
40
0.125
40
0.125
40
0.15625
40
0.15625
40
0.1875
40
0.1875
40
0.21875
40
0.21875
40
0.25
40
0.25
40
0.3125
40
0.3125
40
0.375
40
0.375
40
0.4375
40
0.4375
40
0.5
40
0.5
40
0.5625
40
0.5625
40
0.625
40
0.625
40
0.6875
40
0.6875
40
0.75
40
0.75
40
0.8125
40
0.8125
40
0.875
40
0.875
40
0.9375
40
0.9375
40
1
40
1
40
1
40
1
41
1
10
2.73313744631403
20
1.73225785332656
30
0
41
1
10
2.66046019522244
20
1.57678419965751
30
0
41
1
10
2.61114043385661
20
1.41367328487536
30
0
41
1
10
2.57684782849051
20
1.15573313588527
30
0
41
1
10
2.57227000389525
20
1.06832267026212
30
0
41
1
10
2.57640449032871
20
0.895072084670829
30
0
41
1
10
2.5850148276669
20
0.808575070847837
30
0
41
1
10
2.61440712095867
20
0.635793747655839
30
0
41
1
10
2.6353263989738
20
0.549351944862309
30
0
41
1
10
2.68672071343806
20
0.381591763416054
30
0
41
1
10
2.71728058706765
20
0.299584570956284
30
0
41
1
10
2.78654312908623
20
0.13869950981686
30
0
41
1
10
2.82525338344163
20
0.0598246157518361
30
0
41
1
10
2.90970546735275
20
-0.0952281002313669
30
0
41
1
10
2.95539255199461
20
-0.171225642571102
30
0
41
1
10
3.0990463761309
20
-0.392033543217423
30
0
41
1
10
3.20422888702655
20
-0.531221782722923
30
0
41
1
10
3.4279266978196
20
-0.798184682330003
30
0
41
1
10
3.54649815979656
20
-0.925912022423546
30
0
41
1
10
3.79384880221505
20
-1.17257955072927
30
0
41
1
10
3.92156745856624
20
-1.2904184447217
30
0
41
1
10
4.1815925390226
20
-1.51648165487299
30
0
41
1
10
4.31417543492759
20
-1.6249454857485
30
0
41
1
10
4.71789434501906
20
-1.9395082550559
30
0
41
1
10
4.99490178122394
20
-2.13494168536988
30
0
41
1
10
5.55944113701366
20
-2.5058346410753
30
0
41
1
10
5.84706522691977
20
-2.68112639340038
30
0
41
1
10
6.43008564531391
20
-3.01636294996439
30
0
41
1
10
6.72583426068985
20
-3.17684394730261
30
0
41
1
10
7.31793484313062
20
-3.48051216689967
30
0
41
1
10
7.61500093158136
20
-3.62408057731517
30
0
41
1
10
8.21068298088926
20
-3.89741964213721
30
0
41
1
10
8.50930172543309
20
-4.02720586050808
30
0
41
1
10
9.10795963760202
20
-4.27452039059204
30
0
41
1
10
9.40801018770537
20
-4.39185351304099
30
0
41
1
10
10.0097515544466
20
-4.61336204166665
30
0
41
1
10
10.3114335513564
20
-4.71773310303217
30
0
41
1
10
10.916692025963
20
-4.91487255235415
30
0
41
1
10
11.2202695398963
20
-5.00758878992829
30
0
41
1
10
11.8299003411148
20
-5.18031258033204
30
0
41
1
10
12.1359679132957
20
-5.26018478911629
30
0
41
1
10
12.7512438609458
20
-5.40726382251697
30
0
41
1
10
13.0606878617416
20
-5.47464429525445
30
0
41
1
10
13.6806823570503
20
-5.59645054799364
30
0
41
1
10
13.9915211537426
20
-5.65081627847471
30
0
41
1
10
14.6157391111192
20
-5.74622234300668
30
0
41
1
10
14.9291326416652
20
-5.78737192599226
30
0
41
1
10
15.244276378019
20
-5.82278549992358
30
0
0
SPLINE
5
BF
100
AcDbEntity
8
1
62
256
6
ByLayer
370
18
48
1
60
0
100
AcDbSpline
70
4
71
3
72
8
73
4
40
0
40
0
40
0
40
0
40
1
40
1
40
1
40
1
41
1
10
2.10530316224083
20
2.13854598008967
30
0
41
1
10
2.15758110414492
20
2.11241218259505
30
0
41
1
10
2.20986645306536
20
2.08624608077363
30
0
41
1
10
2.26215960611182
20
2.06004870202116
30
0
0
SPLINE
5
C0
100
AcDbEntity
8
1
62
256
6
ByLayer
370
13
48
1
60
0
100
AcDbSpline
70
4
71
3
72
51
73
47
40
0
40
0
40
0
40
0
40
0.0323676944393451
40
0.0323676944393451
40
0.0669259910665114
40
0.0669259910665114
40
0.101484287693678
40
0.101484287693678
40
0.17060088094801
40
0.17060088094801
40
0.205159177575176
40
0.205159177575176
40
0.239717474202343
40
0.239717474202343
40
0.308834067456675
40
0.308834067456675
40
0.377950660711008
40
0.377950660711008
40
0.44706725396534
40
0.44706725396534
40
0.481625550592507
40
0.481625550592507
40
0.516183847219673
40
0.516183847219673
40
0.585300440474005
40
0.585300440474005
40
0.619858737101171
40
0.619858737101171
40
0.654417033728337
40
0.654417033728337
40
0.72353362698267
40
0.72353362698267
40
0.792650220237002
40
0.792650220237002
40
0.827208516864169
40
0.827208516864169
40
0.861766813491335
40
0.861766813491335
40
0.930883406745667
40
0.930883406745667
40
0.965441703372834
40
0.965441703372834
40
0.982720851686417
40
0.991360425843208
40
0.991360425843208
40
1
40
1
40
1
40
1
41
1
10
2.35580511517958
20
-5.98515501706174
30
0
41
1
10
2.35582463971184
20
-5.98280262326443
30
0
41
1
10
2.35584373746653
20
-5.97676439769754
30
0
41
1
10
2.35588247189963
20
-5.95668237809639
30
0
41
1
10
2.35590210430109
20
-5.9419841679082
30
0
41
1
10
2.35594018263663
20
-5.90439124754832
30
0
41
1
10
2.35595867825009
20
-5.88149626729708
30
0
41
1
10
2.35601279174492
20
-5.80076638341617
30
0
41
1
10
2.35604704441204
20
-5.73093562083253
30
0
41
1
10
2.35609654051686
20
-5.60225082970663
30
0
41
1
10
2.35611272320807
20
-5.55535380929032
30
0
41
1
10
2.35614457538915
20
-5.45341612354949
30
0
41
1
10
2.35616029960011
20
-5.39815809145432
30
0
41
1
10
2.35620641961745
20
-5.22153224166433
30
0
41
1
10
2.35623569373638
20
-5.08985437099676
30
0
41
1
10
2.35629214822001
20
-4.79956666995594
30
0
41
1
10
2.35631932640257
20
-4.64095490976965
30
0
41
1
10
2.35637204594903
20
-4.29634033600183
30
0
41
1
10
2.35639765694529
20
-4.10962363318677
30
0
41
1
10
2.35643426019379
20
-3.81335510206924
30
0
41
1
10
2.35644618493677
20
-3.71169307868405
30
0
41
1
10
2.35646925574076
20
-3.5046037364331
30
0
41
1
10
2.35648043119255
20
-3.39894691967677
30
0
41
1
10
2.35651285928992
20
-3.07575549758528
30
0
41
1
10
2.35653302759448
20
-2.85202537586432
30
0
41
1
10
2.35656078032326
20
-2.50401339833766
30
0
41
1
10
2.35656961119429
20
-2.38593358360998
30
0
41
1
10
2.35658633460596
20
-2.14554069562575
30
0
41
1
10
2.35659424935744
20
-2.02280712897468
30
0
41
1
10
2.35661611410586
20
-1.65296584566758
30
0
41
1
10
2.3566282789991
20
-1.4033072839957
30
0
41
1
10
2.35664699725129
20
-0.897973730468408
30
0
41
1
10
2.35665355321547
20
-0.642298528990921
30
0
41
1
10
2.35665825640598
20
-0.254176972794056
30
0
41
1
10
2.35665896330809
20
-0.123589016284598
30
0
41
1
10
2.35665846229119
20
0.136920019619907
30
0
41
1
10
2.35665726193486
20
0.266509132923431
30
0
41
1
10
2.35665065134631
20
0.653327335356039
30
0
41
1
10
2.35664224349313
20
0.908615199588326
30
0
41
1
10
2.35662278940959
20
1.28769759517391
30
0
41
1
10
2.3566151614898
20
1.41341482752801
30
0
41
1
10
2.35660187042839
20
1.60101166398948
30
0
41
1
10
2.3565947622678
20
1.69456513572109
30
0
41
1
10
2.3565869316736
20
1.78774680295493
30
0
41
1
10
2.3565815473188
20
1.84978467101095
30
0
41
1
10
2.3565787415186
20
1.88109518998795
30
0
41
1
10
2.35657591535991
20
1.91169673747683
30
0
0
SPLINE
5
C1
100
AcDbEntity
8
1
62
256
6
ByLayer
370
18
48
1
60
0
100
AcDbSpline
70
4
71
3
72
12
73
8
40
0
40
0
40
0
40
0
40
0.25
40
0.25
40
0.5
40
0.5
40
1
40
1
40
1
40
1
41
1
10
77.105293315683
20
-6.17418113832221
30
0
41
1
10
77.2368494936188
20
-5.79630323214474
30
0
41
1
10
77.3699752506324
20
-5.41940374617516
30
0
41
1
10
77.6390380921954
20
-4.66725815380261
30
0
41
1
10
77.7749839128442
20
-4.29201840152879
30
0
41
1
10
78.1864115540819
20
-3.16837472799904
30
0
41
1
10
78.4655961709087
20
-2.42207922751268
30
0
41
1
10
78.7471246909375
20
-1.67736464522056
30
0
0
SPLINE
5
C2
100
AcDbEntity
8
1
62
256
6
ByLayer
370
18
48
1
60
0
100
AcDbSpline
70
4
71
3
72
8
73
4
40
0
40
0
40
0
40
0
40
1
40
1
40
1
40
1
41
1
10
2.26215960611182
20
2.06004870202116
30
0
41
1
10
2.41680722672666
20
1.94742539434168
30
0
41
1
10
2.57385150908485
20
1.83819083440423
30
0
41
1
10
2.73313744631406
20
1.73225785332656
30
0
0
SPLINE
5
C3
100
AcDbEntity
8
1
62
256
6
ByLayer
370
18
48
1
60
0
100
AcDbSpline
70
4
71
3
72
14
73
10
40
0
40
0
40
0
40
0
40
0.25
40
0.25
40
0.5
40
0.5
40
0.75
40
0.75
40
1
40
1
40
1
40
1
41
1
10
76.9454935557577
20
-6.02598721567907
30
0
41
1
10
76.9487972873651
20
-6.02534789245007
30
0
41
1
10
76.9514405978015
20
-6.02642783196171
30
0
41
1
10
76.9550147003242
20
-6.03307415261418
30
0
41
1
10
76.9558890076606
20
-6.03872837188513
30
0
41
1
10
76.9547953957886
20
-6.0555765623798
30
0
41
1
10
76.9527639826312
20
-6.06677203556814
30
0
41
1
10
76.9459826915672
20
-6.09209246089827
30
0
41
1
10
76.9412864427733
20
-6.10605324782159
30
0
41
1
10
76.9361122825068
20
-6.11935690699772
30
0
0
SPLINE
5
C4
100
AcDbEntity
8
1
62
256
6
ByLayer
370
18
48
1
60
0
100
AcDbSpline
70
4
71
3
72
18
73
14
40
0
40
0
40
0
40
0
40
0.25
40
0.25
40
0.375
40
0.375
40
0.5
40
0.5
40
0.75
40
0.75
40
0.875
40
0.875
40
1
40
1
40
1
40
1
41
1
10
75.7504097751746
20
-4.49226223412293
30
0
41
1
10
75.8486691626407
20
-4.75440892233624
30
0
41
1
10
75.9486898950498
20
-4.98412616330364
30
0
41
1
10
76.100551540515
20
-5.28193063493941
30
0
41
1
10
76.1514888519597
20
-5.3733445897627
30
0
41
1
10
76.2539859804089
20
-5.54008083051397
30
0
41
1
10
76.3055925995417
20
-5.61535170147923
30
0
41
1
10
76.4581383448985
20
-5.81212210638009
30
0
41
1
10
76.5578906561557
20
-5.90675932997169
30
0
41
1
10
76.7052835959209
20
-5.99395829699739
30
0
41
1
10
76.7540886278167
20
-6.01384661844114
30
0
41
1
10
76.8509455880001
20
-6.03444026416807
30
0
41
1
10
76.8985640305235
20
-6.03506880558263
30
0
41
1
10
76.945493555762
20
-6.02598721567824
30
0
0
SPLINE
5
C5
100
AcDbEntity
8
1
62
256
6
ByLayer
370
18
48
1
60
0
100
AcDbSpline
70
4
71
3
72
12
73
8
40
0
40
0
40
0
40
0
40
0.25
40
0.25
40
0.5
40
0.5
40
1
40
1
40
1
40
1
41
1
10
2.23995402997073
20
-6.19149213369172
30
0
41
1
10
2.21960114264377
20
-6.19346364343761
30
0
41
1
10
2.20114642608496
20
-6.19588117269618
30
0
41
1
10
2.16793338962071
20
-6.20149313140408
30
0
41
1
10
2.15341287214687
20
-6.20467012980558
30
0
41
1
10
2.11815447792009
20
-6.21469184809024
30
0
41
1
10
2.10530316224077
20
-6.22214016778699
30
0
41
1
10
2.10530316224083
20
-6.22914892962137
30
0
0
SPLINE
5
C6
100
AcDbEntity
8
1
62
256
6
ByLayer
370
18
48
1
60
0
100
AcDbSpline
70
4
71
3
72
42
73
38
40
0
40
0
40
0
40
0
40
0.0312499999999973
40
0.0312499999999973
40
0.0624999999999945
40
0.0624999999999945
40
0.0937499999999918
40
0.0937499999999918
40
0.124999999999989
40
0.124999999999989
40
0.132812499999988
40
0.132812499999988
40
0.136718749999988
40
0.136718749999988
40
0.140624999999988
40
0.140624999999988
40
0.144531249999989
40
0.144531249999989
40
0.148437499999989
40
0.148437499999989
40
0.152343749999989
40
0.152343749999989
40
0.156249999999989
40
0.156249999999989
40
0.18749999999999
40
0.18749999999999
40
0.249999999999991
40
0.249999999999991
40
0.312499999999991
40
0.312499999999991
40
0.374999999999992
40
0.374999999999992
40
0.499999999999993
40
0.499999999999993
40
0.749999999999996
40
0.749999999999996
40
1
40
1
40
1
40
1
41
1
10
2.26215960611179
20
2.06004870202114
30
0
41
1
10
2.33457715509093
20
2.18001184392932
30
0
41
1
10
2.4198622356098
20
2.29321347196665
30
0
41
1
10
2.6043525154422
20
2.50171284776354
30
0
41
1
10
2.70412203472833
20
2.59805151335072
30
0
41
1
10
2.91522803653325
20
2.77876164468339
30
0
41
1
10
3.02683588959721
20
2.86327084533522
30
0
41
1
10
3.2583429033657
20
3.02194566478175
30
0
41
1
10
3.37775330577509
20
3.09580933454873
30
0
41
1
10
3.53070215705031
20
3.182728927147
30
0
41
1
10
3.5614867094294
20
3.1998448853729
30
0
41
1
10
3.60789654160161
20
3.22511257551912
30
0
41
1
10
3.62340275758916
20
3.23346606270806
30
0
41
1
10
3.65448590029973
20
3.25003871997225
30
0
41
1
10
3.66988590672591
20
3.25853529982561
30
0
41
1
10
3.70288938873071
20
3.27204339975421
30
0
41
1
10
3.72076304560514
20
3.27700374567397
30
0
41
1
10
3.75687162094778
20
3.28452545702822
30
0
41
1
10
3.77497025501742
20
3.28699606954743
30
0
41
1
10
3.81123392747239
20
3.29000971909548
30
0
41
1
10
3.82940839621881
20
3.29027896150458
30
0
41
1
10
3.86575909218791
20
3.29076663683955
30
0
41
1
10
3.88393745499792
20
3.29092298041158
30
0
41
1
10
4.04755426638974
20
3.29199503094068
30
0
41
1
10
4.19305313568367
20
3.29213314150078
30
0
41
1
10
4.62943892261177
20
3.28863906717498
30
0
41
1
10
4.92004657254955
20
3.28163940584847
30
0
41
1
10
5.50064485807658
20
3.25846068290076
30
0
41
1
10
5.79063524568835
20
3.24227776034704
30
0
41
1
10
6.37001154669173
20
3.20076880218937
30
0
41
1
10
6.65975392843518
20
3.17540824793414
30
0
41
1
10
7.52503186518044
20
3.08578886630244
30
0
41
1
10
8.09640026076877
20
3.00806896992555
30
0
41
1
10
9.7951652992121
20
2.72210111248381
30
0
41
1
10
10.9068979912823
20
2.46005561372621
30
0
41
1
10
13.0970027977794
20
1.80224777417425
30
0
41
1
10
14.175356838627
20
1.40612889726774
30
0
41
1
10
15.244276378019
20
0.958567375331313
30
0
0
SPLINE
5
C7
100
AcDbEntity
8
1
62
256
6
ByLayer
370
18
48
1
60
0
100
AcDbSpline
70
4
71
3
72
12
73
8
40
0
40
0
40
0
40
0
40
0.25
40
0.25
40
0.500000000000001
40
0.500000000000001
40
1
40
1
40
1
40
1
41
1
10
2.23995402997073
20
6.19149213369172
30
0
41
1
10
2.21960114264377
20
6.19346364343761
30
0
41
1
10
2.20114642608496
20
6.19588117269618
30
0
41
1
10
2.16793338962071
20
6.20149313140408
30
0
41
1
10
2.15341287214687
20
6.20467012980558
30
0
41
1
10
2.11815447792012
20
6.21469184809024
30
0
41
1
10
2.10530316224077
20
6.22214016778699
30
0
41
1
10
2.1053031622408
20
6.22914892962137
30
0
0
SPLINE
5
C8
100
AcDbEntity
8
1
62
256
6
ByLayer
370
18
48
1
60
0
100
AcDbSpline
70
4
71
3
72
48
73
44
40
0
40
0
40
0
40
0
40
0.0739677519802103
40
0.0739677519802103
40
0.13763872856468
40
0.13763872856468
40
0.169474216856915
40
0.169474216856915
40
0.20130970514915
40
0.20130970514915
40
0.328651658318089
40
0.328651658318089
40
0.455993611487029
40
0.455993611487029
40
0.519664588071499
40
0.519664588071499
40
0.551500076363733
40
0.551500076363733
40
0.567417820509851
40
0.567417820509851
40
0.575376692582909
40
0.575376692582909
40
0.583335564655968
40
0.583335564655968
40
0.587315000692497
40
0.587315000692497
40
0.591294436729027
40
0.591294436729027
40
0.599253308802085
40
0.599253308802085
40
0.615171052948203
40
0.615171052948203
40
0.647006541240437
40
0.647006541240437
40
0.710677517824907
40
0.710677517824907
40
0.838019470993845
40
0.838019470993845
40
0.901690447578314
40
0.901690447578314
40
0.965361424162784
40
0.965361424162784
40
1
40
1
40
1
40
1
41
1
10
15.2442763780189
20
0.958567375330773
30
0
41
1
10
15.2442763780189
20
0.935207534559254
30
0
41
1
10
15.2442763780189
20
0.899778100130362
30
0
41
1
10
15.2442763780189
20
0.812083972450722
30
0
41
1
10
15.2442763780189
20
0.762802986091884
30
0
41
1
10
15.2442763780189
20
0.675774162724707
30
0
41
1
10
15.2442763780189
20
0.644495459684322
30
0
41
1
10
15.2442763780189
20
0.578062812731645
30
0
41
1
10
15.2442763780189
20
0.542900904653891
30
0
41
1
10
15.2442763780189
20
0.35764251960461
30
0
41
1
10
15.2442763780189
20
0.179382554667057
30
0
41
1
10
15.2442763780189
20
-0.23330399344087
30
0
41
1
10
15.244276378019
20
-0.46775497812493
30
0
41
1
10
15.244276378019
20
-0.861717172781908
30
0
41
1
10
15.2442763780189
20
-0.999346237165724
30
0
41
1
10
15.2442763780189
20
-1.2145653491902
30
0
41
1
10
15.2442763780189
20
-1.28779691876233
30
0
41
1
10
15.2442763780189
20
-1.39987476985641
30
0
41
1
10
15.2442763780189
20
-1.43759166766941
30
0
41
1
10
15.2442763780189
20
-1.49468853975688
30
0
41
1
10
15.2442763780189
20
-1.51355849904218
30
0
41
1
10
15.2442763780189
20
-1.55249276379169
30
0
41
1
10
15.2442763780189
20
-1.57677673265954
30
0
41
1
10
15.2442763780189
20
-1.61641341194613
30
0
41
1
10
15.2442763780189
20
-1.63008121487257
30
0
41
1
10
15.2442763780189
20
-1.65749864105402
30
0
41
1
10
15.2442763780189
20
-1.67121446394776
30
0
41
1
10
15.2442763780189
20
-1.71236949386866
30
0
41
1
10
15.2442763780189
20
-1.73981920160276
30
0
41
1
10
15.2442763780189
20
-1.8222074910654
30
0
41
1
10
15.2442763780189
20
-1.87719740561587
30
0
41
1
10
15.2442763780189
20
-2.04222265882234
30
0
41
1
10
15.2442763780189
20
-2.15230159387596
30
0
41
1
10
15.2442763780189
20
-2.48272620893042
30
0
41
1
10
15.2442763780189
20
-2.70351390416744
30
0
41
1
10
15.2442763780189
20
-3.3650205993593
30
0
41
1
10
15.2442763780189
20
-3.7998248007886
30
0
41
1
10
15.2442763780189
20
-4.4424794696385
30
0
41
1
10
15.2442763780189
20
-4.65509784556008
30
0
41
1
10
15.2442763780189
20
-5.07698430895215
30
0
41
1
10
15.2442763780189
20
-5.28710901176518
30
0
41
1
10
15.2442763780189
20
-5.60372548458636
30
0
41
1
10
15.2442763780189
20
-5.71393702440187
30
0
41
1
10
15.2442763780189
20
-5.82278549992367
30
0
0
SPLINE
5
C9
100
AcDbEntity
8
1
62
256
6
ByLayer
370
18
48
1
60
0
100
AcDbSpline
70
4
71
3
72
98
73
94
40
0
40
0
40
0
40
0
40
0.0006724756431926
40
0.0006724756431926
40
0.0210506963329206
40
0.0210506963329206
40
0.0414289170226486
40
0.0414289170226486
40
0.0821853584021046
40
0.0821853584021046
40
0.122941799781561
40
0.122941799781561
40
0.143320020471288
40
0.143320020471288
40
0.163698241161016
40
0.163698241161016
40
0.184076461850744
40
0.184076461850744
40
0.204454682540471
40
0.204454682540471
40
0.224832903230199
40
0.224832903230199
40
0.245211123919927
40
0.245211123919927
40
0.285967565299383
40
0.285967565299383
40
0.306345785989111
40
0.306345785989111
40
0.326724006678839
40
0.326724006678839
40
0.347102227368567
40
0.347102227368567
40
0.367480448058295
40
0.367480448058295
40
0.387858668748023
40
0.387858668748023
40
0.408236889437751
40
0.408236889437751
40
0.428615110127479
40
0.428615110127479
40
0.448993330817207
40
0.448993330817207
40
0.469371551506935
40
0.469371551506935
40
0.489749772196663
40
0.489749772196663
40
0.510127992886391
40
0.510127992886391
40
0.530506213576119
40
0.530506213576119
40
0.550884434265847
40
0.550884434265847
40
0.571262654955575
40
0.571262654955575
40
0.591640875645303
40
0.591640875645303
40
0.612019096335031
40
0.612019096335031
40
0.632397317024759
40
0.632397317024759
40
0.652775537714487
40
0.652775537714487
40
0.673153758404215
40
0.673153758404215
40
0.693531979093943
40
0.693531979093943
40
0.713910199783671
40
0.713910199783671
40
0.734288420473399
40
0.734288420473399
40
0.775044861852854
40
0.775044861852854
40
0.795423082542582
40
0.795423082542582
40
0.815801303232309
40
0.815801303232309
40
0.836179523922036
40
0.836179523922036
40
0.856557744611763
40
0.856557744611763
40
0.876935965301491
40
0.876935965301491
40
0.897314185991218
40
0.897314185991218
40
0.938070627370673
40
0.938070627370673
40
0.958448848060401
40
0.958448848060401
40
0.978827068750129
40
0.978827068750129
40
0.999205289439857
40
0.999205289439857
40
1
40
1
40
1
40
1
41
1
10
26.8034374816228
20
4.53556905084585
30
0
41
1
10
26.8140367223288
20
4.53940435180735
30
0
41
1
10
26.824635552378
20
4.54323436105167
30
0
41
1
10
27.156400637545
20
4.66296109157545
30
0
41
1
10
27.4772093627936
20
4.77398260266085
30
0
41
1
10
28.1175980329584
20
4.98682649396545
30
0
41
1
10
28.4372412435382
20
5.0885077750703
30
0
41
1
10
29.3981820022124
20
5.37513746380552
30
0
41
1
10
30.0399187608757
20
5.54383763163469
30
0
41
1
10
31.3234027404438
20
5.83751666315058
30
0
41
1
10
31.9688710584873
20
5.95926615757634
30
0
41
1
10
32.9410926805483
20
6.10509345579808
30
0
41
1
10
33.2655729800317
20
6.14767326315106
30
0
41
1
10
33.9123215847018
20
6.21869724399124
30
0
41
1
10
34.2352493819701
20
6.24733733574934
30
0
41
1
10
34.8797700862593
20
6.2914137466197
30
0
41
1
10
35.2013994162072
20
6.30684117416402
30
0
41
1
10
35.8428489951514
20
6.32448083396736
30
0
41
1
10
36.1628460936345
20
6.32660253260997
30
0
41
1
10
36.8036100038528
20
6.31762074418015
30
0
41
1
10
37.1240445951857
20
6.3065675692761
30
0
41
1
10
37.7645759411218
20
6.27134990046309
30
0
41
1
10
38.0845661516166
20
6.24714338065542
30
0
41
1
10
39.0442070345939
20
6.1544232912741
30
0
41
1
10
39.6867129282006
20
6.06726362892442
30
0
41
1
10
40.6526946321256
20
5.89749461694745
30
0
41
1
10
40.9746731743583
20
5.83399742852578
30
0
41
1
10
41.6212720455784
20
5.6949469528578
30
0
41
1
10
41.9463359959084
20
5.61930302244147
30
0
41
1
10
42.5954635200287
20
5.45633438118358
30
0
41
1
10
42.9196042374417
20
5.36906965128514
30
0
41
1
10
43.5664338098074
20
5.18224094057334
30
0
41
1
10
43.8894293710397
20
5.08295067836096
30
0
41
1
10
44.5366149006181
20
4.87506682479628
30
0
41
1
10
44.860472952681
20
4.76612840466458
30
0
41
1
10
45.5082777168815
20
4.53770185141602
30
0
41
1
10
45.8320356299676
20
4.41794000129977
30
0
41
1
10
46.4801206341811
20
4.16821969670258
30
0
41
1
10
46.8046044240836
20
4.03942785936857
30
0
41
1
10
47.4513406907156
20
3.7749327596996
30
0
41
1
10
47.773973329721
20
3.63899830099245
30
0
41
1
10
48.4174311121688
20
3.35922461283036
30
0
41
1
10
48.7379185403467
20
3.21478956853724
30
0
41
1
10
49.3792553889377
20
2.92169467438092
30
0
41
1
10
49.6999324516698
20
2.77276832277403
30
0
41
1
10
50.3408045739849
20
2.46935618381491
30
0
41
1
10
50.661048711281
20
2.3149587115486
30
0
41
1
10
51.3005697451022
20
1.9996358580126
30
0
41
1
10
51.6202975040222
20
1.83952076873842
30
0
41
1
10
52.261282497706
20
1.51742418645119
30
0
41
1
10
52.5822502355559
20
1.35491194412825
30
0
41
1
10
53.2247349393485
20
1.0261591303169
30
0
41
1
10
53.5460374147623
20
0.859485884946167
30
0
41
1
10
54.1898178736011
20
0.523496042680307
30
0
41
1
10
54.5128700176837
20
0.355348239892749
30
0
41
1
10
55.1609695425449
20
0.0181047172727631
30
0
41
1
10
55.4861191855547
20
-0.15113113738829
30
0
41
1
10
56.1340321048704
20
-0.489368515731087
30
0
41
1
10
56.4569664754856
20
-0.659219558247941
30
0
41
1
10
57.1037758892293
20
-0.994654197965588
30
0
41
1
10
57.4274253157868
20
-1.1606848812969
30
0
41
1
10
58.074684384512
20
-1.4904016588535
30
0
41
1
10
58.3983314336296
20
-1.65401740968594
30
0
41
1
10
59.0451416848365
20
-1.97967376158522
30
0
41
1
10
59.3690580772841
20
-2.14064522185115
30
0
41
1
10
60.018210212159
20
-2.45626233268999
30
0
41
1
10
60.3424973953972
20
-2.61105237549259
30
0
41
1
10
60.9901069798832
20
-2.91532317706538
30
0
41
1
10
61.3131026614763
20
-3.06534279908863
30
0
41
1
10
62.2823503790468
20
-3.50436356088324
30
0
41
1
10
62.9303063989271
20
-3.78018747186505
30
0
41
1
10
63.9023249227806
20
-4.17273405530622
30
0
41
1
10
64.2263759610308
20
-4.30028415946612
30
0
41
1
10
64.8730641246582
20
-4.5429916134801
30
0
41
1
10
65.1958777122291
20
-4.65885132185846
30
0
41
1
10
65.8399816962508
20
-4.88049090448158
30
0
41
1
10
66.1612707237366
20
-4.98626690155015
30
0
41
1
10
66.8020286919266
20
-5.18795847900603
30
0
41
1
10
67.1222101362621
20
-5.28301095461319
30
0
41
1
10
67.7628291702089
20
-5.46111257338004
30
0
41
1
10
68.0830830142746
20
-5.54437553703562
30
0
41
1
10
68.7231294570785
20
-5.69965737965691
30
0
41
1
10
69.0425689605032
20
-5.77194150905135
30
0
41
1
10
70.0021973870528
20
-5.96990325243277
30
0
41
1
10
70.644609681505
20
-6.07644459196584
30
0
41
1
10
71.6097165379439
20
-6.19925791068141
30
0
41
1
10
71.9315479035275
20
-6.23395104287604
30
0
41
1
10
72.5782027616437
20
-6.28960043812043
30
0
41
1
10
72.9031945276287
20
-6.31075423079096
30
0
41
1
10
73.5514908105586
20
-6.33956060509445
30
0
41
1
10
73.8750083213805
20
-6.34724982334276
30
0
41
1
10
74.2103881930318
20
-6.34816634468686
30
0
41
1
10
74.2229765042935
20
-6.34819036078787
30
0
41
1
10
74.2355649006559
20
-6.34820400222267
30
0
0
SPLINE
5
CA
100
AcDbEntity
8
1
62
256
6
ByLayer
370
18
48
1
60
0
100
AcDbSpline
70
4
71
3
72
104
73
100
40
0
40
0
40
0
40
0
40
0.0235640131748544
40
0.0235640131748544
40
0.0421034342761729
40
0.0421034342761729
40
0.0606428553774915
40
0.0606428553774915
40
0.0977216975801279
40
0.0977216975801279
40
0.116261118681446
40
0.116261118681446
40
0.134800539782763
40
0.134800539782763
40
0.1718793819854
40
0.1718793819854
40
0.190418803086718
40
0.190418803086718
40
0.208958224188036
40
0.208958224188036
40
0.227497645289354
40
0.227497645289354
40
0.246037066390671
40
0.246037066390671
40
0.264576487491989
40
0.264576487491989
40
0.283115908593307
40
0.283115908593307
40
0.320194750795942
40
0.320194750795942
40
0.33873417189726
40
0.33873417189726
40
0.357273592998578
40
0.357273592998578
40
0.375813014099895
40
0.375813014099895
40
0.394352435201213
40
0.394352435201213
40
0.412891856302531
40
0.412891856302531
40
0.431431277403849
40
0.431431277403849
40
0.449970698505167
40
0.449970698505167
40
0.468510119606484
40
0.468510119606484
40
0.487049540707802
40
0.487049540707802
40
0.50558896180912
40
0.50558896180912
40
0.524128382910438
40
0.524128382910438
40
0.542667804011756
40
0.542667804011756
40
0.561207225113073
40
0.561207225113073
40
0.579746646214391
40
0.579746646214391
40
0.598286067315709
40
0.598286067315709
40
0.616825488417027
40
0.616825488417027
40
0.635364909518345
40
0.635364909518345
40
0.653904330619662
40
0.653904330619662
40
0.67244375172098
40
0.67244375172098
40
0.690983172822298
40
0.690983172822298
40
0.728062015024934
40
0.728062015024934
40
0.746601436126251
40
0.746601436126251
40
0.765140857227568
40
0.765140857227568
40
0.783680278328886
40
0.783680278328886
40
0.802219699430203
40
0.802219699430203
40
0.820759120531521
40
0.820759120531521
40
0.839298541632838
40
0.839298541632838
40
0.857837962734156
40
0.857837962734156
40
0.876377383835473
40
0.876377383835473
40
0.89491680493679
40
0.89491680493679
40
0.913456226038108
40
0.913456226038108
40
0.950535068240743
40
0.950535068240743
40
0.96907448934206
40
0.96907448934206
40
0.987613910443377
40
0.987613910443377
40
1
40
1
40
1
40
1
41
1
10
64.9204494125313
20
-4.55579974866163
30
0
41
1
10
64.553248323376
20
-4.6743272189523
30
0
41
1
10
64.1859396533615
20
-4.78717022570302
30
0
41
1
10
63.5294892790616
20
-4.97833711988653
30
0
41
1
10
63.2397909054162
20
-5.05845500422964
30
0
41
1
10
62.6610135342137
20
-5.20945111152045
30
0
41
1
10
62.3718797521182
20
-5.28040570092327
30
0
41
1
10
61.505162388524
20
-5.47817125292286
30
0
41
1
10
60.9285319396545
20
-5.58916871417986
30
0
41
1
10
60.0621243052645
20
-5.73044920778494
30
0
41
1
10
59.7731583486231
20
-5.77298737415941
30
0
41
1
10
59.1948037361602
20
-5.84778045906427
30
0
41
1
10
58.9052724495565
20
-5.87999272944984
30
0
41
1
10
58.037287334594
20
-5.9627591082141
30
0
41
1
10
57.4593896660366
20
-5.99846493657347
30
0
41
1
10
56.5931060041138
20
-6.01841043526602
30
0
41
1
10
56.3045592443759
20
-6.01985227711054
30
0
41
1
10
55.7274151329012
20
-6.01330498319069
30
0
41
1
10
55.4386338544031
20
-6.00528037440364
30
0
41
1
10
54.8604422529977
20
-5.97871867217845
30
0
41
1
10
54.5709929542637
20
-5.95996701761331
30
0
41
1
10
53.9915014497142
20
-5.91215206036694
30
0
41
1
10
53.7023247722499
20
-5.88343568139916
30
0
41
1
10
53.1244361514974
20
-5.81648486804718
30
0
41
1
10
52.8355840522672
20
-5.77824541392548
30
0
41
1
10
52.2578833603835
20
-5.69138632778726
30
0
41
1
10
51.969008527817
20
-5.64262765036509
30
0
41
1
10
51.102571574532
20
-5.48300326554335
30
0
41
1
10
50.5255119999782
20
-5.358386034913
30
0
41
1
10
49.6563569328775
20
-5.14257235002651
30
0
41
1
10
49.366466391737
20
-5.06632965584305
30
0
41
1
10
48.7878680908598
20
-4.90622294801094
30
0
41
1
10
48.4990767606459
20
-4.82178487856808
30
0
41
1
10
47.9215183594995
20
-4.64464821690407
30
0
41
1
10
47.6326686909924
20
-4.55189464341294
30
0
41
1
10
47.0547779857428
20
-4.35914375262519
30
0
41
1
10
46.7657997858499
20
-4.25954633544234
30
0
41
1
10
46.1877463209219
20
-4.05269097532261
30
0
41
1
10
45.8987906905406
20
-3.9452311918368
30
0
41
1
10
45.3198814218499
20
-3.7234677539262
30
0
41
1
10
45.0298254669514
20
-3.60911290717229
30
0
41
1
10
44.4507186627376
20
-3.3757859017891
30
0
41
1
10
44.1614163810396
20
-3.25653226130629
30
0
41
1
10
43.5833455080667
20
-3.01211327395507
30
0
41
1
10
43.2946984516755
20
-2.88676685929846
30
0
41
1
10
42.7170173962497
20
-2.63171695111993
30
0
41
1
10
42.4280235877764
20
-2.50219307453918
30
0
41
1
10
41.8497833999369
20
-2.23944299454558
30
0
41
1
10
41.5605020853448
20
-2.10606968242146
30
0
41
1
10
40.9815010426484
20
-1.83493278203639
30
0
41
1
10
40.6916487413029
20
-1.69682704887066
30
0
41
1
10
40.1124665867805
20
-1.41924608309603
30
0
41
1
10
39.8230508648732
20
-1.27962039767425
30
0
41
1
10
39.2445157216532
20
-0.99868402503634
30
0
41
1
10
38.9554049779168
20
-0.85736288239201
30
0
41
1
10
38.3773900262842
20
-0.573027171208707
30
0
41
1
10
38.0886153747128
20
-0.429821091667122
30
0
41
1
10
37.5105552167762
20
-0.143513543392004
30
0
41
1
10
37.2213108328479
20
-0.0002909928664963
30
0
41
1
10
36.6421781277718
20
0.286002444412361
30
0
41
1
10
36.3520029508328
20
0.429108358036189
30
0
41
1
10
35.7723260301769
20
0.71476125599392
30
0
41
1
10
35.4830547914963
20
0.857472176296056
30
0
41
1
10
34.9045129388291
20
1.1403766986017
30
0
41
1
10
34.6153276470961
20
1.28071202277025
30
0
41
1
10
34.0369221815304
20
1.55823481215984
30
0
41
1
10
33.747710982078
20
1.6955343699849
30
0
41
1
10
33.1694935613928
20
1.96815455280586
30
0
41
1
10
32.8805491876575
20
2.10354867524637
30
0
41
1
10
32.0123667422341
20
2.50312332600535
30
0
41
1
10
31.4310298034864
20
2.75989080685585
30
0
41
1
10
30.56263407813
20
3.13252652273323
30
0
41
1
10
30.2736126035142
20
3.25462402774474
30
0
41
1
10
29.6952270958185
20
3.49160072400792
30
0
41
1
10
29.4059160690128
20
3.60625745471259
30
0
41
1
10
28.8271862667258
20
3.8299899685839
30
0
41
1
10
28.5378038127856
20
3.93917073243332
30
0
41
1
10
27.9590051107463
20
4.15144384624418
30
0
41
1
10
27.6696005691783
20
4.25459409553554
30
0
41
1
10
27.0893907815122
20
4.4517275156816
30
0
41
1
10
26.7991634896917
20
4.54587353619178
30
0
41
1
10
26.219551724312
20
4.72725343597287
30
0
41
1
10
25.9300154917704
20
4.81427153857643
30
0
41
1
10
25.3515514681681
20
4.98051766185182
30
0
41
1
10
25.0625656380448
20
5.05937959300007
30
0
41
1
10
24.4839010879174
20
5.20632190466708
30
0
41
1
10
24.1944105316671
20
5.27554341821394
30
0
41
1
10
23.6151949034899
20
5.40600174533799
30
0
41
1
10
23.3254740264869
20
5.4671035033127
30
0
41
1
10
22.7456773423193
20
5.5796381274811
30
0
41
1
10
22.4555344910626
20
5.63024645814394
30
0
41
1
10
21.5870423315926
20
5.76769275403464
30
0
41
1
10
21.00960069754
20
5.84228466167591
30
0
41
1
10
20.1459782217602
20
5.92093782684674
30
0
41
1
10
19.8583627957076
20
5.94153943287117
30
0
41
1
10
19.2829618100053
20
5.97398044256678
30
0
41
1
10
18.9952650302219
20
5.98547985396951
30
0
41
1
10
18.515292919789
20
5.99585794850108
30
0
41
1
10
18.3230966782746
20
5.99769795014467
30
0
41
1
10
18.130867460724
20
5.99727068694358
30
0
0
SPLINE
5
CB
100
AcDbEntity
8
1
62
256
6
ByLayer
370
18
48
1
60
0
100
AcDbSpline
70
4
71
3
72
12
73
8
40
0
40
0
40
0
40
0
40
0.113995964150457
40
0.113995964150457
40
0.41086447305317
40
0.41086447305317
40
1
40
1
40
1
40
1
41
1
10
38.2336186645518
20
-6.00806239094103
30
0
41
1
10
37.9329579600085
20
-6.00728548794115
30
0
41
1
10
37.6322495827904
20
-6.00097447014656
30
0
41
1
10
36.5476969985839
20
-5.95828219681025
30
0
41
1
10
35.7691408266207
20
-5.89011152538848
30
0
41
1
10
33.4540337821959
20
-5.58175721139347
30
0
41
1
10
31.9249815476976
20
-5.23813933445692
30
0
41
1
10
30.3849837503471
20
-4.77544074397287
30
0
0
SPLINE
5
CC
100
AcDbEntity
8
1
62
256
6
ByLayer
370
13
48
1
60
0
100
AcDbSpline
70
4
71
3
72
26
73
22
40
0
40
0
40
0
40
0
40
0.0023486767187597
40
0.0023486767187597
40
0.0781119650907974
40
0.0781119650907974
40
0.153875253462835
40
0.153875253462835
40
0.305401830206911
40
0.305401830206911
40
0.60845498369506
40
0.60845498369506
40
0.684218272067098
40
0.684218272067098
40
0.722099916253117
40
0.722099916253117
40
0.759981560439136
40
0.759981560439136
40
0.911508137183219
40
0.911508137183219
40
1
40
1
40
1
40
1
41
1
10
30.3849837502265
20
-4.77544074393663
30
0
41
1
10
30.3729554724552
20
-4.77182679904632
30
0
41
1
10
30.3609265269478
20
-4.76820558961589
30
0
41
1
10
29.9608469780591
20
-4.64753061377601
30
0
41
1
10
29.5720450273946
20
-4.52299793283714
30
0
41
1
10
28.792363597236
20
-4.25963843075894
30
0
41
1
10
28.4009086812515
20
-4.12053830996351
30
0
41
1
10
27.2263579740152
20
-3.6845256738151
30
0
41
1
10
26.448468397295
20
-3.37114591448847
30
0
41
1
10
24.1221054175692
20
-2.37828346156976
30
0
41
1
10
22.5810049052498
20
-1.64589641580071
30
0
41
1
10
20.6390381251569
20
-0.696323913188479
30
0
41
1
10
20.2498687305089
20
-0.504710232854961
30
0
41
1
10
19.6645166274554
20
-0.215619759914091
30
0
41
1
10
19.4691270111936
20
-0.118987443251171
30
0
41
1
10
19.0776975051772
20
0.0746014321952373
30
0
41
1
10
18.8815861975862
20
0.171592881934373
30
0
41
1
10
17.9036809316672
20
0.65457242989396
30
0
41
1
10
17.1263788130136
20
1.03660518985183
30
0
41
1
10
15.8986582134857
20
1.62619409123326
30
0
41
1
10
15.4467796391548
20
1.84022007107299
30
0
41
1
10
14.9951221381326
20
2.04985889042817
30
0
0
SPLINE
5
CD
100
AcDbEntity
8
1
62
256
6
ByLayer
370
18
48
1
60
0
100
AcDbSpline
70
4
71
3
72
42
73
38
40
0
40
0
40
0
40
0
40
0.092532918813845
40
0.092532918813845
40
0.138799378220768
40
0.138799378220768
40
0.185065837627691
40
0.185065837627691
40
0.231332297034614
40
0.231332297034614
40
0.277598756441536
40
0.277598756441536
40
0.370131675255382
40
0.370131675255382
40
0.416398134662305
40
0.416398134662305
40
0.462664594069228
40
0.462664594069228
40
0.508931053476151
40
0.508931053476151
40
0.555197512883074
40
0.555197512883074
40
0.601463972289997
40
0.601463972289997
40
0.64773043169692
40
0.64773043169692
40
0.740263350510767
40
0.740263350510767
40
0.832796269324614
40
0.832796269324614
40
0.879062728731537
40
0.879062728731537
40
0.92532918813846
40
0.92532918813846
40
0.971595647545383
40
0.971595647545383
40
1
40
1
40
1
40
1
41
1
10
15.2442763780189
20
0.958567375331313
30
0
41
1
10
15.8925723659439
20
0.621642283722338
30
0
41
1
10
16.5395783120077
20
0.288164040227741
30
0
41
1
10
17.5051868449626
20
-0.213448660004417
30
0
41
1
10
17.8258399736518
20
-0.381653586204152
30
0
41
1
10
18.4671182426998
20
-0.715271417666628
30
0
41
1
10
18.7878614282031
20
-0.88046753604155
30
0
41
1
10
19.4291159404793
20
-1.20855085929432
30
0
41
1
10
19.7496413615997
20
-1.37141081613751
30
0
41
1
10
20.390017325715
20
-1.69563501347406
30
0
41
1
10
20.7098244993216
20
-1.85706489912707
30
0
41
1
10
21.6720555027294
20
-2.33185050069753
30
0
41
1
10
22.3157874572775
20
-2.63862989009874
30
0
41
1
10
23.2828331273456
20
-3.08741341434086
30
0
41
1
10
23.606234881901
20
-3.23362818027491
30
0
41
1
10
24.2554467959246
20
-3.51877555676947
30
0
41
1
10
24.5804078734005
20
-3.6576347051643
30
0
41
1
10
25.2271601398086
20
-3.92700521525643
30
0
41
1
10
25.5490921972713
20
-4.05832272008905
30
0
41
1
10
26.1925161333776
20
-4.3104107334515
30
0
41
1
10
26.5140672899203
20
-4.43115709816001
30
0
41
1
10
27.1564006375449
20
-4.66296109157545
30
0
41
1
10
27.4772093627936
20
-4.77398260266085
30
0
41
1
10
28.1175980329584
20
-4.98682649396545
30
0
41
1
10
28.4372412435383
20
-5.08850777507033
30
0
41
1
10
29.3981820022124
20
-5.37513746380552
30
0
41
1
10
30.0399187608757
20
-5.54383763163472
30
0
41
1
10
31.3234027404438
20
-5.83751666315055
30
0
41
1
10
31.9688710584873
20
-5.95926615757634
30
0
41
1
10
32.9410926805483
20
-6.10509345579808
30
0
41
1
10
33.2655729800317
20
-6.14767326315106
30
0
41
1
10
33.9123215847018
20
-6.21869724399124
30
0
41
1
10
34.2352493819702
20
-6.24733733574934
30
0
41
1
10
34.8797700862593
20
-6.2914137466197
30
0
41
1
10
35.2013994162072
20
-6.30684117416402
30
0
41
1
10
35.7190266719125
20
-6.32107575938366
30
0
41
1
10
35.9156548643913
20
-6.32396592440889
30
0
41
1
10
36.1122662222039
20
-6.32435129238698
30
0
0
SPLINE
5
CE
100
AcDbEntity
8
1
62
256
6
ByLayer
370
18
48
1
60
0
100
AcDbSpline
70
4
71
3
72
30
73
26
40
0
40
0
40
0
40
0
40
0.0479968790928137
40
0.0479968790928137
40
0.127330472501746
40
0.127330472501746
40
0.206664065910678
40
0.206664065910678
40
0.28599765931961
40
0.28599765931961
40
0.365331252728542
40
0.365331252728542
40
0.523998439546408
40
0.523998439546408
40
0.60333203295534
40
0.60333203295534
40
0.682665626364272
40
0.682665626364272
40
0.761999219773204
40
0.761999219773204
40
0.841332813182136
40
0.841332813182136
40
0.920666406591068
40
0.920666406591068
40
1
40
1
40
1
40
1
41
1
10
64.9326195534213
20
4.56289818255843
30
0
41
1
10
65.127967583058
20
4.63373427192286
30
0
41
1
10
65.3230880254763
20
4.70262506248559
30
0
41
1
10
65.8399816962508
20
4.88049090448155
30
0
41
1
10
66.1612707237365
20
4.98626690155015
30
0
41
1
10
66.8020286919266
20
5.187958479006
30
0
41
1
10
67.1222101362621
20
5.28301095461319
30
0
41
1
10
67.7628291702089
20
5.46111257338004
30
0
41
1
10
68.0830830142745
20
5.54437553703559
30
0
41
1
10
68.7231294570784
20
5.69965737965688
30
0
41
1
10
69.0425689605032
20
5.77194150905135
30
0
41
1
10
70.0021973870527
20
5.96990325243277
30
0
41
1
10
70.644609681505
20
6.07644459196584
30
0
41
1
10
71.6097165379438
20
6.19925791068141
30
0
41
1
10
71.9315479035273
20
6.23395104287604
30
0
41
1
10
72.5782027616436
20
6.28960043812043
30
0
41
1
10
72.9031945276286
20
6.31075423079096
30
0
41
1
10
73.5514908105586
20
6.33956060509445
30
0
41
1
10
73.8750083213804
20
6.34724982334276
30
0
41
1
10
74.5205915860447
20
6.3490140641081
30
0
41
1
10
74.8434305226365
20
6.34306784325051
30
0
41
1
10
75.4896467146203
20
6.31786247794665
30
0
41
1
10
75.8128616712781
20
6.29859935931194
30
0
41
1
10
76.4591571038697
20
6.24660143934628
30
0
41
1
10
76.7818442500442
20
6.21367734710395
30
0
41
1
10
77.1052933156876
20
6.17418113830854
30
0
0
SPLINE
5
CF
100
AcDbEntity
8
1
62
256
6
ByLayer
370
13
48
1
60
0
100
AcDbSpline
70
4
71
3
72
8
73
4
40
0
40
0
40
0
40
0
40
1
40
1
40
1
40
1
41
1
10
2.2399540299707
20
-6.19149213369167
30
0
41
1
10
2.24082833356417
20
-6.13260066020086
30
0
41
1
10
2.24171067242591
20
-6.0737109127229
30
0
41
1
10
2.24260105295318
20
-6.01482296321973
30
0
0
SPLINE
5
D0
100
AcDbEntity
8
1
62
256
6
ByLayer
370
18
48
1
60
0
100
AcDbSpline
70
4
71
3
72
8
73
4
40
0
40
0
40
0
40
0
40
1
40
1
40
1
40
1
41
1
10
78.7471246909308
20
1.67736464523853
30
0
41
1
10
78.7284984666284
20
1.59692418321663
30
0
41
1
10
78.7086645635417
20
1.51687881200209
30
0
41
1
10
78.6877132519084
20
1.43720896195154
30
0
0
SPLINE
5
D1
100
AcDbEntity
8
1
62
256
6
ByLayer
370
18
48
1
60
0
100
AcDbSpline
70
4
71
3
72
56
73
52
40
0
40
0
40
0
40
0
40
0.0300417496801249
40
0.0300417496801249
40
0.0600834993602497
40
0.0600834993602497
40
0.1201669987205
40
0.1201669987205
40
0.150208748400625
40
0.150208748400625
40
0.18025049808075
40
0.18025049808075
40
0.240333997441001
40
0.240333997441001
40
0.270375747121126
40
0.270375747121126
40
0.300417496801251
40
0.300417496801251
40
0.360500996161502
40
0.360500996161502
40
0.390542745841627
40
0.390542745841627
40
0.420584495521751
40
0.420584495521751
40
0.480667994882
40
0.480667994882
40
0.510709744562125
40
0.510709744562125
40
0.540751494242249
40
0.540751494242249
40
0.600834993602499
40
0.600834993602499
40
0.660918492962749
40
0.660918492962749
40
0.690960242642873
40
0.690960242642873
40
0.721001992322998
40
0.721001992322998
40
0.781085491683246
40
0.781085491683246
40
0.81112724136337
40
0.81112724136337
40
0.841168991043494
40
0.841168991043494
40
0.901252490403741
40
0.901252490403741
40
0.931294240083864
40
0.931294240083864
40
0.961335989763987
40
0.961335989763987
40
1
40
1
40
1
40
1
41
1
10
76.8500513290488
20
-6.33966791742594
30
0
41
1
10
76.4608151248951
20
-6.35096784594589
30
0
41
1
10
76.0716519033429
20
-6.35244058771315
30
0
41
1
10
75.2927876032472
20
-6.33576838047625
30
0
41
1
10
74.9029686969333
20
-6.31759357642323
30
0
41
1
10
73.7360763228547
20
-6.23407441383338
30
0
41
1
10
72.9600462338886
20
-6.13975279514204
30
0
41
1
10
71.7944030554447
20
-5.94243042623108
30
0
41
1
10
71.4055661741048
20
-5.86736239047855
30
0
41
1
10
70.6264974592031
20
-5.69909837467864
30
0
41
1
10
70.2370316545794
20
-5.6060301016567
30
0
41
1
10
69.0707772229241
20
-5.30184110754183
30
0
41
1
10
68.2947616260488
20
-5.06557946578121
30
0
41
1
10
67.1283877784301
20
-4.66614332735546
30
0
41
1
10
66.7389278383171
20
-4.52536421119925
30
0
41
1
10
65.9597921073904
20
-4.2301209694572
30
0
41
1
10
65.570930490721
20
-4.07593813657806
30
0
41
1
10
64.4051675756647
20
-3.59571664169226
30
0
41
1
10
63.6289878291055
20
-3.25216267097679
30
0
41
1
10
62.4617466900607
20
-2.70895135924545
30
0
41
1
10
62.0717187785765
20
-2.52297213529681
30
0
41
1
10
61.2931368792707
20
-2.14436556119924
30
0
41
1
10
60.904457685207
20
-1.95167203697215
30
0
41
1
10
59.7388830302043
20
-1.36596871903504
30
0
41
1
10
58.9624761782279
20
-0.965293682122194
30
0
41
1
10
57.7944318291507
20
-0.35722949989119
30
0
41
1
10
57.4044151422427
20
-0.153385914292244
30
0
41
1
10
56.6262480874946
20
0.253072328877835
30
0
41
1
10
56.2376759390951
20
0.456044012496079
30
0
41
1
10
55.0722103754707
20
1.06172670518183
30
0
41
1
10
54.2953941340952
20
1.46087824054172
30
0
41
1
10
52.7366741456639
20
2.2395883064826
30
0
41
1
10
51.9590625183409
20
2.61608380929653
30
0
41
1
10
50.7935071927117
20
3.15319457686624
30
0
41
1
10
50.4049666371567
20
3.32763001884541
30
0
41
1
10
49.6270510380961
20
3.66596822446306
30
0
41
1
10
49.2373359983209
20
3.83003242821582
30
0
41
1
10
48.0683346131357
20
4.30366927379563
30
0
41
1
10
47.2915793497968
20
4.59354283127223
30
0
41
1
10
46.1257820523839
20
4.98368096457526
30
0
41
1
10
45.7370755819913
20
5.10628598761821
30
0
41
1
10
44.9586284936985
20
5.33559607985185
30
0
41
1
10
44.5684558693208
20
5.44242145108001
30
0
41
1
10
43.400280842329
20
5.73652562303641
30
0
41
1
10
42.6236742532838
20
5.89768905504482
30
0
41
1
10
41.4574807373143
20
6.08392377910985
30
0
41
1
10
41.0685400146932
20
6.13675459552664
30
0
41
1
10
40.2894532377137
20
6.22341332637436
30
0
41
1
10
39.8993658410801
20
6.25721331578902
30
0
41
1
10
39.0093300443147
20
6.31210840379171
30
0
41
1
10
38.509207384053
20
6.32687615502994
30
0
41
1
10
38.0090179141586
20
6.32551081207777
30
0
0
SPLINE
5
D2
100
AcDbEntity
8
1
62
256
6
ByLayer
370
18
48
1
60
0
100
AcDbSpline
70
4
71
3
72
8
73
4
40
0
40
0
40
0
40
0
40
1
40
1
40
1
40
1
41
1
10
3.74304646670106
20
-5.99875494037468
30
0
41
1
10
3.24338094952211
20
-6.07832312255084
30
0
41
1
10
2.74261322995798
20
-6.14280137568218
30
0
41
1
10
2.2399540299707
20
-6.19149213369172
30
0
0
SPLINE
5
D3
100
AcDbEntity
8
1
62
256
6
ByLayer
370
18
48
1
60
0
100
AcDbSpline
70
4
71
3
72
10
73
6
40
0
40
0
40
0
40
0
40
0.5
40
0.5
40
1
40
1
40
1
40
1
41
1
10
78.995201027894
20
0.107640153842709
30
0
41
1
10
78.9950375541658
20
0.0979349103444065
30
0
41
1
10
78.995407958224
20
0.0872763237214258
30
0
41
1
10
78.9970011940898
20
0.0650441157567911
30
0
41
1
10
78.9982237327612
20
0.0533773300934683
30
0
41
1
10
78.9998261536381
20
0.0412258641007099
30
0
0
SPLINE
5
D4
100
AcDbEntity
8
1
62
256
6
ByLayer
370
18
48
1
60
0
100
AcDbSpline
70
4
71
3
72
8
73
4
40
0
40
0
40
0
40
0
40
1
40
1
40
1
40
1
41
1
10
2.73313744631406
20
1.73225785332653
30
0
41
1
10
2.60774790215206
20
1.79217752076028
30
0
41
1
10
2.48222591369534
20
1.85199956883284
30
0
41
1
10
2.35657591535991
20
1.91169673747683
30
0
0
SPLINE
5
D5
100
AcDbEntity
8
1
62
256
6
ByLayer
370
18
48
1
60
0
100
AcDbSpline
70
4
71
3
72
38
73
34
40
0
40
0
40
0
40
0
40
0.249999999999995
40
0.249999999999995
40
0.374999999999991
40
0.374999999999991
40
0.499999999999987
40
0.499999999999987
40
0.624999999999983
40
0.624999999999983
40
0.687499999999981
40
0.687499999999981
40
0.749999999999979
40
0.749999999999979
40
0.812499999999977
40
0.812499999999977
40
0.843749999999974
40
0.843749999999974
40
0.851562499999974
40
0.851562499999974
40
0.859374999999974
40
0.859374999999974
40
0.867187499999974
40
0.867187499999974
40
0.871093749999975
40
0.871093749999975
40
0.874999999999976
40
0.874999999999976
40
0.906249999999982
40
0.906249999999982
40
0.937499999999988
40
0.937499999999988
40
1
40
1
40
1
40
1
41
1
10
70.7539071098385
20
2.22118211484892
30
0
41
1
10
71.2630379709721
20
1.77636358560011
30
0
41
1
10
71.7982732155807
20
1.38837614690922
30
0
41
1
10
72.644834094992
20
0.901550425843169
30
0
41
1
10
72.9287427879852
20
0.758347709224779
30
0
41
1
10
73.4994407276736
20
0.510462507253095
30
0
41
1
10
73.7863127976867
20
0.405584984778386
30
0
41
1
10
74.3634758712025
20
0.238625703841308
30
0
41
1
10
74.6538086423952
20
0.177066763449545
30
0
41
1
10
75.0923307378099
20
0.122567336406178
30
0
41
1
10
75.2388804614247
20
0.11087383952119
30
0
41
1
10
75.5281628621609
20
0.101861263758849
30
0
41
1
10
75.6714800986628
20
0.104450972685584
30
0
41
1
10
75.9552317227433
20
0.125081481976366
30
0
41
1
10
76.0958262481038
20
0.143139920240429
30
0
41
1
10
76.3037785347959
20
0.183126595361983
30
0
41
1
10
76.3724763420333
20
0.198586557167317
30
0
41
1
10
76.4574343157635
20
0.220697422162345
30
0
41
1
10
76.4743795939552
20
0.225258734387324
30
0
41
1
10
76.5081762930729
20
0.234663314770472
30
0
41
1
10
76.5253915568927
20
0.23860488212469
30
0
41
1
10
76.5557683456553
20
0.25655755047714
30
0
41
1
10
76.5687210699907
20
0.269935326232485
30
0
41
1
10
76.5793926356116
20
0.297443314828854
30
0
41
1
10
76.5808898159432
20
0.307947795546426
30
0
41
1
10
76.5836952037799
20
0.328643278871908
30
0
41
1
10
76.584938180371
20
0.339056737792703
30
0
41
1
10
76.5956080942974
20
0.432990541520724
30
0
41
1
10
76.6037517958467
20
0.516982905797704
30
0
41
1
10
76.6155187368826
20
0.686410311143902
30
0
41
1
10
76.6194676583943
20
0.771831639702981
30
0
41
1
10
76.6260191638807
20
1.02936899657991
30
0
41
1
10
76.62335210412
20
1.20190739073945
30
0
41
1
10
76.6150138356767
20
1.37512847057027
30
0
0
SPLINE
5
D6
100
AcDbEntity
8
1
62
256
6
ByLayer
370
18
48
1
60
0
100
AcDbSpline
70
4
71
3
72
36
73
32
40
0
40
0
40
0
40
0
40
0.0625000000000008
40
0.0625000000000008
40
0.125000000000002
40
0.125000000000002
40
0.187500000000002
40
0.187500000000002
40
0.250000000000003
40
0.250000000000003
40
0.312500000000004
40
0.312500000000004
40
0.375000000000005
40
0.375000000000005
40
0.437500000000005
40
0.437500000000005
40
0.500000000000006
40
0.500000000000006
40
0.562500000000007
40
0.562500000000007
40
0.625000000000008
40
0.625000000000008
40
0.687500000000009
40
0.687500000000009
40
0.750000000000009
40
0.750000000000009
40
0.875000000000004
40
0.875000000000004
40
0.937500000000002
40
0.937500000000002
40
1
40
1
40
1
40
1
41
1
10
77.7541420986819
20
-1.88143086914189
30
0
41
1
10
77.759527656832
20
-1.92175490941179
30
0
41
1
10
77.7617758365806
20
-1.96527160931939
30
0
41
1
10
77.7596408941051
20
-2.05943032423838
30
0
41
1
10
77.7551695747266
20
-2.1097474428154
30
0
41
1
10
77.7400043095204
20
-2.21256419293067
30
0
41
1
10
77.7291259927423
20
-2.26634896651774
30
0
41
1
10
77.7019292712772
20
-2.37405954291791
30
0
41
1
10
77.6858192625549
20
-2.4274864232305
30
0
41
1
10
77.6490356639056
20
-2.53358425594306
30
0
41
1
10
77.6285661722486
20
-2.5855370362633
30
0
41
1
10
77.5850914038867
20
-2.68462998723004
30
0
41
1
10
77.5616905416736
20
-2.73263988802978
30
0
41
1
10
77.5134764595315
20
-2.82246441353541
30
0
41
1
10
77.4886566923155
20
-2.86439620215884
30
0
41
1
10
77.4376384367973
20
-2.94281761481074
30
0
41
1
10
77.4114518025948
20
-2.97921107740007
30
0
41
1
10
77.3591995317328
20
-3.04481223411585
30
0
41
1
10
77.3329343092475
20
-3.07433520518617
30
0
41
1
10
77.2800099495857
20
-3.12715430851307
30
0
41
1
10
77.2534257075447
20
-3.15032246564422
30
0
41
1
10
77.2011092577361
20
-3.18952661770203
30
0
41
1
10
77.1752020931237
20
-3.20574282345993
30
0
41
1
10
77.1237473353165
20
-3.23159462160129
30
0
41
1
10
77.0980564532018
20
-3.24124009263215
30
0
41
1
10
77.0230895283316
20
-3.25966942818624
30
0
41
1
10
76.9754746780823
20
-3.25851487849326
30
0
41
1
10
76.9071809190389
20
-3.23596959370491
30
0
41
1
10
76.8851921947389
20
-3.22496937334083
30
0
41
1
10
76.8434496108616
20
-3.1963225888847
30
0
41
1
10
76.8235796637231
20
-3.17864381449829
30
0
41
1
10
76.8047657997724
20
-3.15741231389984
30
0
0
SPLINE
5
D7
100
AcDbEntity
8
1
62
256
6
ByLayer
370
18
48
1
60
0
100
AcDbSpline
70
4
71
3
72
8
73
4
40
0
40
0
40
0
40
0
40
1
40
1
40
1
40
1
41
1
10
78.9956864215878
20
-0.205576016799
30
0
41
1
10
78.9959068194444
20
-0.172928173845008
30
0
41
1
10
78.9957508567346
20
-0.140282847179719
30
0
41
1
10
78.995201027894
20
-0.107640153842709
30
0
0
SPLINE
5
D8
100
AcDbEntity
8
1
62
256
6
ByLayer
370
18
48
1
60
0
100
AcDbSpline
70
4
71
3
72
12
73
8
40
0
40
0
40
0
40
0
40
0.5
40
0.5
40
0.75
40
0.75
40
1
40
1
40
1
40
1
41
1
10
78.6877132519084
20
1.43720896195154
30
0
41
1
10
78.7760079661161
20
1.23547832315086
30
0
41
1
10
78.8447724786897
20
1.03176026878847
30
0
41
1
10
78.9208720943204
20
0.723430838127513
30
0
41
1
10
78.9417438824298
20
0.620196970317153
30
0
41
1
10
78.9749970869391
20
0.412865244801367
30
0
41
1
10
78.9873329587159
20
0.30892996519421
30
0
41
1
10
78.9956864215878
20
0.205576016799
30
0
0
SPLINE
5
D9
100
AcDbEntity
8
1
62
256
6
ByLayer
370
18
48
1
60
0
100
AcDbSpline
70
4
71
3
72
14
73
10
40
0
40
0
40
0
40
0
40
0.25
40
0.25
40
0.5
40
0.5
40
0.75
40
0.75
40
1
40
1
40
1
40
1
41
1
10
2.35657591535988
20
1.91169673747683
30
0
41
1
10
2.32509548573029
20
1.92665330366449
30
0
41
1
10
2.29443234251966
20
1.94307100134517
30
0
41
1
10
2.23507400340657
20
1.97902853387941
30
0
41
1
10
2.20801428334895
20
1.99757609507702
30
0
41
1
10
2.16002728908185
20
2.03581625841721
30
0
41
1
10
2.14048784369089
20
2.05445080915192
30
0
41
1
10
2.11277977442575
20
2.0892163337476
30
0
41
1
10
2.10530316224083
20
2.10458745485744
30
0
41
1
10
2.10530316224083
20
2.11659098535304
30
0
0
SPLINE
5
DA
100
AcDbEntity
8
1
62
256
6
ByLayer
370
18
48
1
60
0
100
AcDbSpline
70
4
71
3
72
8
73
4
40
0
40
0
40
0
40
0
40
1
40
1
40
1
40
1
41
1
10
76.9361122825065
20
-6.11935690699843
30
0
41
1
10
76.9075044502082
20
-6.19291258194164
30
0
41
1
10
76.8788179748495
20
-6.26634990588849
30
0
41
1
10
76.8500513290488
20
-6.33966791742597
30
0
0
SPLINE
5
DB
100
AcDbEntity
8
1
62
256
6
ByLayer
370
18
48
1
60
0
100
AcDbSpline
70
4
71
3
72
8
73
4
40
0
40
0
40
0
40
0
40
1
40
1
40
1
40
1
41
1
10
2.10530316224083
20
0.521583127784112
30
0
41
1
10
2.10530316224083
20
0.917263135456892
30
0
41
1
10
2.10530316224083
20
1.32195298362447
30
0
41
1
10
2.10530316224083
20
1.73542252230695
30
0
0
SPLINE
5
DC
100
AcDbEntity
8
1
62
256
6
ByLayer
370
18
48
1
60
0
100
AcDbSpline
70
4
71
3
72
12
73
8
40
0
40
0
40
0
40
0
40
0.25
40
0.25
40
0.5
40
0.5
40
1
40
1
40
1
40
1
41
1
10
77.1052933156878
20
6.17418113830848
30
0
41
1
10
77.2358753569066
20
5.79910131237907
30
0
41
1
10
77.3684283334709
20
5.4237704016557
30
0
41
1
10
77.6370224218889
20
4.67285101040747
30
0
41
1
10
77.7730754032915
20
4.29725963256732
30
0
41
1
10
78.1857123743531
20
3.17022685908333
30
0
41
1
10
78.4655583423894
20
2.42217929357352
30
0
41
1
10
78.7471246909308
20
1.67736464523853
30
0
0
SPLINE
5
DD
100
AcDbEntity
8
1
62
256
6
ByLayer
370
18
48
1
60
0
100
AcDbSpline
70
4
71
3
72
28
73
24
40
0
40
0
40
0
40
0
40
0.149835031758014
40
0.149835031758014
40
0.299670063516026
40
0.299670063516026
40
0.374587579395032
40
0.374587579395032
40
0.449505095274038
40
0.449505095274038
40
0.599340127032047
40
0.599340127032047
40
0.674257642911054
40
0.674257642911054
40
0.74917515879006
40
0.74917515879006
40
0.824092674669066
40
0.824092674669066
40
0.899010190548072
40
0.899010190548072
40
0.973927706427078
40
0.973927706427078
40
1
40
1
40
1
40
1
41
1
10
15.2442763780189
20
-5.82278549992358
30
0
41
1
10
15.8242927773504
20
-5.89145759141832
30
0
41
1
10
16.4034165166199
20
-5.94034436929309
30
0
41
1
10
17.559664783492
20
-5.99592808449671
30
0
41
1
10
18.1371279364434
20
-6.0042404110385
30
0
41
1
10
19.0053758149375
20
-5.98515613645696
30
0
41
1
10
19.2950087935437
20
-5.97345378228789
30
0
41
1
10
19.8747465799503
20
-5.94045549958605
30
0
41
1
10
20.1646560864314
20
-5.91949190251253
30
0
41
1
10
21.0328379545538
20
-5.8396303949927
30
0
41
1
10
21.6110635033473
20
-5.76433967517514
30
0
41
1
10
22.4781096036258
20
-5.62643585944227
30
0
41
1
10
22.7669134239589
20
-5.57574200742687
30
0
41
1
10
23.344990989089
20
-5.46307322222901
30
0
41
1
10
23.634376885833
20
-5.40186279076718
30
0
41
1
10
24.2138244791146
20
-5.27097679759044
30
0
41
1
10
24.5040686984746
20
-5.20141685915905
30
0
41
1
10
25.0833720869222
20
-5.05386413379154
30
0
41
1
10
25.3723594688442
20
-4.97471179603698
30
0
41
1
10
25.9503176908975
20
-4.8082497948065
30
0
41
1
10
26.2393355454244
20
-4.72121402716402
30
0
41
1
10
26.6289607894241
20
-4.59907593659264
30
0
41
1
10
26.7295516143199
20
-4.56714357812149
30
0
41
1
10
26.8301419250819
20
-4.53476258889873
30
0
0
SPLINE
5
DE
100
AcDbEntity
8
1
62
256
6
ByLayer
370
18
48
1
60
0
100
AcDbSpline
70
4
71
3
72
32
73
28
40
0
40
0
40
0
40
0
40
0.0434608788429817
40
0.0434608788429817
40
0.163028268987608
40
0.163028268987608
40
0.222811964059921
40
0.222811964059921
40
0.282595659132234
40
0.282595659132234
40
0.342379354204547
40
0.342379354204547
40
0.40216304927686
40
0.40216304927686
40
0.521730439421486
40
0.521730439421486
40
0.5815141344938
40
0.5815141344938
40
0.641297829566115
40
0.641297829566115
40
0.760865219710743
40
0.760865219710743
40
0.880432609855372
40
0.880432609855372
40
0.940216304927686
40
0.940216304927686
40
1
40
1
40
1
40
1
41
1
10
56.2571954541052
20
6.01820499294956
30
0
41
1
10
56.4676146951468
20
6.01864742455891
30
0
41
1
10
56.6780622734486
20
6.01651170563969
30
0
41
1
10
57.4668245735129
20
5.99813269621734
30
0
41
1
10
58.0442603016467
20
5.96221136277617
30
0
41
1
10
58.9097026769459
20
5.87951089965441
30
0
41
1
10
59.1983156507076
20
5.84736464407288
30
0
41
1
10
59.7761336967586
20
5.77256382036055
30
0
41
1
10
60.0652805339603
20
5.72997382419626
30
0
41
1
10
60.6440500015249
20
5.63551787692091
30
0
41
1
10
60.9338086959999
20
5.58372300918663
30
0
41
1
10
61.5121090934351
20
5.47165899959981
30
0
41
1
10
61.8010130671769
20
5.41074183379612
30
0
41
1
10
62.667395880396
20
5.2128185475224
30
0
41
1
10
63.244382363135
20
5.06141657495763
30
0
41
1
10
64.1098730645261
20
4.80929530743259
30
0
41
1
10
64.3986856881577
20
4.72138277707057
30
0
41
1
10
64.9770750311321
20
4.53846933645136
30
0
41
1
10
65.2668480582524
20
4.44346741006575
30
0
41
1
10
66.1350631941081
20
4.14771903462196
30
0
41
1
10
66.7116224743963
20
3.93406839087316
30
0
41
1
10
67.8657498344157
20
3.4827982983459
30
0
41
1
10
68.4426681979325
20
3.24463983670509
30
0
41
1
10
69.3087436763689
20
2.87017611534458
30
0
41
1
10
69.598016698458
20
2.74306182583237
30
0
41
1
10
70.1768981708863
20
2.4850019386169
30
0
41
1
10
70.4657539995459
20
2.35416231949029
30
0
41
1
10
70.7539071098381
20
2.221182114849
30
0
0
LINE
5
76
100
AcDbEntity
8
81
62
256
6
ByLayer
370
18
48
1
60
0
100
AcDbLine
10
79
20
0
30
0
11
84
21
0
31
0
39
0
210
0
220
0
230
1
0
LINE
5
77
100
AcDbEntity
8
1
62
256
6
ByLayer
370
18
48
1
60
0
100
AcDbLine
10
2.105303
20
6.303125
30
0
11
0.350219
21
6.302028
31
0
39
0
210
0
220
0
230
1
0
LINE
5
79
100
AcDbEntity
8
1
62
256
6
ByLayer
370
18
48
1
60
0
100
AcDbLine
10
38.058133
20
6.325596
30
0
11
36.145112
21
6.3244
31
0
39
0
210
0
220
0
230
1
0
LINE
5
7A
100
AcDbEntity
8
1
62
256
6
ByLayer
370
18
48
1
60
0
100
AcDbLine
10
76.163587
20
6.349411
30
0
11
74.24508
21
6.348212
31
0
39
0
210
0
220
0
230
1
0
LINE
5
7B
100
AcDbEntity
8
1
62
256
6
ByLayer
370
18
48
1
60
0
100
AcDbLine
10
74.24508
20
-6.348212
30
0
11
76.163602
21
-6.349411
31
0
39
0
210
0
220
0
230
1
0
LINE
5
7C
100
AcDbEntity
8
1
62
256
6
ByLayer
370
18
48
1
60
0
100
AcDbLine
10
36.145112
20
-6.3244
30
0
11
38.058279
21
-6.325596
31
0
39
0
210
0
220
0
230
1
0
LINE
5
7D
100
AcDbEntity
8
1
62
256
6
ByLayer
370
18
48
1
60
0
100
AcDbLine
10
0.350219
20
-6.302028
30
0
11
2.105303
21
-6.303125
31
0
39
0
210
0
220
0
230
1
0
LINE
5
7E
100
AcDbEntity
8
SK1
62
256
6
ByLayer
370
18
48
1
60
0
100
AcDbLine
10
0
20
7
30
0
11
-43.267949
21
7
31
0
39
0
210
0
220
0
230
1
0
LINE
5
80
100
AcDbEntity
8
SK1
62
256
6
ByLayer
370
18
48
1
60
0
100
AcDbLine
10
-43.267949
20
-7
30
0
11
0
21
-7
31
0
39
0
210
0
220
0
230
1
0
LINE
5
81
100
AcDbEntity
8
SK1
62
256
6
ByLayer
370
18
48
1
60
0
100
AcDbLine
10
-43.267949
20
7
30
0
11
-45
21
4
31
0
39
0
210
0
220
0
230
1
0
LINE
5
82
100
AcDbEntity
8
SK1
62
256
6
ByLayer
370
18
48
1
60
0
100
AcDbLine
10
-45
20
-4
30
0
11
-43.267949
21
-7
31
0
39
0
210
0
220
0
230
1
0
LINE
5
83
100
AcDbEntity
8
SK4
62
256
6
ByLayer
370
18
48
0.05
60
0
100
AcDbLine
10
84
20
0
30
0
11
-50
21
0
31
0
39
0
210
0
220
0
230
1
0
LINE
5
85
100
AcDbEntity
8
4
62
256
6
ByLayer
370
18
48
0.05
60
0
100
AcDbLine
10
79
20
0
30
0
11
0
21
0
31
0
39
0
210
0
220
0
230
1
0
LINE
5
87
100
AcDbEntity
8
80
62
256
6
ByLayer
370
18
48
1
60
0
100
AcDbLine
10
0
20
0
30
0
11
-5
21
0
31
0
39
0
210
0
220
0
230
1
0
LINE
5
88
100
AcDbEntity
8
SK1
62
256
6
ByLayer
370
18
48
1
60
0
100
AcDbLine
10
0
20
7
30
0
11
0
21
-7
31
0
39
0
210
0
220
0
230
1
0
LINE
5
89
100
AcDbEntity
8
SK1
62
256
6
ByLayer
370
18
48
1
60
0
100
AcDbLine
10
-45
20
-0.383203
30
0
11
-45
21
-2.277402
31
0
39
0
210
0
220
0
230
1
0
LINE
5
8A
100
AcDbEntity
8
SK1
62
256
6
ByLayer
370
18
48
1
60
0
100
AcDbLine
10
-45
20
-4
30
0
11
-45
21
-2.277402
31
0
39
0
210
0
220
0
230
1
0
LINE
5
8B
100
AcDbEntity
8
SK1
62
256
6
ByLayer
370
18
48
1
60
0
100
AcDbLine
10
-43.3
20
-3.047206
30
0
11
-43.3
21
-0.841863
31
0
39
0
210
0
220
0
230
1
0
LINE
5
8C
100
AcDbEntity
8
SK1
62
256
6
ByLayer
370
13
48
1
60
0
100
AcDbLine
10
-43.4
20
-0.691038
30
0
11
-43.4
21
-3.088093
31
0
39
0
210
0
220
0
230
1
0
LINE
5
8D
100
AcDbEntity
8
SK1
62
256
6
ByLayer
370
18
48
1
60
0
100
AcDbLine
10
-43.267949
20
7
30
0
11
-43.267949
21
-7
31
0
39
0
210
0
220
0
230
1
0
LINE
5
8E
100
AcDbEntity
8
SK1
62
256
6
ByLayer
370
18
48
1
60
0
100
AcDbLine
10
-45
20
4
30
0
11
-45
21
0.119709
31
0
39
0
210
0
220
0
230
1
0
LINE
5
8F
100
AcDbEntity
8
1
62
256
6
ByLayer
370
18
48
1
60
0
100
AcDbLine
10
2.105303
20
1.735423
30
0
11
2.105303
21
2.138546
31
0
39
0
210
0
220
0
230
1
0
LINE
5
90
100
AcDbEntity
8
1
62
256
6
ByLayer
370
13
48
1
60
0
100
AcDbLine
10
76.793937
20
1.501093
30
0
11
78.995201
21
0.10764
31
0
39
0
210
0
220
0
230
1
0
LINE
5
91
100
AcDbEntity
8
1
62
256
6
ByLayer
370
13
48
1
60
0
100
AcDbLine
10
0.350219
20
6.302028
30
0
11
0.350219
21
-6.302028
31
0
39
0
210
0
220
0
230
1
0
LINE
5
92
100
AcDbEntity
8
1
62
256
6
ByLayer
370
18
48
1
60
0
100
AcDbLine
10
2.355779
20
-5.986121
30
0
11
2.355805
21
-5.985155
31
0
39
0
210
0
220
0
230
1
0
LINE
5
93
100
AcDbEntity
8
1
62
256
6
ByLayer
370
18
48
1
60
0
100
AcDbLine
10
2.105303
20
-6.303125
30
0
11
2.105303
21
0.521583
31
0
39
0
210
0
220
0
230
1
0
LINE
5
94
100
AcDbEntity
8
1
62
256
6
ByLayer
370
13
48
1
60
0
100
AcDbLine
10
76.615014
20
1.375128
30
0
11
78.950773
21
-0.103463
31
0
39
0
210
0
220
0
230
1
0
LINE
5
95
100
AcDbEntity
8
1
62
256
6
ByLayer
370
18
48
1
60
0
100
AcDbLine
10
2.105303
20
6.303125
30
0
11
2.105303
21
6.229149
31
0
39
0
210
0
220
0
230
1
0
MTEXT
5
DF
100
AcDbEntity
8
SK6
62
256
6
ByLayer
370
13
48
1
60
0
100
AcDbMText
10
19.129169
20
38.732694
30
0
210
0
220
0
230
1
1
\W0.7478;460.1-1270-064A1-XM GC34
40
3.5
41
0
44
1.084337
50
0
71
8
72
5
7
iso_b_vert
0
DIMENSION
5
EC
100
AcDbEntity
8
SK2
62
256
6
ByLayer
370
13
48
1
60
0
100
AcDbDimension
2
DimnDraft3D1
10
77.1091
20
-16.563398
30
0
11
36.859159
21
-16.563398
31
0
70
32
71
5
72
1
41
1
210
0
220
0
230
1
3
Standard
100
AcDbAlignedDimension
13
0
23
-1.5875
33
0
14
77.1091
24
-7.9375
34
0
50
0
100
AcDbRotatedDimension
1001
ACAD
1000
DSTYLE
1002
{
1070
   279
1070
     0
1070
   172
1070
     1
1070
   173
1070
     1
1070
   340
1005
E0
1070
   271
1070
     2
1070
   272
1070
     2
1070
    77
1070
     1
1070
    73
1070
     0
1070
   171
1070
     3
1070
   274
1070
     4
1070
   177
1070
    35
1070
   176
1070
    35
1070
   178
1070
    35
1070
    48
1040
-0.005
1070
    41
1041
3.5
1070
   147
1041
1.75
1070
    42
1041
1.5875
1070
    44
1041
2.0
1070
   140
1041
3.5
1070
   343
1005
0
1070
   344
1005
0
1002
}
0
DIMENSION
5
F6
100
AcDbEntity
8
SK2
62
256
6
ByLayer
370
13
48
1
60
0
100
AcDbDimension
2
DimnDraft3D2
10
79
20
-35.692985
30
0
11
16.4504
21
-35.692985
31
0
70
32
71
5
72
1
41
1
210
0
220
0
230
1
3
Standard
100
AcDbAlignedDimension
13
-45
23
-8.5875
33
0
14
79
24
-1.5875
34
0
50
0
100
AcDbRotatedDimension
1001
ACAD
1000
DSTYLE
1002
{
1070
   279
1070
     0
1070
   172
1070
     1
1070
   173
1070
     1
1070
   340
1005
E0
1070
   271
1070
     2
1070
   272
1070
     2
1070
    77
1070
     1
1070
    73
1070
     0
1070
   171
1070
     3
1070
   274
1070
     4
1070
   177
1070
    35
1070
   176
1070
    35
1070
   178
1070
    35
1070
    48
1040
-0.005
1070
    41
1041
3.5
1070
   147
1041
1.75
1070
    42
1041
1.5875
1070
    44
1041
2.0
1070
   140
1041
3.5
1070
   343
1005
0
1070
   344
1005
0
1002
}
0
DIMENSION
5
100
100
AcDbEntity
8
SK2
62
256
6
ByLayer
370
13
48
1
60
0
100
AcDbDimension
2
DimnDraft3D3
10
79
20
17.959119
30
0
11
48.12
21
17.959119
31
0
70
32
71
5
72
1
41
1
210
0
220
0
230
1
3
Standard
100
AcDbAlignedDimension
13
17.24
23
7.9375
33
0
14
79
24
1.5875
34
0
50
0
100
AcDbRotatedDimension
1001
ACAD
1000
DSTYLE
1002
{
1070
   279
1070
     0
1070
   172
1070
     1
1070
   173
1070
     1
1070
   340
1005
E0
1070
   271
1070
     2
1070
   272
1070
     2
1070
    77
1070
     1
1070
    73
1070
     0
1070
   171
1070
     3
1070
   274
1070
     4
1070
   177
1070
    35
1070
   176
1070
    35
1070
   178
1070
    35
1070
    48
1040
-0.005
1070
    41
1041
3.5
1070
   147
1041
1.75
1070
    42
1041
1.5875
1070
    44
1041
2.0
1070
   140
1041
3.5
1070
   343
1005
0
1070
   344
1005
0
1002
}
0
DIMENSION
5
10A
100
AcDbEntity
8
SK2
62
256
6
ByLayer
370
13
48
1
60
0
100
AcDbDimension
2
DimnDraft3D4
10
77.1091
20
-19.152503
30
0
11
88.981425
21
-19.152503
31
0
70
32
71
5
72
1
41
1
210
0
220
0
230
1
3
Standard
100
AcDbAlignedDimension
13
79
23
-1.5875
33
0
14
77.1091
24
-7.9375
34
0
50
0
100
AcDbRotatedDimension
1001
ACAD
1000
DSTYLE
1002
{
1070
   279
1070
     0
1070
   172
1070
     1
1070
   173
1070
     1
1070
   340
1005
E0
1070
   271
1070
     2
1070
   272
1070
     2
1070
    77
1070
     1
1070
    73
1070
     0
1070
   171
1070
     3
1070
   274
1070
     4
1070
   177
1070
    35
1070
   176
1070
    35
1070
   178
1070
    35
1070
    48
1040
-0.005
1070
    41
1041
3.5
1070
   147
1041
1.75
1070
    42
1041
1.5875
1070
    44
1041
2.0
1070
   140
1041
3.5
1070
   343
1005
0
1070
   344
1005
0
1002
}
0
DIMENSION
5
114
100
AcDbEntity
8
SK2
62
256
6
ByLayer
370
13
48
1
60
0
100
AcDbDimension
2
DimnDraft3D5
10
77.1091
20
-25.343428
30
0
11
13.369776
21
-25.343428
31
0
70
32
71
5
72
1
41
1
210
0
220
0
230
1
3
Standard
100
AcDbAlignedDimension
13
-45
23
-8.5875
33
0
14
77.1091
24
-7.9375
34
0
50
0
100
AcDbRotatedDimension
1001
ACAD
1000
DSTYLE
1002
{
1070
   279
1070
     0
1070
   172
1070
     1
1070
   173
1070
     1
1070
   340
1005
E0
1070
   271
1070
     2
1070
   272
1070
     2
1070
    77
1070
     1
1070
    73
1070
     0
1070
   171
1070
     3
1070
   274
1070
     4
1070
   177
1070
    35
1070
   176
1070
    35
1070
   178
1070
    35
1070
    48
1040
-0.005
1070
    41
1041
3.5
1070
   147
1041
1.75
1070
    42
1041
1.5875
1070
    44
1041
2.0
1070
   140
1041
3.5
1070
   343
1005
0
1070
   344
1005
0
1002
}
0
DIMENSION
5
11F
100
AcDbEntity
8
SK2
62
256
6
ByLayer
370
13
48
1
60
0
100
AcDbDimension
2
DimnDraft3D6
10
-55.625163
20
7
30
0
11
-56.250163
21
25.47418
31
0
70
33
71
5
72
1
41
1
210
0
220
0
230
1
3
Standard
100
AcDbAlignedDimension
13
-46.5875
23
-7
33
0
14
-46.5875
24
7
34
0
1001
ACAD
1000
DSTYLE
1002
{
1070
   279
1070
     0
1070
    74
1070
     0
1070
   173
1070
     1
1070
   340
1005
E0
1070
   271
1070
     3
1070
   272
1070
     2
1070
    77
1070
     1
1070
    73
1070
     0
1070
   171
1070
     3
1070
   274
1070
     4
1070
   177
1070
    35
1070
   176
1070
    35
1070
   178
1070
    35
1070
    48
1040
-0.005
1070
    41
1041
3.5
1070
   147
1041
1.75
1070
    42
1041
1.5875
1070
    44
1041
2.0
1070
   140
1041
3.5
1070
   343
1005
0
1070
   344
1005
0
1002
}
0
DIMENSION
5
12A
100
AcDbEntity
8
2
62
256
6
ByLayer
370
13
48
1
60
0
100
AcDbDimension
2
DimnDraft3D7
10
93.083343
20
6.35
30
0
11
88.458343
21
23.417266
31
0
70
33
71
5
72
1
41
1
210
0
220
0
230
1
3
Standard
100
AcDbAlignedDimension
13
78.6966
23
-6.35
33
0
14
78.6966
24
6.35
34
0
1001
ACAD
1000
DSTYLE
1002
{
1070
   279
1070
     0
1070
    74
1070
     0
1070
   173
1070
     1
1070
   340
1005
E0
1070
   271
1070
     3
1070
   272
1070
     2
1070
    77
1070
     1
1070
    73
1070
     0
1070
   171
1070
     3
1070
   274
1070
     4
1070
   177
1070
    35
1070
   176
1070
    35
1070
   178
1070
    35
1070
    48
1040
-0.005
1070
    41
1041
3.5
1070
   147
1041
1.75
1070
    42
1041
1.5875
1070
    44
1041
2.0
1070
   140
1041
3.5
1070
   343
1005
0
1070
   344
1005
0
1002
}
0
ENDSEC
0
SECTION
2
OBJECTS
0
DICTIONARY
5
195
330
0
100
AcDbDictionary
280
0
281
1
3
ACAD_GROUP
350
196
3
ACAD_MLINESTYLE
350
197
0
DICTIONARY
5
196
330
0
100
AcDbDictionary
280
0
281
1
0
DICTIONARY
5
197
330
0
100
AcDbDictionary
280
0
281
1
3
Standard
350
18
0
MLINESTYLE
5
18
330
197
100
AcDbMlineStyle
2
Standard
70
0
3

62
256
51
90
52
90
71
2
49
-0.5
62
256
6
ByLayer
49
0.5
62
256
6
ByLayer
0
RASTERVARIABLES
5
183
330

100
AcDbRasterVariables
90
0
70
1
71
1
72
1
0
ENDSEC
0
EOF
