0
SECTION
2
HEADER
9
$ACADVER
1
AC1015
9
$DWGCODEPAGE
3
ANSI_1252
9
$HANDSEED
5
198
9
$ANGBASE
50
0
9
$ANGDIR
70
0
9
$ATTMODE
70
1
9
$AUNITS
70
0
9
$AUPREC
70
0
9
$CECOLOR
62
256
9
$CELTSCALE
40
1
9
$CELTYPE
6
ByLayer
9
$CELWEIGHT
370
18
9
$CLAYER
8
0
9
$CMLJUST
70
0
9
$CMLSCALE
40
1
9
$CMLSTYLE
2
Standard
9
$DIMSTYLE
2
Standard
9
$TEXTSIZE
40
0.2
9
$TEXTSTYLE
7
Standard
9
$LUNITS
70
2
9
$LUPREC
70
4
9
$EXTNAMES
290
1
9
$INSUNITS
70
4
9
$LTSCALE
40
1
9
$LWDISPLAY
290
1
9
$PDMODE
70
0
9
$PDSIZE
40
0
9
$PLINEGEN
70
0
0
ENDSEC
0
SECTION
2
CLASSES
0
CLASS
1
RASTERVARIABLES
2
AcDbRasterVariables
3
ISM
90
0
280
0
281
0
0
ENDSEC
0
SECTION
2
TABLES
0
TABLE
2
VPORT
5
18e
100
AcDbSymbolTable
0
VPORT
5
1
100
AcDbSymbolTableRecord
100
AcDbViewportTableRecord
2
*Active
70
0
10
0
20
0
11
1
21
1
12
-1
22
1
13
0
23
0
14
0.5
24
0.5
15
10
25
10
16
0
26
0
36
1
17
0
27
0
37
0
0
ENDTAB
0
TABLE
2
LTYPE
5
18f
100
AcDbSymbolTable
0
LTYPE
5
14
100
AcDbSymbolTableRecord
100
AcDbLinetypeTableRecord
70
0
2
ByBlock
3

72
65
73
0
40
0
0
LTYPE
5
15
100
AcDbSymbolTableRecord
100
AcDbLinetypeTableRecord
70
0
2
ByLayer
3

72
65
73
0
40
0
0
LTYPE
5
16
100
AcDbSymbolTableRecord
100
AcDbLinetypeTableRecord
70
0
2
CONTINUOUS
3
Solid line
72
65
73
0
40
0
0
LTYPE
5
6A
100
AcDbSymbolTableRecord
100
AcDbLinetypeTableRecord
70
0
2
CENTER
3
____ _ ____ _ ____ _ ____
72
65
73
4
40
47.5
49
22
74
0
49
-8.5
74
0
49
8.5
74
0
49
-8.5
74
0
0
LTYPE
5
6B
100
AcDbSymbolTableRecord
100
AcDbLinetypeTableRecord
70
0
2
DASHED
3
__ __ __ __ __ __ __ __ __
72
65
73
2
40
25.72
49
12.86
74
0
49
-12.86
74
0
0
ENDTAB
0
TABLE
2
LAYER
5
190
100
AcDbSymbolTable
0
LAYER
5
10
100
AcDbSymbolTableRecord
100
AcDbLayerTableRecord
2
0
70
0
62
7
6
CONTINUOUS
290
1
370
-3
390
0
0
LAYER
5
6D
100
AcDbSymbolTableRecord
100
AcDbLayerTableRecord
2
81
70
0
62
-3
6
CONTINUOUS
290
1
370
-3
390
0
0
LAYER
5
6F
100
AcDbSymbolTableRecord
100
AcDbLayerTableRecord
2
80
70
0
62
-6
6
CONTINUOUS
290
1
370
-3
390
0
0
LAYER
5
74
100
AcDbSymbolTableRecord
100
AcDbLayerTableRecord
2
2
70
0
62
7
6
CONTINUOUS
290
1
370
-3
390
0
0
LAYER
5
78
100
AcDbSymbolTableRecord
100
AcDbLayerTableRecord
2
1
70
0
62
4
6
CONTINUOUS
290
1
370
-3
390
0
0
LAYER
5
86
100
AcDbSymbolTableRecord
100
AcDbLayerTableRecord
2
4
70
0
62
-2
6
CENTER
290
1
370
-3
390
0
0
LAYER
5
17a
100
AcDbSymbolTableRecord
100
AcDbLayerTableRecord
2
SK2
70
0
62
7
6
CONTINUOUS
290
1
370
-3
390
0
0
LAYER
5
17b
100
AcDbSymbolTableRecord
100
AcDbLayerTableRecord
2
SK1
70
0
62
4
6
CONTINUOUS
290
1
370
-3
390
0
0
LAYER
5
17c
100
AcDbSymbolTableRecord
100
AcDbLayerTableRecord
2
SK4
70
0
62
2
6
CENTER
290
1
370
-3
390
0
0
LAYER
5
17d
100
AcDbSymbolTableRecord
100
AcDbLayerTableRecord
2
SK6
70
0
62
5
6
CONTINUOUS
290
1
370
-3
390
0
0
ENDTAB
0
TABLE
2
STYLE
5
191
100
AcDbSymbolTable
0
STYLE
5
11
100
AcDbSymbolTableRecord
100
AcDbTextStyleTableRecord
2
Standard
3
txt
70
0
71
0
40
0
41
1
42
0
50
0
0
STYLE
5
D6
100
AcDbSymbolTableRecord
100
AcDbTextStyleTableRecord
2
iso_b_vert
3
simplex.shx
70
0
71
0
40
0
41
1
42
0
50
0
0
STYLE
5
D7
100
AcDbSymbolTableRecord
100
AcDbTextStyleTableRecord
2
DWGDirectTextStyle
3
simplex
70
0
71
0
40
0
41
1
42
0
50
0
0
ENDTAB
0
TABLE
2
DIMSTYLE
5
192
100
AcDbSymbolTable
100
AcDbDimStyleTable
0
DIMSTYLE
105
27
100
AcDbSymbolTableRecord
100
AcDbDimStyleTableRecord
2
Standard
70
0
3
<>
41
0.18
42
0.0625
44
0.18
140
0.18
147
0.09
73
0
74
0
77
1
271
2
275
0
278
52
280
0
340
11
0
ENDTAB
0
TABLE
2
VIEW
5
193
100
AcDbSymbolTable
0
ENDTAB
0
TABLE
2
UCS
5
194
100
AcDbSymbolTable
0
ENDTAB
0
TABLE
2
APPID
5
195
100
AcDbSymbolTable
0
APPID
5
12
100
AcDbSymbolTableRecord
100
AcDbRegAppTableRecord
2
ACAD
70
0
0
ENDTAB
0
TABLE
2
BLOCK_RECORD
5
196
100
AcDbSymbolTable
0
BLOCK_RECORD
5
1F
100
AcDbSymbolTableRecord
100
AcDbBlockTableRecord
2
*Model_Space
340
0
70
0
0
BLOCK_RECORD
5
1B
100
AcDbSymbolTableRecord
100
AcDbBlockTableRecord
2
*Paper_Space
340
0
70
0
0
BLOCK_RECORD
5
23
100
AcDbSymbolTableRecord
100
AcDbBlockTableRecord
2
*Paper_Space0
340
0
70
0
0
BLOCK_RECORD
5
D9
100
AcDbSymbolTableRecord
100
AcDbBlockTableRecord
2
DimnDraft3D1
340
0
70
0
0
BLOCK_RECORD
5
E3
100
AcDbSymbolTableRecord
100
AcDbBlockTableRecord
2
DimnDraft3D2
340
0
70
0
0
BLOCK_RECORD
5
ED
100
AcDbSymbolTableRecord
100
AcDbBlockTableRecord
2
DimnDraft3D3
340
0
70
0
0
BLOCK_RECORD
5
F7
100
AcDbSymbolTableRecord
100
AcDbBlockTableRecord
2
DimnDraft3D4
340
0
70
0
0
BLOCK_RECORD
5
101
100
AcDbSymbolTableRecord
100
AcDbBlockTableRecord
2
DimnDraft3D5
340
0
70
0
0
BLOCK_RECORD
5
10B
100
AcDbSymbolTableRecord
100
AcDbBlockTableRecord
2
DimnDraft3D6
340
0
70
0
0
BLOCK_RECORD
5
116
100
AcDbSymbolTableRecord
100
AcDbBlockTableRecord
2
DimnDraft3D7
340
0
70
0
0
ENDTAB
0
ENDSEC
0
SECTION
2
BLOCKS
0
BLOCK
5
20
100
AcDbEntity
8
0
100
AcDbBlockBegin
2
*Model_Space
70
0
10
0
20
0
30
0
3
*Model_Space
0
ENDBLK
5
21
100
AcDbEntity
8
0
100
AcDbBlockEnd
0
BLOCK
5
1C
100
AcDbEntity
8
0
100
AcDbBlockBegin
2
*Paper_Space
70
0
10
0
20
0
30
0
3
*Paper_Space
0
ENDBLK
5
1D
100
AcDbEntity
8
0
100
AcDbBlockEnd
0
BLOCK
5
24
100
AcDbEntity
8
0
100
AcDbBlockBegin
2
*Paper_Space0
70
0
10
0
20
0
30
0
3
*Paper_Space0
0
ENDBLK
5
25
100
AcDbEntity
8
0
100
AcDbBlockEnd
0
BLOCK
5
E0
100
AcDbEntity
8
0
100
AcDbBlockBegin
2
DimnDraft3D1
70
0
10
0
20
0
30
0
3
DimnDraft3D1
0
MTEXT
5
DA
100
AcDbEntity
8
SK2
62
256
6
ByLayer
370
13
48
1
60
0
100
AcDbMText
10
32.545975
20
-15.363398
30
0
210
0
220
0
230
1
1
\W0.7211;76,81
40
3.5
41
0
44
1.084337
50
0
71
7
72
5
7
iso_b_vert
0
LINE
5
DB
100
AcDbEntity
8
SK2
62
256
6
ByLayer
370
13
48
1
60
0
100
AcDbLine
10
0
20
-1.5875
30
0
11
0
21
-18.238398
31
0
39
0
210
0
220
0
230
1
0
LINE
5
DC
100
AcDbEntity
8
SK2
62
256
6
ByLayer
370
13
48
1
60
0
100
AcDbLine
10
76.8071
20
-7.6125
30
0
11
76.8071
21
-18.238398
31
0
39
0
210
0
220
0
230
1
0
LINE
5
DD
100
AcDbEntity
8
SK2
62
256
6
ByLayer
370
13
48
1
60
0
100
AcDbLine
10
0
20
-16.238398
30
0
11
76.8071
21
-16.238398
31
0
39
0
210
0
220
0
230
1
0
SOLID
5
DE
100
AcDbEntity
8
SK2
62
256
6
ByLayer
370
13
48
1
60
0
100
AcDbTrace
10
0
20
-16.238398
30
0
11
3.499998
21
-15.777615
31
0
12
3.500002
22
-16.699182
32
0
13
0
23
-16.238398
33
0
39
0
210
0
220
0
230
1
0
SOLID
5
DF
100
AcDbEntity
8
SK2
62
256
6
ByLayer
370
13
48
1
60
0
100
AcDbTrace
10
76.8071
20
-16.238398
30
0
11
73.307102
21
-16.699182
31
0
12
73.307098
22
-15.777615
32
0
13
76.8071
23
-16.238398
33
0
39
0
210
0
220
0
230
1
0
ENDBLK
5
E1
100
AcDbEntity
8
0
100
AcDbBlockEnd
0
BLOCK
5
EA
100
AcDbEntity
8
0
100
AcDbBlockBegin
2
DimnDraft3D2
70
0
10
0
20
0
30
0
3
DimnDraft3D2
0
MTEXT
5
E4
100
AcDbEntity
8
SK2
62
256
6
ByLayer
370
13
48
1
60
0
100
AcDbMText
10
10.645111
20
-34.817985
30
0
210
0
220
0
230
1
1
\W0.7145;124,00
40
3.5
41
0
44
1.084337
50
0
71
7
72
5
7
iso_b_vert
0
LINE
5
E5
100
AcDbEntity
8
SK2
62
256
6
ByLayer
370
13
48
1
60
0
100
AcDbLine
10
-45
20
-8.5875
30
0
11
-45
21
-37.692985
31
0
39
0
210
0
220
0
230
1
0
LINE
5
E6
100
AcDbEntity
8
SK2
62
256
6
ByLayer
370
13
48
1
60
0
100
AcDbLine
10
79
20
-1.5875
30
0
11
79
21
-37.692985
31
0
39
0
210
0
220
0
230
1
0
LINE
5
E7
100
AcDbEntity
8
SK2
62
256
6
ByLayer
370
13
48
1
60
0
100
AcDbLine
10
-45
20
-35.692985
30
0
11
79
21
-35.692985
31
0
39
0
210
0
220
0
230
1
0
SOLID
5
E8
100
AcDbEntity
8
SK2
62
256
6
ByLayer
370
13
48
1
60
0
100
AcDbTrace
10
-45
20
-35.692985
30
0
11
-41.500002
21
-35.232202
31
0
12
-41.499998
22
-36.153769
32
0
13
-45
23
-35.692985
33
0
39
0
210
0
220
0
230
1
0
SOLID
5
E9
100
AcDbEntity
8
SK2
62
256
6
ByLayer
370
13
48
1
60
0
100
AcDbTrace
10
79
20
-35.692985
30
0
11
75.500002
21
-36.153769
31
0
12
75.499998
22
-35.232202
32
0
13
79
23
-35.692985
33
0
39
0
210
0
220
0
230
1
0
ENDBLK
5
EB
100
AcDbEntity
8
0
100
AcDbBlockEnd
0
BLOCK
5
F4
100
AcDbEntity
8
0
100
AcDbBlockBegin
2
DimnDraft3D3
70
0
10
0
20
0
30
0
3
DimnDraft3D3
0
MTEXT
5
EE
100
AcDbEntity
8
SK2
62
256
6
ByLayer
370
13
48
1
60
0
100
AcDbMText
10
45.091316
20
18.509119
30
0
210
0
220
0
230
1
1
\W0.7317;58,92
40
3.5
41
0
44
1.084337
50
0
71
7
72
5
7
iso_b_vert
0
LINE
5
EF
100
AcDbEntity
8
SK2
62
256
6
ByLayer
370
13
48
1
60
0
100
AcDbLine
10
20.08
20
7.6125
30
0
11
20.08
21
19.634119
31
0
39
0
210
0
220
0
230
1
0
LINE
5
F0
100
AcDbEntity
8
SK2
62
256
6
ByLayer
370
13
48
1
60
0
100
AcDbLine
10
79
20
1.5875
30
0
11
79
21
19.634119
31
0
39
0
210
0
220
0
230
1
0
LINE
5
F1
100
AcDbEntity
8
SK2
62
256
6
ByLayer
370
13
48
1
60
0
100
AcDbLine
10
20.08
20
17.634119
30
0
11
79
21
17.634119
31
0
39
0
210
0
220
0
230
1
0
SOLID
5
F2
100
AcDbEntity
8
SK2
62
256
6
ByLayer
370
13
48
1
60
0
100
AcDbTrace
10
20.08
20
17.634119
30
0
11
23.579998
21
18.094903
31
0
12
23.580002
22
17.173335
32
0
13
20.08
23
17.634119
33
0
39
0
210
0
220
0
230
1
0
SOLID
5
F3
100
AcDbEntity
8
SK2
62
256
6
ByLayer
370
13
48
1
60
0
100
AcDbTrace
10
79
20
17.634119
30
0
11
75.500002
21
17.173335
31
0
12
75.499998
22
18.094903
32
0
13
79
23
17.634119
33
0
39
0
210
0
220
0
230
1
0
ENDBLK
5
F5
100
AcDbEntity
8
0
100
AcDbBlockEnd
0
BLOCK
5
FE
100
AcDbEntity
8
0
100
AcDbBlockBegin
2
DimnDraft3D4
70
0
10
0
20
0
30
0
3
DimnDraft3D4
0
MTEXT
5
F8
100
AcDbEntity
8
SK2
62
256
6
ByLayer
370
13
48
1
60
0
100
AcDbMText
10
86.278136
20
-17.952503
30
0
210
0
220
0
230
1
1
\W0.6463;2,19
40
3.5
41
0
44
1.084337
50
0
71
7
72
5
7
iso_b_vert
0
LINE
5
F9
100
AcDbEntity
8
SK2
62
256
6
ByLayer
370
13
48
1
60
0
100
AcDbLine
10
79
20
-1.5875
30
0
11
79
21
-20.827503
31
0
39
0
210
0
220
0
230
1
0
LINE
5
FA
100
AcDbEntity
8
SK2
62
256
6
ByLayer
370
13
48
1
60
0
100
AcDbLine
10
76.8071
20
-7.6125
30
0
11
76.8071
21
-20.827503
31
0
39
0
210
0
220
0
230
1
0
LINE
5
FB
100
AcDbEntity
8
SK2
62
256
6
ByLayer
370
13
48
1
60
0
100
AcDbLine
10
68.0571
20
-18.827503
30
0
11
92.559715
21
-18.827503
31
0
39
0
210
0
220
0
230
1
0
SOLID
5
FC
100
AcDbEntity
8
SK2
62
256
6
ByLayer
370
13
48
1
60
0
100
AcDbTrace
10
79
20
-18.827503
30
0
11
82.499998
21
-18.366719
31
0
12
82.500002
22
-19.288287
32
0
13
79
23
-18.827503
33
0
39
0
210
0
220
0
230
1
0
SOLID
5
FD
100
AcDbEntity
8
SK2
62
256
6
ByLayer
370
13
48
1
60
0
100
AcDbTrace
10
76.8071
20
-18.827503
30
0
11
73.307102
21
-19.288287
31
0
12
73.307098
22
-18.366719
32
0
13
76.8071
23
-18.827503
33
0
39
0
210
0
220
0
230
1
0
ENDBLK
5
FF
100
AcDbEntity
8
0
100
AcDbBlockEnd
0
BLOCK
5
108
100
AcDbEntity
8
0
100
AcDbBlockBegin
2
DimnDraft3D5
70
0
10
0
20
0
30
0
3
DimnDraft3D5
0
MTEXT
5
102
100
AcDbEntity
8
SK2
62
256
6
ByLayer
370
13
48
1
60
0
100
AcDbMText
10
8.623697
20
-24.468428
30
0
210
0
220
0
230
1
1
\W0.6303;121,81
40
3.5
41
0
44
1.084337
50
0
71
7
72
5
7
iso_b_vert
0
LINE
5
103
100
AcDbEntity
8
SK2
62
256
6
ByLayer
370
13
48
1
60
0
100
AcDbLine
10
-45
20
-8.5875
30
0
11
-45
21
-27.343428
31
0
39
0
210
0
220
0
230
1
0
LINE
5
104
100
AcDbEntity
8
SK2
62
256
6
ByLayer
370
13
48
1
60
0
100
AcDbLine
10
76.8071
20
-7.6125
30
0
11
76.8071
21
-27.343428
31
0
39
0
210
0
220
0
230
1
0
LINE
5
105
100
AcDbEntity
8
SK2
62
256
6
ByLayer
370
13
48
1
60
0
100
AcDbLine
10
-45
20
-25.343428
30
0
11
76.8071
21
-25.343428
31
0
39
0
210
0
220
0
230
1
0
SOLID
5
106
100
AcDbEntity
8
SK2
62
256
6
ByLayer
370
13
48
1
60
0
100
AcDbTrace
10
-45
20
-25.343428
30
0
11
-41.500002
21
-24.882645
31
0
12
-41.499998
22
-25.804212
32
0
13
-45
23
-25.343428
33
0
39
0
210
0
220
0
230
1
0
SOLID
5
107
100
AcDbEntity
8
SK2
62
256
6
ByLayer
370
13
48
1
60
0
100
AcDbTrace
10
76.8071
20
-25.343428
30
0
11
73.307102
21
-25.804212
31
0
12
73.307098
22
-24.882645
32
0
13
76.8071
23
-25.343428
33
0
39
0
210
0
220
0
230
1
0
ENDBLK
5
109
100
AcDbEntity
8
0
100
AcDbBlockEnd
0
BLOCK
5
113
100
AcDbEntity
8
0
100
AcDbBlockBegin
2
DimnDraft3D6
70
0
10
0
20
0
30
0
3
DimnDraft3D6
0
MTEXT
5
10C
100
AcDbEntity
8
SK2
62
256
6
ByLayer
370
13
48
1
60
0
100
AcDbMText
10
-55.375163
20
26.34918
30
0
210
0
220
0
230
1
1
\W0.7145;14,000
40
3.5
41
0
44
1.084337
50
90
71
7
72
5
7
iso_b_vert
0
MTEXT
5
10D
100
AcDbEntity
8
SK2
62
256
6
ByLayer
370
13
48
1
60
0
100
AcDbMText
10
-55.375163
20
21.126524
30
0
210
0
220
0
230
1
1
%%c
40
3.5
41
0
44
1.084337
50
90
71
7
72
5
7
iso_b_vert
0
LINE
5
10E
100
AcDbEntity
8
SK2
62
256
6
ByLayer
370
13
48
1
60
0
100
AcDbLine
10
-46.5875
20
-7
30
0
11
-55.625163
21
-7
31
0
39
0
210
0
220
0
230
1
0
LINE
5
10F
100
AcDbEntity
8
SK2
62
256
6
ByLayer
370
13
48
1
60
0
100
AcDbLine
10
-46.5875
20
7
30
0
11
-55.625163
21
7
31
0
39
0
210
0
220
0
230
1
0
LINE
5
110
100
AcDbEntity
8
SK2
62
256
6
ByLayer
370
13
48
1
60
0
100
AcDbLine
10
-53.625163
20
-7
30
0
11
-53.625163
21
38.230759
31
0
39
0
210
0
220
0
230
1
0
SOLID
5
111
100
AcDbEntity
8
SK2
62
256
6
ByLayer
370
13
48
1
60
0
100
AcDbTrace
10
-53.625163
20
-7
30
0
11
-54.085946
21
-3.500002
31
0
12
-53.164379
22
-3.499998
32
0
13
-53.625163
23
-7
33
0
39
0
210
0
220
0
230
1
0
SOLID
5
112
100
AcDbEntity
8
SK2
62
256
6
ByLayer
370
13
48
1
60
0
100
AcDbTrace
10
-53.625163
20
7
30
0
11
-53.164379
21
3.500002
31
0
12
-54.085946
22
3.499998
32
0
13
-53.625163
23
7
33
0
39
0
210
0
220
0
230
1
0
ENDBLK
5
114
100
AcDbEntity
8
0
100
AcDbBlockEnd
0
BLOCK
5
11E
100
AcDbEntity
8
0
100
AcDbBlockBegin
2
DimnDraft3D7
70
0
10
0
20
0
30
0
3
DimnDraft3D7
0
MTEXT
5
117
100
AcDbEntity
8
2
62
256
6
ByLayer
370
13
48
1
60
0
100
AcDbMText
10
89.333343
20
23.967266
30
0
210
0
220
0
230
1
1
\W0.6930;12,050
40
3.5
41
0
44
1.084337
50
90
71
7
72
5
7
iso_b_vert
0
MTEXT
5
118
100
AcDbEntity
8
2
62
256
6
ByLayer
370
13
48
1
60
0
100
AcDbMText
10
89.333343
20
18.74461
30
0
210
0
220
0
230
1
1
%%c
40
3.5
41
0
44
1.084337
50
90
71
7
72
5
7
iso_b_vert
0
LINE
5
119
100
AcDbEntity
8
2
62
256
6
ByLayer
370
13
48
1
60
0
100
AcDbLine
10
78.3946
20
-6.025
30
0
11
93.083343
21
-6.025
31
0
39
0
210
0
220
0
230
1
0
LINE
5
11A
100
AcDbEntity
8
2
62
256
6
ByLayer
370
13
48
1
60
0
100
AcDbLine
10
78.3946
20
6.025
30
0
11
93.083343
21
6.025
31
0
39
0
210
0
220
0
230
1
0
LINE
5
11B
100
AcDbEntity
8
2
62
256
6
ByLayer
370
13
48
1
60
0
100
AcDbLine
10
91.083343
20
-6.025
30
0
11
91.083343
21
35.480424
31
0
39
0
210
0
220
0
230
1
0
SOLID
5
11C
100
AcDbEntity
8
2
62
256
6
ByLayer
370
13
48
1
60
0
100
AcDbTrace
10
91.083343
20
-6.025
30
0
11
90.622559
21
-2.525002
31
0
12
91.544126
22
-2.524998
32
0
13
91.083343
23
-6.025
33
0
39
0
210
0
220
0
230
1
0
SOLID
5
11D
100
AcDbEntity
8
2
62
256
6
ByLayer
370
13
48
1
60
0
100
AcDbTrace
10
91.083343
20
6.025
30
0
11
91.544126
21
2.525002
31
0
12
90.622559
22
2.524998
32
0
13
91.083343
23
6.025
33
0
39
0
210
0
220
0
230
1
0
ENDBLK
5
11F
100
AcDbEntity
8
0
100
AcDbBlockEnd
0
ENDSEC
0
SECTION
2
ENTITIES
0
ARC
5
94
100
AcDbEntity
8
1
62
256
6
ByLayer
370
18
48
1
60
0
100
AcDbCircle
39
0
10
-0.35
20
6.326962
30
0
40
0.350000000000001
210
0
220
0
230
-1
100
AcDbArc
50
269.96419
51
0
0
ARC
5
95
100
AcDbEntity
8
1
62
256
6
ByLayer
370
18
48
1
60
0
100
AcDbCircle
39
0
10
-0.35
20
-6.326962
30
0
40
0.350000000000001
210
0
220
0
230
-1
100
AcDbArc
50
0
51
90.03581
0
ELLIPSE
5
96
100
AcDbEntity
8
1
62
256
6
ByLayer
370
18
48
1
60
0
100
AcDbEllipse
10
4.25
20
5.928553
30
0
11
-0.25
21
3.06151588455594E-17
31
0
210
0
220
0
230
1
40
1
41
0.00348119319843013
42
1.58110367923013
0
ELLIPSE
5
97
100
AcDbEntity
8
1
62
256
6
ByLayer
370
18
48
1
60
0
100
AcDbEllipse
10
4.25
20
-5.928553
30
0
11
-0.25
21
3.06151588455594E-17
31
0
210
0
220
0
230
1
40
1
41
-1.56464708417666
42
-0.00348119319829512
0
POINT
5
6C
100
AcDbEntity
8
81
62
256
6
ByLayer
370
18
48
1
60
0
100
AcDbPoint
10
79
20
0
30
0
39
0
210
0
220
0
230
1
50
360
0
POINT
5
6E
100
AcDbEntity
8
80
62
256
6
ByLayer
370
18
48
1
60
0
100
AcDbPoint
10
0
20
0
30
0
39
0
210
0
220
0
230
1
50
360
0
POINT
5
70
100
AcDbEntity
8
SK2
62
256
6
ByLayer
370
18
48
1
60
1
100
AcDbPoint
10
-45
20
-7
30
0
39
0
210
0
220
0
230
1
50
360
0
POINT
5
72
100
AcDbEntity
8
SK2
62
256
6
ByLayer
370
18
48
1
60
1
100
AcDbPoint
10
-45
20
7
30
0
39
0
210
0
220
0
230
1
50
360
0
POINT
5
73
100
AcDbEntity
8
2
62
256
6
ByLayer
370
18
48
1
60
1
100
AcDbPoint
10
76.8071
20
-6.025
30
0
39
0
210
0
220
0
230
1
50
360
0
POINT
5
75
100
AcDbEntity
8
2
62
256
6
ByLayer
370
18
48
1
60
1
100
AcDbPoint
10
76.8071
20
6.025
30
0
39
0
210
0
220
0
230
1
50
360
0
SPLINE
5
98
100
AcDbEntity
8
1
62
256
6
ByLayer
370
18
48
1
60
0
100
AcDbSpline
70
4
71
3
72
31
73
27
40
0
40
0
40
0
40
0
40
0.0336170675543351
40
0.0758566835760807
40
0.109049174250723
40
0.14470927008597
40
0.173641201512149
40
0.210232955180623
40
0.251315530552671
40
0.286128854197515
40
0.314105230605766
40
0.344302609215322
40
0.39631402607463
40
0.450059548711242
40
0.499244106654129
40
0.555664592584735
40
0.628125474816464
40
0.686155913370765
40
0.737169370150306
40
0.795338857807922
40
0.853481512869199
40
0.883173205215226
40
0.912844332639567
40
0.948760718000349
40
0.99316065126815
40
1
40
1
40
1
40
1
41
1
10
4.25050759238746
20
-5.6784808797803
30
0
41
1
10
4.4084036476292
20
-5.67883775908135
30
0
41
1
10
4.76470276318076
20
-5.6795405951774
30
0
41
1
10
5.27695689139233
20
-5.68013698792217
30
0
41
1
10
5.79878867832448
20
-5.68055634129973
30
0
41
1
10
6.25808303662217
20
-5.68079909465482
30
0
41
1
10
6.73338268268887
20
-5.68101747184878
30
0
41
1
10
7.23414778228872
20
-5.68125757507659
30
0
41
1
10
7.76254188218434
20
-5.68130415360409
30
0
41
1
10
8.25046572966363
20
-5.68165749412219
30
0
41
1
10
8.68725457903881
20
-5.68271286466313
30
0
41
1
10
9.204832143049
20
-5.6834345702479
30
0
41
1
10
9.84346203621905
20
-5.68356926082001
30
0
41
1
10
10.5712547643714
20
-5.68394378644251
30
0
41
1
10
11.3198546154896
20
-5.68507467816869
30
0
41
1
10
12.1559485220857
20
-5.68389467941532
30
0
41
1
10
13.0355046558732
20
-5.68644525350493
30
0
41
1
10
13.8785095637436
20
-5.68232813987083
30
0
41
1
10
14.6548370122655
20
-5.68646423421472
30
0
41
1
10
15.4405870967639
20
-5.68696905796875
30
0
41
1
10
16.1269262053933
20
-5.68730630931677
30
0
41
1
10
16.6776866069955
20
-5.68714279408076
30
0
41
1
10
17.1264536987333
20
-5.68757883261961
30
0
41
1
10
17.6374863784705
20
-5.68859536244506
30
0
41
1
10
18.0423190912598
20
-5.68730876982758
30
0
41
1
10
18.2830199678633
20
-5.68748048398683
30
0
41
1
10
18.3151737749628
20
-5.68750577302211
30
0
0
SPLINE
5
99
100
AcDbEntity
8
1
62
256
6
ByLayer
370
18
48
1
60
0
100
AcDbSpline
70
4
71
2
72
6
73
3
40
0
40
0
40
0
40
1
40
1
40
1
41
1
10
76.4580203536598
20
-5.72334751588065
30
0
41
1
10
76.7127481595867
20
-5.72299720551047
30
0
41
1
10
76.9658190122013
20
-5.72286798935005
30
0
0
SPLINE
5
9A
100
AcDbEntity
8
1
62
256
6
ByLayer
370
18
48
1
60
0
100
AcDbSpline
70
4
71
3
72
37
73
33
40
0
40
0
40
0
40
0
40
0.0526623296893905
40
0.0984773272806757
40
0.132575060390833
40
0.159471284068807
40
0.182048350997115
40
0.202280452027254
40
0.231332512225397
40
0.266250612702013
40
0.298229709216841
40
0.325219189970206
40
0.356055906168703
40
0.397528428922612
40
0.436336081020566
40
0.469184313344734
40
0.496245878443071
40
0.521548385131839
40
0.546799090413212
40
0.571998642606663
40
0.61490077155142
40
0.659836047995229
40
0.709554635742583
40
0.751547333307112
40
0.788089863097554
40
0.836739110675751
40
0.865175558038721
40
0.891067389789615
40
0.915724354469457
40
0.941477440964208
40
0.96874898913477
40
1
40
1
40
1
40
1
41
1
10
38.3655427223367
20
-5.69935413368364
30
0
41
1
10
38.6809477533655
20
-5.69952095756065
30
0
41
1
10
39.270329654141
20
-5.69985807422847
30
0
41
1
10
40.0660783380615
20
-5.70066266000904
30
0
41
1
10
40.7017819402806
20
-5.7009484083479
30
0
41
1
10
41.1980263776682
20
-5.69993779104834
30
0
41
1
10
41.6180948459025
20
-5.70041302746384
30
0
41
1
10
42.0417356683372
20
-5.70197518826018
30
0
41
1
10
42.546952219258
20
-5.70230790815629
30
0
41
1
10
43.1214915392368
20
-5.70232216012681
30
0
41
1
10
43.6840350981188
20
-5.70255407466749
30
0
41
1
10
44.2219671948849
20
-5.70322966612156
30
0
41
1
10
44.816867078739
20
-5.70355711004757
30
0
41
1
10
45.4825352663165
20
-5.70326692607665
30
0
41
1
10
46.1602704247581
20
-5.70411163452792
30
0
41
1
10
46.7516620393333
20
-5.70473183151833
30
0
41
1
10
47.2621470580468
20
-5.70476333199557
30
0
41
1
10
47.7271200663789
20
-5.70452383147301
30
0
41
1
10
48.1809402874438
20
-5.70482611745132
30
0
41
1
10
48.7401958649194
20
-5.70598584540252
30
0
41
1
10
49.4173795831197
20
-5.70610496331523
30
0
41
1
10
50.2414507019538
20
-5.70526010464985
30
0
41
1
10
51.0600711394985
20
-5.70748841168779
30
0
41
1
10
51.8284157169696
20
-5.7070901799882
30
0
41
1
10
52.5903562755659
20
-5.70666991089473
30
0
41
1
10
53.2710710676999
20
-5.70880367056168
30
0
41
1
10
53.8879917667569
20
-5.70845304429736
30
0
41
1
10
54.3605699680058
20
-5.70801002546136
30
0
41
1
10
54.8175122619431
20
-5.70782012228872
30
0
41
1
10
55.2831490908204
20
-5.70937517237769
30
0
41
1
10
55.7825597537142
20
-5.70964121814967
30
0
41
1
10
56.1331504997231
20
-5.70940361725232
30
0
41
1
10
56.3207035053866
20
-5.70909586855072
30
0
0
SPLINE
5
9B
100
AcDbEntity
8
1
62
256
6
ByLayer
370
18
48
1
60
0
100
AcDbSpline
70
4
71
3
72
29
73
25
40
0
40
0
40
0
40
0
40
0.041834468560345
40
0.0914383909319251
40
0.14195962774905
40
0.193771812695178
40
0.246853648845746
40
0.300754306288503
40
0.351215165161312
40
0.394992000556071
40
0.445046808554361
40
0.492804818512612
40
0.527547454535696
40
0.561781647894072
40
0.606919493925897
40
0.658418197695377
40
0.706872698993388
40
0.752041091176909
40
0.796411989015971
40
0.841584051398547
40
0.887077577535977
40
0.934041743297469
40
0.98282613726302
40
1
40
1
40
1
40
1
41
1
10
56.5807391334241
20
5.70615256866915
30
0
41
1
10
56.3797217234999
20
5.70758451886007
30
0
41
1
10
55.9382185383595
20
5.70984430336031
30
0
41
1
10
55.2421065697029
20
5.70926186485866
30
0
41
1
10
54.495971802787
20
5.70763766142764
30
0
41
1
10
53.73283582178
20
5.7088531828264
30
0
41
1
10
52.9530843791661
20
5.70802232045156
30
0
41
1
10
52.1799617817273
20
5.70653400949442
30
0
41
1
10
51.4525592693947
20
5.70744927972447
30
0
41
1
10
50.743942239401
20
5.70676820743958
30
0
41
1
10
50.0491111214495
20
5.70530152168018
30
0
41
1
10
49.3982023457338
20
5.70585386154352
30
0
41
1
10
48.825351463301
20
5.70595962776468
30
0
41
1
10
48.2654831253981
20
5.70500900208214
30
0
41
1
10
47.6227945653262
20
5.70442930503955
30
0
41
1
10
46.910356808056
20
5.70491553338749
30
0
41
1
10
46.197736846342
20
5.70415456439136
30
0
41
1
10
45.5201367331093
20
5.70330228010883
30
0
41
1
10
44.8586372500213
20
5.70357169976006
30
0
41
1
10
44.1955654255869
20
5.70323939911094
30
0
41
1
10
43.5197356573137
20
5.70233515974252
30
0
41
1
10
42.8261850334017
20
5.70243024867429
30
0
41
1
10
42.2716890415935
20
5.70213067721491
30
0
41
1
10
41.9478125329499
20
5.70181716109383
30
0
41
1
10
41.8634833010546
20
5.70173365396403
30
0
0
SPLINE
5
9C
100
AcDbEntity
8
1
62
256
6
ByLayer
370
18
48
1
60
0
100
AcDbSpline
70
4
71
3
72
31
73
27
40
0
40
0
40
0
40
0
40
0.0042588184963021
40
0.055766065188504
40
0.105212811786534
40
0.149496111307243
40
0.183415535815936
40
0.216378733383464
40
0.26417029375076
40
0.316048452422425
40
0.362317265973074
40
0.399197344330327
40
0.431184403217584
40
0.475052694219254
40
0.520523699419653
40
0.562696014176376
40
0.602285944064144
40
0.642750027514633
40
0.684148017239868
40
0.722871582150485
40
0.758224265711631
40
0.794201523193747
40
0.832552010139526
40
0.879904905003285
40
0.94151108705006
40
1
40
1
40
1
40
1
41
1
10
18.4586435044247
20
5.68567735927579
30
0
41
1
10
18.4385680704672
20
5.68576228988758
30
0
41
1
10
18.1757449412058
20
5.68684054347156
30
0
41
1
10
17.6888260542029
20
5.68880699681003
30
0
41
1
10
16.9988744560461
20
5.68735282278917
30
0
41
1
10
16.3939419195417
20
5.68722585712743
30
0
41
1
10
15.8667784522161
20
5.6872588446482
30
0
41
1
10
15.3229864249599
20
5.68692006435842
30
0
41
1
10
14.6947344094066
20
5.68591572528624
30
0
41
1
10
14.0011021778197
20
5.68582416191452
30
0
41
1
10
13.3657964184608
20
5.68552599297755
30
0
41
1
10
12.818410617103
20
5.6848624906836
30
0
41
1
10
12.2859847903669
20
5.68446147149041
30
0
41
1
10
11.710046185077
20
5.68458421473659
30
0
41
1
10
11.0866564550068
20
5.68486471532756
30
0
41
1
10
10.4833100572947
20
5.68383164234797
30
0
41
1
10
9.90376592758503
20
5.68361035673294
30
0
41
1
10
9.32787639144129
20
5.68347821841223
30
0
41
1
10
8.75610896069747
20
5.68291785272623
30
0
41
1
10
8.20856504140352
20
5.68151639699428
30
0
41
1
10
7.6867358887223
20
5.68133649155214
30
0
41
1
10
7.16666257396554
20
5.68122272571193
30
0
41
1
10
6.58970544843859
20
5.68094964481605
30
0
41
1
10
5.89124664567291
20
5.68061507284688
30
0
41
1
10
5.09724404710579
20
5.6800631943419
30
0
41
1
10
4.52782484438848
20
5.67903924151079
30
0
41
1
10
4.25050884688466
20
5.67843117342497
30
0
0
SPLINE
5
9D
100
AcDbEntity
8
SK1
62
256
6
ByLayer
370
18
48
1
60
0
100
AcDbSpline
70
4
71
3
72
10
73
6
40
0
40
0
40
0
40
0
40
0.5
40
0.5
40
1
40
1
40
1
40
1
41
1
10
-45
20
-2.27740194887727
30
0
41
1
10
-44.7376885653501
20
-2.41320370752368
30
0
41
1
10
-44.4718903387431
20
-2.54847379216298
30
0
41
1
10
-43.9377188587748
20
-2.81856952389643
30
0
41
1
10
-43.6692048545317
20
-2.95338680195118
30
0
41
1
10
-43.4
20
-3.08809254486437
30
0
0
SPLINE
5
9E
100
AcDbEntity
8
SK1
62
256
6
ByLayer
370
18
48
1
60
0
100
AcDbSpline
70
4
71
3
72
10
73
6
40
0
40
0
40
0
40
0
40
0.5
40
0.5
40
1
40
1
40
1
40
1
41
1
10
-43.4
20
-0.690981115509999
30
0
41
1
10
-43.6692148959514
20
-0.55627034803328
30
0
41
1
10
-43.9377433951557
20
-0.421445761421751
30
0
41
1
10
-44.4719248255154
20
-0.151344851755908
30
0
41
1
10
-44.7376960943029
20
-0.0160883803405909
30
0
41
1
10
-45
20
0.11970948047707
30
0
0
SPLINE
5
9F
100
AcDbEntity
8
SK1
62
256
6
ByLayer
370
18
48
1
60
0
100
AcDbSpline
70
4
71
3
72
26
73
22
40
0
40
0
40
0
40
0
40
0.125000000000001
40
0.125000000000001
40
0.250000000000002
40
0.250000000000002
40
0.312500000000002
40
0.312500000000002
40
0.375000000000003
40
0.375000000000003
40
0.500000000000003
40
0.500000000000003
40
0.625000000000003
40
0.625000000000003
40
0.687500000000002
40
0.687500000000002
40
0.750000000000002
40
0.750000000000002
40
0.875000000000001
40
0.875000000000001
40
1
40
1
40
1
40
1
41
1
10
-44.9999999999999
20
-0.383203364405659
30
0
41
1
10
-44.9521893883421
20
-0.376161689682704
30
0
41
1
10
-44.9049356477084
20
-0.368561304237772
30
0
41
1
10
-44.814177326443
20
-0.35199345707241
30
0
41
1
10
-44.7706665125908
20
-0.343057302544111
30
0
41
1
10
-44.7101282074742
20
-0.328002577949036
30
0
41
1
10
-44.6907479246804
20
-0.322705356181416
30
0
41
1
10
-44.6542733973552
20
-0.311312867595546
30
0
41
1
10
-44.6370962609334
20
-0.305172154958939
30
0
41
1
10
-44.5927063072739
20
-0.285745683411534
30
0
41
1
10
-44.5718029736912
20
-0.270917243554408
30
0
41
1
10
-44.5675797811951
20
-0.2396088568496
30
0
41
1
10
-44.5850274860339
20
-0.224373844303727
30
0
41
1
10
-44.6277424346486
20
-0.204616475856312
30
0
41
1
10
-44.6447525955231
20
-0.198427153104973
30
0
41
1
10
-44.6813837379876
20
-0.187058387844161
30
0
41
1
10
-44.7011685306337
20
-0.181805005059545
30
0
41
1
10
-44.7636911908579
20
-0.166974280399387
30
0
41
1
10
-44.8093457137209
20
-0.158375884896742
30
0
41
1
10
-44.9026514335999
20
-0.143103834607615
30
0
41
1
10
-44.950821425798
20
-0.136351416948884
30
0
41
1
10
-45
20
-0.13018641716593
30
0
0
SPLINE
5
A0
100
AcDbEntity
8
SK1
62
256
6
ByLayer
370
18
48
1
60
0
100
AcDbSpline
70
4
71
3
72
14
73
10
40
0
40
0
40
0
40
0
40
0.125000000000002
40
0.125000000000002
40
0.250000000000003
40
0.250000000000003
40
0.500000000000002
40
0.500000000000002
40
1
40
1
40
1
40
1
41
1
10
-43.3
20
-0.841863330204035
30
0
41
1
10
-43.3
20
-0.831224686367534
30
0
41
1
10
-43.3017012565589
20
-0.82043744683412
30
0
41
1
10
-43.3069010451287
20
-0.800556852257046
30
0
41
1
10
-43.3102603620514
20
-0.791669031516534
30
0
41
1
10
-43.3216024497887
20
-0.766755817580389
30
0
41
1
10
-43.3304674144333
20
-0.753228711321071
30
0
41
1
10
-43.3586594529452
20
-0.71769628321448
30
0
41
1
10
-43.3789281721554
20
-0.70152511639472
30
0
41
1
10
-43.4
20
-0.690981115509999
30
0
0
SPLINE
5
A1
100
AcDbEntity
8
SK1
62
256
6
ByLayer
370
18
48
1
60
0
100
AcDbSpline
70
4
71
4
72
13
73
8
40
0
40
0
40
0
40
0
40
0
40
0.806817457505584
40
0.806817457505584
40
0.806817457505584
40
1
40
1
40
1
40
1
40
1
41
0.995832355623341
10
-45.0000005461653
20
-0.130186499835598
30
0
41
0.998607270666383
10
-45.0000004205453
20
-0.243148633476519
30
0
41
1.00621165011024
10
-45.0000002591222
20
-0.328532643571582
30
0
41
1.0166117137858
10
-45.000000077351
20
-0.377239721168697
30
0
41
1.0166117137858
10
-44.9999998624998
20
-0.401816655374457
30
0
41
1.01601547368716
10
-44.9999998195782
20
-0.405141598414317
30
0
41
1.01500413241351
10
-44.9999997754594
20
-0.406872687331417
30
0
41
1.01372214197918
10
-44.999999730375
20
-0.406891499830873
30
0
0
SPLINE
5
A2
100
AcDbEntity
8
SK1
62
256
6
ByLayer
370
18
48
1
60
0
100
AcDbSpline
70
4
71
3
72
8
73
4
40
0
40
0
40
0
40
0
40
1
40
1
40
1
40
1
41
1
10
-44.7670140052705
20
0.0003373224622862
30
0
41
1
10
-44.8449409829125
20
-0.0396369049910845
30
0
41
1
10
-44.9226213611412
20
-0.0796496361446941
30
0
41
1
10
-45
20
-0.119709480477098
30
0
0
SPLINE
5
A3
100
AcDbEntity
8
SK1
62
256
6
ByLayer
370
18
48
1
60
0
100
AcDbSpline
70
4
71
3
72
14
73
10
40
0
40
0
40
0
40
0
40
0.500000000000001
40
0.500000000000001
40
0.750000000000001
40
0.750000000000001
40
0.875000000000001
40
0.875000000000001
40
1
40
1
40
1
40
1
41
1
10
-43.4
20
-3.08809254486445
30
0
41
1
10
-43.3790445776494
20
-3.09857829832796
30
0
41
1
10
-43.3587362712602
20
-3.10338515469968
30
0
41
1
10
-43.3304966181166
20
-3.09824080937642
30
0
41
1
10
-43.3215144183093
20
-3.09438512876392
30
0
41
1
10
-43.3103236218556
20
-3.08287460958985
30
0
41
1
10
-43.3069030532022
20
-3.0779769924803
30
0
41
1
10
-43.3017205322973
20
-3.06502980149472
30
0
41
1
10
-43.3
20
-3.05691510001219
30
0
41
1
10
-43.3
20
-3.04720584521004
30
0
0
SPLINE
5
A4
100
AcDbEntity
8
1
62
256
6
ByLayer
370
18
48
1
60
0
100
AcDbSpline
70
4
71
3
72
34
73
30
40
0
40
0
40
0
40
0
40
0.0624999999999982
40
0.0624999999999982
40
0.124999999999997
40
0.124999999999997
40
0.187499999999995
40
0.187499999999995
40
0.249999999999993
40
0.249999999999993
40
0.312499999999991
40
0.312499999999991
40
0.37499999999999
40
0.37499999999999
40
0.437499999999988
40
0.437499999999988
40
0.499999999999986
40
0.499999999999986
40
0.62499999999999
40
0.62499999999999
40
0.749999999999993
40
0.749999999999993
40
0.812499999999995
40
0.812499999999995
40
0.874999999999997
40
0.874999999999997
40
0.937499999999998
40
0.937499999999998
40
1
40
1
40
1
40
1
41
1
10
77.7539645453661
20
-1.8801110715635
30
0
41
1
10
77.7594548472554
20
-1.92062802055472
30
0
41
1
10
77.7617286583962
20
-1.96438955017973
30
0
41
1
10
77.7597516273315
20
-2.05741871934072
30
0
41
1
10
77.7554311445213
20
-2.10753681247698
30
0
41
1
10
77.7402345623394
20
-2.21142653285969
30
0
41
1
10
77.7295750856971
20
-2.26428927317752
30
0
41
1
10
77.7025489048905
20
-2.37187576110495
30
0
41
1
10
77.6861435038202
20
-2.42643488714245
30
0
41
1
10
77.6496144723867
20
-2.5320282229219
30
0
41
1
10
77.6290889427514
20
-2.58427612399174
30
0
41
1
10
77.5854152192971
20
-2.68395993288792
30
0
41
1
10
77.5623619159661
20
-2.73131443389852
30
0
41
1
10
77.5140261345618
20
-2.82151315312285
30
0
41
1
10
77.4888601624484
20
-2.86405611920924
30
0
41
1
10
77.4379812605394
20
-2.94231768903364
30
0
41
1
10
77.4120721960572
20
-2.97840198464627
30
0
41
1
10
77.332836851362
20
-3.0779696387217
30
0
41
1
10
77.2802731530257
20
-3.13017590317892
30
0
41
1
10
77.1745997398054
20
-3.20941986397168
30
0
41
1
10
77.1232437387035
20
-3.23502717485721
30
0
41
1
10
77.0481591190567
20
-3.25351699114765
30
0
41
1
10
77.0233247546205
20
-3.25629076885508
30
0
41
1
10
76.9753979027734
20
-3.25492712139166
30
0
41
1
10
76.9521624119927
20
-3.25085385064665
30
0
41
1
10
76.90707822318
20
-3.23590032064385
30
0
41
1
10
76.885228965609
20
-3.22502343626172
30
0
41
1
10
76.842972703435
20
-3.19596617429056
30
0
41
1
10
76.8228282332718
20
-3.17791785557398
30
0
41
1
10
76.8040320147149
20
-3.15658180988683
30
0
0
SPLINE
5
A5
100
AcDbEntity
8
1
62
256
6
ByLayer
370
18
48
1
60
0
100
AcDbSpline
70
4
71
3
72
8
73
4
40
0
40
0
40
0
40
0
40
1
40
1
40
1
40
1
41
1
10
78.9507291586682
20
-0.102347917230333
30
0
41
1
10
78.570014029193
20
-0.713888304811121
30
0
41
1
10
78.1680689815104
20
-1.30332858257356
30
0
41
1
10
77.7539645453661
20
-1.88011107156353
30
0
0
SPLINE
5
A6
100
AcDbEntity
8
1
62
256
6
ByLayer
370
18
48
1
60
0
100
AcDbSpline
70
4
71
3
72
8
73
4
40
0
40
0
40
0
40
0
40
1
40
1
40
1
40
1
41
1
10
78.9952190088235
20
-0.108716130348739
30
0
41
1
10
78.9949005902261
20
-0.0895096466899474
30
0
41
1
10
78.9966439344465
20
-0.0667249261211396
30
0
41
1
10
78.9998141523459
20
-0.042625242121261
30
0
0
SPLINE
5
A7
100
AcDbEntity
8
1
62
256
6
ByLayer
370
18
48
1
60
0
100
AcDbSpline
70
4
71
3
72
8
73
4
40
0
40
0
40
0
40
0
40
1
40
1
40
1
40
1
41
1
10
76.8877436624706
20
1.44279850478321
30
0
41
1
10
77.4965774269154
20
1.42033193967583
30
0
41
1
10
78.1055563503547
20
1.39616871494619
30
0
41
1
10
78.7142738251165
20
1.37506137673498
30
0
0
SPLINE
5
A8
100
AcDbEntity
8
1
62
256
6
ByLayer
370
18
48
1
60
0
100
AcDbSpline
70
4
71
3
72
10
73
6
40
0
40
0
40
0
40
0
40
0.5
40
0.5
40
1
40
1
40
1
40
1
41
1
10
78.9956864215868
20
0.205576016826626
30
0
41
1
10
78.9864163216541
20
0.426967209434821
30
0
41
1
10
78.9621354324459
20
0.650381772197363
30
0
41
1
10
78.8850911604633
20
1.11234169017615
30
0
41
1
10
78.8328859910498
20
1.34787375266288
30
0
41
1
10
78.769756133607
20
1.59143420133563
30
0
0
SPLINE
5
A9
100
AcDbEntity
8
1
62
256
6
ByLayer
370
18
48
1
60
0
100
AcDbSpline
70
4
71
3
72
30
73
26
40
0
40
0
40
0
40
0
40
0.0624999999999982
40
0.0624999999999982
40
0.0937499999999974
40
0.0937499999999974
40
0.124999999999997
40
0.124999999999997
40
0.249999999999995
40
0.249999999999995
40
0.312499999999995
40
0.312499999999995
40
0.374999999999994
40
0.374999999999994
40
0.437499999999993
40
0.437499999999993
40
0.499999999999993
40
0.499999999999993
40
0.624999999999995
40
0.624999999999995
40
0.749999999999996
40
0.749999999999996
40
0.874999999999998
40
0.874999999999998
40
1
40
1
40
1
40
1
41
1
10
71.1671265883197
20
1.88240232062884
30
0
41
1
10
71.1655761538258
20
1.71498073653072
30
0
41
1
10
71.1752440869403
20
1.54568698535394
30
0
41
1
10
71.2062976684004
20
1.28898414622233
30
0
41
1
10
71.2194120521442
20
1.20295540074037
30
0
41
1
10
71.2511744942615
20
1.029974427517
30
0
41
1
10
71.269861348416
20
0.942984896577997
30
0
41
1
10
71.3750505947206
20
0.513413424462186
30
0
41
1
10
71.4973700526161
20
0.180510384835969
30
0
41
1
10
71.7272154465646
20
-0.305780147201858
30
0
41
1
10
71.8107476168497
20
-0.463699328507204
30
0
41
1
10
71.9880322723827
20
-0.769488320276395
30
0
41
1
10
72.082044302428
20
-0.917883611028657
30
0
41
1
10
72.2794152691395
20
-1.20684253855012
30
0
41
1
10
72.3827794922514
20
-1.34740174587355
30
0
41
1
10
72.5978775426042
20
-1.62150737584531
30
0
41
1
10
72.7100229282104
20
-1.75546677487327
30
0
41
1
10
73.0533267735782
20
-2.14212854934817
30
0
41
1
10
73.2923805538431
20
-2.38105545098415
30
0
41
1
10
73.7864196108767
20
-2.82942629164958
30
0
41
1
10
74.0413770115483
20
-3.0389218184209
30
0
41
1
10
74.5646901016635
20
-3.43311788508001
30
0
41
1
10
74.8336576569469
20
-3.6180896976706
30
0
41
1
10
75.3766384869944
20
-3.96164026623856
30
0
41
1
10
75.6514428358898
20
-4.12082216361617
30
0
41
1
10
75.9292330624227
20
-4.26865733115505
30
0
0
SPLINE
5
AA
100
AcDbEntity
8
1
62
256
6
ByLayer
370
18
48
1
60
0
100
AcDbSpline
70
4
71
3
72
16
73
12
40
0
40
0
40
0
40
0
40
0.109552493320824
40
0.109552493320824
40
0.343142568373699
40
0.343142568373699
40
0.810322718479453
40
0.810322718479453
40
0.927117756005891
40
0.927117756005891
40
1
40
1
40
1
40
1
41
1
10
19.0977886970371
20
-0.0049973104541721
30
0
41
1
10
19.4564152643667
20
-0.176085133995571
30
0
41
1
10
19.8151119190149
20
-0.347178977286148
30
0
41
1
10
20.9339546543298
20
-0.879016238122745
30
0
41
1
10
21.6914904716293
20
-1.23619365875899
30
0
41
1
10
23.9595174069022
20
-2.27738461310426
30
0
41
1
10
25.4647143115763
20
-2.93227169953471
30
0
41
1
10
27.3623089841059
20
-3.65359308059971
30
0
41
1
10
27.7425808769492
20
-3.79308419758456
30
0
41
1
10
28.3619565358048
20
-4.01079352522899
30
0
41
1
10
28.6006739284504
20
-4.09240262677437
30
0
41
1
10
28.8392526961528
20
-4.17155381496849
30
0
0
SPLINE
5
AB
100
AcDbEntity
8
1
62
256
6
ByLayer
370
13
48
1
60
0
100
AcDbSpline
70
4
71
3
72
18
73
14
40
0
40
0
40
0
40
0
40
0.0376774480165063
40
0.0376774480165063
40
0.238099615910436
40
0.238099615910436
40
0.638943951698298
40
0.638943951698298
40
0.739155035645264
40
0.739155035645264
40
0.839366119592229
40
0.839366119592229
40
1
40
1
40
1
40
1
41
1
10
28.8392536451643
20
-4.1715541298137
30
0
41
1
10
28.9830011002598
20
-4.2192439601404
30
0
41
1
10
29.1266982305941
20
-4.26604150583293
30
0
41
1
10
30.0332670722682
20
-4.55556437624125
30
0
41
1
10
30.7918137276848
20
-4.77228847829392
30
0
41
1
10
33.061241402224
20
-5.33415387342015
30
0
41
1
10
34.5658527554171
20
-5.59059298539168
30
0
41
1
10
36.4602840064873
20
-5.74471297181151
30
0
41
1
10
36.8398340202234
20
-5.76722016059372
30
0
41
1
10
37.6009118536549
20
-5.79526326355492
30
0
41
1
10
37.9827258958555
20
-5.80082064015232
30
0
41
1
10
38.9784365495107
20
-5.79262053548376
30
0
41
1
10
39.5909213896799
20
-5.76532069474246
30
0
41
1
10
40.2038214638903
20
-5.71609400168191
30
0
0
SPLINE
5
AC
100
AcDbEntity
8
1
62
256
6
ByLayer
370
18
48
1
60
0
100
AcDbSpline
70
4
71
3
72
10
73
6
40
0
40
0
40
0
40
0
40
0.5
40
0.5
40
1
40
1
40
1
40
1
41
1
10
77.2104139353497
20
5.85773690047051
30
0
41
1
10
77.1712154266149
20
5.89935833992931
30
0
41
1
10
77.1309699900408
20
5.93351337916138
30
0
41
1
10
77.0498586485565
20
5.98558211308301
30
0
41
1
10
77.0088159088347
20
6.00372755994849
30
0
41
1
10
76.9671901581495
20
6.01417129747841
30
0
0
SPLINE
5
AD
100
AcDbEntity
8
1
62
256
6
ByLayer
370
18
48
1
60
0
100
AcDbSpline
70
4
71
3
72
8
73
4
40
0
40
0
40
0
40
0
40
1
40
1
40
1
40
1
41
1
10
4.00000041075867
20
-1.7251335817889
30
0
41
1
10
4.00000041075867
20
-1.70504204055249
30
0
41
1
10
4.00000041075864
20
-1.6848885620889
30
0
41
1
10
4.00000041075864
20
-1.66467311628824
30
0
0
SPLINE
5
AE
100
AcDbEntity
8
1
62
256
6
ByLayer
370
18
48
1
60
0
100
AcDbSpline
70
4
71
3
72
14
73
10
40
0
40
0
40
0
40
0
40
0.25
40
0.25
40
0.5
40
0.5
40
0.75
40
0.75
40
1
40
1
40
1
40
1
41
1
10
77.0553550566142
20
-5.71716468015998
30
0
41
1
10
77.0586814797151
20
-5.71650798055512
30
0
41
1
10
77.0613344562874
20
-5.71760245307738
30
0
41
1
10
77.0649103810227
20
-5.72431715189228
30
0
41
1
10
77.0657738374167
20
-5.73003806114028
30
0
41
1
10
77.0646675769299
20
-5.74694068826497
30
0
41
1
10
77.0626467015392
20
-5.7580893684644
30
0
41
1
10
77.0559660153439
20
-5.78319869122987
30
0
41
1
10
77.0513451341232
20
-5.79704528121391
30
0
41
1
10
77.0462240246881
20
-5.81030840385392
30
0
0
SPLINE
5
AF
100
AcDbEntity
8
1
62
256
6
ByLayer
370
18
48
1
60
0
100
AcDbSpline
70
4
71
3
72
12
73
8
40
0
40
0
40
0
40
0
40
0.499999999999998
40
0.499999999999998
40
0.749999999999999
40
0.749999999999999
40
1
40
1
40
1
40
1
41
1
10
78.7142738251165
20
1.37506137673495
30
0
41
1
10
78.7943821989336
20
1.1830068550756
30
0
41
1
10
78.8568789098672
20
0.989397593534846
30
0
41
1
10
78.9263881727784
20
0.696844188873769
30
0
41
1
10
78.9455284336303
20
0.598970667691958
30
0
41
1
10
78.9762045800865
20
0.40255231873175
30
0
41
1
10
78.9877451285616
20
0.303830357815258
30
0
41
1
10
78.9956864215868
20
0.205576016826626
30
0
0
SPLINE
5
B0
100
AcDbEntity
8
1
62
256
6
ByLayer
370
18
48
1
60
0
100
AcDbSpline
70
4
71
3
72
16
73
12
40
0
40
0
40
0
40
0
40
0.250000000000002
40
0.250000000000002
40
0.500000000000005
40
0.500000000000005
40
0.625000000000004
40
0.625000000000004
40
0.750000000000004
40
0.750000000000004
40
1
40
1
40
1
40
1
41
1
10
4.00000041075864
20
-1.66467311628824
30
0
41
1
10
4.00000041075867
20
-1.63170948517649
30
0
41
1
10
4.00409625714377
20
-1.60036881510874
30
0
41
1
10
4.02448013027146
20
-1.54272255774609
30
0
41
1
10
4.04128272441679
20
-1.51661929861882
30
0
41
1
10
4.07831606302568
20
-1.49304263473067
30
0
41
1
10
4.09280377509953
20
-1.48783705648094
30
0
41
1
10
4.1236322248364
20
-1.48429033356899
30
0
41
1
10
4.14034593321398
20
-1.48588418131823
30
0
41
1
10
4.18982843497184
20
-1.49899099105551
30
0
41
1
10
4.22189626531355
20
-1.5180523144036
30
0
41
1
10
4.25119327299839
20
-1.54125179712327
30
0
0
SPLINE
5
B1
100
AcDbEntity
8
1
62
256
6
ByLayer
370
18
48
1
60
0
100
AcDbSpline
70
4
71
3
72
10
73
6
40
0
40
0
40
0
40
0
40
0.5
40
0.5
40
1
40
1
40
1
40
1
41
1
10
77.2104139353497
20
5.85773690047048
30
0
41
1
10
77.4587779256025
20
5.14550553190403
30
0
41
1
10
77.7142514923906
20
4.43283268281894
30
0
41
1
10
78.2364792406548
20
3.00748277267886
30
0
41
1
10
78.5021492984544
20
2.29784941677573
30
0
41
1
10
78.769756133607
20
1.5914342013356
30
0
0
SPLINE
5
B2
100
AcDbEntity
8
1
62
256
6
ByLayer
370
18
48
1
60
0
100
AcDbSpline
70
4
71
3
72
8
73
4
40
0
40
0
40
0
40
0
40
1
40
1
40
1
40
1
41
1
10
76.8040320147148
20
-3.1565818098868
30
0
41
1
10
76.5159909793338
20
-3.53144165622445
30
0
41
1
10
76.224095966971
20
-3.90178755622998
30
0
41
1
10
75.9292330624226
20
-4.26865733115508
30
0
0
SPLINE
5
B3
100
AcDbEntity
8
1
62
256
6
ByLayer
370
18
48
1
60
0
100
AcDbSpline
70
4
71
3
72
8
73
4
40
0
40
0
40
0
40
0
40
1
40
1
40
1
40
1
41
1
10
78.9956864215869
20
0.205576016826598
30
0
41
1
10
78.9959044555092
20
0.173278346796536
30
0
41
1
10
78.9957540935578
20
0.140991557232553
30
0
41
1
10
78.9952190088256
20
0.108716130345158
30
0
0
SPLINE
5
B4
100
AcDbEntity
8
1
62
256
6
ByLayer
370
18
48
1
60
0
100
AcDbSpline
70
4
71
3
72
8
73
4
40
0
40
0
40
0
40
0
40
1
40
1
40
1
40
1
41
1
10
78.769756133607
20
1.5914342013356
30
0
41
1
10
78.7521931799486
20
1.51898721191949
30
0
41
1
10
78.7336775693915
20
1.44686779189396
30
0
41
1
10
78.7142738251164
20
1.37506137673498
30
0
0
SPLINE
5
B5
100
AcDbEntity
8
1
62
256
6
ByLayer
370
18
48
1
60
0
100
AcDbSpline
70
4
71
3
72
60
73
56
40
0
40
0
40
0
40
0
40
0.0292980184256514
40
0.0292980184256514
40
0.0585960368513029
40
0.0585960368513029
40
0.117192073702606
40
0.117192073702606
40
0.146490092128257
40
0.146490092128257
40
0.175788110553908
40
0.175788110553908
40
0.234384147405209
40
0.234384147405209
40
0.263682165830859
40
0.263682165830859
40
0.292980184256509
40
0.292980184256509
40
0.35157622110781
40
0.35157622110781
40
0.380874239533461
40
0.380874239533461
40
0.410172257959111
40
0.410172257959111
40
0.468768294810413
40
0.468768294810413
40
0.498066313236065
40
0.498066313236065
40
0.527364331661716
40
0.527364331661716
40
0.58596036851302
40
0.58596036851302
40
0.615258386938672
40
0.615258386938672
40
0.644556405364324
40
0.644556405364324
40
0.703152442215627
40
0.703152442215627
40
0.73245046064128
40
0.73245046064128
40
0.761748479066932
40
0.761748479066932
40
0.820344515918236
40
0.820344515918236
40
0.849642534343887
40
0.849642534343887
40
0.878940552769539
40
0.878940552769539
40
0.937536589620842
40
0.937536589620842
40
0.966834608046494
40
0.966834608046494
40
0.996132626472146
40
0.996132626472146
40
1
40
1
40
1
40
1
41
1
10
76.9671901581495
20
-6.01417129747841
30
0
41
1
10
76.587542003417
20
-6.02517181375922
30
0
41
1
10
76.2079534975244
20
-6.02729734161716
30
0
41
1
10
75.4483227662313
20
-6.01383582450649
30
0
41
1
10
75.0681056527534
20
-5.99822150609876
30
0
41
1
10
73.9297469221099
20
-5.9251766150511
30
0
41
1
10
73.1726737987059
20
-5.84155875323756
30
0
41
1
10
72.0360868069738
20
-5.66561412627206
30
0
41
1
10
71.6570381296231
20
-5.59855931959208
30
0
41
1
10
70.8978599847045
20
-5.44806989913096
30
0
41
1
10
70.5175252625667
20
-5.36454377996518
30
0
41
1
10
69.3791641815059
20
-5.09125079730364
30
0
41
1
10
68.6220858079279
20
-4.87859417424551
30
0
41
1
10
67.4853111946725
20
-4.51861787086762
30
0
41
1
10
67.1062061849304
20
-4.39178063996641
30
0
41
1
10
66.3469924290569
20
-4.12521214523213
30
0
41
1
10
65.9666727536024
20
-3.98534873917615
30
0
41
1
10
64.8282752047472
20
-3.54984505294689
30
0
41
1
10
64.0710941422714
20
-3.23789746432072
30
0
41
1
10
62.934141996188
20
-2.74414862839024
30
0
41
1
10
62.5549766871197
20
-2.57523505806779
30
0
41
1
10
61.7956654063368
20
-2.2298174767505
30
0
41
1
10
61.4152975774261
20
-2.05318171704997
30
0
41
1
10
60.2767910388646
20
-1.51624179429655
30
0
41
1
10
59.5195468317319
20
-1.14843305616887
30
0
41
1
10
58.3825549487624
20
-0.589466829997917
30
0
41
1
10
58.0033783960097
20
-0.401919121648319
30
0
41
1
10
57.2439891141647
20
-0.0257317030405773
30
0
41
1
10
56.863556470111
20
0.163039222050486
30
0
41
1
10
55.7249032686489
20
0.726575533660196
30
0
41
1
10
54.967598074869
20
1.09905199349652
30
0
41
1
10
53.8305409602629
20
1.64538366162918
30
0
41
1
10
53.4513567456567
20
1.82546561750709
30
0
41
1
10
52.6919032287278
20
2.18008088501679
30
0
41
1
10
52.3114134338546
20
2.35472486169104
30
0
41
1
10
51.1725980705351
20
2.86639874223468
30
0
41
1
10
50.415239492358
20
3.19172565579541
30
0
41
1
10
49.2780850354247
20
3.64933541099285
30
0
41
1
10
48.8988573004773
20
3.79682571994516
30
0
41
1
10
48.1393318884851
20
4.08051642973072
30
0
41
1
10
47.7588154363717
20
4.21679566329084
30
0
41
1
10
46.6198960527509
20
4.60554557205282
30
0
41
1
10
45.8624636035705
20
4.83843203198197
30
0
41
1
10
44.7251992378066
20
5.14366086293137
30
0
41
1
10
44.345927834471
20
5.23805855992643
30
0
41
1
10
43.5863295445061
20
5.41138337790906
30
0
41
1
10
43.2057765804158
20
5.49033675079025
30
0
41
1
10
42.0667260265773
20
5.70211203167412
30
0
41
1
10
41.3092558430704
20
5.8102264924469
30
0
41
1
10
40.1718593729915
20
5.92068069627533
30
0
41
1
10
39.7925411399079
20
5.9488906178359
30
0
41
1
10
39.0328744834895
20
5.9877989515407
30
0
41
1
10
38.6523140647478
20
5.99848007259718
30
0
41
1
10
38.2224782376088
20
6.00054365210264
30
0
41
1
10
38.1723638087376
20
6.00063042812874
30
0
41
1
10
38.1222567850342
20
6.00056353049067
30
0
0
SPLINE
5
B6
100
AcDbEntity
8
1
62
256
6
ByLayer
370
18
48
1
60
0
100
AcDbSpline
70
4
71
3
72
10
73
6
40
0
40
0
40
0
40
0
40
0.5
40
0.5
40
1
40
1
40
1
40
1
41
1
10
78.999814152345
20
0.0426252421088975
30
0
41
1
10
78.9966699615819
20
0.0194175018792464
30
0
41
1
10
78.9909495744325
20
-0.0066698137771084
30
0
41
1
10
78.9738077131704
20
-0.0585547826896402
30
0
41
1
10
78.9626092408429
20
-0.0832650137805899
30
0
41
1
10
78.9507291586681
20
-0.102347917230304
30
0
0
SPLINE
5
B7
100
AcDbEntity
8
1
62
256
6
ByLayer
370
18
48
1
60
0
100
AcDbSpline
70
4
71
3
72
36
73
32
40
0
40
0
40
0
40
0
40
0.249999999999997
40
0.249999999999997
40
0.312499999999996
40
0.312499999999996
40
0.374999999999995
40
0.374999999999995
40
0.499999999999998
40
0.499999999999998
40
0.562499999999997
40
0.562499999999997
40
0.624999999999996
40
0.624999999999996
40
0.749999999999994
40
0.749999999999994
40
0.812499999999994
40
0.812499999999994
40
0.843749999999991
40
0.843749999999991
40
0.851562499999992
40
0.851562499999992
40
0.859374999999992
40
0.859374999999992
40
0.863281249999992
40
0.863281249999992
40
0.867187499999992
40
0.867187499999992
40
0.874999999999993
40
0.874999999999993
40
1
40
1
40
1
40
1
41
1
10
71.1671265883197
20
1.88240232062881
30
0
41
1
10
71.6617764548804
20
1.48326926863956
30
0
41
1
10
72.1781317750265
20
1.13879592038762
30
0
41
1
10
72.8526641448385
20
0.781455570777041
30
0
41
1
10
72.9888967564052
20
0.713805322853773
30
0
41
1
10
73.2611593287218
20
0.587698976059414
30
0
41
1
10
73.3975748109854
20
0.529022982223694
30
0
41
1
10
73.8076957696144
20
0.366464204814264
30
0
41
1
10
74.0822794338777
20
0.27610724388748
30
0
41
1
10
74.4961389243432
20
0.171129217375949
30
0
41
1
10
74.6344194601557
20
0.141178720210547
30
0
41
1
10
74.9116831205252
20
0.0920989758375867
30
0
41
1
10
75.0511148390705
20
0.0729335673971718
30
0
41
1
10
75.4663106656109
20
0.0337045653183736
30
0
41
1
10
75.7392423313056
20
0.0314913066538907
30
0
41
1
10
76.1417895983355
20
0.0705949836803939
30
0
41
1
10
76.2747257564968
20
0.0907896567878197
30
0
41
1
10
76.4703994070338
20
0.13280553953868
30
0
41
1
10
76.5349264330166
20
0.149180915680603
30
0
41
1
10
76.6150625554193
20
0.171141777849101
30
0
41
1
10
76.6314863936788
20
0.175057479592198
30
0
41
1
10
76.6600657568605
20
0.191359834207532
30
0
41
1
10
76.6726858192951
20
0.203721790576679
30
0
41
1
10
76.6831936478276
20
0.229426355149968
30
0
41
1
10
76.6848022272156
20
0.239094813090077
30
0
41
1
10
76.6870724351267
20
0.258909329039227
30
0
41
1
10
76.6881654427704
20
0.268832479370445
30
0
41
1
10
76.6914837079409
20
0.298587115487578
30
0
41
1
10
76.6935750530511
20
0.318469156388517
30
0
41
1
10
76.7271198416704
20
0.6572219488977
30
0
41
1
10
76.7284976062013
20
0.986902215103413
30
0
41
1
10
76.7095226995907
20
1.31638945481211
30
0
0
SPLINE
5
B8
100
AcDbEntity
8
1
62
256
6
ByLayer
370
18
48
1
60
0
100
AcDbSpline
70
4
71
3
72
16
73
12
40
0
40
0
40
0
40
0
40
0.515464452346703
40
0.515464452346703
40
0.773196678520054
40
0.773196678520054
40
0.90206279160673
40
0.90206279160673
40
0.96649584815007
40
0.96649584815007
40
1
40
1
40
1
40
1
41
1
10
77.0553550566141
20
-5.71716468016001
30
0
41
1
10
75.5306669122944
20
-5.75098176906729
30
0
41
1
10
74.0229030437978
20
-5.64760822243107
30
0
41
1
10
71.7595527686897
20
-5.30374955408178
30
0
41
1
10
71.0046787357146
20
-5.15757323217755
30
0
41
1
10
69.8683985617982
20
-4.89371853177431
30
0
41
1
10
69.4889681386848
20
-4.79831137169413
30
0
41
1
10
68.9183309844621
20
-4.64445724135447
30
0
41
1
10
68.7278689901325
20
-4.59138237801395
30
0
41
1
10
68.4379370224022
20
-4.50803801940745
30
0
41
1
10
68.3386284616425
20
-4.47903607588262
30
0
41
1
10
68.2393217385857
20
-4.44958942714965
30
0
0
SPLINE
5
B9
100
AcDbEntity
8
1
62
256
6
ByLayer
370
13
48
1
60
0
100
AcDbSpline
70
4
71
3
72
20
73
16
40
0
40
0
40
0
40
0
40
0.0180824238086605
40
0.0180824238086605
40
0.319445823810119
40
0.319445823810119
40
0.620809223811577
40
0.620809223811577
40
0.696150073811941
40
0.696150073811941
40
0.771490923812304
40
0.771490923812304
40
0.922172623813031
40
0.922172623813031
40
1
40
1
40
1
40
1
41
1
10
68.2393219394894
20
-4.44958948672203
30
0
41
1
10
68.1476482140843
20
-4.42240619185642
30
0
41
1
10
68.0559760546649
20
-4.39484392710222
30
0
41
1
10
66.4382541271536
20
-3.90186063034363
30
0
41
1
10
64.9313284478527
20
-3.3386146627825
30
0
41
1
10
61.91703223872
20
-2.08816817923895
30
0
41
1
10
60.4102671498835
20
-1.39965636963149
30
0
41
1
10
58.5032929068224
20
-0.508027638605341
30
0
41
1
10
58.1208000621108
20
-0.328147615063699
30
0
41
1
10
57.3595903776879
20
0.0301592388439076
30
0
41
1
10
56.9800350149742
20
0.208985703346372
30
0
41
1
10
55.8437395114476
20
0.742861447503401
30
0
41
1
10
55.0891795054572
20
1.09488318156167
30
0
41
1
10
53.9459373924832
20
1.61550389981187
30
0
41
1
10
53.5567468052988
20
1.79048837070971
30
0
41
1
10
53.1674173397858
20
1.96248057732728
30
0
0
SPLINE
5
BA
100
AcDbEntity
8
1
62
256
6
ByLayer
370
18
48
1
60
0
100
AcDbSpline
70
4
71
3
72
10
73
6
40
0
40
0
40
0
40
0
40
0.5
40
0.5
40
1
40
1
40
1
40
1
41
1
10
77.2104139353487
20
-5.85773690047159
30
0
41
1
10
77.1711918049282
20
-5.89938342171496
30
0
41
1
10
77.1309510652671
20
-5.9335268639592
30
0
41
1
10
77.0498577796376
20
-5.98558133435111
30
0
41
1
10
77.0088184404252
20
-6.00372692478237
30
0
41
1
10
76.9671901581495
20
-6.01417129747841
30
0
0
SPLINE
5
BB
100
AcDbEntity
8
1
62
256
6
ByLayer
370
18
48
1
60
0
100
AcDbSpline
70
4
71
3
72
14
73
10
40
0
40
0
40
0
40
0
40
0.25
40
0.25
40
0.5
40
0.5
40
0.75
40
0.75
40
1
40
1
40
1
40
1
41
1
10
76.7095226995907
20
1.31638945481211
30
0
41
1
10
76.7083598229318
20
1.33658207174196
30
0
41
1
10
76.7126589299367
20
1.35703361956985
30
0
41
1
10
76.7330449508454
20
1.39244221832666
30
0
41
1
10
76.7490774294338
20
1.40716598393544
30
0
41
1
10
76.7850545788181
20
1.42796227444279
30
0
41
1
10
76.8053126533393
20
1.4346298960055
30
0
41
1
10
76.8460188698627
20
1.4423631865115
30
0
41
1
10
76.8669165472177
20
1.44356704583359
30
0
41
1
10
76.8877436624706
20
1.44279850478321
30
0
0
SPLINE
5
BC
100
AcDbEntity
8
1
62
256
6
ByLayer
370
18
48
1
60
0
100
AcDbSpline
70
4
71
3
72
14
73
10
40
0
40
0
40
0
40
0
40
0.0587320729092184
40
0.0587320729092184
40
0.188097896858046
40
0.188097896858046
40
0.70556119265335
40
0.70556119265335
40
1
40
1
40
1
40
1
41
1
10
57.2053253232748
20
-0.0062713632866291
30
0
41
1
10
57.3778200548387
20
-0.0888994903331763
30
0
41
1
10
57.5505137882621
20
-0.171620410819656
30
0
41
1
10
58.1043109215952
20
-0.436669338583528
30
0
41
1
10
58.4871460891591
20
-0.619560717835839
30
0
41
1
10
60.3950749921877
20
-1.52502016494501
30
0
41
1
10
61.9021108236769
20
-2.22158553586226
30
0
41
1
10
64.267571445928
20
-3.21005304997669
30
0
41
1
10
65.1253578184909
20
-3.54746506243646
30
0
41
1
10
65.986801173244
20
-3.85708309563515
30
0
0
SPLINE
5
BD
100
AcDbEntity
8
1
62
256
6
ByLayer
370
13
48
1
60
0
100
AcDbSpline
70
4
71
3
72
18
73
14
40
0
40
0
40
0
40
0
40
0.177291861369932
40
0.177291861369932
40
0.228711120034313
40
0.228711120034313
40
0.280130378698694
40
0.280130378698694
40
0.382968896027452
40
0.382968896027452
40
0.588645930684969
40
0.588645930684969
40
1
40
1
40
1
40
1
41
1
10
65.9868011727766
20
-3.85708309546712
30
0
41
1
10
66.6393067487168
20
-4.09160518210922
30
0
41
1
10
67.293910481015
20
-4.31018075567644
30
0
41
1
10
68.1431541800803
20
-4.56780161829042
30
0
41
1
10
68.3344854480806
20
-4.62416449311655
30
0
41
1
10
68.7161628109237
20
-4.733138956891
30
0
41
1
10
68.9067088978063
20
-4.78581321433427
30
0
41
1
10
69.4775786163302
20
-4.93830478836776
30
0
41
1
10
69.8571379132756
20
-5.03258852285933
30
0
41
1
10
70.9937398410958
20
-5.29245369148975
30
0
41
1
10
71.7487737964113
20
-5.4351102786745
30
0
41
1
10
74.0125715736777
20
-5.76625433152859
30
0
41
1
10
75.5207159283759
20
-5.85819143835059
30
0
41
1
10
77.046224024679
20
-5.81030840385418
30
0
0
SPLINE
5
BE
100
AcDbEntity
8
1
62
256
6
ByLayer
370
18
48
1
60
0
100
AcDbSpline
70
4
71
3
72
106
73
102
40
0
40
0
40
0
40
0
40
0.0164162249386101
40
0.0164162249386101
40
0.0352199214463389
40
0.0352199214463389
40
0.0540236179540678
40
0.0540236179540678
40
0.0728273144617966
40
0.0728273144617966
40
0.0916310109695255
40
0.0916310109695255
40
0.129238403984983
40
0.129238403984983
40
0.148042100492712
40
0.148042100492712
40
0.166845797000441
40
0.166845797000441
40
0.18564949350817
40
0.18564949350817
40
0.204453190015899
40
0.204453190015899
40
0.223256886523627
40
0.223256886523627
40
0.242060583031356
40
0.242060583031356
40
0.260864279539085
40
0.260864279539085
40
0.279667976046814
40
0.279667976046814
40
0.298471672554543
40
0.298471672554543
40
0.317275369062272
40
0.317275369062272
40
0.354882762077729
40
0.354882762077729
40
0.373686458585457
40
0.373686458585457
40
0.392490155093186
40
0.392490155093186
40
0.411293851600914
40
0.411293851600914
40
0.430097548108642
40
0.430097548108642
40
0.448901244616371
40
0.448901244616371
40
0.467704941124099
40
0.467704941124099
40
0.486508637631828
40
0.486508637631828
40
0.505312334139556
40
0.505312334139556
40
0.542919727155013
40
0.542919727155013
40
0.56172342366274
40
0.56172342366274
40
0.580527120170468
40
0.580527120170468
40
0.599330816678196
40
0.599330816678196
40
0.618134513185923
40
0.618134513185923
40
0.636938209693651
40
0.636938209693651
40
0.655741906201379
40
0.655741906201379
40
0.674545602709107
40
0.674545602709107
40
0.693349299216834
40
0.693349299216834
40
0.73095669223229
40
0.73095669223229
40
0.749760388740018
40
0.749760388740018
40
0.768564085247745
40
0.768564085247745
40
0.787367781755473
40
0.787367781755473
40
0.806171478263201
40
0.806171478263201
40
0.824975174770929
40
0.824975174770929
40
0.843778871278656
40
0.843778871278656
40
0.862582567786384
40
0.862582567786384
40
0.881386264294112
40
0.881386264294112
40
0.90018996080184
40
0.90018996080184
40
0.918993657309568
40
0.918993657309568
40
0.937797353817296
40
0.937797353817296
40
0.956601050325023
40
0.956601050325023
40
0.975404746832751
40
0.975404746832751
40
0.994208443340479
40
0.994208443340479
40
1
40
1
40
1
40
1
41
1
10
64.9412718230158
20
-4.28617326326801
30
0
41
1
10
64.6871853811295
20
-4.36506256064692
30
0
41
1
10
64.4330787344861
20
-4.4413330617898
30
0
41
1
10
63.887892743631
20
-4.59925966449367
30
0
41
1
10
63.5969272251651
20
-4.68014382272847
30
0
41
1
10
63.0140958619107
20
-4.83329286148739
30
0
41
1
10
62.7220076864621
20
-4.90563916427578
30
0
41
1
10
62.1386466311737
20
-5.04035034115643
30
0
41
1
10
61.8472328055234
20
-5.10244109591224
30
0
41
1
10
61.2649808010989
20
-5.21835640129851
30
0
41
1
10
60.9742581652285
20
-5.27257935686913
30
0
41
1
10
60.1016876828118
20
-5.42182547276235
30
0
41
1
10
59.5194971078041
20
-5.50197328692792
30
0
41
1
10
58.6457281232483
20
-5.59490998608405
30
0
41
1
10
58.3544569257943
20
-5.62145059889343
30
0
41
1
10
57.7707839758458
20
-5.66389007316846
30
0
41
1
10
57.4791924810015
20
-5.67943942291765
30
0
41
1
10
56.8964097305599
20
-5.70096299074632
30
0
41
1
10
56.6052503023356
20
-5.70748153015342
30
0
41
1
10
56.0234704564735
20
-5.71080886502517
30
0
41
1
10
55.7328663106907
20
-5.70755737566623
30
0
41
1
10
55.1510455164815
20
-5.69017334863375
30
0
41
1
10
54.8599154874462
20
-5.67606020046563
30
0
41
1
10
54.277449187677
20
-5.63973493713803
30
0
41
1
10
53.9860998776782
20
-5.61708211206252
30
0
41
1
10
53.4030642848944
20
-5.56135192304856
30
0
41
1
10
53.111234208277
20
-5.52809933373049
30
0
41
1
10
52.5281836543146
20
-5.45187712271581
30
0
41
1
10
52.2368242399124
20
-5.40961395361703
30
0
41
1
10
51.6544669994918
20
-5.31630389054004
30
0
41
1
10
51.3634777297284
20
-5.26506121754298
30
0
41
1
10
50.7818400754561
20
-5.152609673683
30
0
41
1
10
50.4910479627263
20
-5.09123374272593
30
0
41
1
10
49.6178496369641
20
-4.8963814271186
30
0
41
1
10
49.0344738104509
20
-4.75068092506899
30
0
41
1
10
48.1593754471958
20
-4.50399672880744
30
0
41
1
10
47.8679995199146
20
-4.41798990951762
30
0
41
1
10
47.2853572371393
20
-4.23978135428931
30
0
41
1
10
46.99415575855
20
-4.14716601341706
30
0
41
1
10
46.4119499795798
20
-3.95452305607873
30
0
41
1
10
46.1209436475621
20
-3.85433249923975
30
0
41
1
10
45.5391796802787
20
-3.64718557928291
30
0
41
1
10
45.2482067619937
20
-3.54085862582807
30
0
41
1
10
44.6655872038573
20
-3.32229551009476
30
0
41
1
10
44.3739811781751
20
-3.21006283915438
30
0
41
1
10
43.7900985295498
20
-2.97948813346534
30
0
41
1
10
43.4980598811961
20
-2.86120961376551
30
0
41
1
10
42.9152759477893
20
-2.62027155810677
30
0
41
1
10
42.6240338103921
20
-2.49785229171425
30
0
41
1
10
42.0415847632368
20
-2.24904585861574
30
0
41
1
10
41.7503739165353
20
-2.12267830831641
30
0
41
1
10
40.8769286260965
20
-1.73830268292326
30
0
41
1
10
40.2954713441052
20
-1.47425474463367
30
0
41
1
10
39.42022579666
20
-1.07262552745672
30
0
41
1
10
39.1278338478555
20
-0.937638227837908
30
0
41
1
10
38.5440133180796
20
-0.666297541665415
30
0
41
1
10
38.2526098059568
20
-0.529669929629819
30
0
41
1
10
37.6701854168066
20
-0.255895127431927
30
0
41
1
10
37.3789794521463
20
-0.119161569283534
30
0
41
1
10
36.7965130942309
20
0.153918336139014
30
0
41
1
10
36.5052805243878
20
0.290333646214151
30
0
41
1
10
35.922908023271
20
0.563095580983202
30
0
41
1
10
35.6318796404094
20
0.699676577744469
30
0
41
1
10
35.0490113897192
20
0.970758942751047
30
0
41
1
10
34.7571645605002
20
1.10527139228444
30
0
41
1
10
34.1728112663847
20
1.37264190900174
30
0
41
1
10
33.8808371409935
20
1.50521194069614
30
0
41
1
10
33.2977348860042
20
1.76773639309016
30
0
41
1
10
33.0066370675166
20
1.89746927486331
30
0
41
1
10
32.1332200119624
20
2.2804963292655
30
0
41
1
10
31.5508924092327
20
2.52904153503329
30
0
41
1
10
30.6767886471748
20
2.88712396497849
30
0
41
1
10
30.3854080269432
20
3.00419498273598
30
0
41
1
10
29.8018662755541
20
3.23346154625094
30
0
41
1
10
29.5095604290028
20
3.34556842483985
30
0
41
1
10
28.9258943733238
20
3.56352892462502
30
0
41
1
10
28.6343414543882
20
3.66910916045941
30
0
41
1
10
28.0517479257302
20
3.87284693344404
30
0
41
1
10
27.7608300895653
20
3.97205749028979
30
0
41
1
10
27.1787098037675
20
4.16357248133684
30
0
41
1
10
26.8875774762114
20
4.25594289927582
30
0
41
1
10
26.3049822029938
20
4.43240257819031
30
0
41
1
10
26.0134460379291
20
4.51593298011326
30
0
41
1
10
25.430294130312
20
4.67679819650022
30
0
41
1
10
25.1385820648767
20
4.75411079051773
30
0
41
1
10
24.5546877342367
20
4.89986860432376
30
0
41
1
10
24.2629890400179
20
4.96835368701198
30
0
41
1
10
23.6799666819812
20
5.09490632913059
30
0
41
1
10
23.388653200093
20
5.15373765650423
30
0
41
1
10
22.8065653597333
20
5.26390215285292
30
0
41
1
10
22.5157972299075
20
5.31489354713096
30
0
41
1
10
21.9336909856373
20
5.40674405032755
30
0
41
1
10
21.6424167013811
20
5.44731419232553
30
0
41
1
10
21.0594880890771
20
5.51927303541609
30
0
41
1
10
20.7678983986828
20
5.55106780524989
30
0
41
1
10
20.184406953611
20
5.60505135525833
30
0
41
1
10
19.8924072877617
20
5.62703196848827
30
0
41
1
10
19.3090734298519
20
5.66084046935833
30
0
41
1
10
19.0175844489395
20
5.67289668422077
30
0
41
1
10
18.6365552425833
20
5.6825665076295
30
0
41
1
10
18.5468512980883
20
5.68438897791086
30
0
41
1
10
18.4571658048511
20
5.68574450077941
30
0
0
SPLINE
5
BF
100
AcDbEntity
8
1
62
256
6
ByLayer
370
13
48
1
60
0
100
AcDbSpline
70
4
71
3
72
30
73
26
40
0
40
0
40
0
40
0
40
0.0595006318183725
40
0.0595006318183725
40
0.216250526515311
40
0.216250526515311
40
0.255438000189546
40
0.255438000189546
40
0.294625473863781
40
0.294625473863781
40
0.37300042121225
40
0.451375368560719
40
0.451375368560719
40
0.529750315909188
40
0.529750315909188
40
0.608125263257657
40
0.608125263257657
40
0.686500210606125
40
0.764875157954594
40
0.764875157954594
40
0.804062631628829
40
0.804062631628829
40
0.843250105303063
40
0.843250105303063
40
1
40
1
40
1
40
1
41
1
10
4.2505250935877
20
-5.67855462095764
30
0
41
1
10
4.25053936430535
20
-5.67839010163061
30
0
41
1
10
4.25055293402423
20
-5.67255645510002
30
0
41
1
10
4.25060055509368
20
-5.63127933023742
30
0
41
1
10
4.25063187639807
20
-5.56331498365921
30
0
41
1
10
4.25067137154781
20
-5.42960586843788
30
0
41
1
10
4.25067930267923
20
-5.40031951379524
30
0
41
1
10
4.25069511678353
20
-5.33741134767229
30
0
41
1
10
4.25070301575443
20
-5.30374646011691
30
0
41
1
10
4.2507268114141
20
-5.19623904170814
30
0
41
1
10
4.25075881327695
20
-5.03556101247867
30
0
41
1
10
4.25079239598199
20
-4.84066186547491
30
0
41
1
10
4.25082712904353
20
-4.62834557534561
30
0
41
1
10
4.25084513724298
20
-4.51302214298246
30
0
41
1
10
4.25088203908498
20
-4.26732594958378
30
0
41
1
10
4.25090099833602
20
-4.13651757995791
30
0
41
1
10
4.25093924743464
20
-3.86347883570954
30
0
41
1
10
4.2509779434817
20
-3.57827128442384
30
0
41
1
10
4.25101700054682
20
-3.26917796831836
30
0
41
1
10
4.25104609078795
20
-3.02829281479751
30
0
41
1
10
4.25105575230637
20
-2.946484049356
30
0
41
1
10
4.25107492915492
20
-2.77978508311546
30
0
41
1
10
4.2510844677067
20
-2.69467243502311
30
0
41
1
10
4.25113108554453
20
-2.26574236542666
30
0
41
1
10
4.25116531404461
20
-1.90975036222599
30
0
41
1
10
4.25119327299083
20
-1.54125179721183
30
0
0
SPLINE
5
C0
100
AcDbEntity
8
1
62
256
6
ByLayer
370
18
48
1
60
0
100
AcDbSpline
70
4
71
3
72
98
73
94
40
0
40
0
40
0
40
0
40
0.0011202695673656
40
0.0011202695673656
40
0.0214889424988599
40
0.0214889424988599
40
0.0418576154303542
40
0.0418576154303542
40
0.0622262883618485
40
0.0622262883618485
40
0.0825949612933428
40
0.0825949612933428
40
0.123332307156331
40
0.123332307156331
40
0.143700980087826
40
0.143700980087826
40
0.16406965301932
40
0.16406965301932
40
0.184438325950814
40
0.184438325950814
40
0.204806998882308
40
0.204806998882308
40
0.225175671813802
40
0.225175671813802
40
0.245544344745297
40
0.245544344745297
40
0.286281690608286
40
0.286281690608286
40
0.306650363539781
40
0.306650363539781
40
0.327019036471275
40
0.327019036471275
40
0.34738770940277
40
0.34738770940277
40
0.367756382334265
40
0.367756382334265
40
0.388125055265759
40
0.388125055265759
40
0.408493728197254
40
0.408493728197254
40
0.449231074060243
40
0.449231074060243
40
0.469599746991738
40
0.469599746991738
40
0.489968419923233
40
0.489968419923233
40
0.510337092854728
40
0.510337092854728
40
0.530705765786223
40
0.530705765786223
40
0.551074438717718
40
0.551074438717718
40
0.571443111649213
40
0.571443111649213
40
0.612180457512204
40
0.612180457512204
40
0.632549130443699
40
0.632549130443699
40
0.652917803375195
40
0.652917803375195
40
0.67328647630669
40
0.67328647630669
40
0.693655149238186
40
0.693655149238186
40
0.714023822169682
40
0.714023822169682
40
0.734392495101178
40
0.734392495101178
40
0.775129840964169
40
0.775129840964169
40
0.795498513895665
40
0.795498513895665
40
0.81586718682716
40
0.81586718682716
40
0.836235859758656
40
0.836235859758656
40
0.856604532690152
40
0.856604532690152
40
0.876973205621647
40
0.876973205621647
40
0.897341878553143
40
0.897341878553143
40
0.917710551484639
40
0.917710551484639
40
0.938079224416135
40
0.938079224416135
40
0.95844789734763
40
0.95844789734763
40
0.978816570279126
40
0.978816570279126
40
0.999185243210622
40
0.999185243210622
40
1
40
1
40
1
40
1
41
1
10
26.8100276536558
20
4.26965583248202
30
0
41
1
10
26.827775622141
20
4.27579620471465
30
0
41
1
10
26.8455221158058
20
4.28192265758744
30
0
41
1
10
27.1859052596342
20
4.39917442544177
30
0
41
1
10
27.5080897377519
20
4.50567138772541
30
0
41
1
10
28.1509876129134
20
4.7100387160784
30
0
41
1
10
28.4720282021372
20
4.80742121023121
30
0
41
1
10
29.1150065542975
20
4.99059747738642
30
0
41
1
10
29.4366542061162
20
5.07678562571266
30
0
41
1
10
30.0798678498351
20
5.23881996895147
30
0
41
1
10
30.4012546560541
20
5.31482815574705
30
0
41
1
10
31.365992826839
20
5.52622251106612
30
0
41
1
10
32.0123052246618
20
5.64310158739679
30
0
41
1
10
32.9843626954842
20
5.78377097654268
30
0
41
1
10
33.3085349996774
20
5.82493348432044
30
0
41
1
10
33.9598177610802
20
5.8941445816244
30
0
41
1
10
34.2853235110684
20
5.92220499688455
30
0
41
1
10
34.9341504232513
20
5.96560528147791
30
0
41
1
10
35.2577428968467
20
5.9809589312232
30
0
41
1
10
35.9028095883387
20
5.99895090370472
30
0
41
1
10
36.2248304750637
20
6.00148253892286
30
0
41
1
10
36.8689297715372
20
5.99393123941991
30
0
41
1
10
37.1907792414361
20
5.98387495347109
30
0
41
1
10
37.8337260093283
20
5.95120264862521
30
0
41
1
10
38.1545352776651
20
5.92847225975942
30
0
41
1
10
39.1173056630869
20
5.84153594355783
30
0
41
1
10
39.7609698524424
20
5.75955831415206
30
0
41
1
10
40.7268470213566
20
5.59924798218819
30
0
41
1
10
41.048692842846
20
5.53931586271679
30
0
41
1
10
41.6947762810544
20
5.40844155114715
30
0
41
1
10
42.018743587698
20
5.33735064815099
30
0
41
1
10
42.668064622069
20
5.18334614642413
30
0
41
1
10
42.9940392773719
20
5.10025124997833
30
0
41
1
10
43.6438760032248
20
4.92239205548719
30
0
41
1
10
43.9681025143561
20
4.82852480250614
30
0
41
1
10
44.6157348518706
20
4.63191952430208
30
0
41
1
10
44.9389771719539
20
4.52897834172785
30
0
41
1
10
45.5840081495708
20
4.31345304423425
30
0
41
1
10
45.905442781668
20
4.20032173007684
30
0
41
1
10
46.8696975961253
20
3.8495077818674
30
0
41
1
10
47.5129598692533
20
3.60147497685256
30
0
41
1
10
48.475992510096
20
3.20424615015327
30
0
41
1
10
48.7966891934695
20
3.0675504832071
30
0
41
1
10
49.4398241373473
20
2.78981340312484
30
0
41
1
10
49.761946993117
20
2.64824376743081
30
0
41
1
10
50.4068589194155
20
2.3588572131759
30
0
41
1
10
50.7295889362197
20
2.21091874408913
30
0
41
1
10
51.3757086113333
20
1.90851677060334
30
0
41
1
10
51.6998049343198
20
1.75548039351622
30
0
41
1
10
52.3501586892764
20
1.44598187270174
30
0
41
1
10
52.6765163278188
20
1.2891966447811
30
0
41
1
10
53.3258177083546
20
0.97352668604799
30
0
41
1
10
53.6490253950959
20
0.813590067066372
30
0
41
1
10
54.6179988958468
20
0.335318243528036
30
0
41
1
10
55.2629824555205
20
0.0181492560574839
30
0
41
1
10
56.2263470364069
20
-0.460633686754051
30
0
41
1
10
56.5470235834781
20
-0.620215731828182
30
0
41
1
10
57.1893545754068
20
-0.935531552464454
30
0
41
1
10
57.5107076510657
20
-1.09189225385575
30
0
41
1
10
58.1533807040225
20
-1.40285394133923
30
0
41
1
10
58.4745505263486
20
-1.55775512597657
30
0
41
1
10
59.1171978178882
20
-1.86506058196133
30
0
41
1
10
59.4393050091527
20
-2.01620734153451
30
0
41
1
10
60.0848549016798
20
-2.31397502533829
30
0
41
1
10
60.4082452154882
20
-2.46070003974117
30
0
41
1
10
61.0559632153422
20
-2.75036955424892
30
0
41
1
10
61.3799812686993
20
-2.89390551998318
30
0
41
1
10
62.3564391440718
20
-3.31294748156148
30
0
41
1
10
63.0055956536451
20
-3.57535783598175
30
0
41
1
10
63.9726129315659
20
-3.94795159888543
30
0
41
1
10
64.2943829772096
20
-4.06782067916299
30
0
41
1
10
64.9380546626979
20
-4.29717561155496
30
0
41
1
10
65.2597080961953
20
-4.40706979287629
30
0
41
1
10
65.9022858151256
20
-4.61786063832474
30
0
41
1
10
66.2229508704198
20
-4.71907512532147
30
0
41
1
10
66.8643814145007
20
-4.9112296673932
30
0
41
1
10
67.1855616249923
20
-5.00169260125
30
0
41
1
10
67.8285011308532
20
-5.17197727918995
30
0
41
1
10
68.1502382213314
20
-5.25182405971921
30
0
41
1
10
68.7938983493971
20
-5.40111956002747
30
0
41
1
10
69.1155932607051
20
-5.47072329976027
30
0
41
1
10
69.7613657520287
20
-5.59733836467171
30
0
41
1
10
70.0851993316388
20
-5.65462658878593
30
0
41
1
10
70.7342896459987
20
-5.75748072799564
30
0
41
1
10
71.0601292482018
20
-5.8030968823978
30
0
41
1
10
71.7097585173469
20
-5.88195565273367
30
0
41
1
10
72.0340831908043
20
-5.9148509014382
30
0
41
1
10
72.6825249777013
20
-5.96764893679813
30
0
41
1
10
73.0064457000654
20
-5.98764785155836
30
0
41
1
10
73.6533509765497
20
-6.01497696128914
30
0
41
1
10
73.9759885511016
20
-6.02230167080398
30
0
41
1
10
74.3117411353492
20
-6.02316734861833
30
0
41
1
10
74.324655463074
20
-6.02319036168578
30
0
41
1
10
74.3375703933144
20
-6.02320309758099
30
0
0
SPLINE
5
C1
100
AcDbEntity
8
1
62
256
6
ByLayer
370
18
48
1
60
0
100
AcDbSpline
70
4
71
3
72
8
73
4
40
0
40
0
40
0
40
0
40
1
40
1
40
1
40
1
41
1
10
78.9956864215868
20
-0.20557601682674
30
0
41
1
10
78.9959044077523
20
-0.173285421070233
30
0
41
1
10
78.995754212518
20
-0.140998732716156
30
0
41
1
10
78.9952190088256
20
-0.108716130345158
30
0
0
SPLINE
5
C2
100
AcDbEntity
8
1
62
256
6
ByLayer
370
18
48
1
60
0
100
AcDbSpline
70
4
71
3
72
8
73
4
40
0
40
0
40
0
40
0
40
1
40
1
40
1
40
1
41
1
10
76.9671901581495
20
6.01417129747841
30
0
41
1
10
76.7257463557129
20
6.02116726584146
30
0
41
1
10
76.4842968562604
20
6.02457456851039
30
0
41
1
10
76.242767952726
20
6.0243953622616
30
0
0
SPLINE
5
C3
100
AcDbEntity
8
1
62
256
6
ByLayer
370
18
48
1
60
0
100
AcDbSpline
70
4
71
3
72
52
73
48
40
0
40
0
40
0
40
0
40
0.0352729221487101
40
0.0352729221487101
40
0.0654206433315628
40
0.0654206433315628
40
0.0955683645144152
40
0.0955683645144152
40
0.155863806880121
40
0.155863806880121
40
0.186011528062975
40
0.186011528062975
40
0.216159249245827
40
0.216159249245827
40
0.276454691611533
40
0.276454691611533
40
0.306602412794385
40
0.306602412794385
40
0.336750133977238
40
0.336750133977238
40
0.397045576342944
40
0.397045576342944
40
0.427193297525797
40
0.427193297525797
40
0.45734101870865
40
0.45734101870865
40
0.517636461074356
40
0.517636461074356
40
0.547784182257209
40
0.547784182257209
40
0.577931903440062
40
0.577931903440062
40
0.638227345805768
40
0.638227345805768
40
0.66837506698862
40
0.66837506698862
40
0.698522788171473
40
0.698522788171473
40
0.758818230537179
40
0.758818230537179
40
0.788965951720031
40
0.788965951720031
40
0.819113672902884
40
0.819113672902884
40
0.879409115268589
40
0.879409115268589
40
1
40
1
40
1
40
1
41
1
10
41.8798639396881
20
-5.71975559657196
30
0
41
1
10
41.436338866215
20
-5.78611342571426
30
0
41
1
10
40.9929813555551
20
-5.84097116414497
30
0
41
1
10
40.169998785786
20
-5.92083494179866
30
0
41
1
10
39.7904859793408
20
-5.94903159470348
30
0
41
1
10
39.0302834425608
20
-5.98789572319126
30
0
41
1
10
38.6499814792417
20
-5.99852468138113
30
0
41
1
10
37.5113462420945
20
-6.00389058637089
30
0
41
1
10
36.7538415429576
20
-5.972180727162
30
0
41
1
10
35.6159637318416
20
-5.87251377316548
30
0
41
1
10
35.2364264455438
20
-5.83060393309987
30
0
41
1
10
34.4761844482306
20
-5.729591555166
30
0
41
1
10
34.0958422538383
20
-5.67052670215378
30
0
41
1
10
32.9570415743957
20
-5.46907866363236
30
0
41
1
10
32.1994877418068
20
-5.30208486938031
30
0
41
1
10
31.0615356136088
20
-5.00632615489323
30
0
41
1
10
30.6819300224492
20
-4.90022464413113
30
0
41
1
10
29.9215940617502
20
-4.6735244097105
30
0
41
1
10
29.5412422436391
20
-4.55301437061306
30
0
41
1
10
28.4023534345258
20
-4.17293135584754
30
0
41
1
10
27.6447561940369
20
-3.89395013691251
30
0
41
1
10
26.5066214767139
20
-3.4435713244547
30
0
41
1
10
26.1269850969305
20
-3.28808409389791
30
0
41
1
10
25.366602445951
20
-2.96730635707854
30
0
41
1
10
24.9862125324011
20
-2.80220283437348
30
0
41
1
10
23.8472621728494
20
-2.29649100505458
30
0
41
1
10
23.0895609106281
20
-1.94456221742999
30
0
41
1
10
21.9513061453592
20
-1.40236443810605
30
0
41
1
10
21.571641114292
20
-1.21917796954187
30
0
41
1
10
20.8111951611057
20
-0.849096263907342
30
0
41
1
10
20.4307772827157
20
-0.662417679948334
30
0
41
1
10
19.2917370194145
20
-0.10166189655348
30
0
41
1
10
18.5339313496842
20
0.27409942449583
30
0
41
1
10
17.3956342605342
20
0.832645179534154
30
0
41
1
10
17.0159283316749
20
1.01796008878406
30
0
41
1
10
16.2553820226181
20
1.38566097087116
30
0
41
1
10
15.8749143292253
20
1.56783922823826
30
0
41
1
10
14.7357486059573
20
2.10537846186972
30
0
41
1
10
13.9778785587886
20
2.45266118391231
30
0
41
1
10
12.8394735919761
20
2.94955955635626
30
0
41
1
10
12.459731672819
20
3.11117835769889
30
0
41
1
10
11.6991003941539
20
3.4252793901708
30
0
41
1
10
11.3187202080004
20
3.57751927991333
30
0
41
1
10
10.1815986454548
20
4.01614360295289
30
0
41
1
10
9.42693996881877
20
4.28540867852959
30
0
41
1
10
7.16519122935944
20
5.01313356497821
30
0
41
1
10
5.6607746872489
20
5.39195697503376
30
0
41
1
10
4.13942254535385
20
5.64016388580029
30
0
0
SPLINE
5
C4
100
AcDbEntity
8
1
62
256
6
ByLayer
370
18
48
1
60
0
100
AcDbSpline
70
4
71
3
72
10
73
6
40
0
40
0
40
0
40
0
40
0.5
40
0.5
40
1
40
1
40
1
40
1
41
1
10
77.2104139353447
20
-5.85773690048487
30
0
41
1
10
77.4604578067303
20
-5.14068815063385
30
0
41
1
10
77.7162707357735
20
-4.42727058638232
30
0
41
1
10
78.2371124462998
20
-3.00580562835449
30
0
41
1
10
78.5021745028362
20
-2.29778288350167
30
0
41
1
10
78.7697561336067
20
-1.59143420133594
30
0
0
SPLINE
5
C5
100
AcDbEntity
8
1
62
256
6
ByLayer
370
18
48
1
60
0
100
AcDbSpline
70
4
71
3
72
50
73
46
40
0
40
0
40
0
40
0
40
0.0625000000000022
40
0.0625000000000022
40
0.125000000000004
40
0.125000000000004
40
0.187500000000006
40
0.187500000000006
40
0.250000000000009
40
0.250000000000009
40
0.312500000000011
40
0.312500000000011
40
0.343750000000012
40
0.343750000000012
40
0.375000000000013
40
0.375000000000013
40
0.390625000000014
40
0.390625000000014
40
0.406250000000014
40
0.406250000000014
40
0.421875000000015
40
0.421875000000015
40
0.437500000000015
40
0.437500000000015
40
0.453125000000016
40
0.453125000000016
40
0.468750000000016
40
0.468750000000016
40
0.484375000000017
40
0.484375000000017
40
0.500000000000017
40
0.500000000000017
40
0.531250000000019
40
0.531250000000019
40
0.56250000000002
40
0.56250000000002
40
0.625000000000017
40
0.625000000000017
40
0.687500000000014
40
0.687500000000014
40
0.750000000000011
40
0.750000000000011
40
0.875000000000006
40
0.875000000000006
40
1
40
1
40
1
40
1
41
1
10
76.8040320147148
20
-3.15658180988683
30
0
41
1
10
76.7016506829067
20
-3.11767847816583
30
0
41
1
10
76.5992594124863
20
-3.07449815615496
30
0
41
1
10
76.3971920273136
20
-2.98037432486856
30
0
41
1
10
76.2971795516473
20
-2.92932081341698
30
0
41
1
10
76.0994255774417
20
-2.81833729952513
30
0
41
1
10
76.0016771321214
20
-2.75843444973302
30
0
41
1
10
75.8089732344441
20
-2.62771187363396
30
0
41
1
10
75.7133960192539
20
-2.5564472863411
30
0
41
1
10
75.5298152687902
20
-2.40137272254427
30
0
41
1
10
75.4416971345626
20
-2.31792582725345
30
0
41
1
10
75.3189767698537
20
-2.17753691659519
30
0
41
1
10
75.2793253915326
20
-2.12763844341248
30
0
41
1
10
75.2072096142837
20
-2.02289760110628
30
0
41
1
10
75.1746163394677
20
-1.96818669287458
30
0
41
1
10
75.1343198512084
20
-1.88031512427028
30
0
41
1
10
75.1222520026986
20
-1.8496906794098
30
0
41
1
10
75.102963534145
20
-1.78784947382513
30
0
41
1
10
75.0956726395603
20
-1.75660935154218
30
0
41
1
10
75.0871986535062
20
-1.69329983352017
30
0
41
1
10
75.0862087072088
20
-1.66238439179963
30
0
41
1
10
75.0912800053372
20
-1.60261047555747
30
0
41
1
10
75.0975224391766
20
-1.57347091690542
30
0
41
1
10
75.1162523460527
20
-1.52057497562686
30
0
41
1
10
75.1289003534863
20
-1.49609595413111
30
0
41
1
10
75.1586364480541
20
-1.45235456213766
30
0
41
1
10
75.1755839305847
20
-1.43309635455793
30
0
41
1
10
75.2126272581301
20
-1.39853536938025
30
0
41
1
10
75.2328457399489
20
-1.38319755798855
30
0
41
1
10
75.2746979224224
20
-1.35635954209192
30
0
41
1
10
75.2964460292906
20
-1.34473589926165
30
0
41
1
10
75.3635744805292
20
-1.31398010227039
30
0
41
1
10
75.41109324068
20
-1.2988438433901
30
0
41
1
10
75.5080315565361
20
-1.27618575512076
30
0
41
1
10
75.5573011020158
20
-1.26867996272466
30
0
41
1
10
75.7067821703421
20
-1.25415137560108
30
0
41
1
10
75.8086378393414
20
-1.25498225703822
30
0
41
1
10
76.0151186242038
20
-1.26987297695476
30
0
41
1
10
76.1184376020189
20
-1.28398618069338
30
0
41
1
10
76.3246857651425
20
-1.32166485957762
30
0
41
1
10
76.4277156173612
20
-1.34530028734287
30
0
41
1
10
76.7365728007871
20
-1.42803391119782
30
0
41
1
10
76.942173319002
20
-1.49867644270319
30
0
41
1
10
77.3528171825612
20
-1.66832050946519
30
0
41
1
10
77.555413384582
20
-1.76623001944691
30
0
41
1
10
77.7539645453661
20
-1.8801110715635
30
0
0
SPLINE
5
C6
100
AcDbEntity
8
1
62
256
6
ByLayer
370
18
48
1
60
0
100
AcDbSpline
70
4
71
3
72
8
73
4
40
0
40
0
40
0
40
0
40
1
40
1
40
1
40
1
41
1
10
78.9998141523458
20
-0.0426252421211188
30
0
41
1
10
79.0000618989292
20
-0.0142114395827946
30
0
41
1
10
79.000061986057
20
0.0142014469767275
30
0
41
1
10
78.9998141523459
20
0.0426252421077322
30
0
0
SPLINE
5
C7
100
AcDbEntity
8
1
62
256
6
ByLayer
370
18
48
1
60
0
100
AcDbSpline
70
4
71
3
72
12
73
8
40
0
40
0
40
0
40
0
40
0.250000000000001
40
0.250000000000001
40
0.500000000000001
40
0.500000000000001
40
1
40
1
40
1
40
1
41
1
10
78.7697561336069
20
-1.59143420133589
30
0
41
1
10
78.8015570802099
20
-1.46874339960462
30
0
41
1
10
78.830707748288
20
-1.34755300167814
30
0
41
1
10
78.8824044686537
20
-1.10990813489687
30
0
41
1
10
78.9049642873197
20
-0.99346890047147
30
0
41
1
10
78.9622188827008
20
-0.649297239075764
30
0
41
1
10
78.9864265687021
20
-0.426722486487364
30
0
41
1
10
78.9956864215868
20
-0.20557601682674
30
0
0
SPLINE
5
C8
100
AcDbEntity
8
1
62
256
6
ByLayer
370
18
48
1
60
0
100
AcDbSpline
70
4
71
3
72
32
73
28
40
0
40
0
40
0
40
0
40
0.150943366843549
40
0.150943366843549
40
0.226415050265325
40
0.226415050265325
40
0.301886733687101
40
0.301886733687101
40
0.377358417108877
40
0.377358417108877
40
0.452830100530653
40
0.452830100530653
40
0.528301783952429
40
0.528301783952429
40
0.603773467374205
40
0.603773467374205
40
0.679245150795981
40
0.679245150795981
40
0.754716834217757
40
0.754716834217757
40
0.830188517639533
40
0.830188517639533
40
0.905660201061309
40
0.905660201061309
40
0.981131884483085
40
0.981131884483085
40
1
40
1
40
1
40
1
41
1
10
15.2305947462924
20
-5.53226234175025
30
0
41
1
10
15.8147191306126
20
-5.59636464722641
30
0
41
1
10
16.3977878765658
20
-5.63979284406108
30
0
41
1
10
17.2712025692674
20
-5.67726568131314
30
0
41
1
10
17.5621184215259
20
-5.68505680697484
30
0
41
1
10
18.1440838612023
20
-5.69028392402504
30
0
41
1
10
18.435269774973
20
-5.68767903014455
30
0
41
1
10
19.0180655764708
20
-5.67288020237771
30
0
41
1
10
19.3096599402202
20
-5.66081440209271
30
0
41
1
10
19.8932338644718
20
-5.62697611771858
30
0
41
1
10
20.1852331028425
20
-5.60498219669662
30
0
41
1
10
20.7683918198048
20
-5.55101486312037
30
0
41
1
10
21.0598515410728
20
-5.51923080664841
30
0
41
1
10
21.6425834094846
20
-5.44729097378857
30
0
41
1
10
21.9337936941381
20
-5.4067287511657
30
0
41
1
10
22.5158520653474
20
-5.31488398720003
30
0
41
1
10
22.8066336287174
20
-5.26389029745042
30
0
41
1
10
23.3888150527387
20
-5.15370595923892
30
0
41
1
10
23.680205994735
20
-5.09485823654188
30
0
41
1
10
24.2634547248438
20
-4.96824874597831
30
0
41
1
10
24.5554941914901
20
-4.89967467808705
30
0
41
1
10
25.1392715596743
20
-4.75393126258513
30
0
41
1
10
25.4306163980607
20
-4.67671039419071
30
0
41
1
10
26.0134209622732
20
-4.51593880001658
30
0
41
1
10
26.3048191721958
20
-4.432449488288
30
0
41
1
10
26.6688334524711
20
-4.32219791522084
30
0
41
1
10
26.7416294355668
20
-4.29988787867399
30
0
41
1
10
26.8144192860268
20
-4.2773300620191
30
0
0
SPLINE
5
C9
100
AcDbEntity
8
1
62
256
6
ByLayer
370
18
48
1
60
0
100
AcDbSpline
70
4
71
3
72
32
73
28
40
0
40
0
40
0
40
0
40
0.0416867298068526
40
0.0416867298068526
40
0.101581309193922
40
0.101581309193922
40
0.161475888580991
40
0.161475888580991
40
0.281265047355132
40
0.281265047355132
40
0.341159626742203
40
0.341159626742203
40
0.401054206129275
40
0.401054206129275
40
0.460948785516346
40
0.460948785516346
40
0.520843364903417
40
0.520843364903417
40
0.64063252367756
40
0.64063252367756
40
0.700527103064633
40
0.700527103064633
40
0.760421682451706
40
0.760421682451706
40
0.880210841225853
40
0.880210841225853
40
1
40
1
40
1
40
1
41
1
10
56.5829445999726
20
5.70624878765071
30
0
41
1
10
56.7856113672152
20
5.70305079987543
30
0
41
1
10
56.9884270192591
20
5.69758993775125
30
0
41
1
10
57.482970190987
20
5.67926290756074
30
0
41
1
10
57.7750771715457
20
5.66362611845562
30
0
41
1
10
58.3581768047875
20
5.62113124739022
30
0
41
1
10
58.6491607855402
20
5.59457811465728
30
0
41
1
10
59.522319051791
20
5.50160610652031
30
0
41
1
10
60.1043114400201
20
5.42143131583961
30
0
41
1
10
60.9769194409112
20
5.2720966725141
30
0
41
1
10
61.2677071900974
20
5.21783833971239
30
0
41
1
10
61.8501855976549
20
5.10182829838669
30
0
41
1
10
62.1417633995425
20
5.03966754445858
30
0
41
1
10
62.7255816666401
20
4.90477649103454
30
0
41
1
10
63.0171003478398
20
4.83253019375596
30
0
41
1
10
63.5993173828197
20
4.67948870477639
30
0
41
1
10
63.8900375374811
20
4.59865429731016
30
0
41
1
10
64.7626892881359
20
4.34582120280197
30
0
41
1
10
65.3446393013028
20
4.16326283196554
30
0
41
1
10
66.2176003136833
20
3.86910912985149
30
0
41
1
10
66.5086128636027
20
3.76729456246917
30
0
41
1
10
67.0916933190846
20
3.5569749311363
30
0
41
1
10
67.3837740789583
20
3.4483610852248
30
0
41
1
10
68.2582757200891
20
3.11420840028211
30
0
41
1
10
68.839443316533
20
2.87900950539981
30
0
41
1
10
70.0028327044388
20
2.39278582864051
30
0
41
1
10
70.58485068137
20
2.14226694337435
30
0
41
1
10
71.1671265883195
20
1.88240232062887
30
0
0
SPLINE
5
CA
100
AcDbEntity
8
1
62
256
6
ByLayer
370
18
48
1
60
0
100
AcDbSpline
70
4
71
3
72
12
73
8
40
0
40
0
40
0
40
0
40
0.299650774006116
40
0.299650774006116
40
0.905618531343291
40
0.905618531343291
40
1
40
1
40
1
40
1
41
1
10
38.3662948095916
20
-5.69936361976838
30
0
41
1
10
37.6102620431447
20
-5.69871113300516
30
0
41
1
10
36.8581802353317
20
-5.66477021534536
30
0
41
1
10
34.5943226710961
20
-5.46607787368612
30
0
41
1
10
33.0900361257419
20
-5.20287081031077
30
0
41
1
10
31.3420797782798
20
-4.76580346855656
30
0
41
1
10
31.1063201813205
20
-4.70412870430042
30
0
41
1
10
30.8702899290139
20
-4.63975365268197
30
0
0
SPLINE
5
CB
100
AcDbEntity
8
1
62
256
6
ByLayer
370
13
48
1
60
0
100
AcDbSpline
70
4
71
3
72
22
73
18
40
0
40
0
40
0
40
0
40
0.0983562319275721
40
0.0983562319275721
40
0.169784823363572
40
0.169784823363572
40
0.241213414799572
40
0.241213414799572
40
0.526927780543574
40
0.526927780543574
40
0.669784963415576
40
0.669784963415576
40
0.741213554851576
40
0.741213554851576
40
0.812642146287576
40
0.812642146287576
40
1
40
1
40
1
40
1
41
1
10
30.8702899293308
20
-4.63975365276841
30
0
41
1
10
30.3486146452145
20
-4.49747158081524
30
0
41
1
10
29.8256172078599
20
-4.34199858647293
30
0
41
1
10
28.9191888481877
20
-4.05222209009071
30
0
41
1
10
28.5362324946916
20
-3.92360782765559
30
0
41
1
10
27.7739689719003
20
-3.65629810300555
30
0
41
1
10
27.3939213686751
20
-3.51739408328433
30
0
41
1
10
25.4973313112386
20
-2.79993624505056
30
0
41
1
10
23.992477925742
20
-2.15130728059259
30
0
41
1
10
21.7252543731776
20
-1.12364953150484
30
0
41
1
10
20.9680044780206
20
-0.771735410838033
30
0
41
1
10
19.8261574244294
20
-0.237555551816996
30
0
41
1
10
19.4438723645679
20
-0.0582043971855057
30
0
41
1
10
18.6797897216418
20
0.299985268170047
30
0
41
1
10
18.2989597278032
20
0.478368959819903
30
0
41
1
10
16.9223642786037
20
1.11938098444881
30
0
41
1
10
15.9318416790595
20
1.57370239514114
30
0
41
1
10
14.9421676342456
20
2.00750149613739
30
0
0
SPLINE
5
CC
100
AcDbEntity
8
1
62
256
6
ByLayer
370
18
48
1
60
0
100
AcDbSpline
70
4
71
3
72
8
73
4
40
0
40
0
40
0
40
0
40
1
40
1
40
1
40
1
41
1
10
77.0462240246869
20
-5.81030840385782
30
0
41
1
10
77.0199493513301
20
-5.87835698190045
30
0
41
1
10
76.9936050489418
20
-5.94631149487782
30
0
41
1
10
76.9671901581495
20
-6.01417129747844
30
0
0
SPLINE
5
CD
100
AcDbEntity
8
1
62
256
6
ByLayer
370
18
48
1
60
0
100
AcDbSpline
70
4
71
3
72
18
73
14
40
0
40
0
40
0
40
0
40
0.250000000000002
40
0.250000000000002
40
0.375000000000003
40
0.375000000000003
40
0.500000000000003
40
0.500000000000003
40
0.750000000000003
40
0.750000000000003
40
0.875000000000001
40
0.875000000000001
40
1
40
1
40
1
40
1
41
1
10
75.9292330624226
20
-4.26865733115505
30
0
41
1
10
76.0199785727417
20
-4.51716749132274
30
0
41
1
10
76.1129262972138
20
-4.73474318386721
30
0
41
1
10
76.2547576904442
20
-5.01657819915437
30
0
41
1
10
76.302448734882
20
-5.10304537240359
30
0
41
1
10
76.3986413303927
20
-5.2606713545436
30
0
41
1
10
76.4471757108494
20
-5.331761452965
30
0
41
1
10
76.5909643161305
20
-5.51746776786547
30
0
41
1
10
76.6854222023363
20
-5.60658148999198
30
0
41
1
10
76.8256202872851
20
-5.68832297878708
30
0
41
1
10
76.8721633603203
20
-5.70686800541833
30
0
41
1
10
76.9646958463831
20
-5.72576568930256
30
0
41
1
10
77.010299392683
20
-5.7260595308164
30
0
41
1
10
77.0553550566142
20
-5.71716468016001
30
0
0
SPLINE
5
CE
100
AcDbEntity
8
1
62
256
6
ByLayer
370
18
48
1
60
0
100
AcDbSpline
70
4
71
3
72
10
73
6
40
0
40
0
40
0
40
0
40
0.5
40
0.5
40
1
40
1
40
1
40
1
41
1
10
78.9952190088242
20
0.108716130347744
30
0
41
1
10
78.9950598838954
20
0.0991179775725186
30
0
41
1
10
78.9954150408774
20
0.0886513065858594
30
0
41
1
10
78.9970096371698
20
0.0663007068176853
30
0
41
1
10
78.9982311690267
20
0.0546589252862759
30
0
41
1
10
78.9998141523474
20
0.042625242109807
30
0
0
SPLINE
5
CF
100
AcDbEntity
8
1
62
256
6
ByLayer
370
18
48
1
60
0
100
AcDbSpline
70
4
71
3
72
12
73
8
40
0
40
0
40
0
40
0
40
0.249999999999999
40
0.249999999999999
40
0.5
40
0.5
40
1
40
1
40
1
40
1
41
1
10
4.13942254535385
20
5.64016388580029
30
0
41
1
10
4.11844681773891
20
5.64358605244337
30
0
41
1
10
4.09938641759808
20
5.6478634856791
30
0
41
1
10
4.06500181161036
20
5.65798958469364
30
0
41
1
10
4.04997249443065
20
5.66379308202295
30
0
41
1
10
4.01337284802227
20
5.682434497005
30
0
41
1
10
4.00000041075856
20
5.69669181001771
30
0
41
1
10
4.00000041075864
20
5.71055623510273
30
0
0
SPLINE
5
D0
100
AcDbEntity
8
1
62
256
6
ByLayer
370
18
48
1
60
0
100
AcDbSpline
70
4
71
3
72
44
73
40
40
0
40
0
40
0
40
0
40
0.0572453880192939
40
0.0572453880192939
40
0.124030860656695
40
0.124030860656695
40
0.190816333294095
40
0.190816333294095
40
0.324387278568897
40
0.324387278568897
40
0.457958223843698
40
0.457958223843698
40
0.524743696481099
40
0.524743696481099
40
0.558136432799799
40
0.558136432799799
40
0.57483280095915
40
0.57483280095915
40
0.579006892998987
40
0.579006892998987
40
0.583180985038824
40
0.583180985038824
40
0.587355077078662
40
0.587355077078662
40
0.5915291691185
40
0.5915291691185
40
0.6583146417559
40
0.6583146417559
40
0.725100114393301
40
0.725100114393301
40
0.858671059668102
40
0.858671059668102
40
0.925456532305503
40
0.925456532305503
40
0.958849268624203
40
0.958849268624203
40
0.992242004942904
40
0.992242004942904
40
1
40
1
40
1
40
1
41
1
10
15.2305947462924
20
0.96484380938881
30
0
41
1
10
15.2305947462924
20
0.942337744028265
30
0
41
1
10
15.2305947462924
20
0.913307451143595
30
0
41
1
10
15.2305947462924
20
0.836632668948909
30
0
41
1
10
15.2305947462924
20
0.78664484472958
30
0
41
1
10
15.2305947462924
20
0.669264315799836
30
0
41
1
10
15.2305947462924
20
0.601507295436022
30
0
41
1
10
15.2305947462924
20
0.375740883979574
30
0
41
1
10
15.2305947462924
20
0.195025208273989
30
0
41
1
10
15.2305947462924
20
-0.222584294321564
30
0
41
1
10
15.2305947462924
20
-0.459505600301355
30
0
41
1
10
15.2305947462924
20
-0.857038033608603
30
0
41
1
10
15.2305947462924
20
-0.996530351406562
30
0
41
1
10
15.2305947462924
20
-1.21426948896837
30
0
41
1
10
15.2305947462924
20
-1.28834749518421
30
0
41
1
10
15.2305947462924
20
-1.40170435493542
30
0
41
1
10
15.2305947462924
20
-1.43984467739318
30
0
41
1
10
15.2305947462924
20
-1.48796094204499
30
0
41
1
10
15.2305947462924
20
-1.49729568396137
30
0
41
1
10
15.2305947462924
20
-1.51927759915427
30
0
41
1
10
15.2305947462924
20
-1.53121281246453
30
0
41
1
10
15.2305947462924
20
-1.55695474211473
30
0
41
1
10
15.2305947462924
20
-1.57052983369212
30
0
41
1
10
15.2305947462924
20
-1.59761051336801
30
0
41
1
10
15.2305947462924
20
-1.6112061356541
30
0
41
1
10
15.2305947462924
20
-1.84196664806893
30
0
41
1
10
15.2305947462924
20
-2.06016754523927
30
0
41
1
10
15.2305947462924
20
-2.49629251123062
30
0
41
1
10
15.2305947462924
20
-2.71435669491899
30
0
41
1
10
15.2305947462924
20
-3.36855448925138
30
0
41
1
10
15.2305947462924
20
-3.7981274952451
30
0
41
1
10
15.2305947462924
20
-4.43095069633688
30
0
41
1
10
15.2305947462924
20
-4.6400432178223
30
0
41
1
10
15.2305947462924
20
-4.95079509565764
30
0
41
1
10
15.2305947462923
20
-5.05389721511384
30
0
41
1
10
15.2305947462923
20
-5.25910956202395
30
0
41
1
10
15.2305947462924
20
-5.36135037485198
30
0
41
1
10
15.2305947462924
20
-5.48560515686111
30
0
41
1
10
15.2305947462924
20
-5.50896602328774
30
0
41
1
10
15.2305947462924
20
-5.53226234175017
30
0
0
SPLINE
5
D1
100
AcDbEntity
8
1
62
256
6
ByLayer
370
18
48
1
60
0
100
AcDbSpline
70
4
71
3
72
44
73
40
40
0
40
0
40
0
40
0
40
0.0922128024163649
40
0.0922128024163649
40
0.138319203624548
40
0.138319203624548
40
0.184425604832731
40
0.184425604832731
40
0.230532006040914
40
0.230532006040914
40
0.276638407249096
40
0.276638407249096
40
0.368851209665462
40
0.368851209665462
40
0.414957610873645
40
0.414957610873645
40
0.461064012081828
40
0.461064012081828
40
0.507170413290011
40
0.507170413290011
40
0.553276814498193
40
0.553276814498193
40
0.599383215706376
40
0.599383215706376
40
0.645489616914559
40
0.645489616914559
40
0.691596018122742
40
0.691596018122742
40
0.737702419330925
40
0.737702419330925
40
0.829915221747289
40
0.829915221747289
40
0.87602162295547
40
0.87602162295547
40
0.922128024163652
40
0.922128024163652
40
0.968234425371833
40
0.968234425371833
40
1
40
1
40
1
40
1
41
1
10
15.2305947462924
20
0.964843809389095
30
0
41
1
10
15.8812346254824
20
0.644587730697964
30
0
41
1
10
16.530544480527
20
0.327441903400057
30
0
41
1
10
17.4997270223436
20
-0.150146302432091
30
0
41
1
10
17.8216165608692
20
-0.310415033374881
30
0
41
1
10
18.4653619081154
20
-0.628223375531945
30
0
41
1
10
18.7872956358983
20
-0.785617086895172
30
0
41
1
10
19.4308521024322
20
-1.09833624830787
30
0
41
1
10
19.7524970214607
20
-1.25361631741032
30
0
41
1
10
20.395043718461
20
-1.5629469246189
30
0
41
1
10
20.7159901466177
20
-1.71689081788099
30
0
41
1
10
21.6813089162986
20
-2.16966413214854
30
0
41
1
10
22.3266416399077
20
-2.46255043044195
30
0
41
1
10
23.2959323744766
20
-2.89085574234758
30
0
41
1
10
23.6200432126726
20
-3.03025039959164
30
0
41
1
10
24.270299578898
20
-3.30230447933434
30
0
41
1
10
24.5968891578169
20
-3.4353433340259
30
0
41
1
10
25.2470502128959
20
-3.69364883888622
30
0
41
1
10
25.5706686336856
20
-3.81964796619874
30
0
41
1
10
26.2174907243335
20
-4.0611817040469
30
0
41
1
10
26.5406289340633
20
-4.17689611554439
30
0
41
1
10
27.1859052596342
20
-4.39917442544177
30
0
41
1
10
27.5080897377518
20
-4.50567138772539
30
0
41
1
10
28.1509876129133
20
-4.71003871607843
30
0
41
1
10
28.4720282021371
20
-4.80742121023121
30
0
41
1
10
29.1150065542974
20
-4.99059747738642
30
0
41
1
10
29.4366542061161
20
-5.07678562571266
30
0
41
1
10
30.0798678498351
20
-5.23881996895147
30
0
41
1
10
30.4012546560541
20
-5.31482815574702
30
0
41
1
10
31.365992826839
20
-5.52622251106615
30
0
41
1
10
32.0123052246617
20
-5.64310158739679
30
0
41
1
10
32.984362695484
20
-5.78377097654266
30
0
41
1
10
33.3085349996773
20
-5.82493348432044
30
0
41
1
10
33.9598177610801
20
-5.89414458162437
30
0
41
1
10
34.2853235110683
20
-5.92220499688455
30
0
41
1
10
34.9341504232513
20
-5.96560528147791
30
0
41
1
10
35.2577428968467
20
-5.9809589312232
30
0
41
1
10
35.8024895751429
20
-5.9961528133048
30
0
41
1
10
36.0244596592191
20
-5.99928228131657
30
0
41
1
10
36.2463634897151
20
-5.99939468667787
30
0
0
SPLINE
5
D2
100
AcDbEntity
8
1
62
256
6
ByLayer
370
18
48
1
60
0
100
AcDbSpline
70
4
71
3
72
32
73
28
40
0
40
0
40
0
40
0
40
0.052880790829575
40
0.052880790829575
40
0.131807391593777
40
0.131807391593777
40
0.210733992357979
40
0.210733992357979
40
0.289660593122181
40
0.289660593122181
40
0.368587193886383
40
0.368587193886383
40
0.447513794650585
40
0.447513794650585
40
0.526440395414788
40
0.526440395414788
40
0.60536699617899
40
0.60536699617899
40
0.684293596943192
40
0.684293596943192
40
0.763220197707394
40
0.763220197707394
40
0.842146798471596
40
0.842146798471596
40
0.921073399235798
40
0.921073399235798
40
1
40
1
40
1
40
1
41
1
10
64.9347705521154
20
4.29447649708109
30
0
41
1
10
65.1503064848315
20
4.3692159434506
30
0
41
1
10
65.3657335487894
20
4.44185032468272
30
0
41
1
10
65.9022858151255
20
4.61786063832474
30
0
41
1
10
66.2229508704199
20
4.71907512532147
30
0
41
1
10
66.8643814145007
20
4.9112296673932
30
0
41
1
10
67.1855616249921
20
5.00169260125
30
0
41
1
10
67.8285011308532
20
5.17197727918992
30
0
41
1
10
68.1502382213314
20
5.25182405971921
30
0
41
1
10
68.7938983493971
20
5.40111956002747
30
0
41
1
10
69.1155932607051
20
5.47072329976027
30
0
41
1
10
69.7613657520287
20
5.59733836467171
30
0
41
1
10
70.0851993316387
20
5.65462658878593
30
0
41
1
10
70.7342896459987
20
5.75748072799564
30
0
41
1
10
71.0601292482018
20
5.8030968823978
30
0
41
1
10
71.7097585173469
20
5.88195565273367
30
0
41
1
10
72.0340831908043
20
5.9148509014382
30
0
41
1
10
72.6825249777013
20
5.96764893679813
30
0
41
1
10
73.0064457000653
20
5.98764785155836
30
0
41
1
10
73.6533509765496
20
6.01497696128914
30
0
41
1
10
73.9759885511016
20
6.02230167080398
30
0
41
1
10
74.621666296826
20
6.02396643505571
30
0
41
1
10
74.9448903724672
20
6.01837233477289
30
0
41
1
10
75.5916769555928
20
5.99450143876825
30
0
41
1
10
75.9152506313152
20
5.97622731341204
30
0
41
1
10
76.5623109122776
20
5.92664566743184
30
0
41
1
10
76.8857776472815
20
5.89524998629142
30
0
41
1
10
77.2104139353497
20
5.85773690047051
30
0
0
SPLINE
5
D3
100
AcDbEntity
8
1
62
256
6
ByLayer
370
18
48
1
60
0
100
AcDbSpline
70
4
71
3
72
26
73
22
40
0
40
0
40
0
40
0
40
0.0625
40
0.0625
40
0.125
40
0.125
40
0.1875
40
0.1875
40
0.25
40
0.25
40
0.375
40
0.375
40
0.5
40
0.5
40
0.625
40
0.625
40
0.75
40
0.75
40
0.875
40
0.875
40
1
40
1
40
1
40
1
41
1
10
4.25119327282454
20
-1.54125179698642
30
0
41
1
10
4.45500001804643
20
-1.70264067037545
30
0
41
1
10
4.663808458235
20
-1.8541290415744
30
0
41
1
10
5.08843571426337
20
-2.14274508518838
30
0
41
1
10
5.3042853505757
20
-2.27981658925458
30
0
41
1
10
5.74133719411213
20
-2.54262396544269
30
0
41
1
10
5.96255164638004
20
-2.6683371488929
30
0
41
1
10
6.409299057608
20
-2.91033727143446
30
0
41
1
10
6.63528429169787
20
-3.02683807709837
30
0
41
1
10
7.31462946045124
20
-3.36195748890012
30
0
41
1
10
7.76953888646577
20
-3.56616401790299
30
0
41
1
10
8.68212884960161
20
-3.94646735227053
30
0
41
1
10
9.13987093463888
20
-4.12138594512015
30
0
41
1
10
10.0585526770212
20
-4.44140128573719
30
0
41
1
10
10.5194578238796
20
-4.58752788233954
30
0
41
1
10
11.4455880799833
20
-4.85207971801336
30
0
41
1
10
11.9108873074013
20
-4.96940023765066
30
0
41
1
10
12.8476243399731
20
-5.1778661301739
30
0
41
1
10
13.3190842597003
20
-5.26853999064397
30
0
41
1
10
14.2707660632465
20
-5.42082870684501
30
0
41
1
10
14.7490197597262
20
-5.48295491683675
30
0
41
1
10
15.2305947462926
20
-5.53226234175028
30
0
0
SPLINE
5
D4
100
AcDbEntity
8
1
62
256
6
ByLayer
370
18
48
1
60
0
100
AcDbSpline
70
4
71
3
72
60
73
56
40
0
40
0
40
0
40
0
40
0.0312499999999981
40
0.0312499999999981
40
0.0624999999999962
40
0.0624999999999962
40
0.0937499999999943
40
0.0937499999999943
40
0.124999999999992
40
0.124999999999992
40
0.156249999999991
40
0.156249999999991
40
0.17187499999999
40
0.17187499999999
40
0.187499999999989
40
0.187499999999989
40
0.195312499999988
40
0.195312499999988
40
0.203124999999988
40
0.203124999999988
40
0.218749999999987
40
0.218749999999987
40
0.234374999999986
40
0.234374999999986
40
0.249999999999985
40
0.249999999999985
40
0.265624999999984
40
0.265624999999984
40
0.281249999999983
40
0.281249999999983
40
0.312499999999981
40
0.312499999999981
40
0.34374999999998
40
0.34374999999998
40
0.34765624999998
40
0.34765624999998
40
0.35156249999998
40
0.35156249999998
40
0.35546874999998
40
0.35546874999998
40
0.35937499999998
40
0.35937499999998
40
0.374999999999981
40
0.374999999999981
40
0.437499999999983
40
0.437499999999983
40
0.499999999999986
40
0.499999999999986
40
0.624999999999989
40
0.624999999999989
40
0.749999999999993
40
0.749999999999993
40
0.874999999999996
40
0.874999999999996
40
1
40
1
40
1
40
1
41
1
10
4.00000041075862
20
-1.72513358178887
30
0
41
1
10
3.84854208643026
20
-1.61280119037869
30
0
41
1
10
3.69953031838443
20
-1.49644874324559
30
0
41
1
10
3.40786211526995
20
-1.25348153486507
30
0
41
1
10
3.26499292687967
20
-1.12664313699798
30
0
41
1
10
2.99133356245423
20
-0.862658750646006
30
0
41
1
10
2.86012339243757
20
-0.725255033989384
30
0
41
1
10
2.61321745656696
20
-0.435597422849725
30
0
41
1
10
2.49738682495823
20
-0.283445123473001
30
0
41
1
10
2.28917278510326
20
0.0430837780936315
30
0
41
1
10
2.19949832687519
20
0.213169292962448
30
0
41
1
10
2.09683569149996
20
0.483384194213443
30
0
41
1
10
2.06808857438099
20
0.576163521801902
30
0
41
1
10
2.0251836748142
20
0.761709792756392
30
0
41
1
10
2.01073174582231
20
0.855150705194092
30
0
41
1
10
2.00079215483055
20
0.996454378222381
30
0
41
1
10
1.99943823985552
20
1.04374630385664
30
0
41
1
10
2.0008959331565
20
1.13873947739603
30
0
41
1
10
2.00374527631504
20
1.18663836078929
30
0
41
1
10
2.01851398601164
20
1.32780618147657
30
0
41
1
10
2.03659081301873
20
1.41944446949523
30
0
41
1
10
2.0881377426621
20
1.59815244349491
30
0
41
1
10
2.12191970535955
20
1.68583519910754
30
0
41
1
10
2.20255853305235
20
1.8539965982952
30
0
41
1
10
2.24889798517762
20
1.93375591688573
30
0
41
1
10
2.35148546063658
20
2.08622470931601
30
0
41
1
10
2.40774058186278
20
2.1589284357205
30
0
41
1
10
2.52867449770099
20
2.29839780926662
30
0
41
1
10
2.59337937327152
20
2.3650862002404
30
0
41
1
10
2.79428088174711
20
2.55394055038872
30
0
41
1
10
2.93845935441658
20
2.66665818929039
30
0
41
1
10
3.2411290054817
20
2.87408003174738
30
0
41
1
10
3.40007436509197
20
2.9688807216138
30
0
41
1
10
3.58408166601305
20
3.06730657822547
30
0
41
1
10
3.60416669948847
20
3.07874093204964
30
0
41
1
10
3.64634107400784
20
3.09868079391552
30
0
41
1
10
3.6699649437777
20
3.10547039088584
30
0
41
1
10
3.71677150934258
20
3.1147583158035
30
0
41
1
10
3.74039694838422
20
3.11732300835547
30
0
41
1
10
3.78797544183064
20
3.11939448011665
30
0
41
1
10
3.8118779637058
20
3.11937251825188
30
0
41
1
10
3.93120319369902
20
3.12101227630103
30
0
41
1
10
4.02669984749349
20
3.12183649340776
30
0
41
1
10
4.50408308262189
20
3.12354005773483
30
0
41
1
10
4.88620689170543
20
3.11716943778319
30
0
41
1
10
5.64856725440791
20
3.08940756614524
30
0
41
1
10
6.02885539458038
20
3.06802766458529
30
0
41
1
10
7.1671283771897
20
2.98161893554979
30
0
41
1
10
7.92254289813357
20
2.89422465053536
30
0
41
1
10
9.4267452221049
20
2.65916651759963
30
0
41
1
10
10.1697246921994
20
2.51216470685429
30
0
41
1
10
11.6395583818518
20
2.16129378229263
30
0
41
1
10
12.3664048357003
20
1.95736705796898
30
0
41
1
10
13.8071261999997
20
1.49763399379944
30
0
41
1
10
14.5210234192444
20
1.24187144217427
30
0
41
1
10
15.2305947462924
20
0.964843809389095
30
0
0
LINE
5
76
100
AcDbEntity
8
81
62
256
6
ByLayer
370
18
48
1
60
0
100
AcDbLine
10
79
20
0
30
0
11
84
21
0
31
0
39
0
210
0
220
0
230
1
0
LINE
5
77
100
AcDbEntity
8
1
62
256
6
ByLayer
370
18
48
1
60
0
100
AcDbLine
10
4
20
5.979244
30
0
11
0.350219
21
5.976962
31
0
39
0
210
0
220
0
230
1
0
LINE
5
79
100
AcDbEntity
8
1
62
256
6
ByLayer
370
18
48
1
60
0
100
AcDbLine
10
38.139881
20
6.000581
30
0
11
36.243018
21
5.999395
31
0
39
0
210
0
220
0
230
1
0
LINE
5
7A
100
AcDbEntity
8
1
62
256
6
ByLayer
370
18
48
1
60
0
100
AcDbLine
10
36.243018
20
-5.999395
30
0
11
38.139539
21
-6.000581
31
0
39
0
210
0
220
0
230
1
0
LINE
5
7B
100
AcDbEntity
8
1
62
256
6
ByLayer
370
18
48
1
60
0
100
AcDbLine
10
0.350219
20
-5.976962
30
0
11
4
21
-5.979244
31
0
39
0
210
0
220
0
230
1
0
LINE
5
7C
100
AcDbEntity
8
1
62
256
6
ByLayer
370
18
48
1
60
0
100
AcDbLine
10
76.245293
20
6.024397
30
0
11
74.347146
21
6.023211
31
0
39
0
210
0
220
0
230
1
0
LINE
5
7D
100
AcDbEntity
8
1
62
256
6
ByLayer
370
18
48
1
60
0
100
AcDbLine
10
74.347146
20
-6.023211
30
0
11
76.245288
21
-6.024397
31
0
39
0
210
0
220
0
230
1
0
LINE
5
7E
100
AcDbEntity
8
SK1
62
256
6
ByLayer
370
18
48
1
60
0
100
AcDbLine
10
-43.267949
20
7
30
0
11
-45
21
4
31
0
39
0
210
0
220
0
230
1
0
LINE
5
80
100
AcDbEntity
8
SK1
62
256
6
ByLayer
370
18
48
1
60
0
100
AcDbLine
10
-45
20
-4
30
0
11
-43.267949
21
-7
31
0
39
0
210
0
220
0
230
1
0
LINE
5
81
100
AcDbEntity
8
SK1
62
256
6
ByLayer
370
18
48
1
60
0
100
AcDbLine
10
0
20
7
30
0
11
-43.267949
21
7
31
0
39
0
210
0
220
0
230
1
0
LINE
5
82
100
AcDbEntity
8
SK1
62
256
6
ByLayer
370
18
48
1
60
0
100
AcDbLine
10
-43.267949
20
-7
30
0
11
0
21
-7
31
0
39
0
210
0
220
0
230
1
0
LINE
5
83
100
AcDbEntity
8
SK4
62
256
6
ByLayer
370
18
48
0.05
60
0
100
AcDbLine
10
84
20
0
30
0
11
-50
21
0
31
0
39
0
210
0
220
0
230
1
0
LINE
5
85
100
AcDbEntity
8
4
62
256
6
ByLayer
370
18
48
0.05
60
0
100
AcDbLine
10
79
20
0
30
0
11
0
21
0
31
0
39
0
210
0
220
0
230
1
0
LINE
5
87
100
AcDbEntity
8
80
62
256
6
ByLayer
370
18
48
1
60
0
100
AcDbLine
10
0
20
0
30
0
11
-5
21
0
31
0
39
0
210
0
220
0
230
1
0
LINE
5
88
100
AcDbEntity
8
SK1
62
256
6
ByLayer
370
18
48
1
60
0
100
AcDbLine
10
-45
20
-4
30
0
11
-45
21
-2.277402
31
0
39
0
210
0
220
0
230
1
0
LINE
5
89
100
AcDbEntity
8
SK1
62
256
6
ByLayer
370
18
48
1
60
0
100
AcDbLine
10
-43.3
20
-3.047206
30
0
11
-43.3
21
-0.841863
31
0
39
0
210
0
220
0
230
1
0
LINE
5
8A
100
AcDbEntity
8
SK1
62
256
6
ByLayer
370
18
48
1
60
0
100
AcDbLine
10
-43.267949
20
7
30
0
11
-43.267949
21
-7
31
0
39
0
210
0
220
0
230
1
0
LINE
5
8B
100
AcDbEntity
8
SK1
62
256
6
ByLayer
370
18
48
1
60
0
100
AcDbLine
10
0
20
7
30
0
11
0
21
-7
31
0
39
0
210
0
220
0
230
1
0
LINE
5
8C
100
AcDbEntity
8
SK1
62
256
6
ByLayer
370
13
48
1
60
0
100
AcDbLine
10
-43.4
20
-0.691038
30
0
11
-43.4
21
-3.088093
31
0
39
0
210
0
220
0
230
1
0
LINE
5
8D
100
AcDbEntity
8
SK1
62
256
6
ByLayer
370
18
48
1
60
0
100
AcDbLine
10
-45
20
-0.383203
30
0
11
-45
21
-2.277402
31
0
39
0
210
0
220
0
230
1
0
LINE
5
8E
100
AcDbEntity
8
SK1
62
256
6
ByLayer
370
18
48
1
60
0
100
AcDbLine
10
-45
20
4
30
0
11
-45
21
0.119709
31
0
39
0
210
0
220
0
230
1
0
LINE
5
8F
100
AcDbEntity
8
1
62
256
6
ByLayer
370
18
48
1
60
0
100
AcDbLine
10
4
20
-5.979244
30
0
11
4
21
-1.725134
31
0
39
0
210
0
220
0
230
1
0
LINE
5
90
100
AcDbEntity
8
1
62
256
6
ByLayer
370
13
48
1
60
0
100
AcDbLine
10
0.350219
20
5.976962
30
0
11
0.350219
21
-5.976962
31
0
39
0
210
0
220
0
230
1
0
LINE
5
91
100
AcDbEntity
8
1
62
256
6
ByLayer
370
13
48
1
60
0
100
AcDbLine
10
76.887744
20
1.442799
30
0
11
78.995219
21
0.108716
31
0
39
0
210
0
220
0
230
1
0
LINE
5
92
100
AcDbEntity
8
1
62
256
6
ByLayer
370
13
48
1
60
0
100
AcDbLine
10
76.709523
20
1.316389
30
0
11
78.950729
21
-0.102348
31
0
39
0
210
0
220
0
230
1
0
LINE
5
93
100
AcDbEntity
8
1
62
256
6
ByLayer
370
18
48
1
60
0
100
AcDbLine
10
4
20
5.979244
30
0
11
4
21
5.710556
31
0
39
0
210
0
220
0
230
1
0
MTEXT
5
D5
100
AcDbEntity
8
SK6
62
256
6
ByLayer
370
13
48
1
60
0
100
AcDbMText
10
19.129169
20
38.407694
30
0
210
0
220
0
230
1
1
\W0.7431;460.1-1205-060A1-XM GC34
40
3.5
41
0
44
1.084337
50
0
71
8
72
5
7
iso_b_vert
0
DIMENSION
5
E2
100
AcDbEntity
8
SK2
62
256
6
ByLayer
370
13
48
1
60
0
100
AcDbDimension
2
DimnDraft3D1
10
76.8071
20
-16.238398
30
0
11
36.557159
21
-16.238398
31
0
70
32
71
5
72
1
41
1
210
0
220
0
230
1
3
Standard
100
AcDbAlignedDimension
13
0
23
-1.5875
33
0
14
76.8071
24
-7.6125
34
0
50
0
100
AcDbRotatedDimension
1001
ACAD
1000
DSTYLE
1002
{
1070
   279
1070
     0
1070
   172
1070
     1
1070
   173
1070
     1
1070
   340
1005
D6
1070
   271
1070
     2
1070
   272
1070
     2
1070
    77
1070
     1
1070
    73
1070
     0
1070
   171
1070
     3
1070
   274
1070
     4
1070
   177
1070
    35
1070
   176
1070
    35
1070
   178
1070
    35
1070
    48
1040
-0.005
1070
    41
1041
3.5
1070
   147
1041
1.75
1070
    42
1041
1.5875
1070
    44
1041
2.0
1070
   140
1041
3.5
1070
   343
1005
0
1070
   344
1005
0
1002
}
0
DIMENSION
5
EC
100
AcDbEntity
8
SK2
62
256
6
ByLayer
370
13
48
1
60
0
100
AcDbDimension
2
DimnDraft3D2
10
79
20
-35.692985
30
0
11
16.1484
21
-35.692985
31
0
70
32
71
5
72
1
41
1
210
0
220
0
230
1
3
Standard
100
AcDbAlignedDimension
13
-45
23
-8.5875
33
0
14
79
24
-1.5875
34
0
50
0
100
AcDbRotatedDimension
1001
ACAD
1000
DSTYLE
1002
{
1070
   279
1070
     0
1070
   172
1070
     1
1070
   173
1070
     1
1070
   340
1005
D6
1070
   271
1070
     2
1070
   272
1070
     2
1070
    77
1070
     1
1070
    73
1070
     0
1070
   171
1070
     3
1070
   274
1070
     4
1070
   177
1070
    35
1070
   176
1070
    35
1070
   178
1070
    35
1070
    48
1040
-0.005
1070
    41
1041
3.5
1070
   147
1041
1.75
1070
    42
1041
1.5875
1070
    44
1041
2.0
1070
   140
1041
3.5
1070
   343
1005
0
1070
   344
1005
0
1002
}
0
DIMENSION
5
F6
100
AcDbEntity
8
SK2
62
256
6
ByLayer
370
13
48
1
60
0
100
AcDbDimension
2
DimnDraft3D3
10
79
20
17.634119
30
0
11
49.54
21
17.634119
31
0
70
32
71
5
72
1
41
1
210
0
220
0
230
1
3
Standard
100
AcDbAlignedDimension
13
20.08
23
7.6125
33
0
14
79
24
1.5875
34
0
50
0
100
AcDbRotatedDimension
1001
ACAD
1000
DSTYLE
1002
{
1070
   279
1070
     0
1070
   172
1070
     1
1070
   173
1070
     1
1070
   340
1005
D6
1070
   271
1070
     2
1070
   272
1070
     2
1070
    77
1070
     1
1070
    73
1070
     0
1070
   171
1070
     3
1070
   274
1070
     4
1070
   177
1070
    35
1070
   176
1070
    35
1070
   178
1070
    35
1070
    48
1040
-0.005
1070
    41
1041
3.5
1070
   147
1041
1.75
1070
    42
1041
1.5875
1070
    44
1041
2.0
1070
   140
1041
3.5
1070
   343
1005
0
1070
   344
1005
0
1002
}
0
DIMENSION
5
100
100
AcDbEntity
8
SK2
62
256
6
ByLayer
370
13
48
1
60
0
100
AcDbDimension
2
DimnDraft3D4
10
76.8071
20
-18.827503
30
0
11
88.981425
21
-18.827503
31
0
70
32
71
5
72
1
41
1
210
0
220
0
230
1
3
Standard
100
AcDbAlignedDimension
13
79
23
-1.5875
33
0
14
76.8071
24
-7.6125
34
0
50
0
100
AcDbRotatedDimension
1001
ACAD
1000
DSTYLE
1002
{
1070
   279
1070
     0
1070
   172
1070
     1
1070
   173
1070
     1
1070
   340
1005
D6
1070
   271
1070
     2
1070
   272
1070
     2
1070
    77
1070
     1
1070
    73
1070
     0
1070
   171
1070
     3
1070
   274
1070
     4
1070
   177
1070
    35
1070
   176
1070
    35
1070
   178
1070
    35
1070
    48
1040
-0.005
1070
    41
1041
3.5
1070
   147
1041
1.75
1070
    42
1041
1.5875
1070
    44
1041
2.0
1070
   140
1041
3.5
1070
   343
1005
0
1070
   344
1005
0
1002
}
0
DIMENSION
5
10A
100
AcDbEntity
8
SK2
62
256
6
ByLayer
370
13
48
1
60
0
100
AcDbDimension
2
DimnDraft3D5
10
76.8071
20
-25.343428
30
0
11
13.067776
21
-25.343428
31
0
70
32
71
5
72
1
41
1
210
0
220
0
230
1
3
Standard
100
AcDbAlignedDimension
13
-45
23
-8.5875
33
0
14
76.8071
24
-7.6125
34
0
50
0
100
AcDbRotatedDimension
1001
ACAD
1000
DSTYLE
1002
{
1070
   279
1070
     0
1070
   172
1070
     1
1070
   173
1070
     1
1070
   340
1005
D6
1070
   271
1070
     2
1070
   272
1070
     2
1070
    77
1070
     1
1070
    73
1070
     0
1070
   171
1070
     3
1070
   274
1070
     4
1070
   177
1070
    35
1070
   176
1070
    35
1070
   178
1070
    35
1070
    48
1040
-0.005
1070
    41
1041
3.5
1070
   147
1041
1.75
1070
    42
1041
1.5875
1070
    44
1041
2.0
1070
   140
1041
3.5
1070
   343
1005
0
1070
   344
1005
0
1002
}
0
DIMENSION
5
115
100
AcDbEntity
8
SK2
62
256
6
ByLayer
370
13
48
1
60
0
100
AcDbDimension
2
DimnDraft3D6
10
-55.625163
20
7
30
0
11
-56.250163
21
25.47418
31
0
70
33
71
5
72
1
41
1
210
0
220
0
230
1
3
Standard
100
AcDbAlignedDimension
13
-46.5875
23
-7
33
0
14
-46.5875
24
7
34
0
1001
ACAD
1000
DSTYLE
1002
{
1070
   279
1070
     0
1070
    74
1070
     0
1070
   173
1070
     1
1070
   340
1005
D6
1070
   271
1070
     3
1070
   272
1070
     2
1070
    77
1070
     1
1070
    73
1070
     0
1070
   171
1070
     3
1070
   274
1070
     4
1070
   177
1070
    35
1070
   176
1070
    35
1070
   178
1070
    35
1070
    48
1040
-0.005
1070
    41
1041
3.5
1070
   147
1041
1.75
1070
    42
1041
1.5875
1070
    44
1041
2.0
1070
   140
1041
3.5
1070
   343
1005
0
1070
   344
1005
0
1002
}
0
DIMENSION
5
120
100
AcDbEntity
8
2
62
256
6
ByLayer
370
13
48
1
60
0
100
AcDbDimension
2
DimnDraft3D7
10
93.083343
20
6.025
30
0
11
88.458343
21
23.092266
31
0
70
33
71
5
72
1
41
1
210
0
220
0
230
1
3
Standard
100
AcDbAlignedDimension
13
78.3946
23
-6.025
33
0
14
78.3946
24
6.025
34
0
1001
ACAD
1000
DSTYLE
1002
{
1070
   279
1070
     0
1070
    74
1070
     0
1070
   173
1070
     1
1070
   340
1005
D6
1070
   271
1070
     3
1070
   272
1070
     2
1070
    77
1070
     1
1070
    73
1070
     0
1070
   171
1070
     3
1070
   274
1070
     4
1070
   177
1070
    35
1070
   176
1070
    35
1070
   178
1070
    35
1070
    48
1040
-0.005
1070
    41
1041
3.5
1070
   147
1041
1.75
1070
    42
1041
1.5875
1070
    44
1041
2.0
1070
   140
1041
3.5
1070
   343
1005
0
1070
   344
1005
0
1002
}
0
ENDSEC
0
SECTION
2
OBJECTS
0
DICTIONARY
5
18b
330
0
100
AcDbDictionary
280
0
281
1
3
ACAD_GROUP
350
18c
3
ACAD_MLINESTYLE
350
18d
0
DICTIONARY
5
18c
330
0
100
AcDbDictionary
280
0
281
1
0
DICTIONARY
5
18d
330
0
100
AcDbDictionary
280
0
281
1
3
Standard
350
18
0
MLINESTYLE
5
18
330
18d
100
AcDbMlineStyle
2
Standard
70
0
3

62
256
51
90
52
90
71
2
49
-0.5
62
256
6
ByLayer
49
0.5
62
256
6
ByLayer
0
RASTERVARIABLES
5
179
330

100
AcDbRasterVariables
90
0
70
1
71
1
72
1
0
ENDSEC
0
EOF
