0
SECTION
2
HEADER
9
$ACADVER
1
AC1015
9
$DWGCODEPAGE
3
ANSI_1252
9
$HANDSEED
5
1af
9
$ANGBASE
50
0
9
$ANGDIR
70
0
9
$ATTMODE
70
1
9
$AUNITS
70
0
9
$AUPREC
70
0
9
$CECOLOR
62
256
9
$CELTSCALE
40
1
9
$CELTYPE
6
ByLayer
9
$CELWEIGHT
370
18
9
$CLAYER
8
0
9
$CMLJUST
70
0
9
$CMLSCALE
40
1
9
$CMLSTYLE
2
Standard
9
$DIMSTYLE
2
Standard
9
$TEXTSIZE
40
0.2
9
$TEXTSTYLE
7
Standard
9
$LUNITS
70
2
9
$LUPREC
70
4
9
$EXTNAMES
290
1
9
$INSUNITS
70
4
9
$LTSCALE
40
1
9
$LWDISPLAY
290
1
9
$PDMODE
70
0
9
$PDSIZE
40
0
9
$PLINEGEN
70
0
0
ENDSEC
0
SECTION
2
CLASSES
0
CLASS
1
RASTERVARIABLES
2
AcDbRasterVariables
3
ISM
90
0
280
0
281
0
0
ENDSEC
0
SECTION
2
TABLES
0
TABLE
2
VPORT
5
1a5
100
AcDbSymbolTable
0
VPORT
5
1
100
AcDbSymbolTableRecord
100
AcDbViewportTableRecord
2
*Active
70
0
10
0
20
0
11
1
21
1
12
-1
22
1
13
0
23
0
14
0.5
24
0.5
15
10
25
10
16
0
26
0
36
1
17
0
27
0
37
0
0
ENDTAB
0
TABLE
2
LTYPE
5
1a6
100
AcDbSymbolTable
0
LTYPE
5
14
100
AcDbSymbolTableRecord
100
AcDbLinetypeTableRecord
70
0
2
ByBlock
3

72
65
73
0
40
0
0
LTYPE
5
15
100
AcDbSymbolTableRecord
100
AcDbLinetypeTableRecord
70
0
2
ByLayer
3

72
65
73
0
40
0
0
LTYPE
5
16
100
AcDbSymbolTableRecord
100
AcDbLinetypeTableRecord
70
0
2
CONTINUOUS
3
Solid line
72
65
73
0
40
0
0
LTYPE
5
6A
100
AcDbSymbolTableRecord
100
AcDbLinetypeTableRecord
70
0
2
CENTER
3
____ _ ____ _ ____ _ ____
72
65
73
4
40
47.5
49
22
74
0
49
-8.5
74
0
49
8.5
74
0
49
-8.5
74
0
0
LTYPE
5
6B
100
AcDbSymbolTableRecord
100
AcDbLinetypeTableRecord
70
0
2
DASHED
3
__ __ __ __ __ __ __ __ __
72
65
73
2
40
25.72
49
12.86
74
0
49
-12.86
74
0
0
ENDTAB
0
TABLE
2
LAYER
5
1a7
100
AcDbSymbolTable
0
LAYER
5
10
100
AcDbSymbolTableRecord
100
AcDbLayerTableRecord
2
0
70
0
62
7
6
CONTINUOUS
290
1
370
-3
390
0
0
LAYER
5
6D
100
AcDbSymbolTableRecord
100
AcDbLayerTableRecord
2
81
70
0
62
-3
6
CONTINUOUS
290
1
370
-3
390
0
0
LAYER
5
6F
100
AcDbSymbolTableRecord
100
AcDbLayerTableRecord
2
80
70
0
62
-6
6
CONTINUOUS
290
1
370
-3
390
0
0
LAYER
5
74
100
AcDbSymbolTableRecord
100
AcDbLayerTableRecord
2
2
70
0
62
7
6
CONTINUOUS
290
1
370
-3
390
0
0
LAYER
5
78
100
AcDbSymbolTableRecord
100
AcDbLayerTableRecord
2
1
70
0
62
4
6
CONTINUOUS
290
1
370
-3
390
0
0
LAYER
5
8A
100
AcDbSymbolTableRecord
100
AcDbLayerTableRecord
2
4
70
0
62
-2
6
CENTER
290
1
370
-3
390
0
0
LAYER
5
191
100
AcDbSymbolTableRecord
100
AcDbLayerTableRecord
2
SK2
70
0
62
7
6
CONTINUOUS
290
1
370
-3
390
0
0
LAYER
5
192
100
AcDbSymbolTableRecord
100
AcDbLayerTableRecord
2
SK1
70
0
62
4
6
CONTINUOUS
290
1
370
-3
390
0
0
LAYER
5
193
100
AcDbSymbolTableRecord
100
AcDbLayerTableRecord
2
SK4
70
0
62
2
6
CENTER
290
1
370
-3
390
0
0
LAYER
5
194
100
AcDbSymbolTableRecord
100
AcDbLayerTableRecord
2
SK6
70
0
62
5
6
CONTINUOUS
290
1
370
-3
390
0
0
ENDTAB
0
TABLE
2
STYLE
5
1a8
100
AcDbSymbolTable
0
STYLE
5
11
100
AcDbSymbolTableRecord
100
AcDbTextStyleTableRecord
2
Standard
3
txt
70
0
71
0
40
0
41
1
42
0
50
0
0
STYLE
5
ED
100
AcDbSymbolTableRecord
100
AcDbTextStyleTableRecord
2
iso_b_vert
3
simplex.shx
70
0
71
0
40
0
41
1
42
0
50
0
0
STYLE
5
EE
100
AcDbSymbolTableRecord
100
AcDbTextStyleTableRecord
2
DWGDirectTextStyle
3
simplex
70
0
71
0
40
0
41
1
42
0
50
0
0
ENDTAB
0
TABLE
2
DIMSTYLE
5
1a9
100
AcDbSymbolTable
100
AcDbDimStyleTable
0
DIMSTYLE
105
27
100
AcDbSymbolTableRecord
100
AcDbDimStyleTableRecord
2
Standard
70
0
3
<>
41
0.18
42
0.0625
44
0.18
140
0.18
147
0.09
73
0
74
0
77
1
271
2
275
0
278
52
280
0
340
11
0
ENDTAB
0
TABLE
2
VIEW
5
1aa
100
AcDbSymbolTable
0
ENDTAB
0
TABLE
2
UCS
5
1ab
100
AcDbSymbolTable
0
ENDTAB
0
TABLE
2
APPID
5
1ac
100
AcDbSymbolTable
0
APPID
5
12
100
AcDbSymbolTableRecord
100
AcDbRegAppTableRecord
2
ACAD
70
0
0
ENDTAB
0
TABLE
2
BLOCK_RECORD
5
1ad
100
AcDbSymbolTable
0
BLOCK_RECORD
5
1F
100
AcDbSymbolTableRecord
100
AcDbBlockTableRecord
2
*Model_Space
340
0
70
0
0
BLOCK_RECORD
5
1B
100
AcDbSymbolTableRecord
100
AcDbBlockTableRecord
2
*Paper_Space
340
0
70
0
0
BLOCK_RECORD
5
23
100
AcDbSymbolTableRecord
100
AcDbBlockTableRecord
2
*Paper_Space0
340
0
70
0
0
BLOCK_RECORD
5
F0
100
AcDbSymbolTableRecord
100
AcDbBlockTableRecord
2
DimnDraft3D1
340
0
70
0
0
BLOCK_RECORD
5
FA
100
AcDbSymbolTableRecord
100
AcDbBlockTableRecord
2
DimnDraft3D2
340
0
70
0
0
BLOCK_RECORD
5
104
100
AcDbSymbolTableRecord
100
AcDbBlockTableRecord
2
DimnDraft3D3
340
0
70
0
0
BLOCK_RECORD
5
10E
100
AcDbSymbolTableRecord
100
AcDbBlockTableRecord
2
DimnDraft3D4
340
0
70
0
0
BLOCK_RECORD
5
118
100
AcDbSymbolTableRecord
100
AcDbBlockTableRecord
2
DimnDraft3D5
340
0
70
0
0
BLOCK_RECORD
5
122
100
AcDbSymbolTableRecord
100
AcDbBlockTableRecord
2
DimnDraft3D6
340
0
70
0
0
BLOCK_RECORD
5
12D
100
AcDbSymbolTableRecord
100
AcDbBlockTableRecord
2
DimnDraft3D7
340
0
70
0
0
ENDTAB
0
ENDSEC
0
SECTION
2
BLOCKS
0
BLOCK
5
20
100
AcDbEntity
8
0
100
AcDbBlockBegin
2
*Model_Space
70
0
10
0
20
0
30
0
3
*Model_Space
0
ENDBLK
5
21
100
AcDbEntity
8
0
100
AcDbBlockEnd
0
BLOCK
5
1C
100
AcDbEntity
8
0
100
AcDbBlockBegin
2
*Paper_Space
70
0
10
0
20
0
30
0
3
*Paper_Space
0
ENDBLK
5
1D
100
AcDbEntity
8
0
100
AcDbBlockEnd
0
BLOCK
5
24
100
AcDbEntity
8
0
100
AcDbBlockBegin
2
*Paper_Space0
70
0
10
0
20
0
30
0
3
*Paper_Space0
0
ENDBLK
5
25
100
AcDbEntity
8
0
100
AcDbBlockEnd
0
BLOCK
5
F7
100
AcDbEntity
8
0
100
AcDbBlockBegin
2
DimnDraft3D1
70
0
10
0
20
0
30
0
3
DimnDraft3D1
0
MTEXT
5
F1
100
AcDbEntity
8
SK2
62
256
6
ByLayer
370
13
48
1
60
0
100
AcDbMText
10
59.491469
20
-15.238398
30
0
210
0
220
0
230
1
1
\W0.7079;133,24
40
3.5
41
0
44
1.084337
50
0
71
7
72
5
7
iso_b_vert
0
LINE
5
F2
100
AcDbEntity
8
SK2
62
256
6
ByLayer
370
13
48
1
60
0
100
AcDbLine
10
0
20
-1.5875
30
0
11
0
21
-18.113398
31
0
39
0
210
0
220
0
230
1
0
LINE
5
F3
100
AcDbEntity
8
SK2
62
256
6
ByLayer
370
13
48
1
60
0
100
AcDbLine
10
133.2447
20
-7.4875
30
0
11
133.2447
21
-18.113398
31
0
39
0
210
0
220
0
230
1
0
LINE
5
F4
100
AcDbEntity
8
SK2
62
256
6
ByLayer
370
13
48
1
60
0
100
AcDbLine
10
0
20
-16.113398
30
0
11
133.2447
21
-16.113398
31
0
39
0
210
0
220
0
230
1
0
SOLID
5
F5
100
AcDbEntity
8
SK2
62
256
6
ByLayer
370
13
48
1
60
0
100
AcDbTrace
10
0
20
-16.113398
30
0
11
3.499998
21
-15.652615
31
0
12
3.500002
22
-16.574182
32
0
13
0
23
-16.113398
33
0
39
0
210
0
220
0
230
1
0
SOLID
5
F6
100
AcDbEntity
8
SK2
62
256
6
ByLayer
370
13
48
1
60
0
100
AcDbTrace
10
133.2447
20
-16.113398
30
0
11
129.744702
21
-16.574182
31
0
12
129.744698
22
-15.652615
32
0
13
133.2447
23
-16.113398
33
0
39
0
210
0
220
0
230
1
0
ENDBLK
5
F8
100
AcDbEntity
8
0
100
AcDbBlockEnd
0
BLOCK
5
101
100
AcDbEntity
8
0
100
AcDbBlockBegin
2
DimnDraft3D2
70
0
10
0
20
0
30
0
3
DimnDraft3D2
0
MTEXT
5
FB
100
AcDbEntity
8
SK2
62
256
6
ByLayer
370
13
48
1
60
0
100
AcDbMText
10
39.266921
20
-33.817985
30
0
210
0
220
0
230
1
1
\W0.6930;180,00
40
3.5
41
0
44
1.084337
50
0
71
7
72
5
7
iso_b_vert
0
LINE
5
FC
100
AcDbEntity
8
SK2
62
256
6
ByLayer
370
13
48
1
60
0
100
AcDbLine
10
-45
20
-7.5875
30
0
11
-45
21
-36.692985
31
0
39
0
210
0
220
0
230
1
0
LINE
5
FD
100
AcDbEntity
8
SK2
62
256
6
ByLayer
370
13
48
1
60
0
100
AcDbLine
10
135
20
-1.5875
30
0
11
135
21
-36.692985
31
0
39
0
210
0
220
0
230
1
0
LINE
5
FE
100
AcDbEntity
8
SK2
62
256
6
ByLayer
370
13
48
1
60
0
100
AcDbLine
10
-45
20
-34.692985
30
0
11
135
21
-34.692985
31
0
39
0
210
0
220
0
230
1
0
SOLID
5
FF
100
AcDbEntity
8
SK2
62
256
6
ByLayer
370
13
48
1
60
0
100
AcDbTrace
10
-45
20
-34.692985
30
0
11
-41.500002
21
-34.232202
31
0
12
-41.499998
22
-35.153769
32
0
13
-45
23
-34.692985
33
0
39
0
210
0
220
0
230
1
0
SOLID
5
100
100
AcDbEntity
8
SK2
62
256
6
ByLayer
370
13
48
1
60
0
100
AcDbTrace
10
135
20
-34.692985
30
0
11
131.500002
21
-35.153769
31
0
12
131.499998
22
-34.232202
32
0
13
135
23
-34.692985
33
0
39
0
210
0
220
0
230
1
0
ENDBLK
5
102
100
AcDbEntity
8
0
100
AcDbBlockEnd
0
BLOCK
5
10B
100
AcDbEntity
8
0
100
AcDbBlockBegin
2
DimnDraft3D3
70
0
10
0
20
0
30
0
3
DimnDraft3D3
0
MTEXT
5
105
100
AcDbEntity
8
SK2
62
256
6
ByLayer
370
13
48
1
60
0
100
AcDbMText
10
82.913816
20
18.384119
30
0
210
0
220
0
230
1
1
\W0.6713;96,15
40
3.5
41
0
44
1.084337
50
0
71
7
72
5
7
iso_b_vert
0
LINE
5
106
100
AcDbEntity
8
SK2
62
256
6
ByLayer
370
13
48
1
60
0
100
AcDbLine
10
38.85
20
7.4875
30
0
11
38.85
21
19.509119
31
0
39
0
210
0
220
0
230
1
0
LINE
5
107
100
AcDbEntity
8
SK2
62
256
6
ByLayer
370
13
48
1
60
0
100
AcDbLine
10
135
20
1.5875
30
0
11
135
21
19.509119
31
0
39
0
210
0
220
0
230
1
0
LINE
5
108
100
AcDbEntity
8
SK2
62
256
6
ByLayer
370
13
48
1
60
0
100
AcDbLine
10
38.85
20
17.509119
30
0
11
135
21
17.509119
31
0
39
0
210
0
220
0
230
1
0
SOLID
5
109
100
AcDbEntity
8
SK2
62
256
6
ByLayer
370
13
48
1
60
0
100
AcDbTrace
10
38.85
20
17.509119
30
0
11
42.349998
21
17.969903
31
0
12
42.350002
22
17.048335
32
0
13
38.85
23
17.509119
33
0
39
0
210
0
220
0
230
1
0
SOLID
5
10A
100
AcDbEntity
8
SK2
62
256
6
ByLayer
370
13
48
1
60
0
100
AcDbTrace
10
135
20
17.509119
30
0
11
131.500002
21
17.048335
31
0
12
131.499998
22
17.969903
32
0
13
135
23
17.509119
33
0
39
0
210
0
220
0
230
1
0
ENDBLK
5
10C
100
AcDbEntity
8
0
100
AcDbBlockEnd
0
BLOCK
5
115
100
AcDbEntity
8
0
100
AcDbBlockBegin
2
DimnDraft3D4
70
0
10
0
20
0
30
0
3
DimnDraft3D4
0
MTEXT
5
10F
100
AcDbEntity
8
SK2
62
256
6
ByLayer
370
13
48
1
60
0
100
AcDbMText
10
142.278136
20
-17.827503
30
0
210
0
220
0
230
1
1
\W0.6367;1,76
40
3.5
41
0
44
1.084337
50
0
71
7
72
5
7
iso_b_vert
0
LINE
5
110
100
AcDbEntity
8
SK2
62
256
6
ByLayer
370
13
48
1
60
0
100
AcDbLine
10
135
20
-1.5875
30
0
11
135
21
-20.702503
31
0
39
0
210
0
220
0
230
1
0
LINE
5
111
100
AcDbEntity
8
SK2
62
256
6
ByLayer
370
13
48
1
60
0
100
AcDbLine
10
133.2447
20
-7.4875
30
0
11
133.2447
21
-20.702503
31
0
39
0
210
0
220
0
230
1
0
LINE
5
112
100
AcDbEntity
8
SK2
62
256
6
ByLayer
370
13
48
1
60
0
100
AcDbLine
10
124.4947
20
-18.702503
30
0
11
148.559715
21
-18.702503
31
0
39
0
210
0
220
0
230
1
0
SOLID
5
113
100
AcDbEntity
8
SK2
62
256
6
ByLayer
370
13
48
1
60
0
100
AcDbTrace
10
135
20
-18.702503
30
0
11
138.499998
21
-18.241719
31
0
12
138.500002
22
-19.163287
32
0
13
135
23
-18.702503
33
0
39
0
210
0
220
0
230
1
0
SOLID
5
114
100
AcDbEntity
8
SK2
62
256
6
ByLayer
370
13
48
1
60
0
100
AcDbTrace
10
133.2447
20
-18.702503
30
0
11
129.744702
21
-19.163287
31
0
12
129.744698
22
-18.241719
32
0
13
133.2447
23
-18.702503
33
0
39
0
210
0
220
0
230
1
0
ENDBLK
5
116
100
AcDbEntity
8
0
100
AcDbBlockEnd
0
BLOCK
5
11F
100
AcDbEntity
8
0
100
AcDbBlockBegin
2
DimnDraft3D5
70
0
10
0
20
0
30
0
3
DimnDraft3D5
0
MTEXT
5
119
100
AcDbEntity
8
SK2
62
256
6
ByLayer
370
13
48
1
60
0
100
AcDbMText
10
36.002087
20
-23.468428
30
0
210
0
220
0
230
1
1
\W0.7079;178,24
40
3.5
41
0
44
1.084337
50
0
71
7
72
5
7
iso_b_vert
0
LINE
5
11A
100
AcDbEntity
8
SK2
62
256
6
ByLayer
370
13
48
1
60
0
100
AcDbLine
10
-45
20
-7.5875
30
0
11
-45
21
-26.343428
31
0
39
0
210
0
220
0
230
1
0
LINE
5
11B
100
AcDbEntity
8
SK2
62
256
6
ByLayer
370
13
48
1
60
0
100
AcDbLine
10
133.2447
20
-7.4875
30
0
11
133.2447
21
-26.343428
31
0
39
0
210
0
220
0
230
1
0
LINE
5
11C
100
AcDbEntity
8
SK2
62
256
6
ByLayer
370
13
48
1
60
0
100
AcDbLine
10
-45
20
-24.343428
30
0
11
133.2447
21
-24.343428
31
0
39
0
210
0
220
0
230
1
0
SOLID
5
11D
100
AcDbEntity
8
SK2
62
256
6
ByLayer
370
13
48
1
60
0
100
AcDbTrace
10
-45
20
-24.343428
30
0
11
-41.500002
21
-23.882645
31
0
12
-41.499998
22
-24.804212
32
0
13
-45
23
-24.343428
33
0
39
0
210
0
220
0
230
1
0
SOLID
5
11E
100
AcDbEntity
8
SK2
62
256
6
ByLayer
370
13
48
1
60
0
100
AcDbTrace
10
133.2447
20
-24.343428
30
0
11
129.744702
21
-24.804212
31
0
12
129.744698
22
-23.882645
32
0
13
133.2447
23
-24.343428
33
0
39
0
210
0
220
0
230
1
0
ENDBLK
5
120
100
AcDbEntity
8
0
100
AcDbBlockEnd
0
BLOCK
5
12A
100
AcDbEntity
8
0
100
AcDbBlockBegin
2
DimnDraft3D6
70
0
10
0
20
0
30
0
3
DimnDraft3D6
0
MTEXT
5
123
100
AcDbEntity
8
SK2
62
256
6
ByLayer
370
13
48
1
60
0
100
AcDbMText
10
-55.375163
20
25.34918
30
0
210
0
220
0
230
1
1
\W0.6930;12,000
40
3.5
41
0
44
1.084337
50
90
71
7
72
5
7
iso_b_vert
0
MTEXT
5
124
100
AcDbEntity
8
SK2
62
256
6
ByLayer
370
13
48
1
60
0
100
AcDbMText
10
-55.375163
20
20.126524
30
0
210
0
220
0
230
1
1
%%c
40
3.5
41
0
44
1.084337
50
90
71
7
72
5
7
iso_b_vert
0
LINE
5
125
100
AcDbEntity
8
SK2
62
256
6
ByLayer
370
13
48
1
60
0
100
AcDbLine
10
-46.5875
20
-6
30
0
11
-55.625163
21
-6
31
0
39
0
210
0
220
0
230
1
0
LINE
5
126
100
AcDbEntity
8
SK2
62
256
6
ByLayer
370
13
48
1
60
0
100
AcDbLine
10
-46.5875
20
6
30
0
11
-55.625163
21
6
31
0
39
0
210
0
220
0
230
1
0
LINE
5
127
100
AcDbEntity
8
SK2
62
256
6
ByLayer
370
13
48
1
60
0
100
AcDbLine
10
-53.625163
20
-6
30
0
11
-53.625163
21
36.862338
31
0
39
0
210
0
220
0
230
1
0
SOLID
5
128
100
AcDbEntity
8
SK2
62
256
6
ByLayer
370
13
48
1
60
0
100
AcDbTrace
10
-53.625163
20
-6
30
0
11
-54.085946
21
-2.500002
31
0
12
-53.164379
22
-2.499998
32
0
13
-53.625163
23
-6
33
0
39
0
210
0
220
0
230
1
0
SOLID
5
129
100
AcDbEntity
8
SK2
62
256
6
ByLayer
370
13
48
1
60
0
100
AcDbTrace
10
-53.625163
20
6
30
0
11
-53.164379
21
2.500002
31
0
12
-54.085946
22
2.499998
32
0
13
-53.625163
23
6
33
0
39
0
210
0
220
0
230
1
0
ENDBLK
5
12B
100
AcDbEntity
8
0
100
AcDbBlockEnd
0
BLOCK
5
135
100
AcDbEntity
8
0
100
AcDbBlockBegin
2
DimnDraft3D7
70
0
10
0
20
0
30
0
3
DimnDraft3D7
0
MTEXT
5
12E
100
AcDbEntity
8
2
62
256
6
ByLayer
370
13
48
1
60
0
100
AcDbMText
10
145.333343
20
23.842266
30
0
210
0
220
0
230
1
1
\W0.6440;11,800
40
3.5
41
0
44
1.084337
50
90
71
7
72
5
7
iso_b_vert
0
MTEXT
5
12F
100
AcDbEntity
8
2
62
256
6
ByLayer
370
13
48
1
60
0
100
AcDbMText
10
145.333343
20
18.61961
30
0
210
0
220
0
230
1
1
%%c
40
3.5
41
0
44
1.084337
50
90
71
7
72
5
7
iso_b_vert
0
LINE
5
130
100
AcDbEntity
8
2
62
256
6
ByLayer
370
13
48
1
60
0
100
AcDbLine
10
134.8322
20
-5.9
30
0
11
149.083343
21
-5.9
31
0
39
0
210
0
220
0
230
1
0
LINE
5
131
100
AcDbEntity
8
2
62
256
6
ByLayer
370
13
48
1
60
0
100
AcDbLine
10
134.8322
20
5.9
30
0
11
149.083343
21
5.9
31
0
39
0
210
0
220
0
230
1
0
LINE
5
132
100
AcDbEntity
8
2
62
256
6
ByLayer
370
13
48
1
60
0
100
AcDbLine
10
147.083343
20
-5.9
30
0
11
147.083343
21
34.480424
31
0
39
0
210
0
220
0
230
1
0
SOLID
5
133
100
AcDbEntity
8
2
62
256
6
ByLayer
370
13
48
1
60
0
100
AcDbTrace
10
147.083343
20
-5.9
30
0
11
146.622559
21
-2.400002
31
0
12
147.544126
22
-2.399998
32
0
13
147.083343
23
-5.9
33
0
39
0
210
0
220
0
230
1
0
SOLID
5
134
100
AcDbEntity
8
2
62
256
6
ByLayer
370
13
48
1
60
0
100
AcDbTrace
10
147.083343
20
5.9
30
0
11
147.544126
21
2.400002
31
0
12
146.622559
22
2.399998
32
0
13
147.083343
23
5.9
33
0
39
0
210
0
220
0
230
1
0
ENDBLK
5
136
100
AcDbEntity
8
0
100
AcDbBlockEnd
0
ENDSEC
0
SECTION
2
ENTITIES
0
ARC
5
9A
100
AcDbEntity
8
1
62
256
6
ByLayer
370
18
48
1
60
0
100
AcDbCircle
39
0
10
-0.066667
20
-5.883521
30
0
40
0.0666670000000025
210
0
220
0
230
-1
100
AcDbArc
50
0
51
90.03581
0
ARC
5
9B
100
AcDbEntity
8
1
62
256
6
ByLayer
370
18
48
1
60
0
100
AcDbCircle
39
0
10
-0.066667
20
5.883521
30
0
40
0.0666670000000025
210
0
220
0
230
-1
100
AcDbArc
50
269.96419
51
0
0
ELLIPSE
5
9C
100
AcDbEntity
8
1
62
256
6
ByLayer
370
18
48
1
60
0
100
AcDbEllipse
10
7.349561
20
-5.776324
30
0
11
0.25
21
0
31
0
210
0
220
0
230
1
40
0.999997
41
1.58104068411154
42
3.13940762117953
0
ELLIPSE
5
9D
100
AcDbEntity
8
1
62
256
6
ByLayer
370
18
48
1
60
0
100
AcDbEllipse
10
7.349561
20
5.776324
30
0
11
0.25
21
0
31
0
210
0
220
0
230
1
40
0.999997
41
-3.13940762117952
42
-1.55969963331937
0
POINT
5
6C
100
AcDbEntity
8
81
62
256
6
ByLayer
370
18
48
1
60
0
100
AcDbPoint
10
135
20
0
30
0
39
0
210
0
220
0
230
1
50
360
0
POINT
5
6E
100
AcDbEntity
8
80
62
256
6
ByLayer
370
18
48
1
60
0
100
AcDbPoint
10
0
20
0
30
0
39
0
210
0
220
0
230
1
50
360
0
POINT
5
70
100
AcDbEntity
8
SK2
62
256
6
ByLayer
370
18
48
1
60
1
100
AcDbPoint
10
-45
20
-6
30
0
39
0
210
0
220
0
230
1
50
360
0
POINT
5
72
100
AcDbEntity
8
SK2
62
256
6
ByLayer
370
18
48
1
60
1
100
AcDbPoint
10
-45
20
6
30
0
39
0
210
0
220
0
230
1
50
360
0
POINT
5
73
100
AcDbEntity
8
2
62
256
6
ByLayer
370
18
48
1
60
1
100
AcDbPoint
10
133.2447
20
-5.9
30
0
39
0
210
0
220
0
230
1
50
360
0
POINT
5
75
100
AcDbEntity
8
2
62
256
6
ByLayer
370
18
48
1
60
1
100
AcDbPoint
10
133.2447
20
5.9
30
0
39
0
210
0
220
0
230
1
50
360
0
SPLINE
5
9E
100
AcDbEntity
8
1
62
256
6
ByLayer
370
18
48
1
60
0
100
AcDbSpline
70
4
71
3
72
21
73
17
40
0
40
0
40
0
40
0
40
0.0908142949301666
40
0.168157084414606
40
0.228044341862067
40
0.275868080054543
40
0.31619149348666
40
0.382477455370581
40
0.459386883754699
40
0.53133773403927
40
0.60300871956109
40
0.67251384038174
40
0.746656340388438
40
0.829797700343084
40
0.929553647292025
40
1
40
1
40
1
40
1
41
1
10
34.5897594912974
20
-5.54315068427667
30
0
41
1
10
34.8612805509631
20
-5.5428155452833
30
0
41
1
10
35.3641308140424
20
-5.54261837341841
30
0
41
1
10
36.057965202406
20
-5.5431989899827
30
0
41
1
10
36.6043191894663
20
-5.54468403354841
30
0
41
1
10
37.0511527400464
20
-5.54436951335387
30
0
41
1
10
37.5168825383476
20
-5.54475009742785
30
0
41
1
10
38.0706963457157
20
-5.54545919985327
30
0
41
1
10
38.7200615024769
20
-5.54557448935174
30
0
41
1
10
39.3855215537957
20
-5.54553141482134
30
0
41
1
10
40.0288120835883
20
-5.54653118719241
30
0
41
1
10
40.6784684197568
20
-5.54658010855738
30
0
41
1
10
41.3629718772119
20
-5.54687044139089
30
0
41
1
10
42.1387198774276
20
-5.54772309648899
30
0
41
1
10
42.9033287630036
20
-5.54702151699305
30
0
41
1
10
43.4170048008463
20
-5.5475393895305
30
0
41
1
10
43.6296141052855
20
-5.54779955167132
30
0
0
SPLINE
5
9F
100
AcDbEntity
8
1
62
256
6
ByLayer
370
18
48
1
60
0
100
AcDbSpline
70
4
71
3
72
23
73
19
40
0
40
0
40
0
40
0
40
0.0897339807650859
40
0.165651105634426
40
0.218936965350008
40
0.258993451632707
40
0.291966610880935
40
0.323358382042784
40
0.357622426323705
40
0.416577931897594
40
0.488669817982861
40
0.55702271110848
40
0.617178287500745
40
0.696795187596545
40
0.778824648883256
40
0.850867319856773
40
0.921380450974274
40
1
40
1
40
1
40
1
41
1
10
99.9005560428166
20
-5.58392939601043
30
0
41
1
10
100.170190749674
20
-5.58400471683194
30
0
41
1
10
100.667895318298
20
-5.58419419092886
30
0
41
1
10
101.327391483341
20
-5.58446817443655
30
0
41
1
10
101.834796151638
20
-5.58488507362509
30
0
41
1
10
102.212565776435
20
-5.58480724287011
30
0
41
1
10
102.527104839396
20
-5.58514670361498
30
0
41
1
10
102.822837044286
20
-5.5855074017758
30
0
41
1
10
103.198044008657
20
-5.5857602710476
30
0
41
1
10
103.69517732733
20
-5.58559296084192
30
0
41
1
10
104.295101499851
20
-5.58560564671836
30
0
41
1
10
104.898568549956
20
-5.58662000503747
30
0
41
1
10
105.524678279618
20
-5.58661774529563
30
0
41
1
10
106.19193306281
20
-5.58681382981365
30
0
41
1
10
106.894957221726
20
-5.58792762408032
30
0
41
1
10
107.570593101465
20
-5.58715064719419
30
0
41
1
10
108.235966837389
20
-5.588014401832
30
0
41
1
10
108.684612452818
20
-5.58827757761389
30
0
41
1
10
108.921128878401
20
-5.58845859589545
30
0
0
SPLINE
5
A0
100
AcDbEntity
8
1
62
256
6
ByLayer
370
18
48
1
60
0
100
AcDbSpline
70
4
71
3
72
22
73
18
40
0
40
0
40
0
40
0
40
0.0835459215041743
40
0.15296483496069
40
0.213586490479701
40
0.275507488941453
40
0.331712961466529
40
0.390153389901522
40
0.469540707789737
40
0.544819982802209
40
0.604196967582598
40
0.676522695337637
40
0.750591460298504
40
0.808425609137393
40
0.862566765483092
40
0.932527867093988
40
1
40
1
40
1
40
1
41
1
10
67.1654646485241
20
-5.56340242527259
30
0
41
1
10
67.4114884242382
20
-5.56229432699894
30
0
41
1
10
67.8647058404183
20
-5.56127474242504
30
0
41
1
10
68.5238490664285
20
-5.56196304414394
30
0
41
1
10
69.089296867015
20
-5.56534127476326
30
0
41
1
10
69.6141581996454
20
-5.56355494239395
30
0
41
1
10
70.1582469496465
20
-5.562176435298
30
0
41
1
10
70.7269638136336
20
-5.56650623120939
30
0
41
1
10
71.3819273924947
20
-5.56520897178052
30
0
41
1
10
72.0316452133069
20
-5.56623562496762
30
0
41
1
10
72.6619483299418
20
-5.56670870041802
30
0
41
1
10
73.2880902645226
20
-5.56633417072965
30
0
41
1
10
73.9096670721744
20
-5.56716295881824
30
0
41
1
10
74.4758811005129
20
-5.56779534842275
30
0
41
1
10
75.0295637347248
20
-5.56757715486671
30
0
41
1
10
75.6127155430309
20
-5.56730061926672
30
0
41
1
10
76.0306932341154
20
-5.56794936313364
30
0
41
1
10
76.2358472581103
20
-5.56840014210263
30
0
0
SPLINE
5
A1
100
AcDbEntity
8
1
62
256
6
ByLayer
370
18
48
1
60
0
100
AcDbSpline
70
4
71
1
72
4
73
2
40
0
40
0
40
1
40
1
41
1
10
132.561732302761
20
-5.60475815754103
30
0
41
1
10
132.94576723787
20
-5.60495023593217
30
0
0
SPLINE
5
A2
100
AcDbEntity
8
1
62
256
6
ByLayer
370
18
48
1
60
0
100
AcDbSpline
70
4
71
3
72
16
73
12
40
0
40
0
40
0
40
0
40
0.126176550997132
40
0.235872570205779
40
0.354346000461232
40
0.484709665816238
40
0.612503856243334
40
0.762242726443471
40
0.870928273602384
40
0.960609671588231
40
1
40
1
40
1
40
1
41
1
10
108.921474001144
20
5.58845074269144
30
0
41
1
10
108.668689405817
20
5.58821831478937
30
0
41
1
10
108.196137827626
20
5.58789639978963
30
0
41
1
10
107.48623725095
20
5.58721359883259
30
0
41
1
10
106.767943665
20
5.58791681907269
30
0
41
1
10
106.01339011615
20
5.58649974802802
30
0
41
1
10
105.196213211946
20
5.58687356359823
30
0
41
1
10
104.422474711878
20
5.58572616463186
30
0
41
1
10
103.725019301572
20
5.58556124646219
30
0
41
1
10
103.248845237162
20
5.58575125255939
30
0
41
1
10
102.990092151845
20
5.58562053829249
30
0
41
1
10
102.911170308673
20
5.58556059808174
30
0
0
SPLINE
5
A3
100
AcDbEntity
8
1
62
256
6
ByLayer
370
18
48
1
60
0
100
AcDbSpline
70
4
71
3
72
20
73
16
40
0
40
0
40
0
40
0
40
0.018826280656658
40
0.125110924237676
40
0.228837215112863
40
0.346528188563598
40
0.474534474684554
40
0.576553087667218
40
0.651100543996586
40
0.719378412549466
40
0.804192939148667
40
0.884243597307058
40
0.952878734257846
40
0.999228152107646
40
1
40
1
40
1
40
1
41
1
10
43.6289584320459
20
5.54786134561533
30
0
41
1
10
43.5911284119315
20
5.54784783536655
30
0
41
1
10
43.3397275078198
20
5.54775713081639
30
0
41
1
10
42.8798939833475
20
5.54692941100123
30
0
41
1
10
42.2214216172903
20
5.54755813178579
30
0
41
1
10
41.5192247817909
20
5.54717849782045
30
0
41
1
10
40.8207485317532
20
5.54649649493481
30
0
41
1
10
40.2080890630504
20
5.54668870130209
30
0
41
1
10
39.7192892779378
20
5.54555999076115
30
0
41
1
10
39.2608447883206
20
5.54504392031635
30
0
41
1
10
38.793960343687
20
5.54548656703838
30
0
41
1
10
38.325384371342
20
5.54550959359028
30
0
41
1
10
37.9333972785831
20
5.54526755108552
30
0
41
1
10
37.7008054930387
20
5.54498666242912
30
0
41
1
10
37.6061212720001
20
5.54489433469999
30
0
41
1
10
37.6045703407217
20
5.54489282826
30
0
0
SPLINE
5
A4
100
AcDbEntity
8
1
62
256
6
ByLayer
370
18
48
1
60
0
100
AcDbSpline
70
4
71
3
72
15
73
11
40
0
40
0
40
0
40
0
40
0.152439631544505
40
0.317300801936784
40
0.448234654045142
40
0.554750952837871
40
0.667175933154774
40
0.801923747538189
40
0.942479880989217
40
1
40
1
40
1
40
1
41
1
10
7.34966655992241
20
-5.52636580919892
30
0
41
1
10
7.54181725792898
20
-5.5264475572553
30
0
41
1
10
7.9417746045109
20
-5.52662334375569
30
0
41
1
10
8.50680373828405
20
-5.52697124751916
30
0
41
1
10
9.01388513484679
20
-5.52716365094946
30
0
41
1
10
9.45492132732596
20
-5.5272015197128
30
0
41
1
10
9.90076479051311
20
-5.52714020034099
30
0
41
1
10
10.3895219579547
20
-5.52717620577278
30
0
41
1
10
10.8090576753332
20
-5.52756476195228
30
0
41
1
10
11.0587430588253
20
-5.52778523282427
30
0
41
1
10
11.1312501793064
20
-5.52785408510161
30
0
0
SPLINE
5
A5
100
AcDbEntity
8
1
62
256
6
ByLayer
370
18
48
1
60
0
100
AcDbSpline
70
4
71
3
72
15
73
11
40
0
40
0
40
0
40
0
40
0.102748836494188
40
0.268654811268556
40
0.382783590386048
40
0.478721729434373
40
0.582388515832709
40
0.707168075294098
40
0.863756057067471
40
1
40
1
40
1
40
1
41
1
10
11.1335539347747
20
5.52785856068905
30
0
41
1
10
11.0039552177983
20
5.52772062209817
30
0
41
1
10
10.6650962631045
20
5.52741688082872
30
0
41
1
10
10.1822874018358
20
5.52711577030118
30
0
41
1
10
9.70806015140656
20
5.5271704228542
30
0
41
1
10
9.31234369149635
20
5.52720238703458
30
0
41
1
10
8.90319238538785
20
5.52712779962806
30
0
41
1
10
8.41760881856914
20
5.526922091708
30
0
41
1
10
7.89084164715976
20
5.52659487273922
30
0
41
1
10
7.5215056437421
20
5.52643450418088
30
0
41
1
10
7.34966686894938
20
5.52636390381238
30
0
0
SPLINE
5
A6
100
AcDbEntity
8
1
62
256
6
ByLayer
370
18
48
1
60
0
100
AcDbSpline
70
4
71
3
72
16
73
12
40
0
40
0
40
0
40
0
40
0.115013930822154
40
0.229998253823211
40
0.318436079618512
40
0.42583677831896
40
0.553257750504833
40
0.670825288302337
40
0.814967800580572
40
0.927536273674701
40
1
40
1
40
1
40
1
41
1
10
76.2359108345729
20
5.56840120711553
30
0
41
1
10
76.0101306445446
20
5.56789200045537
30
0
41
1
10
75.5585292112033
20
5.56718219832231
30
0
41
1
10
74.9327847741991
20
5.56766064006737
30
0
41
1
10
74.3221449943231
20
5.56781662794637
30
0
41
1
10
73.6869902322259
20
5.56652374235495
30
0
41
1
10
72.9948074222198
20
5.56662868052462
30
0
41
1
10
72.2296796878449
20
5.56656541203213
30
0
41
1
10
71.4967936297254
20
5.56526652731802
30
0
41
1
10
70.8432729582761
20
5.56606984624759
30
0
41
1
10
70.4921934290782
20
5.56460398462323
30
0
41
1
10
70.3522415083427
20
5.56400576559568
30
0
0
SPLINE
5
A7
100
AcDbEntity
8
1
62
256
6
ByLayer
370
13
48
1
60
0
100
AcDbSpline
70
4
71
3
72
29
73
25
40
0
40
0
40
0
40
0
40
0.0217759152695702
40
0.0217759152695702
40
0.0662406463936808
40
0.0662406463936808
40
0.110705377517791
40
0.110705377517791
40
0.288564302014233
40
0.288564302014233
40
0.333029033138344
40
0.333029033138344
40
0.377493764262454
40
0.377493764262454
40
0.466423226510675
40
0.466423226510675
40
0.644282151007116
40
0.644282151007116
40
0.733211613255337
40
0.733211613255337
40
0.822141075503558
40
0.911070537751779
40
0.911070537751779
40
1
40
1
40
1
40
1
41
1
10
7.34966733353315
20
-5.52634542984163
30
0
41
1
10
7.34966522343183
20
-5.52633020539358
30
0
41
1
10
7.34966313965953
20
-5.52565406666187
30
0
41
1
10
7.34965689868085
20
-5.52157090754889
30
0
41
1
10
7.34965285035304
20
-5.51602955684689
30
0
41
1
10
7.34964520662072
20
-5.49952657298385
30
0
41
1
10
7.34964159836301
20
-5.48856023813499
30
0
41
1
10
7.34962479964031
20
-5.42037824714183
30
0
41
1
10
7.34961538160408
20
-5.3235851313114
30
0
41
1
10
7.34961090054014
20
-5.14856757236393
30
0
41
1
10
7.34961036771705
20
-5.11076464522881
30
0
41
1
10
7.34961007010827
20
-5.0303093424256
30
0
41
1
10
7.34961030244074
20
-4.98759430917752
30
0
41
1
10
7.34961215871323
20
-4.85201880885259
30
0
41
1
10
7.349614964892
20
-4.75128532965459
30
0
41
1
10
7.34962790374556
20
-4.42251288180699
30
0
41
1
10
7.34964249707372
20
-4.16951803385018
30
0
41
1
10
7.34967134677296
20
-3.73976331009783
30
0
41
1
10
7.34968217420106
20
-3.58726562007817
30
0
41
1
10
7.34970511133165
20
-3.27176704037902
30
0
41
1
10
7.34972939622159
20
-2.94465731461793
30
0
41
1
10
7.34975494654648
20
-2.59477977123635
30
0
41
1
10
7.34978034419726
20
-2.23333717960941
30
0
41
1
10
7.34979303359918
20
-2.04571122977171
30
0
41
1
10
7.34980495910355
20
-1.85584546701921
30
0
0
SPLINE
5
A8
100
AcDbEntity
8
1
62
256
6
ByLayer
370
18
48
1
60
0
100
AcDbSpline
70
4
71
3
72
20
73
16
40
0
40
0
40
0
40
0
40
0.11170104038579
40
0.11170104038579
40
0.324060441157659
40
0.324060441157659
40
0.536419841929528
40
0.536419841929528
40
0.642599542315461
40
0.642599542315461
40
0.748779242701394
40
0.748779242701394
40
0.961138643473263
40
0.961138643473263
40
1
40
1
40
1
40
1
41
1
10
18.0774377717001
20
-0.0034414445823074
30
0
41
1
10
18.4213191942859
20
-0.189711192503722
30
0
41
1
10
18.7645688568548
20
-0.375716929933049
30
0
41
1
10
19.7596016413373
20
-0.912621991625883
30
0
41
1
10
20.4106714442418
20
-1.26107225011168
30
0
41
1
10
21.7169965595987
20
-1.93984334791901
30
0
41
1
10
22.3718799864721
20
-2.27079655597012
30
0
41
1
10
23.3606669312609
20
-2.74739827356828
30
0
41
1
10
23.6916747074674
20
-2.90308333728939
30
0
41
1
10
24.3500372113567
20
-3.20352668560162
30
0
41
1
10
24.6782031556614
20
-3.34866291166208
30
0
41
1
10
25.6606445160199
20
-3.76749620554304
30
0
41
1
10
26.3126511472449
20
-4.02480305825824
30
0
41
1
10
27.0837268103396
20
-4.29942009169352
30
0
41
1
10
27.2029959150244
20
-4.34105820008466
30
0
41
1
10
27.3222722395843
20
-4.38183481580688
30
0
0
SPLINE
5
A9
100
AcDbEntity
8
1
62
256
6
ByLayer
370
13
48
1
60
0
100
AcDbSpline
70
4
71
3
72
14
73
10
40
0
40
0
40
0
40
0
40
0.178579420418181
40
0.178579420418181
40
0.39715823156168
40
0.39715823156168
40
0.834315853848675
40
0.834315853848675
40
1
40
1
40
1
40
1
41
1
10
27.3222712932941
20
-4.38183449230163
30
0
41
1
10
27.854785418813
20
-4.56388341421803
30
0
41
1
10
28.3874434510068
20
-4.72876095098039
30
0
41
1
10
29.575527308658
20
-5.0534827646907
30
0
41
1
10
30.2320150146957
20
-5.20391755838619
30
0
41
1
10
32.214705096014
20
-5.56097466004138
30
0
41
1
10
33.5168315059558
20
-5.66608209942336
30
0
41
1
10
35.3141322999037
20
-5.6273587324458
30
0
41
1
10
35.8083127948694
20
-5.59758265215825
30
0
41
1
10
36.3037658411851
20
-5.54875896694446
30
0
0
SPLINE
5
AA
100
AcDbEntity
8
1
62
256
6
ByLayer
370
18
48
1
60
0
100
AcDbSpline
70
4
71
3
72
20
73
16
40
0
40
0
40
0
40
0
40
0.0598215684368571
40
0.0598215684368571
40
0.16588836125811
40
0.16588836125811
40
0.271955154079364
40
0.271955154079364
40
0.696222325364352
40
0.696222325364352
40
0.908355911006849
40
0.908355911006849
40
0.961389307417478
40
0.961389307417478
40
1
40
1
40
1
40
1
41
1
10
83.3570190163292
20
0.0073290878667933
30
0
41
1
10
83.5413098411174
20
-0.093267861931281
30
0
41
1
10
83.7258117057062
20
-0.193981295785449
30
0
41
1
10
84.2382031622293
20
-0.473268321085953
30
0
41
1
10
84.5666631387441
20
-0.65187533023618
30
0
41
1
10
85.2259247341126
20
-1.00795434264762
30
0
41
1
10
85.555869363365
20
-1.18495117932409
30
0
41
1
10
87.1972349692168
20
-2.05540857451564
30
0
41
1
10
88.4948243551028
20
-2.71092986586106
30
0
41
1
10
90.4492611298007
20
-3.58144331836556
30
0
41
1
10
91.1020077172906
20
-3.85298621457744
30
0
41
1
10
91.9230284103066
20
-4.16352616321797
30
0
41
1
10
92.0874721301857
20
-4.22420649689406
30
0
41
1
10
92.3721386677274
20
-4.3264700872617
30
0
41
1
10
92.4922909331966
20
-4.36877902874778
30
0
41
1
10
92.612322072179
20
-4.41016426917989
30
0
0
SPLINE
5
AB
100
AcDbEntity
8
1
62
256
6
ByLayer
370
13
48
1
60
0
100
AcDbSpline
70
4
71
3
72
22
73
18
40
0
40
0
40
0
40
0
40
0.0148253268183956
40
0.0148253268183956
40
0.123853070674998
40
0.123853070674998
40
0.559964046101406
40
0.559964046101406
40
0.778019533814611
40
0.778019533814611
40
0.832533405742914
40
0.832533405742914
40
0.887047277671216
40
0.887047277671216
40
0.99607502152783
40
0.99607502152783
40
1
40
1
40
1
40
1
41
1
10
92.6123220713695
20
-4.41016426890076
30
0
41
1
10
92.6571587076049
20
-4.42562338214987
30
0
41
1
10
92.7019784426493
20
-4.44095360824579
30
0
41
1
10
93.0761201239371
20
-4.56788357083173
30
0
41
1
10
93.4043716921662
20
-4.67249807288326
30
0
41
1
10
95.0413808297149
20
-5.15890353399911
30
0
41
1
10
96.3377270491055
20
-5.43059321235609
30
0
41
1
10
98.294203520416
20
-5.64173321323426
30
0
41
1
10
98.948232981859
20
-5.67943045610892
30
0
41
1
10
99.7715965407108
20
-5.68378596863229
30
0
41
1
10
99.9367224699839
20
-5.6825067117131
30
0
41
1
10
100.266104344361
20
-5.6756751808795
30
0
41
1
10
100.430505203853
20
-5.67012765208287
30
0
41
1
10
100.922964996962
20
-5.6471677255733
30
0
41
1
10
101.250276579643
20
-5.62344649294184
30
0
41
1
10
101.588661125816
20
-5.59032313487918
30
0
41
1
10
101.600418746084
20
-5.58916147643677
30
0
41
1
10
101.612175524173
20
-5.58798916866167
30
0
0
SPLINE
5
AC
100
AcDbEntity
8
1
62
256
6
ByLayer
370
18
48
1
60
0
100
AcDbSpline
70
4
71
3
72
18
73
14
40
0
40
0
40
0
40
0
40
0.249999999999997
40
0.249999999999997
40
0.374999999999999
40
0.374999999999999
40
0.500000000000001
40
0.500000000000001
40
0.749999999999999
40
0.749999999999999
40
0.874999999999999
40
0.874999999999999
40
1
40
1
40
1
40
1
41
1
10
132.905482339199
20
-5.59927152513049
30
0
41
1
10
132.783484016395
20
-5.58524743086625
30
0
41
1
10
132.670516208443
20
-5.54533871139833
30
0
41
1
10
132.515807303998
20
-5.44321757134441
30
0
41
1
10
132.466542818484
20
-5.40184027511378
30
0
41
1
10
132.375131001349
20
-5.30595920248839
30
0
41
1
10
132.332754794554
20
-5.25137544817727
30
0
41
1
10
132.215661404469
20
-5.06760250549627
30
0
41
1
10
132.15088937255
20
-4.91857135736791
30
0
41
1
10
132.075315484367
20
-4.65196123551738
30
0
41
1
10
132.053742492818
20
-4.55554947590784
30
0
41
1
10
132.018988887213
20
-4.35172168015825
30
0
41
1
10
132.005663147962
20
-4.24390505553023
30
0
41
1
10
131.996419978173
20
-4.13013979749041
30
0
0
SPLINE
5
AD
100
AcDbEntity
8
1
62
256
6
ByLayer
370
18
48
1
60
0
100
AcDbSpline
70
4
71
3
72
8
73
4
40
0
40
0
40
0
40
0
40
1
40
1
40
1
40
1
41
1
10
134.849822941077
20
-0.257239625733803
30
0
41
1
10
134.201709407118
20
-2.03791692553213
30
0
41
1
10
133.553595873159
20
-3.8185942253302
30
0
41
1
10
132.9054823392
20
-5.59927152512898
30
0
0
SPLINE
5
AE
100
AcDbEntity
8
1
62
256
6
ByLayer
370
18
48
1
60
0
100
AcDbSpline
70
4
71
3
72
28
73
24
40
0
40
0
40
0
40
0
40
0.250000000000044
40
0.250000000000044
40
0.375000000000063
40
0.375000000000063
40
0.406250000000069
40
0.406250000000069
40
0.437500000000074
40
0.437500000000074
40
0.453125000000076
40
0.453125000000076
40
0.468750000000079
40
0.468750000000079
40
0.500000000000074
40
0.500000000000074
40
0.562500000000065
40
0.562500000000065
40
0.625000000000055
40
0.625000000000055
40
0.750000000000036
40
0.750000000000036
40
1
40
1
40
1
40
1
41
1
10
7.2293471455545
20
-0.0231986529123844
30
0
41
1
10
7.21735189913238
20
-0.0816527561306089
30
0
41
1
10
7.20456938698831
20
-0.139832098277083
30
0
41
1
10
7.184509113422
20
-0.226506538738221
30
0
41
1
10
7.17782354796984
20
-0.255484917968005
30
0
41
1
10
7.16695432495618
20
-0.290088335029992
30
0
41
1
10
7.16463610252146
20
-0.296929045143088
30
0
41
1
10
7.15922045258944
20
-0.30978704771033
30
0
41
1
10
7.15609184970205
20
-0.316553928019829
30
0
41
1
10
7.1495744918843
20
-0.320747601258972
30
0
41
1
10
7.14718435077805
20
-0.320465543954384
30
0
41
1
10
7.14337944675179
20
-0.317261997733965
30
0
41
1
10
7.14185997026451
20
-0.314708836384284
30
0
41
1
10
7.13791147478599
20
-0.306418076995158
30
0
41
1
10
7.13605560890454
20
-0.300064324897221
30
0
41
1
10
7.13106454911093
20
-0.280596852510769
30
0
41
1
10
7.12865818854686
20
-0.266827390852626
30
0
41
1
10
7.12438153507003
20
-0.239258454554602
30
0
41
1
10
7.12256483475858
20
-0.225310756576164
30
0
41
1
10
7.11761802041542
20
-0.183221971212078
30
0
41
1
10
7.1149930667425
20
-0.154825639951383
30
0
41
1
10
7.10817531225166
20
-0.0692177307303439
30
0
41
1
10
7.10527541594956
20
-0.0116677001747121
30
0
41
1
10
7.10331961765073
20
0.0461127432282069
30
0
0
SPLINE
5
AF
100
AcDbEntity
8
1
62
256
6
ByLayer
370
18
48
1
60
0
100
AcDbSpline
70
4
71
3
72
32
73
28
40
0
40
0
40
0
40
0
40
0.125000000000032
40
0.125000000000032
40
0.250000000000064
40
0.250000000000064
40
0.31250000000008
40
0.31250000000008
40
0.328125000000086
40
0.328125000000086
40
0.335937500000087
40
0.335937500000087
40
0.343750000000088
40
0.343750000000088
40
0.351562500000089
40
0.351562500000089
40
0.35937500000009
40
0.35937500000009
40
0.375000000000091
40
0.375000000000091
40
0.437500000000083
40
0.437500000000083
40
0.500000000000076
40
0.500000000000076
40
0.750000000000038
40
0.750000000000038
40
1
40
1
40
1
40
1
41
1
10
7.09956120717283
20
-1.45758125918272
30
0
41
1
10
7.09956120717283
20
-1.39321926037383
30
0
41
1
10
7.10076837013389
20
-1.3289131484423
30
0
41
1
10
7.10599244528839
20
-1.20043128953779
30
0
41
1
10
7.10982332173685
20
-1.13611185230704
30
0
41
1
10
7.11960010926214
20
-1.04029962648099
30
0
41
1
10
7.12318110008192
20
-1.00823982061422
30
0
41
1
10
7.13136766545176
20
-0.969664573594315
30
0
41
1
10
7.13320931500246
20
-0.961993723089847
30
0
41
1
10
7.13690287929902
20
-0.951386361708501
30
0
41
1
10
7.13830548052314
20
-0.947937142523074
30
0
41
1
10
7.14184881294983
20
-0.942261054984982
30
0
41
1
10
7.14412972019883
20
-0.940157084708687
30
0
41
1
10
7.14881832850858
20
-0.940468916276814
30
0
41
1
10
7.1508771898223
20
-0.942545972717312
30
0
41
1
10
7.15435562923722
20
-0.947489908326844
30
0
41
1
10
7.15581963930239
20
-0.950393530136978
30
0
41
1
10
7.15990308861157
20
-0.959589154519932
30
0
41
1
10
7.16216798008321
20
-0.966332400135229
30
0
41
1
10
7.17265091436747
20
-1.00042035251926
30
0
41
1
10
7.1788689616416
20
-1.02972694179852
30
0
41
1
10
7.19129273245153
20
-1.08817956408402
30
0
41
1
10
7.19717824093345
20
-1.11765484469032
30
0
41
1
10
7.2263927065207
20
-1.26530213045425
30
0
41
1
10
7.24939522715013
20
-1.3840743973328
30
0
41
1
10
7.29815266516499
20
-1.62043467327464
30
0
41
1
10
7.32358729392789
20
-1.73824217815573
30
0
41
1
10
7.34980495910364
20
-1.85584546701944
30
0
0
SPLINE
5
B0
100
AcDbEntity
8
1
62
256
6
ByLayer
370
18
48
1
60
0
100
AcDbSpline
70
4
71
3
72
10
73
6
40
0
40
0
40
0
40
0
40
0.5
40
0.5
40
1
40
1
40
1
40
1
41
1
10
134.976951504897
20
0.146274806009188
30
0
41
1
10
134.978811943991
20
0.131257215262394
30
0
41
1
10
134.981872529629
20
0.11448359507375
30
0
41
1
10
134.989709216406
20
0.0784226467474127
30
0
41
1
10
134.994520682117
20
0.0591007253853206
30
0
41
1
10
134.999967357962
20
0.0393438161689517
30
0
0
SPLINE
5
B1
100
AcDbEntity
8
1
62
256
6
ByLayer
370
18
48
1
60
0
100
AcDbSpline
70
4
71
3
72
14
73
10
40
0
40
0
40
0
40
0
40
0.545399777293457
40
0.545399777293457
40
0.818099665940186
40
0.818099665940186
40
0.95444961026355
40
0.95444961026355
40
1
40
1
40
1
40
1
41
1
10
132.978679240115
20
-5.60025303584226
30
0
41
1
10
131.664134236786
20
-5.62869815919879
30
0
41
1
10
130.366069160356
20
-5.52153668296748
30
0
41
1
10
128.414319672341
20
-5.17391567086082
30
0
41
1
10
127.762928935418
20
-5.0267284160075
30
0
41
1
10
126.780567361915
20
-4.76135446555142
30
0
41
1
10
126.452246697444
20
-4.66545294429554
30
0
41
1
10
126.012671087355
20
-4.52784003788221
30
0
41
1
10
125.902637557592
20
-4.49262447409788
30
0
41
1
10
125.792652241073
20
-4.4566759605581
30
0
0
SPLINE
5
B2
100
AcDbEntity
8
1
62
256
6
ByLayer
370
13
48
1
60
0
100
AcDbSpline
70
4
71
3
72
24
73
20
40
0
40
0
40
0
40
0
40
0.0489153211278355
40
0.0489153211278355
40
0.195823675869989
40
0.195823675869989
40
0.269277853241064
40
0.269277853241064
40
0.342732030612138
40
0.342732030612138
40
0.636548740096436
40
0.636548740096436
40
0.783457094838585
40
0.783457094838585
40
0.85691127220966
40
0.85691127220966
40
0.930365449580735
40
0.930365449580735
40
1
40
1
40
1
40
1
41
1
10
125.792651720824
20
-4.45667579051565
30
0
41
1
10
125.573408594788
20
-4.38501654315479
30
0
41
1
10
125.354357048237
20
-4.31044485746375
30
0
41
1
10
124.478376336752
20
-4.00096193619089
30
0
41
1
10
123.822604378561
20
-3.74395090922229
30
0
41
1
10
122.837271477289
20
-3.3266663990722
30
0
41
1
10
122.508553280708
20
-3.18225323497805
30
0
41
1
10
121.849823520405
20
-2.88377779526385
30
0
41
1
10
121.520426099715
20
-2.72996863336627
30
0
41
1
10
119.880763709295
20
-1.94532033178246
30
0
41
1
10
118.584036380625
20
-1.26362601477351
30
0
41
1
10
116.63062771121
20
-0.217288021358542
30
0
41
1
10
115.978152930242
20
0.135539091293083
30
0
41
1
10
114.993474534876
20
0.663450481753671
30
0
41
1
10
114.66345016541
20
0.839642059614107
30
0
41
1
10
114.005618048358
20
1.1877571968721
30
0
41
1
10
113.677797882356
20
1.3596790351925
30
0
41
1
10
113.040709022624
20
1.68933215303903
30
0
41
1
10
112.731355622645
20
1.84732563318337
30
0
41
1
10
112.422421006705
20
2.00243892817343
30
0
0
SPLINE
5
B3
100
AcDbEntity
8
1
62
256
6
ByLayer
370
18
48
1
60
0
100
AcDbSpline
70
4
71
3
72
16
73
12
40
0
40
0
40
0
40
0
40
0.136998060065739
40
0.136998060065739
40
0.706636328455287
40
0.706636328455287
40
0.849045895552677
40
0.849045895552677
40
0.991455462650065
40
0.991455462650065
40
1
40
1
40
1
40
1
41
1
10
67.211705495416
20
-5.56337974515506
30
0
41
1
10
66.8956269591729
20
-5.562485937975
30
0
41
1
10
66.5804390473494
20
-5.55390262994368
30
0
41
1
10
64.9578276519863
20
-5.47040235948191
30
0
41
1
10
63.6604790561966
20
-5.2718482747824
30
0
41
1
10
62.0265354652863
20
-4.87382715151961
30
0
41
1
10
61.699171917153
20
-4.78669034363745
30
0
41
1
10
61.042545149535
20
-4.5979160739175
30
0
41
1
10
60.7127188702455
20
-4.49609224283503
30
0
41
1
10
60.3631719722189
20
-4.38110044917897
30
0
41
1
10
60.3433904648755
20
-4.3745691037401
30
0
41
1
10
60.3236129769194
20
-4.36801546395995
30
0
0
SPLINE
5
B4
100
AcDbEntity
8
1
62
256
6
ByLayer
370
13
48
1
60
0
100
AcDbSpline
70
4
71
3
72
18
73
14
40
0
40
0
40
0
40
0
40
0.144560388535356
40
0.144560388535356
40
0.44262300587872
40
0.44262300587872
40
0.517138660214561
40
0.517138660214561
40
0.591654314550401
40
0.591654314550401
40
0.740685623222083
40
0.740685623222083
40
1
40
1
40
1
40
1
41
1
10
60.3236129760329
20
-4.36801546366618
30
0
41
1
10
59.6841380360398
20
-4.15611350650687
30
0
41
1
10
59.0488651793984
20
-3.9209038478663
30
0
41
1
10
57.1097221791536
20
-3.14053936315537
30
0
41
1
10
55.8117510925669
20
-2.53173099805352
30
0
41
1
10
54.1742072973359
20
-1.70712288246762
30
0
41
1
10
53.8459180718018
20
-1.53905983451227
30
0
41
1
10
53.1871239094696
20
-1.1977356211909
30
0
41
1
10
52.8565711202686
20
-1.02439053540743
30
0
41
1
10
51.8703526296621
20
-0.503330992792712
30
0
41
1
10
51.2168137932163
20
-0.153117232042689
30
0
41
1
10
49.4298597972285
20
0.800861632925347
30
0
41
1
10
48.29947087394
20
1.40098009181861
30
0
41
1
10
47.1599327892069
20
1.96980447233261
30
0
0
SPLINE
5
B5
100
AcDbEntity
8
1
62
256
6
ByLayer
370
18
48
1
60
0
100
AcDbSpline
70
4
71
3
72
12
73
8
40
0
40
0
40
0
40
0
40
0.25
40
0.25
40
0.5
40
0.5
40
1
40
1
40
1
40
1
41
1
10
132.89706071601
20
1.46289549483922
30
0
41
1
10
133.055030753874
20
1.46070276967524
30
0
41
1
10
133.212982644647
20
1.45866705502854
30
0
41
1
10
133.528768403994
20
1.45556926668993
30
0
41
1
10
133.68647445377
20
1.45506216155189
30
0
41
1
10
134.159540894001
20
1.45382918311265
30
0
41
1
10
134.474818174038
20
1.45356674486146
30
0
41
1
10
134.789483074332
20
1.45671901969737
30
0
0
SPLINE
5
B6
100
AcDbEntity
8
1
62
256
6
ByLayer
370
18
48
1
60
0
100
AcDbSpline
70
4
71
3
72
8
73
4
40
0
40
0
40
0
40
0
40
1
40
1
40
1
40
1
41
1
10
134.999967357962
20
0.0393438161689801
30
0
41
1
10
134.991841024571
20
0.0141803015194455
30
0
41
1
10
134.981169026351
20
-0.0116682168290652
30
0
41
1
10
134.970528008226
20
-0.0314717447398039
30
0
0
SPLINE
5
B7
100
AcDbEntity
8
1
62
256
6
ByLayer
370
18
48
1
60
0
100
AcDbSpline
70
4
71
3
72
104
73
100
40
0
40
0
40
0
40
0
40
0.0100680461644611
40
0.0100680461644611
40
0.0313075796041215
40
0.0313075796041215
40
0.0525471130437819
40
0.0525471130437819
40
0.0737866464834423
40
0.0737866464834423
40
0.0950261799231027
40
0.0950261799231027
40
0.116265713362763
40
0.116265713362763
40
0.137505246802423
40
0.137505246802423
40
0.158744780242084
40
0.158744780242084
40
0.179984313681744
40
0.179984313681744
40
0.201223847121405
40
0.201223847121405
40
0.222463380561065
40
0.222463380561065
40
0.243702914000726
40
0.243702914000726
40
0.264942447440386
40
0.264942447440386
40
0.286181980880046
40
0.286181980880046
40
0.328661047759369
40
0.328661047759369
40
0.339280814479199
40
0.339280814479199
40
0.349900581199028
40
0.349900581199028
40
0.371140114638689
40
0.371140114638689
40
0.392379648078351
40
0.392379648078351
40
0.413619181518012
40
0.413619181518012
40
0.434858714957673
40
0.434858714957673
40
0.456098248397334
40
0.456098248397334
40
0.477337781836995
40
0.477337781836995
40
0.498577315276656
40
0.498577315276656
40
0.519816848716317
40
0.519816848716317
40
0.541056382155979
40
0.541056382155979
40
0.56229591559564
40
0.56229591559564
40
0.583535449035301
40
0.583535449035301
40
0.604774982474962
40
0.604774982474962
40
0.626014515914623
40
0.626014515914623
40
0.647254049354284
40
0.647254049354284
40
0.668493582793945
40
0.668493582793945
40
0.689733116233607
40
0.689733116233607
40
0.710972649673268
40
0.710972649673268
40
0.732212183112929
40
0.732212183112929
40
0.75345171655259
40
0.75345171655259
40
0.774691249992251
40
0.774691249992251
40
0.795930783431912
40
0.795930783431912
40
0.817170316871573
40
0.817170316871573
40
0.838409850311235
40
0.838409850311235
40
0.859649383750896
40
0.859649383750896
40
0.880888917190557
40
0.880888917190557
40
0.902128450630218
40
0.902128450630218
40
0.923367984069879
40
0.923367984069879
40
0.944607517509541
40
0.944607517509541
40
0.965847050949202
40
0.965847050949202
40
0.987086584388863
40
0.987086584388863
40
0.997706351108693
40
0.997706351108693
40
1
40
1
40
1
40
1
41
1
10
119.639571967981
20
-2.87116445298068
30
0
41
1
10
119.493878931584
20
-2.93822573344465
30
0
41
1
10
119.348170789749
20
-3.0044606591598
30
0
41
1
10
118.89534138103
20
-3.20813188127005
30
0
41
1
10
118.588447948309
20
-3.34267797189253
30
0
41
1
10
117.974325992418
20
-3.6015036940218
30
0
41
1
10
117.667054649188
20
-3.72590486852525
30
0
41
1
10
117.052746573221
20
-3.96659087896609
30
0
41
1
10
116.745184286313
20
-4.08188236047087
30
0
41
1
10
116.130943219279
20
-4.3003945808999
30
0
41
1
10
115.82411705292
20
-4.4036512909756
30
0
41
1
10
115.210143578987
20
-4.59931938250003
30
0
41
1
10
114.902717306144
20
-4.69178774589329
30
0
41
1
10
114.28762848218
20
-4.86327459477809
30
0
41
1
10
113.981054699942
20
-4.94261716502956
30
0
41
1
10
113.367005638288
20
-5.08799866824171
30
0
41
1
10
113.0599245627
20
-5.15469874722169
30
0
41
1
10
112.445638423565
20
-5.27412895244404
30
0
41
1
10
112.138201000858
20
-5.32645586820385
30
0
41
1
10
111.523639437664
20
-5.41696489603837
30
0
41
1
10
111.216531159723
20
-5.45575253240457
30
0
41
1
10
110.602721878359
20
-5.5189667674295
30
0
41
1
10
110.295516386093
20
-5.5428146749544
30
0
41
1
10
109.680651448107
20
-5.57582458209401
30
0
41
1
10
109.373283683527
20
-5.58562128121224
30
0
41
1
10
108.759112890289
20
-5.59051558115232
30
0
41
1
10
108.451913722117
20
-5.5851156486778
30
0
41
1
10
107.83752236217
20
-5.55960861150226
30
0
41
1
10
107.530413142174
20
-5.53999841889109
30
0
41
1
10
106.607990543821
20
-5.46005908855594
30
0
41
1
10
105.994797839084
20
-5.37590706529812
30
0
41
1
10
105.226347131092
20
-5.23840637469502
30
0
41
1
10
105.072469046376
20
-5.20922526377404
30
0
41
1
10
104.76501131309
20
-5.14686488956744
30
0
41
1
10
104.611543410431
20
-5.11369944064936
30
0
41
1
10
104.150880982433
20
-5.00970894883434
30
0
41
1
10
103.843664721671
20
-4.93448352601041
30
0
41
1
10
103.229415293072
20
-4.77175398052324
30
0
41
1
10
102.922372636611
20
-4.68364808066767
30
0
41
1
10
102.307448871949
20
-4.49400694678323
30
0
41
1
10
101.99963319654
20
-4.39400696118147
30
0
41
1
10
101.385477225227
20
-4.18253736161759
30
0
41
1
10
101.078565814147
20
-4.07120148486484
30
0
41
1
10
100.463971543841
20
-3.83730753681635
30
0
41
1
10
100.156339632235
20
-3.71520756737638
30
0
41
1
10
99.5415007707168
20
-3.46221539524848
30
0
41
1
10
99.2343622835406
20
-3.33138334724694
30
0
41
1
10
98.6198548163586
20
-3.06025918278419
30
0
41
1
10
98.3129234986973
20
-2.92002616649174
30
0
41
1
10
97.6982250241037
20
-2.63358490636588
30
0
41
1
10
97.3903144948695
20
-2.48738758031715
30
0
41
1
10
96.775892237085
20
-2.18724962800087
30
0
41
1
10
96.469010963133
20
-2.03365853583503
30
0
41
1
10
95.8546755464666
20
-1.72312111734038
30
0
41
1
10
95.5470389273255
20
-1.56635348059695
30
0
41
1
10
94.9323327615446
20
-1.2458443043586
30
0
41
1
10
94.6251212947226
20
-1.08393139309823
30
0
41
1
10
94.0106193025441
20
-0.758900180478634
30
0
41
1
10
93.7035363713161
20
-0.595202223495903
30
0
41
1
10
93.0891637411954
20
-0.266117459924544
30
0
41
1
10
92.7815378795743
20
-0.100717282597145
30
0
41
1
10
92.1662815483409
20
0.228706483078696
30
0
41
1
10
91.8593599264048
20
0.394068917335687
30
0
41
1
10
91.244957330443
20
0.722205865758838
30
0
41
1
10
90.9376481266865
20
0.885214868572405
30
0
41
1
10
90.3227246241156
20
1.20931218874139
30
0
41
1
10
90.0151024868939
20
1.37037141790032
30
0
41
1
10
89.4003530315387
20
1.68727039224905
30
0
41
1
10
89.0929685798004
20
1.84320606870057
30
0
41
1
10
88.4788176903791
20
2.15160687014028
30
0
41
1
10
88.1713115633929
20
2.302898753054
30
0
41
1
10
87.5558558922167
20
2.59915257907949
30
0
41
1
10
87.2486355868652
20
2.74383389558886
30
0
41
1
10
86.6343030967112
20
3.0256785038703
30
0
41
1
10
86.32704118832
20
3.1627473809792
30
0
41
1
10
85.7119749953383
20
3.42798784913151
30
0
41
1
10
85.4046235773365
20
3.55711073480111
30
0
41
1
10
84.7896019477297
20
3.80429047588569
30
0
41
1
10
84.4822271921826
20
3.92317957880269
30
0
41
1
10
83.8677456993398
20
4.15053732787882
30
0
41
1
10
83.5606031078511
20
4.25860704027446
30
0
41
1
10
82.9452820143216
20
4.46333578335742
30
0
41
1
10
82.6374474704712
20
4.56031879411725
30
0
41
1
10
82.0229982128057
20
4.74204339487613
30
0
41
1
10
81.7156812081235
20
4.82597327823621
30
0
41
1
10
81.1009721681087
20
4.98169562882163
30
0
41
1
10
80.7934654015561
20
5.05376898349823
30
0
41
1
10
80.1782076794546
20
5.18404498304315
30
0
41
1
10
79.8706670003335
20
5.24169335760644
30
0
41
1
10
79.2560297245823
20
5.34325355026269
30
0
41
1
10
78.9491515862904
20
5.38800038163456
30
0
41
1
10
78.3341405859558
20
5.46263917467914
30
0
41
1
10
78.0262424467928
20
5.4925908782711
30
0
41
1
10
77.4114119136922
20
5.53720955887874
30
0
41
1
10
77.1042169350554
20
5.55295583512088
30
0
41
1
10
76.643077849665
20
5.56559788461541
30
0
41
1
10
76.4892575159941
20
5.56796835907727
30
0
41
1
10
76.3023927573359
20
5.56851323393852
30
0
41
1
10
76.2692072154431
20
5.56851805989879
30
0
41
1
10
76.2360234670025
20
5.56843126766105
30
0
0
SPLINE
5
B8
100
AcDbEntity
8
1
62
256
6
ByLayer
370
18
48
1
60
0
100
AcDbSpline
70
4
71
3
72
112
73
108
40
0
40
0
40
0
40
0
40
0.0032582684326714
40
0.0032582684326714
40
0.0139759214602773
40
0.0139759214602773
40
0.0354112275154888
40
0.0354112275154888
40
0.0568465335707007
40
0.0568465335707007
40
0.0782818396259122
40
0.0782818396259122
40
0.0997171456811237
40
0.0997171456811237
40
0.121152451736336
40
0.121152451736336
40
0.142587757791547
40
0.142587757791547
40
0.153305410819153
40
0.153305410819153
40
0.164023063846759
40
0.164023063846759
40
0.185458369901971
40
0.185458369901971
40
0.206893675957182
40
0.206893675957182
40
0.228328982012394
40
0.228328982012394
40
0.249764288067605
40
0.249764288067605
40
0.271199594122817
40
0.271199594122817
40
0.292634900178029
40
0.292634900178029
40
0.31407020623324
40
0.31407020623324
40
0.335505512288452
40
0.335505512288452
40
0.356940818343663
40
0.356940818343663
40
0.378376124398875
40
0.378376124398875
40
0.399811430454087
40
0.399811430454087
40
0.421246736509298
40
0.421246736509298
40
0.44268204256451
40
0.44268204256451
40
0.464117348619722
40
0.464117348619722
40
0.485552654674933
40
0.485552654674933
40
0.506987960730145
40
0.506987960730145
40
0.51770561375775
40
0.51770561375775
40
0.528423266785356
40
0.528423266785356
40
0.549858572840567
40
0.549858572840567
40
0.571293878895779
40
0.571293878895779
40
0.592729184950991
40
0.592729184950991
40
0.603446837978596
40
0.603446837978596
40
0.614164491006202
40
0.614164491006202
40
0.635599797061413
40
0.635599797061413
40
0.657035103116624
40
0.657035103116624
40
0.667752756144229
40
0.667752756144229
40
0.678470409171835
40
0.678470409171835
40
0.689188062199441
40
0.689188062199441
40
0.699905715227046
40
0.699905715227046
40
0.721341021282257
40
0.721341021282257
40
0.742776327337468
40
0.742776327337468
40
0.764211633392679
40
0.764211633392679
40
0.78564693944789
40
0.78564693944789
40
0.807082245503101
40
0.807082245503101
40
0.828517551558312
40
0.828517551558312
40
0.849952857613523
40
0.849952857613523
40
0.871388163668734
40
0.871388163668734
40
0.892823469723945
40
0.892823469723945
40
0.914258775779156
40
0.914258775779156
40
0.935694081834367
40
0.935694081834367
40
0.957129387889578
40
0.957129387889578
40
0.978564693944789
40
0.978564693944789
40
1
40
1
40
1
40
1
41
1
10
54.3321094239865
20
-2.85736858125097
30
0
41
1
10
54.2853229662779
20
-2.87873712712135
30
0
41
1
10
54.2385339576285
20
-2.90003084324098
30
0
41
1
10
54.0378407893532
20
-2.99107151878019
30
0
41
1
10
53.8841101462554
20
-3.06039705938119
30
0
41
1
10
53.4223273755526
20
-3.26483179998712
30
0
41
1
10
53.1145642928511
20
-3.39649241298426
30
0
41
1
10
52.499550327557
20
-3.64969033472565
30
0
41
1
10
52.1921924611522
20
-3.77193178175401
30
0
41
1
10
51.5770209705038
20
-4.00659751894571
30
0
41
1
10
51.2686836929198
20
-4.11841434040724
30
0
41
1
10
50.6531677449339
20
-4.33143454670599
30
0
41
1
10
50.3459711328042
20
-4.43286923331897
30
0
41
1
10
49.7307824363021
20
-4.62301394999542
30
0
41
1
10
49.4232270615621
20
-4.7119743441427
30
0
41
1
10
48.8076955803485
20
-4.87705623016495
30
0
41
1
10
48.4997476577027
20
-4.9534123591055
30
0
41
1
10
48.0380639477522
20
-5.05806100778099
30
0
41
1
10
47.8841056899939
20
-5.09122879464763
30
0
41
1
10
47.5766541619171
20
-5.15437047962922
30
0
41
1
10
47.4230329667299
20
-5.18421839064197
30
0
41
1
10
46.9617576088941
20
-5.26834337514734
30
0
41
1
10
46.6537737166382
20
-5.31750908614561
30
0
41
1
10
46.0377833239163
20
-5.40260977718623
30
0
41
1
10
45.7302404092223
20
-5.43812144339694
30
0
41
1
10
45.115123746436
20
-5.49396389967705
30
0
41
1
10
44.8071815871356
20
-5.51454974410527
30
0
41
1
10
44.1920882166964
20
-5.54224494433868
30
0
41
1
10
43.8840154346012
20
-5.54890391743461
30
0
41
1
10
43.2683256325176
20
-5.54671606751489
30
0
41
1
10
42.9608009120903
20
-5.53815680681075
30
0
41
1
10
42.3457321291901
20
-5.50760637770233
30
0
41
1
10
42.0381459494962
20
-5.48536894365662
30
0
41
1
10
41.4220273284283
20
-5.42528481616543
30
0
41
1
10
41.1142709343759
20
-5.38773439971663
30
0
41
1
10
40.4989578474787
20
-5.29960323532262
30
0
41
1
10
40.191253948033
20
-5.2488235451315
30
0
41
1
10
39.5759616548986
20
-5.13231659243067
30
0
41
1
10
39.2681364313873
20
-5.06693292787077
30
0
41
1
10
38.6520790325392
20
-4.92442732399954
30
0
41
1
10
38.3440703508099
20
-4.84710988679308
30
0
41
1
10
37.7292789084833
20
-4.67793552477423
30
0
41
1
10
37.4216652069139
20
-4.58687019681813
30
0
41
1
10
36.8059073321098
20
-4.39460510166344
30
0
41
1
10
36.4977375752303
20
-4.2924885453688
30
0
41
1
10
35.8823239869275
20
-4.07656026633407
30
0
41
1
10
35.5747755007109
20
-3.96264799194569
30
0
41
1
10
34.9591727765314
20
-3.726735524086
30
0
41
1
10
34.6518875245727
20
-3.60320308308414
30
0
41
1
10
34.0359027619305
20
-3.34710320636845
30
0
41
1
10
33.7278808989814
20
-3.21401469286496
30
0
41
1
10
33.1125323253307
20
-2.94096137875505
30
0
41
1
10
32.8050625486219
20
-2.80066242912699
30
0
41
1
10
32.3433988587678
20
-2.58477652159647
30
0
41
1
10
32.1894326427584
20
-2.51194435547879
30
0
41
1
10
31.8813563038311
20
-2.36443991833147
30
0
41
1
10
31.7274232427658
20
-2.28935202567752
30
0
41
1
10
31.2656524184041
20
-2.06282322490264
30
0
41
1
10
30.9577254201155
20
-1.91006755475354
30
0
41
1
10
30.3422301723096
20
-1.59899015412253
30
0
41
1
10
30.0346529262303
20
-1.44068227381354
30
0
41
1
10
29.4189388048315
20
-1.12074399195475
30
0
41
1
10
29.1104650144017
20
-0.959703433094518
30
0
41
1
10
28.6485131630521
20
-0.716520899878674
30
0
41
1
10
28.4948311907967
20
-0.634753477571479
30
0
41
1
10
28.1872925341793
20
-0.471219244008125
30
0
41
1
10
28.0334999512452
20
-0.389330937658428
30
0
41
1
10
27.5718944318836
20
-0.143732711272463
30
0
41
1
10
27.2640297382234
20
0.0202439265976864
30
0
41
1
10
26.6478859214724
20
0.348560598692586
30
0
41
1
10
26.3401417441639
20
0.512531159822515
30
0
41
1
10
25.8784268412786
20
0.756297617069549
30
0
41
1
10
25.7244459566501
20
0.83714786982452
30
0
41
1
10
25.4167234958156
20
0.998755273803056
30
0
41
1
10
25.2630534906659
20
1.07964329336363
30
0
41
1
10
24.9553675759558
20
1.24022551808073
30
0
41
1
10
24.8014369434637
20
1.32007286141979
30
0
41
1
10
24.4933695524896
20
1.47867401822256
30
0
41
1
10
24.3392159915461
20
1.55747269996738
30
0
41
1
10
23.8772128227588
20
1.79225793511847
30
0
41
1
10
23.5695374520659
20
1.94670825049539
30
0
41
1
10
22.9540615363528
20
2.24995135205501
30
0
41
1
10
22.6459067319357
20
2.39814648119153
30
0
41
1
10
22.0300521602273
20
2.68981423119848
30
0
41
1
10
21.7219481238876
20
2.83266806206905
30
0
41
1
10
21.1060111672418
20
3.10937473661011
30
0
41
1
10
20.7983229703943
20
3.24385061734699
30
0
41
1
10
20.1829823536392
20
3.50265367668263
30
0
41
1
10
19.8751959989048
20
3.62771605579459
30
0
41
1
10
19.258491540578
20
3.86819563578837
30
0
41
1
10
18.9507351809629
20
3.98400257816294
30
0
41
1
10
18.335179759307
20
4.20466727253418
30
0
41
1
10
18.0272616936952
20
4.30943443510873
30
0
41
1
10
17.4114248246964
20
4.50797276456015
30
0
41
1
10
17.1031868039159
20
4.60199377236316
30
0
41
1
10
16.4872220651971
20
4.77498870627579
30
0
41
1
10
16.1791073115289
20
4.85454913417666
30
0
41
1
10
15.5639982902155
20
5.00303103965135
30
0
41
1
10
15.25620970861
20
5.07069604431919
30
0
41
1
10
14.639941603286
20
5.19242052014479
30
0
41
1
10
14.3316851926573
20
5.24672751408372
30
0
41
1
10
13.7164040110881
20
5.34141253935917
30
0
41
1
10
13.4090196278339
20
5.38164462498938
30
0
41
1
10
12.7940193048459
20
5.44730253560459
30
0
41
1
10
12.4871175586057
20
5.47311846760144
30
0
41
1
10
11.8722787396117
20
5.51047113494135
30
0
41
1
10
11.5641732874197
20
5.52193848671578
30
0
41
1
10
11.2555531430401
20
5.52601989957404
30
0
0
SPLINE
5
B9
100
AcDbEntity
8
1
62
256
6
ByLayer
370
18
48
1
60
0
100
AcDbSpline
70
4
71
3
72
8
73
4
40
0
40
0
40
0
40
0
40
1
40
1
40
1
40
1
41
1
10
132.905482339204
20
-5.59927152512941
30
0
41
1
10
132.917571968113
20
-5.60322954847291
30
0
41
1
10
132.930390197256
20
-5.60509736871253
30
0
41
1
10
132.943951468297
20
-5.60489283147393
30
0
0
SPLINE
5
BA
100
AcDbEntity
8
1
62
256
6
ByLayer
370
18
48
1
60
0
100
AcDbSpline
70
4
71
3
72
28
73
24
40
0
40
0
40
0
40
0
40
0.0624999999999991
40
0.0624999999999991
40
0.124999999999998
40
0.124999999999998
40
0.249999999999997
40
0.249999999999997
40
0.312499999999997
40
0.312499999999997
40
0.374999999999996
40
0.374999999999996
40
0.499999999999997
40
0.499999999999997
40
0.562499999999997
40
0.562499999999997
40
0.624999999999998
40
0.624999999999998
40
0.749999999999999
40
0.749999999999999
40
0.874999999999999
40
0.874999999999999
40
1
40
1
40
1
40
1
41
1
10
7.34980495910358
20
-1.85584546701918
30
0
41
1
10
7.38413188847898
20
-2.00982408273802
30
0
41
1
10
7.42399177921413
20
-2.16010363805401
30
0
41
1
10
7.51346472587139
20
-2.45371277572408
30
0
41
1
10
7.56337934409945
20
-2.59776538692577
30
0
41
1
10
7.72408838149545
20
-3.01354255460822
30
0
41
1
10
7.84525253559499
20
-3.26895471067999
30
0
41
1
10
8.04387088916866
20
-3.62382642117925
30
0
41
1
10
8.11294105374895
20
-3.73735930063614
30
0
41
1
10
8.25663555709085
20
-3.95516422650257
30
0
41
1
10
8.33150374342347
20
-4.05969671491252
30
0
41
1
10
8.56098771698723
20
-4.35509255504516
30
0
41
1
10
8.72126954617406
20
-4.52938862300246
30
0
41
1
10
8.97337824668301
20
-4.75956936334933
30
0
41
1
10
9.05938438389501
20
-4.83105496219596
30
0
41
1
10
9.23570420455741
20
-4.96369826151275
30
0
41
1
10
9.32604880847094
20
-5.02481413702608
30
0
41
1
10
9.60046482816767
20
-5.19072500457673
30
0
41
1
10
9.78910393360633
20
-5.27910342379519
30
0
41
1
10
10.1811055680933
20
-5.41554784989196
30
0
41
1
10
10.3847432240981
20
-5.46364486003179
30
0
41
1
10
10.8093650672606
20
-5.5222189443098
30
0
41
1
10
11.0282944242954
20
-5.53243562978491
30
0
41
1
10
11.2555531430402
20
-5.52601989957412
30
0
0
SPLINE
5
BB
100
AcDbEntity
8
1
62
256
6
ByLayer
370
18
48
1
60
0
100
AcDbSpline
70
4
71
3
72
8
73
4
40
0
40
0
40
0
40
0
40
1
40
1
40
1
40
1
41
1
10
11.2555531430401
20
5.52601989957404
30
0
41
1
10
11.2126730392247
20
5.52723044577007
30
0
41
1
10
11.170137655675
20
5.52785016812823
30
0
41
1
10
11.1279346220424
20
5.52786634613395
30
0
0
SPLINE
5
BC
100
AcDbEntity
8
1
62
256
6
ByLayer
370
18
48
1
60
0
100
AcDbSpline
70
4
71
3
72
10
73
6
40
0
40
0
40
0
40
0
40
0.970549782894561
40
0.970549782894561
40
1
40
1
40
1
40
1
41
1
10
7.1033196176507
20
0.0461127432281785
30
0
41
1
10
7.14381443965596
20
0.0231368073249598
30
0
41
1
10
7.18457706355701
20
0.0006942524067881
30
0
41
1
10
7.22685605669074
20
-0.0218709995698703
30
0
41
1
10
7.22810147556442
20
-0.0225350754825797
30
0
41
1
10
7.22934714555424
20
-0.023198652912356
30
0
0
SPLINE
5
BD
100
AcDbEntity
8
1
62
256
6
ByLayer
370
18
48
1
60
0
100
AcDbSpline
70
4
71
3
72
52
73
48
40
0
40
0
40
0
40
0
40
0.0295438463895572
40
0.0295438463895572
40
0.0590876927791143
40
0.0590876927791143
40
0.118175385558227
40
0.118175385558227
40
0.147719231947784
40
0.147719231947784
40
0.177263078337341
40
0.177263078337341
40
0.236350771116457
40
0.236350771116457
40
0.265894617506015
40
0.265894617506015
40
0.295438463895573
40
0.295438463895573
40
0.35452615667469
40
0.35452615667469
40
0.413613849453806
40
0.413613849453806
40
0.443157695843363
40
0.443157695843363
40
0.47270154223292
40
0.47270154223292
40
0.531789235012036
40
0.531789235012036
40
0.561333081401596
40
0.561333081401596
40
0.590876927791155
40
0.590876927791155
40
0.709052313349393
40
0.709052313349393
40
0.768140006128513
40
0.768140006128513
40
0.797683852518073
40
0.797683852518073
40
0.827227698907633
40
0.827227698907633
40
0.886315391686753
40
0.886315391686753
40
0.945403084465873
40
0.945403084465873
40
0.974946930855433
40
0.974946930855433
40
1
40
1
40
1
40
1
41
1
10
132.88189755716
20
-5.89200972846777
30
0
41
1
10
132.554609755018
20
-5.90140132639681
30
0
41
1
10
132.227277250709
20
-5.90199865979571
30
0
41
1
10
131.571901469874
20
-5.88562004696047
30
0
41
1
10
131.244006374195
20
-5.86862619658564
30
0
41
1
10
130.262529049494
20
-5.79170208644032
30
0
41
1
10
129.609766613356
20
-5.70579941400902
30
0
41
1
10
128.628622128116
20
-5.52678325910785
30
0
41
1
10
128.300956880803
20
-5.45867886915468
30
0
41
1
10
127.645548418015
20
-5.30639232525868
30
0
41
1
10
127.318403881715
20
-5.22237481189072
30
0
41
1
10
126.337608498805
20
-4.94772231413236
30
0
41
1
10
125.684620175563
20
-4.73447003907992
30
0
41
1
10
124.702334416179
20
-4.37332214471544
30
0
41
1
10
124.374212196149
20
-4.24597745707564
30
0
41
1
10
123.719576865829
20
-3.97971418922555
30
0
41
1
10
123.392664102368
20
-3.84067924407492
30
0
41
1
10
122.412240722582
20
-3.40713358089624
30
0
41
1
10
121.758870542438
20
-3.09641451084411
30
0
41
1
10
120.446975253758
20
-2.43960636751123
30
0
41
1
10
119.793553508328
20
-2.09587972783888
30
0
41
1
10
118.812994054894
20
-1.56468562413986
30
0
41
1
10
118.486054794048
20
-1.38502969318279
30
0
41
1
10
117.83132424544
20
-1.02168152420222
30
0
41
1
10
117.503126134578
20
-0.837783185765659
30
0
41
1
10
116.520531675393
20
-0.284343753928056
30
0
41
1
10
115.867439595023
20
0.0874329582118492
30
0
41
1
10
114.88638803142
20
0.641576491682684
30
0
41
1
10
114.55914693324
20
0.825724798313075
30
0
41
1
10
113.90351213454
20
1.19163962475838
30
0
41
1
10
113.575945071606
20
1.37291448877804
30
0
41
1
10
111.945184842641
20
2.26378367335136
30
0
41
1
10
110.655826610713
20
2.93092711757882
30
0
41
1
10
108.712076183989
20
3.81258683200102
30
0
41
1
10
108.062528979479
20
4.08662098303236
30
0
41
1
10
107.081604791685
20
4.46150372677297
30
0
41
1
10
106.753122696272
20
4.58054745813527
30
0
41
1
10
106.098130009217
20
4.80390204078739
30
0
41
1
10
105.77107984529
20
4.90842927038329
30
0
41
1
10
104.790185291839
20
5.19959122908924
30
0
41
1
10
104.136607742203
20
5.36381956942583
30
0
41
1
10
102.824587490894
20
5.6275644583892
30
0
41
1
10
102.170448988291
20
5.72611771755936
30
0
41
1
10
101.18947790903
20
5.8222743833426
30
0
41
1
10
100.86241945689
20
5.84572609910509
30
0
41
1
10
100.257282641525
20
5.87297458489007
30
0
41
1
10
99.9790205671569
20
5.87920768475908
30
0
41
1
10
99.7009909807211
20
5.879123413938
30
0
0
SPLINE
5
BE
100
AcDbEntity
8
1
62
256
6
ByLayer
370
18
48
1
60
0
100
AcDbSpline
70
4
71
3
72
60
73
56
40
0
40
0
40
0
40
0
40
0.0054704873925369
40
0.0054704873925369
40
0.0601750830942778
40
0.0601750830942778
40
0.114879678796018
40
0.114879678796018
40
0.142231976646888
40
0.142231976646888
40
0.169584274497758
40
0.169584274497758
40
0.224288870199497
40
0.224288870199497
40
0.278993465901237
40
0.278993465901237
40
0.333698061602977
40
0.333698061602977
40
0.361050359453847
40
0.361050359453847
40
0.388402657304717
40
0.388402657304717
40
0.443107253006458
40
0.443107253006458
40
0.470459550857328
40
0.470459550857328
40
0.497811848708199
40
0.497811848708199
40
0.52516414655907
40
0.52516414655907
40
0.55251644440994
40
0.55251644440994
40
0.607221040111682
40
0.607221040111682
40
0.634573337962552
40
0.634573337962552
40
0.661925635813423
40
0.661925635813423
40
0.716630231515165
40
0.716630231515165
40
0.771334827216907
40
0.771334827216907
40
0.82603942291865
40
0.82603942291865
40
0.85339172076952
40
0.85339172076952
40
0.88074401862039
40
0.88074401862039
40
0.935448614322132
40
0.935448614322132
40
0.962800912173002
40
0.962800912173002
40
0.990153210023873
40
0.990153210023873
40
1
40
1
40
1
40
1
41
1
10
70.272842316883
20
-5.58038884162994
30
0
41
1
10
70.2073835769382
20
-5.59162879299839
30
0
41
1
10
70.1419286745988
20
-5.6025357354994
30
0
41
1
10
69.4219408646271
20
-5.71883440981765
30
0
41
1
10
68.7670368861069
20
-5.79116675423407
30
0
41
1
10
67.4539875050162
20
-5.86609482527399
30
0
41
1
10
66.7998375716592
20
-5.86852008523601
30
0
41
1
10
65.8178458334448
20
-5.82002966773317
30
0
41
1
10
65.4904196392462
20
-5.79517425468376
30
0
41
1
10
64.834612017624
20
-5.72816669778749
30
0
41
1
10
64.505943121566
20
-5.68596161388757
30
0
41
1
10
63.5223390854385
20
-5.53438412686376
30
0
41
1
10
62.8683906113004
20
-5.39995238083785
30
0
41
1
10
61.5583174296853
20
-5.06828481647358
30
0
41
1
10
60.9008558412527
20
-4.87044077130318
30
0
41
1
10
59.5905724320072
20
-4.42050435094211
30
0
41
1
10
58.9365051350525
20
-4.16839547613017
30
0
41
1
10
57.9530848551819
20
-3.75422911160845
30
0
41
1
10
57.6244503221073
20
-3.61000548431937
30
0
41
1
10
56.9682580975571
20
-3.31185001994805
30
0
41
1
10
56.6406701784079
20
-3.15782581535799
30
0
41
1
10
55.6583661577168
20
-2.682573262555
30
0
41
1
10
55.0040836093851
20
-2.34820355644925
30
0
41
1
10
54.0193133220209
20
-1.82699100711753
30
0
41
1
10
53.6908269718847
20
-1.65020628460434
30
0
41
1
10
53.0353017129653
20
-1.29302519572013
30
0
41
1
10
52.7079277879731
20
-1.11237860908173
30
0
41
1
10
52.0531452049666
20
-0.748401406695507
30
0
41
1
10
51.7257377663809
20
-0.565069237523431
30
0
41
1
10
51.0702128667564
20
-0.19691433964914
30
0
41
1
10
50.7417336538667
20
-0.0118963320498722
30
0
41
1
10
49.7567635514424
20
0.541985999188114
30
0
41
1
10
49.1023491009766
20
0.908908693965458
30
0
41
1
10
48.1199655561104
20
1.44855921583098
30
0
41
1
10
47.7923560113651
20
1.62661581212709
30
0
41
1
10
47.1360426407581
20
1.97768233737057
30
0
41
1
10
46.8072573012276
20
2.15077477942052
30
0
41
1
10
45.8234671142732
20
2.6584802469138
30
0
41
1
10
45.1691967767792
20
2.9821260579705
30
0
41
1
10
43.85838506608
20
3.5913154207075
30
0
41
1
10
43.2005955183528
20
3.87708078752095
30
0
41
1
10
41.8898351527644
20
4.3969471831137
30
0
41
1
10
41.23545100084
20
4.63170062642382
30
0
41
1
10
40.2513507424562
20
4.94135154365034
30
0
41
1
10
39.9225057542943
20
5.03753867529977
30
0
41
1
10
39.2661973518015
20
5.21406695330947
30
0
41
1
10
38.938516171688
20
5.29454341862319
30
0
41
1
10
37.9558191240008
20
5.51189319167855
30
0
41
1
10
37.3011280556821
20
5.62467699749973
30
0
41
1
10
36.31564227295
20
5.74298906680559
30
0
41
1
10
35.9872452126562
20
5.7738359824925
30
0
41
1
10
35.3315335722167
20
5.81811164010168
30
0
41
1
10
35.0040070480857
20
5.83158022478534
30
0
41
1
10
34.5585380992772
20
5.83806871795798
30
0
41
1
10
34.4406146743195
20
5.83865887567734
30
0
41
1
10
34.322668837202
20
5.83812114348927
30
0
0
SPLINE
5
BF
100
AcDbEntity
8
1
62
256
6
ByLayer
370
18
48
1
60
0
100
AcDbSpline
70
4
71
3
72
10
73
6
40
0
40
0
40
0
40
0
40
0.5
40
0.5
40
1
40
1
40
1
40
1
41
1
10
7.2293471455543
20
-0.0231986529123844
30
0
41
1
10
7.19828966038455
20
-0.0065450196889003
30
0
41
1
10
7.16993772767327
20
0.0088007850852989
30
0
41
1
10
7.12606064427484
20
0.0329670317767921
30
0
41
1
10
7.11007412315792
20
0.0420469799392151
30
0
41
1
10
7.10331961765087
20
0.0461127432280932
30
0
0
SPLINE
5
C0
100
AcDbEntity
8
1
62
256
6
ByLayer
370
18
48
1
60
0
100
AcDbSpline
70
4
71
3
72
34
73
30
40
0
40
0
40
0
40
0
40
0.0282365016485182
40
0.0282365016485182
40
0.12865794204367
40
0.12865794204367
40
0.329500822833973
40
0.329500822833973
40
0.429922263229125
40
0.429922263229125
40
0.480132983426701
40
0.505238343525489
40
0.505238343525489
40
0.517791023574883
40
0.517791023574883
40
0.530343703624277
40
0.530343703624277
40
0.536620043648974
40
0.536620043648974
40
0.542896383673671
40
0.555449063723065
40
0.580554423821853
40
0.630765144019429
40
0.630765144019429
40
0.731186584414581
40
0.731186584414581
40
0.932029465204885
40
0.932029465204885
40
1
40
1
40
1
40
1
41
1
10
11.2555531430401
20
2.75534728383349
30
0
41
1
10
11.2555531430401
20
2.69700517333058
30
0
41
1
10
11.2555531430401
20
2.63813323760897
30
0
41
1
10
11.2555531430401
20
2.36763973079471
30
0
41
1
10
11.2555531430401
20
2.15056880062926
30
0
41
1
10
11.2555531430401
20
1.48222607674043
30
0
41
1
10
11.2555531430401
20
1.01389837214555
30
0
41
1
10
11.2555531430401
20
0.278473849017615
30
0
41
1
10
11.2555531430401
20
0.0278239250313845
30
0
41
1
10
11.2555531430401
20
-0.356427485414201
30
0
41
1
10
11.2555531430401
20
-0.550623974563166
30
0
41
1
10
11.2555531430401
20
-0.747944351877976
30
0
41
1
10
11.2555531430401
20
-0.847127465092029
30
0
41
1
10
11.2555531430401
20
-0.880092036770236
30
0
41
1
10
11.2555531430401
20
-0.94689756983982
30
0
41
1
10
11.2555531430401
20
-0.981954865954691
30
0
41
1
10
11.2555531430401
20
-1.03769724600141
30
0
41
1
10
11.2555531430401
20
-1.05708989919427
30
0
41
1
10
11.2555531430401
20
-1.09598274835699
30
0
41
1
10
11.2555531430401
20
-1.15435281325082
30
0
41
1
10
11.2555531430401
20
-1.29076599287677
30
0
41
1
10
11.2555531430401
20
-1.5644645772594
30
0
41
1
10
11.2555531430401
20
-1.80058235670171
30
0
41
1
10
11.2555531430401
20
-2.27491493454568
30
0
41
1
10
11.2555531430401
20
-2.59335164323858
30
0
41
1
10
11.2555531430401
20
-3.55348852521118
30
0
41
1
10
11.2555531430401
20
-4.20084316193481
30
0
41
1
10
11.2555531430401
20
-5.0787941551819
30
0
41
1
10
11.2555531430401
20
-5.30212535871243
30
0
41
1
10
11.2555531430401
20
-5.52601989957415
30
0
0
SPLINE
5
C1
100
AcDbEntity
8
1
62
256
6
ByLayer
370
18
48
1
60
0
100
AcDbSpline
70
4
71
3
72
14
73
10
40
0
40
0
40
0
40
0
40
0.25
40
0.25
40
0.5
40
0.5
40
0.75
40
0.75
40
1
40
1
40
1
40
1
41
1
10
132.978679240115
20
-5.60025303584226
30
0
41
1
10
132.981028761017
20
-5.59968440228337
30
0
41
1
10
132.982693974434
20
-5.60089435184611
30
0
41
1
10
132.984251705382
20
-5.60790379650126
30
0
41
1
10
132.984085820425
20
-5.61382463173561
30
0
41
1
10
132.98109235537
20
-5.63107373011894
30
0
41
1
10
132.978236204403
20
-5.64236247287263
30
0
41
1
10
132.970406040727
20
-5.6674865921434
30
0
41
1
10
132.965476974334
20
-5.6812085338581
30
0
41
1
10
132.960291964935
20
-5.69431002503063
30
0
0
SPLINE
5
C2
100
AcDbEntity
8
1
62
256
6
ByLayer
370
18
48
1
60
0
100
AcDbSpline
70
4
71
3
72
34
73
30
40
0
40
0
40
0
40
0
40
0.12499999999999
40
0.12499999999999
40
0.187499999999995
40
0.187499999999995
40
0.25
40
0.25
40
0.312500000000006
40
0.312500000000006
40
0.343750000000005
40
0.343750000000005
40
0.375000000000005
40
0.375000000000005
40
0.406250000000005
40
0.406250000000005
40
0.437500000000005
40
0.437500000000005
40
0.500000000000004
40
0.500000000000004
40
0.562500000000004
40
0.562500000000004
40
0.625000000000003
40
0.625000000000003
40
0.750000000000002
40
0.750000000000002
40
0.875000000000001
40
0.875000000000001
40
1
40
1
40
1
40
1
41
1
10
133.193484636796
20
-2.50537386634912
30
0
41
1
10
133.109566872315
20
-2.44403742007177
30
0
41
1
10
133.027776163822
20
-2.37664841956681
30
0
41
1
10
132.913097689426
20
-2.26181841454448
30
0
41
1
10
132.87650489373
20
-2.22150077090808
30
0
41
1
10
132.808176366684
20
-2.13479631728103
30
0
41
1
10
132.776130644312
20
-2.08797373990995
30
0
41
1
10
132.723160234881
20
-1.98817720516198
30
0
41
1
10
132.701920413173
20
-1.93442080375891
30
0
41
1
10
132.687021733876
20
-1.8519984074857
30
0
41
1
10
132.684999761142
20
-1.82446389891183
30
0
41
1
10
132.687662926453
20
-1.77157524551117
30
0
41
1
10
132.692427323965
20
-1.74586236635912
30
0
41
1
10
132.707706184696
20
-1.69900320331817
30
0
41
1
10
132.718375938926
20
-1.6772153907861
30
0
41
1
10
132.743459744089
20
-1.6384290112837
30
0
41
1
10
132.757890272565
20
-1.62118874960208
30
0
41
1
10
132.805458961185
20
-1.57434362338674
30
0
41
1
10
132.841921457121
20
-1.55036213809194
30
0
41
1
10
132.918621661342
20
-1.51152144284643
30
0
41
1
10
132.959516779197
20
-1.49649998408574
30
0
41
1
10
133.042411941205
20
-1.47294183174654
30
0
41
1
10
133.084613793043
20
-1.46431463754851
30
0
41
1
10
133.212800850266
20
-1.44504169801817
30
0
41
1
10
133.30034074135
20
-1.44089253932853
30
0
41
1
10
133.478058259951
20
-1.44361656767757
30
0
41
1
10
133.568084373215
20
-1.45065399239482
30
0
41
1
10
133.748045683377
20
-1.47304174653743
30
0
41
1
10
133.838292851406
20
-1.48843729625187
30
0
41
1
10
133.928765244303
20
-1.50738359713748
30
0
0
SPLINE
5
C3
100
AcDbEntity
8
1
62
256
6
ByLayer
370
18
48
1
60
0
100
AcDbSpline
70
4
71
3
72
42
73
38
40
0
40
0
40
0
40
0
40
0.125
40
0.125
40
0.249999999999999
40
0.249999999999999
40
0.312500000000004
40
0.312500000000004
40
0.34375000000001
40
0.34375000000001
40
0.375000000000016
40
0.375000000000016
40
0.500000000000026
40
0.500000000000026
40
0.531250000000026
40
0.531250000000026
40
0.562500000000025
40
0.562500000000025
40
0.625000000000023
40
0.625000000000023
40
0.75000000000002
40
0.75000000000002
40
0.812500000000019
40
0.812500000000019
40
0.820312500000018
40
0.820312500000018
40
0.828125000000017
40
0.828125000000017
40
0.835937500000017
40
0.835937500000017
40
0.843750000000016
40
0.843750000000016
40
0.859375000000014
40
0.859375000000014
40
0.875000000000013
40
0.875000000000013
40
1
40
1
40
1
40
1
41
1
10
129.335760143227
20
-2.15134660680002
30
0
41
1
10
129.587441870169
20
-2.20749454739044
30
0
41
1
10
129.841149096604
20
-2.24793652816643
30
0
41
1
10
130.338369004664
20
-2.28748963607879
30
0
41
1
10
130.582381874699
20
-2.28501647653798
30
0
41
1
10
130.940183651411
20
-2.24153420937316
30
0
41
1
10
131.058073848282
20
-2.22037519191576
30
0
41
1
10
131.232491070744
20
-2.17693328417607
30
0
41
1
10
131.290224941134
20
-2.16049147729405
30
0
41
1
10
131.404797672951
20
-2.12327605384814
30
0
41
1
10
131.461620443582
20
-2.10248279913881
30
0
41
1
10
131.739072899645
20
-1.98846451231276
30
0
41
1
10
131.943089552062
20
-1.86408872476903
30
0
41
1
10
132.173286907788
20
-1.66274769790752
30
0
41
1
10
132.218243674214
20
-1.62001391285503
30
0
41
1
10
132.304664287526
20
-1.5308846599805
30
0
41
1
10
132.346144039332
20
-1.48450944878957
30
0
41
1
10
132.465640237197
20
-1.34021216483924
30
0
41
1
10
132.538702445919
20
-1.2371067449055
30
0
41
1
10
132.739940261413
20
-0.909011627591042
30
0
41
1
10
132.850421649206
20
-0.663836541812998
30
0
41
1
10
132.984224900661
20
-0.276046687551968
30
0
41
1
10
133.023721631661
20
-0.14314642608511
30
0
41
1
10
133.063165749623
20
0.0091680747168255
30
0
41
1
10
133.067479507211
20
0.0261324072494062
30
0
41
1
10
133.075968094063
20
0.0601226785877316
30
0
41
1
10
133.080385825757
20
0.0770341700135475
30
0
41
1
10
133.087797927812
20
0.111543598727252
30
0
41
1
10
133.089959701248
20
0.129543073347634
30
0
41
1
10
133.08993351294
20
0.167639773627826
30
0
41
1
10
133.088188338112
20
0.1869499601207
30
0
41
1
10
133.079353479134
20
0.244286828071182
30
0
41
1
10
133.06831135178
20
0.282312242995175
30
0
41
1
10
133.047700577142
20
0.358417004321325
30
0
41
1
10
133.037385704687
20
0.396467962560564
30
0
41
1
10
132.946056147778
20
0.739152176039539
30
0
41
1
10
132.866975692835
20
1.04409100748694
30
0
41
1
10
132.789436728592
20
1.34921127878093
30
0
0
SPLINE
5
C4
100
AcDbEntity
8
1
62
256
6
ByLayer
370
18
48
1
60
0
100
AcDbSpline
70
4
71
3
72
12
73
8
40
0
40
0
40
0
40
0
40
0.25
40
0.25
40
0.5
40
0.5
40
1
40
1
40
1
40
1
41
1
10
129.335760143227
20
-2.15134660679991
30
0
41
1
10
129.536065013216
20
-2.35682053595613
30
0
41
1
10
129.74353534333
20
-2.55061077302779
30
0
41
1
10
130.170681399302
20
-2.91828965213463
30
0
41
1
10
130.39072509223
20
-3.09243448926315
30
0
41
1
10
131.064726486687
20
-3.58673198085862
30
0
41
1
10
131.525939219543
20
-3.87466449362938
30
0
41
1
10
131.996419978173
20
-4.13013979749044
30
0
0
SPLINE
5
C5
100
AcDbEntity
8
1
62
256
6
ByLayer
370
18
48
1
60
0
100
AcDbSpline
70
4
71
3
72
12
73
8
40
0
40
0
40
0
40
0
40
0.24999999999999
40
0.24999999999999
40
0.49999999999998
40
0.49999999999998
40
1
40
1
40
1
40
1
41
1
10
7.22734952652561
20
5.03003691515949
30
0
41
1
10
7.20790400813638
20
5.03551146069233
30
0
41
1
10
7.19032541619123
20
5.04212507109145
30
0
41
1
10
7.15879537163067
20
5.05748373117009
30
0
41
1
10
7.14500871703927
20
5.06621799034929
30
0
41
1
10
7.11166158429484
20
5.09405777573878
30
0
41
1
10
7.0995612071728
20
5.11523645722221
30
0
41
1
10
7.09956120717277
20
5.13621821820919
30
0
0
SPLINE
5
C6
100
AcDbEntity
8
1
62
256
6
ByLayer
370
18
48
1
60
0
100
AcDbSpline
70
4
71
3
72
44
73
40
40
0
40
0
40
0
40
0
40
0.03125
40
0.03125
40
0.0625000000000001
40
0.0625000000000001
40
0.0937500000000001
40
0.0937500000000001
40
0.125
40
0.125
40
0.1875
40
0.1875
40
0.25
40
0.25
40
0.3125
40
0.3125
40
0.375
40
0.375
40
0.4375
40
0.4375
40
0.5
40
0.5
40
0.5625
40
0.5625
40
0.625000000000001
40
0.625000000000001
40
0.656250000000001
40
0.656250000000001
40
0.687500000000001
40
0.687500000000001
40
0.750000000000001
40
0.750000000000001
40
0.8125
40
0.8125
40
0.875
40
0.875
40
0.9375
40
0.9375
40
1
40
1
40
1
40
1
41
1
10
133.193484636792
20
-2.505373866349
30
0
41
1
10
133.189192475287
20
-2.53548762820552
30
0
41
1
10
133.186307788385
20
-2.56426712661533
30
0
41
1
10
133.183247457353
20
-2.61925799414919
30
0
41
1
10
133.183096119914
20
-2.64562476123973
30
0
41
1
10
133.185422047542
20
-2.69425022700321
30
0
41
1
10
133.187871855752
20
-2.71669908849645
30
0
41
1
10
133.195162390002
20
-2.75813379501594
30
0
41
1
10
133.200046463083
20
-2.77719025480363
30
0
41
1
10
133.217705073182
20
-2.82805705318225
30
0
41
1
10
133.233614284763
20
-2.85430928929117
30
0
41
1
10
133.271867099728
20
-2.8923670394644
30
0
41
1
10
133.293854129494
20
-2.90396672706243
30
0
41
1
10
133.342889704772
20
-2.91402107795528
30
0
41
1
10
133.369668627168
20
-2.91229549704104
30
0
41
1
10
133.4261265375
20
-2.89663369627169
30
0
41
1
10
133.456297118331
20
-2.88250720862817
30
0
41
1
10
133.518324064811
20
-2.84283257964446
30
0
41
1
10
133.550079627462
20
-2.81747224949089
30
0
41
1
10
133.615104351704
20
-2.75548659804198
30
0
41
1
10
133.648566595492
20
-2.71856404893057
30
0
41
1
10
133.715039191306
20
-2.63437705245568
30
0
41
1
10
133.747970686844
20
-2.58725873096108
30
0
41
1
10
133.811572157793
20
-2.4843164110217
30
0
41
1
10
133.842898940779
20
-2.42729308362542
30
0
41
1
10
133.886060051311
20
-2.33740240732729
30
0
41
1
10
133.899840461246
20
-2.30669508406052
30
0
41
1
10
133.926080572294
20
-2.24366116162301
30
0
41
1
10
133.938634779748
20
-2.21103903466621
30
0
41
1
10
133.972872115114
20
-2.11378219640781
30
0
41
1
10
133.991599162082
20
-2.04879774095483
30
0
41
1
10
134.01924267226
20
-1.92085649917288
30
0
41
1
10
134.02747913878
20
-1.86112066817398
30
0
41
1
10
134.032996068407
20
-1.7510133234608
30
0
41
1
10
134.030145047757
20
-1.70310441525021
30
0
41
1
10
134.014757000582
20
-1.62105543596479
30
0
41
1
10
134.00252215663
20
-1.58823527577911
30
0
41
1
10
133.970342271484
20
-1.53656768496813
30
0
41
1
10
133.950951767292
20
-1.51863077850294
30
0
41
1
10
133.928765244303
20
-1.50738359713745
30
0
0
SPLINE
5
C7
100
AcDbEntity
8
1
62
256
6
ByLayer
370
18
48
1
60
0
100
AcDbSpline
70
4
71
3
72
8
73
4
40
0
40
0
40
0
40
0
40
1
40
1
40
1
40
1
41
1
10
132.88189755716
20
5.89200972846777
30
0
41
1
10
132.702635894095
20
5.89715368266522
30
0
41
1
10
132.523253952355
20
5.8996483862999
30
0
41
1
10
132.343831264989
20
5.89950672037094
30
0
0
SPLINE
5
C8
100
AcDbEntity
8
1
62
256
6
ByLayer
370
18
48
1
60
0
100
AcDbSpline
70
4
71
3
72
58
73
54
40
0
40
0
40
0
40
0
40
0.038549924806598
40
0.038549924806598
40
0.0659291864518283
40
0.0659291864518283
40
0.0933084480970586
40
0.0933084480970586
40
0.148066971387519
40
0.148066971387519
40
0.20282549467798
40
0.20282549467798
40
0.257584017968441
40
0.257584017968441
40
0.284963279613672
40
0.284963279613672
40
0.312342541258903
40
0.312342541258903
40
0.367101064549366
40
0.367101064549366
40
0.421859587839828
40
0.421859587839828
40
0.449238849485058
40
0.449238849485058
40
0.476618111130289
40
0.476618111130289
40
0.531376634420748
40
0.531376634420748
40
0.558755896065976
40
0.558755896065976
40
0.586135157711205
40
0.586135157711205
40
0.64089368100166
40
0.64089368100166
40
0.668272942646887
40
0.668272942646887
40
0.695652204292114
40
0.695652204292114
40
0.750410727582568
40
0.750410727582568
40
0.777789989227796
40
0.777789989227796
40
0.805169250873023
40
0.805169250873023
40
0.859927774163477
40
0.859927774163477
40
0.914686297453932
40
0.914686297453932
40
0.942065559099159
40
0.942065559099159
40
0.969444820744386
40
0.969444820744386
40
1
40
1
40
1
40
1
41
1
10
102.909387458337
20
-5.6021481802932
30
0
41
1
10
102.448741642789
20
-5.68120750018994
30
0
41
1
10
101.988750346194
20
-5.74362836859439
30
0
41
1
10
101.201531347585
20
-5.82129921985077
30
0
41
1
10
100.874435408961
20
-5.84497030777695
30
0
41
1
10
100.219228349773
20
-5.87489520644527
30
0
41
1
10
99.8910719719988
20
-5.88111906713314
30
0
41
1
10
98.9090349614295
20
-5.87346635758209
30
0
41
1
10
98.2559833780692
20
-5.83336709249727
30
0
41
1
10
96.947299318294
20
-5.68448280047633
30
0
41
1
10
96.2907389982489
20
-5.57524332320963
30
0
41
1
10
94.9822477295149
20
-5.29287133182919
30
0
41
1
10
94.3291121587319
20
-5.11955616875886
30
0
41
1
10
93.3465608757504
20
-4.81498614908523
30
0
41
1
10
93.0182402650541
20
-4.70588841959824
30
0
41
1
10
92.3631692323768
20
-4.47442031584774
30
0
41
1
10
92.0361053639886
20
-4.35200369388815
30
0
41
1
10
91.0551047619767
20
-3.96626333245936
30
0
41
1
10
90.4016338678838
20
-3.68410143617197
30
0
41
1
10
89.0897368231881
20
-3.07749105669348
30
0
41
1
10
88.4353652162145
20
-2.75486220588829
30
0
41
1
10
87.4544475769904
20
-2.24948877570481
30
0
41
1
10
87.1274294546797
20
-2.07744604380014
30
0
41
1
10
86.4726098077591
20
-1.72731144878699
30
0
41
1
10
86.1443802780694
20
-1.54900032396245
30
0
41
1
10
85.1610799829936
20
-1.00869778499683
30
0
41
1
10
84.5075792680854
20
-0.641612191450804
30
0
41
1
10
83.5261993141304
20
-0.0880616591668115
30
0
41
1
10
83.1989156463542
20
0.0969977884386424
30
0
41
1
10
82.5432577150403
20
0.466825577882929
30
0
41
1
10
82.2150345566095
20
0.651472661881598
30
0
41
1
10
81.2327074770944
20
1.20032697543928
30
0
41
1
10
80.5793920434472
20
1.56050485722233
30
0
41
1
10
79.5972455214094
20
2.08437263875089
30
0
41
1
10
79.2692412670553
20
2.25645192001539
30
0
41
1
10
78.613227474147
20
2.59348387771325
30
0
41
1
10
78.2858194155878
20
2.75809424568541
30
0
41
1
10
77.3041610098168
20
3.23836260535393
30
0
41
1
10
76.6506577610324
20
3.54073816809654
30
0
41
1
10
75.667451963297
20
3.96114747724593
30
0
41
1
10
75.3389872221625
20
4.09582198883317
30
0
41
1
10
74.6837381414323
20
4.35195871945717
30
0
41
1
10
74.3565559503264
20
4.4735636141456
30
0
41
1
10
73.3751738399554
20
4.81772851740447
30
0
41
1
10
72.7212781574725
20
5.01978926341479
30
0
41
1
10
71.4083813062669
20
5.36293913114781
30
0
41
1
10
70.7542713551613
20
5.50281294689356
30
0
41
1
10
69.7728007750763
20
5.66254494898078
30
0
41
1
10
69.4456071453796
20
5.70747272363792
30
0
41
1
10
68.7903419062379
20
5.78026876900253
30
0
41
1
10
68.4618481437304
20
5.80815159657988
30
0
41
1
10
67.7681423412448
20
5.84861676019116
30
0
41
1
10
67.4028913453654
20
5.85908570531004
30
0
41
1
10
67.0377554220954
20
5.85870757561972
30
0
0
SPLINE
5
C9
100
AcDbEntity
8
1
62
256
6
ByLayer
370
18
48
1
60
0
100
AcDbSpline
70
4
71
3
72
44
73
40
40
0
40
0
40
0
40
0
40
0.0292520806198316
40
0.0292520806198316
40
0.093968608578508
40
0.093968608578508
40
0.126326872557846
40
0.126326872557846
40
0.158685136537185
40
0.158685136537185
40
0.223401664495863
40
0.223401664495863
40
0.352834720413218
40
0.352834720413218
40
0.385192984392558
40
0.385192984392558
40
0.417551248371897
40
0.417551248371897
40
0.482267776330575
40
0.482267776330575
40
0.514626040309914
40
0.514626040309914
40
0.546984304289253
40
0.546984304289253
40
0.61170083224793
40
0.61170083224793
40
0.676417360206609
40
0.676417360206609
40
0.708775624185948
40
0.708775624185948
40
0.741133888165286
40
0.741133888165286
40
0.805850416123964
40
0.805850416123964
40
0.838208680103304
40
0.838208680103304
40
0.870566944082643
40
0.870566944082643
40
1
40
1
40
1
40
1
41
1
10
37.5689691056398
20
-5.57009191195993
30
0
41
1
10
37.2726062730907
20
-5.61998143637723
30
0
41
1
10
36.9758075432154
20
-5.66315454826994
30
0
41
1
10
36.0222778178901
20
-5.7793859706243
30
0
41
1
10
35.3677730930971
20
-5.82495855764609
30
0
41
1
10
34.3853574891594
20
-5.84119916905334
30
0
41
1
10
34.0577544345111
20
-5.8379201109141
30
0
41
1
10
33.401547235854
20
-5.81392126896969
30
0
41
1
10
33.0726424925967
20
-5.79313678192679
30
0
41
1
10
32.0908292630704
20
-5.70533841413368
30
0
41
1
10
31.4404315589377
20
-5.61292349606194
30
0
41
1
10
29.4937342821285
20
-5.2402374089435
30
0
41
1
10
28.2017494660204
20
-4.86454163598455
30
0
41
1
10
26.5671396532304
20
-4.25754392792385
30
0
41
1
10
26.2386511756938
20
-4.12903525424241
30
0
41
1
10
25.581970942698
20
-3.86015023123701
30
0
41
1
10
25.2541665193212
20
-3.71997991073502
30
0
41
1
10
24.2713046527992
20
-3.28384595122691
30
0
41
1
10
23.6170271434486
20
-2.97191374612933
30
0
41
1
10
22.6323955561708
20
-2.47913107030573
30
0
41
1
10
22.3035361769124
20
-2.31064599343696
30
0
41
1
10
21.6474297034415
20
-1.96821490458925
30
0
41
1
10
21.3197579450167
20
-1.79408515920821
30
0
41
1
10
20.3369772332406
20
-1.26453254006273
30
0
41
1
10
19.6822701915597
20
-0.901446993074387
30
0
41
1
10
18.3676510368824
20
-0.167026431099913
30
0
41
1
10
17.7126442384452
20
0.201587579752982
30
0
41
1
10
16.7297299059588
20
0.749729605116102
30
0
41
1
10
16.4020887204347
20
0.931761057040234
30
0
41
1
10
15.7459588356813
20
1.29295409335481
30
0
41
1
10
15.4170735867759
20
1.47232140318744
30
0
41
1
10
14.4323467546246
20
2.00173770064359
30
0
41
1
10
13.7777057681255
20
2.34357275657786
30
0
41
1
10
12.7944558509339
20
2.83304057830554
30
0
41
1
10
12.4664901572856
20
2.99231355026663
30
0
41
1
10
11.8094315176156
20
3.3019554214558
30
0
41
1
10
11.480890681421
20
3.45203700521927
30
0
41
1
10
9.84299133295357
20
4.17335509330797
30
0
41
1
10
8.54151488494645
20
4.66005664781056
30
0
41
1
10
7.22734952652564
20
5.03003691515946
30
0
0
SPLINE
5
CA
100
AcDbEntity
8
1
62
256
6
ByLayer
370
13
48
1
60
0
100
AcDbSpline
70
4
71
3
72
12
73
8
40
0
40
0
40
0
40
0
40
0.317425511503873
40
0.317425511503873
40
0.812918521697069
40
0.812918521697069
40
1
40
1
40
1
40
1
41
1
10
7.34976545259499
20
4.99962602521359
30
0
41
1
10
7.34975901569197
20
5.10972022177063
30
0
41
1
10
7.34975027038058
20
5.20310261528454
30
0
41
1
10
7.34972429365686
20
5.39949422891905
30
0
41
1
10
7.3497055481248
20
5.47502144460191
30
0
41
1
10
7.34968059837573
20
5.52015396771009
30
0
41
1
10
7.34967384075952
20
5.52639237869928
30
0
41
1
10
7.34966733353465
20
5.52634542985265
30
0
0
SPLINE
5
CB
100
AcDbEntity
8
1
62
256
6
ByLayer
370
18
48
1
60
0
100
AcDbSpline
70
4
71
3
72
8
73
4
40
0
40
0
40
0
40
0
40
1
40
1
40
1
40
1
41
1
10
134.789483074332
20
1.45671901969763
30
0
41
1
10
134.86033779835
20
1.01983479636442
30
0
41
1
10
134.922845778514
20
0.583019904771618
30
0
41
1
10
134.976951504897
20
0.146274806009188
30
0
0
SPLINE
5
CC
100
AcDbEntity
8
1
62
256
6
ByLayer
370
18
48
1
60
0
100
AcDbSpline
70
4
71
3
72
18
73
14
40
0
40
0
40
0
40
0
40
0.182528611356081
40
0.182528611356081
40
0.282929395338949
40
0.282929395338949
40
0.383330179321816
40
0.383330179321816
40
0.78493331525329
40
0.78493331525329
40
0.985734883219026
40
0.985734883219026
40
1
40
1
40
1
40
1
41
1
10
50.70560432187
20
0.0080935632570913
30
0
41
1
10
51.2987815007736
20
-0.314461635281504
30
0
41
1
10
51.8933302935071
20
-0.637931486007147
30
0
41
1
10
52.8201097451727
20
-1.13501236984467
30
0
41
1
10
53.1508517227047
20
-1.31095002841641
30
0
41
1
10
53.8098799360947
20
-1.65695746451493
30
0
41
1
10
54.1382612604429
20
-1.82716671711802
30
0
41
1
10
55.7761283230915
20
-2.66159284371048
30
0
41
1
10
57.0741131661625
20
-3.27504836210136
30
0
41
1
10
59.0332486928235
20
-4.06569684882354
30
0
41
1
10
59.6884613977197
20
-4.30753801852137
30
0
41
1
10
60.3952217392377
20
-4.5390744970187
30
0
41
1
10
60.4420995925543
20
-4.55429260987975
30
0
41
1
10
60.4889725080508
20
-4.56936918409926
30
0
0
SPLINE
5
CD
100
AcDbEntity
8
1
62
256
6
ByLayer
370
13
48
1
60
0
100
AcDbSpline
70
4
71
3
72
18
73
14
40
0
40
0
40
0
40
0
40
0.0991368419441161
40
0.0991368419441161
40
0.214691953789279
40
0.214691953789279
40
0.676912401169928
40
0.676912401169928
40
0.79246751301509
40
0.79246751301509
40
0.908022624860253
40
0.908022624860253
40
1
40
1
40
1
40
1
41
1
10
60.4889725084429
20
-4.56936918422545
30
0
41
1
10
60.7720006749911
20
-4.66040459590755
30
0
41
1
10
61.0548488091472
20
-4.74627952396793
30
0
41
1
10
61.6649861917969
20
-4.9200683353144
30
0
41
1
10
61.992413033321
20
-5.00615437017061
30
0
41
1
10
63.6265893997859
20
-5.39792098826928
30
0
41
1
10
64.9239437686178
20
-5.58835964526497
30
0
41
1
10
66.5594404123453
20
-5.65900396778616
30
0
41
1
10
66.8872170984442
20
-5.66474968948751
30
0
41
1
10
67.5447961000783
20
-5.65928882255918
30
0
41
1
10
67.8751501595764
20
-5.64802190061596
30
0
41
1
10
68.4677966920546
20
-5.61242693746345
30
0
41
1
10
68.7303135594343
20
-5.59126649918551
30
0
41
1
10
68.9928199864806
20
-5.56478439631255
30
0
0
SPLINE
5
CE
100
AcDbEntity
8
1
62
256
6
ByLayer
370
18
48
1
60
0
100
AcDbSpline
70
4
71
3
72
16
73
12
40
0
40
0
40
0
40
0
40
0.148812306281095
40
0.148812306281095
40
0.614577959381968
40
0.614577959381968
40
0.731019372657186
40
0.731019372657186
40
0.847460785932404
40
0.847460785932404
40
1
40
1
40
1
40
1
41
1
10
116.00970413295
20
0.0058837593567773
30
0
41
1
10
116.427609371805
20
-0.223071398992687
30
0
41
1
10
116.844258820397
20
-0.451397225116892
30
0
41
1
10
118.562742526229
20
-1.38634789917685
30
0
41
1
10
119.859517848234
20
-2.076437489093
30
0
41
1
10
121.500022149226
20
-2.86776951512977
30
0
41
1
10
121.82967604855
20
-3.02276106027608
30
0
41
1
10
122.488631926713
20
-3.32304776681124
30
0
41
1
10
122.817451777696
20
-3.46815134039542
30
0
41
1
10
123.57638843236
20
-3.79056480557239
30
0
41
1
10
124.006309987956
20
-3.96393422911243
30
0
41
1
10
124.436484479639
20
-4.1268237599424
30
0
0
SPLINE
5
CF
100
AcDbEntity
8
1
62
256
6
ByLayer
370
13
48
1
60
0
100
AcDbSpline
70
4
71
3
72
16
73
12
40
0
40
0
40
0
40
0
40
0.0794007354797346
40
0.0794007354797346
40
0.194475643544768
40
0.194475643544768
40
0.309550551609801
40
0.309550551609801
40
0.539700367739867
40
0.539700367739867
40
1
40
1
40
1
40
1
41
1
10
124.436484477119
20
-4.12682375898822
30
0
41
1
10
124.66306079062
20
-4.21261896564587
30
0
41
1
10
124.889707273963
20
-4.29550682750187
30
0
41
1
10
125.445262266505
20
-4.49104167187099
30
0
41
1
10
125.77465369289
20
-4.60039639794016
30
0
41
1
10
126.4338124649
20
-4.80500095272839
30
0
41
1
10
126.762179706258
20
-4.89982994629489
30
0
41
1
10
127.744604117985
20
-5.16137135126593
30
0
41
1
10
128.395952339446
20
-5.30518498179867
30
0
41
1
10
130.347519813311
20
-5.64045331751342
30
0
41
1
10
131.64547181539
20
-5.73646887555532
30
0
41
1
10
132.960291964919
20
-5.69431002503111
30
0
0
SPLINE
5
D0
100
AcDbEntity
8
1
62
256
6
ByLayer
370
18
48
1
60
0
100
AcDbSpline
70
4
71
3
72
12
73
8
40
0
40
0
40
0
40
0
40
0.500000000000003
40
0.500000000000003
40
0.750000000000002
40
0.750000000000002
40
1
40
1
40
1
40
1
41
1
10
133.099607434299
20
5.73951547089095
30
0
41
1
10
133.385932697856
20
5.03130600511227
30
0
41
1
10
133.671679812005
20
4.32079273182961
30
0
41
1
10
134.095648818862
20
3.24955910652014
30
0
41
1
10
134.236291753477
20
2.89133064883646
30
0
41
1
10
134.514925858467
20
2.17444000744871
30
0
41
1
10
134.652937607748
20
1.81574420193928
30
0
41
1
10
134.789483074332
20
1.4567190196976
30
0
0
SPLINE
5
D1
100
AcDbEntity
8
1
62
256
6
ByLayer
370
18
48
1
60
0
100
AcDbSpline
70
4
71
3
72
12
73
8
40
0
40
0
40
0
40
0
40
0.5
40
0.5
40
0.75
40
0.75
40
1
40
1
40
1
40
1
41
1
10
133.099607434299
20
-5.73951547089101
30
0
41
1
10
133.385938078747
20
-5.03129269578113
30
0
41
1
10
133.671700677964
20
-4.32074128577676
30
0
41
1
10
134.095709385719
20
-3.24940543558364
30
0
41
1
10
134.236365031214
20
-2.89114308778738
30
0
41
1
10
134.514965583211
20
-2.17433682687627
30
0
41
1
10
134.652958375414
20
-1.81568959657582
30
0
41
1
10
134.789483074332
20
-1.4567190196976
30
0
0
SPLINE
5
D2
100
AcDbEntity
8
1
62
256
6
ByLayer
370
18
48
1
60
0
100
AcDbSpline
70
4
71
3
72
14
73
10
40
0
40
0
40
0
40
0
40
0.25
40
0.25
40
0.5
40
0.5
40
0.75
40
0.75
40
1
40
1
40
1
40
1
41
1
10
132.789436728592
20
1.34921127878096
30
0
41
1
10
132.785603840747
20
1.36429391227088
30
0
41
1
10
132.784424224022
20
1.38018639984429
30
0
41
1
10
132.790720847592
20
1.4103777830795
30
0
41
1
10
132.798603386401
20
1.42468288216557
30
0
41
1
10
132.821613240402
20
1.44611659938039
30
0
41
1
10
132.83601375149
20
1.45314502195686
30
0
41
1
10
132.865826093594
20
1.46156290314283
30
0
41
1
10
132.881496114804
20
1.4631115414663
30
0
41
1
10
132.897060716009
20
1.46289549484618
30
0
0
SPLINE
5
D3
100
AcDbEntity
8
1
62
256
6
ByLayer
370
18
48
1
60
0
100
AcDbSpline
70
4
71
3
72
8
73
4
40
0
40
0
40
0
40
0
40
1
40
1
40
1
40
1
41
1
10
133.099607434299
20
5.73951547089098
30
0
41
1
10
133.015179122286
20
5.82210914796394
30
0
41
1
10
132.942868051712
20
5.87339111986432
30
0
41
1
10
132.88189755716
20
5.89200972846777
30
0
0
SPLINE
5
D4
100
AcDbEntity
8
1
62
256
6
ByLayer
370
18
48
1
60
0
100
AcDbSpline
70
4
71
3
72
8
73
4
40
0
40
0
40
0
40
0
40
1
40
1
40
1
40
1
41
1
10
134.999967357963
20
0.0393438161688948
30
0
41
1
10
135.000010880663
20
0.0131146153217969
30
0
41
1
10
135.000010880663
20
-0.0131146153219959
30
0
41
1
10
134.999967357962
20
-0.0393438161690938
30
0
0
SPLINE
5
D5
100
AcDbEntity
8
1
62
256
6
ByLayer
370
18
48
1
60
0
100
AcDbSpline
70
4
71
3
72
30
73
26
40
0
40
0
40
0
40
0
40
0.0885895935533599
40
0.0885895935533599
40
0.17717918710672
40
0.17717918710672
40
0.26576878066008
40
0.26576878066008
40
0.35435837421344
40
0.35435837421344
40
0.4429479677668
40
0.4429479677668
40
0.53153756132016
40
0.53153756132016
40
0.62012715487352
40
0.62012715487352
40
0.708716748426879
40
0.708716748426879
40
0.797306341980239
40
0.797306341980239
40
0.885895935533599
40
0.885895935533599
40
0.974485529086959
40
0.974485529086959
40
1
40
1
40
1
40
1
41
1
10
11.2555531430401
20
-5.52601989957412
30
0
41
1
10
11.5641518446116
20
-5.52193877029089
30
0
41
1
10
11.8723787776384
20
-5.51047067995069
30
0
41
1
10
12.4877343805515
20
-5.4730753653856
30
0
41
1
10
12.7950336382844
20
-5.44721869024096
30
0
41
1
10
13.4111156245108
20
-5.38139628537618
30
0
41
1
10
13.7194238298972
20
-5.34099785106335
30
0
41
1
10
14.3353539123279
20
-5.24611236338018
30
0
41
1
10
14.6431014854656
20
-5.1918376592445
30
0
41
1
10
15.2587926435023
20
-5.07014420467371
30
0
41
1
10
15.5665688047045
20
-5.0024482795198
30
0
41
1
10
16.1822090797062
20
-4.8537623056439
30
0
41
1
10
16.4908149033258
20
-4.77403281062792
30
0
41
1
10
17.1064068096958
20
-4.60103567565932
30
0
41
1
10
17.4139476764724
20
-4.50718841035791
30
0
41
1
10
18.0294947494382
20
-4.30868531766026
30
0
41
1
10
18.3376328317473
20
-4.20382141839707
30
0
41
1
10
18.9538448307009
20
-3.98285400013944
30
0
41
1
10
19.261512002836
20
-3.86704512339722
30
0
41
1
10
19.8773012072592
20
-3.62686762070939
30
0
41
1
10
20.1848944948167
20
-3.50186927823975
30
0
41
1
10
20.8004048042577
20
-3.24295508061837
30
0
41
1
10
21.1087377391003
20
-3.10817373204225
30
0
41
1
10
21.5055212375742
20
-2.92988976226982
30
0
41
1
10
21.5942012523616
20
-2.88967533233813
30
0
41
1
10
21.6828537704955
20
-2.84913844654352
30
0
0
SPLINE
5
D6
100
AcDbEntity
8
1
62
256
6
ByLayer
370
18
48
1
60
0
100
AcDbSpline
70
4
71
3
72
110
73
106
40
0
40
0
40
0
40
0
40
0.0200867934749884
40
0.0200867934749884
40
0.0413652009599847
40
0.0413652009599847
40
0.0626436084449808
40
0.0626436084449808
40
0.083922015929977
40
0.083922015929977
40
0.0945612196724752
40
0.0945612196724752
40
0.105200423414973
40
0.105200423414973
40
0.147757238384965
40
0.147757238384965
40
0.169035645869961
40
0.169035645869961
40
0.190314053354957
40
0.190314053354957
40
0.211592460839953
40
0.211592460839953
40
0.23287086832495
40
0.23287086832495
40
0.243510072067448
40
0.243510072067448
40
0.254149275809947
40
0.254149275809947
40
0.275427683294943
40
0.275427683294943
40
0.296706090779939
40
0.296706090779939
40
0.307345294522437
40
0.307345294522437
40
0.317984498264935
40
0.317984498264935
40
0.339262905749931
40
0.339262905749931
40
0.360541313234926
40
0.360541313234926
40
0.381819720719922
40
0.381819720719922
40
0.403098128204917
40
0.403098128204917
40
0.424376535689913
40
0.424376535689913
40
0.445654943174908
40
0.445654943174908
40
0.466933350659904
40
0.466933350659904
40
0.488211758144899
40
0.488211758144899
40
0.509490165629895
40
0.509490165629895
40
0.53076857311489
40
0.53076857311489
40
0.552046980599886
40
0.552046980599886
40
0.573325388084881
40
0.573325388084881
40
0.594603795569877
40
0.594603795569877
40
0.615882203054872
40
0.615882203054872
40
0.637160610539867
40
0.637160610539867
40
0.658439018024863
40
0.658439018024863
40
0.679717425509859
40
0.679717425509859
40
0.690356629252356
40
0.690356629252356
40
0.700995832994853
40
0.700995832994853
40
0.722274240479847
40
0.722274240479847
40
0.743552647964841
40
0.743552647964841
40
0.754191851707338
40
0.754191851707338
40
0.764831055449834
40
0.764831055449834
40
0.786109462934827
40
0.786109462934827
40
0.807387870419819
40
0.807387870419819
40
0.828666277904812
40
0.828666277904812
40
0.849944685389804
40
0.849944685389804
40
0.871223092874796
40
0.871223092874796
40
0.892501500359789
40
0.892501500359789
40
0.913779907844781
40
0.913779907844781
40
0.935058315329774
40
0.935058315329774
40
0.956336722814766
40
0.956336722814766
40
0.977615130299759
40
0.977615130299759
40
0.998893537784751
40
0.998893537784751
40
1
40
1
40
1
40
1
41
1
10
43.6297377015754
20
5.54792249685644
30
0
41
1
10
43.9202253210834
20
5.54811014207482
30
0
41
1
10
44.2104248030373
20
5.54143327054518
30
0
41
1
10
44.8080060990122
20
5.51449779431184
30
0
41
1
10
45.1160659303687
20
5.4938999221626
30
0
41
1
10
45.7319908576886
20
5.43794087981601
30
0
41
1
10
46.0395624346724
20
5.40238399553633
30
0
41
1
10
46.6546887725296
20
5.31736257377139
30
0
41
1
10
46.9623056240034
20
5.26825197066137
30
0
41
1
10
47.423592270188
20
5.18411210640539
30
0
41
1
10
47.5772883953396
20
5.15424558249103
30
0
41
1
10
47.8850419921443
20
5.09103112162489
30
0
41
1
10
48.039224993134
20
5.05780658225552
30
0
41
1
10
48.8089836064817
20
4.88328349274897
30
0
41
1
10
49.4230525073524
20
4.7181386321831
30
0
41
1
10
50.3466277555564
20
4.43266106799169
30
0
41
1
10
50.654343722978
20
4.33103667377097
30
0
41
1
10
51.2696107623673
20
4.11808435111021
30
0
41
1
10
51.5773510725001
20
4.00647452859022
30
0
41
1
10
52.1923759000246
20
3.77185887234037
30
0
41
1
10
52.4999879938438
20
3.64951869025873
30
0
41
1
10
53.1158198759088
20
3.39596693234461
30
0
41
1
10
53.4235051273752
20
3.26431690352868
30
0
41
1
10
53.8845356378337
20
3.06020542867364
30
0
41
1
10
54.0380697550184
20
2.9909679176784
30
0
41
1
10
54.3456336577805
20
2.85144681655058
30
0
41
1
10
54.4994846488331
20
2.78091202923593
30
0
41
1
10
54.9609250239189
20
2.56635355874707
30
0
41
1
10
55.2688039687154
20
2.41882956764158
30
0
41
1
10
55.8841321905721
20
2.11832115264764
30
0
41
1
10
56.1916849494746
20
1.9654932547592
30
0
41
1
10
56.6528755240252
20
1.73278079499988
30
0
41
1
10
56.8065505815337
20
1.65455178661378
30
0
41
1
10
57.1139147530994
20
1.49665396086616
30
0
41
1
10
57.267576699581
20
1.41694881621265
30
0
41
1
10
57.7294984480307
20
1.17773440296085
30
0
41
1
10
58.0375565598656
20
1.01638339651882
30
0
41
1
10
58.6525306352332
20
0.691233662030527
30
0
41
1
10
58.9598211072513
20
0.527562136681723
30
0
41
1
10
59.5750124970411
20
0.199572052489572
30
0
41
1
10
59.882907074591
20
0.0351056568707975
30
0
41
1
10
60.4982388018136
20
-0.294843472863903
30
0
41
1
10
60.8059216904069
20
-0.458948987203655
30
0
41
1
10
61.4209489279854
20
-0.785539443448869
30
0
41
1
10
61.7282366354989
20
-0.948298648142867
30
0
41
1
10
62.3433950630134
20
-1.27096510069143
30
0
41
1
10
62.6514749917166
20
-1.43108531723593
30
0
41
1
10
63.2666222037124
20
-1.74652810270524
30
0
41
1
10
63.5736442122311
20
-1.90245604459017
30
0
41
1
10
64.188754684472
20
-2.20763333238148
30
0
41
1
10
64.4961307122626
20
-2.35821187358928
30
0
41
1
10
65.111424669235
20
-2.65270451756484
30
0
41
1
10
65.4191939428445
20
-2.79625378778579
30
0
41
1
10
66.0342506250318
20
-3.0756311880568
30
0
41
1
10
66.3415650749372
20
-3.21187229238737
30
0
41
1
10
66.9559663116107
20
-3.47600608018422
30
0
41
1
10
67.264126546138
20
-3.60240782066381
30
0
41
1
10
67.8796614591745
20
-3.84709006857489
30
0
41
1
10
68.1869453436916
20
-3.96549297573915
30
0
41
1
10
68.8016890113714
20
-4.18977965395709
30
0
41
1
10
69.1092338024758
20
-4.29574203137776
30
0
41
1
10
69.7243176875055
20
-4.49761312225789
30
0
41
1
10
70.0320109964998
20
-4.59392495819901
30
0
41
1
10
70.6472905379686
20
-4.77214417921741
30
0
41
1
10
70.9545301302097
20
-4.85484846644775
30
0
41
1
10
71.5691409954029
20
-5.00731830327425
30
0
41
1
10
71.8765113003047
20
-5.07776791495127
30
0
41
1
10
72.4920547000039
20
-5.20470562869596
30
0
41
1
10
72.7995294233566
20
-5.26115331962205
30
0
41
1
10
73.2603647224597
20
-5.33507776642853
30
0
41
1
10
73.4141872119927
20
-5.35781975733934
30
0
41
1
10
73.721620450998
20
-5.40040632095253
30
0
41
1
10
73.8752919907303
20
-5.42021738814489
30
0
41
1
10
74.3362929461756
20
-5.47393660706257
30
0
41
1
10
74.6439572216205
20
-5.50204323763364
30
0
41
1
10
75.2592500397213
20
-5.5434297650506
30
0
41
1
10
75.5667718969882
20
-5.55694269067249
30
0
41
1
10
76.0275665596002
20
-5.56732878930649
30
0
41
1
10
76.1810352161026
20
-5.56885954416788
30
0
41
1
10
76.488331151358
20
-5.56797856969746
30
0
41
1
10
76.6422003406765
20
-5.56561585200188
30
0
41
1
10
77.1036978371708
20
-5.55298219994884
30
0
41
1
10
77.4114999849181
20
-5.53720438927954
30
0
41
1
10
78.026313122202
20
-5.49258452720125
30
0
41
1
10
78.333605075389
20
-5.46269411391626
30
0
41
1
10
78.9484131636183
20
-5.3881000283219
30
0
41
1
10
79.2554788903737
20
-5.34334315476156
30
0
41
1
10
79.8709992756994
20
-5.24163986639061
30
0
41
1
10
80.1786833446243
20
-5.18394570927265
30
0
41
1
10
80.7931803522714
20
-5.0538278954015
30
0
41
1
10
81.1003261951246
20
-4.98185145523905
30
0
41
1
10
81.7150895546904
20
-4.82613096019435
30
0
41
1
10
82.0229539121934
20
-4.74205806975309
30
0
41
1
10
82.6377127814501
20
-4.56023875441554
30
0
41
1
10
82.9450467349079
20
-4.46340685129277
30
0
41
1
10
83.5596779483144
20
-4.25892205829908
30
0
41
1
10
83.8667465890726
20
-4.15089804426256
30
0
41
1
10
84.4816936937126
20
-3.92338590435944
30
0
41
1
10
84.7895946731318
20
-3.80429210014813
30
0
41
1
10
85.4043908597416
20
-3.55720556388826
30
0
41
1
10
85.7111314434836
20
-3.42834342989545
30
0
41
1
10
86.3260199481517
20
-3.16319594626009
30
0
41
1
10
86.6335018554125
20
-3.02604317263405
30
0
41
1
10
86.9571071083759
20
-2.87758202631329
30
0
41
1
10
86.9731016090221
20
-2.87023406588517
30
0
41
1
10
86.9890951765254
20
-2.86287648557234
30
0
0
SPLINE
5
D7
100
AcDbEntity
8
1
62
256
6
ByLayer
370
18
48
1
60
0
100
AcDbSpline
70
4
71
3
72
50
73
46
40
0
40
0
40
0
40
0
40
0.0070414146800732
40
0.0070414146800732
40
0.0521758958309788
40
0.0521758958309788
40
0.0973103769818851
40
0.0973103769818851
40
0.142444858132791
40
0.142444858132791
40
0.187579339283696
40
0.187579339283696
40
0.232713820434602
40
0.232713820434602
40
0.277848301585508
40
0.277848301585508
40
0.322982782736413
40
0.322982782736413
40
0.36811726388732
40
0.36811726388732
40
0.413251745038225
40
0.413251745038225
40
0.458386226189131
40
0.458386226189131
40
0.503520707340037
40
0.503520707340037
40
0.548655188490942
40
0.548655188490942
40
0.593789669641848
40
0.593789669641848
40
0.638924150792754
40
0.638924150792754
40
0.68405863194366
40
0.68405863194366
40
0.729193113094565
40
0.729193113094565
40
0.774327594245471
40
0.774327594245471
40
0.819462075396377
40
0.819462075396377
40
0.864596556547283
40
0.864596556547283
40
0.909731037698189
40
0.909731037698189
40
1
40
1
40
1
40
1
41
1
10
108.921775572377
20
5.58864220407341
30
0
41
1
10
108.969734724269
20
5.58864266051739
30
0
41
1
10
109.017688822104
20
5.58845356774066
30
0
41
1
10
109.372960677582
20
5.58563297995059
30
0
41
1
10
109.679973692698
20
5.5758453864967
30
0
41
1
10
110.294086002811
20
5.54290699560158
30
0
41
1
10
110.601200963771
20
5.51910212512917
30
0
41
1
10
111.215431441008
20
5.45588697468352
30
0
41
1
10
111.523142709537
20
5.41703081051818
30
0
41
1
10
112.137685716864
20
5.32653898502875
30
0
41
1
10
112.444515232189
20
5.27432817622031
30
0
41
1
10
113.058563680786
20
5.15498240247814
30
0
41
1
10
113.365822560147
20
5.08826844910692
30
0
41
1
10
113.98074023533
20
4.94270191544064
30
0
41
1
10
114.287540050067
20
4.86329334774294
30
0
41
1
10
114.901957243503
20
4.69200554523769
30
0
41
1
10
115.209004000068
20
4.59966945384284
30
0
41
1
10
115.823040755544
20
4.40400735324468
30
0
41
1
10
116.130412893481
20
4.30057884216455
30
0
41
1
10
116.745017084547
20
4.081946235061
30
0
41
1
10
117.052084529749
20
3.96683853393333
30
0
41
1
10
117.665625011804
20
3.72647669454554
30
0
41
1
10
117.972774159589
20
3.60214263132662
30
0
41
1
10
118.587247588427
20
3.34319889678983
30
0
41
1
10
118.894645581373
20
3.20843848235992
30
0
41
1
10
119.508787168198
20
2.93222580678602
30
0
41
1
10
119.815756341542
20
2.79106441545875
30
0
41
1
10
120.429628786438
20
2.50003290987692
30
0
41
1
10
120.736407691997
20
2.34997687973893
30
0
41
1
10
121.351668236675
20
2.04582926728645
30
0
41
1
10
121.658834790257
20
1.89084537509834
30
0
41
1
10
122.272806512184
20
1.57629303400787
30
0
41
1
10
122.579733400638
20
1.41690043648381
30
0
41
1
10
123.194084845425
20
1.09504528983237
30
0
41
1
10
123.501565796553
20
0.932169540059277
30
0
41
1
10
124.11546105933
20
0.60362710740651
30
0
41
1
10
124.422757274798
20
0.43958345294277
30
0
41
1
10
125.036622756456
20
0.109416877450371
30
0
41
1
10
125.343408220137
20
-0.0563072667320341
30
0
41
1
10
125.957784711897
20
-0.387036138335333
30
0
41
1
10
126.265392752178
20
-0.551881355393505
30
0
41
1
10
126.879366728645
20
-0.880124509048073
30
0
41
1
10
127.186013209328
20
-1.04359811856847
30
0
41
1
10
128.10727587865
20
-1.5276272975286
30
0
41
1
10
128.721825913408
20
-1.84576562305659
30
0
41
1
10
129.335760143227
20
-2.15134660679993
30
0
0
SPLINE
5
D8
100
AcDbEntity
8
1
62
256
6
ByLayer
370
18
48
1
60
0
100
AcDbSpline
70
4
71
3
72
8
73
4
40
0
40
0
40
0
40
0
40
1
40
1
40
1
40
1
41
1
10
134.970528008226
20
-0.0314717447399175
30
0
41
1
10
134.930156298109
20
-0.106605747779952
30
0
41
1
10
134.889921064949
20
-0.181861918712542
30
0
41
1
10
134.849822941067
20
-0.257239625762367
30
0
0
SPLINE
5
D9
100
AcDbEntity
8
1
62
256
6
ByLayer
370
18
48
1
60
0
100
AcDbSpline
70
4
71
3
72
58
73
54
40
0
40
0
40
0
40
0
40
0.0444366051757855
40
0.0444366051757855
40
0.0666549077636783
40
0.0666549077636783
40
0.088873210351571
40
0.088873210351571
40
0.133309815527356
40
0.133309815527356
40
0.177746420703141
40
0.177746420703141
40
0.222183025878925
40
0.222183025878925
40
0.26661963105471
40
0.26661963105471
40
0.311056236230494
40
0.311056236230494
40
0.355492841406278
40
0.355492841406278
40
0.399929446582062
40
0.399929446582062
40
0.444366051757847
40
0.444366051757847
40
0.488802656933631
40
0.488802656933631
40
0.511020959521522
40
0.511020959521522
40
0.533239262109413
40
0.533239262109413
40
0.577675867285196
40
0.577675867285196
40
0.622112472460979
40
0.622112472460979
40
0.666549077636761
40
0.666549077636761
40
0.710985682812544
40
0.710985682812544
40
0.755422287988327
40
0.755422287988327
40
0.799858893164109
40
0.799858893164109
40
0.844295498339892
40
0.844295498339892
40
0.888732103515675
40
0.888732103515675
40
0.933168708691457
40
0.933168708691457
40
0.955387011279349
40
0.955387011279349
40
0.97760531386724
40
0.97760531386724
40
1
40
1
40
1
40
1
41
1
10
11.2555531430401
20
2.75534728381876
30
0
41
1
10
11.5729922600534
20
2.59720877385001
30
0
41
1
10
11.8906407679363
20
2.43636923042132
30
0
41
1
10
12.3675744036031
20
2.19146024080513
30
0
41
1
10
12.5265809486071
20
2.10913734974065
30
0
41
1
10
12.8442875112124
20
1.9425041497482
30
0
41
1
10
13.0028214541361
20
1.85790805472698
30
0
41
1
10
13.4791271995158
20
1.60306989373754
30
0
41
1
10
13.7977972710715
20
1.43150947144065
30
0
41
1
10
14.4336308308975
20
1.08367284673361
30
0
41
1
10
14.7508638916513
20
0.907514262202511
30
0
41
1
10
15.3861345966591
20
0.554556219276662
30
0
41
1
10
15.7042316859599
20
0.377875905507807
30
0
41
1
10
16.3395567643735
20
0.0208898060359957
30
0
41
1
10
16.6575893195269
20
-0.157999425457405
30
0
41
1
10
17.2934264968483
20
-0.512919105444951
30
0
41
1
10
17.6107109726392
20
-0.690549649906956
30
0
41
1
10
18.2456493478002
20
-1.04322028319865
30
0
41
1
10
18.5636020428567
20
-1.2177379288365
30
0
41
1
10
19.2001365019305
20
-1.5637389413458
30
0
41
1
10
19.5172614766876
20
-1.73584801231541
30
0
41
1
10
20.1525826032828
20
-2.07235544644558
30
0
41
1
10
20.4703280479904
20
-2.23758364176825
30
0
41
1
10
21.1053488011782
20
-2.56300200989804
30
0
41
1
10
21.4234206792297
20
-2.72247417253993
30
0
41
1
10
21.9004918072734
20
-2.95476210089555
30
0
41
1
10
22.0594604735268
20
-3.03111151493275
30
0
41
1
10
22.3771186914803
20
-3.18190541802815
30
0
41
1
10
22.5356002091392
20
-3.25665530511071
30
0
41
1
10
23.0115850425648
20
-3.47658043656645
30
0
41
1
10
23.3295388066484
20
-3.61762698701233
30
0
41
1
10
23.9651870262899
20
-3.89076499521164
30
0
41
1
10
24.2829956251231
20
-4.02266440273516
30
0
41
1
10
24.9184153029819
20
-4.27337252102848
30
0
41
1
10
25.2363732926567
20
-4.39230987630646
30
0
41
1
10
25.8709422735126
20
-4.61945462831812
30
0
41
1
10
26.1884133522431
20
-4.72662389266534
30
0
41
1
10
26.8249129918555
20
-4.92698967898295
30
0
41
1
10
27.1423558631973
20
-5.02071407571924
30
0
41
1
10
27.7771513001128
20
-5.19355339248582
30
0
41
1
10
28.0948197936863
20
-5.27247540562399
30
0
41
1
10
28.7303386408274
20
-5.41571166294653
30
0
41
1
10
29.0478498254074
20
-5.48042596996089
30
0
41
1
10
29.6836125800836
20
-5.59332486781122
30
0
41
1
10
30.0013517544856
20
-5.6418993034516
30
0
41
1
10
30.6359408062939
20
-5.72351892689434
30
0
41
1
10
30.9533046960099
20
-5.75631184470882
30
0
41
1
10
31.4302314305116
20
-5.79331389769234
30
0
41
1
10
31.5893799140252
20
-5.80363683598785
30
0
41
1
10
31.9073206393232
20
-5.82023777487456
30
0
41
1
10
32.0658885431664
20
-5.82653372826908
30
0
41
1
10
32.3845489318794
20
-5.83500056530031
30
0
41
1
10
32.5446135318263
20
-5.83716954768792
30
0
41
1
10
32.704684974853
20
-5.83726419625708
30
0
0
SPLINE
5
DA
100
AcDbEntity
8
1
62
256
6
ByLayer
370
18
48
1
60
0
100
AcDbSpline
70
4
71
3
72
110
73
106
40
0
40
0
40
0
40
0
40
0.0172581718688234
40
0.0172581718688234
40
0.0390484563676197
40
0.0390484563676197
40
0.0608387408664161
40
0.0608387408664161
40
0.0826290253652125
40
0.0826290253652125
40
0.104419309864009
40
0.104419309864009
40
0.126209594362805
40
0.126209594362805
40
0.137104736612203
40
0.137104736612203
40
0.147999878861602
40
0.147999878861602
40
0.169790163360398
40
0.169790163360398
40
0.191580447859194
40
0.191580447859194
40
0.213370732357991
40
0.213370732357991
40
0.235161016856787
40
0.235161016856787
40
0.256951301355584
40
0.256951301355584
40
0.27874158585438
40
0.27874158585438
40
0.300531870353176
40
0.300531870353176
40
0.322322154851973
40
0.322322154851973
40
0.344112439350769
40
0.344112439350769
40
0.355007581600168
40
0.355007581600168
40
0.365902723849566
40
0.365902723849566
40
0.387693008348364
40
0.387693008348364
40
0.409483292847162
40
0.409483292847162
40
0.43127357734596
40
0.43127357734596
40
0.453063861844758
40
0.453063861844758
40
0.474854146343556
40
0.474854146343556
40
0.496644430842354
40
0.496644430842354
40
0.518434715341152
40
0.518434715341152
40
0.54022499983995
40
0.54022499983995
40
0.562015284338748
40
0.562015284338748
40
0.572910426588146
40
0.572910426588146
40
0.583805568837545
40
0.583805568837545
40
0.605595853336344
40
0.605595853336344
40
0.627386137835143
40
0.627386137835143
40
0.649176422333943
40
0.649176422333943
40
0.670966706832742
40
0.670966706832742
40
0.692756991331541
40
0.692756991331541
40
0.71454727583034
40
0.71454727583034
40
0.736337560329139
40
0.736337560329139
40
0.758127844827938
40
0.758127844827938
40
0.779918129326738
40
0.779918129326738
40
0.790813271576137
40
0.790813271576137
40
0.801708413825537
40
0.801708413825537
40
0.823498698324336
40
0.823498698324336
40
0.845288982823136
40
0.845288982823136
40
0.867079267321935
40
0.867079267321935
40
0.877974409571333
40
0.877974409571333
40
0.888869551820732
40
0.888869551820732
40
0.910659836319529
40
0.910659836319529
40
0.932450120818325
40
0.932450120818325
40
0.954240405317121
40
0.954240405317121
40
0.976030689815918
40
0.976030689815918
40
0.997820974314714
40
0.997820974314714
40
1
40
1
40
1
40
1
41
1
10
54.3325982276252
20
2.85591956550627
30
0
41
1
10
54.5840419178869
20
2.97983493329281
30
0
41
1
10
54.8357105530332
20
3.10113339323664
30
0
41
1
10
55.4048928448319
20
3.36815613279435
30
0
41
1
10
55.7218523839592
20
3.51321203565757
30
0
41
1
10
56.3561597136794
20
3.79286661199626
30
0
41
1
10
56.6737897478445
20
3.9271065799071
30
0
41
1
10
57.3096282053792
20
4.18494520068353
30
0
41
1
10
57.6265170187753
20
4.30897913015832
30
0
41
1
10
58.2612433884681
20
4.54288223139852
30
0
41
1
10
58.5786613943636
20
4.65344111499672
30
0
41
1
10
59.2130211095414
20
4.86231083524964
30
0
41
1
10
59.5307572567337
20
4.96012808596839
30
0
41
1
10
60.0074010139501
20
5.09578338730728
30
0
41
1
10
60.1662231116112
20
5.13919910783324
30
0
41
1
10
60.4835733096626
20
5.22256887901955
30
0
41
1
10
60.6418967567436
20
5.26267726172156
30
0
41
1
10
61.1174230387204
20
5.37696207007156
30
0
41
1
10
61.4350547829951
20
5.44529638356525
30
0
41
1
10
62.0700220058807
20
5.56733187337915
30
0
41
1
10
62.3875447028069
20
5.62087244068056
30
0
41
1
10
63.0223795927142
20
5.71150402062042
30
0
41
1
10
63.3400316817086
20
5.74873414707085
30
0
41
1
10
63.9739435010059
20
5.80757838279322
30
0
41
1
10
64.2910949833956
20
5.82885447563578
30
0
41
1
10
64.9269079639804
20
5.85502174403263
30
0
41
1
10
65.2441153427687
20
5.85996465834819
30
0
41
1
10
65.8783040749371
20
5.85339177790263
30
0
41
1
10
66.1956578095677
20
5.8419457904989
30
0
41
1
10
66.8305191165603
20
5.80281063360013
30
0
41
1
10
67.1476826111185
20
5.77486030253485
30
0
41
1
10
67.7828732900473
20
5.70326442722518
30
0
41
1
10
68.1003138719347
20
5.65958267390951
30
0
41
1
10
68.7342783246139
20
5.55611794896947
30
0
41
1
10
69.051316171965
20
5.49655758028715
30
0
41
1
10
69.5277391061814
20
5.39603189999443
30
0
41
1
10
69.686709024028
20
5.36062035682892
30
0
41
1
10
70.004370624104
20
5.28594195637319
30
0
41
1
10
70.162796063178
20
5.24652168931794
30
0
41
1
10
70.6384493321856
20
5.12324288526148
30
0
41
1
10
70.9559523318546
20
5.03437924498061
30
0
41
1
10
71.5902390477888
20
4.84204242454427
30
0
41
1
10
71.9071169481153
20
4.73857409407856
30
0
41
1
10
72.5424968452426
20
4.51920825959473
30
0
41
1
10
72.8604047290181
20
4.40368265827257
30
0
41
1
10
73.4942317141333
20
4.15898946636551
30
0
41
1
10
73.8110946336363
20
4.03076106563387
30
0
41
1
10
74.4459366352826
20
3.76423560424274
30
0
41
1
10
74.7634005186608
20
3.62475065129038
30
0
41
1
10
75.3980596168698
20
3.33639408480579
30
0
41
1
10
75.7154290150132
20
3.18804550488579
30
0
41
1
10
76.3499040380121
20
2.88259634843399
30
0
41
1
10
76.6663794925396
20
2.72448468423116
30
0
41
1
10
77.3012484911104
20
2.40282342879757
30
0
41
1
10
77.6192802540656
20
2.23852007762684
30
0
41
1
10
78.2534323146564
20
1.90314933510655
30
0
41
1
10
78.5703382908021
20
1.73278463029001
30
0
41
1
10
79.0462487897819
20
1.47462304480229
30
0
41
1
10
79.2049320135407
20
1.38805727518655
30
0
41
1
10
79.5222272816784
20
1.21361228809994
30
0
41
1
10
79.6806310104257
20
1.12536662506284
30
0
41
1
10
80.1566735306257
20
0.860272979923337
30
0
41
1
10
80.4744484771009
20
0.683330824803079
30
0
41
1
10
81.1086496922144
20
0.326739282326201
30
0
41
1
10
81.4252594576454
20
0.147160197344306
30
0
41
1
10
82.0596666391987
20
-0.210712147282294
30
0
41
1
10
82.3777926273964
20
-0.38905608796864
30
0
41
1
10
83.0121348373262
20
-0.746594357030887
30
0
41
1
10
83.3289914730293
20
-0.924319773742695
30
0
41
1
10
83.9634474655111
20
-1.27532211463327
30
0
41
1
10
84.2802357596002
20
-1.45001134474865
30
0
41
1
10
84.9145526369572
20
-1.79492779254826
30
0
41
1
10
85.2325007658889
20
-1.96469715453404
30
0
41
1
10
85.8671770911863
20
-2.29812038789734
30
0
41
1
10
86.1835366687225
20
-2.46294392515517
30
0
41
1
10
86.8177208976628
20
-2.78325188165047
30
0
41
1
10
87.1351059402017
20
-2.93948199898119
30
0
41
1
10
87.7697744925413
20
-3.24508002866295
30
0
41
1
10
88.0869589125541
20
-3.39335312579729
30
0
41
1
10
88.562798239062
20
-3.60759487379585
30
0
41
1
10
88.7214045672632
20
-3.67773190901602
30
0
41
1
10
89.0384463914309
20
-3.81566219165717
30
0
41
1
10
89.1966718242066
20
-3.88373243868224
30
0
41
1
10
89.6719785983217
20
-4.0831888751095
30
0
41
1
10
89.9899512620356
20
-4.21000161279582
30
0
41
1
10
90.6246553151909
20
-4.4524695385841
30
0
41
1
10
90.9412865529902
20
-4.56793835378869
30
0
41
1
10
91.5753016477727
20
-4.78490714897234
30
0
41
1
10
91.8927375087441
20
-4.88643542879873
30
0
41
1
10
92.3682646692204
20
-5.0294723902866
30
0
41
1
10
92.5267462826563
20
-5.07558093035817
30
0
41
1
10
92.8441354876696
20
-5.16379466430615
30
0
41
1
10
93.0028456743262
20
-5.20598300911337
30
0
41
1
10
93.4788413699574
20
-5.32700624571004
30
0
41
1
10
93.7955292545101
20
-5.40063635812263
30
0
41
1
10
94.4291727100733
20
-5.53253320577642
30
0
41
1
10
94.7464483328291
20
-5.59063764268538
30
0
41
1
10
95.3816235804821
20
-5.6913818590362
30
0
41
1
10
95.698290133823
20
-5.73415040379331
30
0
41
1
10
96.3323715536218
20
-5.80297206392549
30
0
41
1
10
96.6495093975652
20
-5.8292935148836
30
0
41
1
10
97.2832258947394
20
-5.86583186846082
30
0
41
1
10
97.6005756910309
20
-5.87590618062808
30
0
41
1
10
97.9497945714576
20
-5.87794572992408
30
0
41
1
10
97.9815393199746
20
-5.87804939458721
30
0
41
1
10
98.013281081835
20
-5.87807127885674
30
0
0
SPLINE
5
DB
100
AcDbEntity
8
1
62
256
6
ByLayer
370
18
48
1
60
0
100
AcDbSpline
70
4
71
3
72
42
73
38
40
0
40
0
40
0
40
0
40
0.0114391046027066
40
0.0114391046027066
40
0.0820505971310933
40
0.0820505971310933
40
0.117356343395284
40
0.117356343395284
40
0.152662089659476
40
0.152662089659476
40
0.223273582187854
40
0.223273582187854
40
0.293885074716231
40
0.293885074716231
40
0.364496567244609
40
0.364496567244609
40
0.435108059772986
40
0.435108059772986
40
0.505719552301363
40
0.505719552301363
40
0.541025298565552
40
0.541025298565552
40
0.57633104482974
40
0.57633104482974
40
0.646942537358118
40
0.646942537358118
40
0.717554029886495
40
0.717554029886495
40
0.788165522414873
40
0.788165522414873
40
0.82347126867906
40
0.82347126867906
40
0.858777014943246
40
0.858777014943246
40
0.929388507471623
40
0.929388507471623
40
1
40
1
40
1
40
1
41
1
10
119.636519157846
20
2.87330966098512
30
0
41
1
10
119.687823478449
20
2.89873902872151
30
0
41
1
10
119.73913798271
20
2.92405434756651
30
0
41
1
10
120.107315340803
20
3.10476363327942
30
0
41
1
10
120.425028366858
20
3.25574727239302
30
0
41
1
10
120.900536521415
20
3.47627952875334
30
0
41
1
10
121.058709131857
20
3.5489000264651
30
0
41
1
10
121.375441029194
20
3.69087846340599
30
0
41
1
10
121.533875727237
20
3.76042046979686
30
0
41
1
10
122.009250956875
20
3.96493034740161
30
0
41
1
10
122.325796257349
20
4.09639156610811
30
0
41
1
10
122.95939947615
20
4.34779514240626
30
0
41
1
10
123.27699815375
20
4.46734213176191
30
0
41
1
10
123.91112894304
20
4.69342378708777
30
0
41
1
10
124.227221776332
20
4.80076500086133
30
0
41
1
10
124.860684957466
20
5.00063141721489
30
0
41
1
10
125.177801816703
20
5.0934988280224
30
0
41
1
10
125.811816529655
20
5.26587536190496
30
0
41
1
10
126.12869777594
20
5.3447817189834
30
0
41
1
10
126.60406164453
20
5.45137143798161
30
0
41
1
10
126.762517392916
20
5.48499175051577
30
0
41
1
10
127.079288266019
20
5.54850162386748
30
0
41
1
10
127.237425534688
20
5.57849145714948
30
0
41
1
10
127.712141181871
20
5.66248040470575
30
0
41
1
10
128.029714723716
20
5.71036835917761
30
0
41
1
10
128.663960308706
20
5.79042564714484
30
0
41
1
10
128.98027356797
20
5.82252736966757
30
0
41
1
10
129.613599907811
20
5.87018643521847
30
0
41
1
10
129.930647979082
20
5.88583067268272
30
0
41
1
10
130.405869131785
20
5.89709843967285
30
0
41
1
10
130.564111757415
20
5.8988046608344
30
0
41
1
10
130.8811671917
20
5.89806409497675
30
0
41
1
10
131.039720219102
20
5.89563325116998
30
0
41
1
10
131.515338599514
20
5.88222783717862
30
0
41
1
10
131.831903087452
20
5.86507722916062
30
0
41
1
10
132.465118508823
20
5.81437836848855
30
0
41
1
10
132.782337439229
20
5.78093921347934
30
0
41
1
10
133.099607434299
20
5.73951547089095
30
0
0
SPLINE
5
DC
100
AcDbEntity
8
1
62
256
6
ByLayer
370
18
48
1
60
0
100
AcDbSpline
70
4
71
3
72
8
73
4
40
0
40
0
40
0
40
0
40
1
40
1
40
1
40
1
41
1
10
7.09956120717291
20
-1.63953860995068
30
0
41
1
10
7.09956120717291
20
-1.57886223817189
30
0
41
1
10
7.09956120717294
20
-1.51821000406318
30
0
41
1
10
7.09956120717294
20
-1.45758125918172
30
0
0
SPLINE
5
DD
100
AcDbEntity
8
1
62
256
6
ByLayer
370
18
48
1
60
0
100
AcDbSpline
70
4
71
3
72
110
73
106
40
0
40
0
40
0
40
0
40
0.0013086970535476
40
0.0013086970535476
40
0.0122142925323922
40
0.0122142925323922
40
0.0231198880112369
40
0.0231198880112369
40
0.0449310789689255
40
0.0449310789689255
40
0.0667422699266141
40
0.0667422699266141
40
0.0885534608843027
40
0.0885534608843027
40
0.110364651841991
40
0.110364651841991
40
0.13217584279968
40
0.13217584279968
40
0.153987033757369
40
0.153987033757369
40
0.175798224715057
40
0.175798224715057
40
0.197609415672746
40
0.197609415672746
40
0.219420606630435
40
0.219420606630435
40
0.230326202109279
40
0.230326202109279
40
0.241231797588123
40
0.241231797588123
40
0.263042988545811
40
0.263042988545811
40
0.284854179503499
40
0.284854179503499
40
0.306665370461187
40
0.306665370461187
40
0.328476561418875
40
0.328476561418875
40
0.350287752376562
40
0.350287752376562
40
0.37209894333425
40
0.37209894333425
40
0.393910134291938
40
0.393910134291938
40
0.415721325249626
40
0.415721325249626
40
0.437532516207314
40
0.437532516207314
40
0.448438111686157
40
0.448438111686157
40
0.459343707165001
40
0.459343707165001
40
0.481154898122689
40
0.481154898122689
40
0.502966089080377
40
0.502966089080377
40
0.524777280038065
40
0.524777280038065
40
0.546588470995753
40
0.546588470995753
40
0.56839966195344
40
0.56839966195344
40
0.590210852911128
40
0.590210852911128
40
0.612022043868816
40
0.612022043868816
40
0.633833234826504
40
0.633833234826504
40
0.655644425784192
40
0.655644425784192
40
0.666550021263035
40
0.666550021263035
40
0.677455616741879
40
0.677455616741879
40
0.699266807699566
40
0.699266807699566
40
0.721077998657253
40
0.721077998657253
40
0.74288918961494
40
0.74288918961494
40
0.764700380572627
40
0.764700380572627
40
0.786511571530314
40
0.786511571530314
40
0.808322762488001
40
0.808322762488001
40
0.830133953445689
40
0.830133953445689
40
0.851945144403376
40
0.851945144403376
40
0.873756335361063
40
0.873756335361063
40
0.884661930839906
40
0.884661930839906
40
0.89556752631875
40
0.89556752631875
40
0.917378717276437
40
0.917378717276437
40
0.939189908234125
40
0.939189908234125
40
0.961001099191813
40
0.961001099191813
40
0.982812290149501
40
0.982812290149501
40
1
40
1
40
1
40
1
41
1
10
21.6842183052493
20
2.84940816397207
30
0
41
1
10
21.7033015731485
20
2.85873278430557
30
0
41
1
10
21.7223848795655
20
2.86804109257821
30
0
41
1
10
21.9004918072734
20
2.95476210089552
30
0
41
1
10
22.0594604735267
20
3.03111151493272
30
0
41
1
10
22.3771186914802
20
3.18190541802812
30
0
41
1
10
22.5356002091392
20
3.25665530511071
30
0
41
1
10
23.0115850425649
20
3.47658043656645
30
0
41
1
10
23.3295388066484
20
3.6176269870123
30
0
41
1
10
23.9651870262899
20
3.89076499521161
30
0
41
1
10
24.2829956251232
20
4.02266440273513
30
0
41
1
10
24.9184153029819
20
4.27337252102851
30
0
41
1
10
25.2363732926568
20
4.39230987630643
30
0
41
1
10
25.8709422735126
20
4.61945462831815
30
0
41
1
10
26.1884133522431
20
4.72662389266534
30
0
41
1
10
26.8249129918555
20
4.92698967898292
30
0
41
1
10
27.1423558631972
20
5.02071407571924
30
0
41
1
10
27.7771513001128
20
5.19355339248582
30
0
41
1
10
28.0948197936863
20
5.27247540562399
30
0
41
1
10
28.7303386408274
20
5.41571166294653
30
0
41
1
10
29.0478498254074
20
5.48042596996089
30
0
41
1
10
29.6836125800836
20
5.59332486781125
30
0
41
1
10
30.0013517544857
20
5.64189930345157
30
0
41
1
10
30.6359408062939
20
5.72351892689434
30
0
41
1
10
30.9533046960099
20
5.75631184470882
30
0
41
1
10
31.4302314305116
20
5.79331389769234
30
0
41
1
10
31.5893799140252
20
5.80363683598785
30
0
41
1
10
31.9073206393232
20
5.82023777487456
30
0
41
1
10
32.0658885431664
20
5.82653372826908
30
0
41
1
10
32.5419893251741
20
5.83918377162078
30
0
41
1
10
32.8598011773704
20
5.83942305614963
30
0
41
1
10
33.494722101378
20
5.82362033965307
30
0
41
1
10
33.8119350348557
20
5.80748687541217
30
0
41
1
10
34.4480063492144
20
5.75905372772178
30
0
41
1
10
34.7661515113317
20
5.72693464180361
30
0
41
1
10
35.4005603048008
20
5.64622646205729
30
0
41
1
10
35.7177625588775
20
5.59792165115158
30
0
41
1
10
36.3532583985937
20
5.48614330132503
30
0
41
1
10
36.6710610010973
20
5.42214928983319
30
0
41
1
10
37.3062995280745
20
5.27929946554366
30
0
41
1
10
37.6239744250492
20
5.20072770098813
30
0
41
1
10
38.2590657851546
20
5.02915659924335
30
0
41
1
10
38.5758623193264
20
4.93553164611589
30
0
41
1
10
39.2114154406024
20
4.73575967675677
30
0
41
1
10
39.5297243876767
20
4.62917977002002
30
0
41
1
10
40.1644626572939
20
4.4027155415198
30
0
41
1
10
40.4816890601559
20
4.28329853953079
30
0
41
1
10
40.9580822930592
20
4.09591750647351
30
0
41
1
10
41.1169287978115
20
4.03203119748068
30
0
41
1
10
41.4345431007754
20
3.90116137502835
30
0
41
1
10
41.5931071321164
20
3.83389767603893
30
0
41
1
10
42.069684916655
20
3.62874387182589
30
0
41
1
10
42.3876976387283
20
3.48770521001407
30
0
41
1
10
43.0224839550683
20
3.19515470762849
30
0
41
1
10
43.3394168258804
20
3.04372645415154
30
0
41
1
10
43.9744947574725
20
2.73379183369954
30
0
41
1
10
44.2929825731485
20
2.57528995581541
30
0
41
1
10
44.9278269180448
20
2.24920462042027
30
0
41
1
10
45.2450417648177
20
2.08312783764427
30
0
41
1
10
45.8801167656344
20
1.7467528442487
30
0
41
1
10
46.197206921767
20
1.57515240566434
30
0
41
1
10
46.8322116725397
20
1.22799746599554
30
0
41
1
10
47.1504653343833
20
1.05291352999464
30
0
41
1
10
47.7857151788742
20
0.700411921261264
30
0
41
1
10
48.1023745333189
20
0.521738367071094
30
0
41
1
10
48.7372242954473
20
0.165683811404051
30
0
41
1
10
49.0549168431357
20
-0.0125739751238712
30
0
41
1
10
49.6902646376149
20
-0.370592124302163
30
0
41
1
10
50.007706802508
20
-0.549016620050878
30
0
41
1
10
50.4840061310573
20
-0.814275627509261
30
0
41
1
10
50.6427674125783
20
-0.902385471903273
30
0
41
1
10
50.9601022009175
20
-1.07829546090801
30
0
41
1
10
51.1184719455855
20
-1.16645075132675
30
0
41
1
10
51.5943057289465
20
-1.42867958415894
30
0
41
1
10
51.912637581323
20
-1.60092350557153
30
0
41
1
10
52.5478750443143
20
-1.94175727126086
30
0
41
1
10
52.8648162272229
20
-2.11009216582642
30
0
41
1
10
53.4994795985326
20
-2.43905832255976
30
0
41
1
10
53.8172620351461
20
-2.59963342189622
30
0
41
1
10
54.4518546839761
20
-2.91590094339156
30
0
41
1
10
54.7696490875265
20
-3.07014171666313
30
0
41
1
10
55.4048928448319
20
-3.36815613279435
30
0
41
1
10
55.7218523839592
20
-3.51321203565757
30
0
41
1
10
56.3561597136794
20
-3.79286661199629
30
0
41
1
10
56.6737897478445
20
-3.9271065799071
30
0
41
1
10
57.3096282053792
20
-4.18494520068353
30
0
41
1
10
57.6265170187753
20
-4.30897913015832
30
0
41
1
10
58.261243388468
20
-4.54288223139852
30
0
41
1
10
58.5786613943636
20
-4.6534411149967
30
0
41
1
10
59.2130211095414
20
-4.86231083524964
30
0
41
1
10
59.5307572567337
20
-4.96012808596839
30
0
41
1
10
60.0074010139501
20
-5.09578338730728
30
0
41
1
10
60.1662231116112
20
-5.13919910783324
30
0
41
1
10
60.4835733096626
20
-5.22256887901955
30
0
41
1
10
60.6418967567436
20
-5.26267726172156
30
0
41
1
10
61.1174230387204
20
-5.37696207007156
30
0
41
1
10
61.4350547829951
20
-5.44529638356525
30
0
41
1
10
62.0700220058807
20
-5.56733187337915
30
0
41
1
10
62.3875447028069
20
-5.62087244068053
30
0
41
1
10
63.0223795927143
20
-5.71150402062042
30
0
41
1
10
63.3400316817087
20
-5.74873414707085
30
0
41
1
10
63.9739435010059
20
-5.80757838279322
30
0
41
1
10
64.2910949833956
20
-5.82885447563578
30
0
41
1
10
64.8595189500302
20
-5.85224830833866
30
0
41
1
10
65.1096022924561
20
-5.85750328663505
30
0
41
1
10
65.3595383059756
20
-5.85765967172341
30
0
0
SPLINE
5
DE
100
AcDbEntity
8
1
62
256
6
ByLayer
370
18
48
1
60
0
100
AcDbSpline
70
4
71
3
72
118
73
114
40
0
40
0
40
0
40
0
40
0.0106676956640392
40
0.0106676956640392
40
0.0324390202355476
40
0.0324390202355476
40
0.0433246825213019
40
0.0433246825213019
40
0.0542103448070563
40
0.0542103448070563
40
0.0759816693785647
40
0.0759816693785647
40
0.097752993950073
40
0.097752993950073
40
0.119524318521581
40
0.119524318521581
40
0.130409980807335
40
0.130409980807335
40
0.141295643093088
40
0.141295643093088
40
0.163066967664594
40
0.163066967664594
40
0.184838292236099
40
0.184838292236099
40
0.206609616807605
40
0.206609616807605
40
0.22838094137911
40
0.22838094137911
40
0.250152265950616
40
0.250152265950616
40
0.261037928236369
40
0.261037928236369
40
0.271923590522122
40
0.271923590522122
40
0.293694915093628
40
0.293694915093628
40
0.315466239665135
40
0.315466239665135
40
0.337237564236642
40
0.337237564236642
40
0.348123226522396
40
0.348123226522396
40
0.359008888808149
40
0.359008888808149
40
0.380780213379657
40
0.380780213379657
40
0.402551537951165
40
0.402551537951165
40
0.424322862522674
40
0.424322862522674
40
0.446094187094182
40
0.446094187094182
40
0.467865511665691
40
0.467865511665691
40
0.478751173951445
40
0.478751173951445
40
0.489636836237199
40
0.489636836237199
40
0.511408160808708
40
0.511408160808708
40
0.533179485380216
40
0.533179485380216
40
0.554950809951724
40
0.554950809951724
40
0.565836472237478
40
0.565836472237478
40
0.576722134523232
40
0.576722134523232
40
0.598493459094741
40
0.598493459094741
40
0.620264783666249
40
0.620264783666249
40
0.642036108237758
40
0.642036108237758
40
0.663807432809266
40
0.663807432809266
40
0.685578757380774
40
0.685578757380774
40
0.696464419666529
40
0.696464419666529
40
0.707350081952283
40
0.707350081952283
40
0.729121406523793
40
0.729121406523793
40
0.750892731095303
40
0.750892731095303
40
0.772664055666813
40
0.772664055666813
40
0.783549717952568
40
0.783549717952568
40
0.794435380238324
40
0.794435380238324
40
0.816206704809835
40
0.816206704809835
40
0.837978029381346
40
0.837978029381346
40
0.859749353952857
40
0.859749353952857
40
0.881520678524368
40
0.881520678524368
40
0.90329200309588
40
0.90329200309588
40
0.914177665381635
40
0.914177665381635
40
0.925063327667391
40
0.925063327667391
40
0.946834652238902
40
0.946834652238902
40
0.968605976810413
40
0.968605976810413
40
0.990377301381924
40
0.990377301381924
40
1
40
1
40
1
40
1
41
1
10
86.9859737770158
20
2.86514252272653
30
0
41
1
10
87.1414478236101
20
2.94171776727092
30
0
41
1
10
87.2969501142039
20
3.01741127483425
30
0
41
1
10
87.7697744925413
20
3.24508002866295
30
0
41
1
10
88.0869589125542
20
3.39335312579732
30
0
41
1
10
88.562798239062
20
3.60759487379585
30
0
41
1
10
88.7214045672631
20
3.67773190901605
30
0
41
1
10
89.0384463914309
20
3.81566219165717
30
0
41
1
10
89.1966718242067
20
3.88373243868227
30
0
41
1
10
89.6719785983219
20
4.08318887510953
30
0
41
1
10
89.9899512620357
20
4.21000161279579
30
0
41
1
10
90.6246553151909
20
4.45246953858415
30
0
41
1
10
90.9412865529903
20
4.56793835378866
30
0
41
1
10
91.5753016477727
20
4.78490714897239
30
0
41
1
10
91.8927375087442
20
4.88643542879876
30
0
41
1
10
92.3682646692204
20
5.0294723902866
30
0
41
1
10
92.5267462826563
20
5.07558093035817
30
0
41
1
10
92.8441354876695
20
5.16379466430612
30
0
41
1
10
93.0028456743263
20
5.20598300911337
30
0
41
1
10
93.4788413699574
20
5.32700624571007
30
0
41
1
10
93.7955292545102
20
5.40063635812263
30
0
41
1
10
94.4291727100732
20
5.53253320577642
30
0
41
1
10
94.7464483328291
20
5.59063764268538
30
0
41
1
10
95.3816235804821
20
5.6913818590362
30
0
41
1
10
95.6982901338231
20
5.73415040379334
30
0
41
1
10
96.3323715536218
20
5.80297206392549
30
0
41
1
10
96.6495093975653
20
5.8292935148836
30
0
41
1
10
97.2832258947394
20
5.86583186846082
30
0
41
1
10
97.6005756910309
20
5.87590618062808
30
0
41
1
10
98.0767833101745
20
5.87868738453432
30
0
41
1
10
98.2354595377198
20
5.87757072993267
30
0
41
1
10
98.5525424905782
20
5.87124205100591
30
0
41
1
10
98.7107397627063
20
5.86600127972335
30
0
41
1
10
99.1857483701733
20
5.84415451230612
30
0
41
1
10
99.5030427484076
20
5.82153866322108
30
0
41
1
10
100.137392487845
20
5.75994287348192
30
0
41
1
10
100.45460666312
20
5.72083645760702
30
0
41
1
10
101.088818105277
20
5.62719385370764
30
0
41
1
10
101.406129372478
20
5.57276053315204
30
0
41
1
10
101.881203823014
20
5.47898160983002
30
0
41
1
10
102.039398434564
20
5.44566638344193
30
0
41
1
10
102.35637276871
20
5.37553069016934
30
0
41
1
10
102.515036108872
20
5.33864230025233
30
0
41
1
10
102.991385280319
20
5.22242099192854
30
0
41
1
10
103.308405633519
20
5.13727198819649
30
0
41
1
10
103.941957311972
20
4.95302149976882
30
0
41
1
10
104.258963948575
20
4.85423371800132
30
0
41
1
10
104.893200195093
20
4.6432139861858
30
0
41
1
10
105.210029818521
20
4.53010685012822
30
0
41
1
10
105.844598018145
20
4.2930082687071
30
0
41
1
10
106.161786030966
20
4.16875723595291
30
0
41
1
10
106.795146105754
20
3.90780233403677
30
0
41
1
10
107.111816064924
20
3.77170268134501
30
0
41
1
10
107.587723570137
20
3.56041602489029
30
0
41
1
10
107.746507956357
20
3.48871319381237
30
0
41
1
10
108.063927121493
20
3.34267576177388
30
0
41
1
10
108.222247715509
20
3.26808828413874
30
0
41
1
10
108.697394031721
20
3.04158736629213
30
0
41
1
10
109.01456970424
20
2.88723103322735
30
0
41
1
10
109.648288588313
20
2.56965620668359
30
0
41
1
10
109.964817151781
20
2.40636637405365
30
0
41
1
10
110.599464692844
20
2.074365845844
30
0
41
1
10
110.917089606746
20
1.90604373418233
30
0
41
1
10
111.392157462833
20
1.64857579935941
30
0
41
1
10
111.550266827811
20
1.56180278212176
30
0
41
1
10
111.866974421085
20
1.3880316200426
30
0
41
1
10
112.025450622642
20
1.3008280491573
30
0
41
1
10
112.50109353562
20
1.03801158843336
30
0
41
1
10
112.818266350394
20
0.86022752803072
30
0
41
1
10
113.452318719264
20
0.502896932554108
30
0
41
1
10
113.769348766053
20
0.32410556773803
30
0
41
1
10
114.403237977516
20
-0.0340416973711797
30
0
41
1
10
114.719418741639
20
-0.214599403294045
30
0
41
1
10
115.353549398411
20
-0.572847281837682
30
0
41
1
10
115.671339757063
20
-0.751179374822243
30
0
41
1
10
116.304929680665
20
-1.10641845562068
30
0
41
1
10
116.621474863261
20
-1.28260383479133
30
0
41
1
10
117.096889650486
20
-1.54307881776461
30
0
41
1
10
117.255412506794
20
-1.62935433105747
30
0
41
1
10
117.572417730976
20
-1.80104640290082
30
0
41
1
10
117.730706781358
20
-1.88678785811743
30
0
41
1
10
118.206151589908
20
-2.14162471709557
30
0
41
1
10
118.523658669644
20
-2.30759521876249
30
0
41
1
10
119.157344755196
20
-2.63357989378926
30
0
41
1
10
119.47361970228
20
-2.79373232274449
30
0
41
1
10
120.107315340803
20
-3.10476363327942
30
0
41
1
10
120.425028366858
20
-3.25574727239305
30
0
41
1
10
120.900536521415
20
-3.47627952875337
30
0
41
1
10
121.058709131858
20
-3.5489000264651
30
0
41
1
10
121.375441029194
20
-3.69087846340599
30
0
41
1
10
121.533875727237
20
-3.76042046979691
30
0
41
1
10
122.009250956875
20
-3.96493034740155
30
0
41
1
10
122.325796257349
20
-4.09639156610814
30
0
41
1
10
122.95939947615
20
-4.34779514240628
30
0
41
1
10
123.27699815375
20
-4.46734213176197
30
0
41
1
10
123.91112894304
20
-4.6934237870878
30
0
41
1
10
124.227221776332
20
-4.80076500086136
30
0
41
1
10
124.860684957466
20
-5.00063141721492
30
0
41
1
10
125.177801816703
20
-5.0934988280224
30
0
41
1
10
125.811816529655
20
-5.26587536190499
30
0
41
1
10
126.12869777594
20
-5.3447817189834
30
0
41
1
10
126.60406164453
20
-5.45137143798163
30
0
41
1
10
126.762517392916
20
-5.48499175051577
30
0
41
1
10
127.079288266019
20
-5.54850162386751
30
0
41
1
10
127.237425534688
20
-5.57849145714948
30
0
41
1
10
127.712141181871
20
-5.66248040470575
30
0
41
1
10
128.029714723716
20
-5.71036835917761
30
0
41
1
10
128.663960308706
20
-5.79042564714487
30
0
41
1
10
128.98027356797
20
-5.82252736966757
30
0
41
1
10
129.613599907811
20
-5.87018643521847
30
0
41
1
10
129.930647979082
20
-5.88583067268272
30
0
41
1
10
130.387490612891
20
-5.89666267441422
30
0
41
1
10
130.527390659841
20
-5.89838115572496
30
0
41
1
10
130.667472729162
20
-5.89847944693565
30
0
0
SPLINE
5
DF
100
AcDbEntity
8
1
62
256
6
ByLayer
370
18
48
1
60
0
100
AcDbSpline
70
4
71
3
72
8
73
4
40
0
40
0
40
0
40
0
40
1
40
1
40
1
40
1
41
1
10
132.960291964933
20
-5.69431002503723
30
0
41
1
10
132.934175548296
20
-5.76030103406447
30
0
41
1
10
132.908042894139
20
-5.82620027701185
30
0
41
1
10
132.88189755716
20
-5.89200972846777
30
0
0
SPLINE
5
E0
100
AcDbEntity
8
1
62
256
6
ByLayer
370
18
48
1
60
0
100
AcDbSpline
70
4
71
3
72
8
73
4
40
0
40
0
40
0
40
0
40
1
40
1
40
1
40
1
41
1
10
133.099607434299
20
-5.73951547089098
30
0
41
1
10
133.015179122286
20
-5.82210914796394
30
0
41
1
10
132.942868051712
20
-5.87339111986432
30
0
41
1
10
132.88189755716
20
-5.89200972846777
30
0
0
SPLINE
5
E1
100
AcDbEntity
8
1
62
256
6
ByLayer
370
18
48
1
60
0
100
AcDbSpline
70
4
71
3
72
14
73
10
40
0
40
0
40
0
40
0
40
0.0394538779790284
40
0.0394538779790284
40
0.347716333596474
40
0.347716333596474
40
0.964241244831376
40
0.964241244831376
40
1
40
1
40
1
40
1
41
1
10
99.8851381168612
20
-5.58391796024412
30
0
41
1
10
99.800756758824
20
-5.58378506062533
30
0
41
1
10
99.7163821539999
20
-5.58310052631919
30
0
41
1
10
98.9738319982211
20
-5.57220105817402
30
0
41
1
10
98.3200068657643
20
-5.52903056826423
30
0
41
1
10
96.3639976023301
20
-5.30351522265752
30
0
41
1
10
95.0675780675564
20
-5.02514193573856
30
0
41
1
10
93.6822459773457
20
-4.60978777849476
30
0
41
1
10
93.6062557132402
20
-4.58663444913799
30
0
41
1
10
93.5302172432536
20
-4.56310074672129
30
0
0
SPLINE
5
E2
100
AcDbEntity
8
1
62
256
6
ByLayer
370
13
48
1
60
0
100
AcDbSpline
70
4
71
3
72
24
73
20
40
0
40
0
40
0
40
0
40
0.0537211644812117
40
0.0537211644812117
40
0.0886959726026132
40
0.0886959726026132
40
0.123670780724014
40
0.123670780724014
40
0.263570013209612
40
0.263570013209612
40
0.543368478180812
40
0.543368478180812
40
0.613318094423611
40
0.613318094423611
40
0.68326771066641
40
0.68326771066641
40
0.823166943152008
40
0.823166943152008
40
1
40
1
40
1
40
1
41
1
10
93.5302172437932
20
-4.5631007468883
30
0
41
1
10
93.2785065320516
20
-4.48519695705883
30
0
41
1
10
93.0262675737459
20
-4.40312498779514
30
0
41
1
10
92.6087555253532
20
-4.26091136194989
30
0
41
1
10
92.4436887407592
20
-4.20304897847501
30
0
41
1
10
92.1144170743177
20
-4.08451492527246
30
0
41
1
10
91.9500619903942
20
-4.02379531182814
30
0
41
1
10
91.129443602173
20
-3.71330186447031
30
0
41
1
10
90.476856618746
20
-3.44264482102122
30
0
41
1
10
88.5227612324342
20
-2.57703786130406
30
0
41
1
10
87.2251366960478
20
-1.92792551203672
30
0
41
1
10
85.5841418790236
20
-1.06935480463048
30
0
41
1
10
85.2542663509309
20
-0.894935202307806
30
0
41
1
10
84.5953895346035
20
-0.544452030809481
30
0
41
1
10
84.2670882399242
20
-0.368765905291212
30
0
41
1
10
83.2846144588467
20
0.157776303082329
30
0
41
1
10
82.6329426638088
20
0.508268638717993
30
0
41
1
10
81.1589582430645
20
1.28910791249137
30
0
41
1
10
80.3371802563206
20
1.71641286683575
30
0
41
1
10
79.5113602654663
20
2.12544514558329
30
0
0
SPLINE
5
E3
100
AcDbEntity
8
1
62
256
6
ByLayer
370
18
48
1
60
0
100
AcDbSpline
70
4
71
3
72
10
73
6
40
0
40
0
40
0
40
0
40
0.565475523686513
40
0.565475523686513
40
1
40
1
40
1
40
1
41
1
10
34.5891316960484
20
-5.5432240183363
30
0
41
1
10
33.3765757405272
20
-5.5414459931979
30
0
41
1
10
32.1637494901137
20
-5.42636971401487
30
0
41
1
10
29.9897072768178
20
-5.02405337604978
30
0
41
1
10
29.0544190276335
20
-4.78662245304042
30
0
41
1
10
28.1215821431148
20
-4.49570983648292
30
0
0
SPLINE
5
E4
100
AcDbEntity
8
1
62
256
6
ByLayer
370
13
48
1
60
0
100
AcDbSpline
70
4
71
3
72
26
73
22
40
0
40
0
40
0
40
0
40
0.0803789246616969
40
0.0803789246616969
40
0.221403459274825
40
0.221403459274825
40
0.291915726581391
40
0.291915726581391
40
0.362427993887957
40
0.362427993887957
40
0.503452528501088
40
0.503452528501088
40
0.644477063114219
40
0.644477063114219
40
0.785501597727351
40
0.785501597727351
40
0.856013865033918
40
0.856013865033918
40
0.926526132340485
40
0.926526132340485
40
1
40
1
40
1
40
1
41
1
10
28.1215821436057
20
-4.49570983663602
30
0
41
1
10
27.7497847919888
20
-4.37976186955197
30
0
41
1
10
27.3783768521529
20
-4.25531806265531
30
0
41
1
10
26.3551982026826
20
-3.89072905761563
30
0
41
1
10
25.7032431158968
20
-3.63416523771434
30
0
41
1
10
24.7210327385572
20
-3.21760439748422
30
0
41
1
10
24.3929460390555
20
-3.07346183632609
30
0
41
1
10
23.7348040667551
20
-2.77543264584298
30
0
41
1
10
23.4039669829882
20
-2.62118024346003
30
0
41
1
10
22.4156287427735
20
-2.14937632307999
30
0
41
1
10
21.7609325506105
20
-1.82227094647996
30
0
41
1
10
20.454865032469
20
-1.1524750171711
30
0
41
1
10
19.8038127545865
20
-0.80924597570791
30
0
41
1
10
18.4998762017015
20
-0.117027463582588
30
0
41
1
10
17.8469712779456
20
0.231917186488687
30
0
41
1
10
16.8625299225337
20
0.752588325158939
30
0
41
1
10
16.5336056742569
20
0.925812695876942
30
0
41
1
10
15.8734955550319
20
1.27025102094007
30
0
41
1
10
15.5433578162144
20
1.44087141928978
30
0
41
1
10
14.8722785587834
20
1.78260733350041
30
0
41
1
10
14.5308307229528
20
1.95379382784978
30
0
41
1
10
14.1900237890172
20
2.12121211446092
30
0
0
SPLINE
5
E5
100
AcDbEntity
8
1
62
256
6
ByLayer
370
18
48
1
60
0
100
AcDbSpline
70
4
71
3
72
46
73
42
40
0
40
0
40
0
40
0
40
0.0625000000000049
40
0.0625000000000049
40
0.12500000000001
40
0.12500000000001
40
0.187500000000015
40
0.187500000000015
40
0.218750000000017
40
0.218750000000017
40
0.250000000000019
40
0.250000000000019
40
0.375000000000029
40
0.375000000000029
40
0.406250000000031
40
0.406250000000031
40
0.437500000000033
40
0.437500000000033
40
0.500000000000038
40
0.500000000000038
40
0.562500000000043
40
0.562500000000043
40
0.625000000000048
40
0.625000000000048
40
0.656250000000051
40
0.656250000000051
40
0.660156250000051
40
0.660156250000051
40
0.664062500000051
40
0.664062500000051
40
0.671875000000051
40
0.671875000000051
40
0.67968750000005
40
0.67968750000005
40
0.68750000000005
40
0.68750000000005
40
0.75000000000004
40
0.75000000000004
40
0.87500000000002
40
0.87500000000002
40
1
40
1
40
1
40
1
41
1
10
7.09956120717265
20
-1.63953860995068
30
0
41
1
10
7.07090706859719
20
-1.48460942322308
30
0
41
1
10
7.04756939742265
20
-1.3259626284995
30
0
41
1
10
7.01383826034095
20
-1.00272313702544
30
0
41
1
10
7.00368157317558
20
-0.840515580261894
30
0
41
1
10
6.99797666684148
20
-0.514962268764776
30
0
41
1
10
7.0024299009479
20
-0.35161648820133
30
0
41
1
10
7.0212245235569
20
-0.105754311476744
30
0
41
1
10
7.02950582265302
20
-0.0236594294862584
30
0
41
1
10
7.0503972853295
20
0.140811775635655
30
0
41
1
10
7.06299571509959
20
0.222967209990514
30
0
41
1
10
7.13612726049791
20
0.6282089955657
30
0
41
1
10
7.22745683264279
20
0.939458378007828
30
0
41
1
10
7.38405814024662
20
1.31268351353191
30
0
41
1
10
7.41762780884937
20
1.38677217332324
30
0
41
1
10
7.48828189456401
20
1.5317448647871
30
0
41
1
10
7.52538472545126
20
1.60271238569652
30
0
41
1
10
7.641842796042
20
1.81129037243392
30
0
41
1
10
7.72634505129801
20
1.94458174747419
30
0
41
1
10
7.90823319852149
20
2.20070498445398
30
0
41
1
10
8.00580510974751
20
2.32378003548772
30
0
41
1
10
8.21233354385109
20
2.55922039971622
30
0
41
1
10
8.32072929583666
20
2.67101271729877
30
0
41
1
10
8.4904202623708
20
2.83081808523835
30
0
41
1
10
8.54811480310434
20
2.88271812979778
30
0
41
1
10
8.61417142539295
20
2.93959694820038
30
0
41
1
10
8.62152733824675
20
2.94589613813295
30
0
41
1
10
8.63627157607283
20
2.9584534769244
30
0
41
1
10
8.64365115196787
20
2.96484764019607
30
0
41
1
10
8.66856856904769
20
2.98075795459474
30
0
41
1
10
8.6886037237592
20
2.98689118010933
30
0
41
1
10
8.72910323282298
20
2.99126023273709
30
0
41
1
10
8.74961772075903
20
2.99187775235848
30
0
41
1
10
8.79047393168935
20
2.99420308176522
30
0
41
1
10
8.81090281753063
20
2.9953517871896
30
0
41
1
10
8.99481891414774
20
3.00470262162062
30
0
41
1
10
9.15869884069909
20
3.00799797549212
30
0
41
1
10
9.6487573657335
20
3.00324307774989
30
0
41
1
10
9.97430060618825
20
2.98075039858318
30
0
41
1
10
10.6219729901528
20
2.89688903380551
30
0
41
1
10
10.9410772699052
20
2.8359754403867
30
0
41
1
10
11.2555531430402
20
2.75534728381876
30
0
0
SPLINE
5
E6
100
AcDbEntity
8
1
62
256
6
ByLayer
370
18
48
1
60
0
100
AcDbSpline
70
4
71
3
72
10
73
6
40
0
40
0
40
0
40
0
40
0.5
40
0.5
40
1
40
1
40
1
40
1
41
1
10
134.976951504897
20
-0.146274806008819
30
0
41
1
10
134.978811943991
20
-0.131257215262082
30
0
41
1
10
134.981872529629
20
-0.114483595073494
30
0
41
1
10
134.989709216407
20
-0.0784226467473843
30
0
41
1
10
134.994520682117
20
-0.0591007253854059
30
0
41
1
10
134.999967357962
20
-0.0393438161691506
30
0
0
SPLINE
5
E7
100
AcDbEntity
8
1
62
256
6
ByLayer
370
18
48
1
60
0
100
AcDbSpline
70
4
71
3
72
8
73
4
40
0
40
0
40
0
40
0
40
1
40
1
40
1
40
1
41
1
10
134.789483074332
20
-1.45671901969763
30
0
41
1
10
134.860336736517
20
-1.01984134353847
30
0
41
1
10
134.922844965864
20
-0.583026464534754
30
0
41
1
10
134.976951504897
20
-0.146274806009018
30
0
0
SPLINE
5
E8
100
AcDbEntity
8
SK1
62
256
6
ByLayer
370
18
48
1
60
0
100
AcDbSpline
70
4
71
3
72
14
73
10
40
0
40
0
40
0
40
0
40
0.125
40
0.125
40
0.25
40
0.25
40
0.5
40
0.5
40
1
40
1
40
1
40
1
41
1
10
-43.6
20
3.265430653724
30
0
41
1
10
-43.6
20
3.27448073628864
30
0
41
1
10
-43.6017220508865
20
3.2817155998153
30
0
41
1
10
-43.6068954324577
20
3.29271876438642
30
0
41
1
10
-43.610237321167
20
3.29652057242686
30
0
41
1
10
-43.6215324998379
20
3.305070903743
30
0
41
1
10
-43.6303471072619
20
3.30675352361007
30
0
41
1
10
-43.658490206513
20
3.30581754318931
30
0
41
1
10
-43.678793979422
20
3.29724964968389
30
0
41
1
10
-43.7
20
3.28299939574359
30
0
0
SPLINE
5
E9
100
AcDbEntity
8
SK1
62
256
6
ByLayer
370
18
48
1
60
0
100
AcDbSpline
70
4
71
3
72
10
73
6
40
0
40
0
40
0
40
0
40
0.5
40
0.5
40
1
40
1
40
1
40
1
41
1
10
-43.7
20
3.28299939574359
30
0
41
1
10
-43.9194066797618
20
3.13556009230081
30
0
41
1
10
-44.138045988393
20
2.98795700349996
30
0
41
1
10
-44.5722309834578
20
2.69211306300915
30
0
41
1
10
-44.7878870153227
20
2.5438931639622
30
0
41
1
10
-45
20
2.39493842256837
30
0
0
SPLINE
5
EA
100
AcDbEntity
8
SK1
62
256
6
ByLayer
370
18
48
1
60
0
100
AcDbSpline
70
4
71
3
72
14
73
10
40
0
40
0
40
0
40
0
40
0.500000000000003
40
0.500000000000003
40
0.750000000000003
40
0.750000000000003
40
0.875000000000002
40
0.875000000000002
40
1
40
1
40
1
40
1
41
1
10
-43.7
20
0.969201730994172
30
0
41
1
10
-43.6789021434844
20
0.983379299663369
30
0
41
1
10
-43.6585587767127
20
1.00310385144812
30
0
41
1
10
-43.6303722414292
20
1.04342812114601
30
0
41
1
10
-43.6214260646625
20
1.05867787320741
30
0
41
1
10
-43.6102968606991
20
1.08496418078084
30
0
41
1
10
-43.6069058574072
20
1.09446530362868
30
0
41
1
10
-43.6017309986994
20
1.11500496137367
30
0
41
1
10
-43.6
20
1.12603312580373
30
0
41
1
10
-43.6
20
1.13673680215462
30
0
0
SPLINE
5
EB
100
AcDbEntity
8
SK1
62
256
6
ByLayer
370
18
48
1
60
0
100
AcDbSpline
70
4
71
3
72
10
73
6
40
0
40
0
40
0
40
0
40
0.5
40
0.5
40
1
40
1
40
1
40
1
41
1
10
-45
20
0.0811407578190426
30
0
41
1
10
-44.7879560509785
20
0.230047019445038
30
0
41
1
10
-44.5723064231521
20
0.378263757734999
30
0
41
1
10
-44.1380787819166
20
0.674137231523389
30
0
41
1
10
-43.9194191697905
20
0.821754034365227
30
0
41
1
10
-43.7
20
0.969201730994257
30
0
0
LINE
5
76
100
AcDbEntity
8
81
62
256
6
ByLayer
370
18
48
1
60
0
100
AcDbLine
10
135
20
0
30
0
11
140
21
0
31
0
39
0
210
0
220
0
230
1
0
LINE
5
77
100
AcDbEntity
8
1
62
256
6
ByLayer
370
18
48
1
60
0
100
AcDbLine
10
7.099561
20
5.82125
30
0
11
0.066709
21
5.816854
31
0
39
0
210
0
220
0
230
1
0
LINE
5
79
100
AcDbEntity
8
1
62
256
6
ByLayer
370
18
48
1
60
0
100
AcDbLine
10
34.39574
20
5.83831
30
0
11
32.704627
21
5.837253
31
0
39
0
210
0
220
0
230
1
0
LINE
5
7A
100
AcDbEntity
8
1
62
256
6
ByLayer
370
18
48
1
60
0
100
AcDbLine
10
67.044941
20
5.858716
30
0
11
65.359084
21
5.857662
31
0
39
0
210
0
220
0
230
1
0
LINE
5
7B
100
AcDbEntity
8
1
62
256
6
ByLayer
370
18
48
1
60
0
100
AcDbLine
10
99.69568
20
5.879123
30
0
11
98.013505
21
5.878071
31
0
39
0
210
0
220
0
230
1
0
LINE
5
7C
100
AcDbEntity
8
1
62
256
6
ByLayer
370
18
48
1
60
0
100
AcDbLine
10
132.345755
20
5.899529
30
0
11
130.668574
21
5.898481
31
0
39
0
210
0
220
0
230
1
0
LINE
5
7D
100
AcDbEntity
8
1
62
256
6
ByLayer
370
18
48
1
60
0
100
AcDbLine
10
130.668574
20
-5.898481
30
0
11
132.345711
21
-5.899529
31
0
39
0
210
0
220
0
230
1
0
LINE
5
7E
100
AcDbEntity
8
1
62
256
6
ByLayer
370
18
48
1
60
0
100
AcDbLine
10
98.013505
20
-5.878071
30
0
11
99.695671
21
-5.879123
31
0
39
0
210
0
220
0
230
1
0
LINE
5
7F
100
AcDbEntity
8
1
62
256
6
ByLayer
370
18
48
1
60
0
100
AcDbLine
10
65.359084
20
-5.857662
30
0
11
67.044947
21
-5.858716
31
0
39
0
210
0
220
0
230
1
0
LINE
5
80
100
AcDbEntity
8
1
62
256
6
ByLayer
370
18
48
1
60
0
100
AcDbLine
10
32.704627
20
-5.837253
30
0
11
34.39552
21
-5.83831
31
0
39
0
210
0
220
0
230
1
0
LINE
5
81
100
AcDbEntity
8
1
62
256
6
ByLayer
370
18
48
1
60
0
100
AcDbLine
10
0.066709
20
-5.816854
30
0
11
7.099561
21
-5.82125
31
0
39
0
210
0
220
0
230
1
0
LINE
5
82
100
AcDbEntity
8
SK1
62
256
6
ByLayer
370
18
48
1
60
0
100
AcDbLine
10
-43.556624
20
6
30
0
11
-45
21
3.5
31
0
39
0
210
0
220
0
230
1
0
LINE
5
84
100
AcDbEntity
8
SK1
62
256
6
ByLayer
370
18
48
1
60
0
100
AcDbLine
10
-45
20
-3.5
30
0
11
-43.556624
21
-6
31
0
39
0
210
0
220
0
230
1
0
LINE
5
85
100
AcDbEntity
8
SK1
62
256
6
ByLayer
370
18
48
1
60
0
100
AcDbLine
10
0
20
6
30
0
11
-43.556624
21
6
31
0
39
0
210
0
220
0
230
1
0
LINE
5
86
100
AcDbEntity
8
SK1
62
256
6
ByLayer
370
18
48
1
60
0
100
AcDbLine
10
-43.556624
20
-6
30
0
11
0
21
-6
31
0
39
0
210
0
220
0
230
1
0
LINE
5
87
100
AcDbEntity
8
SK4
62
256
6
ByLayer
370
18
48
0.05
60
0
100
AcDbLine
10
140
20
0
30
0
11
-50
21
0
31
0
39
0
210
0
220
0
230
1
0
LINE
5
89
100
AcDbEntity
8
4
62
256
6
ByLayer
370
18
48
0.05
60
0
100
AcDbLine
10
135
20
0
30
0
11
0
21
0
31
0
39
0
210
0
220
0
230
1
0
LINE
5
8B
100
AcDbEntity
8
80
62
256
6
ByLayer
370
18
48
1
60
0
100
AcDbLine
10
0
20
0
30
0
11
-5
21
0
31
0
39
0
210
0
220
0
230
1
0
LINE
5
8C
100
AcDbEntity
8
1
62
256
6
ByLayer
370
13
48
1
60
0
100
AcDbLine
10
0.066709
20
5.816854
30
0
11
0.066709
21
-5.816854
31
0
39
0
210
0
220
0
230
1
0
LINE
5
8D
100
AcDbEntity
8
1
62
256
6
ByLayer
370
13
48
1
60
0
100
AcDbLine
10
132.897061
20
1.462895
30
0
11
134.976952
21
0.146275
31
0
39
0
210
0
220
0
230
1
0
LINE
5
8E
100
AcDbEntity
8
1
62
256
6
ByLayer
370
18
48
1
60
0
100
AcDbLine
10
131.99642
20
-4.13014
30
0
11
133.193485
21
-2.505374
31
0
39
0
210
0
220
0
230
1
0
LINE
5
8F
100
AcDbEntity
8
1
62
256
6
ByLayer
370
18
48
1
60
0
100
AcDbLine
10
133.928765
20
-1.507384
30
0
11
134.849823
21
-0.25724
31
0
39
0
210
0
220
0
230
1
0
LINE
5
90
100
AcDbEntity
8
1
62
256
6
ByLayer
370
13
48
1
60
0
100
AcDbLine
10
132.789437
20
1.349211
30
0
11
134.970528
21
-0.031472
31
0
39
0
210
0
220
0
230
1
0
LINE
5
91
100
AcDbEntity
8
1
62
256
6
ByLayer
370
18
48
1
60
0
100
AcDbLine
10
7.099561
20
-5.82125
30
0
11
7.099561
21
-1.639539
31
0
39
0
210
0
220
0
230
1
0
LINE
5
92
100
AcDbEntity
8
1
62
256
6
ByLayer
370
18
48
1
60
0
100
AcDbLine
10
7.099561
20
5.82125
30
0
11
7.099561
21
5.136218
31
0
39
0
210
0
220
0
230
1
0
LINE
5
93
100
AcDbEntity
8
SK1
62
256
6
ByLayer
370
18
48
1
60
0
100
AcDbLine
10
-43.556624
20
6
30
0
11
-43.556624
21
-6
31
0
39
0
210
0
220
0
230
1
0
LINE
5
94
100
AcDbEntity
8
SK1
62
256
6
ByLayer
370
18
48
1
60
0
100
AcDbLine
10
-45
20
2.394938
30
0
11
-45
21
0.081158
31
0
39
0
210
0
220
0
230
1
0
LINE
5
95
100
AcDbEntity
8
SK1
62
256
6
ByLayer
370
18
48
1
60
0
100
AcDbLine
10
-45
20
3.5
30
0
11
-45
21
2.394938
31
0
39
0
210
0
220
0
230
1
0
LINE
5
96
100
AcDbEntity
8
SK1
62
256
6
ByLayer
370
18
48
1
60
0
100
AcDbLine
10
-43.6
20
1.136737
30
0
11
-43.6
21
3.265431
31
0
39
0
210
0
220
0
230
1
0
LINE
5
97
100
AcDbEntity
8
SK1
62
256
6
ByLayer
370
18
48
1
60
0
100
AcDbLine
10
-45
20
0.081141
30
0
11
-45
21
-3.5
31
0
39
0
210
0
220
0
230
1
0
LINE
5
98
100
AcDbEntity
8
SK1
62
256
6
ByLayer
370
13
48
1
60
0
100
AcDbLine
10
-43.7
20
3.282999
30
0
11
-43.7
21
0.969204
31
0
39
0
210
0
220
0
230
1
0
LINE
5
99
100
AcDbEntity
8
SK1
62
256
6
ByLayer
370
18
48
1
60
0
100
AcDbLine
10
0
20
6
30
0
11
0
21
-6
31
0
39
0
210
0
220
0
230
1
0
MTEXT
5
EC
100
AcDbEntity
8
SK6
62
256
6
ByLayer
370
13
48
1
60
0
100
AcDbMText
10
47.129169
20
38.282694
30
0
210
0
220
0
230
1
1
\W0.7324;460.1-1180-089A1-XM GC34
40
3.5
41
0
44
1.084337
50
0
71
8
72
5
7
iso_b_vert
0
DIMENSION
5
F9
100
AcDbEntity
8
SK2
62
256
6
ByLayer
370
13
48
1
60
0
100
AcDbDimension
2
DimnDraft3D1
10
133.2447
20
-16.113398
30
0
11
64.994759
21
-16.113398
31
0
70
32
71
5
72
1
41
1
210
0
220
0
230
1
3
Standard
100
AcDbAlignedDimension
13
0
23
-1.5875
33
0
14
133.2447
24
-7.4875
34
0
50
0
100
AcDbRotatedDimension
1001
ACAD
1000
DSTYLE
1002
{
1070
   279
1070
     0
1070
   172
1070
     1
1070
   173
1070
     1
1070
   340
1005
ED
1070
   271
1070
     2
1070
   272
1070
     2
1070
    77
1070
     1
1070
    73
1070
     0
1070
   171
1070
     3
1070
   274
1070
     4
1070
   177
1070
    35
1070
   176
1070
    35
1070
   178
1070
    35
1070
    48
1040
-0.005
1070
    41
1041
3.5
1070
   147
1041
1.75
1070
    42
1041
1.5875
1070
    44
1041
2.0
1070
   140
1041
3.5
1070
   343
1005
0
1070
   344
1005
0
1002
}
0
DIMENSION
5
103
100
AcDbEntity
8
SK2
62
256
6
ByLayer
370
13
48
1
60
0
100
AcDbDimension
2
DimnDraft3D2
10
135
20
-34.692985
30
0
11
44.586
21
-34.692985
31
0
70
32
71
5
72
1
41
1
210
0
220
0
230
1
3
Standard
100
AcDbAlignedDimension
13
-45
23
-7.5875
33
0
14
135
24
-1.5875
34
0
50
0
100
AcDbRotatedDimension
1001
ACAD
1000
DSTYLE
1002
{
1070
   279
1070
     0
1070
   172
1070
     1
1070
   173
1070
     1
1070
   340
1005
ED
1070
   271
1070
     2
1070
   272
1070
     2
1070
    77
1070
     1
1070
    73
1070
     0
1070
   171
1070
     3
1070
   274
1070
     4
1070
   177
1070
    35
1070
   176
1070
    35
1070
   178
1070
    35
1070
    48
1040
-0.005
1070
    41
1041
3.5
1070
   147
1041
1.75
1070
    42
1041
1.5875
1070
    44
1041
2.0
1070
   140
1041
3.5
1070
   343
1005
0
1070
   344
1005
0
1002
}
0
DIMENSION
5
10D
100
AcDbEntity
8
SK2
62
256
6
ByLayer
370
13
48
1
60
0
100
AcDbDimension
2
DimnDraft3D3
10
135
20
17.509119
30
0
11
86.925
21
17.509119
31
0
70
32
71
5
72
1
41
1
210
0
220
0
230
1
3
Standard
100
AcDbAlignedDimension
13
38.85
23
7.4875
33
0
14
135
24
1.5875
34
0
50
0
100
AcDbRotatedDimension
1001
ACAD
1000
DSTYLE
1002
{
1070
   279
1070
     0
1070
   172
1070
     1
1070
   173
1070
     1
1070
   340
1005
ED
1070
   271
1070
     2
1070
   272
1070
     2
1070
    77
1070
     1
1070
    73
1070
     0
1070
   171
1070
     3
1070
   274
1070
     4
1070
   177
1070
    35
1070
   176
1070
    35
1070
   178
1070
    35
1070
    48
1040
-0.005
1070
    41
1041
3.5
1070
   147
1041
1.75
1070
    42
1041
1.5875
1070
    44
1041
2.0
1070
   140
1041
3.5
1070
   343
1005
0
1070
   344
1005
0
1002
}
0
DIMENSION
5
117
100
AcDbEntity
8
SK2
62
256
6
ByLayer
370
13
48
1
60
0
100
AcDbDimension
2
DimnDraft3D4
10
133.2447
20
-18.702503
30
0
11
144.981425
21
-18.702503
31
0
70
32
71
5
72
1
41
1
210
0
220
0
230
1
3
Standard
100
AcDbAlignedDimension
13
135
23
-1.5875
33
0
14
133.2447
24
-7.4875
34
0
50
0
100
AcDbRotatedDimension
1001
ACAD
1000
DSTYLE
1002
{
1070
   279
1070
     0
1070
   172
1070
     1
1070
   173
1070
     1
1070
   340
1005
ED
1070
   271
1070
     2
1070
   272
1070
     2
1070
    77
1070
     1
1070
    73
1070
     0
1070
   171
1070
     3
1070
   274
1070
     4
1070
   177
1070
    35
1070
   176
1070
    35
1070
   178
1070
    35
1070
    48
1040
-0.005
1070
    41
1041
3.5
1070
   147
1041
1.75
1070
    42
1041
1.5875
1070
    44
1041
2.0
1070
   140
1041
3.5
1070
   343
1005
0
1070
   344
1005
0
1002
}
0
DIMENSION
5
121
100
AcDbEntity
8
SK2
62
256
6
ByLayer
370
13
48
1
60
0
100
AcDbDimension
2
DimnDraft3D5
10
133.2447
20
-24.343428
30
0
11
41.505376
21
-24.343428
31
0
70
32
71
5
72
1
41
1
210
0
220
0
230
1
3
Standard
100
AcDbAlignedDimension
13
-45
23
-7.5875
33
0
14
133.2447
24
-7.4875
34
0
50
0
100
AcDbRotatedDimension
1001
ACAD
1000
DSTYLE
1002
{
1070
   279
1070
     0
1070
   172
1070
     1
1070
   173
1070
     1
1070
   340
1005
ED
1070
   271
1070
     2
1070
   272
1070
     2
1070
    77
1070
     1
1070
    73
1070
     0
1070
   171
1070
     3
1070
   274
1070
     4
1070
   177
1070
    35
1070
   176
1070
    35
1070
   178
1070
    35
1070
    48
1040
-0.005
1070
    41
1041
3.5
1070
   147
1041
1.75
1070
    42
1041
1.5875
1070
    44
1041
2.0
1070
   140
1041
3.5
1070
   343
1005
0
1070
   344
1005
0
1002
}
0
DIMENSION
5
12C
100
AcDbEntity
8
SK2
62
256
6
ByLayer
370
13
48
1
60
0
100
AcDbDimension
2
DimnDraft3D6
10
-55.625163
20
6
30
0
11
-56.250163
21
24.47418
31
0
70
33
71
5
72
1
41
1
210
0
220
0
230
1
3
Standard
100
AcDbAlignedDimension
13
-46.5875
23
-6
33
0
14
-46.5875
24
6
34
0
1001
ACAD
1000
DSTYLE
1002
{
1070
   279
1070
     0
1070
    74
1070
     0
1070
   173
1070
     1
1070
   340
1005
ED
1070
   271
1070
     3
1070
   272
1070
     2
1070
    77
1070
     1
1070
    73
1070
     0
1070
   171
1070
     3
1070
   274
1070
     4
1070
   177
1070
    35
1070
   176
1070
    35
1070
   178
1070
    35
1070
    48
1040
-0.005
1070
    41
1041
3.5
1070
   147
1041
1.75
1070
    42
1041
1.5875
1070
    44
1041
2.0
1070
   140
1041
3.5
1070
   343
1005
0
1070
   344
1005
0
1002
}
0
DIMENSION
5
137
100
AcDbEntity
8
2
62
256
6
ByLayer
370
13
48
1
60
0
100
AcDbDimension
2
DimnDraft3D7
10
149.083343
20
5.9
30
0
11
144.458343
21
22.967266
31
0
70
33
71
5
72
1
41
1
210
0
220
0
230
1
3
Standard
100
AcDbAlignedDimension
13
134.8322
23
-5.9
33
0
14
134.8322
24
5.9
34
0
1001
ACAD
1000
DSTYLE
1002
{
1070
   279
1070
     0
1070
    74
1070
     0
1070
   173
1070
     1
1070
   340
1005
ED
1070
   271
1070
     3
1070
   272
1070
     2
1070
    77
1070
     1
1070
    73
1070
     0
1070
   171
1070
     3
1070
   274
1070
     4
1070
   177
1070
    35
1070
   176
1070
    35
1070
   178
1070
    35
1070
    48
1040
-0.005
1070
    41
1041
3.5
1070
   147
1041
1.75
1070
    42
1041
1.5875
1070
    44
1041
2.0
1070
   140
1041
3.5
1070
   343
1005
0
1070
   344
1005
0
1002
}
0
ENDSEC
0
SECTION
2
OBJECTS
0
DICTIONARY
5
1a2
330
0
100
AcDbDictionary
280
0
281
1
3
ACAD_GROUP
350
1a3
3
ACAD_MLINESTYLE
350
1a4
0
DICTIONARY
5
1a3
330
0
100
AcDbDictionary
280
0
281
1
0
DICTIONARY
5
1a4
330
0
100
AcDbDictionary
280
0
281
1
3
Standard
350
18
0
MLINESTYLE
5
18
330
1a4
100
AcDbMlineStyle
2
Standard
70
0
3

62
256
51
90
52
90
71
2
49
-0.5
62
256
6
ByLayer
49
0.5
62
256
6
ByLayer
0
RASTERVARIABLES
5
190
330

100
AcDbRasterVariables
90
0
70
1
71
1
72
1
0
ENDSEC
0
EOF
