0
SECTION
2
HEADER
9
$ACADVER
1
AC1015
9
$DWGCODEPAGE
3
ANSI_1252
9
$HANDSEED
5
1a4
9
$ANGBASE
50
0
9
$ANGDIR
70
0
9
$ATTMODE
70
1
9
$AUNITS
70
0
9
$AUPREC
70
0
9
$CECOLOR
62
256
9
$CELTSCALE
40
1
9
$CELTYPE
6
ByLayer
9
$CELWEIGHT
370
18
9
$CLAYER
8
0
9
$CMLJUST
70
0
9
$CMLSCALE
40
1
9
$CMLSTYLE
2
Standard
9
$DIMSTYLE
2
Standard
9
$TEXTSIZE
40
0.2
9
$TEXTSTYLE
7
Standard
9
$LUNITS
70
2
9
$LUPREC
70
4
9
$EXTNAMES
290
1
9
$INSUNITS
70
4
9
$LTSCALE
40
1
9
$LWDISPLAY
290
1
9
$PDMODE
70
0
9
$PDSIZE
40
0
9
$PLINEGEN
70
0
0
ENDSEC
0
SECTION
2
CLASSES
0
CLASS
1
RASTERVARIABLES
2
AcDbRasterVariables
3
ISM
90
0
280
0
281
0
0
ENDSEC
0
SECTION
2
TABLES
0
TABLE
2
VPORT
5
19a
100
AcDbSymbolTable
0
VPORT
5
1
100
AcDbSymbolTableRecord
100
AcDbViewportTableRecord
2
*Active
70
0
10
0
20
0
11
1
21
1
12
-1
22
1
13
0
23
0
14
0.5
24
0.5
15
10
25
10
16
0
26
0
36
1
17
0
27
0
37
0
0
ENDTAB
0
TABLE
2
LTYPE
5
19b
100
AcDbSymbolTable
0
LTYPE
5
14
100
AcDbSymbolTableRecord
100
AcDbLinetypeTableRecord
70
0
2
ByBlock
3

72
65
73
0
40
0
0
LTYPE
5
15
100
AcDbSymbolTableRecord
100
AcDbLinetypeTableRecord
70
0
2
ByLayer
3

72
65
73
0
40
0
0
LTYPE
5
16
100
AcDbSymbolTableRecord
100
AcDbLinetypeTableRecord
70
0
2
CONTINUOUS
3
Solid line
72
65
73
0
40
0
0
LTYPE
5
6A
100
AcDbSymbolTableRecord
100
AcDbLinetypeTableRecord
70
0
2
CENTER
3
____ _ ____ _ ____ _ ____
72
65
73
4
40
47.5
49
22
74
0
49
-8.5
74
0
49
8.5
74
0
49
-8.5
74
0
0
LTYPE
5
6B
100
AcDbSymbolTableRecord
100
AcDbLinetypeTableRecord
70
0
2
DASHED
3
__ __ __ __ __ __ __ __ __
72
65
73
2
40
25.72
49
12.86
74
0
49
-12.86
74
0
0
ENDTAB
0
TABLE
2
LAYER
5
19c
100
AcDbSymbolTable
0
LAYER
5
10
100
AcDbSymbolTableRecord
100
AcDbLayerTableRecord
2
0
70
0
62
7
6
CONTINUOUS
290
1
370
-3
390
0
0
LAYER
5
6D
100
AcDbSymbolTableRecord
100
AcDbLayerTableRecord
2
81
70
0
62
-3
6
CONTINUOUS
290
1
370
-3
390
0
0
LAYER
5
6F
100
AcDbSymbolTableRecord
100
AcDbLayerTableRecord
2
80
70
0
62
-6
6
CONTINUOUS
290
1
370
-3
390
0
0
LAYER
5
74
100
AcDbSymbolTableRecord
100
AcDbLayerTableRecord
2
2
70
0
62
7
6
CONTINUOUS
290
1
370
-3
390
0
0
LAYER
5
78
100
AcDbSymbolTableRecord
100
AcDbLayerTableRecord
2
1
70
0
62
4
6
CONTINUOUS
290
1
370
-3
390
0
0
LAYER
5
86
100
AcDbSymbolTableRecord
100
AcDbLayerTableRecord
2
4
70
0
62
-2
6
CENTER
290
1
370
-3
390
0
0
LAYER
5
186
100
AcDbSymbolTableRecord
100
AcDbLayerTableRecord
2
SK2
70
0
62
7
6
CONTINUOUS
290
1
370
-3
390
0
0
LAYER
5
187
100
AcDbSymbolTableRecord
100
AcDbLayerTableRecord
2
SK1
70
0
62
4
6
CONTINUOUS
290
1
370
-3
390
0
0
LAYER
5
188
100
AcDbSymbolTableRecord
100
AcDbLayerTableRecord
2
SK4
70
0
62
2
6
CENTER
290
1
370
-3
390
0
0
LAYER
5
189
100
AcDbSymbolTableRecord
100
AcDbLayerTableRecord
2
SK6
70
0
62
5
6
CONTINUOUS
290
1
370
-3
390
0
0
ENDTAB
0
TABLE
2
STYLE
5
19d
100
AcDbSymbolTable
0
STYLE
5
11
100
AcDbSymbolTableRecord
100
AcDbTextStyleTableRecord
2
Standard
3
txt
70
0
71
0
40
0
41
1
42
0
50
0
0
STYLE
5
E2
100
AcDbSymbolTableRecord
100
AcDbTextStyleTableRecord
2
iso_b_vert
3
simplex.shx
70
0
71
0
40
0
41
1
42
0
50
0
0
STYLE
5
E3
100
AcDbSymbolTableRecord
100
AcDbTextStyleTableRecord
2
DWGDirectTextStyle
3
simplex
70
0
71
0
40
0
41
1
42
0
50
0
0
ENDTAB
0
TABLE
2
DIMSTYLE
5
19e
100
AcDbSymbolTable
100
AcDbDimStyleTable
0
DIMSTYLE
105
27
100
AcDbSymbolTableRecord
100
AcDbDimStyleTableRecord
2
Standard
70
0
3
<>
41
0.18
42
0.0625
44
0.18
140
0.18
147
0.09
73
0
74
0
77
1
271
2
275
0
278
52
280
0
340
11
0
ENDTAB
0
TABLE
2
VIEW
5
19f
100
AcDbSymbolTable
0
ENDTAB
0
TABLE
2
UCS
5
1a0
100
AcDbSymbolTable
0
ENDTAB
0
TABLE
2
APPID
5
1a1
100
AcDbSymbolTable
0
APPID
5
12
100
AcDbSymbolTableRecord
100
AcDbRegAppTableRecord
2
ACAD
70
0
0
ENDTAB
0
TABLE
2
BLOCK_RECORD
5
1a2
100
AcDbSymbolTable
0
BLOCK_RECORD
5
1F
100
AcDbSymbolTableRecord
100
AcDbBlockTableRecord
2
*Model_Space
340
0
70
0
0
BLOCK_RECORD
5
1B
100
AcDbSymbolTableRecord
100
AcDbBlockTableRecord
2
*Paper_Space
340
0
70
0
0
BLOCK_RECORD
5
23
100
AcDbSymbolTableRecord
100
AcDbBlockTableRecord
2
*Paper_Space0
340
0
70
0
0
BLOCK_RECORD
5
E5
100
AcDbSymbolTableRecord
100
AcDbBlockTableRecord
2
DimnDraft3D1
340
0
70
0
0
BLOCK_RECORD
5
EF
100
AcDbSymbolTableRecord
100
AcDbBlockTableRecord
2
DimnDraft3D2
340
0
70
0
0
BLOCK_RECORD
5
F9
100
AcDbSymbolTableRecord
100
AcDbBlockTableRecord
2
DimnDraft3D3
340
0
70
0
0
BLOCK_RECORD
5
103
100
AcDbSymbolTableRecord
100
AcDbBlockTableRecord
2
DimnDraft3D4
340
0
70
0
0
BLOCK_RECORD
5
10D
100
AcDbSymbolTableRecord
100
AcDbBlockTableRecord
2
DimnDraft3D5
340
0
70
0
0
BLOCK_RECORD
5
117
100
AcDbSymbolTableRecord
100
AcDbBlockTableRecord
2
DimnDraft3D6
340
0
70
0
0
BLOCK_RECORD
5
122
100
AcDbSymbolTableRecord
100
AcDbBlockTableRecord
2
DimnDraft3D7
340
0
70
0
0
ENDTAB
0
ENDSEC
0
SECTION
2
BLOCKS
0
BLOCK
5
20
100
AcDbEntity
8
0
100
AcDbBlockBegin
2
*Model_Space
70
0
10
0
20
0
30
0
3
*Model_Space
0
ENDBLK
5
21
100
AcDbEntity
8
0
100
AcDbBlockEnd
0
BLOCK
5
1C
100
AcDbEntity
8
0
100
AcDbBlockBegin
2
*Paper_Space
70
0
10
0
20
0
30
0
3
*Paper_Space
0
ENDBLK
5
1D
100
AcDbEntity
8
0
100
AcDbBlockEnd
0
BLOCK
5
24
100
AcDbEntity
8
0
100
AcDbBlockBegin
2
*Paper_Space0
70
0
10
0
20
0
30
0
3
*Paper_Space0
0
ENDBLK
5
25
100
AcDbEntity
8
0
100
AcDbBlockEnd
0
BLOCK
5
EC
100
AcDbEntity
8
0
100
AcDbBlockBegin
2
DimnDraft3D1
70
0
10
0
20
0
30
0
3
DimnDraft3D1
0
MTEXT
5
E6
100
AcDbEntity
8
SK2
62
256
6
ByLayer
370
13
48
1
60
0
100
AcDbMText
10
29.799364
20
-15.238398
30
0
210
0
220
0
230
1
1
\W0.6898;71,24
40
3.5
41
0
44
1.084337
50
0
71
7
72
5
7
iso_b_vert
0
LINE
5
E7
100
AcDbEntity
8
SK2
62
256
6
ByLayer
370
13
48
1
60
0
100
AcDbLine
10
0
20
-1.5875
30
0
11
0
21
-18.113398
31
0
39
0
210
0
220
0
230
1
0
LINE
5
E8
100
AcDbEntity
8
SK2
62
256
6
ByLayer
370
13
48
1
60
0
100
AcDbLine
10
71.2447
20
-7.4875
30
0
11
71.2447
21
-18.113398
31
0
39
0
210
0
220
0
230
1
0
LINE
5
E9
100
AcDbEntity
8
SK2
62
256
6
ByLayer
370
13
48
1
60
0
100
AcDbLine
10
0
20
-16.113398
30
0
11
71.2447
21
-16.113398
31
0
39
0
210
0
220
0
230
1
0
SOLID
5
EA
100
AcDbEntity
8
SK2
62
256
6
ByLayer
370
13
48
1
60
0
100
AcDbTrace
10
0
20
-16.113398
30
0
11
3.499998
21
-15.652615
31
0
12
3.500002
22
-16.574182
32
0
13
0
23
-16.113398
33
0
39
0
210
0
220
0
230
1
0
SOLID
5
EB
100
AcDbEntity
8
SK2
62
256
6
ByLayer
370
13
48
1
60
0
100
AcDbTrace
10
71.2447
20
-16.113398
30
0
11
67.744702
21
-16.574182
31
0
12
67.744698
22
-15.652615
32
0
13
71.2447
23
-16.113398
33
0
39
0
210
0
220
0
230
1
0
ENDBLK
5
ED
100
AcDbEntity
8
0
100
AcDbBlockEnd
0
BLOCK
5
F6
100
AcDbEntity
8
0
100
AcDbBlockBegin
2
DimnDraft3D2
70
0
10
0
20
0
30
0
3
DimnDraft3D2
0
MTEXT
5
F0
100
AcDbEntity
8
SK2
62
256
6
ByLayer
370
13
48
1
60
0
100
AcDbMText
10
8.704421
20
-33.817985
30
0
210
0
220
0
230
1
1
\W0.6440;118,00
40
3.5
41
0
44
1.084337
50
0
71
7
72
5
7
iso_b_vert
0
LINE
5
F1
100
AcDbEntity
8
SK2
62
256
6
ByLayer
370
13
48
1
60
0
100
AcDbLine
10
-45
20
-7.5875
30
0
11
-45
21
-36.692985
31
0
39
0
210
0
220
0
230
1
0
LINE
5
F2
100
AcDbEntity
8
SK2
62
256
6
ByLayer
370
13
48
1
60
0
100
AcDbLine
10
73
20
-1.5875
30
0
11
73
21
-36.692985
31
0
39
0
210
0
220
0
230
1
0
LINE
5
F3
100
AcDbEntity
8
SK2
62
256
6
ByLayer
370
13
48
1
60
0
100
AcDbLine
10
-45
20
-34.692985
30
0
11
73
21
-34.692985
31
0
39
0
210
0
220
0
230
1
0
SOLID
5
F4
100
AcDbEntity
8
SK2
62
256
6
ByLayer
370
13
48
1
60
0
100
AcDbTrace
10
-45
20
-34.692985
30
0
11
-41.500002
21
-34.232202
31
0
12
-41.499998
22
-35.153769
32
0
13
-45
23
-34.692985
33
0
39
0
210
0
220
0
230
1
0
SOLID
5
F5
100
AcDbEntity
8
SK2
62
256
6
ByLayer
370
13
48
1
60
0
100
AcDbTrace
10
73
20
-34.692985
30
0
11
69.500002
21
-35.153769
31
0
12
69.499998
22
-34.232202
32
0
13
73
23
-34.692985
33
0
39
0
210
0
220
0
230
1
0
ENDBLK
5
F7
100
AcDbEntity
8
0
100
AcDbBlockEnd
0
BLOCK
5
100
100
AcDbEntity
8
0
100
AcDbBlockBegin
2
DimnDraft3D3
70
0
10
0
20
0
30
0
3
DimnDraft3D3
0
MTEXT
5
FA
100
AcDbEntity
8
SK2
62
256
6
ByLayer
370
13
48
1
60
0
100
AcDbMText
10
39.947105
20
18.384119
30
0
210
0
220
0
230
1
1
\W0.7495;56,84
40
3.5
41
0
44
1.084337
50
0
71
7
72
5
7
iso_b_vert
0
LINE
5
FB
100
AcDbEntity
8
SK2
62
256
6
ByLayer
370
13
48
1
60
0
100
AcDbLine
10
16.16
20
7.4875
30
0
11
16.16
21
19.509119
31
0
39
0
210
0
220
0
230
1
0
LINE
5
FC
100
AcDbEntity
8
SK2
62
256
6
ByLayer
370
13
48
1
60
0
100
AcDbLine
10
73
20
1.5875
30
0
11
73
21
19.509119
31
0
39
0
210
0
220
0
230
1
0
LINE
5
FD
100
AcDbEntity
8
SK2
62
256
6
ByLayer
370
13
48
1
60
0
100
AcDbLine
10
16.16
20
17.509119
30
0
11
73
21
17.509119
31
0
39
0
210
0
220
0
230
1
0
SOLID
5
FE
100
AcDbEntity
8
SK2
62
256
6
ByLayer
370
13
48
1
60
0
100
AcDbTrace
10
16.16
20
17.509119
30
0
11
19.659998
21
17.969903
31
0
12
19.660002
22
17.048335
32
0
13
16.16
23
17.509119
33
0
39
0
210
0
220
0
230
1
0
SOLID
5
FF
100
AcDbEntity
8
SK2
62
256
6
ByLayer
370
13
48
1
60
0
100
AcDbTrace
10
73
20
17.509119
30
0
11
69.500002
21
17.048335
31
0
12
69.499998
22
17.969903
32
0
13
73
23
17.509119
33
0
39
0
210
0
220
0
230
1
0
ENDBLK
5
101
100
AcDbEntity
8
0
100
AcDbBlockEnd
0
BLOCK
5
10A
100
AcDbEntity
8
0
100
AcDbBlockBegin
2
DimnDraft3D4
70
0
10
0
20
0
30
0
3
DimnDraft3D4
0
MTEXT
5
104
100
AcDbEntity
8
SK2
62
256
6
ByLayer
370
13
48
1
60
0
100
AcDbMText
10
80.278136
20
-17.827503
30
0
210
0
220
0
230
1
1
\W0.6367;1,76
40
3.5
41
0
44
1.084337
50
0
71
7
72
5
7
iso_b_vert
0
LINE
5
105
100
AcDbEntity
8
SK2
62
256
6
ByLayer
370
13
48
1
60
0
100
AcDbLine
10
73
20
-1.5875
30
0
11
73
21
-20.702503
31
0
39
0
210
0
220
0
230
1
0
LINE
5
106
100
AcDbEntity
8
SK2
62
256
6
ByLayer
370
13
48
1
60
0
100
AcDbLine
10
71.2447
20
-7.4875
30
0
11
71.2447
21
-20.702503
31
0
39
0
210
0
220
0
230
1
0
LINE
5
107
100
AcDbEntity
8
SK2
62
256
6
ByLayer
370
13
48
1
60
0
100
AcDbLine
10
62.4947
20
-18.702503
30
0
11
86.559715
21
-18.702503
31
0
39
0
210
0
220
0
230
1
0
SOLID
5
108
100
AcDbEntity
8
SK2
62
256
6
ByLayer
370
13
48
1
60
0
100
AcDbTrace
10
73
20
-18.702503
30
0
11
76.499998
21
-18.241719
31
0
12
76.500002
22
-19.163287
32
0
13
73
23
-18.702503
33
0
39
0
210
0
220
0
230
1
0
SOLID
5
109
100
AcDbEntity
8
SK2
62
256
6
ByLayer
370
13
48
1
60
0
100
AcDbTrace
10
71.2447
20
-18.702503
30
0
11
67.744702
21
-19.163287
31
0
12
67.744698
22
-18.241719
32
0
13
71.2447
23
-18.702503
33
0
39
0
210
0
220
0
230
1
0
ENDBLK
5
10B
100
AcDbEntity
8
0
100
AcDbBlockEnd
0
BLOCK
5
114
100
AcDbEntity
8
0
100
AcDbBlockBegin
2
DimnDraft3D5
70
0
10
0
20
0
30
0
3
DimnDraft3D5
0
MTEXT
5
10E
100
AcDbEntity
8
SK2
62
256
6
ByLayer
370
13
48
1
60
0
100
AcDbMText
10
5.439587
20
-23.468428
30
0
210
0
220
0
230
1
1
\W0.6593;116,24
40
3.5
41
0
44
1.084337
50
0
71
7
72
5
7
iso_b_vert
0
LINE
5
10F
100
AcDbEntity
8
SK2
62
256
6
ByLayer
370
13
48
1
60
0
100
AcDbLine
10
-45
20
-7.5875
30
0
11
-45
21
-26.343428
31
0
39
0
210
0
220
0
230
1
0
LINE
5
110
100
AcDbEntity
8
SK2
62
256
6
ByLayer
370
13
48
1
60
0
100
AcDbLine
10
71.2447
20
-7.4875
30
0
11
71.2447
21
-26.343428
31
0
39
0
210
0
220
0
230
1
0
LINE
5
111
100
AcDbEntity
8
SK2
62
256
6
ByLayer
370
13
48
1
60
0
100
AcDbLine
10
-45
20
-24.343428
30
0
11
71.2447
21
-24.343428
31
0
39
0
210
0
220
0
230
1
0
SOLID
5
112
100
AcDbEntity
8
SK2
62
256
6
ByLayer
370
13
48
1
60
0
100
AcDbTrace
10
-45
20
-24.343428
30
0
11
-41.500002
21
-23.882645
31
0
12
-41.499998
22
-24.804212
32
0
13
-45
23
-24.343428
33
0
39
0
210
0
220
0
230
1
0
SOLID
5
113
100
AcDbEntity
8
SK2
62
256
6
ByLayer
370
13
48
1
60
0
100
AcDbTrace
10
71.2447
20
-24.343428
30
0
11
67.744702
21
-24.804212
31
0
12
67.744698
22
-23.882645
32
0
13
71.2447
23
-24.343428
33
0
39
0
210
0
220
0
230
1
0
ENDBLK
5
115
100
AcDbEntity
8
0
100
AcDbBlockEnd
0
BLOCK
5
11F
100
AcDbEntity
8
0
100
AcDbBlockBegin
2
DimnDraft3D6
70
0
10
0
20
0
30
0
3
DimnDraft3D6
0
MTEXT
5
118
100
AcDbEntity
8
SK2
62
256
6
ByLayer
370
13
48
1
60
0
100
AcDbMText
10
-55.375163
20
25.34918
30
0
210
0
220
0
230
1
1
\W0.6930;12,000
40
3.5
41
0
44
1.084337
50
90
71
7
72
5
7
iso_b_vert
0
MTEXT
5
119
100
AcDbEntity
8
SK2
62
256
6
ByLayer
370
13
48
1
60
0
100
AcDbMText
10
-55.375163
20
20.126524
30
0
210
0
220
0
230
1
1
%%c
40
3.5
41
0
44
1.084337
50
90
71
7
72
5
7
iso_b_vert
0
LINE
5
11A
100
AcDbEntity
8
SK2
62
256
6
ByLayer
370
13
48
1
60
0
100
AcDbLine
10
-46.5875
20
-6
30
0
11
-55.625163
21
-6
31
0
39
0
210
0
220
0
230
1
0
LINE
5
11B
100
AcDbEntity
8
SK2
62
256
6
ByLayer
370
13
48
1
60
0
100
AcDbLine
10
-46.5875
20
6
30
0
11
-55.625163
21
6
31
0
39
0
210
0
220
0
230
1
0
LINE
5
11C
100
AcDbEntity
8
SK2
62
256
6
ByLayer
370
13
48
1
60
0
100
AcDbLine
10
-53.625163
20
-6
30
0
11
-53.625163
21
36.862338
31
0
39
0
210
0
220
0
230
1
0
SOLID
5
11D
100
AcDbEntity
8
SK2
62
256
6
ByLayer
370
13
48
1
60
0
100
AcDbTrace
10
-53.625163
20
-6
30
0
11
-54.085946
21
-2.500002
31
0
12
-53.164379
22
-2.499998
32
0
13
-53.625163
23
-6
33
0
39
0
210
0
220
0
230
1
0
SOLID
5
11E
100
AcDbEntity
8
SK2
62
256
6
ByLayer
370
13
48
1
60
0
100
AcDbTrace
10
-53.625163
20
6
30
0
11
-53.164379
21
2.500002
31
0
12
-54.085946
22
2.499998
32
0
13
-53.625163
23
6
33
0
39
0
210
0
220
0
230
1
0
ENDBLK
5
120
100
AcDbEntity
8
0
100
AcDbBlockEnd
0
BLOCK
5
12A
100
AcDbEntity
8
0
100
AcDbBlockBegin
2
DimnDraft3D7
70
0
10
0
20
0
30
0
3
DimnDraft3D7
0
MTEXT
5
123
100
AcDbEntity
8
2
62
256
6
ByLayer
370
13
48
1
60
0
100
AcDbMText
10
83.333343
20
23.842266
30
0
210
0
220
0
230
1
1
\W0.6440;11,800
40
3.5
41
0
44
1.084337
50
90
71
7
72
5
7
iso_b_vert
0
MTEXT
5
124
100
AcDbEntity
8
2
62
256
6
ByLayer
370
13
48
1
60
0
100
AcDbMText
10
83.333343
20
18.61961
30
0
210
0
220
0
230
1
1
%%c
40
3.5
41
0
44
1.084337
50
90
71
7
72
5
7
iso_b_vert
0
LINE
5
125
100
AcDbEntity
8
2
62
256
6
ByLayer
370
13
48
1
60
0
100
AcDbLine
10
72.8322
20
-5.9
30
0
11
87.083343
21
-5.9
31
0
39
0
210
0
220
0
230
1
0
LINE
5
126
100
AcDbEntity
8
2
62
256
6
ByLayer
370
13
48
1
60
0
100
AcDbLine
10
72.8322
20
5.9
30
0
11
87.083343
21
5.9
31
0
39
0
210
0
220
0
230
1
0
LINE
5
127
100
AcDbEntity
8
2
62
256
6
ByLayer
370
13
48
1
60
0
100
AcDbLine
10
85.083343
20
-5.9
30
0
11
85.083343
21
34.480424
31
0
39
0
210
0
220
0
230
1
0
SOLID
5
128
100
AcDbEntity
8
2
62
256
6
ByLayer
370
13
48
1
60
0
100
AcDbTrace
10
85.083343
20
-5.9
30
0
11
84.622559
21
-2.400002
31
0
12
85.544126
22
-2.399998
32
0
13
85.083343
23
-5.9
33
0
39
0
210
0
220
0
230
1
0
SOLID
5
129
100
AcDbEntity
8
2
62
256
6
ByLayer
370
13
48
1
60
0
100
AcDbTrace
10
85.083343
20
5.9
30
0
11
85.544126
21
2.400002
31
0
12
84.622559
22
2.399998
32
0
13
85.083343
23
5.9
33
0
39
0
210
0
220
0
230
1
0
ENDBLK
5
12B
100
AcDbEntity
8
0
100
AcDbBlockEnd
0
ENDSEC
0
SECTION
2
ENTITIES
0
ARC
5
93
100
AcDbEntity
8
1
62
256
6
ByLayer
370
18
48
1
60
0
100
AcDbCircle
39
0
10
-0.066667
20
5.922181
30
0
40
0.0666670000000025
210
0
220
0
230
-1
100
AcDbArc
50
269.96419
51
0
0
ARC
5
94
100
AcDbEntity
8
1
62
256
6
ByLayer
370
18
48
1
60
0
100
AcDbCircle
39
0
10
-0.066667
20
-5.922181
30
0
40
0.0666670000000025
210
0
220
0
230
-1
100
AcDbArc
50
0
51
90.03581
0
ELLIPSE
5
95
100
AcDbEntity
8
1
62
256
6
ByLayer
370
13
48
1
60
0
100
AcDbEllipse
10
2.49466
20
-5.444117
30
0
11
0.0149194101012892
21
0.098880792888354
31
0
210
0
220
0
230
1
40
0.459812
41
0.314435862206376
42
1.87215697975994
0
ELLIPSE
5
96
100
AcDbEntity
8
1
62
256
6
ByLayer
370
13
48
1
60
0
100
AcDbEllipse
10
2.422513
20
-5.450912
30
0
11
-0.0349674309846625
21
0.0936871323626295
31
0
210
0
220
0
230
1
40
0.531881
41
0.295725923709426
42
1.62209550083733
0
POINT
5
6C
100
AcDbEntity
8
81
62
256
6
ByLayer
370
18
48
1
60
0
100
AcDbPoint
10
73
20
0
30
0
39
0
210
0
220
0
230
1
50
360
0
POINT
5
6E
100
AcDbEntity
8
80
62
256
6
ByLayer
370
18
48
1
60
0
100
AcDbPoint
10
0
20
0
30
0
39
0
210
0
220
0
230
1
50
360
0
POINT
5
70
100
AcDbEntity
8
SK2
62
256
6
ByLayer
370
18
48
1
60
1
100
AcDbPoint
10
-45
20
-6
30
0
39
0
210
0
220
0
230
1
50
360
0
POINT
5
72
100
AcDbEntity
8
SK2
62
256
6
ByLayer
370
18
48
1
60
1
100
AcDbPoint
10
-45
20
6
30
0
39
0
210
0
220
0
230
1
50
360
0
POINT
5
73
100
AcDbEntity
8
2
62
256
6
ByLayer
370
18
48
1
60
1
100
AcDbPoint
10
71.2447
20
-5.9
30
0
39
0
210
0
220
0
230
1
50
360
0
POINT
5
75
100
AcDbEntity
8
2
62
256
6
ByLayer
370
18
48
1
60
1
100
AcDbPoint
10
71.2447
20
5.9
30
0
39
0
210
0
220
0
230
1
50
360
0
SPLINE
5
97
100
AcDbEntity
8
1
62
256
6
ByLayer
370
18
48
1
60
0
100
AcDbSpline
70
4
71
3
72
29
73
25
40
0
40
0
40
0
40
0
40
0.0360110153705317
40
0.0848111297943267
40
0.138051513109975
40
0.186262244951016
40
0.226622524815597
40
0.262648447095729
40
0.317668774408601
40
0.393156596429299
40
0.471009734149419
40
0.535585376254633
40
0.59137717195619
40
0.654183321770893
40
0.713915299533398
40
0.762910011145009
40
0.794803178713993
40
0.838038756806671
40
0.885776451959253
40
0.927538481705409
40
0.948223724234783
40
0.970447384103313
40
0.99421055513853
40
1
40
1
40
1
40
1
41
1
10
53.5566112753411
20
5.59353490468817
30
0
41
1
10
53.406991526987
20
5.59374647677768
30
0
41
1
10
53.0546155244524
20
5.59399429569118
30
0
41
1
10
52.4810357572495
20
5.5930582983236
30
0
41
1
10
51.8567666977449
20
5.59164525486938
30
0
41
1
10
51.2675694796546
20
5.5919565679626
30
0
41
1
10
50.7498867691687
20
5.59213859418963
30
0
41
1
10
50.2039245863783
20
5.59110201326388
30
0
41
1
10
49.5119982522532
20
5.59038256837047
30
0
41
1
10
48.6463027682949
20
5.5915046892647
30
0
41
1
10
47.740900871776
20
5.58929949167054
30
0
41
1
10
46.9173256432068
20
5.58977543842542
30
0
41
1
10
46.156273225915
20
5.58935688383383
30
0
41
1
10
45.4153438615523
20
5.58832026314192
30
0
41
1
10
44.7026572883781
20
5.58872753035169
30
0
41
1
10
44.1183935741482
20
5.58820140148572
30
0
41
1
10
43.6027135814069
20
5.58742380573361
30
0
41
1
10
43.0922159224925
20
5.58771937045145
30
0
41
1
10
42.5407187249737
20
5.5875611811218
30
0
41
1
10
42.0829392213366
20
5.58709201902525
30
0
41
1
10
41.7311797570261
20
5.58659300608988
30
0
41
1
10
41.4541720522661
20
5.58636510497544
30
0
41
1
10
41.239049810726
20
5.58633787256969
30
0
41
1
10
41.1162634863896
20
5.58631539266534
30
0
41
1
10
41.0922093180816
20
5.58631057477359
30
0
0
SPLINE
5
98
100
AcDbEntity
8
1
62
256
6
ByLayer
370
18
48
1
60
0
100
AcDbSpline
70
4
71
1
72
4
73
2
40
0
40
0
40
1
40
1
41
1
10
21.4984909432833
20
0.003335782870181
30
0
41
1
10
21.4985074410416
20
0.0033250518276873
30
0
0
SPLINE
5
99
100
AcDbEntity
8
1
62
256
6
ByLayer
370
18
48
1
60
0
100
AcDbSpline
70
4
71
3
72
29
73
25
40
0
40
0
40
0
40
0
40
0.0316437130505953
40
0.0598299664554972
40
0.0851096949697181
40
0.114921675219364
40
0.144033362328536
40
0.172707520897528
40
0.201180568362525
40
0.291103065100086
40
0.34408674935501
40
0.394405391141848
40
0.432286205906631
40
0.46835203993556
40
0.520845593334024
40
0.579125199323416
40
0.629723434633671
40
0.677629461751258
40
0.736941435956229
40
0.790467838758142
40
0.848145349266218
40
0.911640731740824
40
0.967937126007378
40
1
40
1
40
1
40
1
41
1
10
5.27446743181855
20
-5.56382022064687
30
0
41
1
10
5.42629647546875
20
-5.56336271600247
30
0
41
1
10
5.71960854773099
20
-5.56216389077343
30
0
41
1
10
6.15233074632596
20
-5.55720136118958
30
0
41
1
10
6.5928607510142
20
-5.55593970377976
30
0
41
1
10
7.02099090061489
20
-5.56260823307977
30
0
41
1
10
7.46284520102077
20
-5.56553285080739
30
0
41
1
10
7.91007359621943
20
-5.56617807823682
30
0
41
1
10
8.67931214103376
20
-5.56683400319602
30
0
41
1
10
9.57619347689061
20
-5.56722016077237
30
0
41
1
10
10.5872116774231
20
-5.56775265317401
30
0
41
1
10
11.3258630862176
20
-5.56860688750766
30
0
41
1
10
11.9760931541901
20
-5.5685508508432
30
0
41
1
10
12.6376121741449
20
-5.56905586069249
30
0
41
1
10
13.4059542211543
20
-5.57014090560577
30
0
41
1
10
14.2503096356588
20
-5.56962356904197
30
0
41
1
10
15.0706473541397
20
-5.57103451476883
30
0
41
1
10
15.8963746330338
20
-5.57131795701801
30
0
41
1
10
16.7374513039355
20
-5.57281958334153
30
0
41
1
10
17.6296563945741
20
-5.57334209681659
30
0
41
1
10
18.5437510081263
20
-5.57296976708398
30
0
41
1
10
19.4723396481458
20
-5.57571114100571
30
0
41
1
10
20.2668937437772
20
-5.57396594252558
30
0
41
1
10
20.7292236495214
20
-5.57480165087938
30
0
41
1
10
20.8969892144061
20
-5.57516382083674
30
0
0
SPLINE
5
9A
100
AcDbEntity
8
1
62
256
6
ByLayer
370
18
48
1
60
0
100
AcDbSpline
70
4
71
3
72
29
73
25
40
0
40
0
40
0
40
0
40
0.0504645227813691
40
0.0968997400831313
40
0.133094472226127
40
0.171781326866519
40
0.20266638986195
40
0.230138655832535
40
0.266427630629005
40
0.309107612887523
40
0.342201278974347
40
0.376216544569036
40
0.427655028898192
40
0.476314954418855
40
0.523777669596676
40
0.575078680571633
40
0.618098476997459
40
0.660433810304511
40
0.734587161776863
40
0.78942644893057
40
0.855622947557016
40
0.928613331136667
40
0.984258440087018
40
1
40
1
40
1
40
1
41
1
10
38.0254457099067
20
-5.5842477444298
30
0
41
1
10
38.2860037645719
20
-5.58442131561608
30
0
41
1
10
38.7867701440816
20
-5.58476702352462
30
0
41
1
10
39.474655980593
20
-5.58454405008408
30
0
41
1
10
40.1044326201249
20
-5.5855512786228
30
0
41
1
10
40.6431622533056
20
-5.58631662332957
30
0
41
1
10
41.1462835341195
20
-5.58599176407765
30
0
41
1
10
41.6350031824517
20
-5.58642848161202
30
0
41
1
10
42.1859141344266
20
-5.58725624664837
30
0
41
1
10
42.7657801878358
20
-5.58770340412852
30
0
41
1
10
43.3339788312676
20
-5.58754736895276
30
0
41
1
10
43.9474896230582
20
-5.58774100991019
30
0
41
1
10
44.6415746387484
20
-5.58884100651517
30
0
41
1
10
45.4052448312748
20
-5.58830917649254
30
0
41
1
10
46.1682106196962
20
-5.5893572935133
30
0
41
1
10
46.901984820457
20
-5.58976501536057
30
0
41
1
10
47.6092245606256
20
-5.58937220713412
30
0
41
1
10
48.4347313122952
20
-5.59101465625281
30
0
41
1
10
49.3214075381422
20
-5.59045537588909
30
0
41
1
10
50.3315592612511
20
-5.59138716230282
30
0
41
1
10
51.3357146558054
20
-5.59193852442121
30
0
41
1
10
52.3440152088578
20
-5.59255342382804
30
0
41
1
10
53.0912050244816
20
-5.59392189995643
30
0
41
1
10
53.4606524723082
20
-5.59369122757192
30
0
41
1
10
53.5421198670199
20
-5.59362090413973
30
0
0
SPLINE
5
9B
100
AcDbEntity
8
1
62
256
6
ByLayer
370
18
48
1
60
0
100
AcDbSpline
70
4
71
1
72
4
73
2
40
0
40
0
40
1
40
1
41
1
10
70.6839022914467
20
-5.60474556026517
30
0
41
1
10
71.0319693990007
20
-5.60486189282372
30
0
0
SPLINE
5
9C
100
AcDbEntity
8
1
62
256
6
ByLayer
370
18
48
1
60
0
100
AcDbSpline
70
4
71
3
72
23
73
19
40
0
40
0
40
0
40
0
40
0.0225808243035588
40
0.0672478046880412
40
0.144642772485394
40
0.239317672963656
40
0.317411488177584
40
0.404656368807195
40
0.45767531134104
40
0.511938939468474
40
0.573610222795372
40
0.637901798993319
40
0.678152708692779
40
0.708359934797962
40
0.740245541409183
40
0.781881384371749
40
0.892762197173197
40
1
40
1
40
1
40
1
41
1
10
20.8943822222745
20
5.57523177431764
30
0
41
1
10
20.8003049236551
20
5.57497186261713
30
0
41
1
10
20.5201342787158
20
5.57435252193986
30
0
41
1
10
19.9175254836364
20
5.57437236421686
30
0
41
1
10
19.0145412827876
20
5.575618924434
30
0
41
1
10
17.9723004424356
20
5.57237241920834
30
0
41
1
10
16.8890200446231
20
5.5736420199392
30
0
41
1
10
15.9792871187665
20
5.57126284014819
30
0
41
1
10
15.1688615729992
20
5.57118320553911
30
0
41
1
10
14.4649799132951
20
5.56984889296629
30
0
41
1
10
13.7141070878886
20
5.56998974465489
30
0
41
1
10
13.0216287171856
20
5.56964380582474
30
0
41
1
10
12.4602105009987
20
5.5688973701665
30
0
41
1
10
12.0338693331255
20
5.56861910327996
30
0
41
1
10
11.6017131699387
20
5.56856897520081
30
0
41
1
10
10.8335072893978
20
5.56827159950836
30
0
41
1
10
9.75088584492053
20
5.56728009209783
30
0
41
1
10
8.84329539808303
20
5.56668748307217
30
0
41
1
10
8.39586779760984
20
5.56653642658728
30
0
0
SPLINE
5
9D
100
AcDbEntity
8
SK1
62
256
6
ByLayer
370
18
48
1
60
0
100
AcDbSpline
70
4
71
3
72
10
73
6
40
0
40
0
40
0
40
0
40
0.5
40
0.5
40
1
40
1
40
1
40
1
41
1
10
-45
20
1.58164527270483
30
0
41
1
10
-44.7879375839629
20
1.87291273339204
30
0
41
1
10
-44.5722263079446
20
2.16288817646409
30
0
41
1
10
-44.1380274777898
20
2.74154030518622
30
0
41
1
10
-43.9193966479596
20
3.03022217350889
30
0
41
1
10
-43.7
20
3.31858189722362
30
0
0
SPLINE
5
9E
100
AcDbEntity
8
SK1
62
256
6
ByLayer
370
18
48
1
60
0
100
AcDbSpline
70
4
71
3
72
14
73
10
40
0
40
0
40
0
40
0
40
0.500000000000001
40
0.500000000000001
40
0.750000000000002
40
0.750000000000002
40
0.875000000000001
40
0.875000000000001
40
1
40
1
40
1
40
1
41
1
10
-43.7
20
3.31858189722357
30
0
41
1
10
-43.6789021434844
20
3.34631145522914
30
0
41
1
10
-43.6585587767126
20
3.37806472481515
30
0
41
1
10
-43.6303722414292
20
3.43272323141432
30
0
41
1
10
-43.6214260646625
20
3.45208266302149
30
0
41
1
10
-43.6102968606991
20
3.48215061036066
30
0
41
1
10
-43.6069058574072
20
3.49253250557254
30
0
41
1
10
-43.6017309986994
20
3.51331600854866
30
0
41
1
10
-43.6
20
3.52366816199924
30
0
41
1
10
-43.6
20
3.5324240993225
30
0
0
SPLINE
5
9F
100
AcDbEntity
8
SK1
62
256
6
ByLayer
370
18
48
1
60
0
100
AcDbSpline
70
4
71
4
72
13
73
8
40
0
40
0
40
0
40
0
40
0
40
0.748703293986226
40
0.748703293986226
40
0.748703293986226
40
1
40
1
40
1
40
1
40
1
41
1.00741865830347
10
-45.000000478335
20
3.26545383091999
30
0
41
1.01083777759599
10
-45.0000002950414
20
3.22383422206626
30
0
41
1.0141940671765
10
-45.0000001106837
20
3.17756965589649
30
0
41
1.0166117137858
10
-44.9999999297963
20
3.1281467511296
30
0
41
1.0166117137858
10
-44.9999996992455
20
3.06068323680112
30
0
41
1.01633935152914
10
-44.9999996405664
20
3.0431182277205
30
0
41
1.01585055129542
10
-44.9999995813162
20
3.02496742312718
30
0
41
1.01519358205724
10
-44.9999995216631
20
3.00626182189325
30
0
0
SPLINE
5
A0
100
AcDbEntity
8
SK1
62
256
6
ByLayer
370
18
48
1
60
0
100
AcDbSpline
70
4
71
3
72
14
73
10
40
0
40
0
40
0
40
0
40
0.125000000000001
40
0.125000000000001
40
0.250000000000002
40
0.250000000000002
40
0.500000000000003
40
0.500000000000003
40
1
40
1
40
1
40
1
41
1
10
-43.6
20
5.07766700066276
30
0
41
1
10
-43.6
20
5.08325598626774
30
0
41
1
10
-43.6017220508865
20
5.08616682221594
30
0
41
1
10
-43.6068954324577
20
5.08828040696199
30
0
41
1
10
-43.610237321167
20
5.08760325088812
30
0
41
1
10
-43.6215324998379
20
5.08265943760273
30
0
41
1
10
-43.6303471072619
20
5.07572002637008
30
0
41
1
10
-43.658490206513
20
5.04969096972778
30
0
41
1
10
-43.678793979422
20
5.02606546784693
30
0
41
1
10
-43.7
20
4.99819374650653
30
0
0
SPLINE
5
A1
100
AcDbEntity
8
SK1
62
256
6
ByLayer
370
18
48
1
60
0
100
AcDbSpline
70
4
71
3
72
10
73
6
40
0
40
0
40
0
40
0
40
0.5
40
0.5
40
1
40
1
40
1
40
1
41
1
10
-43.7
20
4.99819374650653
30
0
41
1
10
-43.9167301289676
20
4.713338710247
30
0
41
1
10
-44.1327065147479
20
4.4281751147285
30
0
41
1
10
-44.5616756542267
20
3.85662651656043
30
0
41
1
10
-44.7747678430214
20
3.57028221957833
30
0
41
1
10
-44.984484332274
20
3.2825560151156
30
0
0
SPLINE
5
A2
100
AcDbEntity
8
SK1
62
256
6
ByLayer
370
18
48
1
60
0
100
AcDbSpline
70
4
71
3
72
8
73
4
40
0
40
0
40
0
40
0
40
1
40
1
40
1
40
1
41
1
10
-44.9844843322751
20
3.28255601511162
30
0
41
1
10
-44.9896067610245
20
3.27701675048422
30
0
41
1
10
-44.9947782822577
20
3.27131577720414
30
0
41
1
10
-45
20
3.26545372201321
30
0
0
SPLINE
5
A3
100
AcDbEntity
8
SK1
62
256
6
ByLayer
370
18
48
1
60
0
100
AcDbSpline
70
4
71
3
72
14
73
10
40
0
40
0
40
0
40
0
40
0.25
40
0.25
40
0.5
40
0.5
40
0.75
40
0.75
40
1
40
1
40
1
40
1
41
1
10
-44.9999999999995
20
3.00626189149952
30
0
41
1
10
-44.9796663197705
20
3.02591105181906
30
0
41
1
10
-44.9614931646596
20
3.04746197444967
30
0
41
1
10
-44.934623597028
20
3.09318789283805
30
0
41
1
10
-44.9258122265448
20
3.11793308226342
30
0
41
1
10
-44.9217903556631
20
3.16744488750456
30
0
41
1
10
-44.9266536611075
20
3.1928695291819
30
0
41
1
10
-44.948203241621
20
3.24013082055865
30
0
41
1
10
-44.9648064183663
20
3.26242690871001
30
0
41
1
10
-44.9844843322899
20
3.28255601510827
30
0
0
SPLINE
5
A4
100
AcDbEntity
8
1
62
256
6
ByLayer
370
18
48
1
60
0
100
AcDbSpline
70
4
71
3
72
36
73
32
40
0
40
0
40
0
40
0
40
0.0625000000000004
40
0.0625000000000004
40
0.125000000000001
40
0.125000000000001
40
0.187500000000001
40
0.187500000000001
40
0.250000000000002
40
0.250000000000002
40
0.312500000000002
40
0.312500000000002
40
0.375000000000002
40
0.375000000000002
40
0.437500000000003
40
0.437500000000003
40
0.500000000000003
40
0.500000000000003
40
0.562500000000003
40
0.562500000000003
40
0.625000000000004
40
0.625000000000004
40
0.687500000000004
40
0.687500000000004
40
0.750000000000004
40
0.750000000000004
40
0.875000000000006
40
0.875000000000006
40
0.937500000000003
40
0.937500000000003
40
1
40
1
40
1
40
1
41
1
10
71.8248119145079
20
-1.74627289500833
30
0
41
1
10
71.8319372801571
20
-1.78340666072228
30
0
41
1
10
71.8360924883295
20
-1.82468402166242
30
0
41
1
10
71.8376914333173
20
-1.91256550077594
30
0
41
1
10
71.8351503515668
20
-1.96028555769297
30
0
41
1
10
71.8234061822093
20
-2.05926331610039
30
0
41
1
10
71.8143592056773
20
-2.11005755858665
30
0
41
1
10
71.7901759719158
20
-2.21435296156369
30
0
41
1
10
71.7751539686401
20
-2.2670877289346
30
0
41
1
10
71.7409635603374
20
-2.36984427337919
30
0
41
1
10
71.7214252098329
20
-2.42092730084482
30
0
41
1
10
71.6798175506907
20
-2.51773025766414
30
0
41
1
10
71.6576167985936
20
-2.56392347234197
30
0
41
1
10
71.610803557402
20
-2.65188939656932
30
0
41
1
10
71.5867714692067
20
-2.69258292199714
30
0
41
1
10
71.5375315112164
20
-2.76819432212915
30
0
41
1
10
71.5121326671656
20
-2.80331380660189
30
0
41
1
10
71.4613570851172
20
-2.86643012193517
30
0
41
1
10
71.4359172553798
20
-2.89457885695461
30
0
41
1
10
71.384807053989
20
-2.94456168869661
30
0
41
1
10
71.3589907541447
20
-2.96647045446662
30
0
41
1
10
71.3082090369242
20
-3.00318517096173
30
0
41
1
10
71.2831334922374
20
-3.01813343885698
30
0
41
1
10
71.2334519602508
20
-3.04152462987551
30
0
41
1
10
71.2087233523198
20
-3.04998814204336
30
0
41
1
10
71.1359479796227
20
-3.0652609117225
30
0
41
1
10
71.0899657761657
20
-3.06217116728837
30
0
41
1
10
71.0242705389913
20
-3.03755739088513
30
0
41
1
10
71.0028785267966
20
-3.02587125059367
30
0
41
1
10
70.9624646831777
20
-2.99610351813385
30
0
41
1
10
70.9432809069094
20
-2.97799024855931
30
0
41
1
10
70.9251634844739
20
-2.95649817671668
30
0
0
SPLINE
5
A5
100
AcDbEntity
8
1
62
256
6
ByLayer
370
18
48
1
60
0
100
AcDbSpline
70
4
71
3
72
14
73
10
40
0
40
0
40
0
40
0
40
0.303674448124287
40
0.303674448124287
40
0.45551167218643
40
0.45551167218643
40
0.607348896248573
40
0.607348896248573
40
1
40
1
40
1
40
1
41
1
10
71.0879536930358
20
-5.60077378916483
30
0
41
1
10
70.3693248728134
20
-5.61539990556088
30
0
41
1
10
69.6526111150097
20
-5.58956493917242
30
0
41
1
10
68.575845282178
20
-5.49136774268149
30
0
41
1
10
68.2165221053504
20
-5.44872124045159
30
0
41
1
10
67.4968213296598
20
-5.34390561391373
30
0
41
1
10
67.1384222201731
20
-5.28203003306825
30
0
41
1
10
65.8569745990526
20
-5.02773186190535
30
0
41
1
10
64.9395875548939
20
-4.78382287377835
30
0
41
1
10
64.021761523407
20
-4.48743184409446
30
0
0
SPLINE
5
A6
100
AcDbEntity
8
1
62
256
6
ByLayer
370
13
48
1
60
0
100
AcDbSpline
70
4
71
3
72
24
73
20
40
0
40
0
40
0
40
0
40
0.111478981410149
40
0.111478981410149
40
0.190318433372493
40
0.190318433372493
40
0.269157885334836
40
0.269157885334836
40
0.426836789259521
40
0.426836789259521
40
0.74219459710889
40
0.74219459710889
40
0.781614323090062
40
0.781614323090062
40
0.821034049071233
40
0.821034049071233
40
0.899873501033577
40
0.899873501033577
40
1
40
1
40
1
40
1
41
1
10
64.0217617707324
20
-4.48743192396253
30
0
41
1
10
63.5199033693988
20
-4.32536817930387
30
0
41
1
10
63.0179137199716
20
-4.14761337105585
30
0
41
1
10
62.1586899487327
20
-3.81960467961747
30
0
41
1
10
61.8021038887962
20
-3.67654177513637
30
0
41
1
10
61.0867719230436
20
-3.37698780945396
30
0
41
1
10
60.7275910308785
20
-3.22028659484073
30
0
41
1
10
59.6484277895872
20
-2.73282599732286
30
0
41
1
10
58.9346473701958
20
-2.38858170219029
30
0
41
1
10
56.799922498501
20
-1.31710511702906
30
0
41
1
10
55.3859445109898
20
-0.550306154793759
30
0
41
1
10
53.7756920037132
20
0.31597282543305
30
0
41
1
10
53.5965013345823
20
0.412269567059695
30
0
41
1
10
53.2374516889945
20
0.604726021409135
30
0
41
1
10
53.0573527225214
20
0.701013855515043
30
0
41
1
10
52.5178541961212
20
0.988277859032792
30
0
41
1
10
52.1595797092247
20
1.17756722259685
30
0
41
1
10
51.3486023056701
20
1.60094572103267
30
0
41
1
10
50.8963270484321
20
1.83285994677448
30
0
41
1
10
50.4447603583521
20
2.05862648722143
30
0
0
SPLINE
5
A7
100
AcDbEntity
8
1
62
256
6
ByLayer
370
18
48
1
60
0
100
AcDbSpline
70
4
71
3
72
10
73
6
40
0
40
0
40
0
40
0
40
0.24588453887285
40
0.24588453887285
40
1
40
1
40
1
40
1
41
1
10
5.35873725680295
20
-5.5638677198778
30
0
41
1
10
5.12412500071568
20
-5.563370761572
30
0
41
1
10
4.88907710673544
20
-5.5586426115764
30
0
41
1
10
3.93402383530116
20
-5.5221079725172
30
0
41
1
10
3.21526773127383
20
-5.4547548770332
30
0
41
1
10
2.49478557091541
20
-5.34796284080787
30
0
0
SPLINE
5
A8
100
AcDbEntity
8
1
62
256
6
ByLayer
370
18
48
1
60
0
100
AcDbSpline
70
4
71
3
72
12
73
8
40
0
40
0
40
0
40
0
40
0.5
40
0.5
40
0.75
40
0.75
40
1
40
1
40
1
40
1
41
1
10
2.24447051581731
20
-5.53936146979785
30
0
41
1
10
2.24447051581734
20
-5.50619482407114
30
0
41
1
10
2.25582081740967
20
-5.47187212038233
30
0
41
1
10
2.2885386806567
20
-5.42692743382381
30
0
41
1
10
2.30230598977178
20
-5.41260078332147
30
0
41
1
10
2.33487109797699
20
-5.38704927232021
30
0
41
1
10
2.35339902158682
20
-5.37591276641788
30
0
41
1
10
2.37454100224247
20
-5.36671155218909
30
0
0
SPLINE
5
A9
100
AcDbEntity
8
1
62
256
6
ByLayer
370
13
48
1
60
0
100
AcDbSpline
70
4
71
3
72
48
73
44
40
0
40
0
40
0
40
0
40
0.0624999999999998
40
0.0624999999999998
40
0.0937499999999998
40
0.0937499999999998
40
0.125
40
0.125
40
0.25
40
0.25
40
0.28125
40
0.28125
40
0.3125
40
0.3125
40
0.375
40
0.375
40
0.4375
40
0.4375
40
0.5
40
0.5
40
0.53125
40
0.53125
40
0.5625
40
0.5625
40
0.625
40
0.625
40
0.6875
40
0.6875
40
0.75
40
0.75
40
0.78125
40
0.78125
40
0.8125
40
0.8125
40
0.875
40
0.875
40
0.9375
40
0.9375
40
0.96875
40
0.96875
40
0.984375
40
0.984375
40
1
40
1
40
1
40
1
41
1
10
2.49478557091555
20
-5.3479628408079
30
0
41
1
10
2.49483242330177
20
-5.28145593239862
30
0
41
1
10
2.49487585184104
20
-5.20029066906827
30
0
41
1
10
2.49493709020507
20
-5.05695467307677
30
0
41
1
10
2.49495685055092
20
-5.0055664311549
30
0
41
1
10
2.49499525685656
20
-4.89549908162022
30
0
41
1
10
2.49501392874617
20
-4.83670003177369
30
0
41
1
10
2.49510391312683
20
-4.52797958448872
30
0
41
1
10
2.49516618127717
20
-4.23237386191329
30
0
41
1
10
2.49523967455408
20
-3.80222557398619
30
0
41
1
10
2.49525419812457
20
-3.71276896371791
30
0
41
1
10
2.49528262812407
20
-3.52962827721927
30
0
41
1
10
2.49529654173148
20
-3.43594314498935
30
0
41
1
10
2.49533762557172
20
-3.14868285307386
30
0
41
1
10
2.49536415092214
20
-2.94892792056615
30
0
41
1
10
2.49541645895403
20
-2.53302982254976
30
0
41
1
10
2.49544229030735
20
-2.31645025986643
30
0
41
1
10
2.49549360588543
20
-1.86802315577924
30
0
41
1
10
2.49551877592808
20
-1.63898315979594
30
0
41
1
10
2.4955559676288
20
-1.28821040661333
30
0
41
1
10
2.49556828255226
20
-1.16991777322997
30
0
41
1
10
2.49559242664878
20
-0.933612915928506
30
0
41
1
10
2.49560429013348
20
-0.815282949309079
30
0
41
1
10
2.49563921089668
20
-0.459772022889979
30
0
41
1
10
2.49566161320172
20
-0.222072135934326
30
0
41
1
10
2.49570407322776
20
0.254704144686485
30
0
41
1
10
2.49572413432134
20
0.493780319632293
30
0
41
1
10
2.49576081467583
20
0.973370576309861
30
0
41
1
10
2.49577715627126
20
1.21040503303931
30
0
41
1
10
2.49579760286508
20
1.5602896663535
30
0
41
1
10
2.49580375659161
20
1.67636671102679
30
0
41
1
10
2.49581442099355
20
1.90478816106702
30
0
41
1
10
2.49581893963722
20
2.01719495204344
30
0
41
1
10
2.49582982221221
20
2.34912126526569
30
0
41
1
10
2.49583352647346
20
2.56336816976955
30
0
41
1
10
2.49583229266881
20
2.97787312221729
30
0
41
1
10
2.49582733888513
20
3.17852393809014
30
0
41
1
10
2.49581196404179
20
3.46729221440842
30
0
41
1
10
2.49580554423466
20
3.56096787687159
30
0
41
1
10
2.49579383477979
20
3.69763166533218
30
0
41
1
10
2.49578958482113
20
3.74254413004627
30
0
41
1
10
2.49578036601639
20
3.83108213589432
30
0
41
1
10
2.49577536206391
20
3.87497567595838
30
0
41
1
10
2.49577005541411
20
3.91768609746461
30
0
0
SPLINE
5
AA
100
AcDbEntity
8
1
62
256
6
ByLayer
370
18
48
1
60
0
100
AcDbSpline
70
4
71
3
72
48
73
44
40
0
40
0
40
0
40
0
40
0.0279904146927372
40
0.0279904146927372
40
0.0582174134480949
40
0.0582174134480949
40
0.0884444122034528
40
0.0884444122034528
40
0.209352407224884
40
0.209352407224884
40
0.2698064047356
40
0.2698064047356
40
0.330260402246315
40
0.330260402246315
40
0.451168397267747
40
0.451168397267747
40
0.572076392289178
40
0.572076392289178
40
0.575854767133598
40
0.575854767133598
40
0.579633141978018
40
0.579633141978018
40
0.583411516822437
40
0.583411516822437
40
0.587189891666857
40
0.587189891666857
40
0.602303391044536
40
0.602303391044536
40
0.632530389799894
40
0.632530389799894
40
0.69298438731061
40
0.69298438731061
40
0.753438384821326
40
0.753438384821326
40
0.813892382332041
40
0.813892382332041
40
0.874346379842757
40
0.874346379842757
40
0.904573378598115
40
0.904573378598115
40
0.934800377353473
40
0.934800377353473
40
1
40
1
40
1
40
1
41
1
10
13.6166636340224
20
3.30309030962826
30
0
41
1
10
13.6166636340224
20
3.25930190421485
30
0
41
1
10
13.6166636340224
20
3.21387476687761
30
0
41
1
10
13.6166636340224
20
3.11598662629393
30
0
41
1
10
13.6166636340224
20
3.06310932638584
30
0
41
1
10
13.6166636340224
20
2.95440859074577
30
0
41
1
10
13.6166636340224
20
2.89857207344235
30
0
41
1
10
13.6166636340224
20
2.61220793046834
30
0
41
1
10
13.6166636340224
20
2.36028941838896
30
0
41
1
10
13.6166636340224
20
1.95090706478578
30
0
41
1
10
13.6166636340224
20
1.80916511270445
30
0
41
1
10
13.6166636340224
20
1.51525284707156
30
0
41
1
10
13.6166636340224
20
1.36265728724689
30
0
41
1
10
13.6166636340224
20
0.892159947179238
30
0
41
1
10
13.6166636340224
20
0.564148087985615
30
0
41
1
10
13.6166636340224
20
-0.118963587198834
30
0
41
1
10
13.6166636340224
20
-0.475385133187018
30
0
41
1
10
13.6166636340224
20
-0.85207889081417
30
0
41
1
10
13.6166636340224
20
-0.863572578983735
30
0
41
1
10
13.6166636340224
20
-0.887591681560082
30
0
41
1
10
13.6166636340224
20
-0.900204626059036
30
0
41
1
10
13.6166636340224
20
-0.925321332147405
30
0
41
1
10
13.6166636340225
20
-0.937504037747516
30
0
41
1
10
13.6166636340225
20
-0.961118964596949
30
0
41
1
10
13.6166636340224
20
-0.972726738116364
30
0
41
1
10
13.6166636340224
20
-1.0311512919003
30
0
41
1
10
13.6166636340224
20
-1.07777139518876
30
0
41
1
10
13.6166636340224
20
-1.21711983449097
30
0
41
1
10
13.6166636340224
20
-1.30942125849208
30
0
41
1
10
13.6166636340224
20
-1.58390314252847
30
0
41
1
10
13.6166636340224
20
-1.76379764134612
30
0
41
1
10
13.6166636340224
20
-2.11721151514092
30
0
41
1
10
13.6166636340224
20
-2.29040654034037
30
0
41
1
10
13.6166636340224
20
-2.62645812425231
30
0
41
1
10
13.6166636340224
20
-2.78977707666243
30
0
41
1
10
13.6166636340224
20
-3.106769447207
30
0
41
1
10
13.6166636340224
20
-3.26044431755426
30
0
41
1
10
13.6166636340224
20
-3.48336882442399
30
0
41
1
10
13.6166636340224
20
-3.55641034642406
30
0
41
1
10
13.6166636340224
20
-3.69987343867638
30
0
41
1
10
13.6166636340224
20
-3.77036296508245
30
0
41
1
10
13.6166636340224
20
-3.98662750121079
30
0
41
1
10
13.6166636340224
20
-4.12595929298254
30
0
41
1
10
13.6166636340224
20
-4.25659920497216
30
0
0
SPLINE
5
AB
100
AcDbEntity
8
1
62
256
6
ByLayer
370
18
48
1
60
0
100
AcDbSpline
70
4
71
3
72
8
73
4
40
0
40
0
40
0
40
0
40
1
40
1
40
1
40
1
41
1
10
70.9824893230968
20
1.37096012218441
30
0
41
1
10
71.549708731882
20
1.35387485545064
30
0
41
1
10
72.1170568688867
20
1.33550691737034
30
0
41
1
10
72.6839717480833
20
1.321456038734
30
0
0
SPLINE
5
AC
100
AcDbEntity
8
1
62
256
6
ByLayer
370
18
48
1
60
0
100
AcDbSpline
70
4
71
3
72
8
73
4
40
0
40
0
40
0
40
0
40
1
40
1
40
1
40
1
41
1
10
2.24447051581731
20
4.09969710816225
30
0
41
1
10
2.24447051581731
20
4.14034559644341
30
0
41
1
10
2.24447051581731
20
4.18130701930176
30
0
41
1
10
2.24447051581731
20
4.22258023377466
30
0
0
SPLINE
5
AD
100
AcDbEntity
8
1
62
256
6
ByLayer
370
18
48
1
60
0
100
AcDbSpline
70
4
71
3
72
50
73
46
40
0
40
0
40
0
40
0
40
0.0156250000000021
40
0.0156250000000021
40
0.0312500000000041
40
0.0312500000000041
40
0.0468750000000061
40
0.0468750000000061
40
0.0625000000000082
40
0.0625000000000082
40
0.0937500000000122
40
0.0937500000000122
40
0.125000000000016
40
0.125000000000016
40
0.140625000000018
40
0.140625000000018
40
0.15625000000002
40
0.15625000000002
40
0.187500000000023
40
0.187500000000023
40
0.250000000000028
40
0.250000000000028
40
0.265625000000029
40
0.265625000000029
40
0.26953125000003
40
0.26953125000003
40
0.27343750000003
40
0.27343750000003
40
0.281250000000031
40
0.281250000000031
40
0.31250000000003
40
0.31250000000003
40
0.375000000000028
40
0.375000000000028
40
0.437500000000026
40
0.437500000000026
40
0.500000000000024
40
0.500000000000024
40
0.625000000000018
40
0.625000000000018
40
0.750000000000012
40
0.750000000000012
40
0.875000000000006
40
0.875000000000006
40
1
40
1
40
1
40
1
41
1
10
2.24447051583147
20
2.80084085376413
30
0
41
1
10
2.21098575787354
20
2.85913810292308
30
0
41
1
10
2.17968354932211
20
2.91873949856745
30
0
41
1
10
2.12379735869678
20
3.03808555121029
30
0
41
1
10
2.09911989105754
20
3.09793103820942
30
0
41
1
10
2.05721209864191
20
3.21808031110186
30
0
41
1
10
2.03997082583271
20
3.27838173933097
30
0
41
1
10
2.01409151708395
20
3.39958319863351
30
0
41
1
10
2.00556635514934
20
3.46035470259966
30
0
41
1
10
1.99481133123908
20
3.63828778766333
30
0
41
1
10
2.00691254691284
20
3.75282597762171
30
0
41
1
10
2.07256590984113
20
3.97384519673611
30
0
41
1
10
2.12445150063942
20
4.07504410637583
30
0
41
1
10
2.22594447396676
20
4.21548948239931
30
0
41
1
10
2.26391906411362
20
4.26053813483341
30
0
41
1
10
2.34525665824606
20
4.34540474605222
30
0
41
1
10
2.38879104997261
20
4.38549091307385
30
0
41
1
10
2.52671357511898
20
4.4998670012246
30
0
41
1
10
2.62836136942877
20
4.56832850996597
30
0
41
1
10
2.9558517663869
20
4.75640501727923
30
0
41
1
10
3.19840761115773
20
4.85614885819973
30
0
41
1
10
3.51630506156468
20
4.96195936827502
30
0
41
1
10
3.58066312942412
20
4.98220762610791
30
0
41
1
10
3.66179656391893
20
5.00633507307219
30
0
41
1
10
3.67850538447723
20
5.01053022861703
30
0
41
1
10
3.71393003900843
20
5.01637953558384
30
0
41
1
10
3.73259256281548
20
5.01836970657243
30
0
41
1
10
3.78830932861629
20
5.02200916947635
30
0
41
1
10
3.82539607352811
20
5.0209257983162
30
0
41
1
10
4.01089060931588
20
5.0192064245492
30
0
41
1
10
4.15931141533542
20
5.01694056459644
30
0
41
1
10
4.60421213886946
20
5.00749089796798
30
0
41
1
10
4.90025912797455
20
4.99766979804949
30
0
41
1
10
5.49127199354237
20
4.97081340943654
30
0
41
1
10
5.78649033119893
20
4.95374631959194
30
0
41
1
10
6.37474965693883
20
4.91205525073883
30
0
41
1
10
6.66694851384815
20
4.88748641867917
30
0
41
1
10
7.53793573236504
20
4.80200333078415
30
0
41
1
10
8.11112587064758
20
4.72937404618784
30
0
41
1
10
9.24376216856336
20
4.54869468301803
30
0
41
1
10
9.80319376762685
20
4.4405776960331
30
0
41
1
10
10.9101068726529
20
4.18497410743632
30
0
41
1
10
11.4575560465375
20
4.0373709717563
30
0
41
1
10
12.5431984972492
20
3.70092768318779
30
0
41
1
10
13.0813845630381
20
3.51203513874265
30
0
41
1
10
13.6166636340224
20
3.30309030962837
30
0
0
SPLINE
5
AE
100
AcDbEntity
8
1
62
256
6
ByLayer
370
18
48
1
60
0
100
AcDbSpline
70
4
71
3
72
12
73
8
40
0
40
0
40
0
40
0
40
0.250000000000001
40
0.250000000000001
40
0.500000000000001
40
0.500000000000001
40
1
40
1
40
1
40
1
41
1
10
2.37165314625918
20
-5.64452174093287
30
0
41
1
10
2.35228847731196
20
-5.64159517694748
30
0
41
1
10
2.33478759209788
20
-5.63802910590283
30
0
41
1
10
2.30340613556638
20
-5.62956530761755
30
0
41
1
10
2.28968439050087
20
-5.62466777492557
30
0
41
1
10
2.25650492228741
20
-5.60863914682872
30
0
41
1
10
2.24447051581717
20
-5.59588067594169
30
0
41
1
10
2.24447051581717
20
-5.58242891327984
30
0
0
SPLINE
5
AF
100
AcDbEntity
8
1
62
256
6
ByLayer
370
18
48
1
60
0
100
AcDbSpline
70
4
71
3
72
12
73
8
40
0
40
0
40
0
40
0
40
0.5
40
0.5
40
0.75
40
0.75
40
1
40
1
40
1
40
1
41
1
10
72.6839717480833
20
1.321456038734
30
0
41
1
10
72.7735676428299
20
1.13170014768457
30
0
41
1
10
72.8437209608829
20
0.939481718730917
30
0
41
1
10
72.9213238431056
20
0.647654911103075
30
0
41
1
10
72.9426363050958
20
0.549617123341818
30
0
41
1
10
72.9764091673046
20
0.353243567002608
30
0
41
1
10
72.9888062452829
20
0.255418079771346
30
0
41
1
10
72.997208265993
20
0.157914103891187
30
0
0
SPLINE
5
B0
100
AcDbEntity
8
1
62
256
6
ByLayer
370
13
48
1
60
0
100
AcDbSpline
70
4
71
3
72
14
73
10
40
0
40
0
40
0
40
0
40
0.465333283863334
40
0.465333283863334
40
0.697999925794999
40
0.697999925794999
40
0.930666567726664
40
0.930666567726664
40
1
40
1
40
1
40
1
41
1
10
2.44681361595707
20
-5.46691612380857
30
0
41
1
10
3.16794066342223
20
-5.56975629289479
30
0
41
1
10
3.88727791468267
20
-5.63227519334618
30
0
41
1
10
4.96848541561073
20
-5.66517538274263
30
0
41
1
10
5.32939103721168
20
-5.66593394762916
30
0
41
1
10
6.04741453898532
20
-5.64724965892586
30
0
41
1
10
6.4052372798179
20
-5.62785065983445
30
0
41
1
10
6.86867786503012
20
-5.58982984687557
30
0
41
1
10
6.97500613076235
20
-5.58022508159831
30
0
41
1
10
7.08127680455092
20
-5.56975138912262
30
0
0
SPLINE
5
B1
100
AcDbEntity
8
1
62
256
6
ByLayer
370
18
48
1
60
0
100
AcDbSpline
70
4
71
3
72
14
73
10
40
0
40
0
40
0
40
0
40
0.492149991281259
40
0.492149991281259
40
0.75165434823566
40
0.75165434823566
40
0.881406526712861
40
0.881406526712861
40
1
40
1
40
1
40
1
41
1
10
54.1583357014633
20
-0.0019782026088819
30
0
41
1
10
55.5145414351528
20
-0.745091608764511
30
0
41
1
10
56.8560957249325
20
-1.48018905782189
30
0
41
1
10
58.9183455595646
20
-2.52586454399918
30
0
41
1
10
59.6326414408016
20
-2.87309661914568
30
0
41
1
10
60.7128860229923
20
-3.36363565525099
30
0
41
1
10
61.0720910665085
20
-3.52093670864068
30
0
41
1
10
61.7569482301157
20
-3.80834544271622
30
0
41
1
10
62.0830787072782
20
-3.93975929447211
30
0
41
1
10
62.4086266785311
20
-4.0649902194171
30
0
0
SPLINE
5
B2
100
AcDbEntity
8
1
62
256
6
ByLayer
370
13
48
1
60
0
100
AcDbSpline
70
4
71
3
72
16
73
12
40
0
40
0
40
0
40
0
40
0.0106356833952201
40
0.0106356833952201
40
0.505317841697616
40
0.505317841697616
40
0.628988381273212
40
0.628988381273212
40
0.752658920848808
40
0.752658920848808
40
1
40
1
40
1
40
1
41
1
10
62.408626678644
20
-4.06499021946055
30
0
41
1
10
62.4392581605568
20
-4.07677345619081
30
0
41
1
10
62.4698844853599
20
-4.08850195350817
30
0
41
1
10
63.9247567783596
20
-4.64312650084705
30
0
41
1
10
65.3385176974823
20
-5.06690402590124
30
0
41
1
10
67.1266328332673
20
-5.41080456008606
30
0
41
1
10
67.4853926469959
20
-5.47029691380746
30
0
41
1
10
68.205805894046
20
-5.56983399461652
30
0
41
1
10
68.5652383195953
20
-5.60958325678848
30
0
41
1
10
69.6426658545896
20
-5.6984852403788
30
0
41
1
10
70.3597924286667
20
-5.71725961018774
30
0
41
1
10
71.0788989351183
20
-5.69479837800159
30
0
0
SPLINE
5
B3
100
AcDbEntity
8
1
62
256
6
ByLayer
370
18
48
1
60
0
100
AcDbSpline
70
4
71
3
72
8
73
4
40
0
40
0
40
0
40
0
40
1
40
1
40
1
40
1
41
1
10
71.0788989351182
20
-5.69479837800179
30
0
41
1
10
71.0528852712491
20
-5.76080666079099
30
0
41
1
10
71.0267998511022
20
-5.82668794095011
30
0
41
1
10
71.0006408661345
20
-5.89244106333936
30
0
0
SPLINE
5
B4
100
AcDbEntity
8
1
62
256
6
ByLayer
370
18
48
1
60
0
100
AcDbSpline
70
4
71
3
72
48
73
44
40
0
40
0
40
0
40
0
40
0.0312499999999998
40
0.0312499999999998
40
0.0468749999999996
40
0.0468749999999996
40
0.0624999999999995
40
0.0624999999999995
40
0.0781249999999994
40
0.0781249999999994
40
0.0937499999999992
40
0.0937499999999992
40
0.109374999999999
40
0.109374999999999
40
0.124999999999999
40
0.124999999999999
40
0.156249999999999
40
0.156249999999999
40
0.187499999999999
40
0.187499999999999
40
0.218749999999998
40
0.218749999999998
40
0.249999999999998
40
0.249999999999998
40
0.312499999999998
40
0.312499999999998
40
0.374999999999997
40
0.374999999999997
40
0.437499999999997
40
0.437499999999997
40
0.499999999999996
40
0.499999999999996
40
0.562499999999996
40
0.562499999999996
40
0.624999999999995
40
0.624999999999995
40
0.749999999999996
40
0.749999999999996
40
0.812499999999996
40
0.812499999999996
40
0.874999999999997
40
0.874999999999997
40
1
40
1
40
1
40
1
41
1
10
2.65529936814761
20
3.85603256006843
30
0
41
1
10
2.59080432461849
20
3.75070348576378
30
0
41
1
10
2.54701073610431
20
3.63771589889771
30
0
41
1
10
2.51576916213926
20
3.45473942104132
30
0
41
1
10
2.51128662241837
20
3.39174042740152
30
0
41
1
10
2.51385903988972
20
3.26546725667123
30
0
41
1
10
2.52080247814794
20
3.20167942719388
30
0
41
1
10
2.54514338944165
20
3.07280394642598
30
0
41
1
10
2.56270751378159
20
3.00736148728996
30
0
41
1
10
2.60625969399274
20
2.8785763293705
30
0
41
1
10
2.63225396031592
20
2.81486811392929
30
0
41
1
10
2.69133679170795
20
2.68853903021488
30
0
41
1
10
2.7244278299566
20
2.62591838754901
30
0
41
1
10
2.79669729359034
20
2.50154980697562
30
0
41
1
10
2.83604894981863
20
2.43958167972204
30
0
41
1
10
2.96023925145553
20
2.25739030020137
30
0
41
1
10
3.05140486019897
20
2.14017690565319
30
0
41
1
10
3.24550910855868
20
1.91148625287121
30
0
41
1
10
3.34849919584281
20
1.80003734474002
30
0
41
1
10
3.56345359247115
20
1.58131285884596
30
0
41
1
10
3.67562326741472
20
1.4739171075004
30
0
41
1
10
3.90367481312853
20
1.2652598328153
30
0
41
1
10
4.01999704342643
20
1.16355367772456
30
0
41
1
10
4.37427891994662
20
0.864442802471387
30
0
41
1
10
4.61745186734211
20
0.672924709574943
30
0
41
1
10
5.11295647515288
20
0.299972127286026
30
0
41
1
10
5.36535791635802
20
0.118619351453077
30
0
41
1
10
5.87696472205681
20
-0.23680163196056
30
0
41
1
10
6.1366262912216
20
-0.411159231449403
30
0
41
1
10
6.65913379433624
20
-0.753061338282123
30
0
41
1
10
6.92104620040897
20
-0.919746866493966
30
0
41
1
10
7.44579866206041
20
-1.24548068438355
30
0
41
1
10
7.70863579456801
20
-1.40462012646614
30
0
41
1
10
8.23512518568452
20
-1.71633926345962
30
0
41
1
10
8.49877831126796
20
-1.86892176631804
30
0
41
1
10
9.29122592239912
20
-2.31638564314034
30
0
41
1
10
9.82146287005827
20
-2.60052666532863
30
0
41
1
10
10.6224656498311
20
-3.00422860482425
30
0
41
1
10
10.8904332244615
20
-3.13493474394741
30
0
41
1
10
11.4291105180805
20
-3.3871772914039
30
0
41
1
10
11.7001569537723
20
-3.50884181499032
30
0
41
1
10
12.5161969916344
20
-3.85805377972852
30
0
41
1
10
13.0630373062443
20
-4.0698337958236
30
0
41
1
10
13.6166636340224
20
-4.25659920497242
30
0
0
SPLINE
5
B5
100
AcDbEntity
8
1
62
256
6
ByLayer
370
18
48
1
60
0
100
AcDbSpline
70
4
71
3
72
10
73
6
40
0
40
0
40
0
40
0
40
0.5
40
0.5
40
1
40
1
40
1
40
1
41
1
10
71.2447821399717
20
-5.73780754559886
30
0
41
1
10
71.2059728573787
20
-5.78002429376247
30
0
41
1
10
71.1660622728376
20
-5.81429236726848
30
0
41
1
10
71.0842268289194
20
-5.86611835481312
30
0
41
1
10
71.0427573333692
20
-5.88342583015819
30
0
41
1
10
71.0006408661345
20
-5.89244106333933
30
0
0
SPLINE
5
B6
100
AcDbEntity
8
1
62
256
6
ByLayer
370
18
48
1
60
0
100
AcDbSpline
70
4
71
3
72
14
73
10
40
0
40
0
40
0
40
0
40
0.25
40
0.25
40
0.5
40
0.5
40
0.75
40
0.75
40
1
40
1
40
1
40
1
41
1
10
70.8463179595805
20
1.27534707898954
30
0
41
1
10
70.8457536030348
20
1.29060237682987
30
0
41
1
10
70.8493730785789
20
1.30597122091635
30
0
41
1
10
70.8652540065106
20
1.33249677894114
30
0
41
1
10
70.8774734049416
20
1.34353486297741
30
0
41
1
10
70.9047845371203
20
1.35926616024889
30
0
41
1
10
70.9201039400864
20
1.36437819433249
30
0
41
1
10
70.9509359722512
20
1.37041477331971
30
0
41
1
10
70.9667115950741
20
1.37143536454664
30
0
41
1
10
70.9824893230969
20
1.37096012218444
30
0
0
SPLINE
5
B7
100
AcDbEntity
8
1
62
256
6
ByLayer
370
13
48
1
60
0
100
AcDbSpline
70
4
71
3
72
12
73
8
40
0
40
0
40
0
40
0
40
0.499999999999982
40
0.499999999999982
40
0.749999999999991
40
0.749999999999991
40
1
40
1
40
1
40
1
41
1
10
2.24447051581731
20
-5.53936146979785
30
0
41
1
10
2.24447051581734
20
-5.52696985296723
30
0
41
1
10
2.25584426057907
20
-5.51408596505544
30
0
41
1
10
2.28856106283746
20
-5.49713202299262
30
0
41
1
10
2.30232227597133
20
-5.49171368492642
30
0
41
1
10
2.33487321798847
20
-5.48202780791618
30
0
41
1
10
2.35339492237793
20
-5.47779382390147
30
0
41
1
10
2.37454100224247
20
-5.47428956071724
30
0
0
SPLINE
5
B8
100
AcDbEntity
8
1
62
256
6
ByLayer
370
18
48
1
60
0
100
AcDbSpline
70
4
71
3
72
94
73
90
40
0
40
0
40
0
40
0
40
0.0084170032324392
40
0.0084170032324392
40
0.0286500876207329
40
0.0286500876207329
40
0.0488831720090266
40
0.0488831720090266
40
0.0893493407856148
40
0.0893493407856148
40
0.109582425173909
40
0.109582425173909
40
0.129815509562203
40
0.129815509562203
40
0.150048593950497
40
0.150048593950497
40
0.170281678338791
40
0.170281678338791
40
0.21074784711538
40
0.21074784711538
40
0.230980931503675
40
0.230980931503675
40
0.25121401589197
40
0.25121401589197
40
0.271447100280265
40
0.271447100280265
40
0.29168018466856
40
0.29168018466856
40
0.311913269056855
40
0.311913269056855
40
0.33214635344515
40
0.33214635344515
40
0.372612522221739
40
0.372612522221739
40
0.392845606610034
40
0.392845606610034
40
0.413078690998328
40
0.413078690998328
40
0.433311775386623
40
0.433311775386623
40
0.453544859774917
40
0.453544859774917
40
0.494011028551505
40
0.494011028551505
40
0.5142441129398
40
0.5142441129398
40
0.534477197328094
40
0.534477197328094
40
0.574943366104683
40
0.574943366104683
40
0.595176450492977
40
0.595176450492977
40
0.615409534881272
40
0.615409534881272
40
0.635642619269566
40
0.635642619269566
40
0.655875703657861
40
0.655875703657861
40
0.676108788046156
40
0.676108788046156
40
0.69634187243445
40
0.69634187243445
40
0.716574956822745
40
0.716574956822745
40
0.736808041211039
40
0.736808041211039
40
0.777274209987629
40
0.777274209987629
40
0.797507294375924
40
0.797507294375924
40
0.817740378764219
40
0.817740378764219
40
0.837973463152513
40
0.837973463152513
40
0.858206547540808
40
0.858206547540808
40
0.878439631929102
40
0.878439631929102
40
0.898672716317397
40
0.898672716317397
40
0.939138885093985
40
0.939138885093985
40
0.959371969482279
40
0.959371969482279
40
0.979605053870574
40
0.979605053870574
40
0.999838138258868
40
0.999838138258868
40
1
40
1
40
1
40
1
41
1
10
60.8755367577693
20
-4.26867672521308
30
0
41
1
10
60.763117551037
20
-4.30755239705837
30
0
41
1
10
60.6506470132058
20
-4.34564508268289
30
0
41
1
10
60.2676366479446
20
-4.47275311452728
30
0
41
1
10
59.996869540667
20
-4.55832545622164
30
0
41
1
10
59.4549166660522
20
-4.72128487324466
30
0
41
1
10
59.184427244557
20
-4.79853180529193
30
0
41
1
10
58.3752662443191
20
-5.01434628176205
30
0
41
1
10
57.8378830920222
20
-5.13754211173551
30
0
41
1
10
57.03458347607
20
-5.2893391851627
30
0
41
1
10
56.7673330222791
20
-5.3340622671958
30
0
41
1
10
56.2325076986148
20
-5.41228658705049
30
0
41
1
10
55.9651032605843
20
-5.44669311616735
30
0
41
1
10
55.4302841483324
20
-5.5054359823807
30
0
41
1
10
55.1628736916309
20
-5.52965650437235
30
0
41
1
10
54.6279047504867
20
-5.56609360509532
30
0
41
1
10
54.3602739430973
20
-5.57845059830697
30
0
41
1
10
53.5557563933059
20
-5.60075360469958
30
0
41
1
10
53.0174866297818
20
-5.59420482401219
30
0
41
1
10
52.2061170555112
20
-5.54670165712184
30
0
41
1
10
51.9347944611854
20
-5.52531483585071
30
0
41
1
10
51.3932411204501
20
-5.47238759278602
30
0
41
1
10
51.1226717019866
20
-5.44069396786415
30
0
41
1
10
50.5818641503638
20
-5.36565339629033
30
0
41
1
10
50.3116715990245
20
-5.32200744295687
30
0
41
1
10
49.7714316896106
20
-5.22456028091213
30
0
41
1
10
49.5011050969468
20
-5.17098595300396
30
0
41
1
10
48.9598066616067
20
-5.05353586827661
30
0
41
1
10
48.6885647992142
20
-4.98953784054333
30
0
41
1
10
48.1463936292619
20
-4.85045711470778
30
0
41
1
10
47.8763595421405
20
-4.77572050752744
30
0
41
1
10
47.0678203598053
20
-4.53924998391003
30
0
41
1
10
46.5305612424651
20
-4.36466239527439
30
0
41
1
10
45.7269057260672
20
-4.07628429888263
30
0
41
1
10
45.4595648350481
20
-3.97594826021722
30
0
41
1
10
44.9247044303092
20
-3.76840342916256
30
0
41
1
10
44.6572283813232
20
-3.66109416530131
30
0
41
1
10
44.121951408286
20
-3.43899896260004
30
0
41
1
10
43.8541030174912
20
-3.32409428784027
30
0
41
1
10
43.3184307037462
20
-3.08800042517129
30
0
41
1
10
43.0506434851175
20
-2.96647247492314
30
0
41
1
10
42.2450670351631
20
-2.59343213212608
30
0
41
1
10
41.7051865146119
20
-2.33291091474587
30
0
41
1
10
40.892423783842
20
-1.92625204959782
30
0
41
1
10
40.6215749748626
20
-1.7883162231781
30
0
41
1
10
40.0803333301322
20
-1.51037168768232
30
0
41
1
10
39.8098050815406
20
-1.37004296430217
30
0
41
1
10
38.9985518977651
20
-0.945465930864373
30
0
41
1
10
38.4590968746258
20
-0.656141522163011
30
0
41
1
10
37.6464990755998
20
-0.221065378498167
30
0
41
1
10
37.374981346372
20
-0.0756109809067311
30
0
41
1
10
36.8328215721797
20
0.215297848165875
30
0
41
1
10
36.5622897418316
20
0.360899042592933
30
0
41
1
10
36.0217121109211
20
0.651059477019061
30
0
41
1
10
35.7513634698954
20
0.794966194005099
30
0
41
1
10
35.2104589141434
20
1.08063152324726
30
0
41
1
10
34.9399539626399
20
1.22255019328006
30
0
41
1
10
34.3988301792498
20
1.5043554608892
30
0
41
1
10
34.1283662741327
20
1.6445216751124
30
0
41
1
10
33.5862532397898
20
1.92063937840109
30
0
41
1
10
33.3151416601506
20
2.05618002398614
30
0
41
1
10
32.7747214401636
20
2.32260284194484
30
0
41
1
10
32.505119653009
20
2.45347296154745
30
0
41
1
10
31.9672359449669
20
2.70996473158579
30
0
41
1
10
31.6990611328018
20
2.83533943703338
30
0
41
1
10
30.8947049546797
20
3.20060578008929
30
0
41
1
10
30.3591389921584
20
3.43287143059868
30
0
41
1
10
29.5562900051894
20
3.75819020993623
30
0
41
1
10
29.288764545575
20
3.86285389629575
30
0
41
1
10
28.7529366993816
20
4.06507103050507
30
0
41
1
10
28.4847253966326
20
4.16250488693723
30
0
41
1
10
27.9475556717651
20
4.34921767435875
30
0
41
1
10
27.6785560339474
20
4.43821762216325
30
0
41
1
10
27.1395017176707
20
4.60652278174894
30
0
41
1
10
26.8695094283971
20
4.68664092081087
30
0
41
1
10
26.3278055364601
20
4.83814351654922
30
0
41
1
10
26.0561821429738
20
4.90951106407562
30
0
41
1
10
25.5144039439078
20
5.04110152042841
30
0
41
1
10
25.2438429220347
20
5.10073111397423
30
0
41
1
10
24.4331335302455
20
5.26558880433035
30
0
41
1
10
23.8926276977143
20
5.35670645739302
30
0
41
1
10
23.0802304158906
20
5.4569035776816
30
0
41
1
10
22.8091773255029
20
5.48450192839573
30
0
41
1
10
22.2670183959283
20
5.52990973885542
30
0
41
1
10
21.9961672055244
20
5.54724692583224
30
0
41
1
10
21.4547442513737
20
5.57034000638015
30
0
41
1
10
21.1841472739392
20
5.57574634515623
30
0
41
1
10
20.9114978066636
20
5.57521930665192
30
0
41
1
10
20.9093339817544
20
5.57521479021437
30
0
41
1
10
20.9071701773831
20
5.57520994003613
30
0
0
SPLINE
5
B9
100
AcDbEntity
8
1
62
256
6
ByLayer
370
18
48
1
60
0
100
AcDbSpline
70
4
71
3
72
12
73
8
40
0
40
0
40
0
40
0
40
0.250000000000001
40
0.250000000000001
40
0.500000000000002
40
0.500000000000002
40
1
40
1
40
1
40
1
41
1
10
71.2447821399655
20
-5.73780754561881
30
0
41
1
10
71.3648325981509
20
-5.39087746287601
30
0
41
1
10
71.4865014674848
20
-5.04489301058578
30
0
41
1
10
71.7326622052806
20
-4.35448292130494
30
0
41
1
10
71.8571677960462
20
-4.01006623704313
30
0
41
1
10
72.2341711094405
20
-2.97870816168916
30
0
41
1
10
72.4902143247738
20
-2.29366705691294
30
0
41
1
10
72.7484043314753
20
-1.60995550260614
30
0
0
SPLINE
5
BA
100
AcDbEntity
8
1
62
256
6
ByLayer
370
18
48
1
60
0
100
AcDbSpline
70
4
71
3
72
54
73
50
40
0
40
0
40
0
40
0
40
0.0799328541511989
40
0.0799328541511989
40
0.119899281226798
40
0.119899281226798
40
0.159865708302398
40
0.159865708302398
40
0.199832135377997
40
0.199832135377997
40
0.239798562453597
40
0.239798562453597
40
0.279764989529196
40
0.279764989529196
40
0.319731416604795
40
0.319731416604795
40
0.399664270755996
40
0.399664270755996
40
0.439630697831596
40
0.439630697831596
40
0.479597124907196
40
0.479597124907196
40
0.519563551982796
40
0.519563551982796
40
0.559529979058396
40
0.559529979058396
40
0.599496406133997
40
0.599496406133997
40
0.619479619671797
40
0.619479619671797
40
0.639462833209597
40
0.639462833209597
40
0.679429260285198
40
0.679429260285198
40
0.7193956873608
40
0.7193956873608
40
0.799328541512003
40
0.799328541512003
40
0.839294968587605
40
0.839294968587605
40
0.879261395663206
40
0.879261395663206
40
0.919227822738807
40
0.919227822738807
40
0.959194249814409
40
0.959194249814409
40
0.99916067689001
40
0.99916067689001
40
1
40
1
40
1
40
1
41
1
10
13.6166636340224
20
3.30309030962837
30
0
41
1
10
14.221795378347
20
3.01799406426054
30
0
41
1
10
14.8257999069967
20
2.72306523792065
30
0
41
1
10
15.7263825544669
20
2.2605357625508
30
0
41
1
10
16.0252559648401
20
2.10225485234577
30
0
41
1
10
16.6237109352362
20
1.78315325713771
30
0
41
1
10
16.9231457763742
20
1.62210786169879
30
0
41
1
10
17.5218390608555
20
1.29605735782198
30
0
41
1
10
17.8211284193134
20
1.1311061409474
30
0
41
1
10
18.4190428768349
20
0.796288438422408
30
0
41
1
10
18.7184107199496
20
0.627739258765132
30
0
41
1
10
19.3191558169161
20
0.290551128465722
30
0
41
1
10
19.6202554305409
20
0.121415208350896
30
0
41
1
10
20.2235132014174
20
-0.218736435191403
30
0
41
1
10
20.5255266213871
20
-0.390756442337647
30
0
41
1
10
21.4343539156062
20
-0.903003921170978
30
0
41
1
10
22.0379743440175
20
-1.23564208106691
30
0
41
1
10
22.9368507936158
20
-1.72758322015582
30
0
41
1
10
23.2359124948623
20
-1.88939932105561
30
0
41
1
10
23.8346837072672
20
-2.20578012302556
30
0
41
1
10
24.134055479725
20
-2.36094206171111
30
0
41
1
10
24.732322210398
20
-2.66596212765174
30
0
41
1
10
25.0308125555329
20
-2.81644942448659
30
0
41
1
10
25.6289097466538
20
-3.1094385451965
30
0
41
1
10
25.9287794814663
20
-3.25156090251176
30
0
41
1
10
26.5296264412902
20
-3.52793315393961
30
0
41
1
10
26.8306300797985
20
-3.66214498830175
30
0
41
1
10
27.2825681891741
20
-3.85799446000431
30
0
41
1
10
27.4332403616934
20
-3.92242445715669
30
0
41
1
10
27.7353923879608
20
-4.04849407822212
30
0
41
1
10
27.8870052475685
20
-4.11024917476169
30
0
41
1
10
28.3416467881366
20
-4.29104611021592
30
0
41
1
10
28.6439610530318
20
-4.40552145802323
30
0
41
1
10
29.2465776946072
20
-4.62320087185668
30
0
41
1
10
29.5465434302838
20
-4.72674735135979
30
0
41
1
10
30.4451618388915
20
-5.01837305476178
30
0
41
1
10
31.0444617476903
20
-5.18595344537451
30
0
41
1
10
31.9407075279065
20
-5.40035238134863
30
0
41
1
10
32.2389838131656
20
-5.46551760201748
30
0
41
1
10
32.8376130205647
20
-5.58121867056883
30
0
41
1
10
33.1375532094907
20
-5.63209351525362
30
0
41
1
10
33.738158631564
20
-5.72011756912292
30
0
41
1
10
34.0386207820627
20
-5.75732857571975
30
0
41
1
10
34.6408317633105
20
-5.81729325303385
30
0
41
1
10
34.9438140854162
20
-5.83985219128209
30
0
41
1
10
35.5500957518428
20
-5.87010760147098
30
0
41
1
10
35.8522616598264
20
-5.87778184031342
30
0
41
1
10
36.1595431202214
20
-5.87807300592954
30
0
41
1
10
36.1658628957571
20
-5.87807569194669
30
0
41
1
10
36.1721820677723
20
-5.87807507738972
30
0
0
SPLINE
5
BB
100
AcDbEntity
8
1
62
256
6
ByLayer
370
18
48
1
60
0
100
AcDbSpline
70
4
71
3
72
30
73
26
40
0
40
0
40
0
40
0
40
0.0447247669035553
40
0.0447247669035553
40
0.131567969912323
40
0.131567969912323
40
0.21841117292109
40
0.21841117292109
40
0.261832774425476
40
0.261832774425476
40
0.30525437592986
40
0.30525437592986
40
0.478940781947395
40
0.478940781947395
40
0.565783984956163
40
0.565783984956163
40
0.65262718796493
40
0.65262718796493
40
0.739470390973698
40
0.739470390973698
40
0.826313593982466
40
0.826313593982466
40
0.913156796991233
40
0.913156796991233
40
1
40
1
40
1
40
1
41
1
10
60.8967778012781
20
4.26758405245505
30
0
41
1
10
61.0507569870969
20
4.32771442002965
30
0
41
1
10
61.2047258230368
20
4.38653253055514
30
0
41
1
10
61.657523471861
20
4.55579538589205
30
0
41
1
10
61.9561840341813
20
4.66267827026707
30
0
41
1
10
62.5561390492567
20
4.86327033020859
30
0
41
1
10
62.8570230178203
20
4.95748787503658
30
0
41
1
10
63.3093207010447
20
5.09001467325467
30
0
41
1
10
63.4602624676122
20
5.13270692354044
30
0
41
1
10
63.7624015939733
20
5.21516251575108
30
0
41
1
10
63.9137191914062
20
5.25503172441441
30
0
41
1
10
64.6691082536947
20
5.44527905521949
30
0
41
1
10
65.2711161095051
20
5.56765301084789
30
0
41
1
10
66.1681032847422
20
5.7102867286211
30
0
41
1
10
66.4658604243315
20
5.75094800656055
30
0
41
1
10
67.0621887036705
20
5.8172598635559
30
0
41
1
10
67.3604055172651
20
5.84313612137129
30
0
41
1
10
67.9563822977585
20
5.88063669792788
30
0
41
1
10
68.2540657182964
20
5.89225870704041
30
0
41
1
10
68.848945233208
20
5.90088998950532
30
0
41
1
10
69.1470519447211
20
5.89786100299185
30
0
41
1
10
69.7446552109565
20
5.87734189432075
30
0
41
1
10
70.0440362013246
20
5.85985154629779
30
0
41
1
10
70.6435730253244
20
5.81004311365623
30
0
41
1
10
70.9433449044133
20
5.77751729914348
30
0
41
1
10
71.2447821399729
20
5.73780754559761
30
0
0
SPLINE
5
BC
100
AcDbEntity
8
1
62
256
6
ByLayer
370
18
48
1
60
0
100
AcDbSpline
70
4
71
3
72
14
73
10
40
0
40
0
40
0
40
0
40
0.25
40
0.25
40
0.5
40
0.5
40
0.75
40
0.75
40
1
40
1
40
1
40
1
41
1
10
71.0879536930358
20
-5.60077378916483
30
0
41
1
10
71.0912958694899
20
-5.60023479905979
30
0
41
1
10
71.0940024323919
20
-5.60134872788305
30
0
41
1
10
71.0977388111685
20
-5.60797000182043
30
0
41
1
10
71.0987170091765
20
-5.61355186594088
30
0
41
1
10
71.0978054889138
20
-5.63032522711143
30
0
41
1
10
71.0958371835712
20
-5.64156697901643
30
0
41
1
10
71.0889846569313
20
-5.66723644489517
30
0
41
1
10
71.0841773334863
20
-5.68140472403854
30
0
41
1
10
71.0788989351179
20
-5.69479837800162
30
0
0
SPLINE
5
BD
100
AcDbEntity
8
1
62
256
6
ByLayer
370
18
48
1
60
0
100
AcDbSpline
70
4
71
3
72
8
73
4
40
0
40
0
40
0
40
0
40
1
40
1
40
1
40
1
41
1
10
72.9998233709131
20
-0.0396901543888362
30
0
41
1
10
73.0000587135562
20
-0.013245610580185
30
0
41
1
10
73.0000590243491
20
0.0132106879830474
30
0
41
1
10
72.9998233709131
20
0.0396901543843455
30
0
0
SPLINE
5
BE
100
AcDbEntity
8
1
62
256
6
ByLayer
370
18
48
1
60
0
100
AcDbSpline
70
4
71
3
72
8
73
4
40
0
40
0
40
0
40
0
40
1
40
1
40
1
40
1
41
1
10
70.9251634844742
20
-2.95649817670764
30
0
41
1
10
70.6148195660819
20
-3.36231039428509
30
0
41
1
10
70.3003431929943
20
-3.76332751103652
30
0
41
1
10
69.9829197784347
20
-4.1609250232093
30
0
0
SPLINE
5
BF
100
AcDbEntity
8
1
62
256
6
ByLayer
370
18
48
1
60
0
100
AcDbSpline
70
4
71
3
72
12
73
8
40
0
40
0
40
0
40
0
40
0.25
40
0.25
40
0.5
40
0.5
40
1
40
1
40
1
40
1
41
1
10
71.2447821399729
20
5.73780754559761
30
0
41
1
10
71.3638052063546
20
5.3938464904528
30
0
41
1
10
71.4848751419385
20
5.04950257649355
30
0
41
1
10
71.7305427230579
20
4.36037999824833
30
0
41
1
10
71.8551581820128
20
4.01559610215148
30
0
41
1
10
72.233385667095
20
2.98079305213244
30
0
41
1
10
72.4901061629218
20
2.2939534797257
30
0
41
1
10
72.7484043314755
20
1.60995550260572
30
0
0
SPLINE
5
C0
100
AcDbEntity
8
1
62
256
6
ByLayer
370
13
48
1
60
0
100
AcDbSpline
70
4
71
3
72
8
73
4
40
0
40
0
40
0
40
0
40
1
40
1
40
1
40
1
41
1
10
2.37165314625921
20
-5.64452174093273
30
0
41
1
10
2.3726052202382
20
-5.58778045849257
30
0
41
1
10
2.37356782050321
20
-5.53103644170443
30
0
41
1
10
2.37454100224241
20
-5.47428956071724
30
0
0
SPLINE
5
C1
100
AcDbEntity
8
1
62
256
6
ByLayer
370
18
48
1
60
0
100
AcDbSpline
70
4
71
3
72
8
73
4
40
0
40
0
40
0
40
0
40
1
40
1
40
1
40
1
41
1
10
72.997208265993
20
-0.157914103891528
30
0
41
1
10
72.9969566780838
20
-0.137410316994391
30
0
41
1
10
72.9965310255883
20
-0.116907849153733
30
0
41
1
10
72.9959255801608
20
-0.0964067437788003
30
0
0
SPLINE
5
C2
100
AcDbEntity
8
1
62
256
6
ByLayer
370
18
48
1
60
0
100
AcDbSpline
70
4
71
3
72
14
73
10
40
0
40
0
40
0
40
0
40
0.25
40
0.25
40
0.5
40
0.5
40
0.75
40
0.75
40
1
40
1
40
1
40
1
41
1
10
2.24447051581731
20
2.90811590062111
30
0
41
1
10
2.24447051581731
20
2.99717317636242
30
0
41
1
10
2.25100693517675
20
3.08625500652258
30
0
41
1
10
2.26486838142472
20
3.27002202525409
30
0
41
1
10
2.27144544049878
20
3.3650799934365
30
0
41
1
10
2.27104130342647
20
3.56508404831152
30
0
41
1
10
2.26426230070001
20
3.66979531091871
30
0
41
1
10
2.25073517436255
20
3.88263532511689
30
0
41
1
10
2.24447051581649
20
3.99092614596253
30
0
41
1
10
2.24447051581731
20
4.09969710816983
30
0
0
SPLINE
5
C3
100
AcDbEntity
8
1
62
256
6
ByLayer
370
18
48
1
60
0
100
AcDbSpline
70
4
71
3
72
46
73
42
40
0
40
0
40
0
40
0
40
0.124999999999996
40
0.124999999999996
40
0.187499999999997
40
0.187499999999997
40
0.249999999999998
40
0.249999999999998
40
0.312499999999999
40
0.312499999999999
40
0.343749999999997
40
0.343749999999997
40
0.374999999999996
40
0.374999999999996
40
0.406249999999994
40
0.406249999999994
40
0.421874999999992
40
0.421874999999992
40
0.437499999999991
40
0.437499999999991
40
0.45312499999999
40
0.45312499999999
40
0.468749999999988
40
0.468749999999988
40
0.499999999999989
40
0.499999999999989
40
0.53124999999999
40
0.53124999999999
40
0.562499999999991
40
0.562499999999991
40
0.624999999999993
40
0.624999999999993
40
0.687499999999995
40
0.687499999999995
40
0.749999999999997
40
0.749999999999997
40
0.875000000000002
40
0.875000000000002
40
0.937500000000001
40
0.937500000000001
40
1
40
1
40
1
40
1
41
1
10
70.9251634844817
20
-2.95649817671645
30
0
41
1
10
70.7297963335968
20
-2.87859553973564
30
0
41
1
10
70.5341282120908
20
-2.7854263136422
30
0
41
1
10
70.2482636948704
20
-2.62199312630128
30
0
41
1
10
70.1540879819506
20
-2.56347986586883
30
0
41
1
10
69.9684775182222
20
-2.43651029667319
30
0
41
1
10
69.8770646932666
20
-2.36806849406378
30
0
41
1
10
69.7012572705135
20
-2.22008915821664
30
0
41
1
10
69.6163893007962
20
-2.14056247437145
30
0
41
1
10
69.4970180072148
20
-2.00680738499665
30
0
41
1
10
69.4585724140281
20
-1.95966354380181
30
0
41
1
10
69.3881393965688
20
-1.86107240436721
30
0
41
1
10
69.3557944116051
20
-1.80943024603547
30
0
41
1
10
69.3009767893018
20
-1.69807831774159
30
0
41
1
10
69.2787408056535
20
-1.63817847048716
30
0
41
1
10
69.2630859724413
20
-1.54780112214365
30
0
41
1
10
69.2608807461621
20
-1.51811312388094
30
0
41
1
10
69.2636080237517
20
-1.45977421145406
30
0
41
1
10
69.2686634431952
20
-1.43160991261044
30
0
41
1
10
69.2853679452256
20
-1.38020723823155
30
0
41
1
10
69.2972354806612
20
-1.35630902760641
30
0
41
1
10
69.3253737038181
20
-1.31433266017839
30
0
41
1
10
69.3416955828839
20
-1.29588282521689
30
0
41
1
10
69.3958979870171
20
-1.24643394740335
30
0
41
1
10
69.4369364721478
20
-1.22274300751877
30
0
41
1
10
69.5241593373587
20
-1.18557267150109
30
0
41
1
10
69.5705229669038
20
-1.17233658259818
30
0
41
1
10
69.6646174803623
20
-1.15329050937805
30
0
41
1
10
69.7123575438999
20
-1.14745296274268
30
0
41
1
10
69.8569965644641
20
-1.13748800207131
30
0
41
1
10
69.9552901016952
20
-1.14077926709612
30
0
41
1
10
70.1541567390506
20
-1.15948827466914
30
0
41
1
10
70.2539843883484
20
-1.17501722594128
30
0
41
1
10
70.4524305301128
20
-1.21445735052001
30
0
41
1
10
70.5513872165743
20
-1.2384603072089
30
0
41
1
10
70.8476180362451
20
-1.32074679103627
30
0
41
1
10
71.0442673473176
20
-1.38907612799946
30
0
41
1
10
71.3381545603559
20
-1.50904281734387
30
0
41
1
10
71.4359313716203
20
-1.55201565544806
30
0
41
1
10
71.6310892936702
20
-1.64432335298395
30
0
41
1
10
71.7285419013832
20
-1.6937061998899
30
0
41
1
10
71.8248119145079
20
-1.74627289500836
30
0
0
SPLINE
5
C4
100
AcDbEntity
8
1
62
256
6
ByLayer
370
18
48
1
60
0
100
AcDbSpline
70
4
71
3
72
10
73
6
40
0
40
0
40
0
40
0
40
0.5
40
0.5
40
1
40
1
40
1
40
1
41
1
10
72.9959255801596
20
0.0964067437807898
30
0
41
1
10
72.9956853843283
20
0.0882734260221412
30
0
41
1
10
72.9959487799177
20
0.0792674678771164
30
0
41
1
10
72.9973107255145
20
0.06009515845588
30
0
41
1
10
72.9983952537476
20
0.0500749220032333
30
0
41
1
10
72.9998233709126
20
0.0396901543851413
30
0
0
SPLINE
5
C5
100
AcDbEntity
8
1
62
256
6
ByLayer
370
18
48
1
60
0
100
AcDbSpline
70
4
71
3
72
44
73
40
40
0
40
0
40
0
40
0
40
0.0553525954891886
40
0.0553525954891886
40
0.110705190978377
40
0.110705190978377
40
0.166057786467566
40
0.166057786467566
40
0.221410381956755
40
0.221410381956755
40
0.276762977445943
40
0.276762977445943
40
0.332115572935132
40
0.332115572935132
40
0.38746816842432
40
0.38746816842432
40
0.442820763913509
40
0.442820763913509
40
0.498173359402698
40
0.498173359402698
40
0.553525954891886
40
0.553525954891886
40
0.608878550381075
40
0.608878550381075
40
0.664231145870264
40
0.664231145870264
40
0.719583741359452
40
0.719583741359452
40
0.774936336848641
40
0.774936336848641
40
0.83028893233783
40
0.83028893233783
40
0.885641527827018
40
0.885641527827018
40
0.940994123316207
40
0.940994123316207
40
0.996346718805395
40
0.996346718805395
40
1
40
1
40
1
40
1
41
1
10
13.6166636340224
20
-4.25659920497242
30
0
41
1
10
13.8882307846686
20
-4.35057204982138
30
0
41
1
10
14.1591259279127
20
-4.43955443850388
30
0
41
1
10
14.699686577332
20
-4.60858270531784
30
0
41
1
10
14.96930059404
20
-4.68862518931121
30
0
41
1
10
15.507315894663
20
-4.83881167930863
30
0
41
1
10
15.7756215150699
20
-4.90887876163268
30
0
41
1
10
16.3119659447177
20
-5.03880886843987
30
0
41
1
10
16.5801022191032
20
-5.09891560259777
30
0
41
1
10
17.1161161428196
20
-5.20896379877359
30
0
41
1
10
17.3839278586991
20
-5.25833190925619
30
0
41
1
10
17.919407515895
20
-5.34662736832669
30
0
41
1
10
18.1869740575141
20
-5.38560867668505
30
0
41
1
10
18.7231169209714
20
-5.45343470644983
30
0
41
1
10
18.991599631661
20
-5.48262638214899
30
0
41
1
10
19.5292762392429
20
-5.52814490132349
30
0
41
1
10
19.7984985314207
20
-5.54490852582438
30
0
41
1
10
20.3378428946953
20
-5.5679503407051
30
0
41
1
10
20.6079454362661
20
-5.5741344159137
30
0
41
1
10
21.1501680047705
20
-5.57611887635565
30
0
41
1
10
21.4220828767771
20
-5.57124038311699
30
0
41
1
10
21.9642176741384
20
-5.54904701137591
30
0
41
1
10
22.2349170742127
20
-5.5321427693091
30
0
41
1
10
22.7758313001375
20
-5.48769840918916
30
0
41
1
10
23.0462234144919
20
-5.46055262163182
30
0
41
1
10
23.587534087567
20
-5.39481556345891
30
0
41
1
10
23.8583019948818
20
-5.3556576769914
30
0
41
1
10
24.4002150439899
20
-5.26668599058303
30
0
41
1
10
24.6715839748388
20
-5.21672420858366
30
0
41
1
10
25.2137967148581
20
-5.10717631113124
30
0
41
1
10
25.4843835743718
20
-5.04794534118639
30
0
41
1
10
26.0240769952818
20
-4.91770802396917
30
0
41
1
10
26.2932959682836
20
-4.84734890477523
30
0
41
1
10
26.8308137354125
20
-4.69785257820371
30
0
41
1
10
27.0990284319644
20
-4.61867313262016
30
0
41
1
10
27.635072874694
20
-4.45220946887019
30
0
41
1
10
27.9029701228189
20
-4.36419837514754
30
0
41
1
10
28.1884675262406
20
-4.26547128090277
30
0
41
1
10
28.2061435935506
20
-4.25934042227183
30
0
41
1
10
28.2238194972009
20
-4.25319139175048
30
0
0
SPLINE
5
C6
100
AcDbEntity
8
1
62
256
6
ByLayer
370
18
48
1
60
0
100
AcDbSpline
70
4
71
3
72
30
73
26
40
0
40
0
40
0
40
0
40
0.0438472782353476
40
0.0438472782353476
40
0.112143901218538
40
0.112143901218538
40
0.180440524201728
40
0.180440524201728
40
0.248737147184918
40
0.248737147184918
40
0.317033770168108
40
0.317033770168108
40
0.453627016134485
40
0.453627016134485
40
0.521923639117674
40
0.521923639117674
40
0.590220262100863
40
0.590220262100863
40
0.658516885084051
40
0.658516885084051
40
0.72681350806724
40
0.72681350806724
40
0.86340675403362
40
0.86340675403362
40
1
40
1
40
1
40
1
41
1
10
53.5073834643719
20
5.59340854741416
30
0
41
1
10
53.6806981397624
20
5.5938037728518
30
0
41
1
10
53.8542809730903
20
5.59183386564223
30
0
41
1
10
54.2989395084423
20
5.58089842430329
30
0
41
1
10
54.5703186380194
20
5.56911526340332
30
0
41
1
10
55.1117489925952
20
5.53387444920702
30
0
41
1
10
55.3823168090565
20
5.51007095731552
30
0
41
1
10
55.923342424158
20
5.45181671126289
30
0
41
1
10
56.1937959597146
20
5.41749065777901
30
0
41
1
10
56.7346249202907
20
5.33924734003622
30
0
41
1
10
57.0048154444063
20
5.29457395177613
30
0
41
1
10
57.8166971093426
20
5.14227094003331
30
0
41
1
10
58.3602469861874
20
5.01801366387585
30
0
41
1
10
59.1718092798879
20
4.80206020549977
30
0
41
1
10
59.4419320265627
20
4.72504445039954
30
0
41
1
10
59.9827609254558
20
4.56270545628826
30
0
41
1
10
60.2533358728838
20
4.47734188041784
30
0
41
1
10
60.7946721187114
20
4.29799725733704
30
0
41
1
10
61.0654187432277
20
4.20387207117562
30
0
41
1
10
61.607194431968
20
4.00565935524219
30
0
41
1
10
61.8784548844542
20
3.90168748894442
30
0
41
1
10
62.6912427247762
20
3.57984113046607
30
0
41
1
10
63.2322290934334
20
3.35102117386313
30
0
41
1
10
64.3130198130508
20
2.86509978311025
30
0
41
1
10
64.8547899310909
20
2.61098300466341
30
0
41
1
10
65.3973219048617
20
2.34620218102162
30
0
0
SPLINE
5
C7
100
AcDbEntity
8
1
62
256
6
ByLayer
370
18
48
1
60
0
100
AcDbSpline
70
4
71
3
72
10
73
6
40
0
40
0
40
0
40
0
40
0.5
40
0.5
40
1
40
1
40
1
40
1
41
1
10
72.9998233709138
20
0.0396901543850845
30
0
41
1
10
72.9973251464496
20
0.0225479308751062
30
0
41
1
10
72.9930256096484
20
0.0036715169352703
30
0
41
1
10
72.9804629565178
20
-0.0335955267766224
30
0
41
1
10
72.9722419882062
20
-0.0514183854957651
30
0
41
1
10
72.9637064388053
20
-0.0650105460035775
30
0
0
SPLINE
5
C8
100
AcDbEntity
8
1
62
256
6
ByLayer
370
18
48
1
60
0
100
AcDbSpline
70
4
71
3
72
44
73
40
40
0
40
0
40
0
40
0
40
0.0323112215313335
40
0.0323112215313335
40
0.064622443062667
40
0.064622443062667
40
0.129244886125333
40
0.129244886125333
40
0.258489772250665
40
0.258489772250665
40
0.290800993781998
40
0.290800993781998
40
0.323112215313332
40
0.323112215313332
40
0.355423436844665
40
0.355423436844665
40
0.387734658375998
40
0.387734658375998
40
0.516979544501331
40
0.516979544501331
40
0.581601987563997
40
0.581601987563997
40
0.613913209095331
40
0.613913209095331
40
0.646224430626664
40
0.646224430626664
40
0.775469316751997
40
0.775469316751997
40
0.807780538283331
40
0.807780538283331
40
0.840091759814664
40
0.840091759814664
40
0.904714202877332
40
0.904714202877332
40
0.937025424408666
40
0.937025424408666
40
0.96933664594
40
0.96933664594
40
1
40
1
40
1
40
1
41
1
10
71.0006408661345
20
-5.89244106333931
30
0
41
1
10
70.6417067225036
20
-5.90243750126479
30
0
41
1
10
70.2828735468222
20
-5.90185140465854
30
0
41
1
10
69.5645909814535
20
-5.87957930661236
30
0
41
1
10
69.2046946803615
20
-5.8578193463425
30
0
41
1
10
68.1305242756178
20
-5.76175644738603
30
0
41
1
10
67.4194562057069
20
-5.65674412267998
30
0
41
1
10
65.2908646415715
20
-5.22679002380332
30
0
41
1
10
63.8775048613717
20
-4.78708661319246
30
0
41
1
10
62.0818813803023
20
-4.07485843128941
30
0
41
1
10
61.7223526769293
20
-3.92470695312531
30
0
41
1
10
61.0051027015627
20
-3.61169436204872
30
0
41
1
10
60.6468606723217
20
-3.44860278354557
30
0
41
1
10
59.9301907415447
20
-3.11061898140329
30
0
41
1
10
59.5717358742127
20
-2.93576665532919
30
0
41
1
10
58.8536436582772
20
-2.57572544114319
30
0
41
1
10
58.4936652860162
20
-2.39034429248059
30
0
41
1
10
56.7035709741695
20
-1.44894216357426
30
0
41
1
10
55.2913987406105
20
-0.643880881760197
30
0
41
1
10
53.1595173254655
20
0.56381619708489
30
0
41
1
10
52.446529349393
20
0.966227890931066
30
0
41
1
10
51.3684296047711
20
1.56053069355084
30
0
41
1
10
51.009600653766
20
1.75574282491385
30
0
41
1
10
50.2950116331608
20
2.13747194577633
30
0
41
1
10
49.9388473340538
20
2.3243369422959
30
0
41
1
10
48.1613806902096
20
3.23514510638219
30
0
41
1
10
46.7493208932315
20
3.88721983548348
30
0
41
1
10
44.961664177527
20
4.55439481166414
30
0
41
1
10
44.6023300803159
20
4.68058064762781
30
0
41
1
10
43.8833961286434
20
4.91566373447438
30
0
41
1
10
43.5245846912465
20
5.02435066138406
30
0
41
1
10
42.4488679448467
20
5.32285591323836
30
0
41
1
10
41.7325251928611
20
5.48497311516343
30
0
41
1
10
40.6536912004255
20
5.66844903618735
30
0
41
1
10
40.2943381570377
20
5.71947256210393
30
0
41
1
10
39.5767746564909
20
5.80074028913782
30
0
41
1
10
39.218325514906
20
5.831035614667
30
0
41
1
10
38.5194651386505
20
5.86973224953752
30
0
41
1
10
38.179054469369
20
5.87917018339547
30
0
41
1
10
37.8381415386741
20
5.87911897965549
30
0
0
SPLINE
5
C9
100
AcDbEntity
8
1
62
256
6
ByLayer
370
18
48
1
60
0
100
AcDbSpline
70
4
71
3
72
10
73
6
40
0
40
0
40
0
40
0
40
0.287241177367063
40
0.287241177367063
40
1
40
1
40
1
40
1
41
1
10
8.37883961259521
20
-5.58514533408658
30
0
41
1
10
7.80080970085137
20
-5.68356388128385
30
0
41
1
10
7.22585071621432
20
-5.75556308034419
30
0
41
1
10
5.22790824785636
20
-5.91341240200833
30
0
41
1
10
3.81049706670876
20
-5.86197285304388
30
0
41
1
10
2.37165314625921
20
-5.6445217409329
30
0
0
SPLINE
5
CA
100
AcDbEntity
8
1
62
256
6
ByLayer
370
13
48
1
60
0
100
AcDbSpline
70
4
71
3
72
8
73
4
40
0
40
0
40
0
40
0
40
1
40
1
40
1
40
1
41
1
10
2.37454100224247
20
-5.47428956071724
30
0
41
1
10
2.39715388457614
20
-5.46570585685706
30
0
41
1
10
2.42173910553274
20
-5.46334023950237
30
0
41
1
10
2.4468136159571
20
-5.46691612380857
30
0
0
SPLINE
5
CB
100
AcDbEntity
8
1
62
256
6
ByLayer
370
18
48
1
60
0
100
AcDbSpline
70
4
71
3
72
8
73
4
40
0
40
0
40
0
40
0
40
1
40
1
40
1
40
1
41
1
10
72.7484043314755
20
1.60995550260569
30
0
41
1
10
72.7290017196364
20
1.51311916265038
30
0
41
1
10
72.7074498678546
20
1.41696750944848
30
0
41
1
10
72.6839717480833
20
1.321456038734
30
0
0
SPLINE
5
CC
100
AcDbEntity
8
1
62
256
6
ByLayer
370
18
48
1
60
0
100
AcDbSpline
70
4
71
3
72
34
73
30
40
0
40
0
40
0
40
0
40
0.0624999999999993
40
0.0624999999999993
40
0.0937499999999989
40
0.0937499999999989
40
0.124999999999999
40
0.124999999999999
40
0.187499999999998
40
0.187499999999998
40
0.249999999999997
40
0.249999999999997
40
0.374999999999996
40
0.374999999999996
40
0.406249999999996
40
0.406249999999996
40
0.437499999999995
40
0.437499999999995
40
0.499999999999995
40
0.499999999999995
40
0.624999999999994
40
0.624999999999994
40
0.687499999999995
40
0.687499999999995
40
0.749999999999996
40
0.749999999999996
40
0.874999999999998
40
0.874999999999998
40
1
40
1
40
1
40
1
41
1
10
65.3973219048751
20
2.34620218101509
30
0
41
1
10
65.3717667054856
20
2.18039135741404
30
0
41
1
10
65.3581068464258
20
2.00991333058604
30
0
41
1
10
65.3563640222056
20
1.74684081415117
30
0
41
1
10
65.3589534546745
20
1.65746600832733
30
0
41
1
10
65.3704115160792
20
1.47888875727577
30
0
41
1
10
65.379237100177
20
1.38969678087554
30
0
41
1
10
65.4145908858793
20
1.12239792021231
30
0
41
1
10
65.449971579349
20
0.944567338499354
30
0
41
1
10
65.5428445393776
20
0.589596317930557
30
0
41
1
10
65.6008750890644
20
0.411397916653925
30
0
41
1
10
65.8002254677964
20
-0.10662326294306
30
0
41
1
10
65.9671305302855
20
-0.434734263324515
30
0
41
1
10
66.2085969689969
20
-0.828229461604309
30
0
41
1
10
66.2585750102539
20
-0.906084356903591
30
0
41
1
10
66.360572637222
20
-1.0585550068418
30
0
41
1
10
66.4127265441927
20
-1.13339580911111
30
0
41
1
10
66.5723697038842
20
-1.35407732455536
30
0
41
1
10
66.6830217513821
20
-1.49609965492164
30
0
41
1
10
67.0259940131563
20
-1.90886709184596
30
0
41
1
10
67.2694134748417
20
-2.16621228519895
30
0
41
1
10
67.653151150628
20
-2.52976440243603
30
0
41
1
10
67.7834198248698
20
-2.64653611561889
30
0
41
1
10
68.0463471134503
20
-2.87090108674988
30
0
41
1
10
68.1792973902309
20
-2.97874303158565
30
0
41
1
10
68.5821565306908
20
-3.29056574952582
30
0
41
1
10
68.8560499337312
20
-3.48291280986032
30
0
41
1
10
69.4129013529436
20
-3.84114085854716
30
0
41
1
10
69.6958668056619
20
-4.00700013431592
30
0
41
1
10
69.9829197784347
20
-4.1609250232093
30
0
0
SPLINE
5
CD
100
AcDbEntity
8
1
62
256
6
ByLayer
370
18
48
1
60
0
100
AcDbSpline
70
4
71
3
72
14
73
10
40
0
40
0
40
0
40
0
40
0.25
40
0.25
40
0.5
40
0.5
40
0.75
40
0.75
40
1
40
1
40
1
40
1
41
1
10
2.49577005541414
20
3.91768609746461
30
0
41
1
10
2.46450882080461
20
3.92968284719203
30
0
41
1
10
2.43406758476075
20
3.94536701713014
30
0
41
1
10
2.37500970896181
20
3.98453561933113
30
0
41
1
10
2.34799427692082
20
4.00695874239122
30
0
41
1
10
2.29994820568527
20
4.05795014423191
30
0
41
1
10
2.28028268178838
20
4.08510440430325
30
0
41
1
10
2.2520579873493
20
4.14193700440967
30
0
41
1
10
2.24447051581734
20
4.1699056917428
30
0
41
1
10
2.24447051581731
20
4.19572367464278
30
0
0
SPLINE
5
CE
100
AcDbEntity
8
1
62
256
6
ByLayer
370
18
48
1
60
0
100
AcDbSpline
70
4
71
3
72
16
73
12
40
0
40
0
40
0
40
0
40
0.264094290232862
40
0.264094290232862
40
0.396141435349292
40
0.396141435349292
40
0.528188580465723
40
0.528188580465723
40
0.792282870698585
40
0.792282870698585
40
1
40
1
40
1
40
1
41
1
10
69.9829197784347
20
-4.1609250232093
30
0
41
1
10
70.0740668227457
20
-4.40415137097307
30
0
41
1
10
70.1666528480234
20
-4.61762148437086
30
0
41
1
10
70.3070880986298
20
-4.89490261098831
30
0
41
1
10
70.3541688374657
20
-4.9801223649925
30
0
41
1
10
70.4488710560806
20
-5.13580512348591
30
0
41
1
10
70.4965812340351
20
-5.20629352596117
30
0
41
1
10
70.6376077419532
20
-5.39104162294561
30
0
41
1
10
70.7297934198246
20
-5.48058143061283
30
0
41
1
10
70.8919764452751
20
-5.58068504408951
30
0
41
1
10
70.9627953070884
20
-5.60377628791443
30
0
41
1
10
71.0319911654018
20
-5.60481888370998
30
0
0
SPLINE
5
CF
100
AcDbEntity
8
1
62
256
6
ByLayer
370
18
48
1
60
0
100
AcDbSpline
70
4
71
3
72
8
73
4
40
0
40
0
40
0
40
0
40
1
40
1
40
1
40
1
41
1
10
2.24447051581731
20
2.80084085377041
30
0
41
1
10
2.24447051581731
20
2.83602533590994
30
0
41
1
10
2.24447051581731
20
2.87178389411207
30
0
41
1
10
2.24447051581731
20
2.90811590060849
30
0
0
SPLINE
5
D0
100
AcDbEntity
8
1
62
256
6
ByLayer
370
18
48
1
60
0
100
AcDbSpline
70
4
71
3
72
8
73
4
40
0
40
0
40
0
40
0
40
1
40
1
40
1
40
1
41
1
10
2.65529936814761
20
3.8560325600684
30
0
41
1
10
2.6021536031941
20
3.87671508047521
30
0
41
1
10
2.54897697385931
20
3.89726751539877
30
0
41
1
10
2.49577005541414
20
3.91768609746461
30
0
0
SPLINE
5
D1
100
AcDbEntity
8
1
62
256
6
ByLayer
370
18
48
1
60
0
100
AcDbSpline
70
4
71
3
72
18
73
14
40
0
40
0
40
0
40
0
40
0.034236064389087
40
0.034236064389087
40
0.314859184218202
40
0.314859184218202
40
0.595482304047317
40
0.595482304047317
40
0.735793863961872
40
0.735793863961872
40
0.876105423876427
40
0.876105423876427
40
1
40
1
40
1
40
1
41
1
10
21.5061124339794
20
-0.000826063694717
30
0
41
1
10
21.5932243218207
20
-0.0483794161971218
30
0
41
1
10
21.6802892746351
20
-0.09590844386463
30
0
41
1
10
22.4806275287779
20
-0.532687300340228
30
0
41
1
10
23.1912320281867
20
-0.919494400164268
30
0
41
1
10
24.6137219100064
20
-1.67587105359939
30
0
41
1
10
25.3256744401364
20
-2.04529154555038
30
0
41
1
10
26.3996422524982
20
-2.57718937823151
30
0
41
1
10
26.7586670401672
20
-2.75073189797646
30
0
41
1
10
27.4796808482977
20
-3.08865704798421
30
0
41
1
10
27.8389267953118
20
-3.25177034904811
30
0
41
1
10
28.5131583876571
20
-3.54658287551911
30
0
41
1
10
28.8285114094493
20
-3.67973963954199
30
0
41
1
10
29.1433420186621
20
-3.80745927785722
30
0
0
SPLINE
5
D2
100
AcDbEntity
8
1
62
256
6
ByLayer
370
13
48
1
60
0
100
AcDbSpline
70
4
71
3
72
20
73
16
40
0
40
0
40
0
40
0
40
0.318940128289364
40
0.318940128289364
40
0.421262791389085
40
0.421262791389085
40
0.523585454488806
40
0.523585454488806
40
0.728230780688249
40
0.728230780688249
40
0.83055344378797
40
0.83055344378797
40
0.932876106887691
40
0.932876106887691
40
1
40
1
40
1
40
1
41
1
10
29.1433420189846
20
-3.80745927798807
30
0
41
1
10
30.2547037505914
20
-4.25831352862511
30
0
41
1
10
31.3595556378742
20
-4.64141511914633
30
0
41
1
10
32.8272915373644
20
-5.03777294837869
30
0
41
1
10
33.18442794641
20
-5.12551726988107
30
0
41
1
10
33.9009643375644
20
-5.28294490737932
30
0
41
1
10
34.2607443180131
20
-5.35271504195129
30
0
41
1
10
35.3418398840054
20
-5.53294594186207
30
0
41
1
10
36.0609499270399
20
-5.61381456534346
30
0
41
1
10
37.1423445136911
20
-5.67404027388235
30
0
41
1
10
37.502518312682
20
-5.68387121670796
30
0
41
1
10
38.2231277748556
20
-5.68307110931895
30
0
41
1
10
38.5836023019493
20
-5.6724282999435
30
0
41
1
10
39.1775379653537
20
-5.63810579586246
30
0
41
1
10
39.4123011690777
20
-5.62018822696669
30
0
41
1
10
39.6466702245227
20
-5.59803393706497
30
0
0
SPLINE
5
D3
100
AcDbEntity
8
1
62
256
6
ByLayer
370
18
48
1
60
0
100
AcDbSpline
70
4
71
3
72
10
73
6
40
0
40
0
40
0
40
0
40
0.5
40
0.5
40
1
40
1
40
1
40
1
41
1
10
72.997208265993
20
0.157914103891215
30
0
41
1
10
72.9889631369774
20
0.391487276629675
30
0
41
1
10
72.9623299105266
20
0.625404138543217
30
0
41
1
10
72.877399869332
20
1.10517932874367
30
0
41
1
10
72.8192135666145
20
1.35143606054601
30
0
41
1
10
72.7484043314755
20
1.60995550260572
30
0
0
SPLINE
5
D4
100
AcDbEntity
8
1
62
256
6
ByLayer
370
18
48
1
60
0
100
AcDbSpline
70
4
71
3
72
8
73
4
40
0
40
0
40
0
40
0
40
1
40
1
40
1
40
1
41
1
10
2.24447051581731
20
4.22258023377466
30
0
41
1
10
2.37922850060056
20
4.09778188650486
30
0
41
1
10
2.51621803009357
20
3.97564601557619
30
0
41
1
10
2.65529936814758
20
3.85603256006843
30
0
0
SPLINE
5
D5
100
AcDbEntity
8
1
62
256
6
ByLayer
370
18
48
1
60
0
100
AcDbSpline
70
4
71
3
72
92
73
88
40
0
40
0
40
0
40
0
40
0.016849447331473
40
0.016849447331473
40
0.039048992266982
40
0.039048992266982
40
0.0834480821379998
40
0.0834480821379998
40
0.105647627073509
40
0.105647627073509
40
0.127847172009018
40
0.127847172009018
40
0.150046716944528
40
0.150046716944528
40
0.172246261880037
40
0.172246261880037
40
0.194445806815547
40
0.194445806815547
40
0.216645351751056
40
0.216645351751056
40
0.238844896686565
40
0.238844896686565
40
0.261044441622075
40
0.261044441622075
40
0.305443531493093
40
0.305443531493093
40
0.327643076428603
40
0.327643076428603
40
0.349842621364112
40
0.349842621364112
40
0.372042166299622
40
0.372042166299622
40
0.394241711235131
40
0.394241711235131
40
0.41644125617064
40
0.41644125617064
40
0.43864080110615
40
0.43864080110615
40
0.483039890977168
40
0.483039890977168
40
0.505239435912678
40
0.505239435912678
40
0.527438980848188
40
0.527438980848188
40
0.549638525783698
40
0.549638525783698
40
0.571838070719207
40
0.571838070719207
40
0.594037615654717
40
0.594037615654717
40
0.616237160590227
40
0.616237160590227
40
0.638436705525737
40
0.638436705525737
40
0.660636250461246
40
0.660636250461246
40
0.682835795396756
40
0.682835795396756
40
0.705035340332266
40
0.705035340332266
40
0.727234885267776
40
0.727234885267776
40
0.749434430203285
40
0.749434430203285
40
0.771633975138795
40
0.771633975138795
40
0.793833520074305
40
0.793833520074305
40
0.816033065009815
40
0.816033065009815
40
0.838232609945324
40
0.838232609945324
40
0.860432154880834
40
0.860432154880834
40
0.871531927348589
40
0.871531927348589
40
0.882631699816344
40
0.882631699816344
40
0.927030789687363
40
0.927030789687363
40
0.949230334622872
40
0.949230334622872
40
0.971429879558381
40
0.971429879558381
40
0.99362942449389
40
0.99362942449389
40
1
40
1
40
1
40
1
41
1
10
28.2575508603943
20
4.25660973603956
30
0
41
1
10
28.4873040355485
20
4.34589597833528
30
0
41
1
10
28.7165764570775
20
4.43175186305587
30
0
41
1
10
29.2465776946072
20
4.62320087185665
30
0
41
1
10
29.5465434302838
20
4.72674735135979
30
0
41
1
10
30.4451618388916
20
5.01837305476175
30
0
41
1
10
31.0444617476902
20
5.18595344537448
30
0
41
1
10
31.9407075279065
20
5.40035238134863
30
0
41
1
10
32.2389838131655
20
5.46551760201746
30
0
41
1
10
32.8376130205647
20
5.5812186705688
30
0
41
1
10
33.1375532094906
20
5.63209351525362
30
0
41
1
10
33.738158631564
20
5.72011756912292
30
0
41
1
10
34.0386207820627
20
5.75732857571975
30
0
41
1
10
34.6408317633104
20
5.81729325303385
30
0
41
1
10
34.9438140854162
20
5.83985219128206
30
0
41
1
10
35.5500957518428
20
5.87010760147098
30
0
41
1
10
35.8522616598263
20
5.87778184031342
30
0
41
1
10
36.4541837920115
20
5.87835219372246
30
0
41
1
10
36.7537418528865
20
5.87114831611962
30
0
41
1
10
37.3533442287363
20
5.8422634962387
30
0
41
1
10
37.6530186078299
20
5.82062374374692
30
0
41
1
10
38.2515582716678
20
5.76301050812384
30
0
41
1
10
38.5503161778464
20
5.7269815452913
30
0
41
1
10
39.4455076762001
20
5.59698170252332
30
0
41
1
10
40.0447133829858
20
5.48322743567297
30
0
41
1
10
40.944808302786
20
5.27059111052881
30
0
41
1
10
41.2446835739974
20
5.19225771800168
30
0
41
1
10
41.8475086758724
20
5.02332402986877
30
0
41
1
10
42.150668641942
20
4.93242238283457
30
0
41
1
10
42.7567758763672
20
4.73804577019865
30
0
41
1
10
43.0586165206024
20
4.63489435165778
30
0
41
1
10
43.6597035544793
20
4.41643214503188
30
0
41
1
10
43.9598489578008
20
4.30218082832232
30
0
41
1
10
44.5597416742302
20
4.06443669766364
30
0
41
1
10
44.859325779074
20
3.94074577679493
30
0
41
1
10
45.4573683971194
20
3.6831988528366
30
0
41
1
10
45.7553948560943
20
3.54869136087621
30
0
41
1
10
46.6514134426278
20
3.13493326098657
30
0
41
1
10
47.2506979790417
20
2.84492266793501
30
0
41
1
10
48.1494551127083
20
2.38326859131726
30
0
41
1
10
48.4497643545676
20
2.22611251621785
30
0
41
1
10
49.0529684754528
20
1.90724256558315
30
0
41
1
10
49.3560758867372
20
1.74481529905398
30
0
41
1
10
49.9617730450833
20
1.41482280966781
30
0
41
1
10
50.2628330780038
20
1.24703347156023
30
0
41
1
10
50.8643417952978
20
0.911286948083358
30
0
41
1
10
51.1648183764636
20
0.743374607828827
30
0
41
1
10
51.7646695516287
20
0.406452808224429
30
0
41
1
10
52.0640892003476
20
0.237525034718686
30
0
41
1
10
52.6612482872264
20
-0.102462440802014
30
0
41
1
10
52.9595441710183
20
-0.272513793781826
30
0
41
1
10
53.5573414452261
20
-0.609556255596431
30
0
41
1
10
53.8565037827794
20
-0.777159682624927
30
0
41
1
10
54.4549072911963
20
-1.11133008541867
30
0
41
1
10
54.7537476307986
20
-1.27860845068241
30
0
41
1
10
55.3531016945722
20
-1.60926336237341
30
0
41
1
10
55.6538848290686
20
-1.77216610292871
30
0
41
1
10
56.2571371016155
20
-2.09405696711897
30
0
41
1
10
56.5601324767657
20
-2.25325791582671
30
0
41
1
10
57.165026406595
20
-2.56741499250606
30
0
41
1
10
57.4661190739591
20
-2.72135112712667
30
0
41
1
10
58.0681043290368
20
-3.01905530028691
30
0
41
1
10
58.368602230305
20
-3.16351778108097
30
0
41
1
10
58.9681390568458
20
-3.44453624583829
30
0
41
1
10
59.2668473186354
20
-3.58154933218995
30
0
41
1
10
59.8639301231142
20
-3.84589537387825
30
0
41
1
10
60.1628010172647
20
-3.97257431979369
30
0
41
1
10
60.7607232453644
20
-4.21579874101008
30
0
41
1
10
61.05977315064
20
-4.33234695056748
30
0
41
1
10
61.6575234718609
20
-4.55579538589205
30
0
41
1
10
61.9561840341813
20
-4.66267827026704
30
0
41
1
10
62.5561390492567
20
-4.86327033020856
30
0
41
1
10
62.8570230178203
20
-4.95748787503655
30
0
41
1
10
63.3093207010446
20
-5.09001467325464
30
0
41
1
10
63.4602624676121
20
-5.13270692354041
30
0
41
1
10
63.7624015939732
20
-5.21516251575105
30
0
41
1
10
63.9137191914061
20
-5.25503172441435
30
0
41
1
10
64.6691082536946
20
-5.44527905521954
30
0
41
1
10
65.2711161095051
20
-5.56765301084786
30
0
41
1
10
66.1681032847421
20
-5.7102867286211
30
0
41
1
10
66.4658604243315
20
-5.75094800656055
30
0
41
1
10
67.0621887036705
20
-5.8172598635559
30
0
41
1
10
67.360405517265
20
-5.84313612137129
30
0
41
1
10
67.9563822977584
20
-5.88063669792788
30
0
41
1
10
68.2540657182963
20
-5.89225870704041
30
0
41
1
10
68.6368613890781
20
-5.89781280241272
30
0
41
1
10
68.7222722267774
20
-5.89844641867623
30
0
41
1
10
68.8077386497839
20
-5.89847789254804
30
0
0
SPLINE
5
D6
100
AcDbEntity
8
1
62
256
6
ByLayer
370
18
48
1
60
0
100
AcDbSpline
70
4
71
3
72
43
73
39
40
0
40
0
40
0
40
0
40
0.124999999999997
40
0.124999999999997
40
0.187499999999997
40
0.187499999999997
40
0.249999999999998
40
0.249999999999998
40
0.374999999999999
40
0.374999999999999
40
0.499999999999999
40
0.499999999999999
40
0.5625
40
0.5625
40
0.625
40
0.625
40
0.750000000000001
40
0.750000000000001
40
0.812500000000002
40
0.812500000000002
40
0.843750000000004
40
0.843750000000004
40
0.859375000000003
40
0.859375000000003
40
0.867187500000002
40
0.867187500000002
40
0.875000000000002
40
0.875000000000002
40
0.878906250000002
40
0.878906250000002
40
0.882812500000002
40
0.882812500000002
40
0.890625000000002
40
0.906250000000001
40
0.906250000000001
40
0.937500000000001
40
0.937500000000001
40
1
40
1
40
1
40
1
41
1
10
65.3973219048751
20
2.34620218101509
30
0
41
1
10
65.6237622930365
20
2.12443382965833
30
0
41
1
10
65.8578681471635
20
1.91635320610518
30
0
41
1
10
66.2205374357656
20
1.624785840909
30
0
41
1
10
66.3434039745265
20
1.53112652029822
30
0
41
1
10
66.5932082467728
20
1.35107754871871
30
0
41
1
10
66.7205957475203
20
1.2643854524913
30
0
41
1
10
67.104818656396
20
1.01813641797312
30
0
41
1
10
67.3637414745589
20
0.872053609208479
30
0
41
1
10
67.8871676157987
20
0.616263530759255
30
0
41
1
10
68.151643034964
20
0.506374374339487
30
0
41
1
10
68.5530988603128
20
0.372455072760346
30
0
41
1
10
68.6877402889661
20
0.333178714243815
30
0
41
1
10
68.9587512291926
20
0.265890201572347
30
0
41
1
10
69.0954691106462
20
0.23788180322083
30
0
41
1
10
69.5022428777235
20
0.173493054235621
30
0
41
1
10
69.770700627782
20
0.155923634469104
30
0
41
1
10
70.1684276764377
20
0.175722929908318
30
0
41
1
10
70.2993422691875
20
0.190049421002925
30
0
41
1
10
70.4922980953448
20
0.224401060572262
30
0
41
1
10
70.5559968628465
20
0.237992441851134
30
0
41
1
10
70.650499015031
20
0.261777504948782
30
0
41
1
10
70.6818138881401
20
0.270269969545296
30
0
41
1
10
70.7284841563756
20
0.283880637126941
30
0
41
1
10
70.744415954508
20
0.287560711753883
30
0
41
1
10
70.7738561609282
20
0.300410875518196
30
0
41
1
10
70.7873553243726
20
0.3104754854063
30
0
41
1
10
70.8013880722824
20
0.33267779652644
30
0
41
1
10
70.8046974630615
20
0.341153842510607
30
0
41
1
10
70.8086930684965
20
0.359727572358821
30
0
41
1
10
70.809751253013
20
0.36956737238711
30
0
41
1
10
70.8135524395957
20
0.398619992200082
30
0
41
1
10
70.8207582500194
20
0.456884037499179
30
0
41
1
10
70.8268054605383
20
0.515614269591254
30
0
41
1
10
70.8374224990495
20
0.633492566715745
30
0
41
1
10
70.8425405935457
20
0.712692075652939
30
0
41
1
10
70.8526226118211
20
0.951942217766856
30
0
41
1
10
70.8522967036756
20
1.11373378225056
30
0
41
1
10
70.8463179595809
20
1.2753470789896
30
0
0
SPLINE
5
D7
100
AcDbEntity
8
1
62
256
6
ByLayer
370
18
48
1
60
0
100
AcDbSpline
70
4
71
3
72
8
73
4
40
0
40
0
40
0
40
0
40
1
40
1
40
1
40
1
41
1
10
72.997208265993
20
0.157914103891159
30
0
41
1
10
72.9969565940328
20
0.137403467049694
30
0
41
1
10
72.9965308212625
20
0.116900930435662
30
0
41
1
10
72.9959255801608
20
0.0964067437787719
30
0
0
SPLINE
5
D8
100
AcDbEntity
8
1
62
256
6
ByLayer
370
18
48
1
60
0
100
AcDbSpline
70
4
71
3
72
18
73
14
40
0
40
0
40
0
40
0
40
0.0245521716188843
40
0.0245521716188843
40
0.203763285264696
40
0.203763285264696
40
0.562185512556322
40
0.562185512556322
40
0.741396626202134
40
0.741396626202134
40
0.920607739847946
40
0.920607739847946
40
1
40
1
40
1
40
1
41
1
10
38.0379493860505
20
-5.5842799123109
30
0
41
1
10
37.9886226024445
20
-5.5842476742929
30
0
41
1
10
37.9392946858726
20
-5.58402727465204
30
0
41
1
10
37.529945629475
20
-5.5806343660619
30
0
41
1
10
37.1700227696297
20
-5.56761170225033
30
0
41
1
10
36.0895422573486
20
-5.49845038053473
30
0
41
1
10
35.37094232127
20
-5.41249667871418
30
0
41
1
10
34.2906644223634
20
-5.22604247593927
30
0
41
1
10
33.9312363358379
20
-5.15445381799236
30
0
41
1
10
33.2152095025381
20
-4.99387422674181
30
0
41
1
10
32.8582921631027
20
-4.90480032395169
30
0
41
1
10
32.3441407164269
20
-4.76428716643738
30
0
41
1
10
32.1864172461548
20
-4.71952016300293
30
0
41
1
10
32.0287810918542
20
-4.67316821062357
30
0
0
SPLINE
5
D9
100
AcDbEntity
8
1
62
256
6
ByLayer
370
13
48
1
60
0
100
AcDbSpline
70
4
71
3
72
24
73
20
40
0
40
0
40
0
40
0
40
0.267926202821401
40
0.267926202821401
40
0.343250052366819
40
0.343250052366819
40
0.418573901912238
40
0.418573901912238
40
0.569221601003075
40
0.569221601003075
40
0.719869300093911
40
0.719869300093911
40
0.79519314963933
40
0.79519314963933
40
0.832855074412039
40
0.832855074412039
40
0.870516999184748
40
0.870516999184748
40
1
40
1
40
1
40
1
41
1
10
32.0287810915999
20
-4.67316821054885
30
0
41
1
10
30.7630971032436
20
-4.30100153204765
30
0
41
1
10
29.5030421323939
20
-3.82665760900756
30
0
41
1
10
27.8722476092439
20
-3.117205825214
30
0
41
1
10
27.51313990958
20
-2.95522030320743
30
0
41
1
10
26.7927640403077
20
-2.62021167683778
30
0
41
1
10
26.4340174110189
20
-2.44833579245832
30
0
41
1
10
25.3607849739631
20
-1.92205168621769
30
0
41
1
10
24.649156039438
20
-1.55726307735904
30
0
41
1
10
23.2272960091268
20
-0.811599831714489
30
0
41
1
10
22.5169430496848
20
-0.430975371128596
30
0
41
1
10
21.447474582838
20
0.142660431666854
30
0
41
1
10
21.0903057457619
20
0.334273431715985
30
0
41
1
10
20.5529211728398
20
0.621139021585179
30
0
41
1
10
20.3735223373316
20
0.716672159620316
30
0
41
1
10
20.0140681195146
20
0.907341429143685
30
0
41
1
10
19.8337722099043
20
1.00260308431214
30
0
41
1
10
19.0352855784623
20
1.42222018648138
30
0
41
1
10
18.4207458692492
20
1.73921782818078
30
0
41
1
10
17.8081075869566
20
2.04461611928508
30
0
0
SPLINE
5
DA
100
AcDbEntity
8
1
62
256
6
ByLayer
370
18
48
1
60
0
100
AcDbSpline
70
4
71
3
72
10
73
6
40
0
40
0
40
0
40
0
40
0.5
40
0.5
40
1
40
1
40
1
40
1
41
1
10
72.7484043314754
20
-1.60995550260603
30
0
41
1
10
72.8201085395693
20
-1.34816857843742
30
0
41
1
10
72.8783457246162
20
-1.10078980875096
30
0
41
1
10
72.9628644134526
20
-0.621414211250709
30
0
41
1
10
72.98903535288
20
-0.389441499363698
30
0
41
1
10
72.997208265993
20
-0.1579141038915
30
0
0
SPLINE
5
DB
100
AcDbEntity
8
1
62
256
6
ByLayer
370
13
48
1
60
0
100
AcDbSpline
70
4
71
3
72
8
73
4
40
0
40
0
40
0
40
0
40
1
40
1
40
1
40
1
41
1
10
2.37454100224244
20
-5.36671155218909
30
0
41
1
10
2.41181313830498
20
-5.3504903232388
30
0
41
1
10
2.45280711292566
20
-5.34420878946162
30
0
41
1
10
2.49478557091555
20
-5.3479628408079
30
0
0
SPLINE
5
DC
100
AcDbEntity
8
1
62
256
6
ByLayer
370
18
48
1
60
0
100
AcDbSpline
70
4
71
3
72
8
73
4
40
0
40
0
40
0
40
0
40
1
40
1
40
1
40
1
41
1
10
71.0006408661345
20
5.89244106333931
30
0
41
1
10
70.8260888198396
20
5.89730239717036
30
0
41
1
10
70.6515460966414
20
5.89966142891046
30
0
41
1
10
70.4769656330103
20
5.89952065575073
30
0
0
SPLINE
5
DD
100
AcDbEntity
8
1
62
256
6
ByLayer
370
18
48
1
60
0
100
AcDbSpline
70
4
71
3
72
54
73
50
40
0
40
0
40
0
40
0
40
0.0037024525065732
40
0.0037024525065732
40
0.063391521332585
40
0.063391521332585
40
0.0932360557455906
40
0.0932360557455906
40
0.123080590158596
40
0.123080590158596
40
0.182769658984606
40
0.182769658984606
40
0.212614193397611
40
0.212614193397611
40
0.242458727810616
40
0.242458727810616
40
0.361836865462636
40
0.361836865462636
40
0.391681399875641
40
0.391681399875641
40
0.406603667082144
40
0.406603667082144
40
0.421525934288646
40
0.421525934288646
40
0.481215003114657
40
0.481215003114657
40
0.540904071940667
40
0.540904071940667
40
0.570748606353673
40
0.570748606353673
40
0.600593140766678
40
0.600593140766678
40
0.660282209592688
40
0.660282209592688
40
0.690126744005694
40
0.690126744005694
40
0.7199712784187
40
0.7199712784187
40
0.839349416070722
40
0.839349416070722
40
0.869193950483728
40
0.869193950483728
40
0.884116217690231
40
0.884116217690231
40
0.899038484896734
40
0.899038484896734
40
0.958727553722745
40
0.958727553722745
40
1
40
1
40
1
40
1
41
1
10
41.1241468552813
20
-5.58812029255049
30
0
41
1
10
41.079525428844
20
-5.59596553836346
30
0
41
1
10
41.0348895220505
20
-5.60365878308772
30
0
41
1
10
40.2704266195266
20
-5.73275460608528
30
0
41
1
10
39.5534911732368
20
-5.81339566920266
30
0
41
1
10
38.4768528973793
20
-5.87160902428468
30
0
41
1
10
38.1177594941315
20
-5.88055543706554
30
0
41
1
10
37.3982516898991
20
-5.87730890524824
30
0
41
1
10
37.0382607331179
20
-5.86508871897195
30
0
41
1
10
35.9608099334974
20
-5.79709719341781
30
0
41
1
10
35.2440182285957
20
-5.7100192784896
30
0
41
1
10
34.1656142381142
20
-5.51872992630001
30
0
41
1
10
33.8050650840802
20
-5.44472402012306
30
0
41
1
10
33.0877861047658
20
-5.27832171391992
30
0
41
1
10
32.7304535882976
20
-5.18581736732531
30
0
41
1
10
30.9476587174923
20
-4.67974983815066
30
0
41
1
10
29.5343397050582
20
-4.13502169403566
30
0
41
1
10
27.7479520227313
20
-3.32169631447587
30
0
41
1
10
27.3896825915552
20
-3.15242217116932
30
0
41
1
10
26.8500806731521
20
-2.88946206230003
30
0
41
1
10
26.6699194694895
20
-2.80033030378917
30
0
41
1
10
26.3107837440019
20
-2.62022524009012
30
0
41
1
10
26.1315591337059
20
-2.52912992407474
30
0
41
1
10
25.2368647726215
20
-2.06894922536182
30
0
41
1
10
24.5255349981399
20
-1.68600199549047
30
0
41
1
10
23.1047271341767
20
-0.902960098275969
30
0
41
1
10
22.3951672794426
20
-0.50300879381129
30
0
41
1
10
21.3268610984618
20
0.100239617534555
30
0
41
1
10
20.970094012572
20
0.301869180859114
30
0
41
1
10
20.2542800532174
20
0.704523360303597
30
0
41
1
10
19.8947549877486
20
0.905823025839425
30
0
41
1
10
18.8146095041223
20
1.50451766208099
30
0
41
1
10
18.0974298729774
20
1.89421668101801
30
0
41
1
10
17.0200480127569
20
2.4545925371651
30
0
41
1
10
16.6607241926429
20
2.63747764314064
30
0
41
1
10
15.9407493296151
20
2.99386234352431
30
0
41
1
10
15.5810573600453
20
3.16681688972756
30
0
41
1
10
13.7908344777681
20
3.99748385196537
30
0
41
1
10
12.3765302368332
20
4.55820288195522
30
0
41
1
10
10.5950658632102
20
5.08702998381031
30
0
41
1
10
10.2380856943125
20
5.18419222666907
30
0
41
1
10
9.70094405699422
20
5.31628001895456
30
0
41
1
10
9.52161578239239
20
5.35803083660468
30
0
41
1
10
9.16227044721199
20
5.43683464749228
30
0
41
1
10
8.98200604125577
20
5.47393218147042
30
0
41
1
10
8.08226188820723
20
5.64666864797312
30
0
41
1
10
7.36796949132935
20
5.74420492604477
30
0
41
1
10
6.1625947576558
20
5.83965593442991
30
0
41
1
10
5.67064975267255
20
5.85904619378036
30
0
41
1
10
5.17834663815461
20
5.85872315984884
30
0
0
SPLINE
5
DE
100
AcDbEntity
8
1
62
256
6
ByLayer
370
18
48
1
60
0
100
AcDbSpline
70
4
71
3
72
10
73
6
40
0
40
0
40
0
40
0
40
0.5
40
0.5
40
1
40
1
40
1
40
1
41
1
10
71.2447821399729
20
5.73780754559761
30
0
41
1
10
71.205987117493
20
5.78000878160648
30
0
41
1
10
71.1661502757764
20
5.8142278030418
30
0
41
1
10
71.0842594748495
20
5.8661064996966
30
0
41
1
10
71.0427697832106
20
5.88342316520951
30
0
41
1
10
71.0006408661345
20
5.89244106333933
30
0
0
SPLINE
5
DF
100
AcDbEntity
8
1
62
256
6
ByLayer
370
18
48
1
60
0
100
AcDbSpline
70
4
71
3
72
8
73
4
40
0
40
0
40
0
40
0
40
1
40
1
40
1
40
1
41
1
10
72.9637064388053
20
-0.0650105460036343
30
0
41
1
10
72.6008527733617
20
-0.642825169278041
30
0
41
1
10
72.2180348906514
20
-1.19994259009121
30
0
41
1
10
71.8248119145078
20
-1.74627289500887
30
0
0
SPLINE
5
E0
100
AcDbEntity
8
1
62
256
6
ByLayer
370
18
48
1
60
0
100
AcDbSpline
70
4
71
3
72
8
73
4
40
0
40
0
40
0
40
0
40
1
40
1
40
1
40
1
41
1
10
72.99592558016
20
-0.0964067437802498
30
0
41
1
10
72.995445117337
20
-0.0801376986846662
30
0
41
1
10
72.9969661071783
20
-0.0604671750896557
30
0
41
1
10
72.9998233709119
20
-0.0396901543904846
30
0
0
LINE
5
76
100
AcDbEntity
8
81
62
256
6
ByLayer
370
18
48
1
60
0
100
AcDbLine
10
73
20
0
30
0
11
78
21
0
31
0
39
0
210
0
220
0
230
1
0
LINE
5
77
100
AcDbEntity
8
1
62
256
6
ByLayer
370
18
48
1
60
0
100
AcDbLine
10
5.179638
20
5.858709
30
0
11
0.066709
21
5.855514
31
0
39
0
210
0
220
0
230
1
0
LINE
5
79
100
AcDbEntity
8
1
62
256
6
ByLayer
370
18
48
1
60
0
100
AcDbLine
10
37.828965
20
5.879115
30
0
11
36.156229
21
5.87807
31
0
39
0
210
0
220
0
230
1
0
LINE
5
7A
100
AcDbEntity
8
1
62
256
6
ByLayer
370
18
48
1
60
0
100
AcDbLine
10
70.480085
20
5.899522
30
0
11
68.803852
21
5.898475
31
0
39
0
210
0
220
0
230
1
0
LINE
5
7B
100
AcDbEntity
8
1
62
256
6
ByLayer
370
18
48
1
60
0
100
AcDbLine
10
68.803852
20
-5.898475
30
0
11
70.480131
21
-5.899522
31
0
39
0
210
0
220
0
230
1
0
LINE
5
7C
100
AcDbEntity
8
1
62
256
6
ByLayer
370
18
48
1
60
0
100
AcDbLine
10
36.156229
20
-5.87807
30
0
11
37.828976
21
-5.879115
31
0
39
0
210
0
220
0
230
1
0
LINE
5
7D
100
AcDbEntity
8
1
62
256
6
ByLayer
370
18
48
1
60
0
100
AcDbLine
10
0.066709
20
-5.855514
30
0
11
5.179633
21
-5.858709
31
0
39
0
210
0
220
0
230
1
0
LINE
5
7E
100
AcDbEntity
8
SK1
62
256
6
ByLayer
370
18
48
1
60
0
100
AcDbLine
10
-43.556624
20
6
30
0
11
-45
21
3.5
31
0
39
0
210
0
220
0
230
1
0
LINE
5
80
100
AcDbEntity
8
SK1
62
256
6
ByLayer
370
18
48
1
60
0
100
AcDbLine
10
-45
20
-3.5
30
0
11
-43.556624
21
-6
31
0
39
0
210
0
220
0
230
1
0
LINE
5
81
100
AcDbEntity
8
SK1
62
256
6
ByLayer
370
18
48
1
60
0
100
AcDbLine
10
0
20
6
30
0
11
-43.556624
21
6
31
0
39
0
210
0
220
0
230
1
0
LINE
5
82
100
AcDbEntity
8
SK1
62
256
6
ByLayer
370
18
48
1
60
0
100
AcDbLine
10
-43.556624
20
-6
30
0
11
0
21
-6
31
0
39
0
210
0
220
0
230
1
0
LINE
5
83
100
AcDbEntity
8
SK4
62
256
6
ByLayer
370
18
48
0.05
60
0
100
AcDbLine
10
78
20
0
30
0
11
-50
21
0
31
0
39
0
210
0
220
0
230
1
0
LINE
5
85
100
AcDbEntity
8
4
62
256
6
ByLayer
370
18
48
0.05
60
0
100
AcDbLine
10
73
20
0
30
0
11
0
21
0
31
0
39
0
210
0
220
0
230
1
0
LINE
5
87
100
AcDbEntity
8
80
62
256
6
ByLayer
370
18
48
1
60
0
100
AcDbLine
10
0
20
0
30
0
11
-5
21
0
31
0
39
0
210
0
220
0
230
1
0
LINE
5
88
100
AcDbEntity
8
SK1
62
256
6
ByLayer
370
13
48
1
60
0
100
AcDbLine
10
-43.7
20
4.998194
30
0
11
-43.7
21
3.318465
31
0
39
0
210
0
220
0
230
1
0
LINE
5
89
100
AcDbEntity
8
SK1
62
256
6
ByLayer
370
18
48
1
60
0
100
AcDbLine
10
0
20
6
30
0
11
0
21
-6
31
0
39
0
210
0
220
0
230
1
0
LINE
5
8A
100
AcDbEntity
8
SK1
62
256
6
ByLayer
370
18
48
1
60
0
100
AcDbLine
10
-43.6
20
3.532424
30
0
11
-43.6
21
5.077667
31
0
39
0
210
0
220
0
230
1
0
LINE
5
8B
100
AcDbEntity
8
SK1
62
256
6
ByLayer
370
18
48
1
60
0
100
AcDbLine
10
-45
20
1.581645
30
0
11
-45
21
-3.5
31
0
39
0
210
0
220
0
230
1
0
LINE
5
8C
100
AcDbEntity
8
SK1
62
256
6
ByLayer
370
18
48
1
60
0
100
AcDbLine
10
-43.556624
20
6
30
0
11
-43.556624
21
-6
31
0
39
0
210
0
220
0
230
1
0
LINE
5
8D
100
AcDbEntity
8
SK1
62
256
6
ByLayer
370
18
48
1
60
0
100
AcDbLine
10
-45
20
3.006262
30
0
11
-45
21
1.581645
31
0
39
0
210
0
220
0
230
1
0
LINE
5
8E
100
AcDbEntity
8
SK1
62
256
6
ByLayer
370
18
48
1
60
0
100
AcDbLine
10
-45
20
3.5
30
0
11
-45
21
3.265454
31
0
39
0
210
0
220
0
230
1
0
LINE
5
8F
100
AcDbEntity
8
1
62
256
6
ByLayer
370
18
48
1
60
0
100
AcDbLine
10
2.244471
20
-5.582429
30
0
11
2.244471
21
2.800841
31
0
39
0
210
0
220
0
230
1
0
LINE
5
90
100
AcDbEntity
8
1
62
256
6
ByLayer
370
13
48
1
60
0
100
AcDbLine
10
0.066709
20
5.855514
30
0
11
0.066709
21
-5.855514
31
0
39
0
210
0
220
0
230
1
0
LINE
5
91
100
AcDbEntity
8
1
62
256
6
ByLayer
370
13
48
1
60
0
100
AcDbLine
10
70.846318
20
1.275347
30
0
11
72.963706
21
-0.065011
31
0
39
0
210
0
220
0
230
1
0
LINE
5
92
100
AcDbEntity
8
1
62
256
6
ByLayer
370
13
48
1
60
0
100
AcDbLine
10
70.982489
20
1.37096
30
0
11
72.995926
21
0.096407
31
0
39
0
210
0
220
0
230
1
0
MTEXT
5
E1
100
AcDbEntity
8
SK6
62
256
6
ByLayer
370
13
48
1
60
0
100
AcDbMText
10
16.129169
20
38.282694
30
0
210
0
220
0
230
1
1
\W0.7324;460.1-1180-059A1-XM GC34
40
3.5
41
0
44
1.084337
50
0
71
8
72
5
7
iso_b_vert
0
DIMENSION
5
EE
100
AcDbEntity
8
SK2
62
256
6
ByLayer
370
13
48
1
60
0
100
AcDbDimension
2
DimnDraft3D1
10
71.2447
20
-16.113398
30
0
11
33.994759
21
-16.113398
31
0
70
32
71
5
72
1
41
1
210
0
220
0
230
1
3
Standard
100
AcDbAlignedDimension
13
0
23
-1.5875
33
0
14
71.2447
24
-7.4875
34
0
50
0
100
AcDbRotatedDimension
1001
ACAD
1000
DSTYLE
1002
{
1070
   279
1070
     0
1070
   172
1070
     1
1070
   173
1070
     1
1070
   340
1005
E2
1070
   271
1070
     2
1070
   272
1070
     2
1070
    77
1070
     1
1070
    73
1070
     0
1070
   171
1070
     3
1070
   274
1070
     4
1070
   177
1070
    35
1070
   176
1070
    35
1070
   178
1070
    35
1070
    48
1040
-0.005
1070
    41
1041
3.5
1070
   147
1041
1.75
1070
    42
1041
1.5875
1070
    44
1041
2.0
1070
   140
1041
3.5
1070
   343
1005
0
1070
   344
1005
0
1002
}
0
DIMENSION
5
F8
100
AcDbEntity
8
SK2
62
256
6
ByLayer
370
13
48
1
60
0
100
AcDbDimension
2
DimnDraft3D2
10
73
20
-34.692985
30
0
11
13.586
21
-34.692985
31
0
70
32
71
5
72
1
41
1
210
0
220
0
230
1
3
Standard
100
AcDbAlignedDimension
13
-45
23
-7.5875
33
0
14
73
24
-1.5875
34
0
50
0
100
AcDbRotatedDimension
1001
ACAD
1000
DSTYLE
1002
{
1070
   279
1070
     0
1070
   172
1070
     1
1070
   173
1070
     1
1070
   340
1005
E2
1070
   271
1070
     2
1070
   272
1070
     2
1070
    77
1070
     1
1070
    73
1070
     0
1070
   171
1070
     3
1070
   274
1070
     4
1070
   177
1070
    35
1070
   176
1070
    35
1070
   178
1070
    35
1070
    48
1040
-0.005
1070
    41
1041
3.5
1070
   147
1041
1.75
1070
    42
1041
1.5875
1070
    44
1041
2.0
1070
   140
1041
3.5
1070
   343
1005
0
1070
   344
1005
0
1002
}
0
DIMENSION
5
102
100
AcDbEntity
8
SK2
62
256
6
ByLayer
370
13
48
1
60
0
100
AcDbDimension
2
DimnDraft3D3
10
73
20
17.509119
30
0
11
44.58
21
17.509119
31
0
70
32
71
5
72
1
41
1
210
0
220
0
230
1
3
Standard
100
AcDbAlignedDimension
13
16.16
23
7.4875
33
0
14
73
24
1.5875
34
0
50
0
100
AcDbRotatedDimension
1001
ACAD
1000
DSTYLE
1002
{
1070
   279
1070
     0
1070
   172
1070
     1
1070
   173
1070
     1
1070
   340
1005
E2
1070
   271
1070
     2
1070
   272
1070
     2
1070
    77
1070
     1
1070
    73
1070
     0
1070
   171
1070
     3
1070
   274
1070
     4
1070
   177
1070
    35
1070
   176
1070
    35
1070
   178
1070
    35
1070
    48
1040
-0.005
1070
    41
1041
3.5
1070
   147
1041
1.75
1070
    42
1041
1.5875
1070
    44
1041
2.0
1070
   140
1041
3.5
1070
   343
1005
0
1070
   344
1005
0
1002
}
0
DIMENSION
5
10C
100
AcDbEntity
8
SK2
62
256
6
ByLayer
370
13
48
1
60
0
100
AcDbDimension
2
DimnDraft3D4
10
71.2447
20
-18.702503
30
0
11
82.981425
21
-18.702503
31
0
70
32
71
5
72
1
41
1
210
0
220
0
230
1
3
Standard
100
AcDbAlignedDimension
13
73
23
-1.5875
33
0
14
71.2447
24
-7.4875
34
0
50
0
100
AcDbRotatedDimension
1001
ACAD
1000
DSTYLE
1002
{
1070
   279
1070
     0
1070
   172
1070
     1
1070
   173
1070
     1
1070
   340
1005
E2
1070
   271
1070
     2
1070
   272
1070
     2
1070
    77
1070
     1
1070
    73
1070
     0
1070
   171
1070
     3
1070
   274
1070
     4
1070
   177
1070
    35
1070
   176
1070
    35
1070
   178
1070
    35
1070
    48
1040
-0.005
1070
    41
1041
3.5
1070
   147
1041
1.75
1070
    42
1041
1.5875
1070
    44
1041
2.0
1070
   140
1041
3.5
1070
   343
1005
0
1070
   344
1005
0
1002
}
0
DIMENSION
5
116
100
AcDbEntity
8
SK2
62
256
6
ByLayer
370
13
48
1
60
0
100
AcDbDimension
2
DimnDraft3D5
10
71.2447
20
-24.343428
30
0
11
10.505376
21
-24.343428
31
0
70
32
71
5
72
1
41
1
210
0
220
0
230
1
3
Standard
100
AcDbAlignedDimension
13
-45
23
-7.5875
33
0
14
71.2447
24
-7.4875
34
0
50
0
100
AcDbRotatedDimension
1001
ACAD
1000
DSTYLE
1002
{
1070
   279
1070
     0
1070
   172
1070
     1
1070
   173
1070
     1
1070
   340
1005
E2
1070
   271
1070
     2
1070
   272
1070
     2
1070
    77
1070
     1
1070
    73
1070
     0
1070
   171
1070
     3
1070
   274
1070
     4
1070
   177
1070
    35
1070
   176
1070
    35
1070
   178
1070
    35
1070
    48
1040
-0.005
1070
    41
1041
3.5
1070
   147
1041
1.75
1070
    42
1041
1.5875
1070
    44
1041
2.0
1070
   140
1041
3.5
1070
   343
1005
0
1070
   344
1005
0
1002
}
0
DIMENSION
5
121
100
AcDbEntity
8
SK2
62
256
6
ByLayer
370
13
48
1
60
0
100
AcDbDimension
2
DimnDraft3D6
10
-55.625163
20
6
30
0
11
-56.250163
21
24.47418
31
0
70
33
71
5
72
1
41
1
210
0
220
0
230
1
3
Standard
100
AcDbAlignedDimension
13
-46.5875
23
-6
33
0
14
-46.5875
24
6
34
0
1001
ACAD
1000
DSTYLE
1002
{
1070
   279
1070
     0
1070
    74
1070
     0
1070
   173
1070
     1
1070
   340
1005
E2
1070
   271
1070
     3
1070
   272
1070
     2
1070
    77
1070
     1
1070
    73
1070
     0
1070
   171
1070
     3
1070
   274
1070
     4
1070
   177
1070
    35
1070
   176
1070
    35
1070
   178
1070
    35
1070
    48
1040
-0.005
1070
    41
1041
3.5
1070
   147
1041
1.75
1070
    42
1041
1.5875
1070
    44
1041
2.0
1070
   140
1041
3.5
1070
   343
1005
0
1070
   344
1005
0
1002
}
0
DIMENSION
5
12C
100
AcDbEntity
8
2
62
256
6
ByLayer
370
13
48
1
60
0
100
AcDbDimension
2
DimnDraft3D7
10
87.083343
20
5.9
30
0
11
82.458343
21
22.967266
31
0
70
33
71
5
72
1
41
1
210
0
220
0
230
1
3
Standard
100
AcDbAlignedDimension
13
72.8322
23
-5.9
33
0
14
72.8322
24
5.9
34
0
1001
ACAD
1000
DSTYLE
1002
{
1070
   279
1070
     0
1070
    74
1070
     0
1070
   173
1070
     1
1070
   340
1005
E2
1070
   271
1070
     3
1070
   272
1070
     2
1070
    77
1070
     1
1070
    73
1070
     0
1070
   171
1070
     3
1070
   274
1070
     4
1070
   177
1070
    35
1070
   176
1070
    35
1070
   178
1070
    35
1070
    48
1040
-0.005
1070
    41
1041
3.5
1070
   147
1041
1.75
1070
    42
1041
1.5875
1070
    44
1041
2.0
1070
   140
1041
3.5
1070
   343
1005
0
1070
   344
1005
0
1002
}
0
ENDSEC
0
SECTION
2
OBJECTS
0
DICTIONARY
5
197
330
0
100
AcDbDictionary
280
0
281
1
3
ACAD_GROUP
350
198
3
ACAD_MLINESTYLE
350
199
0
DICTIONARY
5
198
330
0
100
AcDbDictionary
280
0
281
1
0
DICTIONARY
5
199
330
0
100
AcDbDictionary
280
0
281
1
3
Standard
350
18
0
MLINESTYLE
5
18
330
199
100
AcDbMlineStyle
2
Standard
70
0
3

62
256
51
90
52
90
71
2
49
-0.5
62
256
6
ByLayer
49
0.5
62
256
6
ByLayer
0
RASTERVARIABLES
5
185
330

100
AcDbRasterVariables
90
0
70
1
71
1
72
1
0
ENDSEC
0
EOF
