0
SECTION
2
HEADER
9
$ACADVER
1
AC1015
9
$DWGCODEPAGE
3
ANSI_1252
9
$HANDSEED
5
19b
9
$ANGBASE
50
0
9
$ANGDIR
70
0
9
$ATTMODE
70
1
9
$AUNITS
70
0
9
$AUPREC
70
0
9
$CECOLOR
62
256
9
$CELTSCALE
40
1
9
$CELTYPE
6
ByLayer
9
$CELWEIGHT
370
18
9
$CLAYER
8
0
9
$CMLJUST
70
0
9
$CMLSCALE
40
1
9
$CMLSTYLE
2
Standard
9
$DIMSTYLE
2
Standard
9
$TEXTSIZE
40
0.2
9
$TEXTSTYLE
7
Standard
9
$LUNITS
70
2
9
$LUPREC
70
4
9
$EXTNAMES
290
1
9
$INSUNITS
70
4
9
$LTSCALE
40
1
9
$LWDISPLAY
290
1
9
$PDMODE
70
0
9
$PDSIZE
40
0
9
$PLINEGEN
70
0
0
ENDSEC
0
SECTION
2
CLASSES
0
CLASS
1
RASTERVARIABLES
2
AcDbRasterVariables
3
ISM
90
0
280
0
281
0
0
ENDSEC
0
SECTION
2
TABLES
0
TABLE
2
VPORT
5
191
100
AcDbSymbolTable
0
VPORT
5
1
100
AcDbSymbolTableRecord
100
AcDbViewportTableRecord
2
*Active
70
0
10
0
20
0
11
1
21
1
12
-1
22
1
13
0
23
0
14
0.5
24
0.5
15
10
25
10
16
0
26
0
36
1
17
0
27
0
37
0
0
ENDTAB
0
TABLE
2
LTYPE
5
192
100
AcDbSymbolTable
0
LTYPE
5
14
100
AcDbSymbolTableRecord
100
AcDbLinetypeTableRecord
70
0
2
ByBlock
3

72
65
73
0
40
0
0
LTYPE
5
15
100
AcDbSymbolTableRecord
100
AcDbLinetypeTableRecord
70
0
2
ByLayer
3

72
65
73
0
40
0
0
LTYPE
5
16
100
AcDbSymbolTableRecord
100
AcDbLinetypeTableRecord
70
0
2
CONTINUOUS
3
Solid line
72
65
73
0
40
0
0
LTYPE
5
6A
100
AcDbSymbolTableRecord
100
AcDbLinetypeTableRecord
70
0
2
CENTER
3
____ _ ____ _ ____ _ ____
72
65
73
4
40
47.5
49
22
74
0
49
-8.5
74
0
49
8.5
74
0
49
-8.5
74
0
0
LTYPE
5
6B
100
AcDbSymbolTableRecord
100
AcDbLinetypeTableRecord
70
0
2
DASHED
3
__ __ __ __ __ __ __ __ __
72
65
73
2
40
25.72
49
12.86
74
0
49
-12.86
74
0
0
ENDTAB
0
TABLE
2
LAYER
5
193
100
AcDbSymbolTable
0
LAYER
5
10
100
AcDbSymbolTableRecord
100
AcDbLayerTableRecord
2
0
70
0
62
7
6
CONTINUOUS
290
1
370
-3
390
0
0
LAYER
5
6D
100
AcDbSymbolTableRecord
100
AcDbLayerTableRecord
2
81
70
0
62
-3
6
CONTINUOUS
290
1
370
-3
390
0
0
LAYER
5
6F
100
AcDbSymbolTableRecord
100
AcDbLayerTableRecord
2
80
70
0
62
-6
6
CONTINUOUS
290
1
370
-3
390
0
0
LAYER
5
74
100
AcDbSymbolTableRecord
100
AcDbLayerTableRecord
2
2
70
0
62
7
6
CONTINUOUS
290
1
370
-3
390
0
0
LAYER
5
78
100
AcDbSymbolTableRecord
100
AcDbLayerTableRecord
2
1
70
0
62
4
6
CONTINUOUS
290
1
370
-3
390
0
0
LAYER
5
86
100
AcDbSymbolTableRecord
100
AcDbLayerTableRecord
2
4
70
0
62
-2
6
CENTER
290
1
370
-3
390
0
0
LAYER
5
17d
100
AcDbSymbolTableRecord
100
AcDbLayerTableRecord
2
SK2
70
0
62
7
6
CONTINUOUS
290
1
370
-3
390
0
0
LAYER
5
17e
100
AcDbSymbolTableRecord
100
AcDbLayerTableRecord
2
SK1
70
0
62
4
6
CONTINUOUS
290
1
370
-3
390
0
0
LAYER
5
17f
100
AcDbSymbolTableRecord
100
AcDbLayerTableRecord
2
SK4
70
0
62
2
6
CENTER
290
1
370
-3
390
0
0
LAYER
5
180
100
AcDbSymbolTableRecord
100
AcDbLayerTableRecord
2
SK6
70
0
62
5
6
CONTINUOUS
290
1
370
-3
390
0
0
ENDTAB
0
TABLE
2
STYLE
5
194
100
AcDbSymbolTable
0
STYLE
5
11
100
AcDbSymbolTableRecord
100
AcDbTextStyleTableRecord
2
Standard
3
txt
70
0
71
0
40
0
41
1
42
0
50
0
0
STYLE
5
D9
100
AcDbSymbolTableRecord
100
AcDbTextStyleTableRecord
2
iso_b_vert
3
simplex.shx
70
0
71
0
40
0
41
1
42
0
50
0
0
STYLE
5
DA
100
AcDbSymbolTableRecord
100
AcDbTextStyleTableRecord
2
DWGDirectTextStyle
3
simplex
70
0
71
0
40
0
41
1
42
0
50
0
0
ENDTAB
0
TABLE
2
DIMSTYLE
5
195
100
AcDbSymbolTable
100
AcDbDimStyleTable
0
DIMSTYLE
105
27
100
AcDbSymbolTableRecord
100
AcDbDimStyleTableRecord
2
Standard
70
0
3
<>
41
0.18
42
0.0625
44
0.18
140
0.18
147
0.09
73
0
74
0
77
1
271
2
275
0
278
52
280
0
340
11
0
ENDTAB
0
TABLE
2
VIEW
5
196
100
AcDbSymbolTable
0
ENDTAB
0
TABLE
2
UCS
5
197
100
AcDbSymbolTable
0
ENDTAB
0
TABLE
2
APPID
5
198
100
AcDbSymbolTable
0
APPID
5
12
100
AcDbSymbolTableRecord
100
AcDbRegAppTableRecord
2
ACAD
70
0
0
ENDTAB
0
TABLE
2
BLOCK_RECORD
5
199
100
AcDbSymbolTable
0
BLOCK_RECORD
5
1F
100
AcDbSymbolTableRecord
100
AcDbBlockTableRecord
2
*Model_Space
340
0
70
0
0
BLOCK_RECORD
5
1B
100
AcDbSymbolTableRecord
100
AcDbBlockTableRecord
2
*Paper_Space
340
0
70
0
0
BLOCK_RECORD
5
23
100
AcDbSymbolTableRecord
100
AcDbBlockTableRecord
2
*Paper_Space0
340
0
70
0
0
BLOCK_RECORD
5
DC
100
AcDbSymbolTableRecord
100
AcDbBlockTableRecord
2
DimnDraft3D1
340
0
70
0
0
BLOCK_RECORD
5
E6
100
AcDbSymbolTableRecord
100
AcDbBlockTableRecord
2
DimnDraft3D2
340
0
70
0
0
BLOCK_RECORD
5
F0
100
AcDbSymbolTableRecord
100
AcDbBlockTableRecord
2
DimnDraft3D3
340
0
70
0
0
BLOCK_RECORD
5
FA
100
AcDbSymbolTableRecord
100
AcDbBlockTableRecord
2
DimnDraft3D4
340
0
70
0
0
BLOCK_RECORD
5
104
100
AcDbSymbolTableRecord
100
AcDbBlockTableRecord
2
DimnDraft3D5
340
0
70
0
0
BLOCK_RECORD
5
10E
100
AcDbSymbolTableRecord
100
AcDbBlockTableRecord
2
DimnDraft3D6
340
0
70
0
0
BLOCK_RECORD
5
119
100
AcDbSymbolTableRecord
100
AcDbBlockTableRecord
2
DimnDraft3D7
340
0
70
0
0
ENDTAB
0
ENDSEC
0
SECTION
2
BLOCKS
0
BLOCK
5
20
100
AcDbEntity
8
0
100
AcDbBlockBegin
2
*Model_Space
70
0
10
0
20
0
30
0
3
*Model_Space
0
ENDBLK
5
21
100
AcDbEntity
8
0
100
AcDbBlockEnd
0
BLOCK
5
1C
100
AcDbEntity
8
0
100
AcDbBlockBegin
2
*Paper_Space
70
0
10
0
20
0
30
0
3
*Paper_Space
0
ENDBLK
5
1D
100
AcDbEntity
8
0
100
AcDbBlockEnd
0
BLOCK
5
24
100
AcDbEntity
8
0
100
AcDbBlockBegin
2
*Paper_Space0
70
0
10
0
20
0
30
0
3
*Paper_Space0
0
ENDBLK
5
25
100
AcDbEntity
8
0
100
AcDbBlockEnd
0
BLOCK
5
E3
100
AcDbEntity
8
0
100
AcDbBlockBegin
2
DimnDraft3D1
70
0
10
0
20
0
30
0
3
DimnDraft3D1
0
MTEXT
5
DD
100
AcDbEntity
8
SK2
62
256
6
ByLayer
370
13
48
1
60
0
100
AcDbMText
10
30.043875
20
-15.038398
30
0
210
0
220
0
230
1
1
\W0.6713;71,30
40
3.5
41
0
44
1.084337
50
0
71
7
72
5
7
iso_b_vert
0
LINE
5
DE
100
AcDbEntity
8
SK2
62
256
6
ByLayer
370
13
48
1
60
0
100
AcDbLine
10
0
20
-1.5875
30
0
11
0
21
-17.913398
31
0
39
0
210
0
220
0
230
1
0
LINE
5
DF
100
AcDbEntity
8
SK2
62
256
6
ByLayer
370
13
48
1
60
0
100
AcDbLine
10
71.305
20
-7.2875
30
0
11
71.305
21
-17.913398
31
0
39
0
210
0
220
0
230
1
0
LINE
5
E0
100
AcDbEntity
8
SK2
62
256
6
ByLayer
370
13
48
1
60
0
100
AcDbLine
10
0
20
-15.913398
30
0
11
71.305
21
-15.913398
31
0
39
0
210
0
220
0
230
1
0
SOLID
5
E1
100
AcDbEntity
8
SK2
62
256
6
ByLayer
370
13
48
1
60
0
100
AcDbTrace
10
0
20
-15.913398
30
0
11
3.499998
21
-15.452615
31
0
12
3.500002
22
-16.374182
32
0
13
0
23
-15.913398
33
0
39
0
210
0
220
0
230
1
0
SOLID
5
E2
100
AcDbEntity
8
SK2
62
256
6
ByLayer
370
13
48
1
60
0
100
AcDbTrace
10
71.305
20
-15.913398
30
0
11
67.805002
21
-16.374182
31
0
12
67.804998
22
-15.452615
32
0
13
71.305
23
-15.913398
33
0
39
0
210
0
220
0
230
1
0
ENDBLK
5
E4
100
AcDbEntity
8
0
100
AcDbBlockEnd
0
BLOCK
5
ED
100
AcDbEntity
8
0
100
AcDbBlockBegin
2
DimnDraft3D2
70
0
10
0
20
0
30
0
3
DimnDraft3D2
0
MTEXT
5
E7
100
AcDbEntity
8
SK2
62
256
6
ByLayer
370
13
48
1
60
0
100
AcDbMText
10
8.764721
20
-33.817985
30
0
210
0
220
0
230
1
1
\W0.6440;118,00
40
3.5
41
0
44
1.084337
50
0
71
7
72
5
7
iso_b_vert
0
LINE
5
E8
100
AcDbEntity
8
SK2
62
256
6
ByLayer
370
13
48
1
60
0
100
AcDbLine
10
-45
20
-7.5875
30
0
11
-45
21
-36.692985
31
0
39
0
210
0
220
0
230
1
0
LINE
5
E9
100
AcDbEntity
8
SK2
62
256
6
ByLayer
370
13
48
1
60
0
100
AcDbLine
10
73
20
-1.5875
30
0
11
73
21
-36.692985
31
0
39
0
210
0
220
0
230
1
0
LINE
5
EA
100
AcDbEntity
8
SK2
62
256
6
ByLayer
370
13
48
1
60
0
100
AcDbLine
10
-45
20
-34.692985
30
0
11
73
21
-34.692985
31
0
39
0
210
0
220
0
230
1
0
SOLID
5
EB
100
AcDbEntity
8
SK2
62
256
6
ByLayer
370
13
48
1
60
0
100
AcDbTrace
10
-45
20
-34.692985
30
0
11
-41.500002
21
-34.232202
31
0
12
-41.499998
22
-35.153769
32
0
13
-45
23
-34.692985
33
0
39
0
210
0
220
0
230
1
0
SOLID
5
EC
100
AcDbEntity
8
SK2
62
256
6
ByLayer
370
13
48
1
60
0
100
AcDbTrace
10
73
20
-34.692985
30
0
11
69.500002
21
-35.153769
31
0
12
69.499998
22
-34.232202
32
0
13
73
23
-34.692985
33
0
39
0
210
0
220
0
230
1
0
ENDBLK
5
EE
100
AcDbEntity
8
0
100
AcDbBlockEnd
0
BLOCK
5
F7
100
AcDbEntity
8
0
100
AcDbBlockBegin
2
DimnDraft3D3
70
0
10
0
20
0
30
0
3
DimnDraft3D3
0
MTEXT
5
F1
100
AcDbEntity
8
SK2
62
256
6
ByLayer
370
13
48
1
60
0
100
AcDbMText
10
39.206316
20
18.184119
30
0
210
0
220
0
230
1
1
\W0.7402;58,69
40
3.5
41
0
44
1.084337
50
0
71
7
72
5
7
iso_b_vert
0
LINE
5
F2
100
AcDbEntity
8
SK2
62
256
6
ByLayer
370
13
48
1
60
0
100
AcDbLine
10
14.31
20
7.2875
30
0
11
14.31
21
19.309119
31
0
39
0
210
0
220
0
230
1
0
LINE
5
F3
100
AcDbEntity
8
SK2
62
256
6
ByLayer
370
13
48
1
60
0
100
AcDbLine
10
73
20
1.5875
30
0
11
73
21
19.309119
31
0
39
0
210
0
220
0
230
1
0
LINE
5
F4
100
AcDbEntity
8
SK2
62
256
6
ByLayer
370
13
48
1
60
0
100
AcDbLine
10
14.31
20
17.309119
30
0
11
73
21
17.309119
31
0
39
0
210
0
220
0
230
1
0
SOLID
5
F5
100
AcDbEntity
8
SK2
62
256
6
ByLayer
370
13
48
1
60
0
100
AcDbTrace
10
14.31
20
17.309119
30
0
11
17.809998
21
17.769903
31
0
12
17.810002
22
16.848335
32
0
13
14.31
23
17.309119
33
0
39
0
210
0
220
0
230
1
0
SOLID
5
F6
100
AcDbEntity
8
SK2
62
256
6
ByLayer
370
13
48
1
60
0
100
AcDbTrace
10
73
20
17.309119
30
0
11
69.500002
21
16.848335
31
0
12
69.499998
22
17.769903
32
0
13
73
23
17.309119
33
0
39
0
210
0
220
0
230
1
0
ENDBLK
5
F8
100
AcDbEntity
8
0
100
AcDbBlockEnd
0
BLOCK
5
101
100
AcDbEntity
8
0
100
AcDbBlockBegin
2
DimnDraft3D4
70
0
10
0
20
0
30
0
3
DimnDraft3D4
0
MTEXT
5
FB
100
AcDbEntity
8
SK2
62
256
6
ByLayer
370
13
48
1
60
0
100
AcDbMText
10
80.278136
20
-17.627503
30
0
210
0
220
0
230
1
1
\W0.6367;1,70
40
3.5
41
0
44
1.084337
50
0
71
7
72
5
7
iso_b_vert
0
LINE
5
FC
100
AcDbEntity
8
SK2
62
256
6
ByLayer
370
13
48
1
60
0
100
AcDbLine
10
73
20
-1.5875
30
0
11
73
21
-20.502503
31
0
39
0
210
0
220
0
230
1
0
LINE
5
FD
100
AcDbEntity
8
SK2
62
256
6
ByLayer
370
13
48
1
60
0
100
AcDbLine
10
71.305
20
-7.2875
30
0
11
71.305
21
-20.502503
31
0
39
0
210
0
220
0
230
1
0
LINE
5
FE
100
AcDbEntity
8
SK2
62
256
6
ByLayer
370
13
48
1
60
0
100
AcDbLine
10
62.555
20
-18.502503
30
0
11
86.559715
21
-18.502503
31
0
39
0
210
0
220
0
230
1
0
SOLID
5
FF
100
AcDbEntity
8
SK2
62
256
6
ByLayer
370
13
48
1
60
0
100
AcDbTrace
10
73
20
-18.502503
30
0
11
76.499998
21
-18.041719
31
0
12
76.500002
22
-18.963287
32
0
13
73
23
-18.502503
33
0
39
0
210
0
220
0
230
1
0
SOLID
5
100
100
AcDbEntity
8
SK2
62
256
6
ByLayer
370
13
48
1
60
0
100
AcDbTrace
10
71.305
20
-18.502503
30
0
11
67.805002
21
-18.963287
31
0
12
67.804998
22
-18.041719
32
0
13
71.305
23
-18.502503
33
0
39
0
210
0
220
0
230
1
0
ENDBLK
5
102
100
AcDbEntity
8
0
100
AcDbBlockEnd
0
BLOCK
5
10B
100
AcDbEntity
8
0
100
AcDbBlockBegin
2
DimnDraft3D5
70
0
10
0
20
0
30
0
3
DimnDraft3D5
0
MTEXT
5
105
100
AcDbEntity
8
SK2
62
256
6
ByLayer
370
13
48
1
60
0
100
AcDbMText
10
5.684097
20
-23.468428
30
0
210
0
220
0
230
1
1
\W0.6440;116,30
40
3.5
41
0
44
1.084337
50
0
71
7
72
5
7
iso_b_vert
0
LINE
5
106
100
AcDbEntity
8
SK2
62
256
6
ByLayer
370
13
48
1
60
0
100
AcDbLine
10
-45
20
-7.5875
30
0
11
-45
21
-26.343428
31
0
39
0
210
0
220
0
230
1
0
LINE
5
107
100
AcDbEntity
8
SK2
62
256
6
ByLayer
370
13
48
1
60
0
100
AcDbLine
10
71.305
20
-7.2875
30
0
11
71.305
21
-26.343428
31
0
39
0
210
0
220
0
230
1
0
LINE
5
108
100
AcDbEntity
8
SK2
62
256
6
ByLayer
370
13
48
1
60
0
100
AcDbLine
10
-45
20
-24.343428
30
0
11
71.305
21
-24.343428
31
0
39
0
210
0
220
0
230
1
0
SOLID
5
109
100
AcDbEntity
8
SK2
62
256
6
ByLayer
370
13
48
1
60
0
100
AcDbTrace
10
-45
20
-24.343428
30
0
11
-41.500002
21
-23.882645
31
0
12
-41.499998
22
-24.804212
32
0
13
-45
23
-24.343428
33
0
39
0
210
0
220
0
230
1
0
SOLID
5
10A
100
AcDbEntity
8
SK2
62
256
6
ByLayer
370
13
48
1
60
0
100
AcDbTrace
10
71.305
20
-24.343428
30
0
11
67.805002
21
-24.804212
31
0
12
67.804998
22
-23.882645
32
0
13
71.305
23
-24.343428
33
0
39
0
210
0
220
0
230
1
0
ENDBLK
5
10C
100
AcDbEntity
8
0
100
AcDbBlockEnd
0
BLOCK
5
116
100
AcDbEntity
8
0
100
AcDbBlockBegin
2
DimnDraft3D6
70
0
10
0
20
0
30
0
3
DimnDraft3D6
0
MTEXT
5
10F
100
AcDbEntity
8
SK2
62
256
6
ByLayer
370
13
48
1
60
0
100
AcDbMText
10
-55.375163
20
25.34918
30
0
210
0
220
0
230
1
1
\W0.6930;12,000
40
3.5
41
0
44
1.084337
50
90
71
7
72
5
7
iso_b_vert
0
MTEXT
5
110
100
AcDbEntity
8
SK2
62
256
6
ByLayer
370
13
48
1
60
0
100
AcDbMText
10
-55.375163
20
20.126524
30
0
210
0
220
0
230
1
1
%%c
40
3.5
41
0
44
1.084337
50
90
71
7
72
5
7
iso_b_vert
0
LINE
5
111
100
AcDbEntity
8
SK2
62
256
6
ByLayer
370
13
48
1
60
0
100
AcDbLine
10
-46.5875
20
-6
30
0
11
-55.625163
21
-6
31
0
39
0
210
0
220
0
230
1
0
LINE
5
112
100
AcDbEntity
8
SK2
62
256
6
ByLayer
370
13
48
1
60
0
100
AcDbLine
10
-46.5875
20
6
30
0
11
-55.625163
21
6
31
0
39
0
210
0
220
0
230
1
0
LINE
5
113
100
AcDbEntity
8
SK2
62
256
6
ByLayer
370
13
48
1
60
0
100
AcDbLine
10
-53.625163
20
-6
30
0
11
-53.625163
21
36.862338
31
0
39
0
210
0
220
0
230
1
0
SOLID
5
114
100
AcDbEntity
8
SK2
62
256
6
ByLayer
370
13
48
1
60
0
100
AcDbTrace
10
-53.625163
20
-6
30
0
11
-54.085946
21
-2.500002
31
0
12
-53.164379
22
-2.499998
32
0
13
-53.625163
23
-6
33
0
39
0
210
0
220
0
230
1
0
SOLID
5
115
100
AcDbEntity
8
SK2
62
256
6
ByLayer
370
13
48
1
60
0
100
AcDbTrace
10
-53.625163
20
6
30
0
11
-53.164379
21
2.500002
31
0
12
-54.085946
22
2.499998
32
0
13
-53.625163
23
6
33
0
39
0
210
0
220
0
230
1
0
ENDBLK
5
117
100
AcDbEntity
8
0
100
AcDbBlockEnd
0
BLOCK
5
121
100
AcDbEntity
8
0
100
AcDbBlockBegin
2
DimnDraft3D7
70
0
10
0
20
0
30
0
3
DimnDraft3D7
0
MTEXT
5
11A
100
AcDbEntity
8
2
62
256
6
ByLayer
370
13
48
1
60
0
100
AcDbMText
10
83.333343
20
23.642266
30
0
210
0
220
0
230
1
1
\W0.6654;11,400
40
3.5
41
0
44
1.084337
50
90
71
7
72
5
7
iso_b_vert
0
MTEXT
5
11B
100
AcDbEntity
8
2
62
256
6
ByLayer
370
13
48
1
60
0
100
AcDbMText
10
83.333343
20
18.41961
30
0
210
0
220
0
230
1
1
%%c
40
3.5
41
0
44
1.084337
50
90
71
7
72
5
7
iso_b_vert
0
LINE
5
11C
100
AcDbEntity
8
2
62
256
6
ByLayer
370
13
48
1
60
0
100
AcDbLine
10
72.8925
20
-5.7
30
0
11
87.083343
21
-5.7
31
0
39
0
210
0
220
0
230
1
0
LINE
5
11D
100
AcDbEntity
8
2
62
256
6
ByLayer
370
13
48
1
60
0
100
AcDbLine
10
72.8925
20
5.7
30
0
11
87.083343
21
5.7
31
0
39
0
210
0
220
0
230
1
0
LINE
5
11E
100
AcDbEntity
8
2
62
256
6
ByLayer
370
13
48
1
60
0
100
AcDbLine
10
85.083343
20
-5.7
30
0
11
85.083343
21
34.648845
31
0
39
0
210
0
220
0
230
1
0
SOLID
5
11F
100
AcDbEntity
8
2
62
256
6
ByLayer
370
13
48
1
60
0
100
AcDbTrace
10
85.083343
20
-5.7
30
0
11
84.622559
21
-2.200002
31
0
12
85.544126
22
-2.199998
32
0
13
85.083343
23
-5.7
33
0
39
0
210
0
220
0
230
1
0
SOLID
5
120
100
AcDbEntity
8
2
62
256
6
ByLayer
370
13
48
1
60
0
100
AcDbTrace
10
85.083343
20
5.7
30
0
11
85.544126
21
2.200002
31
0
12
84.622559
22
2.199998
32
0
13
85.083343
23
5.7
33
0
39
0
210
0
220
0
230
1
0
ENDBLK
5
122
100
AcDbEntity
8
0
100
AcDbBlockEnd
0
ENDSEC
0
SECTION
2
ENTITIES
0
ARC
5
8F
100
AcDbEntity
8
1
62
256
6
ByLayer
370
18
48
1
60
0
100
AcDbCircle
39
0
10
-0.2
20
5.855557
30
0
40
0.200000000000003
210
0
220
0
230
-1
100
AcDbArc
50
269.96419
51
0
0
ARC
5
90
100
AcDbEntity
8
1
62
256
6
ByLayer
370
18
48
1
60
0
100
AcDbCircle
39
0
10
-0.2
20
-5.855557
30
0
40
0.200000000000003
210
0
220
0
230
-1
100
AcDbArc
50
0
51
90.03581
0
ELLIPSE
5
91
100
AcDbEntity
8
1
62
256
6
ByLayer
370
13
48
1
60
0
100
AcDbEllipse
10
2.559282
20
-5.262762
30
0
11
0.0143897122267894
21
0.0989592652662205
31
0
210
0
220
0
230
1
40
0.447889
41
0.311209625518546
42
1.86823392519735
0
ELLIPSE
5
92
100
AcDbEntity
8
1
62
256
6
ByLayer
370
13
48
1
60
0
100
AcDbEllipse
10
2.48902
20
-5.269266
30
0
11
-0.0339953439885573
21
0.0940442267611344
31
0
210
0
220
0
230
1
40
0.519894
41
0.294282449509719
42
1.63218072431065
0
POINT
5
6C
100
AcDbEntity
8
81
62
256
6
ByLayer
370
18
48
1
60
0
100
AcDbPoint
10
73
20
0
30
0
39
0
210
0
220
0
230
1
50
360
0
POINT
5
6E
100
AcDbEntity
8
80
62
256
6
ByLayer
370
18
48
1
60
0
100
AcDbPoint
10
0
20
0
30
0
39
0
210
0
220
0
230
1
50
360
0
POINT
5
70
100
AcDbEntity
8
SK2
62
256
6
ByLayer
370
18
48
1
60
1
100
AcDbPoint
10
-45
20
-6
30
0
39
0
210
0
220
0
230
1
50
360
0
POINT
5
72
100
AcDbEntity
8
SK2
62
256
6
ByLayer
370
18
48
1
60
1
100
AcDbPoint
10
-45
20
6
30
0
39
0
210
0
220
0
230
1
50
360
0
POINT
5
73
100
AcDbEntity
8
2
62
256
6
ByLayer
370
18
48
1
60
1
100
AcDbPoint
10
71.305
20
-5.7
30
0
39
0
210
0
220
0
230
1
50
360
0
POINT
5
75
100
AcDbEntity
8
2
62
256
6
ByLayer
370
18
48
1
60
1
100
AcDbPoint
10
71.305
20
5.7
30
0
39
0
210
0
220
0
230
1
50
360
0
SPLINE
5
93
100
AcDbEntity
8
1
62
256
6
ByLayer
370
18
48
1
60
0
100
AcDbSpline
70
4
71
3
72
23
73
19
40
0
40
0
40
0
40
0
40
0.0124007538899167
40
0.0711975128701369
40
0.120233701004952
40
0.164091237794236
40
0.220587517254129
40
0.282465332742049
40
0.342370762412734
40
0.412928329082512
40
0.500674637395737
40
0.559335034240641
40
0.613657884585281
40
0.679702484650397
40
0.747493330236726
40
0.81821927331615
40
0.916656120974882
40
1
40
1
40
1
40
1
41
1
10
53.4872871833019
20
5.40351559596181
30
0
41
1
10
53.4359492186701
20
5.40358209547091
30
0
41
1
10
53.1411738204276
20
5.40388091112345
30
0
41
1
10
52.642835207816
20
5.40320631705913
30
0
41
1
10
52.0143715922255
20
5.40168464981858
30
0
41
1
10
51.3953850868474
20
5.40177792685068
30
0
41
1
10
50.7231982313908
20
5.40213309956857
30
0
41
1
10
49.9845219653523
20
5.40032339235066
30
0
41
1
10
49.1875770628402
20
5.40096591238796
30
0
41
1
10
48.2834508803192
20
5.40048365225843
30
0
41
1
10
47.3844833297276
20
5.39927084336617
30
0
41
1
10
46.5527812302424
20
5.39979115253547
30
0
41
1
10
45.8110018220805
20
5.39844028651848
30
0
41
1
10
45.0313815843697
20
5.39861103680204
30
0
41
1
10
44.1838273648293
20
5.39813367013838
30
0
41
1
10
43.2020189036626
20
5.39742037116116
30
0
41
1
10
42.1558430998661
20
5.39704855351923
30
0
41
1
10
41.402521139513
20
5.3965102332273
30
0
41
1
10
41.0572543111744
20
5.39630772531382
30
0
0
SPLINE
5
94
100
AcDbEntity
8
1
62
256
6
ByLayer
370
18
48
1
60
0
100
AcDbSpline
70
4
71
1
72
4
73
2
40
0
40
0
40
1
40
1
41
1
10
54.2044483622588
20
-5.65221407669E-05
30
0
41
1
10
54.2044617321189
20
-4.98341936463E-05
30
0
0
SPLINE
5
95
100
AcDbEntity
8
1
62
256
6
ByLayer
370
18
48
1
60
0
100
AcDbSpline
70
4
71
3
72
32
73
28
40
0
40
0
40
0
40
0
40
0.0553859381922356
40
0.103410871829272
40
0.139527362227934
40
0.170886314705253
40
0.199754446188691
40
0.237139747515171
40
0.279219480034272
40
0.320488203888155
40
0.351798808957956
40
0.383833030613582
40
0.427408709974343
40
0.468141853157707
40
0.496321289377408
40
0.538989792422403
40
0.576078688008551
40
0.602957985305164
40
0.641478447794747
40
0.691590290736045
40
0.750945047228325
40
0.811795546365514
40
0.857893726128986
40
0.902411285867265
40
0.952085039747481
40
0.998700434647892
40
1
40
1
40
1
40
1
41
1
10
38.0799585515189
20
-5.39419407205261
30
0
41
1
10
38.3638456451711
20
-5.39427686270656
30
0
41
1
10
38.8939344677045
20
-5.39458958885572
30
0
41
1
10
39.6139313833318
20
-5.39443551461298
30
0
41
1
10
40.2032571518577
20
-5.39598955432146
30
0
41
1
10
40.6958240033985
20
-5.39597988048953
30
0
41
1
10
41.1988127366444
20
-5.39610009825819
30
0
41
1
10
41.7549646817438
20
-5.39641677788035
30
0
41
1
10
42.3762669796412
20
-5.39736512080219
30
0
41
1
10
42.9660391359245
20
-5.39765768637099
30
0
41
1
10
43.5042101978677
20
-5.39742749232983
30
0
41
1
10
44.0542250235524
20
-5.39783226731623
30
0
41
1
10
44.6527262982238
20
-5.39867640617581
30
0
41
1
10
45.2313746728119
20
-5.39843807522024
30
0
41
1
10
45.805378356804
20
-5.39855973873506
30
0
41
1
10
46.3606285828019
20
-5.39949999877382
30
0
41
1
10
46.9091939813437
20
-5.39962425525107
30
0
41
1
10
47.4364188925183
20
-5.39947784688098
30
0
41
1
10
48.0306385205291
20
-5.39967325879473
30
0
41
1
10
48.791918755558
20
-5.40138260772341
30
0
41
1
10
49.6680669217848
20
-5.40010036468186
30
0
41
1
10
50.5235734673815
20
-5.40177940502645
30
0
41
1
10
51.3027459989742
20
-5.40194265966406
30
0
41
1
10
52.0244300030424
20
-5.40150788685688
30
0
41
1
10
52.7487747159018
20
-5.40366439745344
30
0
41
1
10
53.2507787907124
20
-5.40376077692054
30
0
41
1
10
53.4972636252427
20
-5.40356866220836
30
0
41
1
10
53.5039488691566
20
-5.40356323840786
30
0
0
SPLINE
5
96
100
AcDbEntity
8
1
62
256
6
ByLayer
370
18
48
1
60
0
100
AcDbSpline
70
4
71
3
72
30
73
26
40
0
40
0
40
0
40
0
40
0.0469383594821052
40
0.0868137132914709
40
0.122472119214926
40
0.154398848559345
40
0.182659149345561
40
0.211066741521054
40
0.253393306168325
40
0.299812885313006
40
0.344258214287819
40
0.385718328427959
40
0.434580810738287
40
0.493932274772149
40
0.547383591701466
40
0.590443967905237
40
0.635229239757509
40
0.680734141601711
40
0.723276716344398
40
0.776940714713047
40
0.839069191124786
40
0.881294510626386
40
0.916557702648778
40
0.968091444333702
40
1
40
1
40
1
40
1
41
1
10
5.34189500669015
20
-5.37382271179752
30
0
41
1
10
5.57143437447206
20
-5.37239709267385
30
0
41
1
10
6.00152351211426
20
-5.37104359059111
30
0
41
1
10
6.64750967409515
20
-5.36823686383693
30
0
41
1
10
7.18422203072836
20
-5.37538648036792
30
0
41
1
10
7.67078351515761
20
-5.37601364303151
30
0
41
1
10
8.13012333114679
20
-5.37620067427699
30
0
41
1
10
8.64322664222584
20
-5.37678648257867
30
0
41
1
10
9.25054785513521
20
-5.3774422712988
30
0
41
1
10
9.94101487759346
20
-5.37729764767849
30
0
41
1
10
10.6269892210457
20
-5.37785600739696
30
0
41
1
10
11.3256432758369
20
-5.37872161734455
30
0
41
1
10
12.1015498954361
20
-5.37857712945623
30
0
41
1
10
12.9396447688996
20
-5.37963461343367
30
0
41
1
10
13.7476358164101
20
-5.38011176066152
30
0
41
1
10
14.4801757613515
20
-5.37997062767064
30
0
41
1
10
15.1713141820293
20
-5.38118468390599
30
0
41
1
10
15.8596872443416
20
-5.38137078479795
30
0
41
1
10
16.5940926033566
20
-5.38191019807985
30
0
41
1
10
17.4145975425904
20
-5.38401016291485
30
0
41
1
10
18.2338667334313
20
-5.38247461116865
30
0
41
1
10
18.9576505465632
20
-5.38476150046702
30
0
41
1
10
19.6264593231191
20
-5.3852182055621
30
0
41
1
10
20.2418635815158
20
-5.38397156483407
30
0
41
1
10
20.6744161573921
20
-5.3846560090648
30
0
41
1
10
20.8398248720666
20
-5.38499594775362
30
0
0
SPLINE
5
97
100
AcDbEntity
8
1
62
256
6
ByLayer
370
18
48
1
60
0
100
AcDbSpline
70
4
71
1
72
4
73
2
40
0
40
0
40
1
40
1
41
1
10
21.548642792026
20
0.0030045649621968
30
0
41
1
10
21.5486554605476
20
0.0029958405824289
30
0
0
SPLINE
5
98
100
AcDbEntity
8
1
62
256
6
ByLayer
370
18
48
1
60
0
100
AcDbSpline
70
4
71
1
72
4
73
2
40
0
40
0
40
1
40
1
41
1
10
54.2044617321218
20
4.98341922253E-05
30
0
41
1
10
54.2044483617832
20
5.65223821241E-05
30
0
0
SPLINE
5
99
100
AcDbEntity
8
1
62
256
6
ByLayer
370
18
48
1
60
0
100
AcDbSpline
70
4
71
1
72
4
73
2
40
0
40
0
40
1
40
1
41
1
10
70.7147781901268
20
-5.4145453535686
30
0
41
1
10
71.0768381499622
20
-5.4136128977768
30
0
0
SPLINE
5
9A
100
AcDbEntity
8
1
62
256
6
ByLayer
370
18
48
1
60
0
100
AcDbSpline
70
4
71
3
72
28
73
24
40
0
40
0
40
0
40
0
40
0.0322241900583171
40
0.0767580913915676
40
0.115266028832047
40
0.140285641107523
40
0.168301961124364
40
0.201982495748323
40
0.24545550893731
40
0.295884267091566
40
0.335952274056756
40
0.366174102100534
40
0.39954391028733
40
0.461769120902467
40
0.52225355390842
40
0.583095702240849
40
0.661420928358596
40
0.736771268410681
40
0.80195866305924
40
0.873295349244353
40
0.931263749884787
40
0.984858563978555
40
1
40
1
40
1
40
1
41
1
10
20.8396417216509
20
5.38501900131917
30
0
41
1
10
20.7061644355141
20
5.38469583466824
30
0
41
1
10
20.3882147772118
20
5.38416120183263
30
0
41
1
10
19.9107270025948
20
5.38453430791481
30
0
41
1
10
19.4630715259686
20
5.38515190174093
30
0
41
1
10
19.0838999936161
20
5.3849326139684
30
0
41
1
10
18.724675387619
20
5.38376221525172
30
0
41
1
10
18.2890164194038
20
5.38306897383146
30
0
41
1
10
17.7605056606748
20
5.38315960197693
30
0
41
1
10
17.2055601677081
20
5.38359220734009
30
0
41
1
10
16.7054561833102
20
5.38237480192018
30
0
41
1
10
16.2768255817796
20
5.38154381426978
30
0
41
1
10
15.7554015019215
20
5.38141600172372
30
0
41
1
10
15.1092957415001
20
5.38107241087511
30
0
41
1
10
14.3489800721681
20
5.37984159031097
30
0
41
1
10
13.5219211275533
20
5.38024813913199
30
0
41
1
10
12.6332928705813
20
5.37900037015982
30
0
41
1
10
11.7266575510789
20
5.37872811476751
30
0
41
1
10
10.8489838123474
20
5.37824624371262
30
0
41
1
10
10.043317035539
20
5.37725572201936
30
0
41
1
10
9.28565734515703
20
5.37745509172257
30
0
41
1
10
8.76082869969588
20
5.37692125660229
30
0
41
1
10
8.47609863724918
20
5.37659081520354
30
0
41
1
10
8.4133781997474
20
5.37652153794988
30
0
0
SPLINE
5
9B
100
AcDbEntity
8
1
62
256
6
ByLayer
370
18
48
1
60
0
100
AcDbSpline
70
4
71
3
72
14
73
10
40
0
40
0
40
0
40
0
40
0.25
40
0.25
40
0.5
40
0.5
40
0.75
40
0.75
40
1
40
1
40
1
40
1
41
1
10
2.56040858032603
20
3.7784038726291
30
0
41
1
10
2.52971331514362
20
3.78979832194455
30
0
41
1
10
2.49981543436422
20
3.804754663892
30
0
41
1
10
2.44177930781882
20
3.84216113265742
30
0
41
1
10
2.41512009747311
20
3.86367270661682
30
0
41
1
10
2.36758296465751
20
3.91252860442401
30
0
41
1
10
2.34789310303293
20
3.9386793688555
30
0
41
1
10
2.31892384365762
20
3.9935931017726
30
0
41
1
10
2.31052967814128
20
4.02086226012662
30
0
41
1
10
2.30925959245644
20
4.04641105781414
30
0
0
SPLINE
5
9C
100
AcDbEntity
8
1
62
256
6
ByLayer
370
18
48
1
60
0
100
AcDbSpline
70
4
71
3
72
8
73
4
40
0
40
0
40
0
40
0
40
1
40
1
40
1
40
1
41
1
10
72.9998123698568
20
-0.0409076356408207
30
0
41
1
10
73.0000624120995
20
-0.0136471970781713
30
0
41
1
10
73.0000626583932
20
0.0136203453124324
30
0
41
1
10
72.9998123698568
20
0.0409076356402807
30
0
0
SPLINE
5
9D
100
AcDbEntity
8
1
62
256
6
ByLayer
370
18
48
1
60
0
100
AcDbSpline
70
4
71
3
72
8
73
4
40
0
40
0
40
0
40
0
40
1
40
1
40
1
40
1
41
1
10
72.997208265993
20
-0.157914103891414
30
0
41
1
10
72.996960244274
20
-0.137700952599431
30
0
41
1
10
72.9965430804056
20
-0.117491041753055
30
0
41
1
10
72.9959513917236
20
-0.0972844744740087
30
0
0
SPLINE
5
9E
100
AcDbEntity
8
1
62
256
6
ByLayer
370
18
48
1
60
0
100
AcDbSpline
70
4
71
3
72
16
73
12
40
0
40
0
40
0
40
0
40
0.249999999999999
40
0.249999999999999
40
0.374999999999998
40
0.374999999999998
40
0.499999999999997
40
0.499999999999997
40
0.749999999999999
40
0.749999999999999
40
1
40
1
40
1
40
1
41
1
10
70.0918050905409
20
-4.02261877153668
30
0
41
1
10
70.1785032026953
20
-4.25770904911272
30
0
41
1
10
70.2669065165746
20
-4.46391805470086
30
0
41
1
10
70.4014148851587
20
-4.73162061271989
30
0
41
1
10
70.4465782339578
20
-4.81386781606173
30
0
41
1
10
70.5375580436513
20
-4.9640632697683
30
0
41
1
10
70.5834514623384
20
-5.03202109822146
30
0
41
1
10
70.7192942234356
20
-5.21004113227502
30
0
41
1
10
70.8083458212022
20
-5.29618603517119
30
0
41
1
10
70.9842291987175
20
-5.40366739234224
30
0
41
1
10
71.0715007799133
20
-5.42459945898625
30
0
41
1
10
71.1560330869324
20
-5.41065598584709
30
0
0
SPLINE
5
9F
100
AcDbEntity
8
1
62
256
6
ByLayer
370
18
48
1
60
0
100
AcDbSpline
70
4
71
3
72
54
73
50
40
0
40
0
40
0
40
0
40
0.0797893579926295
40
0.0797893579926295
40
0.119684036988944
40
0.119684036988944
40
0.159578715985259
40
0.159578715985259
40
0.199473394981574
40
0.199473394981574
40
0.239368073977889
40
0.239368073977889
40
0.279262752974203
40
0.279262752974203
40
0.319157431970518
40
0.319157431970518
40
0.359052110966833
40
0.359052110966833
40
0.398946789963148
40
0.398946789963148
40
0.438841468959463
40
0.438841468959463
40
0.478736147955777
40
0.478736147955777
40
0.518630826952092
40
0.518630826952092
40
0.558525505948407
40
0.558525505948407
40
0.598420184944722
40
0.598420184944722
40
0.638314863941036
40
0.638314863941036
40
0.678209542937351
40
0.678209542937351
40
0.718104221933666
40
0.718104221933666
40
0.797893579926295
40
0.797893579926295
40
0.83778825892261
40
0.83778825892261
40
0.877682937918925
40
0.877682937918925
40
0.91757761691524
40
0.91757761691524
40
0.957472295911554
40
0.957472295911554
40
0.997366974907869
40
0.997366974907869
40
1
40
1
40
1
40
1
41
1
10
13.6172220575512
20
3.2193215491119
30
0
41
1
10
14.2223949839802
20
2.94507671725035
30
0
41
1
10
14.8264238168309
20
2.66124013308274
30
0
41
1
10
15.7271450205932
20
2.21568309763762
30
0
41
1
10
16.0261010344453
20
2.06312540608246
30
0
41
1
10
16.6246522072808
20
1.75555171060191
30
0
41
1
10
16.9241017794394
20
1.60030392198709
30
0
41
1
10
17.5227697664671
20
1.28590131644259
30
0
41
1
10
17.8220154658225
20
1.12679548370164
30
0
41
1
10
18.4198189845853
20
0.803751951555569
30
0
41
1
10
18.719111882056
20
0.64116414006017
30
0
41
1
10
19.3195241925777
20
0.315856404953706
30
0
41
1
10
19.6203865831041
20
0.152660258258152
30
0
41
1
10
20.2230438834491
20
-0.175601899011468
30
0
41
1
10
20.5244178967583
20
-0.341505514112754
30
0
41
1
10
21.1301014217876
20
-0.671391092718778
30
0
41
1
10
21.4333124621736
20
-0.83472509037901
30
0
41
1
10
22.0370814581563
20
-1.15781043880503
30
0
41
1
10
22.3381246325687
20
-1.31772681622752
30
0
41
1
10
22.9379050565639
20
-1.63542853449451
30
0
41
1
10
23.2372415586818
20
-1.79208538687101
30
0
41
1
10
23.83631116122
20
-2.0984665246431
30
0
41
1
10
24.1357395821285
20
-2.24875196275238
30
0
41
1
10
24.7339623475195
20
-2.54425179935114
30
0
41
1
10
25.0323482736715
20
-2.69012468758825
30
0
41
1
10
25.6301589363209
20
-2.97389885524453
30
0
41
1
10
25.9297572819561
20
-3.11155384163612
30
0
41
1
10
26.5298017271862
20
-3.37931723738009
30
0
41
1
10
26.8302843386664
20
-3.50937067648823
30
0
41
1
10
27.431559464499
20
-3.76255479334597
30
0
41
1
10
27.7326998070079
20
-3.88513538822403
30
0
41
1
10
28.3381283248956
20
-4.11916972424296
30
0
41
1
10
28.6419615596025
20
-4.23111289569832
30
0
41
1
10
29.2460098593004
20
-4.44353771627519
30
0
41
1
10
29.5465628457986
20
-4.54468595361919
30
0
41
1
10
30.4469095307824
20
-4.8292865771773
30
0
41
1
10
31.0467558292546
20
-4.99296859901509
30
0
41
1
10
31.9429257614144
20
-5.20290640627624
30
0
41
1
10
32.2411672941904
20
-5.26670855608168
30
0
41
1
10
32.8392985493838
20
-5.38019893900631
30
0
41
1
10
33.1387927005196
20
-5.43022080958255
30
0
41
1
10
33.7381469555968
20
-5.51706126143253
30
0
41
1
10
34.0377409613346
20
-5.55396639023689
30
0
41
1
10
34.6381532490035
20
-5.61377454445235
30
0
41
1
10
34.9395496512036
20
-5.63652423985809
30
0
41
1
10
35.5442848100336
20
-5.66790248065351
30
0
41
1
10
35.8480662780534
20
-5.67652148873674
30
0
41
1
10
36.1705930060288
20
-5.6779735162647
30
0
41
1
10
36.1905575790762
20
-5.67803155872852
30
0
41
1
10
36.210518511328
20
-5.67805779969981
30
0
0
SPLINE
5
A0
100
AcDbEntity
8
1
62
256
6
ByLayer
370
18
48
1
60
0
100
AcDbSpline
70
4
71
3
72
30
73
26
40
0
40
0
40
0
40
0
40
0.0470419613791396
40
0.0470419613791396
40
0.090358235861906
40
0.090358235861906
40
0.133674510344673
40
0.133674510344673
40
0.220307059310206
40
0.220307059310206
40
0.306939608275738
40
0.306939608275738
40
0.480204706206804
40
0.480204706206804
40
0.566837255172337
40
0.566837255172337
40
0.65346980413787
40
0.65346980413787
40
0.740102353103403
40
0.740102353103403
40
0.826734902068935
40
0.826734902068935
40
0.913367451034468
40
0.913367451034468
40
1
40
1
40
1
40
1
41
1
10
60.8959366905369
20
4.09751020242359
30
0
41
1
10
61.0598239378877
20
4.15979585538426
30
0
41
1
10
61.2238953050262
20
4.22076048229377
30
0
41
1
10
61.5393068453845
20
4.33540362820753
30
0
41
1
10
61.6905269490077
20
4.38918769806909
30
0
41
1
10
61.9925015319373
20
4.49321040483633
30
0
41
1
10
62.1433645958869
20
4.54358437942736
30
0
41
1
10
62.5955325977548
20
4.68996607191082
30
0
41
1
10
62.8963730603452
20
4.78130211151097
30
0
41
1
10
63.4964275087639
20
4.95208382761209
30
0
41
1
10
63.7952476683716
20
5.03184508449067
30
0
41
1
10
64.6915855866
20
5.25098152581927
30
0
41
1
10
65.2899635148272
20
5.36999036789092
30
0
41
1
10
66.1856498153375
20
5.51007003782223
30
0
41
1
10
66.4841066401348
20
5.5500971467566
30
0
41
1
10
67.0832316373422
20
5.61579512249736
30
0
41
1
10
67.3835113156651
20
5.64168628377922
30
0
41
1
10
67.9850397341495
20
5.67955273474158
30
0
41
1
10
68.285982525494
20
5.69153788395994
30
0
41
1
10
68.8899415442926
20
5.7009026731576
30
0
41
1
10
69.1933306174632
20
5.69828527057507
30
0
41
1
10
69.7986893248944
20
5.67873524221372
30
0
41
1
10
70.1011547680206
20
5.66181866776046
30
0
41
1
10
70.705086333366
20
5.61341166167557
30
0
41
1
10
71.006609122345
20
5.58184589813558
30
0
41
1
10
71.3091203667973
20
5.54346170276094
30
0
0
SPLINE
5
A1
100
AcDbEntity
8
1
62
256
6
ByLayer
370
18
48
1
60
0
100
AcDbSpline
70
4
71
3
72
8
73
4
40
0
40
0
40
0
40
0
40
1
40
1
40
1
40
1
41
1
10
2.66516708444351
20
3.73933584540936
30
0
41
1
10
2.63026035022196
20
3.75241359652
30
0
41
1
10
2.59534079904267
20
3.76543661552029
30
0
41
1
10
2.56040858032606
20
3.7784038726291
30
0
0
SPLINE
5
A2
100
AcDbEntity
8
1
62
256
6
ByLayer
370
18
48
1
60
0
100
AcDbSpline
70
4
71
3
72
34
73
30
40
0
40
0
40
0
40
0
40
0.0624999999999993
40
0.0624999999999993
40
0.0937499999999989
40
0.0937499999999989
40
0.124999999999999
40
0.124999999999999
40
0.187499999999999
40
0.187499999999999
40
0.218749999999999
40
0.218749999999999
40
0.249999999999999
40
0.249999999999999
40
0.374999999999999
40
0.374999999999999
40
0.4375
40
0.4375
40
0.500000000000002
40
0.500000000000002
40
0.625000000000001
40
0.625000000000001
40
0.687500000000001
40
0.687500000000001
40
0.750000000000001
40
0.750000000000001
40
0.875
40
0.875
40
1
40
1
40
1
40
1
41
1
10
65.6383432540956
20
2.13088887746125
30
0
41
1
10
65.6204526314559
20
1.97094053684731
30
0
41
1
10
65.6138679071512
20
1.80727264201076
30
0
41
1
10
65.6214719861256
20
1.55601962981186
30
0
41
1
10
65.6269581471622
20
1.47099929517591
30
0
41
1
10
65.643774157931
20
1.30041875154976
30
0
41
1
10
65.6550256361568
20
1.21541134300918
30
0
41
1
10
65.6968628693
20
0.961193178813062
30
0
41
1
10
65.7355083172254
20
0.792784186095844
30
0
41
1
10
65.8083245822978
20
0.541647757102481
30
0
41
1
10
65.8350776316967
20
0.458182415392571
30
0
41
1
10
65.893397156657
20
0.291730562456735
30
0
41
1
10
65.9249695236064
20
0.208793330551003
30
0
41
1
10
66.0918131768403
20
-0.1985951670502
30
0
41
1
10
66.2553290568467
20
-0.506687809548083
30
0
41
1
10
66.5347486715982
20
-0.948573920673539
30
0
41
1
10
66.6340834356094
20
-1.09293114908871
30
0
41
1
10
66.839407741622
20
-1.37049153839652
30
0
41
1
10
66.9457222302351
20
-1.50431086016491
30
0
41
1
10
67.2743236398437
20
-1.89265069052098
30
0
41
1
10
67.5063465366813
20
-2.13394707521454
30
0
41
1
10
67.8699911052325
20
-2.47468869014665
30
0
41
1
10
67.9940952497806
20
-2.58499506382287
30
0
41
1
10
68.2456440690924
20
-2.79792561329182
30
0
41
1
10
68.3727396358522
20
-2.90027469219604
30
0
41
1
10
68.7575875050529
20
-3.19622675436722
30
0
41
1
10
69.0188805007083
20
-3.37879835718542
30
0
41
1
10
69.5495062393274
20
-3.71889293367065
30
0
41
1
10
69.8188459065495
20
-3.87639433412414
30
0
41
1
10
70.0918050905408
20
-4.02261877153666
30
0
0
SPLINE
5
A3
100
AcDbEntity
8
1
62
256
6
ByLayer
370
18
48
1
60
0
100
AcDbSpline
70
4
71
3
72
10
73
6
40
0
40
0
40
0
40
0
40
0.5
40
0.5
40
1
40
1
40
1
40
1
41
1
10
71.3091203667975
20
-5.54346170276094
30
0
41
1
10
71.2714988840038
20
-5.58368987159025
30
0
41
1
10
71.2329814838555
20
-5.61638224054815
30
0
41
1
10
71.1538466264827
20
-5.66626240179403
30
0
41
1
10
71.1138270034688
20
-5.68307279075404
30
0
41
1
10
71.0732677885828
20
-5.69205663791135
30
0
0
SPLINE
5
A4
100
AcDbEntity
8
1
62
256
6
ByLayer
370
18
48
1
60
0
100
AcDbSpline
70
4
71
3
72
12
73
8
40
0
40
0
40
0
40
0
40
0.25
40
0.25
40
0.5
40
0.5
40
1
40
1
40
1
40
1
41
1
10
71.3091203667974
20
5.54346170276091
30
0
41
1
10
71.4244204497315
20
5.21063920298039
30
0
41
1
10
71.5419739829526
20
4.87657495722422
30
0
41
1
10
71.7801954922164
20
4.2087949675149
30
0
41
1
10
71.9007163328439
20
3.87550594301098
30
0
41
1
10
72.2658112568981
20
2.87713234159614
30
0
41
1
10
72.5141737130593
20
2.21298968440712
30
0
41
1
10
72.7639811394499
20
1.55251519256763
30
0
0
SPLINE
5
A5
100
AcDbEntity
8
1
62
256
6
ByLayer
370
13
48
1
60
0
100
AcDbSpline
70
4
71
3
72
8
73
4
40
0
40
0
40
0
40
0
40
1
40
1
40
1
40
1
41
1
10
2.43949532082843
20
-5.45438789350169
30
0
41
1
10
2.440422016409
20
-5.40048644972646
30
0
41
1
10
2.44135826375626
20
-5.34658241806125
30
0
41
1
10
2.44230409411057
20
-5.29267568515593
30
0
0
SPLINE
5
A6
100
AcDbEntity
8
1
62
256
6
ByLayer
370
18
48
1
60
0
100
AcDbSpline
70
4
71
3
72
92
73
88
40
0
40
0
40
0
40
0
40
0.0176546668617237
40
0.0176546668617237
40
0.0398349775131713
40
0.0398349775131713
40
0.0841955988160665
40
0.0841955988160665
40
0.106375909467514
40
0.106375909467514
40
0.128556220118961
40
0.128556220118961
40
0.150736530770408
40
0.150736530770408
40
0.172916841421855
40
0.172916841421855
40
0.195097152073303
40
0.195097152073303
40
0.21727746272475
40
0.21727746272475
40
0.239457773376197
40
0.239457773376197
40
0.261638084027644
40
0.261638084027644
40
0.283818394679091
40
0.283818394679091
40
0.305998705330539
40
0.305998705330539
40
0.328179015981986
40
0.328179015981986
40
0.350359326633433
40
0.350359326633433
40
0.37253963728488
40
0.37253963728488
40
0.394719947936328
40
0.394719947936328
40
0.416900258587775
40
0.416900258587775
40
0.439080569239222
40
0.439080569239222
40
0.46126087989067
40
0.46126087989067
40
0.483441190542117
40
0.483441190542117
40
0.527801811845011
40
0.527801811845011
40
0.549982122496458
40
0.549982122496458
40
0.572162433147906
40
0.572162433147906
40
0.594342743799353
40
0.594342743799353
40
0.6165230544508
40
0.6165230544508
40
0.638703365102248
40
0.638703365102248
40
0.660883675753695
40
0.660883675753695
40
0.70524429705659
40
0.70524429705659
40
0.727424607708038
40
0.727424607708038
40
0.749604918359485
40
0.749604918359485
40
0.771785229010933
40
0.771785229010933
40
0.79396553966238
40
0.79396553966238
40
0.816145850313828
40
0.816145850313828
40
0.827236005639552
40
0.827236005639552
40
0.838326160965276
40
0.838326160965276
40
0.860506471616723
40
0.860506471616723
40
0.882686782268169
40
0.882686782268169
40
0.927047403571063
40
0.927047403571063
40
0.94922771422251
40
0.94922771422251
40
0.971408024873956
40
0.971408024873956
40
0.993588335525403
40
0.993588335525403
40
1
40
1
40
1
40
1
41
1
10
28.2208253036141
20
4.07314138286
30
0
41
1
10
28.4620405416941
20
4.16461264111106
30
0
41
1
10
28.7035862022682
20
4.25278434758042
30
0
41
1
10
29.2460098593004
20
4.44353771627519
30
0
41
1
10
29.5465628457986
20
4.54468595361919
30
0
41
1
10
30.4469095307824
20
4.82928657717727
30
0
41
1
10
31.0467558292546
20
4.99296859901509
30
0
41
1
10
31.9429257614144
20
5.20290640627624
30
0
41
1
10
32.2411672941905
20
5.26670855608168
30
0
41
1
10
32.8392985493838
20
5.38019893900631
30
0
41
1
10
33.1387927005196
20
5.43022080958255
30
0
41
1
10
33.7381469555968
20
5.51706126143253
30
0
41
1
10
34.0377409613346
20
5.55396639023689
30
0
41
1
10
34.6381532490034
20
5.61377454445235
30
0
41
1
10
34.9395496512036
20
5.63652423985809
30
0
41
1
10
35.5442848100336
20
5.66790248065351
30
0
41
1
10
35.8480662780534
20
5.67652148873674
30
0
41
1
10
36.4531824279191
20
5.67924574453016
30
0
41
1
10
36.7548038479437
20
5.67329434132589
30
0
41
1
10
37.3592288050191
20
5.64715179253352
30
0
41
1
10
37.6616259518392
20
5.62699572049777
30
0
41
1
10
38.2662482031345
20
5.5724515013728
30
0
41
1
10
38.5682507990108
20
5.53795305276176
30
0
41
1
10
39.1727029457231
20
5.45455850968915
30
0
41
1
10
39.4763435320878
20
5.40594098968938
30
0
41
1
10
40.0813296091255
20
5.29573639774498
30
0
41
1
10
40.3829582063961
20
5.23411487523512
30
0
41
1
10
40.9840191742058
20
5.09752662370076
30
0
41
1
10
41.2833049025524
20
5.02236341805627
30
0
41
1
10
41.8824797753317
20
4.86115358961473
30
0
41
1
10
42.1819999922267
20
4.77484255039985
30
0
41
1
10
42.7803698580497
20
4.59040109153685
30
0
41
1
10
43.0790872767394
20
4.4921088387359
30
0
41
1
10
43.6760621176448
20
4.28367839183744
30
0
41
1
10
43.9751545364073
20
4.17454658654876
30
0
41
1
10
44.5743357316246
20
3.94638747120652
30
0
41
1
10
44.8743577418466
20
3.82727724554874
30
0
41
1
10
45.4748578864779
20
3.57821190445989
30
0
41
1
10
45.7750417046452
20
3.44774875944375
30
0
41
1
10
46.3785059277922
20
3.17968836957883
30
0
41
1
10
46.6821835429948
20
3.04137035879208
30
0
41
1
10
47.2874994737005
20
2.75768669446339
30
0
41
1
10
47.5889750708078
20
2.61227853470805
30
0
41
1
10
48.4899167628531
20
2.16543276741524
30
0
41
1
10
49.0897747051747
20
1.86015756651264
30
0
41
1
10
49.9865173388484
20
1.38813148339358
30
0
41
1
10
50.284508495147
20
1.22765511318613
30
0
41
1
10
50.8818640438703
20
0.906280838428728
30
0
41
1
10
51.1810175703621
20
0.745017194395899
30
0
41
1
10
51.7796927839198
20
0.420277493878984
30
0
41
1
10
52.0792196650409
20
0.256810134964496
30
0
41
1
10
52.6783025668695
20
-0.07307076578806
30
0
41
1
10
52.978667856942
20
-0.237951783152425
30
0
41
1
10
53.5817320173156
20
-0.566255825039093
30
0
41
1
10
53.8845704590776
20
-0.730265460329605
30
0
41
1
10
54.490306202797
20
-1.05755712646427
30
0
41
1
10
54.7914170687559
20
-1.2208889951547
30
0
41
1
10
55.6940466345794
20
-1.70132823644352
30
0
41
1
10
56.2944912109627
20
-2.00993587055657
30
0
41
1
10
57.1901746435811
20
-2.4609565930071
30
0
41
1
10
57.4885941443628
20
-2.60807539838854
30
0
41
1
10
58.0863273478813
20
-2.89405209157911
30
0
41
1
10
58.3853704024352
20
-3.03337199502104
30
0
41
1
10
58.9834057450929
20
-3.30527911679846
30
0
41
1
10
59.281974042836
20
-3.43848484809217
30
0
41
1
10
59.8809241424656
20
-3.69516813169449
30
0
41
1
10
60.1813899320497
20
-3.81856498861379
30
0
41
1
10
60.7837555336331
20
-4.05627371137746
30
0
41
1
10
61.0856972968956
20
-4.17052942735796
30
0
41
1
10
61.5393068453845
20
-4.33540362820753
30
0
41
1
10
61.6905269490077
20
-4.38918769806909
30
0
41
1
10
61.9925015319373
20
-4.49321040483633
30
0
41
1
10
62.1433645958869
20
-4.54358437942739
30
0
41
1
10
62.5955325977548
20
-4.68996607191079
30
0
41
1
10
62.8963730603453
20
-4.781302111511
30
0
41
1
10
63.4964275087639
20
-4.95208382761209
30
0
41
1
10
63.7952476683716
20
-5.03184508449067
30
0
41
1
10
64.6915855866
20
-5.2509815258193
30
0
41
1
10
65.2899635148273
20
-5.36999036789095
30
0
41
1
10
66.1856498153376
20
-5.51007003782223
30
0
41
1
10
66.4841066401349
20
-5.55009714675663
30
0
41
1
10
67.0832316373424
20
-5.61579512249739
30
0
41
1
10
67.3835113156653
20
-5.64168628377925
30
0
41
1
10
67.9850397341496
20
-5.67955273474158
30
0
41
1
10
68.2859825254941
20
-5.69153788395994
30
0
41
1
10
68.6752552799205
20
-5.69757381880339
30
0
41
1
10
68.7626663102373
20
-5.69831737690737
30
0
41
1
10
68.8501439342692
20
-5.69845438738275
30
0
0
SPLINE
5
A7
100
AcDbEntity
8
1
62
256
6
ByLayer
370
18
48
1
60
0
100
AcDbSpline
70
4
71
3
72
12
73
8
40
0
40
0
40
0
40
0
40
0.250000000000001
40
0.250000000000001
40
0.500000000000002
40
0.500000000000002
40
1
40
1
40
1
40
1
41
1
10
72.9636578644895
20
-0.0640857272655353
30
0
41
1
10
72.74370876774
20
-0.414253464144878
30
0
41
1
10
72.5162581134712
20
-0.756643718409009
30
0
41
1
10
72.0513920001131
20
-1.4310928929373
30
0
41
1
10
71.8139261278737
20
-1.76309954573566
30
0
41
1
10
71.0908299935483
20
-2.74802746964582
30
0
41
1
10
70.5949626070835
20
-3.38977433491957
30
0
41
1
10
70.0918050905408
20
-4.02261877153671
30
0
0
SPLINE
5
A8
100
AcDbEntity
8
1
62
256
6
ByLayer
370
18
48
1
60
0
100
AcDbSpline
70
4
71
3
72
43
73
39
40
0
40
0
40
0
40
0
40
0.125
40
0.125
40
0.187499999999997
40
0.187499999999997
40
0.249999999999995
40
0.249999999999995
40
0.374999999999991
40
0.374999999999991
40
0.499999999999987
40
0.499999999999987
40
0.562499999999987
40
0.562499999999987
40
0.624999999999987
40
0.624999999999987
40
0.749999999999987
40
0.749999999999987
40
0.812499999999987
40
0.812499999999987
40
0.843749999999989
40
0.843749999999989
40
0.85937499999999
40
0.85937499999999
40
0.86718749999999
40
0.86718749999999
40
0.874999999999991
40
0.874999999999991
40
0.878906249999991
40
0.878906249999991
40
0.882812499999991
40
0.890624999999992
40
0.890624999999992
40
0.906249999999993
40
0.906249999999993
40
0.937499999999995
40
0.937499999999995
40
1
40
1
40
1
40
1
41
1
10
65.6383432540956
20
2.13088887746145
30
0
41
1
10
65.8613574881766
20
1.92366973777465
30
0
41
1
10
66.091023806622
20
1.72943421668018
30
0
41
1
10
66.4460286992569
20
1.458585530833
30
0
41
1
10
66.5661046911215
20
1.3717007943481
30
0
41
1
10
66.8097803705764
20
1.20480891324758
30
0
41
1
10
66.9337592546892
20
1.12457270729487
30
0
41
1
10
67.3083667974568
20
0.89627857414925
30
0
41
1
10
67.5601688425105
20
0.761259564785064
30
0
41
1
10
68.0679485496098
20
0.525977318800216
30
0
41
1
10
68.3239151620572
20
0.425622110782001
30
0
41
1
10
68.7114825519528
20
0.305199341901158
30
0
41
1
10
68.8412645277454
20
0.269992974693082
30
0
41
1
10
69.1021052561486
20
0.210207499678091
30
0
41
1
10
69.2335931989575
20
0.185563008257475
30
0
41
1
10
69.6270940626276
20
0.129815170408818
30
0
41
1
10
69.885973746433
20
0.116812015086055
30
0
41
1
10
70.2681180549695
20
0.140502504099857
30
0
41
1
10
70.3945672794162
20
0.155726010762948
30
0
41
1
10
70.5804631775555
20
0.190743432789702
30
0
41
1
10
70.6418940275341
20
0.204472888736177
30
0
41
1
10
70.7329548353179
20
0.228285633368301
30
0
41
1
10
70.7630736636902
20
0.236960242184438
30
0
41
1
10
70.8082622319813
20
0.249828618192396
30
0
41
1
10
70.8232500152664
20
0.25428145213246
30
0
41
1
10
70.8498060595502
20
0.27062876718233
30
0
41
1
10
70.8616192399856
20
0.28345588999656
30
0
41
1
10
70.8703252979842
20
0.309232483210622
30
0
41
1
10
70.8716120571586
20
0.31872423646675
30
0
41
1
10
70.8740518935635
20
0.337775395073208
30
0
41
1
10
70.8776151571074
20
0.366389597086083
30
0
41
1
10
70.8808926498419
20
0.395114753902732
30
0
41
1
10
70.8870760540199
20
0.452709339546999
30
0
41
1
10
70.8907031537319
20
0.491303836465164
30
0
41
1
10
70.9001575580962
20
0.60745710053672
30
0
41
1
10
70.904567207204
20
0.685443729732611
30
0
41
1
10
70.9126867863892
20
0.920890911016869
30
0
41
1
10
70.9112701601906
20
1.08027552941948
30
0
41
1
10
70.9043614147373
20
1.2394982515975
30
0
0
SPLINE
5
A9
100
AcDbEntity
8
1
62
256
6
ByLayer
370
18
48
1
60
0
100
AcDbSpline
70
4
71
3
72
12
73
8
40
0
40
0
40
0
40
0
40
0.250000000000001
40
0.250000000000001
40
0.500000000000001
40
0.500000000000001
40
1
40
1
40
1
40
1
41
1
10
2.43949532082843
20
-5.45438789350186
30
0
41
1
10
2.41970195932888
20
-5.45151626357256
30
0
41
1
10
2.40178843835611
20
-5.44798478365453
30
0
41
1
10
2.36961682115407
20
-5.43954286665647
30
0
41
1
10
2.35555025638922
20
-5.43464057373092
30
0
41
1
10
2.32147776572575
20
-5.41852127374818
30
0
41
1
10
2.30909281347658
20
-5.40561048172668
30
0
41
1
10
2.30909281347658
20
-5.39197714620525
30
0
0
SPLINE
5
AA
100
AcDbEntity
8
1
62
256
6
ByLayer
370
18
48
1
60
0
100
AcDbSpline
70
4
71
3
72
46
73
42
40
0
40
0
40
0
40
0
40
0.0322924417602509
40
0.0322924417602509
40
0.0645848835205018
40
0.0645848835205018
40
0.129169767041005
40
0.129169767041005
40
0.25833953408201
40
0.25833953408201
40
0.290631975842262
40
0.290631975842262
40
0.322924417602513
40
0.322924417602513
40
0.355216859362764
40
0.355216859362764
40
0.387509301123016
40
0.387509301123016
40
0.516679068164023
40
0.516679068164023
40
0.581263951684527
40
0.581263951684527
40
0.613556393444779
40
0.613556393444779
40
0.645848835205032
40
0.645848835205032
40
0.678141276965284
40
0.678141276965284
40
0.710433718725537
40
0.710433718725537
40
0.77501860224604
40
0.77501860224604
40
0.904188369287048
40
0.904188369287048
40
0.920334590167173
40
0.920334590167173
40
0.936480811047299
40
0.936480811047299
40
0.968773252807549
40
0.968773252807549
40
1
40
1
40
1
40
1
41
1
10
71.0732677885828
20
-5.69205663791132
30
0
41
1
10
70.7141945120112
20
-5.70214290521673
30
0
41
1
10
70.3552206804989
20
-5.70199716003876
30
0
41
1
10
69.6366942643929
20
-5.68130506252885
30
0
41
1
10
69.2766911607978
20
-5.66068949536725
30
0
41
1
10
68.2020281743465
20
-5.56904772040463
30
0
41
1
10
67.490529229216
20
-5.4683029274309
30
0
41
1
10
65.3609029885293
20
-5.05488487696735
30
0
41
1
10
63.9471959931028
20
-4.63111913907076
30
0
41
1
10
62.1535056302671
20
-3.9452232099039
30
0
41
1
10
61.7934138475171
20
-3.80021981866275
30
0
41
1
10
61.0756190168216
20
-3.49809169040623
30
0
41
1
10
60.7171870164844
20
-3.34067244194523
30
0
41
1
10
60.000341918279
20
-3.0144990995704
30
0
41
1
10
59.6419045509127
20
-2.84578230334245
30
0
41
1
10
58.9241089729803
20
-2.49846525947132
30
0
41
1
10
58.5640109502147
20
-2.31948857114151
30
0
41
1
10
56.7697093245604
20
-1.40860840517632
30
0
41
1
10
55.3556777721233
20
-0.629926868784594
30
0
41
1
10
53.2252726374909
20
0.535961451256327
30
0
41
1
10
52.5135129469859
20
0.924107098733657
30
0
41
1
10
51.4386734788979
20
1.49673223443989
30
0
41
1
10
51.0784762268275
20
1.6861509606492
30
0
41
1
10
50.3600614586572
20
2.05709616939984
30
0
41
1
10
50.0014251515341
20
2.23898023270323
30
0
41
1
10
49.2843902523727
20
2.5940632876177
30
0
41
1
10
48.9259215437706
20
2.76714648062941
30
0
41
1
10
48.2082398482373
20
3.10303313990747
30
0
41
1
10
47.8487457296949
20
3.2660769695068
30
0
41
1
10
46.7702207146041
20
3.73696484944736
30
0
41
1
10
46.0567437964557
20
4.02340049135719
30
0
41
1
10
43.9234419193629
20
4.7904845515622
30
0
41
1
10
42.5100323758764
20
5.17780315232878
30
0
41
1
10
40.8996336698663
20
5.44358175106032
30
0
41
1
10
40.7204177133549
20
5.47075262375222
30
0
41
1
10
40.3612952493281
20
5.52026026076496
30
0
41
1
10
40.181188625471
20
5.54261479316025
30
0
41
1
10
39.6424056906898
20
5.60199832312108
30
0
41
1
10
39.284592740049
20
5.63146451655672
30
0
41
1
10
38.5826266987372
20
5.66966268690155
30
0
41
1
10
38.238404854983
20
5.6790438963834
30
0
41
1
10
37.8946738493406
20
5.67910805134204
30
0
0
SPLINE
5
AB
100
AcDbEntity
8
1
62
256
6
ByLayer
370
18
48
1
60
0
100
AcDbSpline
70
4
71
3
72
14
73
10
40
0
40
0
40
0
40
0
40
0.281602895812697
40
0.281602895812697
40
0.640801447906348
40
0.640801447906348
40
0.820400723953174
40
0.820400723953174
40
1
40
1
40
1
40
1
41
1
10
8.4063916570465
20
-5.39815200326606
30
0
41
1
10
7.84885509825901
20
-5.48923049290374
30
0
41
1
10
7.29235718514013
20
-5.55684545901778
30
0
41
1
10
6.02468726586415
20
-5.65575929014278
30
0
41
1
10
5.3131919668825
20
-5.67197797400016
30
0
41
1
10
4.23926921533456
20
-5.63577846117943
30
0
41
1
10
3.87981416545281
20
-5.61359604955015
30
0
41
1
10
3.15950609250794
20
-5.54896629118832
30
0
41
1
10
2.79957316449267
20
-5.50662815156895
30
0
41
1
10
2.43949532082843
20
-5.45438789350186
30
0
0
SPLINE
5
AC
100
AcDbEntity
8
1
62
256
6
ByLayer
370
18
48
1
60
0
100
AcDbSpline
70
4
71
3
72
8
73
4
40
0
40
0
40
0
40
0
40
1
40
1
40
1
40
1
41
1
10
71.1471173198072
20
-5.50451104636301
30
0
41
1
10
71.1225673822421
20
-5.56713564883356
30
0
41
1
10
71.0979513273942
20
-5.62965114186463
30
0
41
1
10
71.0732677885829
20
-5.69205663791138
30
0
0
SPLINE
5
AD
100
AcDbEntity
8
1
62
256
6
ByLayer
370
18
48
1
60
0
100
AcDbSpline
70
4
71
3
72
8
73
4
40
0
40
0
40
0
40
0
40
1
40
1
40
1
40
1
41
1
10
72.9972082659929
20
0.157914103881922
30
0
41
1
10
72.9969601829697
20
0.137695956456156
30
0
41
1
10
72.9965429326946
20
0.117485997322603
30
0
41
1
10
72.9959513917236
20
0.0972844744739803
30
0
0
SPLINE
5
AE
100
AcDbEntity
8
1
62
256
6
ByLayer
370
13
48
1
60
0
100
AcDbSpline
70
4
71
3
72
10
73
6
40
0
40
0
40
0
40
0
40
0.499999999999999
40
0.499999999999999
40
1
40
1
40
1
40
1
41
1
10
2.56043806985707
20
3.52655577450886
30
0
41
1
10
2.56043381694619
20
3.56973759568922
30
0
41
1
10
2.56042924020829
20
3.61231650198067
30
0
41
1
10
2.56041941772713
20
3.69626705326343
30
0
41
1
10
2.56041413538068
20
3.73789248882935
30
0
41
1
10
2.56040858032603
20
3.7784038726291
30
0
0
SPLINE
5
AF
100
AcDbEntity
8
1
62
256
6
ByLayer
370
18
48
1
60
0
100
AcDbSpline
70
4
71
3
72
8
73
4
40
0
40
0
40
0
40
0
40
1
40
1
40
1
40
1
41
1
10
72.76398113945
20
1.55251519256763
30
0
41
1
10
72.7450447224521
20
1.46209253369105
30
0
41
1
10
72.7242695352118
20
1.37227715061977
30
0
41
1
10
72.7018345517052
20
1.28303224285781
30
0
0
SPLINE
5
B0
100
AcDbEntity
8
1
62
256
6
ByLayer
370
18
48
1
60
0
100
AcDbSpline
70
4
71
3
72
12
73
8
40
0
40
0
40
0
40
0
40
0.249999999999999
40
0.249999999999999
40
0.499999999999999
40
0.499999999999999
40
1
40
1
40
1
40
1
41
1
10
72.7639811394499
20
-1.55251519256782
30
0
41
1
10
72.7974902923449
20
-1.42767307311749
30
0
41
1
10
72.8281088530321
20
-1.30498052705175
30
0
41
1
10
72.8821170950013
20
-1.06574515364011
30
0
41
1
10
72.9056324591163
20
-0.948738111886627
30
0
41
1
10
72.9649247028094
20
-0.603198343414704
30
0
41
1
10
72.9893623851378
20
-0.380177124979752
30
0
41
1
10
72.997208265993
20
-0.157914103891414
30
0
0
SPLINE
5
B1
100
AcDbEntity
8
1
62
256
6
ByLayer
370
13
48
1
60
0
100
AcDbSpline
70
4
71
3
72
14
73
10
40
0
40
0
40
0
40
0
40
0.239062968113873
40
0.239062968113873
40
0.478125936227746
40
0.478125936227746
40
0.956251872455492
40
0.956251872455492
40
1
40
1
40
1
40
1
41
1
10
2.51268855416117
20
-5.28560215653084
30
0
41
1
10
2.8735332630097
20
-5.33506258038403
30
0
41
1
10
3.23412247000053
20
-5.37476761084048
30
0
41
1
10
3.95552063585785
20
-5.43461140040799
30
0
41
1
10
4.31693039132605
20
-5.45475243657626
30
0
41
1
10
5.39672182623463
20
-5.48548992915474
30
0
41
1
10
6.11136713438702
20
-5.46668724587718
30
0
41
1
10
6.88940174629073
20
-5.40454024361694
30
0
41
1
10
6.9546076689322
20
-5.39901140546513
30
0
41
1
10
7.01980020354708
20
-5.39316480014082
30
0
0
SPLINE
5
B2
100
AcDbEntity
8
1
62
256
6
ByLayer
370
18
48
1
60
0
100
AcDbSpline
70
4
71
3
72
16
73
12
40
0
40
0
40
0
40
0
40
0.554600965449184
40
0.554600965449184
40
0.845806561301122
40
0.845806561301122
40
0.918607960264106
40
0.918607960264106
40
0.991409359227091
40
0.991409359227091
40
1
40
1
40
1
40
1
41
1
10
54.2302972439761
20
-0.0136326893330931
30
0
41
1
10
55.591758842639
20
-0.734706525846548
30
0
41
1
10
56.9376069123405
20
-1.44722728704824
30
0
41
1
10
59.0003711519593
20
-2.45690531426996
30
0
41
1
10
59.7123088227039
20
-2.79088520288934
30
0
41
1
10
60.6085362389915
20
-3.18361612903001
30
0
41
1
10
60.788102370956
20
-3.26091688434786
30
0
41
1
10
61.1479966671219
20
-3.4128091206147
30
0
41
1
10
61.3284114568842
20
-3.48743484076465
30
0
41
1
10
61.5294223627902
20
-3.56879327569607
30
0
41
1
10
61.5506332902103
20
-3.57735606817604
30
0
41
1
10
61.5718392438318
20
-3.58589447476288
30
0
0
SPLINE
5
B3
100
AcDbEntity
8
1
62
256
6
ByLayer
370
13
48
1
60
0
100
AcDbSpline
70
4
71
3
72
16
73
12
40
0
40
0
40
0
40
0
40
0.105245532320405
40
0.105245532320405
40
0.552622766160202
40
0.552622766160202
40
0.776311383080101
40
0.776311383080101
40
0.888155691540051
40
0.888155691540051
40
1
40
1
40
1
40
1
41
1
10
61.5718383163498
20
-3.58589410131972
30
0
41
1
10
61.9100524499316
20
-3.72207331109343
30
0
41
1
10
62.2470013922141
20
-3.85204945305299
30
0
41
1
10
64.0114425573159
20
-4.50015718719357
30
0
41
1
10
65.4234560222361
20
-4.90625323095151
30
0
41
1
10
67.5552552697825
20
-5.29999144902854
30
0
41
1
10
68.268291892087
20
-5.39541789242091
30
0
41
1
10
69.3461965564267
20
-5.48073364756473
30
0
41
1
10
69.7070983752312
20
-5.49948145004271
30
0
41
1
10
70.4272117442401
20
-5.51693967711566
30
0
41
1
10
70.7870731048153
20
-5.51571691077115
30
0
41
1
10
71.1471173198068
20
-5.50451104636292
30
0
0
SPLINE
5
B4
100
AcDbEntity
8
1
62
256
6
ByLayer
370
18
48
1
60
0
100
AcDbSpline
70
4
71
3
72
56
73
52
40
0
40
0
40
0
40
0
40
0.031249999999996
40
0.031249999999996
40
0.0468749999999941
40
0.0468749999999941
40
0.0624999999999922
40
0.0624999999999922
40
0.0781249999999903
40
0.0781249999999903
40
0.0937499999999884
40
0.0937499999999884
40
0.109374999999986
40
0.109374999999986
40
0.124999999999985
40
0.124999999999985
40
0.140624999999983
40
0.140624999999983
40
0.156249999999981
40
0.156249999999981
40
0.187499999999977
40
0.187499999999977
40
0.218749999999973
40
0.218749999999973
40
0.249999999999969
40
0.249999999999969
40
0.265624999999967
40
0.265624999999967
40
0.269531249999967
40
0.269531249999967
40
0.273437499999966
40
0.273437499999966
40
0.277343749999966
40
0.277343749999966
40
0.281249999999966
40
0.281249999999966
40
0.312499999999966
40
0.312499999999966
40
0.374999999999969
40
0.374999999999969
40
0.437499999999971
40
0.437499999999971
40
0.499999999999974
40
0.499999999999974
40
0.62499999999998
40
0.62499999999998
40
0.749999999999987
40
0.749999999999987
40
0.874999999999993
40
0.874999999999993
40
1
40
1
40
1
40
1
41
1
10
2.30909281347704
20
2.58129882560144
30
0
41
1
10
2.23492558916814
20
2.69581744606728
30
0
41
1
10
2.17003209118565
20
2.81266099606677
30
0
41
1
10
2.09254251464984
20
2.99324343846936
30
0
41
1
10
2.07012974599138
20
3.05431568551663
30
0
41
1
10
2.0342336980919
20
3.17540091494342
30
0
41
1
10
2.02057602203723
20
3.23577907053391
30
0
41
1
10
2.0029060392865
20
3.35625496046777
30
0
41
1
10
1.99889640521587
20
3.41680408607792
30
0
41
1
10
2.00164687990332
20
3.53539893593018
30
0
41
1
10
2.00831429274268
20
3.59304692085175
30
0
41
1
10
2.03200630546601
20
3.7052081817483
30
0
41
1
10
2.04902726635388
20
3.75972178701022
30
0
41
1
10
2.09327097050129
20
3.86575472881953
30
0
41
1
10
2.12049115074717
20
3.91704701456572
30
0
41
1
10
2.18279394292671
20
4.0140976416952
30
0
41
1
10
2.21802647765605
20
4.06025380945414
30
0
41
1
10
2.29571002185327
20
4.14846420332773
30
0
41
1
10
2.33839200017962
20
4.1906882074571
30
0
41
1
10
2.47366654882521
20
4.30990119349815
30
0
41
1
10
2.57372168078155
20
4.38014552314093
30
0
41
1
10
2.7881255018811
20
4.50782065831632
30
0
41
1
10
2.90289730359512
20
4.56534034096302
30
0
41
1
10
3.14197152022592
20
4.6699834540666
30
0
41
1
10
3.26591443501752
20
4.71698377584971
30
0
41
1
10
3.45679140372363
20
4.78145906729725
30
0
41
1
10
3.52117518028911
20
4.80191188199768
30
0
41
1
10
3.60250438607829
20
4.82634469461786
30
0
41
1
10
3.61850154015664
20
4.83150549196156
30
0
41
1
10
3.65173279671279
20
4.84045052063777
30
0
41
1
10
3.66891700875749
20
4.84396643642788
30
0
41
1
10
3.7045847057469
20
4.84885313660124
30
0
41
1
10
3.72309215522068
20
4.85045142666007
30
0
41
1
10
3.76021871039205
20
4.85208389569749
30
0
41
1
10
3.77876459202901
20
4.85208933166845
30
0
41
1
10
3.94565444063184
20
4.85106461116524
30
0
41
1
10
4.09401227539507
20
4.84929747717911
30
0
41
1
10
4.53880310366964
20
4.8414385176535
30
0
41
1
10
4.83487236276977
20
4.83279952605844
30
0
41
1
10
5.42611660193953
20
4.8085837447725
30
0
41
1
10
5.72166790811221
20
4.79297676988398
30
0
41
1
10
6.30975440058543
20
4.75460309097079
30
0
41
1
10
6.60222279180761
20
4.73184066529447
30
0
41
1
10
7.47504919269093
20
4.6522114436915
30
0
41
1
10
8.05084229621065
20
4.58408161940244
30
0
41
1
10
9.19119890025809
20
4.41338331090717
30
0
41
1
10
9.75574095941403
20
4.31072308490471
30
0
41
1
10
10.8751446445398
20
4.06678041950582
30
0
41
1
10
11.4299873752957
20
3.92540579545596
30
0
41
1
10
12.5322324456143
20
3.60158090953118
30
0
41
1
10
13.0772186307324
20
3.41986232025698
30
0
41
1
10
13.6172220575513
20
3.2193215491119
30
0
0
SPLINE
5
B5
100
AcDbEntity
8
1
62
256
6
ByLayer
370
13
48
1
60
0
100
AcDbSpline
70
4
71
3
72
8
73
4
40
0
40
0
40
0
40
0
40
1
40
1
40
1
40
1
41
1
10
2.55940876824735
20
-5.16658287084795
30
0
41
1
10
2.5186048413868
20
-5.16306756594676
30
0
41
1
10
2.47876808048895
20
-5.16903329841432
30
0
41
1
10
2.44230409411048
20
-5.18439084870161
30
0
0
SPLINE
5
B6
100
AcDbEntity
8
1
62
256
6
ByLayer
370
18
48
1
60
0
100
AcDbSpline
70
4
71
3
72
96
73
92
40
0
40
0
40
0
40
0
40
0.0034289085947612
40
0.0034289085947612
40
0.023717818533567
40
0.023717818533567
40
0.0440067284723728
40
0.0440067284723728
40
0.0845845483499845
40
0.0845845483499845
40
0.10487345828879
40
0.10487345828879
40
0.125162368227596
40
0.125162368227596
40
0.145451278166402
40
0.145451278166402
40
0.165740188105208
40
0.165740188105208
40
0.20631800798282
40
0.20631800798282
40
0.226606917921626
40
0.226606917921626
40
0.246895827860432
40
0.246895827860432
40
0.267184737799238
40
0.267184737799238
40
0.287473647738044
40
0.287473647738044
40
0.307762557676849
40
0.307762557676849
40
0.328051467615655
40
0.328051467615655
40
0.368629287493267
40
0.368629287493267
40
0.409207107370879
40
0.409207107370879
40
0.429496017309684
40
0.429496017309684
40
0.449784927248489
40
0.449784927248489
40
0.470073837187295
40
0.470073837187295
40
0.4903627471261
40
0.4903627471261
40
0.510651657064905
40
0.510651657064905
40
0.530940567003711
40
0.530940567003711
40
0.551229476942516
40
0.551229476942516
40
0.571518386881322
40
0.571518386881322
40
0.591807296820127
40
0.591807296820127
40
0.612096206758932
40
0.612096206758932
40
0.632385116697738
40
0.632385116697738
40
0.652674026636543
40
0.652674026636543
40
0.672962936575349
40
0.672962936575349
40
0.693251846514154
40
0.693251846514154
40
0.713540756452959
40
0.713540756452959
40
0.733829666391765
40
0.733829666391765
40
0.774407486269375
40
0.774407486269375
40
0.79469639620818
40
0.79469639620818
40
0.814985306146985
40
0.814985306146985
40
0.83527421608579
40
0.83527421608579
40
0.855563126024594
40
0.855563126024594
40
0.875852035963399
40
0.875852035963399
40
0.896140945902204
40
0.896140945902204
40
0.936718765779815
40
0.936718765779815
40
0.95700767571862
40
0.95700767571862
40
0.977296585657426
40
0.977296585657426
40
0.997585495596231
40
0.997585495596231
40
1
40
1
40
1
40
1
41
1
10
60.8962658325622
20
-4.10151845602431
30
0
41
1
10
60.8503947874393
20
-4.11696603304173
30
0
41
1
10
60.8045153216567
20
-4.13228538425983
30
0
41
1
10
60.4870944094175
20
-4.23735818613051
30
0
41
1
10
60.2153118233661
20
-4.32299882733423
30
0
41
1
10
59.6713652232311
20
-4.48641238140036
30
0
41
1
10
59.3989948337078
20
-4.56419260879397
30
0
41
1
10
58.5829350288485
20
-4.78393219674305
30
0
41
1
10
58.0396885196345
20
-4.91070332480715
30
0
41
1
10
57.2251919041673
20
-5.06845269799928
30
0
41
1
10
56.9538851994257
20
-5.11537930232961
30
0
41
1
10
56.4106964364931
20
-5.19790853903046
30
0
41
1
10
56.1388238197143
20
-5.23459207000815
30
0
41
1
10
55.594393955775
20
-5.29792819728993
30
0
41
1
10
55.3217396937343
20
-5.32446202749531
30
0
41
1
10
54.7789311661372
20
-5.36562815042419
30
0
41
1
10
54.5084988140564
20
-5.38026457025541
30
0
41
1
10
53.6981210439578
20
-5.4095789255087
30
0
41
1
10
53.1593298912606
20
-5.40828281702358
30
0
41
1
10
52.3530136295917
20
-5.37042085075467
30
0
41
1
10
52.0846177651706
20
-5.3523848484933
30
0
41
1
10
51.5474058229571
20
-5.30665411769945
30
0
41
1
10
51.2787069046807
20
-5.27884138961468
30
0
41
1
10
50.7409517977787
20
-5.2121516749628
30
0
41
1
10
50.4718640835237
20
-5.17301635570595
30
0
41
1
10
49.9334536210484
20
-5.08438819193003
30
0
41
1
10
49.6640588022188
20
-5.03518778534502
30
0
41
1
10
49.1238786353824
20
-4.92699832041114
30
0
41
1
10
48.8531921044597
20
-4.86789253065973
30
0
41
1
10
48.3103345273533
20
-4.73863066923295
30
0
41
1
10
48.0377045762271
20
-4.66838337074765
30
0
41
1
10
47.2221011528678
20
-4.44459389617822
30
0
41
1
10
46.6807570598531
20
-4.27880341793411
30
0
41
1
10
45.601751024125
20
-3.91282785866704
30
0
41
1
10
45.0646265386499
20
-3.71395801192031
30
0
41
1
10
44.2582762063399
20
-3.39541934678161
30
0
41
1
10
43.9894323543772
20
-3.2855038171499
30
0
41
1
10
43.4519047522608
20
-3.05962894753165
30
0
41
1
10
43.183379827607
20
-2.94333803901009
30
0
41
1
10
42.6454901834761
20
-2.7049148200384
30
0
41
1
10
42.3761143378414
20
-2.58292503447075
30
0
41
1
10
41.8362411744275
20
-2.33345667134049
30
0
41
1
10
41.5658133775189
20
-2.2061741959927
30
0
41
1
10
41.0243422899546
20
-1.94666800803296
30
0
41
1
10
40.7532843877488
20
-1.81402675405448
30
0
41
1
10
40.2089870720735
20
-1.54518302837863
30
0
41
1
10
39.9362777851799
20
-1.40905662586101
30
0
41
1
10
39.3920498739917
20
-1.1349822753194
30
0
41
1
10
39.1202232124397
20
-0.996845541370021
30
0
41
1
10
38.5771881958051
20
-0.718061399254509
30
0
41
1
10
38.3059315178359
20
-0.577513504632577
30
0
41
1
10
37.7625698822845
20
-0.296549902744573
30
0
41
1
10
37.490657448652
20
-0.155874071545554
30
0
41
1
10
36.9465231132548
20
0.126026023741872
30
0
41
1
10
36.6740957238702
20
0.267379892630487
30
0
41
1
10
36.1296719884034
20
0.550057367611572
30
0
41
1
10
35.8577658729864
20
0.690439356675057
30
0
41
1
10
35.3140075127944
20
0.968614205925149
30
0
41
1
10
35.042243816273
20
1.10673096497956
30
0
41
1
10
34.4989571237143
20
1.38076730774986
30
0
41
1
10
34.2275399187472
20
1.51689745968096
30
0
41
1
10
33.6844290209729
20
1.78564102468943
30
0
41
1
10
33.4124670871016
20
1.91776237926382
30
0
41
1
10
32.8679314164959
20
2.17857332665261
30
0
41
1
10
32.5951478613051
20
2.30722050882409
30
0
41
1
10
32.0508984399149
20
2.55923030234837
30
0
41
1
10
31.7793301740672
20
2.68243872863567
30
0
41
1
10
30.964589652335
20
3.04292406589857
30
0
41
1
10
30.4214303066255
20
3.27226830339794
30
0
41
1
10
29.6059220047991
20
3.5939852364298
30
0
41
1
10
29.3340328705933
20
3.6976197694614
30
0
41
1
10
28.7892131795657
20
3.89799161941957
30
0
41
1
10
28.5171837554049
20
3.99424610065125
30
0
41
1
10
27.9746625778152
20
4.17788407271695
30
0
41
1
10
27.7040701027702
20
4.26493019774668
30
0
41
1
10
27.1641700078633
20
4.42919363470679
30
0
41
1
10
26.8947937860418
20
4.50731271523929
30
0
41
1
10
26.3561768322853
20
4.65452871064437
30
0
41
1
10
26.087058756588
20
4.72369500078858
30
0
41
1
10
25.5490951854677
20
4.8516410331776
30
0
41
1
10
25.2802057240151
20
4.90978175330196
30
0
41
1
10
24.474104903302
20
5.07123843291589
30
0
41
1
10
23.9362666466107
20
5.1610779252814
30
0
41
1
10
23.1267799247394
20
5.26093176122563
30
0
41
1
10
22.8566256851429
20
5.28869074106075
30
0
41
1
10
22.315654142132
20
5.33489471835989
30
0
41
1
10
22.0445090683316
20
5.35292915632331
30
0
41
1
10
21.5006268966105
20
5.3780920539219
30
0
41
1
10
21.2277054390464
20
5.38458469949364
30
0
41
1
10
20.923204181352
20
5.385133140942
30
0
41
1
10
20.8908283847179
20
5.38512172723944
30
0
41
1
10
20.8584596356898
20
5.38504015993249
30
0
0
SPLINE
5
B7
100
AcDbEntity
8
1
62
256
6
ByLayer
370
18
48
1
60
0
100
AcDbSpline
70
4
71
3
72
8
73
4
40
0
40
0
40
0
40
0
40
1
40
1
40
1
40
1
41
1
10
71.0403533807503
20
1.33522485770914
30
0
41
1
10
71.5942332945941
20
1.31729440576029
30
0
41
1
10
72.1482644238754
20
1.29783936883504
30
0
41
1
10
72.7018345517052
20
1.28303224285779
30
0
0
SPLINE
5
B8
100
AcDbEntity
8
1
62
256
6
ByLayer
370
13
48
1
60
0
100
AcDbSpline
70
4
71
3
72
36
73
32
40
0
40
0
40
0
40
0
40
0.0625
40
0.0625
40
0.125
40
0.125
40
0.25
40
0.25
40
0.28125
40
0.28125
40
0.3125
40
0.3125
40
0.375
40
0.375
40
0.4375
40
0.4375
40
0.46875
40
0.46875
40
0.5
40
0.5
40
0.5625
40
0.5625
40
0.625
40
0.625
40
0.75
40
0.75
40
0.8125
40
0.8125
40
0.875
40
0.875
40
1
40
1
40
1
40
1
41
1
10
2.55940876824735
20
-5.16658287084795
30
0
41
1
10
2.55945279469333
20
-5.10903737530961
30
0
41
1
10
2.55949421433311
20
-5.04004378295687
30
0
41
1
10
2.55957293460503
20
-4.87958586037439
30
0
41
1
10
2.55961032369532
20
-4.78785595674279
30
0
41
1
10
2.55971721709227
20
-4.47991586323869
30
0
41
1
10
2.5597800480158
20
-4.23609836343689
30
0
41
1
10
2.55985354272571
20
-3.88457676476443
30
0
41
1
10
2.55986798195136
20
-3.81190499590741
30
0
41
1
10
2.55989645251793
20
-3.66174045561016
30
0
41
1
10
2.55991052860114
20
-3.58398053670007
30
0
41
1
10
2.55995185853277
20
-3.34586768377582
30
0
41
1
10
2.55997827596374
20
-3.18052970776785
30
0
41
1
10
2.56002967118465
20
-2.83706514301841
30
0
41
1
10
2.56005464710566
20
-2.65893761621319
30
0
41
1
10
2.56009145170015
20
-2.38206196313155
30
0
41
1
10
2.56010360811445
20
-2.28815203699884
30
0
41
1
10
2.56012774566719
20
-2.09703049925972
30
0
41
1
10
2.56013974097488
20
-1.99969049738201
30
0
41
1
10
2.5601751706634
20
-1.70548243031288
30
0
41
1
10
2.56019816947591
20
-1.50558065579662
30
0
41
1
10
2.56024303482866
20
-1.09822772795857
30
0
41
1
10
2.56026489054773
20
-0.890744763630948
30
0
41
1
10
2.56032717810322
20
-0.270097236114879
30
0
41
1
10
2.56036484543157
20
0.14428624404232
30
0
41
1
10
2.56041258533566
20
0.766789874491764
30
0
41
1
10
2.56042701647448
20
0.975003094614095
30
0
41
1
10
2.56045144026359
20
1.38378422119152
30
0
41
1
10
2.56046153772235
20
1.58592690192324
30
0
41
1
10
2.56048371589776
20
2.17918850930073
30
0
41
1
10
2.56048765322288
20
2.55160476043187
30
0
41
1
10
2.56047683963703
20
2.90150875082912
30
0
0
SPLINE
5
B9
100
AcDbEntity
8
1
62
256
6
ByLayer
370
18
48
1
60
0
100
AcDbSpline
70
4
71
3
72
12
73
8
40
0
40
0
40
0
40
0
40
0.25
40
0.25
40
0.5
40
0.5
40
1
40
1
40
1
40
1
41
1
10
72.9972082659933
20
0.157914103881325
30
0
41
1
10
72.9932702510407
20
0.269472655010191
30
0
41
1
10
72.9851292256166
20
0.381885863369604
30
0
41
1
10
72.9607248307612
20
0.608627892371715
30
0
41
1
10
72.9445169953489
20
0.722638339149682
30
0
41
1
10
72.8848455360402
20
1.06883028228242
30
0
41
1
10
72.8303578837096
20
1.30522116333503
30
0
41
1
10
72.7639811394499
20
1.55251519256763
30
0
0
SPLINE
5
BA
100
AcDbEntity
8
1
62
256
6
ByLayer
370
18
48
1
60
0
100
AcDbSpline
70
4
71
3
72
8
73
4
40
0
40
0
40
0
40
0
40
1
40
1
40
1
40
1
41
1
10
72.9959513917228
20
-0.0972844744752877
30
0
41
1
10
72.9954775219836
20
-0.0811015034986724
30
0
41
1
10
72.9969827892957
20
-0.061558439938608
30
0
41
1
10
72.9998123698568
20
-0.0409076356408775
30
0
0
SPLINE
5
BB
100
AcDbEntity
8
1
62
256
6
ByLayer
370
18
48
1
60
0
100
AcDbSpline
70
4
71
3
72
8
73
4
40
0
40
0
40
0
40
0
40
1
40
1
40
1
40
1
41
1
10
2.30925959245522
20
4.04641105781445
30
0
41
1
10
2.42631601094055
20
3.94209707471498
30
0
41
1
10
2.54498163417588
20
3.83976999126932
30
0
41
1
10
2.66516708444351
20
3.73933584540936
30
0
0
SPLINE
5
BC
100
AcDbEntity
8
1
62
256
6
ByLayer
370
13
48
1
60
0
100
AcDbSpline
70
4
71
3
72
12
73
8
40
0
40
0
40
0
40
0
40
0.500000000000015
40
0.500000000000015
40
0.750000000000007
40
0.750000000000007
40
1
40
1
40
1
40
1
41
1
10
2.30909281347701
20
-5.35853879776735
30
0
41
1
10
2.30909281347701
20
-5.34594545311188
30
0
41
1
10
2.32076292666079
20
-5.33283807594023
30
0
41
1
10
2.35430824013224
20
-5.31564535897186
30
0
41
1
10
2.36838431726022
20
-5.31017116836077
30
0
41
1
10
2.40174215965465
20
-5.30039950009959
30
0
41
1
10
2.42069582657325
20
-5.29615413391343
30
0
41
1
10
2.44230409411051
20
-5.29267568515593
30
0
0
SPLINE
5
BD
100
AcDbEntity
8
1
62
256
6
ByLayer
370
18
48
1
60
0
100
AcDbSpline
70
4
71
3
72
8
73
4
40
0
40
0
40
0
40
0
40
1
40
1
40
1
40
1
41
1
10
2.30909281347704
20
2.58129882560144
30
0
41
1
10
2.30909281347704
20
2.60463566053389
30
0
41
1
10
2.30909281347704
20
2.62817634215446
30
0
41
1
10
2.30909281347704
20
2.65191786296566
30
0
0
SPLINE
5
BE
100
AcDbEntity
8
1
62
256
6
ByLayer
370
18
48
1
60
0
100
AcDbSpline
70
4
71
3
72
12
73
8
40
0
40
0
40
0
40
0
40
0.249999999999999
40
0.249999999999999
40
0.499999999999997
40
0.499999999999997
40
1
40
1
40
1
40
1
41
1
10
2.44230409411048
20
-5.18439084870161
30
0
41
1
10
2.42070117098217
20
-5.19348935962282
30
0
41
1
10
2.4017412588567
20
-5.20461331288612
30
0
41
1
10
2.36836840211879
20
-5.23029634776145
30
0
41
1
10
2.35428574400487
20
-5.24471836302737
30
0
41
1
10
2.32073829297391
20
-5.29013673974438
30
0
41
1
10
2.30909281347704
20
-5.32493851807962
30
0
41
1
10
2.30909281347704
20
-5.35853879776735
30
0
0
SPLINE
5
BF
100
AcDbEntity
8
1
62
256
6
ByLayer
370
18
48
1
60
0
100
AcDbSpline
70
4
71
3
72
12
73
8
40
0
40
0
40
0
40
0
40
0.250000000000001
40
0.250000000000001
40
0.500000000000002
40
0.500000000000002
40
1
40
1
40
1
40
1
41
1
10
71.3091203667975
20
-5.54346170276094
30
0
41
1
10
71.4247802478777
20
-5.20960061813847
30
0
41
1
10
71.5427631767578
20
-4.8743349474953
30
0
41
1
10
71.7815938123053
20
-4.20490321703335
30
0
41
1
10
71.9022277369193
20
-3.87134350651326
30
0
41
1
10
72.2671805788397
20
-2.87344721449881
30
0
41
1
10
72.5145972617173
20
-2.21186984946615
30
0
41
1
10
72.7639811394499
20
-1.55251519256788
30
0
0
SPLINE
5
C0
100
AcDbEntity
8
1
62
256
6
ByLayer
370
18
48
1
60
0
100
AcDbSpline
70
4
71
3
72
8
73
4
40
0
40
0
40
0
40
0
40
1
40
1
40
1
40
1
41
1
10
71.0732677885829
20
5.69205663791132
30
0
41
1
10
70.8908849645322
20
5.69717972012131
30
0
41
1
10
70.708509568807
20
5.69966356264672
30
0
41
1
10
70.5260906329621
20
5.69951074281147
30
0
0
SPLINE
5
C1
100
AcDbEntity
8
1
62
256
6
ByLayer
370
18
48
1
60
0
100
AcDbSpline
70
4
71
3
72
46
73
42
40
0
40
0
40
0
40
0
40
0.0005984429541991
40
0.0005984429541991
40
0.0604428511805764
40
0.0604428511805764
40
0.120287259406954
40
0.120287259406954
40
0.180131667633331
40
0.180131667633331
40
0.210053871746519
40
0.210053871746519
40
0.239976075859708
40
0.239976075859708
40
0.299820484086084
40
0.299820484086084
40
0.329742688199273
40
0.329742688199273
40
0.359664892312461
40
0.359664892312461
40
0.479353708765215
40
0.479353708765215
40
0.509275912878403
40
0.509275912878403
40
0.539198116991592
40
0.539198116991592
40
0.59904252521797
40
0.59904252521797
40
0.718731341670725
40
0.718731341670725
40
0.748653545783913
40
0.748653545783913
40
0.778575749897102
40
0.778575749897102
40
0.80849795401029
40
0.80849795401029
40
0.838420158123479
40
0.838420158123479
40
0.958108974576233
40
0.958108974576233
40
1
40
1
40
1
40
1
41
1
10
41.0681899796588
20
-5.41576067762182
30
0
41
1
10
41.0610903408617
20
-5.41692870907775
30
0
41
1
10
41.0539907945921
20
-5.4180929317896
30
0
41
1
10
40.3369442874276
20
-5.53529479419305
30
0
41
1
10
39.6278522395443
20
-5.61320889603829
30
0
41
1
10
38.2046762428647
20
-5.68979918126465
30
0
41
1
10
37.4901916044549
20
-5.68844985922277
30
0
41
1
10
36.0508798550853
20
-5.60381275470556
30
0
41
1
10
35.3340705543828
20
-5.52106680132349
30
0
41
1
10
34.2579362880972
20
-5.33889460152707
30
0
41
1
10
33.899036300424
20
-5.26851747901756
30
0
41
1
10
33.180056092117
20
-5.10887685004201
30
0
41
1
10
32.8199911213876
20
-5.01955750031703
30
0
41
1
10
31.7425511066332
20
-4.72589656998605
30
0
41
1
10
31.0260261883804
20
-4.49537071222534
30
0
41
1
10
29.9485980666686
20
-4.10318565127005
30
0
41
1
10
29.5882539608353
20
-3.96445264537672
30
0
41
1
10
28.8700454001619
20
-3.67422677830228
30
0
41
1
10
28.51229084164
20
-3.52281054391597
30
0
41
1
10
26.7279567731167
20
-2.7380775753056
30
0
41
1
10
25.3146901054308
20
-2.02175751964353
30
0
41
1
10
23.5321769758683
20
-1.07331851661894
30
0
41
1
10
23.1748717706205
20
-0.880994058318322
30
0
41
1
10
22.4577666439246
20
-0.492622410649545
30
0
41
1
10
22.0971135110197
20
-0.296096547024462
30
0
41
1
10
21.0207559971659
20
0.290855098818923
30
0
41
1
10
20.30837229289
20
0.68009500277924
30
0
41
1
10
18.1759417018854
20
1.82198317784824
30
0
41
1
10
16.7612362938475
20
2.54989881781671
30
0
41
1
10
14.9671637994811
20
3.35680100451583
30
0
41
1
10
14.6065740450924
20
3.51316136504462
30
0
41
1
10
13.8877329132427
20
3.81176582019086
30
0
41
1
10
13.5288297519237
20
3.95428690756015
30
0
41
1
10
12.8110938278037
20
4.22454886943854
30
0
41
1
10
12.4522741013931
20
4.35231023746979
30
0
41
1
10
11.7339335220608
20
4.59209270562616
30
0
41
1
10
11.3738735281305
20
4.70424278372533
30
0
41
1
10
9.57537710501029
20
5.22092134850107
30
0
41
1
10
8.15886471111017
20
5.489079349223
30
0
41
1
10
6.23983907975406
20
5.63902522883689
30
0
41
1
10
5.74173890991594
20
5.65868100880488
30
0
41
1
10
5.24184351455119
20
5.6587001338111
30
0
0
SPLINE
5
C2
100
AcDbEntity
8
1
62
256
6
ByLayer
370
18
48
1
60
0
100
AcDbSpline
70
4
71
3
72
14
73
10
40
0
40
0
40
0
40
0
40
0.25
40
0.25
40
0.5
40
0.5
40
0.75
40
0.75
40
1
40
1
40
1
40
1
41
1
10
70.9043614147373
20
1.2394982515975
30
0
41
1
10
70.9036981211383
20
1.25478487825686
30
0
41
1
10
70.9072101038092
20
1.27021123811781
30
0
41
1
10
70.9229800275915
20
1.2968571041786
30
0
41
1
10
70.935195679207
20
1.30793929452582
30
0
41
1
10
70.962526116984
20
1.3236828133108
30
0
41
1
10
70.9778748453801
20
1.32877509750389
30
0
41
1
10
71.0087446421286
20
1.33475193652129
30
0
41
1
10
71.0245573972977
20
1.33573621245449
30
0
41
1
10
71.0403533807504
20
1.33522485770916
30
0
0
SPLINE
5
C3
100
AcDbEntity
8
1
62
256
6
ByLayer
370
18
48
1
60
0
100
AcDbSpline
70
4
71
3
72
14
73
10
40
0
40
0
40
0
40
0
40
0.25
40
0.25
40
0.5
40
0.5
40
0.75
40
0.75
40
1
40
1
40
1
40
1
41
1
10
2.56043806985699
20
3.52655577448826
30
0
41
1
10
2.54380835307046
20
3.47802550232834
30
0
41
1
10
2.52817752775985
20
3.42978028785978
30
0
41
1
10
2.5039093542963
20
3.33138879880533
30
0
41
1
10
2.49566580823483
20
3.28069261906714
30
0
41
1
10
2.49701291125041
20
3.17354927064741
30
0
41
1
10
2.50603950878329
20
3.11908882593141
30
0
41
1
10
2.52994478174807
20
3.01012456045987
30
0
41
1
10
2.54477587571591
20
2.95564078078829
30
0
41
1
10
2.56047683963717
20
2.90150875082864
30
0
0
SPLINE
5
C4
100
AcDbEntity
8
1
62
256
6
ByLayer
370
18
48
1
60
0
100
AcDbSpline
70
4
71
3
72
34
73
30
40
0
40
0
40
0
40
0
40
0.0312499999999998
40
0.0312499999999998
40
0.0468749999999996
40
0.0468749999999996
40
0.0624999999999995
40
0.0624999999999995
40
0.125
40
0.125
40
0.1875
40
0.1875
40
0.25
40
0.25
40
0.3125
40
0.3125
40
0.375
40
0.375
40
0.4375
40
0.4375
40
0.5
40
0.5
40
0.625
40
0.625
40
0.75
40
0.75
40
0.875
40
0.875
40
1
40
1
40
1
40
1
41
1
10
2.56047683962908
20
2.90150875085647
30
0
41
1
10
2.59494536527382
20
2.78267201749657
30
0
41
1
10
2.64518660608096
20
2.6662159318054
30
0
41
1
10
2.73778768987094
20
2.4938458590984
30
0
41
1
10
2.77170887259416
20
2.43658759694046
30
0
41
1
10
2.84401805676973
20
2.32367400745838
30
0
41
1
10
2.8822440081303
20
2.26823842875155
30
0
41
1
10
3.08198565369381
20
1.99523596197062
30
0
41
1
10
3.26839587862816
20
1.78969686967582
30
0
41
1
10
3.67124993888106
20
1.39190546736179
30
0
41
1
10
3.88347155838903
20
1.20434549168451
30
0
41
1
10
4.31987760604883
20
0.842784192688612
30
0
41
1
10
4.54437161498589
20
0.668821393321679
30
0
41
1
10
5.00189210755627
20
0.329898218934261
30
0
41
1
10
5.23496918688369
20
0.164994332213723
30
0
41
1
10
5.70758782362125
20
-0.158193216127387
30
0
41
1
10
5.94775396907437
20
-0.316796623507173
30
0
41
1
10
6.42913143077553
20
-0.626423492947026
30
0
41
1
10
6.67058268447087
20
-0.777710037869326
30
0
41
1
10
7.15472072771729
20
-1.07345251343389
30
0
41
1
10
7.39740156034782
20
-1.21795684801788
30
0
41
1
10
8.1269959849414
20
-1.64267394964003
30
0
41
1
10
8.61534174538946
20
-1.91463265856018
30
0
41
1
10
9.59705886757041
20
-2.43457165008837
30
0
41
1
10
10.0904727288075
20
-2.68241631191233
30
0
41
1
10
11.0853570543073
20
-3.15183047226264
30
0
41
1
10
11.587970459729
20
-3.37277502855793
30
0
41
1
10
12.5969010460659
20
-3.77737379019163
30
0
41
1
10
13.1042149512108
20
-3.96217016168689
30
0
41
1
10
13.6172220575513
20
-4.12638759454219
30
0
0
SPLINE
5
C5
100
AcDbEntity
8
1
62
256
6
ByLayer
370
18
48
1
60
0
100
AcDbSpline
70
4
71
3
72
18
73
14
40
0
40
0
40
0
40
0
40
0.32124302597481
40
0.32124302597481
40
0.601316056305665
40
0.601316056305665
40
0.671334313888379
40
0.671334313888379
40
0.741352571471094
40
0.741352571471094
40
0.881389086636528
40
0.881389086636528
40
1
40
1
40
1
40
1
41
1
10
21.5250651138116
20
0.015647326491802
30
0
41
1
10
22.3436882302327
20
-0.41623343590021
30
0
41
1
10
23.1588296287856
20
-0.846659772353291
30
0
41
1
10
24.6873995834806
20
-1.63182399380349
30
0
41
1
10
25.4004843488701
20
-1.98917179277117
30
0
41
1
10
26.2972022290777
20
-2.41791568179292
30
0
41
1
10
26.4768213831937
20
-2.50275337994489
30
0
41
1
10
26.8367155064076
20
-2.67040789537839
30
0
41
1
10
27.0172321208579
20
-2.75333277585926
30
0
41
1
10
27.5576851584565
20
-2.99775604027161
30
0
41
1
10
27.9166092827016
20
-3.15499022127355
30
0
41
1
10
28.5777567692958
20
-3.43385744647725
30
0
41
1
10
28.8802673681122
20
-3.55722680657874
30
0
41
1
10
29.1823430117957
20
-3.67577932219302
30
0
0
SPLINE
5
C6
100
AcDbEntity
8
1
62
256
6
ByLayer
370
13
48
1
60
0
100
AcDbSpline
70
4
71
3
72
20
73
16
40
0
40
0
40
0
40
0
40
0.318291772933954
40
0.318291772933954
40
0.419240635017289
40
0.419240635017289
40
0.520189497100623
40
0.520189497100623
40
0.72208722126729
40
0.72208722126729
40
0.823036083350621
40
0.823036083350621
40
0.923984945433953
40
0.923984945433953
40
1
40
1
40
1
40
1
41
1
10
29.1823430119516
20
-3.67577932225422
30
0
41
1
10
30.3068349329778
20
-4.11709708093952
30
0
41
1
10
31.4252995135894
20
-4.49166597464094
30
0
41
1
10
32.9071626455005
20
-4.87653522171459
30
0
41
1
10
33.2646315109868
20
-4.9609370102317
30
0
41
1
10
33.9817925983758
20
-5.11222163090193
30
0
41
1
10
34.3418958305514
20
-5.17918915620672
30
0
41
1
10
35.423646661711
20
-5.3518652057609
30
0
41
1
10
36.1433509565757
20
-5.42895460010993
30
0
41
1
10
37.2254098596259
20
-5.48541694216672
30
0
41
1
10
37.5863094183361
20
-5.49432463189896
30
0
41
1
10
38.3068133958571
20
-5.49232794743747
30
0
41
1
10
38.6656935532288
20
-5.48147819445399
30
0
41
1
10
39.2930743085219
20
-5.445449108708
30
0
41
1
10
39.5620140483708
20
-5.42448737134529
30
0
41
1
10
39.8305751864526
20
-5.39815202295944
30
0
0
SPLINE
5
C7
100
AcDbEntity
8
1
62
256
6
ByLayer
370
18
48
1
60
0
100
AcDbSpline
70
4
71
3
72
10
73
6
40
0
40
0
40
0
40
0
40
0.5
40
0.5
40
1
40
1
40
1
40
1
41
1
10
71.3091203667975
20
5.54346170276091
30
0
41
1
10
71.2715261328551
20
5.58366073474318
30
0
41
1
10
71.2330551110949
20
5.61631551564784
30
0
41
1
10
71.1540589943198
20
5.66614878530083
30
0
41
1
10
71.1138653526622
20
5.68306429642561
30
0
41
1
10
71.0732677885828
20
5.69205663791135
30
0
0
SPLINE
5
C8
100
AcDbEntity
8
1
62
256
6
ByLayer
370
18
48
1
60
0
100
AcDbSpline
70
4
71
3
72
38
73
34
40
0
40
0
40
0
40
0
40
0.0482396393618193
40
0.0482396393618193
40
0.112303234355146
40
0.112303234355146
40
0.176366829348473
40
0.176366829348473
40
0.2404304243418
40
0.2404304243418
40
0.368557614328454
40
0.368557614328454
40
0.43262120932178
40
0.43262120932178
40
0.496684804315107
40
0.496684804315107
40
0.560748399308434
40
0.560748399308434
40
0.624811994301761
40
0.624811994301761
40
0.688875589295088
40
0.688875589295088
40
0.720907386791751
40
0.720907386791751
40
0.752939184288415
40
0.752939184288415
40
0.881066374275069
40
0.881066374275069
40
0.913098171771733
40
0.913098171771733
40
0.945129969268396
40
0.945129969268396
40
1
40
1
40
1
40
1
41
1
10
2.30909281347698
20
2.51761320213166
30
0
41
1
10
2.30909281347701
20
2.38016235839797
30
0
41
1
10
2.30909281347701
20
2.23973774951895
30
0
41
1
10
2.30909281347701
20
1.905809299189
30
0
41
1
10
2.30909281347704
20
1.70916689387576
30
0
41
1
10
2.30909281347707
20
1.31151797087168
30
0
41
1
10
2.30909281347704
20
1.11000957955082
30
0
41
1
10
2.30909281347704
20
0.701585551785541
30
0
41
1
10
2.30909281347704
20
0.496939161797371
30
0
41
1
10
2.30909281347701
20
-0.115733263863547
30
0
41
1
10
2.30909281347704
20
-0.523615254092164
30
0
41
1
10
2.30909281347704
20
-1.13456362877622
30
0
41
1
10
2.30909281347707
20
-1.33730757098195
30
0
41
1
10
2.30909281347704
20
-1.73444260687901
30
0
41
1
10
2.30909281347704
20
-1.92952740824015
30
0
41
1
10
2.30909281347704
20
-2.31268603205947
30
0
41
1
10
2.30909281347701
20
-2.49883061968688
30
0
41
1
10
2.30909281347701
20
-2.85847457140352
30
0
41
1
10
2.30909281347704
20
-3.03233482588021
30
0
41
1
10
2.30909281347704
20
-3.36818160848389
30
0
41
1
10
2.30909281347704
20
-3.53016912539758
30
0
41
1
10
2.30909281347704
20
-3.76395887990384
30
0
41
1
10
2.30909281347704
20
-3.84031720401882
30
0
41
1
10
2.30909281347704
20
-3.98807016007817
30
0
41
1
10
2.30909281347704
20
-4.05971302673822
30
0
41
1
10
2.30909281347704
20
-4.40694868772994
30
0
41
1
10
2.30909281347704
20
-4.64999736844248
30
0
41
1
10
2.30909281347704
20
-4.90943531504411
30
0
41
1
10
2.30909281347701
20
-4.95915246923417
30
0
41
1
10
2.30909281347698
20
-5.05312745233846
30
0
41
1
10
2.30909281347704
20
-5.09749457839098
30
0
41
1
10
2.30909281347704
20
-5.21080070179986
30
0
41
1
10
2.30909281347709
20
-5.27472261374683
30
0
41
1
10
2.30909281347709
20
-5.3309337977436
30
0
0
SPLINE
5
C9
100
AcDbEntity
8
1
62
256
6
ByLayer
370
18
48
1
60
0
100
AcDbSpline
70
4
71
3
72
10
73
6
40
0
40
0
40
0
40
0
40
0.5
40
0.5
40
1
40
1
40
1
40
1
41
1
10
72.9959513917236
20
0.0972844744740371
30
0
41
1
10
72.9957131699532
20
0.0891490404614785
30
0
41
1
10
72.9959830195099
20
0.0801276827265553
30
0
41
1
10
72.9973207741639
20
0.0612474360729038
30
0
41
1
10
72.9983882518966
20
0.0513011129270069
30
0
41
1
10
72.9998123698568
20
0.0409076356402807
30
0
0
SPLINE
5
CA
100
AcDbEntity
8
1
62
256
6
ByLayer
370
18
48
1
60
0
100
AcDbSpline
70
4
71
3
72
18
73
14
40
0
40
0
40
0
40
0
40
0.023003062712755
40
0.023003062712755
40
0.204129641846966
40
0.204129641846966
40
0.566382800115387
40
0.566382800115387
40
0.747509379249598
40
0.747509379249598
40
0.928635958383808
40
0.928635958383808
40
1
40
1
40
1
40
1
41
1
10
38.1097752065962
20
-5.39424240757077
30
0
41
1
10
38.0640936816937
20
-5.39424905413875
30
0
41
1
10
38.0183911807581
20
-5.39410001329901
30
0
41
1
10
37.6126332817597
20
-5.39139372348149
30
0
41
1
10
37.2520651466443
20
-5.37927264949718
30
0
41
1
10
36.1708722501388
20
-5.31381378618806
30
0
41
1
10
35.451726794726
20
-5.23159927002075
30
0
41
1
10
34.3708071269967
20
-5.05264077281399
30
0
41
1
10
34.01105579219
20
-4.98383139044324
30
0
41
1
10
33.2944100453825
20
-4.82935200880698
30
0
41
1
10
32.9371624186705
20
-4.74359840019181
30
0
41
1
10
32.4400385414505
20
-4.61285104125383
30
0
41
1
10
32.2996294737158
20
-4.57464816955752
30
0
41
1
10
32.1592948682934
20
-4.53522750120385
30
0
0
SPLINE
5
CB
100
AcDbEntity
8
1
62
256
6
ByLayer
370
13
48
1
60
0
100
AcDbSpline
70
4
71
3
72
26
73
22
40
0
40
0
40
0
40
0
40
0.263885798062831
40
0.263885798062831
40
0.33706546156282
40
0.33706546156282
40
0.373655293312815
40
0.373655293312815
40
0.41024512506281
40
0.41024512506281
40
0.556604452062797
40
0.556604452062797
40
0.849323106062767
40
0.849323106062767
40
0.885912937812765
40
0.885912937812765
40
0.922502769562763
40
0.922502769562763
40
0.99568243306276
40
0.99568243306276
40
1
40
1
40
1
40
1
41
1
10
32.1592948673995
20
-4.53522750095271
30
0
41
1
10
30.8749160494628
20
-4.17443928854621
30
0
41
1
10
29.5967744826698
20
-3.71164372013345
30
0
41
1
10
27.9488995774622
20
-3.02017015071476
30
0
41
1
10
27.5901748706441
20
-2.86406869524427
30
0
41
1
10
27.050078260704
20
-2.62174459304453
30
0
41
1
10
26.8697288144095
20
-2.53960059240669
30
0
41
1
10
26.5101341834309
20
-2.37360359445779
30
0
41
1
10
26.330654808011
20
-2.28964627612419
30
0
41
1
10
25.4345903550187
20
-1.8655616904733
30
0
41
1
10
24.7218515643163
20
-1.51283139706578
30
0
41
1
10
22.5869505129188
20
-0.431742410929132
30
0
41
1
10
21.1679024905089
20
0.319122152823951
30
0
41
1
10
19.547677448114
20
1.14179723814715
30
0
41
1
10
19.367250598889
20
1.23292211173023
30
0
41
1
10
19.0075122931893
20
1.41346799202418
30
0
41
1
10
18.8279701792856
20
1.50300314267622
30
0
41
1
10
18.2901429797038
20
1.76903385232595
30
0
41
1
10
17.9326569866279
20
1.94295694386037
30
0
41
1
10
17.5547638260868
20
2.12274681767258
30
0
41
1
10
17.5337129143593
20
2.13274944048828
30
0
41
1
10
17.5126643898202
20
2.14273799102111
30
0
0
SPLINE
5
CC
100
AcDbEntity
8
1
62
256
6
ByLayer
370
18
48
1
60
0
100
AcDbSpline
70
4
71
3
72
18
73
14
40
0
40
0
40
0
40
0
40
0.249999999999998
40
0.249999999999998
40
0.374999999999999
40
0.374999999999999
40
0.5
40
0.5
40
0.625
40
0.625
40
0.750000000000001
40
0.750000000000001
40
1
40
1
40
1
40
1
41
1
10
2.30909281347704
20
2.65191786296569
30
0
41
1
10
2.30909281347704
20
2.75424532735818
30
0
41
1
10
2.32166202669055
20
2.8547907111182
30
0
41
1
10
2.34925358530751
20
3.00791617663322
30
0
41
1
10
2.36004566805224
20
3.05927281085511
30
0
41
1
10
2.37946634279797
20
3.16488106892902
30
0
41
1
10
2.38788082883565
20
3.21923986552
30
0
41
1
10
2.38838875825709
20
3.33697488339678
30
0
41
1
10
2.38035978899353
20
3.40006226829442
30
0
41
1
10
2.36165572661921
20
3.52675162531949
30
0
41
1
10
2.3511573390434
20
3.59099559093707
30
0
41
1
10
2.32380875283908
20
3.78473791290594
30
0
41
1
10
2.31077124744743
20
3.9153146735953
30
0
41
1
10
2.30925959245519
20
4.04641105781445
30
0
0
SPLINE
5
CD
100
AcDbEntity
8
1
62
256
6
ByLayer
370
18
48
1
60
0
100
AcDbSpline
70
4
71
3
72
8
73
4
40
0
40
0
40
0
40
0
40
1
40
1
40
1
40
1
41
1
10
2.66516708444348
20
3.73933584540936
30
0
41
1
10
2.62117786510032
20
3.67199032800548
30
0
41
1
10
2.58601834937983
20
3.6012063499017
30
0
41
1
10
2.56043806986361
20
3.5265557745075
30
0
0
SPLINE
5
CE
100
AcDbEntity
8
1
62
256
6
ByLayer
370
18
48
1
60
0
100
AcDbSpline
70
4
71
3
72
10
73
6
40
0
40
0
40
0
40
0
40
0.5
40
0.5
40
1
40
1
40
1
40
1
41
1
10
72.9998123698574
20
0.0409076356407638
30
0
41
1
10
72.9973321821916
20
0.0237525660523659
30
0
41
1
10
72.9929886374329
20
0.0046560894957963
30
0
41
1
10
72.9804840403624
20
-0.0324959579243682
30
0
41
1
10
72.9722243651677
20
-0.0504475164260327
30
0
41
1
10
72.9636578644895
20
-0.0640857272655353
30
0
0
SPLINE
5
CF
100
AcDbEntity
8
1
62
256
6
ByLayer
370
18
48
1
60
0
100
AcDbSpline
70
4
71
3
72
14
73
10
40
0
40
0
40
0
40
0
40
0.25
40
0.25
40
0.5
40
0.5
40
0.75
40
0.75
40
1
40
1
40
1
40
1
41
1
10
71.1560330869324
20
-5.41065598584709
30
0
41
1
10
71.1593861385772
20
-5.4101029051707
30
0
41
1
10
71.1620949901283
20
-5.41122388103474
30
0
41
1
10
71.1658240727039
20
-5.41788608332308
30
0
41
1
10
71.1667909113849
20
-5.42350595079853
30
0
41
1
10
71.1658629485248
20
-5.44032008239404
30
0
41
1
10
71.1638944393641
20
-5.45154555258716
30
0
41
1
10
71.1571061644296
20
-5.47707211635873
30
0
41
1
10
71.1523521292682
20
-5.49115753535494
30
0
41
1
10
71.147117319807
20
-5.50451104636289
30
0
0
SPLINE
5
D0
100
AcDbEntity
8
1
62
256
6
ByLayer
370
18
48
1
60
0
100
AcDbSpline
70
4
71
3
72
14
73
10
40
0
40
0
40
0
40
0
40
0.16883341065851
40
0.16883341065851
40
0.337666821317021
40
0.337666821317021
40
0.675333642634042
40
0.675333642634042
40
1
40
1
40
1
40
1
41
1
10
71.1560330869324
20
-5.41065598584709
30
0
41
1
10
70.7962451861675
20
-5.41795329654968
30
0
41
1
10
70.4366300997855
20
-5.41546314439861
30
0
41
1
10
69.7170219015599
20
-5.39098328040564
30
0
41
1
10
69.3564263679754
20
-5.36892467250138
30
0
41
1
10
68.2795764295902
20
-5.2744148481132
30
0
41
1
10
67.5670293222756
20
-5.17376470737497
30
0
41
1
10
66.1738647075607
20
-4.90797130720136
30
0
41
1
10
65.4929748640249
20
-4.74534994080199
30
0
41
1
10
64.8113433711071
20
-4.55323291858664
30
0
0
SPLINE
5
D1
100
AcDbEntity
8
1
62
256
6
ByLayer
370
13
48
1
60
0
100
AcDbSpline
70
4
71
3
72
24
73
20
40
0
40
0
40
0
40
0
40
0.15405729254419
40
0.15405729254419
40
0.22823023386127
40
0.22823023386127
40
0.26531670451981
40
0.26531670451981
40
0.30240317517835
40
0.30240317517835
40
0.450749057812507
40
0.450749057812507
40
0.74744082308082
40
0.74744082308082
40
0.821613764397899
40
0.821613764397899
40
0.895786705714977
40
0.895786705714977
40
1
40
1
40
1
40
1
41
1
10
64.8113428756274
20
-4.55323277893626
30
0
41
1
10
64.0751230417706
20
-4.34573008269243
30
0
41
1
10
63.3380380113983
20
-4.10381824968024
30
0
41
1
10
62.2396372085612
20
-3.69975558057999
30
0
41
1
10
61.8816521643423
20
-3.56130688504547
30
0
41
1
10
61.342531275924
20
-3.34357812169657
30
0
41
1
10
61.162243584412
20
-3.26923102721292
30
0
41
1
10
60.8027009920361
20
-3.1180780116843
30
0
41
1
10
60.6232947098624
20
-3.04121063100519
30
0
41
1
10
59.7278048554135
20
-2.65094496956755
30
0
41
1
10
59.0162765117645
20
-2.31986868756587
30
0
41
1
10
56.8866377306642
20
-1.28831573864068
30
0
41
1
10
55.4738368188118
20
-0.548593335731198
30
0
41
1
10
53.6852878310203
20
0.381016294552552
30
0
41
1
10
53.3262117495095
20
0.567283041568004
30
0
41
1
10
52.6058401997352
20
0.938002215798861
30
0
41
1
10
52.2470500943029
20
1.12122709409013
30
0
41
1
10
51.386673067614
20
1.55546084397136
30
0
41
1
10
50.8858759095194
20
1.80329101089384
30
0
41
1
10
50.3859644809367
20
2.04368027274813
30
0
0
SPLINE
5
D2
100
AcDbEntity
8
1
62
256
6
ByLayer
370
18
48
1
60
0
100
AcDbSpline
70
4
71
3
72
12
73
8
40
0
40
0
40
0
40
0
40
0.246133917376155
40
0.246133917376155
40
0.623066958688079
40
0.623066958688079
40
1
40
1
40
1
40
1
41
1
10
5.4248863305456
20
-5.37390850553314
30
0
41
1
10
5.19098983723151
20
-5.37354543996565
30
0
41
1
10
4.95666848911523
20
-5.36911169413918
30
0
41
1
10
4.36214014450485
20
-5.34749349793071
30
0
41
1
10
4.00103893878077
20
-5.32470401131533
30
0
41
1
10
3.28023468957281
20
-5.25998674935343
30
0
41
1
10
2.91994397826491
20
-5.21805183030892
30
0
41
1
10
2.55940876824727
20
-5.16658287084795
30
0
0
SPLINE
5
D3
100
AcDbEntity
8
1
62
256
6
ByLayer
370
18
48
1
60
0
100
AcDbSpline
70
4
71
3
72
48
73
44
40
0
40
0
40
0
40
0
40
0.0814321172054107
40
0.0814321172054107
40
0.143704269398738
40
0.143704269398738
40
0.205976421592066
40
0.205976421592066
40
0.330520725978722
40
0.330520725978722
40
0.455065030365378
40
0.455065030365378
40
0.517337182558706
40
0.517337182558706
40
0.54847325865537
40
0.54847325865537
40
0.564041296703702
40
0.564041296703702
40
0.571825315727868
40
0.571825315727868
40
0.575717325239951
40
0.575717325239951
40
0.579609334752034
40
0.579609334752034
40
0.5873933537762
40
0.5873933537762
40
0.595177372800366
40
0.595177372800366
40
0.610745410848698
40
0.610745410848698
40
0.641881486945362
40
0.641881486945362
40
0.70415363913869
40
0.70415363913869
40
0.766425791332019
40
0.766425791332019
40
0.828697943525347
40
0.828697943525347
40
0.890970095718675
40
0.890970095718675
40
0.953242247912003
40
0.953242247912003
40
1
40
1
40
1
40
1
41
1
10
13.6172220575512
20
3.21932154910817
30
0
41
1
10
13.6172220575512
20
3.09213219726772
30
0
41
1
10
13.6172220575512
20
2.95317093312343
30
0
41
1
10
13.6172220575512
20
2.68798782817251
30
0
41
1
10
13.6172220575513
20
2.56642432233946
30
0
41
1
10
13.6172220575513
20
2.30999843415287
30
0
41
1
10
13.6172220575512
20
2.17509063862633
30
0
41
1
10
13.6172220575512
20
1.75859981834654
30
0
41
1
10
13.6172220575512
20
1.46287449389175
30
0
41
1
10
13.6172220575512
20
0.837885242168625
30
0
41
1
10
13.6172220575513
20
0.508604061103625
30
0
41
1
10
13.6172220575513
20
-0.0104460267582169
30
0
41
1
10
13.6172220575513
20
-0.186701042444582
30
0
41
1
10
13.6172220575513
20
-0.455058224173001
30
0
41
1
10
13.6172220575512
20
-0.545216184966421
30
0
41
1
10
13.6172220575512
20
-0.681507070161757
30
0
41
1
10
13.6172220575512
20
-0.727102248170524
30
0
41
1
10
13.6172220575512
20
-0.795709453938002
30
0
41
1
10
13.6172220575512
20
-0.818615867003388
30
0
41
1
10
13.6172220575512
20
-0.853031415999567
30
0
41
1
10
13.6172220575513
20
-0.86492640725271
30
0
41
1
10
13.6172220575513
20
-0.889008460335447
30
0
41
1
10
13.6172220575513
20
-0.901155530484147
30
0
41
1
10
13.6172220575513
20
-0.937932564668444
30
0
41
1
10
13.6172220575512
20
-0.960645141377825
30
0
41
1
10
13.6172220575512
20
-1.00667976932866
30
0
41
1
10
13.6172220575512
20
-1.02966473009244
30
0
41
1
10
13.6172220575512
20
-1.09849476649879
30
0
41
1
10
13.6172220575512
20
-1.14422285941734
30
0
41
1
10
13.6172220575512
20
-1.28092837923637
30
0
41
1
10
13.6172220575512
20
-1.371403329608
30
0
41
1
10
13.6172220575512
20
-1.64036224822499
30
0
41
1
10
13.6172220575512
20
-1.81655506707818
30
0
41
1
10
13.6172220575512
20
-2.16251816523928
30
0
41
1
10
13.6172220575512
20
-2.33144635041751
30
0
41
1
10
13.6172220575512
20
-2.6593606669957
30
0
41
1
10
13.6172220575512
20
-2.81862913672825
30
0
41
1
10
13.6172220575512
20
-3.12755434072835
30
0
41
1
10
13.6172220575513
20
-3.27721250399438
30
0
41
1
10
13.6172220575513
20
-3.56644690064405
30
0
41
1
10
13.6172220575512
20
-3.70662355782633
30
0
41
1
10
13.6172220575512
20
-3.93912867980541
30
0
41
1
10
13.6172220575512
20
-4.03481300373093
30
0
41
1
10
13.6172220575512
20
-4.12638759454222
30
0
0
SPLINE
5
D4
100
AcDbEntity
8
1
62
256
6
ByLayer
370
18
48
1
60
0
100
AcDbSpline
70
4
71
3
72
10
73
6
40
0
40
0
40
0
40
0
40
0.5
40
0.5
40
1
40
1
40
1
40
1
41
1
10
72.7018345517052
20
1.28303224285779
30
0
41
1
10
72.7859391485618
20
1.09924953065237
30
0
41
1
10
72.8518449249859
20
0.913303141191506
30
0
41
1
10
72.9493698856398
20
0.537333992596729
30
0
41
1
10
72.9809528961096
20
0.346554818759927
30
0
41
1
10
72.9972082659938
20
0.157914103881893
30
0
0
SPLINE
5
D5
100
AcDbEntity
8
1
62
256
6
ByLayer
370
13
48
1
60
0
100
AcDbSpline
70
4
71
3
72
8
73
4
40
0
40
0
40
0
40
0
40
1
40
1
40
1
40
1
41
1
10
2.44230409411051
20
-5.29267568515593
30
0
41
1
10
2.46440362857703
20
-5.2845431724154
30
0
41
1
10
2.48830149654086
20
-5.2822594604157
30
0
41
1
10
2.51268855416117
20
-5.28560215653084
30
0
0
SPLINE
5
D6
100
AcDbEntity
8
1
62
256
6
ByLayer
370
18
48
1
60
0
100
AcDbSpline
70
4
71
3
72
40
73
36
40
0
40
0
40
0
40
0
40
0.055629730549105
40
0.055629730549105
40
0.11125946109821
40
0.11125946109821
40
0.166889191647315
40
0.166889191647315
40
0.22251892219642
40
0.22251892219642
40
0.278148652745525
40
0.278148652745525
40
0.33377838329463
40
0.33377838329463
40
0.389408113843735
40
0.389408113843735
40
0.44503784439284
40
0.44503784439284
40
0.500667574941945
40
0.500667574941945
40
0.55629730549105
40
0.55629730549105
40
0.611927036040155
40
0.611927036040155
40
0.66755676658926
40
0.66755676658926
40
0.77881622768747
40
0.77881622768747
40
0.834445958236575
40
0.834445958236575
40
0.89007568878568
40
0.89007568878568
40
0.945705419334785
40
0.945705419334785
40
1
40
1
40
1
40
1
41
1
10
13.6172220575512
20
-4.12638759454217
30
0
41
1
10
13.8900783295897
20
-4.21713477580931
30
0
41
1
10
14.1622697807615
20
-4.30297516125077
30
0
41
1
10
14.7054425151788
20
-4.46592642084426
30
0
41
1
10
14.9763801238077
20
-4.54306368525815
30
0
41
1
10
15.5170676379823
20
-4.68768831033805
30
0
41
1
10
15.7867155760952
20
-4.75509227933259
30
0
41
1
10
16.3257459771093
20
-4.87979675604254
30
0
41
1
10
16.5952024446904
20
-4.93734023650546
30
0
41
1
10
17.1338559509716
20
-5.0426965777834
30
0
41
1
10
17.4029836246567
20
-5.08991818642969
30
0
41
1
10
17.941045863613
20
-5.17401169110769
30
0
41
1
10
18.2099016193321
20
-5.21096779512209
30
0
41
1
10
18.7485836607986
20
-5.27492757660679
30
0
41
1
10
19.018299833657
20
-5.30234234700714
30
0
41
1
10
19.5583694501517
20
-5.34469965882872
30
0
41
1
10
19.8287502546791
20
-5.35993556579842
30
0
41
1
10
20.3703370464963
20
-5.38014732675074
30
0
41
1
10
20.6415685774367
20
-5.3850570956798
30
0
41
1
10
21.1858925830851
20
-5.38515967385771
30
0
41
1
10
21.4591725284957
20
-5.37939989307492
30
0
41
1
10
22.0041116545814
20
-5.35532319662454
30
0
41
1
10
22.2761986331371
20
-5.33774618132125
30
0
41
1
10
22.8198244885852
20
-5.29228442814394
30
0
41
1
10
23.0916245424994
20
-5.26476232374793
30
0
41
1
10
23.9075316842898
20
-5.1655474761335
30
0
41
1
10
24.4515634078337
20
-5.07542780517255
30
0
41
1
10
25.2691917172737
20
-4.91214400229899
30
0
41
1
10
25.5416893281818
20
-4.85333649610041
30
0
41
1
10
26.0846162124883
20
-4.72434063827964
30
0
41
1
10
26.355392664649
20
-4.6547449244236
30
0
41
1
10
26.8959169666932
20
-4.50700384047946
30
0
41
1
10
27.165551977435
20
-4.42878283212855
30
0
41
1
10
27.6981055454603
20
-4.26673544111202
30
0
41
1
10
27.9609536979202
20
-4.18227539424871
30
0
41
1
10
28.2236493967295
20
-4.09359449386361
30
0
0
SPLINE
5
D7
100
AcDbEntity
8
1
62
256
6
ByLayer
370
18
48
1
60
0
100
AcDbSpline
70
4
71
3
72
30
73
26
40
0
40
0
40
0
40
0
40
0.0639202418235161
40
0.0639202418235161
40
0.130783081693265
40
0.130783081693265
40
0.197645921563014
40
0.197645921563014
40
0.264508761432762
40
0.264508761432762
40
0.331371601302511
40
0.331371601302511
40
0.465097281042009
40
0.465097281042009
40
0.598822960781507
40
0.598822960781507
40
0.665685800651255
40
0.665685800651255
40
0.732548640521005
40
0.732548640521005
40
0.799411480390753
40
0.799411480390753
40
0.866274320260502
40
0.866274320260502
40
1
40
1
40
1
40
1
41
1
10
53.445096078156
20
5.40337625460668
30
0
41
1
10
53.7029279212411
20
5.40416156675411
30
0
41
1
10
53.961094426547
20
5.39983105243905
30
0
41
1
10
54.4900403353544
20
5.38116142707915
30
0
41
1
10
54.7607804409109
20
5.36674058124459
30
0
41
1
10
55.3042480076092
20
5.32603592184989
30
0
41
1
10
55.5771763707333
20
5.29970738962376
30
0
41
1
10
56.1217325982847
20
5.23679052166474
30
0
41
1
10
56.393685255503
20
5.20027433965862
30
0
41
1
10
56.9370784203899
20
5.11813838136351
30
0
41
1
10
57.2084940781137
20
5.07145800170423
30
0
41
1
10
58.0233950754298
20
4.914296071221
30
0
41
1
10
58.5670161283074
20
4.7878544462389
30
0
41
1
10
59.6559724330536
20
4.4953505378636
30
0
41
1
10
60.2005898697942
20
4.33187988255295
30
0
41
1
10
61.0159293396263
20
4.06245535166318
30
0
41
1
10
61.287401543945
20
3.96813494155134
30
0
41
1
10
61.8304969834279
20
3.77060814160347
30
0
41
1
10
62.1023437664696
20
3.66782135360921
30
0
41
1
10
62.6466666246973
20
3.45491848449322
30
0
41
1
10
62.9193725161338
20
3.3446958234625
30
0
41
1
10
63.4641593469646
20
3.11727685038193
30
0
41
1
10
63.7359168321051
20
2.99992359622928
30
0
41
1
10
64.5512674728321
20
2.64030724604709
30
0
41
1
10
65.0948646759261
20
2.39085310956773
30
0
41
1
10
65.6383432540957
20
2.13088887746147
30
0
0
LINE
5
76
100
AcDbEntity
8
81
62
256
6
ByLayer
370
18
48
1
60
0
100
AcDbLine
10
73
20
0
30
0
11
78
21
0
31
0
39
0
210
0
220
0
230
1
0
LINE
5
77
100
AcDbEntity
8
1
62
256
6
ByLayer
370
18
48
1
60
0
100
AcDbLine
10
5.229612
20
5.6587
30
0
11
0.200125
21
5.655557
31
0
39
0
210
0
220
0
230
1
0
LINE
5
79
100
AcDbEntity
8
1
62
256
6
ByLayer
370
18
48
1
60
0
100
AcDbLine
10
37.879544
20
5.679107
30
0
11
36.222992
21
5.678071
31
0
39
0
210
0
220
0
230
1
0
LINE
5
7A
100
AcDbEntity
8
1
62
256
6
ByLayer
370
18
48
1
60
0
100
AcDbLine
10
70.529891
20
5.699513
30
0
11
68.867972
21
5.698474
31
0
39
0
210
0
220
0
230
1
0
LINE
5
7B
100
AcDbEntity
8
1
62
256
6
ByLayer
370
18
48
1
60
0
100
AcDbLine
10
68.867972
20
-5.698474
30
0
11
70.529943
21
-5.699513
31
0
39
0
210
0
220
0
230
1
0
LINE
5
7C
100
AcDbEntity
8
1
62
256
6
ByLayer
370
18
48
1
60
0
100
AcDbLine
10
36.222992
20
-5.678071
30
0
11
37.879316
21
-5.679106
31
0
39
0
210
0
220
0
230
1
0
LINE
5
7D
100
AcDbEntity
8
1
62
256
6
ByLayer
370
18
48
1
60
0
100
AcDbLine
10
0.200125
20
-5.655557
30
0
11
5.229658
21
-5.6587
31
0
39
0
210
0
220
0
230
1
0
LINE
5
7E
100
AcDbEntity
8
SK1
62
256
6
ByLayer
370
18
48
1
60
0
100
AcDbLine
10
0
20
6
30
0
11
-43.556624
21
6
31
0
39
0
210
0
220
0
230
1
0
LINE
5
80
100
AcDbEntity
8
SK1
62
256
6
ByLayer
370
18
48
1
60
0
100
AcDbLine
10
-43.556624
20
-6
30
0
11
0
21
-6
31
0
39
0
210
0
220
0
230
1
0
LINE
5
81
100
AcDbEntity
8
SK1
62
256
6
ByLayer
370
18
48
1
60
0
100
AcDbLine
10
-43.556624
20
6
30
0
11
-45
21
3.5
31
0
39
0
210
0
220
0
230
1
0
LINE
5
82
100
AcDbEntity
8
SK1
62
256
6
ByLayer
370
18
48
1
60
0
100
AcDbLine
10
-45
20
-3.5
30
0
11
-43.556624
21
-6
31
0
39
0
210
0
220
0
230
1
0
LINE
5
83
100
AcDbEntity
8
SK4
62
256
6
ByLayer
370
18
48
0.05
60
0
100
AcDbLine
10
78
20
0
30
0
11
-50
21
0
31
0
39
0
210
0
220
0
230
1
0
LINE
5
85
100
AcDbEntity
8
4
62
256
6
ByLayer
370
18
48
0.05
60
0
100
AcDbLine
10
73
20
0
30
0
11
0
21
0
31
0
39
0
210
0
220
0
230
1
0
LINE
5
87
100
AcDbEntity
8
80
62
256
6
ByLayer
370
18
48
1
60
0
100
AcDbLine
10
0
20
0
30
0
11
-5
21
0
31
0
39
0
210
0
220
0
230
1
0
LINE
5
88
100
AcDbEntity
8
SK1
62
256
6
ByLayer
370
18
48
1
60
0
100
AcDbLine
10
-45
20
3.5
30
0
11
-45
21
-3.5
31
0
39
0
210
0
220
0
230
1
0
LINE
5
89
100
AcDbEntity
8
SK1
62
256
6
ByLayer
370
18
48
1
60
0
100
AcDbLine
10
0
20
6
30
0
11
0
21
-6
31
0
39
0
210
0
220
0
230
1
0
LINE
5
8A
100
AcDbEntity
8
SK1
62
256
6
ByLayer
370
18
48
1
60
0
100
AcDbLine
10
-43.556624
20
6
30
0
11
-43.556624
21
-6
31
0
39
0
210
0
220
0
230
1
0
LINE
5
8B
100
AcDbEntity
8
1
62
256
6
ByLayer
370
13
48
1
60
0
100
AcDbLine
10
0.200125
20
5.655557
30
0
11
0.200125
21
-5.655557
31
0
39
0
210
0
220
0
230
1
0
LINE
5
8C
100
AcDbEntity
8
1
62
256
6
ByLayer
370
18
48
1
60
0
100
AcDbLine
10
2.309093
20
-5.391977
30
0
11
2.309093
21
2.581299
31
0
39
0
210
0
220
0
230
1
0
LINE
5
8D
100
AcDbEntity
8
1
62
256
6
ByLayer
370
13
48
1
60
0
100
AcDbLine
10
71.040353
20
1.335225
30
0
11
72.995951
21
0.097284
31
0
39
0
210
0
220
0
230
1
0
LINE
5
8E
100
AcDbEntity
8
1
62
256
6
ByLayer
370
13
48
1
60
0
100
AcDbLine
10
70.904361
20
1.239498
30
0
11
72.963658
21
-0.064086
31
0
39
0
210
0
220
0
230
1
0
MTEXT
5
D8
100
AcDbEntity
8
SK6
62
256
6
ByLayer
370
13
48
1
60
0
100
AcDbMText
10
16.129169
20
38.082694
30
0
210
0
220
0
230
1
1
\W0.7478;460.1-1140-057A0-XM GC34
40
3.5
41
0
44
1.084337
50
0
71
8
72
5
7
iso_b_vert
0
DIMENSION
5
E5
100
AcDbEntity
8
SK2
62
256
6
ByLayer
370
13
48
1
60
0
100
AcDbDimension
2
DimnDraft3D1
10
71.305
20
-15.913398
30
0
11
34.055059
21
-15.913398
31
0
70
32
71
5
72
1
41
1
210
0
220
0
230
1
3
Standard
100
AcDbAlignedDimension
13
0
23
-1.5875
33
0
14
71.305
24
-7.2875
34
0
50
0
100
AcDbRotatedDimension
1001
ACAD
1000
DSTYLE
1002
{
1070
   279
1070
     0
1070
   172
1070
     1
1070
   173
1070
     1
1070
   340
1005
D9
1070
   271
1070
     2
1070
   272
1070
     2
1070
    77
1070
     1
1070
    73
1070
     0
1070
   171
1070
     3
1070
   274
1070
     4
1070
   177
1070
    35
1070
   176
1070
    35
1070
   178
1070
    35
1070
    48
1040
-0.005
1070
    41
1041
3.5
1070
   147
1041
1.75
1070
    42
1041
1.5875
1070
    44
1041
2.0
1070
   140
1041
3.5
1070
   343
1005
0
1070
   344
1005
0
1002
}
0
DIMENSION
5
EF
100
AcDbEntity
8
SK2
62
256
6
ByLayer
370
13
48
1
60
0
100
AcDbDimension
2
DimnDraft3D2
10
73
20
-34.692985
30
0
11
13.6463
21
-34.692985
31
0
70
32
71
5
72
1
41
1
210
0
220
0
230
1
3
Standard
100
AcDbAlignedDimension
13
-45
23
-7.5875
33
0
14
73
24
-1.5875
34
0
50
0
100
AcDbRotatedDimension
1001
ACAD
1000
DSTYLE
1002
{
1070
   279
1070
     0
1070
   172
1070
     1
1070
   173
1070
     1
1070
   340
1005
D9
1070
   271
1070
     2
1070
   272
1070
     2
1070
    77
1070
     1
1070
    73
1070
     0
1070
   171
1070
     3
1070
   274
1070
     4
1070
   177
1070
    35
1070
   176
1070
    35
1070
   178
1070
    35
1070
    48
1040
-0.005
1070
    41
1041
3.5
1070
   147
1041
1.75
1070
    42
1041
1.5875
1070
    44
1041
2.0
1070
   140
1041
3.5
1070
   343
1005
0
1070
   344
1005
0
1002
}
0
DIMENSION
5
F9
100
AcDbEntity
8
SK2
62
256
6
ByLayer
370
13
48
1
60
0
100
AcDbDimension
2
DimnDraft3D3
10
73
20
17.309119
30
0
11
43.655
21
17.309119
31
0
70
32
71
5
72
1
41
1
210
0
220
0
230
1
3
Standard
100
AcDbAlignedDimension
13
14.31
23
7.2875
33
0
14
73
24
1.5875
34
0
50
0
100
AcDbRotatedDimension
1001
ACAD
1000
DSTYLE
1002
{
1070
   279
1070
     0
1070
   172
1070
     1
1070
   173
1070
     1
1070
   340
1005
D9
1070
   271
1070
     2
1070
   272
1070
     2
1070
    77
1070
     1
1070
    73
1070
     0
1070
   171
1070
     3
1070
   274
1070
     4
1070
   177
1070
    35
1070
   176
1070
    35
1070
   178
1070
    35
1070
    48
1040
-0.005
1070
    41
1041
3.5
1070
   147
1041
1.75
1070
    42
1041
1.5875
1070
    44
1041
2.0
1070
   140
1041
3.5
1070
   343
1005
0
1070
   344
1005
0
1002
}
0
DIMENSION
5
103
100
AcDbEntity
8
SK2
62
256
6
ByLayer
370
13
48
1
60
0
100
AcDbDimension
2
DimnDraft3D4
10
71.305
20
-18.502503
30
0
11
82.981425
21
-18.502503
31
0
70
32
71
5
72
1
41
1
210
0
220
0
230
1
3
Standard
100
AcDbAlignedDimension
13
73
23
-1.5875
33
0
14
71.305
24
-7.2875
34
0
50
0
100
AcDbRotatedDimension
1001
ACAD
1000
DSTYLE
1002
{
1070
   279
1070
     0
1070
   172
1070
     1
1070
   173
1070
     1
1070
   340
1005
D9
1070
   271
1070
     2
1070
   272
1070
     2
1070
    77
1070
     1
1070
    73
1070
     0
1070
   171
1070
     3
1070
   274
1070
     4
1070
   177
1070
    35
1070
   176
1070
    35
1070
   178
1070
    35
1070
    48
1040
-0.005
1070
    41
1041
3.5
1070
   147
1041
1.75
1070
    42
1041
1.5875
1070
    44
1041
2.0
1070
   140
1041
3.5
1070
   343
1005
0
1070
   344
1005
0
1002
}
0
DIMENSION
5
10D
100
AcDbEntity
8
SK2
62
256
6
ByLayer
370
13
48
1
60
0
100
AcDbDimension
2
DimnDraft3D5
10
71.305
20
-24.343428
30
0
11
10.565676
21
-24.343428
31
0
70
32
71
5
72
1
41
1
210
0
220
0
230
1
3
Standard
100
AcDbAlignedDimension
13
-45
23
-7.5875
33
0
14
71.305
24
-7.2875
34
0
50
0
100
AcDbRotatedDimension
1001
ACAD
1000
DSTYLE
1002
{
1070
   279
1070
     0
1070
   172
1070
     1
1070
   173
1070
     1
1070
   340
1005
D9
1070
   271
1070
     2
1070
   272
1070
     2
1070
    77
1070
     1
1070
    73
1070
     0
1070
   171
1070
     3
1070
   274
1070
     4
1070
   177
1070
    35
1070
   176
1070
    35
1070
   178
1070
    35
1070
    48
1040
-0.005
1070
    41
1041
3.5
1070
   147
1041
1.75
1070
    42
1041
1.5875
1070
    44
1041
2.0
1070
   140
1041
3.5
1070
   343
1005
0
1070
   344
1005
0
1002
}
0
DIMENSION
5
118
100
AcDbEntity
8
SK2
62
256
6
ByLayer
370
13
48
1
60
0
100
AcDbDimension
2
DimnDraft3D6
10
-55.625163
20
6
30
0
11
-56.250163
21
24.47418
31
0
70
33
71
5
72
1
41
1
210
0
220
0
230
1
3
Standard
100
AcDbAlignedDimension
13
-46.5875
23
-6
33
0
14
-46.5875
24
6
34
0
1001
ACAD
1000
DSTYLE
1002
{
1070
   279
1070
     0
1070
    74
1070
     0
1070
   173
1070
     1
1070
   340
1005
D9
1070
   271
1070
     3
1070
   272
1070
     2
1070
    77
1070
     1
1070
    73
1070
     0
1070
   171
1070
     3
1070
   274
1070
     4
1070
   177
1070
    35
1070
   176
1070
    35
1070
   178
1070
    35
1070
    48
1040
-0.005
1070
    41
1041
3.5
1070
   147
1041
1.75
1070
    42
1041
1.5875
1070
    44
1041
2.0
1070
   140
1041
3.5
1070
   343
1005
0
1070
   344
1005
0
1002
}
0
DIMENSION
5
123
100
AcDbEntity
8
2
62
256
6
ByLayer
370
13
48
1
60
0
100
AcDbDimension
2
DimnDraft3D7
10
87.083343
20
5.7
30
0
11
82.458343
21
22.767266
31
0
70
33
71
5
72
1
41
1
210
0
220
0
230
1
3
Standard
100
AcDbAlignedDimension
13
72.8925
23
-5.7
33
0
14
72.8925
24
5.7
34
0
1001
ACAD
1000
DSTYLE
1002
{
1070
   279
1070
     0
1070
    74
1070
     0
1070
   173
1070
     1
1070
   340
1005
D9
1070
   271
1070
     3
1070
   272
1070
     2
1070
    77
1070
     1
1070
    73
1070
     0
1070
   171
1070
     3
1070
   274
1070
     4
1070
   177
1070
    35
1070
   176
1070
    35
1070
   178
1070
    35
1070
    48
1040
-0.005
1070
    41
1041
3.5
1070
   147
1041
1.75
1070
    42
1041
1.5875
1070
    44
1041
2.0
1070
   140
1041
3.5
1070
   343
1005
0
1070
   344
1005
0
1002
}
0
ENDSEC
0
SECTION
2
OBJECTS
0
DICTIONARY
5
18e
330
0
100
AcDbDictionary
280
0
281
1
3
ACAD_GROUP
350
18f
3
ACAD_MLINESTYLE
350
190
0
DICTIONARY
5
18f
330
0
100
AcDbDictionary
280
0
281
1
0
DICTIONARY
5
190
330
0
100
AcDbDictionary
280
0
281
1
3
Standard
350
18
0
MLINESTYLE
5
18
330
190
100
AcDbMlineStyle
2
Standard
70
0
3

62
256
51
90
52
90
71
2
49
-0.5
62
256
6
ByLayer
49
0.5
62
256
6
ByLayer
0
RASTERVARIABLES
5
17c
330

100
AcDbRasterVariables
90
0
70
1
71
1
72
1
0
ENDSEC
0
EOF
