0
SECTION
2
HEADER
9
$ACADVER
1
AC1015
9
$DWGCODEPAGE
3
ANSI_1252
9
$HANDSEED
5
1a6
9
$ANGBASE
50
0
9
$ANGDIR
70
0
9
$ATTMODE
70
1
9
$AUNITS
70
0
9
$AUPREC
70
0
9
$CECOLOR
62
256
9
$CELTSCALE
40
1
9
$CELTYPE
6
ByLayer
9
$CELWEIGHT
370
18
9
$CLAYER
8
0
9
$CMLJUST
70
0
9
$CMLSCALE
40
1
9
$CMLSTYLE
2
Standard
9
$DIMSTYLE
2
Standard
9
$TEXTSIZE
40
0.2
9
$TEXTSTYLE
7
Standard
9
$LUNITS
70
2
9
$LUPREC
70
4
9
$EXTNAMES
290
1
9
$INSUNITS
70
4
9
$LTSCALE
40
1
9
$LWDISPLAY
290
1
9
$PDMODE
70
0
9
$PDSIZE
40
0
9
$PLINEGEN
70
0
0
ENDSEC
0
SECTION
2
CLASSES
0
CLASS
1
RASTERVARIABLES
2
AcDbRasterVariables
3
ISM
90
0
280
0
281
0
0
ENDSEC
0
SECTION
2
TABLES
0
TABLE
2
VPORT
5
19c
100
AcDbSymbolTable
0
VPORT
5
1
100
AcDbSymbolTableRecord
100
AcDbViewportTableRecord
2
*Active
70
0
10
0
20
0
11
1
21
1
12
-1
22
1
13
0
23
0
14
0.5
24
0.5
15
10
25
10
16
0
26
0
36
1
17
0
27
0
37
0
0
ENDTAB
0
TABLE
2
LTYPE
5
19d
100
AcDbSymbolTable
0
LTYPE
5
14
100
AcDbSymbolTableRecord
100
AcDbLinetypeTableRecord
70
0
2
ByBlock
3

72
65
73
0
40
0
0
LTYPE
5
15
100
AcDbSymbolTableRecord
100
AcDbLinetypeTableRecord
70
0
2
ByLayer
3

72
65
73
0
40
0
0
LTYPE
5
16
100
AcDbSymbolTableRecord
100
AcDbLinetypeTableRecord
70
0
2
CONTINUOUS
3
Solid line
72
65
73
0
40
0
0
LTYPE
5
6A
100
AcDbSymbolTableRecord
100
AcDbLinetypeTableRecord
70
0
2
CENTER
3
____ _ ____ _ ____ _ ____
72
65
73
4
40
47.5
49
22
74
0
49
-8.5
74
0
49
8.5
74
0
49
-8.5
74
0
0
LTYPE
5
6B
100
AcDbSymbolTableRecord
100
AcDbLinetypeTableRecord
70
0
2
DASHED
3
__ __ __ __ __ __ __ __ __
72
65
73
2
40
25.72
49
12.86
74
0
49
-12.86
74
0
0
ENDTAB
0
TABLE
2
LAYER
5
19e
100
AcDbSymbolTable
0
LAYER
5
10
100
AcDbSymbolTableRecord
100
AcDbLayerTableRecord
2
0
70
0
62
7
6
CONTINUOUS
290
1
370
-3
390
0
0
LAYER
5
6D
100
AcDbSymbolTableRecord
100
AcDbLayerTableRecord
2
81
70
0
62
-3
6
CONTINUOUS
290
1
370
-3
390
0
0
LAYER
5
6F
100
AcDbSymbolTableRecord
100
AcDbLayerTableRecord
2
80
70
0
62
-6
6
CONTINUOUS
290
1
370
-3
390
0
0
LAYER
5
74
100
AcDbSymbolTableRecord
100
AcDbLayerTableRecord
2
2
70
0
62
7
6
CONTINUOUS
290
1
370
-3
390
0
0
LAYER
5
78
100
AcDbSymbolTableRecord
100
AcDbLayerTableRecord
2
1
70
0
62
4
6
CONTINUOUS
290
1
370
-3
390
0
0
LAYER
5
86
100
AcDbSymbolTableRecord
100
AcDbLayerTableRecord
2
4
70
0
62
-2
6
CENTER
290
1
370
-3
390
0
0
LAYER
5
188
100
AcDbSymbolTableRecord
100
AcDbLayerTableRecord
2
SK2
70
0
62
7
6
CONTINUOUS
290
1
370
-3
390
0
0
LAYER
5
189
100
AcDbSymbolTableRecord
100
AcDbLayerTableRecord
2
SK1
70
0
62
4
6
CONTINUOUS
290
1
370
-3
390
0
0
LAYER
5
18a
100
AcDbSymbolTableRecord
100
AcDbLayerTableRecord
2
SK4
70
0
62
2
6
CENTER
290
1
370
-3
390
0
0
LAYER
5
18b
100
AcDbSymbolTableRecord
100
AcDbLayerTableRecord
2
SK6
70
0
62
5
6
CONTINUOUS
290
1
370
-3
390
0
0
ENDTAB
0
TABLE
2
STYLE
5
19f
100
AcDbSymbolTable
0
STYLE
5
11
100
AcDbSymbolTableRecord
100
AcDbTextStyleTableRecord
2
Standard
3
txt
70
0
71
0
40
0
41
1
42
0
50
0
0
STYLE
5
E4
100
AcDbSymbolTableRecord
100
AcDbTextStyleTableRecord
2
iso_b_vert
3
simplex.shx
70
0
71
0
40
0
41
1
42
0
50
0
0
STYLE
5
E5
100
AcDbSymbolTableRecord
100
AcDbTextStyleTableRecord
2
DWGDirectTextStyle
3
simplex
70
0
71
0
40
0
41
1
42
0
50
0
0
ENDTAB
0
TABLE
2
DIMSTYLE
5
1a0
100
AcDbSymbolTable
100
AcDbDimStyleTable
0
DIMSTYLE
105
27
100
AcDbSymbolTableRecord
100
AcDbDimStyleTableRecord
2
Standard
70
0
3
<>
41
0.18
42
0.0625
44
0.18
140
0.18
147
0.09
73
0
74
0
77
1
271
2
275
0
278
52
280
0
340
11
0
ENDTAB
0
TABLE
2
VIEW
5
1a1
100
AcDbSymbolTable
0
ENDTAB
0
TABLE
2
UCS
5
1a2
100
AcDbSymbolTable
0
ENDTAB
0
TABLE
2
APPID
5
1a3
100
AcDbSymbolTable
0
APPID
5
12
100
AcDbSymbolTableRecord
100
AcDbRegAppTableRecord
2
ACAD
70
0
0
ENDTAB
0
TABLE
2
BLOCK_RECORD
5
1a4
100
AcDbSymbolTable
0
BLOCK_RECORD
5
1F
100
AcDbSymbolTableRecord
100
AcDbBlockTableRecord
2
*Model_Space
340
0
70
0
0
BLOCK_RECORD
5
1B
100
AcDbSymbolTableRecord
100
AcDbBlockTableRecord
2
*Paper_Space
340
0
70
0
0
BLOCK_RECORD
5
23
100
AcDbSymbolTableRecord
100
AcDbBlockTableRecord
2
*Paper_Space0
340
0
70
0
0
BLOCK_RECORD
5
E7
100
AcDbSymbolTableRecord
100
AcDbBlockTableRecord
2
DimnDraft3D1
340
0
70
0
0
BLOCK_RECORD
5
F1
100
AcDbSymbolTableRecord
100
AcDbBlockTableRecord
2
DimnDraft3D2
340
0
70
0
0
BLOCK_RECORD
5
FB
100
AcDbSymbolTableRecord
100
AcDbBlockTableRecord
2
DimnDraft3D3
340
0
70
0
0
BLOCK_RECORD
5
105
100
AcDbSymbolTableRecord
100
AcDbBlockTableRecord
2
DimnDraft3D4
340
0
70
0
0
BLOCK_RECORD
5
10F
100
AcDbSymbolTableRecord
100
AcDbBlockTableRecord
2
DimnDraft3D5
340
0
70
0
0
BLOCK_RECORD
5
119
100
AcDbSymbolTableRecord
100
AcDbBlockTableRecord
2
DimnDraft3D6
340
0
70
0
0
BLOCK_RECORD
5
124
100
AcDbSymbolTableRecord
100
AcDbBlockTableRecord
2
DimnDraft3D7
340
0
70
0
0
ENDTAB
0
ENDSEC
0
SECTION
2
BLOCKS
0
BLOCK
5
20
100
AcDbEntity
8
0
100
AcDbBlockBegin
2
*Model_Space
70
0
10
0
20
0
30
0
3
*Model_Space
0
ENDBLK
5
21
100
AcDbEntity
8
0
100
AcDbBlockEnd
0
BLOCK
5
1C
100
AcDbEntity
8
0
100
AcDbBlockBegin
2
*Paper_Space
70
0
10
0
20
0
30
0
3
*Paper_Space
0
ENDBLK
5
1D
100
AcDbEntity
8
0
100
AcDbBlockEnd
0
BLOCK
5
24
100
AcDbEntity
8
0
100
AcDbBlockBegin
2
*Paper_Space0
70
0
10
0
20
0
30
0
3
*Paper_Space0
0
ENDBLK
5
25
100
AcDbEntity
8
0
100
AcDbBlockEnd
0
BLOCK
5
EE
100
AcDbEntity
8
0
100
AcDbBlockBegin
2
DimnDraft3D1
70
0
10
0
20
0
30
0
3
DimnDraft3D1
0
MTEXT
5
E8
100
AcDbEntity
8
SK2
62
256
6
ByLayer
370
13
48
1
60
0
100
AcDbMText
10
29.811054
20
-14.588398
30
0
210
0
220
0
230
1
1
\W0.7159;71,44
40
3.5
41
0
44
1.084337
50
0
71
7
72
5
7
iso_b_vert
0
LINE
5
E9
100
AcDbEntity
8
SK2
62
256
6
ByLayer
370
13
48
1
60
0
100
AcDbLine
10
0
20
-1.5875
30
0
11
0
21
-17.463398
31
0
39
0
210
0
220
0
230
1
0
LINE
5
EA
100
AcDbEntity
8
SK2
62
256
6
ByLayer
370
13
48
1
60
0
100
AcDbLine
10
71.4406
20
-6.8375
30
0
11
71.4406
21
-17.463398
31
0
39
0
210
0
220
0
230
1
0
LINE
5
EB
100
AcDbEntity
8
SK2
62
256
6
ByLayer
370
13
48
1
60
0
100
AcDbLine
10
0
20
-15.463398
30
0
11
71.4406
21
-15.463398
31
0
39
0
210
0
220
0
230
1
0
SOLID
5
EC
100
AcDbEntity
8
SK2
62
256
6
ByLayer
370
13
48
1
60
0
100
AcDbTrace
10
0
20
-15.463398
30
0
11
3.499998
21
-15.002615
31
0
12
3.500002
22
-15.924182
32
0
13
0
23
-15.463398
33
0
39
0
210
0
220
0
230
1
0
SOLID
5
ED
100
AcDbEntity
8
SK2
62
256
6
ByLayer
370
13
48
1
60
0
100
AcDbTrace
10
71.4406
20
-15.463398
30
0
11
67.940602
21
-15.924182
31
0
12
67.940598
22
-15.002615
32
0
13
71.4406
23
-15.463398
33
0
39
0
210
0
220
0
230
1
0
ENDBLK
5
EF
100
AcDbEntity
8
0
100
AcDbBlockEnd
0
BLOCK
5
F8
100
AcDbEntity
8
0
100
AcDbBlockBegin
2
DimnDraft3D2
70
0
10
0
20
0
30
0
3
DimnDraft3D2
0
MTEXT
5
F2
100
AcDbEntity
8
SK2
62
256
6
ByLayer
370
13
48
1
60
0
100
AcDbMText
10
8.900321
20
-33.817985
30
0
210
0
220
0
230
1
1
\W0.6440;118,00
40
3.5
41
0
44
1.084337
50
0
71
7
72
5
7
iso_b_vert
0
LINE
5
F3
100
AcDbEntity
8
SK2
62
256
6
ByLayer
370
13
48
1
60
0
100
AcDbLine
10
-45
20
-7.5875
30
0
11
-45
21
-36.692985
31
0
39
0
210
0
220
0
230
1
0
LINE
5
F4
100
AcDbEntity
8
SK2
62
256
6
ByLayer
370
13
48
1
60
0
100
AcDbLine
10
73
20
-1.5875
30
0
11
73
21
-36.692985
31
0
39
0
210
0
220
0
230
1
0
LINE
5
F5
100
AcDbEntity
8
SK2
62
256
6
ByLayer
370
13
48
1
60
0
100
AcDbLine
10
-45
20
-34.692985
30
0
11
73
21
-34.692985
31
0
39
0
210
0
220
0
230
1
0
SOLID
5
F6
100
AcDbEntity
8
SK2
62
256
6
ByLayer
370
13
48
1
60
0
100
AcDbTrace
10
-45
20
-34.692985
30
0
11
-41.500002
21
-34.232202
31
0
12
-41.499998
22
-35.153769
32
0
13
-45
23
-34.692985
33
0
39
0
210
0
220
0
230
1
0
SOLID
5
F7
100
AcDbEntity
8
SK2
62
256
6
ByLayer
370
13
48
1
60
0
100
AcDbTrace
10
73
20
-34.692985
30
0
11
69.500002
21
-35.153769
31
0
12
69.499998
22
-34.232202
32
0
13
73
23
-34.692985
33
0
39
0
210
0
220
0
230
1
0
ENDBLK
5
F9
100
AcDbEntity
8
0
100
AcDbBlockEnd
0
BLOCK
5
102
100
AcDbEntity
8
0
100
AcDbBlockBegin
2
DimnDraft3D3
70
0
10
0
20
0
30
0
3
DimnDraft3D3
0
MTEXT
5
FC
100
AcDbEntity
8
SK2
62
256
6
ByLayer
370
13
48
1
60
0
100
AcDbMText
10
41.342105
20
17.734119
30
0
210
0
220
0
230
1
1
\W0.7581;54,05
40
3.5
41
0
44
1.084337
50
0
71
7
72
5
7
iso_b_vert
0
LINE
5
FD
100
AcDbEntity
8
SK2
62
256
6
ByLayer
370
13
48
1
60
0
100
AcDbLine
10
18.95
20
6.8375
30
0
11
18.95
21
18.859119
31
0
39
0
210
0
220
0
230
1
0
LINE
5
FE
100
AcDbEntity
8
SK2
62
256
6
ByLayer
370
13
48
1
60
0
100
AcDbLine
10
73
20
1.5875
30
0
11
73
21
18.859119
31
0
39
0
210
0
220
0
230
1
0
LINE
5
FF
100
AcDbEntity
8
SK2
62
256
6
ByLayer
370
13
48
1
60
0
100
AcDbLine
10
18.95
20
16.859119
30
0
11
73
21
16.859119
31
0
39
0
210
0
220
0
230
1
0
SOLID
5
100
100
AcDbEntity
8
SK2
62
256
6
ByLayer
370
13
48
1
60
0
100
AcDbTrace
10
18.95
20
16.859119
30
0
11
22.449998
21
17.319903
31
0
12
22.450002
22
16.398335
32
0
13
18.95
23
16.859119
33
0
39
0
210
0
220
0
230
1
0
SOLID
5
101
100
AcDbEntity
8
SK2
62
256
6
ByLayer
370
13
48
1
60
0
100
AcDbTrace
10
73
20
16.859119
30
0
11
69.500002
21
16.398335
31
0
12
69.499998
22
17.319903
32
0
13
73
23
16.859119
33
0
39
0
210
0
220
0
230
1
0
ENDBLK
5
103
100
AcDbEntity
8
0
100
AcDbBlockEnd
0
BLOCK
5
10C
100
AcDbEntity
8
0
100
AcDbBlockBegin
2
DimnDraft3D4
70
0
10
0
20
0
30
0
3
DimnDraft3D4
0
MTEXT
5
106
100
AcDbEntity
8
SK2
62
256
6
ByLayer
370
13
48
1
60
0
100
AcDbMText
10
80.278136
20
-17.177503
30
0
210
0
220
0
230
1
1
\W0.6367;1,56
40
3.5
41
0
44
1.084337
50
0
71
7
72
5
7
iso_b_vert
0
LINE
5
107
100
AcDbEntity
8
SK2
62
256
6
ByLayer
370
13
48
1
60
0
100
AcDbLine
10
73
20
-1.5875
30
0
11
73
21
-20.052503
31
0
39
0
210
0
220
0
230
1
0
LINE
5
108
100
AcDbEntity
8
SK2
62
256
6
ByLayer
370
13
48
1
60
0
100
AcDbLine
10
71.4406
20
-6.8375
30
0
11
71.4406
21
-20.052503
31
0
39
0
210
0
220
0
230
1
0
LINE
5
109
100
AcDbEntity
8
SK2
62
256
6
ByLayer
370
13
48
1
60
0
100
AcDbLine
10
62.6906
20
-18.052503
30
0
11
86.559715
21
-18.052503
31
0
39
0
210
0
220
0
230
1
0
SOLID
5
10A
100
AcDbEntity
8
SK2
62
256
6
ByLayer
370
13
48
1
60
0
100
AcDbTrace
10
73
20
-18.052503
30
0
11
76.499998
21
-17.591719
31
0
12
76.500002
22
-18.513287
32
0
13
73
23
-18.052503
33
0
39
0
210
0
220
0
230
1
0
SOLID
5
10B
100
AcDbEntity
8
SK2
62
256
6
ByLayer
370
13
48
1
60
0
100
AcDbTrace
10
71.4406
20
-18.052503
30
0
11
67.940602
21
-18.513287
31
0
12
67.940598
22
-17.591719
32
0
13
71.4406
23
-18.052503
33
0
39
0
210
0
220
0
230
1
0
ENDBLK
5
10D
100
AcDbEntity
8
0
100
AcDbBlockEnd
0
BLOCK
5
116
100
AcDbEntity
8
0
100
AcDbBlockBegin
2
DimnDraft3D5
70
0
10
0
20
0
30
0
3
DimnDraft3D5
0
MTEXT
5
110
100
AcDbEntity
8
SK2
62
256
6
ByLayer
370
13
48
1
60
0
100
AcDbMText
10
5.451276
20
-23.468428
30
0
210
0
220
0
230
1
1
\W0.6775;116,44
40
3.5
41
0
44
1.084337
50
0
71
7
72
5
7
iso_b_vert
0
LINE
5
111
100
AcDbEntity
8
SK2
62
256
6
ByLayer
370
13
48
1
60
0
100
AcDbLine
10
-45
20
-7.5875
30
0
11
-45
21
-26.343428
31
0
39
0
210
0
220
0
230
1
0
LINE
5
112
100
AcDbEntity
8
SK2
62
256
6
ByLayer
370
13
48
1
60
0
100
AcDbLine
10
71.4406
20
-6.8375
30
0
11
71.4406
21
-26.343428
31
0
39
0
210
0
220
0
230
1
0
LINE
5
113
100
AcDbEntity
8
SK2
62
256
6
ByLayer
370
13
48
1
60
0
100
AcDbLine
10
-45
20
-24.343428
30
0
11
71.4406
21
-24.343428
31
0
39
0
210
0
220
0
230
1
0
SOLID
5
114
100
AcDbEntity
8
SK2
62
256
6
ByLayer
370
13
48
1
60
0
100
AcDbTrace
10
-45
20
-24.343428
30
0
11
-41.500002
21
-23.882645
31
0
12
-41.499998
22
-24.804212
32
0
13
-45
23
-24.343428
33
0
39
0
210
0
220
0
230
1
0
SOLID
5
115
100
AcDbEntity
8
SK2
62
256
6
ByLayer
370
13
48
1
60
0
100
AcDbTrace
10
71.4406
20
-24.343428
30
0
11
67.940602
21
-24.804212
31
0
12
67.940598
22
-23.882645
32
0
13
71.4406
23
-24.343428
33
0
39
0
210
0
220
0
230
1
0
ENDBLK
5
117
100
AcDbEntity
8
0
100
AcDbBlockEnd
0
BLOCK
5
121
100
AcDbEntity
8
0
100
AcDbBlockBegin
2
DimnDraft3D6
70
0
10
0
20
0
30
0
3
DimnDraft3D6
0
MTEXT
5
11A
100
AcDbEntity
8
SK2
62
256
6
ByLayer
370
13
48
1
60
0
100
AcDbMText
10
-55.375163
20
25.34918
30
0
210
0
220
0
230
1
1
\W0.6930;12,000
40
3.5
41
0
44
1.084337
50
90
71
7
72
5
7
iso_b_vert
0
MTEXT
5
11B
100
AcDbEntity
8
SK2
62
256
6
ByLayer
370
13
48
1
60
0
100
AcDbMText
10
-55.375163
20
20.126524
30
0
210
0
220
0
230
1
1
%%c
40
3.5
41
0
44
1.084337
50
90
71
7
72
5
7
iso_b_vert
0
LINE
5
11C
100
AcDbEntity
8
SK2
62
256
6
ByLayer
370
13
48
1
60
0
100
AcDbLine
10
-46.5875
20
-6
30
0
11
-55.625163
21
-6
31
0
39
0
210
0
220
0
230
1
0
LINE
5
11D
100
AcDbEntity
8
SK2
62
256
6
ByLayer
370
13
48
1
60
0
100
AcDbLine
10
-46.5875
20
6
30
0
11
-55.625163
21
6
31
0
39
0
210
0
220
0
230
1
0
LINE
5
11E
100
AcDbEntity
8
SK2
62
256
6
ByLayer
370
13
48
1
60
0
100
AcDbLine
10
-53.625163
20
-6
30
0
11
-53.625163
21
36.862338
31
0
39
0
210
0
220
0
230
1
0
SOLID
5
11F
100
AcDbEntity
8
SK2
62
256
6
ByLayer
370
13
48
1
60
0
100
AcDbTrace
10
-53.625163
20
-6
30
0
11
-54.085946
21
-2.500002
31
0
12
-53.164379
22
-2.499998
32
0
13
-53.625163
23
-6
33
0
39
0
210
0
220
0
230
1
0
SOLID
5
120
100
AcDbEntity
8
SK2
62
256
6
ByLayer
370
13
48
1
60
0
100
AcDbTrace
10
-53.625163
20
6
30
0
11
-53.164379
21
2.500002
31
0
12
-54.085946
22
2.499998
32
0
13
-53.625163
23
6
33
0
39
0
210
0
220
0
230
1
0
ENDBLK
5
122
100
AcDbEntity
8
0
100
AcDbBlockEnd
0
BLOCK
5
12C
100
AcDbEntity
8
0
100
AcDbBlockBegin
2
DimnDraft3D7
70
0
10
0
20
0
30
0
3
DimnDraft3D7
0
MTEXT
5
125
100
AcDbEntity
8
2
62
256
6
ByLayer
370
13
48
1
60
0
100
AcDbMText
10
83.333343
20
23.192266
30
0
210
0
220
0
230
1
1
\W0.6930;10,500
40
3.5
41
0
44
1.084337
50
90
71
7
72
5
7
iso_b_vert
0
MTEXT
5
126
100
AcDbEntity
8
2
62
256
6
ByLayer
370
13
48
1
60
0
100
AcDbMText
10
83.333343
20
17.96961
30
0
210
0
220
0
230
1
1
%%c
40
3.5
41
0
44
1.084337
50
90
71
7
72
5
7
iso_b_vert
0
LINE
5
127
100
AcDbEntity
8
2
62
256
6
ByLayer
370
13
48
1
60
0
100
AcDbLine
10
73.0281
20
-5.25
30
0
11
87.083343
21
-5.25
31
0
39
0
210
0
220
0
230
1
0
LINE
5
128
100
AcDbEntity
8
2
62
256
6
ByLayer
370
13
48
1
60
0
100
AcDbLine
10
73.0281
20
5.25
30
0
11
87.083343
21
5.25
31
0
39
0
210
0
220
0
230
1
0
LINE
5
129
100
AcDbEntity
8
2
62
256
6
ByLayer
370
13
48
1
60
0
100
AcDbLine
10
85.083343
20
-5.25
30
0
11
85.083343
21
34.705424
31
0
39
0
210
0
220
0
230
1
0
SOLID
5
12A
100
AcDbEntity
8
2
62
256
6
ByLayer
370
13
48
1
60
0
100
AcDbTrace
10
85.083343
20
-5.25
30
0
11
84.622559
21
-1.750002
31
0
12
85.544126
22
-1.749998
32
0
13
85.083343
23
-5.25
33
0
39
0
210
0
220
0
230
1
0
SOLID
5
12B
100
AcDbEntity
8
2
62
256
6
ByLayer
370
13
48
1
60
0
100
AcDbTrace
10
85.083343
20
5.25
30
0
11
85.544126
21
1.750002
31
0
12
84.622559
22
1.749998
32
0
13
85.083343
23
5.25
33
0
39
0
210
0
220
0
230
1
0
ENDBLK
5
12D
100
AcDbEntity
8
0
100
AcDbBlockEnd
0
ENDSEC
0
SECTION
2
ENTITIES
0
ARC
5
93
100
AcDbEntity
8
1
62
256
6
ByLayer
370
18
48
1
60
0
100
AcDbCircle
39
0
10
-0.35
20
5.555571
30
0
40
0.350000000000001
210
0
220
0
230
-1
100
AcDbArc
50
269.96419
51
0
0
ARC
5
94
100
AcDbEntity
8
1
62
256
6
ByLayer
370
18
48
1
60
0
100
AcDbCircle
39
0
10
-0.35
20
-5.555571
30
0
40
0.350000000000001
210
0
220
0
230
-1
100
AcDbArc
50
0
51
90.03581
0
ELLIPSE
5
95
100
AcDbEntity
8
1
62
256
6
ByLayer
370
13
48
1
60
0
100
AcDbEllipse
10
2.68654
20
-4.854
30
0
11
0.0132175510536214
21
0.0991226328551906
31
0
210
0
220
0
230
1
40
0.420001
41
0.304479380191987
42
1.85975657358984
0
ELLIPSE
5
96
100
AcDbEntity
8
1
62
256
6
ByLayer
370
13
48
1
60
0
100
AcDbEllipse
10
2.620672
20
-4.85982
30
0
11
-0.0317408196984216
21
0.0948289004727583
31
0
210
0
220
0
230
1
40
0.491412
41
0.291198368794163
42
1.65449212211808
0
POINT
5
6C
100
AcDbEntity
8
81
62
256
6
ByLayer
370
18
48
1
60
0
100
AcDbPoint
10
73
20
0
30
0
39
0
210
0
220
0
230
1
50
360
0
POINT
5
6E
100
AcDbEntity
8
80
62
256
6
ByLayer
370
18
48
1
60
0
100
AcDbPoint
10
0
20
0
30
0
39
0
210
0
220
0
230
1
50
360
0
POINT
5
70
100
AcDbEntity
8
SK2
62
256
6
ByLayer
370
18
48
1
60
1
100
AcDbPoint
10
-45
20
-6
30
0
39
0
210
0
220
0
230
1
50
360
0
POINT
5
72
100
AcDbEntity
8
SK2
62
256
6
ByLayer
370
18
48
1
60
1
100
AcDbPoint
10
-45
20
6
30
0
39
0
210
0
220
0
230
1
50
360
0
POINT
5
73
100
AcDbEntity
8
2
62
256
6
ByLayer
370
18
48
1
60
1
100
AcDbPoint
10
71.4406
20
-5.25
30
0
39
0
210
0
220
0
230
1
50
360
0
POINT
5
75
100
AcDbEntity
8
2
62
256
6
ByLayer
370
18
48
1
60
1
100
AcDbPoint
10
71.4406
20
5.25
30
0
39
0
210
0
220
0
230
1
50
360
0
SPLINE
5
97
100
AcDbEntity
8
1
62
256
6
ByLayer
370
18
48
1
60
0
100
AcDbSpline
70
4
71
3
72
27
73
23
40
0
40
0
40
0
40
0
40
0.02794481495316
40
0.0778168784044134
40
0.131322819018121
40
0.185353075540449
40
0.251325539202648
40
0.324800088718509
40
0.376597029347343
40
0.421825374679177
40
0.475287312807247
40
0.530918681666988
40
0.579419805006336
40
0.631425069695216
40
0.697482846971784
40
0.76827687147412
40
0.825131408156226
40
0.884095749086352
40
0.927126647176791
40
0.964589639769917
40
0.995131386742554
40
1
40
1
40
1
40
1
41
1
10
53.3650382089096
20
4.97578138054831
30
0
41
1
10
53.2512428400547
20
4.97585133329386
30
0
41
1
10
52.9343597209294
20
4.97590611527647
30
0
41
1
10
52.399582080263
20
4.97433262198754
30
0
41
1
10
51.7585747860453
20
4.97390326480314
30
0
41
1
10
51.0520023882153
20
4.97451097658805
30
0
41
1
10
50.2641155526704
20
4.97287536278355
30
0
41
1
10
49.4853170566478
20
4.97305309596115
30
0
41
1
10
48.7910300176179
20
4.97334444255804
30
0
41
1
10
48.178125946196
20
4.97213455661529
30
0
41
1
10
47.5500425222407
20
4.97158097802523
30
0
41
1
10
46.9069371341341
20
4.97288864921393
30
0
41
1
10
46.2845565639329
20
4.96783174609658
30
0
41
1
10
45.6055641880244
20
4.97054207836405
30
0
41
1
10
44.8444509295954
20
4.97140237353702
30
0
41
1
10
44.0532830737365
20
4.9697224160974
30
0
41
1
10
43.2938759050737
20
4.96985296572538
30
0
41
1
10
42.6468522771284
20
4.9697649497424
30
0
41
1
10
42.0790279561092
20
4.96907657994967
30
0
41
1
10
41.6267055992372
20
4.96869487533181
30
0
41
1
10
41.3306170139206
20
4.96856721460668
30
0
41
1
10
41.1864358544854
20
4.96850175631047
30
0
41
1
10
41.1666085137924
20
4.9684928328972
30
0
0
SPLINE
5
98
100
AcDbEntity
8
1
62
256
6
ByLayer
370
18
48
1
60
0
100
AcDbSpline
70
4
71
3
72
29
73
25
40
0
40
0
40
0
40
0
40
0.0490952365347208
40
0.0918768820838594
40
0.130323330615108
40
0.161947996671195
40
0.187305661256932
40
0.225396689003662
40
0.271469662624968
40
0.312380237910558
40
0.364290486527203
40
0.435777085730354
40
0.503653830240378
40
0.565910625165978
40
0.621001989190929
40
0.677496398136594
40
0.727360439020043
40
0.781151275905564
40
0.834928524741139
40
0.871262181987161
40
0.910186804140583
40
0.95570757698817
40
0.99034013955794
40
1
40
1
40
1
40
1
41
1
10
5.45401793806224
20
-4.94630750897966
30
0
41
1
10
5.69533509684555
20
-4.94502154336553
30
0
41
1
10
6.15064962118552
20
-4.94383187145144
30
0
41
1
10
6.82946399502947
20
-4.94293473109883
30
0
41
1
10
7.38682370206962
20
-4.94864233065982
30
0
41
1
10
7.8703608692644
20
-4.94848050345132
30
0
41
1
10
8.35852681394002
20
-4.94888954773737
30
0
41
1
10
8.91902529810758
20
-4.94959285228717
30
0
41
1
10
9.5599435760582
20
-4.95007050022235
30
0
41
1
10
10.2714315960479
20
-4.9500021247934
30
0
41
1
10
11.113163603649
20
-4.95122564738409
30
0
41
1
10
12.0930169237966
20
-4.9512460879379
30
0
41
1
10
13.1258962913917
20
-4.95261512221162
30
0
41
1
10
14.0747759803306
20
-4.95273675358655
30
0
41
1
10
14.9653504127869
20
-4.95331114650884
30
0
41
1
10
15.7924369665045
20
-4.95444722689729
30
0
41
1
10
16.6128619652486
20
-4.95388072748281
30
0
41
1
10
17.4193663235677
20
-4.95535712649112
30
0
41
1
10
18.1565472849348
20
-4.95564639064295
30
0
41
1
10
18.817602179418
20
-4.95625108427146
30
0
41
1
10
19.4361928640917
20
-4.95816874877028
30
0
41
1
10
20.0433219016138
20
-4.95651753617463
30
0
41
1
10
20.5063834042178
20
-4.95650306382061
30
0
41
1
10
20.7301193521807
20
-4.95703240263953
30
0
41
1
10
20.77882026306
20
-4.95716916922441
30
0
0
SPLINE
5
99
100
AcDbEntity
8
1
62
256
6
ByLayer
370
18
48
1
60
0
100
AcDbSpline
70
4
71
1
72
4
73
2
40
0
40
0
40
1
40
1
41
1
10
70.8293622140284
20
-4.98708715664293
30
0
41
1
10
71.2247237290093
20
-4.98643638865016
30
0
0
SPLINE
5
9A
100
AcDbEntity
8
1
62
256
6
ByLayer
370
18
48
1
60
0
100
AcDbSpline
70
4
71
3
72
33
73
29
40
0
40
0
40
0
40
0
40
0.0541579655973671
40
0.102308097447348
40
0.13925247676038
40
0.169138726229929
40
0.194173755636387
40
0.216602431861159
40
0.248837960977988
40
0.287210162488907
40
0.324298928613305
40
0.358562797212314
40
0.396466663044205
40
0.44164644122552
40
0.483388956640639
40
0.517598438862633
40
0.548922953101483
40
0.581371455924723
40
0.61796087715721
40
0.66453085870989
40
0.703327226635942
40
0.754042270435628
40
0.818417598658241
40
0.871946780661848
40
0.915797959361652
40
0.956340125726715
40
0.986593721224593
40
1
40
1
40
1
40
1
41
1
10
38.1924060591619
20
-4.96670986706255
30
0
41
1
10
38.4662533065251
20
-4.96686443735692
30
0
41
1
10
38.9836451278046
20
-4.96722237661032
30
0
41
1
10
39.689880960269
20
-4.9672422260989
30
0
41
1
10
40.2705055003942
20
-4.96830446283042
30
0
41
1
10
40.73302201117
20
-4.96835624670913
30
0
41
1
10
41.1255179274909
20
-4.96843560452189
30
0
41
1
10
41.5282625356641
20
-4.96869010299139
30
0
41
1
10
41.9996356328843
20
-4.96894435518601
30
0
41
1
10
42.5451213275119
20
-4.96966750156432
30
0
41
1
10
43.100937878404
20
-4.96989209991312
30
0
41
1
10
43.654372359515
20
-4.9696385710744
30
0
41
1
10
44.2487844006809
20
-4.97032503142231
30
0
41
1
10
44.8811228385367
20
-4.97100185535521
30
0
41
1
10
45.4945678109034
20
-4.97140418332521
30
0
41
1
10
46.0250909235469
20
-4.96750552911516
30
0
41
1
10
46.524281053883
20
-4.97073041841318
30
0
41
1
10
47.0223370035799
20
-4.97223922103987
30
0
41
1
10
47.6095892582857
20
-4.97172039190784
30
0
41
1
10
48.2267988161669
20
-4.97219539555138
30
0
41
1
10
48.9162561721332
20
-4.97351864270192
30
0
41
1
10
49.695705636737
20
-4.97268071484658
30
0
41
1
10
50.5498568325699
20
-4.97371723326489
30
0
41
1
10
51.3692210058015
20
-4.97431548676255
30
0
41
1
10
52.0678635882422
20
-4.9738833771039
30
0
41
1
10
52.6486036818169
20
-4.97507339285576
30
0
41
1
10
53.0751199844478
20
-4.97595737509582
30
0
41
1
10
53.2962725594297
20
-4.97589797306932
30
0
41
1
10
53.3641798872336
20
-4.9758510199523
30
0
0
SPLINE
5
9B
100
AcDbEntity
8
1
62
256
6
ByLayer
370
18
48
1
60
0
100
AcDbSpline
70
4
71
3
72
30
73
26
40
0
40
0
40
0
40
0
40
0.0177937812430756
40
0.0492820121198762
40
0.0818059698065107
40
0.115052002415094
40
0.167715130798402
40
0.212081602689508
40
0.24827330392409
40
0.295625993965274
40
0.351834896465787
40
0.402852288902773
40
0.450342662350695
40
0.503919408263287
40
0.56269004612039
40
0.607711286212982
40
0.656235393058089
40
0.71788926470051
40
0.769423064364198
40
0.813526467646938
40
0.870496162151243
40
0.927171860329388
40
0.973354371253876
40
0.998787705881787
40
1
40
1
40
1
40
1
41
1
10
20.7219397598828
20
4.95723865938029
30
0
41
1
10
20.6494076533641
20
4.95713114844335
30
0
41
1
10
20.4485193615766
20
4.95691732776643
30
0
41
1
10
20.1150349311891
20
4.95713924602887
30
0
41
1
10
19.7185692055806
20
4.95753760575198
30
0
41
1
10
19.2357813754917
20
4.95776979213156
30
0
41
1
10
18.7047215158122
20
4.95593754061571
30
0
41
1
10
18.1616475554634
20
4.95572453667944
30
0
41
1
10
17.6402249521579
20
4.9555267563245
30
0
41
1
10
17.0705266134551
20
4.95460697481886
30
0
41
1
10
16.4403926177547
20
4.95400268737268
30
0
41
1
10
15.8096942902616
20
4.95431079723809
30
0
41
1
10
15.1897266293191
20
4.95377694617056
30
0
41
1
10
14.5381547798535
20
4.9527731764409
30
0
41
1
10
13.8966487562363
20
4.95287122380364
30
0
41
1
10
13.275736564801
20
4.95266735417064
30
0
41
1
10
12.6430727871823
20
4.95175147898991
30
0
41
1
10
11.9838605326385
20
4.95141184420504
30
0
41
1
10
11.3426649359667
20
4.9513368093078
30
0
41
1
10
10.7205809606367
20
4.95055929270868
30
0
41
1
10
10.0775192811147
20
4.94996416008124
30
0
41
1
10
9.42598601801808
20
4.95005848885714
30
0
41
1
10
8.90302425444006
20
4.94953914107865
30
0
41
1
10
8.60613319528815
20
4.94919467301384
30
0
41
1
10
8.49752905467591
20
4.94908793948056
30
0
41
1
10
8.4925879395183
20
4.94908312175829
30
0
0
SPLINE
5
9C
100
AcDbEntity
8
SK1
62
256
6
ByLayer
370
18
48
1
60
0
100
AcDbSpline
70
4
71
3
72
10
73
6
40
0
40
0
40
0
40
0
40
0.5
40
0.5
40
1
40
1
40
1
40
1
41
1
10
-43.7
20
4.99658758900006
30
0
41
1
10
-43.9167301161795
20
4.7118783596986
30
0
41
1
10
-44.1327064929083
20
4.42686072434634
30
0
41
1
10
-44.561675628672
20
3.85560465280739
30
0
41
1
10
-44.774767822469
20
3.56940690214177
30
0
41
1
10
-44.984484331978
20
3.28182792954422
30
0
0
SPLINE
5
9D
100
AcDbEntity
8
SK1
62
256
6
ByLayer
370
18
48
1
60
0
100
AcDbSpline
70
4
71
3
72
8
73
4
40
0
40
0
40
0
40
0
40
1
40
1
40
1
40
1
41
1
10
-44.9844843319792
20
3.28182792953967
30
0
41
1
10
-44.9896067608204
20
3.2762943986522
30
0
41
1
10
-44.9947782821522
20
3.27059909435511
30
0
41
1
10
-45
20
3.26474264327013
30
0
0
SPLINE
5
9E
100
AcDbEntity
8
SK1
62
256
6
ByLayer
370
18
48
1
60
0
100
AcDbSpline
70
4
71
4
72
13
73
8
40
0
40
0
40
0
40
0
40
0
40
0.748703388922115
40
0.748703388922115
40
0.748703388922115
40
1
40
1
40
1
40
1
40
1
41
1.00741865391473
10
-45.0000004783938
20
3.2647427522384
30
0
41
1.01083777436493
10
-45.0000002950077
20
3.2231531120866
30
0
41
1.01419406562487
10
-45.0000001105954
20
3.17691531988806
30
0
41
1.0166117137858
10
-44.9999999296893
20
3.12751560330111
30
0
41
1.0166117137858
10
-44.9999996991537
20
3.06007823357386
30
0
41
1.0163393516292
10
-44.9999996404819
20
3.04251958405153
30
0
41
1.01585055156478
10
-44.9999995812426
20
3.02437488409196
30
0
41
1.01519358253994
10
-44.9999995216044
20
3.00567509950466
30
0
0
SPLINE
5
9F
100
AcDbEntity
8
SK1
62
256
6
ByLayer
370
18
48
1
60
0
100
AcDbSpline
70
4
71
3
72
14
73
10
40
0
40
0
40
0
40
0
40
0.25
40
0.25
40
0.5
40
0.5
40
0.75
40
0.75
40
1
40
1
40
1
40
1
41
1
10
-44.9999999999995
20
3.00567516919077
30
0
41
1
10
-44.9796663123559
20
3.02531427532972
30
0
41
1
10
-44.9614931503969
20
3.04685417096698
30
0
41
1
10
-44.9346235723603
20
3.09255669420278
30
0
41
1
10
-44.9258121985137
20
3.11728922347015
30
0
41
1
10
-44.9217903272507
20
3.1667756982815
30
0
41
1
10
-44.9266536358568
20
3.19218733253754
30
0
41
1
10
-44.9482032271028
20
3.23942444361933
30
0
41
1
10
-44.9648064106335
20
3.26170912300182
30
0
41
1
10
-44.9844843319962
20
3.28182792953584
30
0
0
SPLINE
5
A0
100
AcDbEntity
8
SK1
62
256
6
ByLayer
370
18
48
1
60
0
100
AcDbSpline
70
4
71
3
72
14
73
10
40
0
40
0
40
0
40
0
40
0.125000000000001
40
0.125000000000001
40
0.250000000000002
40
0.250000000000002
40
0.5
40
0.5
40
1
40
1
40
1
40
1
41
1
10
-43.6
20
5.07594401302686
30
0
41
1
10
-43.6
20
5.08153824092253
30
0
41
1
10
-43.6017220508865
20
5.08445510635909
30
0
41
1
10
-43.6068954324577
20
5.08658059269564
30
0
41
1
10
-43.610237321167
20
5.08590921075859
30
0
41
1
10
-43.6215324998379
20
5.0809824229755
30
0
41
1
10
-43.6303471072619
20
5.07405340745188
30
0
41
1
10
-43.658490206513
20
5.04805386119801
30
0
41
1
10
-43.678793979422
20
5.02444504546128
30
0
41
1
10
-43.7
20
4.99658758900006
30
0
0
SPLINE
5
A1
100
AcDbEntity
8
SK1
62
256
6
ByLayer
370
18
48
1
60
0
100
AcDbSpline
70
4
71
3
72
14
73
10
40
0
40
0
40
0
40
0
40
0.500000000000001
40
0.500000000000001
40
0.75
40
0.75
40
0.875
40
0.875
40
1
40
1
40
1
40
1
41
1
10
-43.7
20
3.31593148950438
30
0
41
1
10
-43.6789021434844
20
3.34364685539063
30
0
41
1
10
-43.6585587767127
20
3.3753884397222
30
0
41
1
10
-43.6303722414292
20
3.43003516869129
30
0
41
1
10
-43.6214260646625
20
3.44939169453784
30
0
41
1
10
-43.6102968606991
20
3.47945853250985
30
0
41
1
10
-43.6069058574072
20
3.48984060072104
30
0
41
1
10
-43.6017309986994
20
3.51062643807654
30
0
41
1
10
-43.6
20
3.52098079773342
30
0
41
1
10
-43.6
20
3.5297404014909
30
0
0
SPLINE
5
A2
100
AcDbEntity
8
SK1
62
256
6
ByLayer
370
18
48
1
60
0
100
AcDbSpline
70
4
71
3
72
10
73
6
40
0
40
0
40
0
40
0
40
0.5
40
0.5
40
1
40
1
40
1
40
1
41
1
10
-45
20
1.57988383738936
30
0
41
1
10
-44.7879374417014
20
1.87100242130455
30
0
41
1
10
-44.5722260987104
20
2.16082953831972
30
0
41
1
10
-44.1380273735393
20
2.73918536760846
30
0
41
1
10
-43.9193965959775
20
3.02771941795095
30
0
41
1
10
-43.7
20
3.31593148950444
30
0
0
SPLINE
5
A3
100
AcDbEntity
8
1
62
256
6
ByLayer
370
18
48
1
60
0
100
AcDbSpline
70
4
71
3
72
36
73
32
40
0
40
0
40
0
40
0
40
0.062499999999998
40
0.062499999999998
40
0.124999999999996
40
0.124999999999996
40
0.187499999999994
40
0.187499999999994
40
0.249999999999992
40
0.249999999999992
40
0.374999999999988
40
0.374999999999988
40
0.43749999999999
40
0.43749999999999
40
0.499999999999991
40
0.499999999999991
40
0.562499999999992
40
0.562499999999992
40
0.624999999999993
40
0.624999999999993
40
0.687499999999994
40
0.687499999999994
40
0.749999999999995
40
0.749999999999995
40
0.812499999999997
40
0.812499999999997
40
0.874999999999998
40
0.874999999999998
40
0.937499999999999
40
0.937499999999999
40
1
40
1
40
1
40
1
41
1
10
71.8219814354936
20
-1.73869689868397
30
0
41
1
10
71.8296820401742
20
-1.77558724914704
30
0
41
1
10
71.8343980319829
20
-1.81685483935485
30
0
41
1
10
71.8368410983326
20
-1.90556570896655
30
0
41
1
10
71.8346575171778
20
-1.95251079619305
30
0
41
1
10
71.8234173575576
20
-2.05200059158213
30
0
41
1
10
71.8142050313857
20
-2.10476234584001
30
0
41
1
10
71.7900976949749
20
-2.20967546394098
30
0
41
1
10
71.7749122781961
20
-2.26328174073126
30
0
41
1
10
71.7226522200035
20
-2.42041010242787
30
0
41
1
10
71.6788833902813
20
-2.52061846576234
30
0
41
1
10
71.6079724610466
20
-2.65309536895799
30
0
41
1
10
71.5831069581816
20
-2.69492956345499
30
0
41
1
10
71.5328443269003
20
-2.77138743994246
30
0
41
1
10
71.5073340493989
20
-2.80627876991051
30
0
41
1
10
71.4554851012754
20
-2.86991292566827
30
0
41
1
10
71.4292138826364
20
-2.89850807486525
30
0
41
1
10
71.3771916639315
20
-2.94837173387265
30
0
41
1
10
71.3512528885895
20
-2.96987554166691
30
0
41
1
10
71.299361486254
20
-3.0063164080201
30
0
41
1
10
71.2734327738727
20
-3.02118014429053
30
0
41
1
10
71.2227407387882
20
-3.04380205362651
30
0
41
1
10
71.1978029788051
20
-3.05169231978397
30
0
41
1
10
71.1485994037145
20
-3.0607708268065
30
0
41
1
10
71.1241760305917
20
-3.06193149798273
30
0
41
1
10
71.0768265388757
20
-3.0573770495576
30
0
41
1
10
71.0539163800588
20
-3.0517229180831
30
0
41
1
10
71.009536149438
20
-3.03370949826319
30
0
41
1
10
70.9880656319502
20
-3.02135300549105
30
0
41
1
10
70.9466131075421
20
-2.98950273558697
30
0
41
1
10
70.926645493823
20
-2.96993776266589
30
0
41
1
10
70.9080816077704
20
-2.94713181223204
30
0
0
SPLINE
5
A4
100
AcDbEntity
8
1
62
256
6
ByLayer
370
18
48
1
60
0
100
AcDbSpline
70
4
71
3
72
8
73
4
40
0
40
0
40
0
40
0
40
1
40
1
40
1
40
1
41
1
10
72.9947736681959
20
0.208213205343213
30
0
41
1
10
72.9953335453732
20
0.173060360430753
30
0
41
1
10
72.995387654268
20
0.137931943765636
30
0
41
1
10
72.9949078949074
20
0.102829312556452
30
0
0
SPLINE
5
A5
100
AcDbEntity
8
1
62
256
6
ByLayer
370
18
48
1
60
0
100
AcDbSpline
70
4
71
3
72
38
73
34
40
0
40
0
40
0
40
0
40
0.0156249999999999
40
0.0156249999999999
40
0.0312499999999997
40
0.0312499999999997
40
0.0624999999999996
40
0.0624999999999996
40
0.0937499999999994
40
0.0937499999999994
40
0.124999999999999
40
0.124999999999999
40
0.187499999999999
40
0.187499999999999
40
0.249999999999999
40
0.249999999999999
40
0.312499999999998
40
0.312499999999998
40
0.374999999999998
40
0.374999999999998
40
0.437499999999998
40
0.437499999999998
40
0.499999999999997
40
0.499999999999997
40
0.624999999999998
40
0.624999999999998
40
0.687499999999998
40
0.687499999999998
40
0.749999999999999
40
0.749999999999999
40
0.874999999999999
40
0.874999999999999
40
1
40
1
40
1
40
1
41
1
10
2.68783597099605
20
2.32797047916813
30
0
41
1
10
2.71772748085917
20
2.27325387136091
30
0
41
1
10
2.75054923344001
20
2.21911186502902
30
0
41
1
10
2.82014091049237
20
2.11321052111953
30
0
41
1
10
2.85704593375851
20
2.06120405785211
30
0
41
1
10
2.97303494723681
20
1.9075034357715
30
0
41
1
10
3.0573486656902
20
1.80810793786509
30
0
41
1
10
3.2363159276216
20
1.61369119724839
30
0
41
1
10
3.33102318187866
20
1.51873041011893
30
0
41
1
10
3.52490211440966
20
1.33533918559613
30
0
41
1
10
3.62456337151559
20
1.24639240377945
30
0
41
1
10
3.92976291517229
20
0.985743437969859
30
0
41
1
10
4.14141598918442
20
0.820126200388643
30
0
41
1
10
4.57537536689992
20
0.49916992227341
30
0
41
1
10
4.79775403300016
20
0.343908657857782
30
0
41
1
10
5.25039219674625
20
0.0407523025683076
30
0
41
1
10
5.47937338730054
20
-0.106220630853017
30
0
41
1
10
5.93937847967629
20
-0.392008445516808
30
0
41
1
10
6.17076635391157
20
-0.53100350232333
30
0
41
1
10
6.63556068961375
20
-0.803155254850509
30
0
41
1
10
6.86898926563623
20
-0.936244473648941
30
0
41
1
10
7.33785069876538
20
-1.19634385691035
30
0
41
1
10
7.57325840833477
20
-1.32344188821662
30
0
41
1
10
8.28214215776967
20
-1.69677916474171
30
0
41
1
10
8.75809827396779
20
-1.93559177021524
30
0
41
1
10
9.47808419196491
20
-2.27700171438744
30
0
41
1
10
9.71922117438049
20
-2.38795304498231
30
0
41
1
10
10.2012196544196
20
-2.60301556953939
30
0
41
1
10
10.4424153494317
20
-2.70735849687711
30
0
41
1
10
11.1671040642479
20
-3.01019656648188
30
0
41
1
10
11.6516321213263
20
-3.19788742430967
30
0
41
1
10
12.6271666415101
20
-3.54205949629008
30
0
41
1
10
13.1181983791572
20
-3.6992601460104
30
0
41
1
10
13.6144647073081
20
-3.83922821712719
30
0
0
SPLINE
5
A6
100
AcDbEntity
8
1
62
256
6
ByLayer
370
18
48
1
60
0
100
AcDbSpline
70
4
71
3
72
10
73
6
40
0
40
0
40
0
40
0
40
0.5
40
0.5
40
1
40
1
40
1
40
1
41
1
10
71.4361853270658
20
-5.10569086558627
30
0
41
1
10
71.4025100488514
20
-5.14181278325916
30
0
41
1
10
71.3678281117262
20
-5.17146969324156
30
0
41
1
10
71.2977275050722
20
-5.21658610672128
30
0
41
1
10
71.2622231087481
20
-5.23220629989314
30
0
41
1
10
71.2261828948114
20
-5.2410760159546
30
0
0
SPLINE
5
A7
100
AcDbEntity
8
1
62
256
6
ByLayer
370
13
48
1
60
0
100
AcDbSpline
70
4
71
3
72
8
73
4
40
0
40
0
40
0
40
0
40
1
40
1
40
1
40
1
41
1
10
2.68666904790513
20
-4.75777282796696
30
0
41
1
10
2.64857755692458
20
-4.75476624171336
30
0
41
1
10
2.61141885352913
20
-4.76001685505068
30
0
41
1
10
2.57688901459585
20
-4.7734614260381
30
0
0
SPLINE
5
A8
100
AcDbEntity
8
1
62
256
6
ByLayer
370
18
48
1
60
0
100
AcDbSpline
70
4
71
3
72
24
73
20
40
0
40
0
40
0
40
0
40
0.124999999999967
40
0.124999999999967
40
0.249999999999933
40
0.249999999999933
40
0.312499999999932
40
0.312499999999932
40
0.37499999999993
40
0.37499999999993
40
0.437499999999928
40
0.437499999999928
40
0.499999999999926
40
0.499999999999926
40
0.624999999999944
40
0.624999999999944
40
0.749999999999962
40
0.749999999999962
40
1
40
1
40
1
40
1
41
1
10
2.68773330530647
20
3.46375389538485
30
0
41
1
10
2.67824746305467
20
3.45112852080521
30
0
41
1
10
2.6682987080211
20
3.43902914685469
30
0
41
1
10
2.64650347178824
20
3.41680471898337
30
0
41
1
10
2.63462450961035
20
3.4063677281639
30
0
41
1
10
2.61340393344477
20
3.39539138108674
30
0
41
1
10
2.60563791239852
20
3.3925216169433
30
0
41
1
10
2.58866700417838
20
3.39068566944044
30
0
41
1
10
2.57919622160256
20
3.39201508022947
30
0
41
1
10
2.56151982823366
20
3.40019716745883
30
0
41
1
10
2.55349063176214
20
3.40673537783846
30
0
41
1
10
2.5397300298217
20
3.42139084872133
30
0
41
1
10
2.53387457647091
20
3.42949363891697
30
0
41
1
10
2.5182145121087
20
3.45435206444572
30
0
41
1
10
2.51008274967799
20
3.47192385497922
30
0
41
1
10
2.49599168133386
20
3.50682906509124
30
0
41
1
10
2.49001313749432
20
3.52442380853645
30
0
41
1
10
2.47405851940852
20
3.57751284834759
30
0
41
1
10
2.4662365150671
20
3.61337503729672
30
0
41
1
10
2.45993653999125
20
3.64914797588904
30
0
0
SPLINE
5
A9
100
AcDbEntity
8
1
62
256
6
ByLayer
370
13
48
1
60
0
100
AcDbSpline
70
4
71
3
72
10
73
6
40
0
40
0
40
0
40
0
40
0.945626770213755
40
0.945626770213755
40
1
40
1
40
1
40
1
41
1
10
2.64286848830318
20
-4.87692475605346
30
0
41
1
10
4.08476801894068
20
-5.05693953033935
30
0
41
1
10
5.50643046728294
20
-5.09187793593711
30
0
41
1
10
7.01245392572773
20
-4.98024361722557
30
0
41
1
10
7.09434911601431
20
-4.97370757701461
30
0
41
1
10
7.17625656495599
20
-4.96670693895567
30
0
0
SPLINE
5
AA
100
AcDbEntity
8
1
62
256
6
ByLayer
370
18
48
1
60
0
100
AcDbSpline
70
4
71
3
72
16
73
12
40
0
40
0
40
0
40
0
40
0.115332405648884
40
0.115332405648884
40
0.183174986639542
40
0.183174986639542
40
0.251017567630199
40
0.251017567630199
40
0.52238789159283
40
0.52238789159283
40
1
40
1
40
1
40
1
41
1
10
54.300167392309
20
-0.000295626923247
30
0
41
1
10
54.6037883663373
20
-0.1486003107822
30
0
41
1
10
54.9079952195464
20
-0.297185488132385
30
0
41
1
10
55.3924220466922
20
-0.532913400685374
30
0
41
1
10
55.5721151314536
20
-0.620167013847066
30
0
41
1
10
55.9321430874573
20
-0.79437873913227
30
0
41
1
10
56.1125276643802
20
-0.881360142132593
30
0
41
1
10
57.011725111919
20
-1.3128543204345
30
0
41
1
10
57.7261139489767
20
-1.64854513795154
30
0
41
1
10
59.6921164455782
20
-2.5340545058402
30
0
41
1
10
60.9388762203971
20
-3.0534973991457
30
0
41
1
10
62.1946930899603
20
-3.49922137662125
30
0
0
SPLINE
5
AB
100
AcDbEntity
8
1
62
256
6
ByLayer
370
13
48
1
60
0
100
AcDbSpline
70
4
71
3
72
18
73
14
40
0
40
0
40
0
40
0
40
0.0566034962735133
40
0.0566034962735133
40
0.174528059239325
40
0.174528059239325
40
0.233490340722231
40
0.233490340722231
40
0.292452622205136
40
0.292452622205136
40
0.528301748136758
40
0.528301748136758
40
1
40
1
40
1
40
1
41
1
10
62.1946930898728
20
-3.49922137659016
30
0
41
1
10
62.3659398342309
20
-3.56000156029017
30
0
41
1
10
62.5373549936523
20
-3.61941095388309
30
0
41
1
10
63.0665311435309
20
-3.79814120799597
30
0
41
1
10
63.4249741516483
20
-3.91269762734785
30
0
41
1
10
63.9644906866994
20
-4.07433369090182
30
0
41
1
10
64.1448496802089
20
-4.12656759527388
30
0
41
1
10
64.5047830636336
20
-4.22705454700699
30
0
41
1
10
64.6844457414662
20
-4.27533799299871
30
0
41
1
10
65.5814882057188
20
-4.50675578281002
30
0
41
1
10
66.2951275285208
20
-4.65993112723652
30
0
41
1
10
68.4321626361615
20
-5.01768550937368
30
0
41
1
10
69.8524647029682
20
-5.12074474475534
30
0
41
1
10
71.2902358244169
20
-5.07623442367975
30
0
0
SPLINE
5
AC
100
AcDbEntity
8
1
62
256
6
ByLayer
370
18
48
1
60
0
100
AcDbSpline
70
4
71
3
72
16
73
12
40
0
40
0
40
0
40
0
40
0.334254843513365
40
0.334254843513365
40
0.625418149362678
40
0.625418149362678
40
0.770999802287337
40
0.770999802287337
40
0.916581455211996
40
0.916581455211996
40
1
40
1
40
1
40
1
41
1
10
21.6348510351172
20
0.0071226449510107
30
0
41
1
10
22.4524773091475
20
-0.390628876916196
30
0
41
1
10
23.2683627055069
20
-0.787779499962255
30
0
41
1
10
24.7998291803452
20
-1.51265209662958
30
0
41
1
10
25.5147061361363
20
-1.84288185474594
30
0
41
1
10
26.5942127561701
20
-2.31834898814884
30
0
41
1
10
26.9554347828879
20
-2.47353067395579
30
0
41
1
10
27.6738857374975
20
-2.77272316512338
30
0
41
1
10
28.0319786270794
20
-2.91719057112994
30
0
41
1
10
28.5940385237846
20
-3.13553945960106
30
0
41
1
10
28.7985379611114
20
-3.21319541781415
30
0
41
1
10
29.0028595077194
20
-3.28887818547725
30
0
0
SPLINE
5
AD
100
AcDbEntity
8
1
62
256
6
ByLayer
370
13
48
1
60
0
100
AcDbSpline
70
4
71
3
72
18
73
14
40
0
40
0
40
0
40
0
40
0.33660622414424
40
0.33660622414424
40
0.434828083461103
40
0.434828083461103
40
0.533049942777966
40
0.533049942777966
40
0.729493661411694
40
0.729493661411694
40
0.925937380045423
40
0.925937380045423
40
1
40
1
40
1
40
1
41
1
10
29.0028585699276
20
-3.28887783810964
30
0
41
1
10
30.2248613566389
20
-3.74152006629055
30
0
41
1
10
31.4405010309954
20
-4.12358174224053
30
0
41
1
10
33.0208315804113
20
-4.50091910807151
30
0
41
1
10
33.3784652604381
20
-4.57850297032877
30
0
41
1
10
34.0958031478719
20
-4.71747946274004
30
0
41
1
10
34.455877886612
20
-4.77894206410735
30
0
41
1
10
35.5376738881863
20
-4.93732079262028
30
0
41
1
10
36.257541976053
20
-5.00782630257982
30
0
41
1
10
37.7002280794649
20
-5.07602891327335
30
0
41
1
10
38.4196859534387
20
-5.07358816695421
30
0
41
1
10
39.4119428546757
20
-5.02010547601935
30
0
41
1
10
39.6840524557639
20
-5.00024021956131
30
0
41
1
10
39.9555698830179
20
-4.97533175042136
30
0
0
SPLINE
5
AE
100
AcDbEntity
8
1
62
256
6
ByLayer
370
18
48
1
60
0
100
AcDbSpline
70
4
71
3
72
12
73
8
40
0
40
0
40
0
40
0
40
0.5
40
0.5
40
0.75
40
0.75
40
1
40
1
40
1
40
1
41
1
10
72.7462140559403
20
1.19900467379219
30
0
41
1
10
72.815930804215
20
1.03647989236416
30
0
41
1
10
72.8706981298872
20
0.872535722794026
30
0
41
1
10
72.9321573285695
20
0.624654865397076
30
0
41
1
10
72.9492038443117
20
0.541701309661732
30
0
41
1
10
72.9767887049663
20
0.375176273288616
30
0
41
1
10
72.9873285056036
20
0.291466647892406
30
0
41
1
10
72.9947736681959
20
0.208213205343213
30
0
0
SPLINE
5
AF
100
AcDbEntity
8
1
62
256
6
ByLayer
370
18
48
1
60
0
100
AcDbSpline
70
4
71
3
72
12
73
8
40
0
40
0
40
0
40
0
40
0.250000000000001
40
0.250000000000001
40
0.500000000000002
40
0.500000000000002
40
1
40
1
40
1
40
1
41
1
10
72.7939480321368
20
-1.38932351037837
30
0
41
1
10
72.821693412346
20
-1.28428595373839
30
0
41
1
10
72.8471763563986
20
-1.18069482399497
30
0
41
1
10
72.8924473740153
20
-0.978260162057296
30
0
41
1
10
72.9123289635565
20
-0.879078444365945
30
0
41
1
10
72.9631965335964
20
-0.585952802889381
30
0
41
1
10
72.9853544603171
20
-0.396442050565668
30
0
41
1
10
72.9947736681959
20
-0.208213205343526
30
0
0
SPLINE
5
B0
100
AcDbEntity
8
1
62
256
6
ByLayer
370
18
48
1
60
0
100
AcDbSpline
70
4
71
3
72
8
73
4
40
0
40
0
40
0
40
0
40
1
40
1
40
1
40
1
41
1
10
72.9947736681959
20
-0.208213205343526
30
0
41
1
10
72.9953333587909
20
-0.173072075320505
30
0
41
1
10
72.9953878171673
20
-0.137943862644221
30
0
41
1
10
72.9949078949074
20
-0.102829312556537
30
0
0
SPLINE
5
B1
100
AcDbEntity
8
1
62
256
6
ByLayer
370
18
48
1
60
0
100
AcDbSpline
70
4
71
3
72
16
73
12
40
0
40
0
40
0
40
0
40
0.212793835679581
40
0.212793835679581
40
0.570127534744774
40
0.570127534744774
40
0.74879438427737
40
0.74879438427737
40
0.927461233809967
40
0.927461233809967
40
1
40
1
40
1
40
1
41
1
10
38.290476846337
20
-4.96662667837469
30
0
41
1
10
37.8619179389408
20
-4.96806851790927
30
0
41
1
10
37.4333175824902
20
-4.95684962380417
30
0
41
1
10
36.2832990635807
20
-4.89284972986127
30
0
41
1
10
35.5639627572945
20
-4.81719741216477
30
0
41
1
10
34.4829773708542
20
-4.65249051124519
30
0
41
1
10
34.1232292311942
20
-4.58917308252336
30
0
41
1
10
33.4063708650008
20
-4.44696512837137
30
0
41
1
10
33.0489427607105
20
-4.36800304110693
30
0
41
1
10
32.5472912695878
20
-4.24655338913377
30
0
41
1
10
32.4025364383399
20
-4.21026091743704
30
0
41
1
10
32.2578624143554
20
-4.17277835539929
30
0
0
SPLINE
5
B2
100
AcDbEntity
8
1
62
256
6
ByLayer
370
13
48
1
60
0
100
AcDbSpline
70
4
71
3
72
20
73
16
40
0
40
0
40
0
40
0
40
0.266024971696505
40
0.266024971696505
40
0.340044165429198
40
0.340044165429198
40
0.414063359161891
40
0.414063359161891
40
0.56210174662728
40
0.56210174662728
40
0.85817852155806
40
0.85817852155806
40
0.932197715290755
40
0.932197715290755
40
1
40
1
40
1
40
1
41
1
10
32.2578624128285
20
-4.17277835500369
30
0
41
1
10
30.9771770918541
20
-3.84097472030049
30
0
41
1
10
29.7028239638338
20
-3.41591360651509
30
0
41
1
10
28.0620282943975
20
-2.78199408721284
30
0
41
1
10
27.7040997394311
20
-2.63861947067062
30
0
41
1
10
26.9860483317246
20
-2.34213236636879
30
0
41
1
10
26.6251048083856
20
-2.18857490690775
30
0
41
1
10
25.5464496446322
20
-1.71866776068379
30
0
41
1
10
24.831938107043
20
-1.39303743057286
30
0
41
1
10
22.6939637259799
20
-0.39655802885494
30
0
41
1
10
21.2761932367973
20
0.294161082660679
30
0
41
1
10
19.4857412791434
20
1.1311535340046
30
0
41
1
10
19.126757114109
20
1.29726743473083
30
0
41
1
10
18.4365630486541
20
1.6116435266471
30
0
41
1
10
18.1067490868529
20
1.75962862326907
30
0
41
1
10
17.7781016868425
20
1.90416990144669
30
0
0
SPLINE
5
B3
100
AcDbEntity
8
1
62
256
6
ByLayer
370
18
48
1
60
0
100
AcDbSpline
70
4
71
3
72
10
73
6
40
0
40
0
40
0
40
0
40
0.5
40
0.5
40
1
40
1
40
1
40
1
41
1
10
2.57688901459585
20
-4.7734614260381
30
0
41
1
10
2.53155960186015
20
-4.79111092937117
30
0
41
1
10
2.49601669332228
20
-4.8184193028597
30
0
41
1
10
2.4486689579683
20
-4.8804221947513
30
0
41
1
10
2.43634759131064
20
-4.91628562455781
30
0
41
1
10
2.43634759131064
20
-4.95087276180251
30
0
0
SPLINE
5
B4
100
AcDbEntity
8
1
62
256
6
ByLayer
370
18
48
1
60
0
100
AcDbSpline
70
4
71
3
72
46
73
42
40
0
40
0
40
0
40
0
40
0.124999999999993
40
0.124999999999993
40
0.187499999999992
40
0.187499999999992
40
0.249999999999991
40
0.249999999999991
40
0.312499999999989
40
0.312499999999989
40
0.343749999999989
40
0.343749999999989
40
0.374999999999989
40
0.374999999999989
40
0.406249999999988
40
0.406249999999988
40
0.421874999999988
40
0.421874999999988
40
0.437499999999989
40
0.437499999999989
40
0.453124999999989
40
0.453124999999989
40
0.468749999999989
40
0.468749999999989
40
0.49999999999999
40
0.49999999999999
40
0.53124999999999
40
0.53124999999999
40
0.56249999999999
40
0.56249999999999
40
0.624999999999991
40
0.624999999999991
40
0.687499999999992
40
0.687499999999992
40
0.749999999999992
40
0.749999999999992
40
0.874999999999999
40
0.874999999999999
40
0.9375
40
0.9375
40
1
40
1
40
1
40
1
41
1
10
70.9080816077731
20
-2.94713181223199
30
0
41
1
10
70.7149888896083
20
-2.8683197703063
30
0
41
1
10
70.521963127795
20
-2.77465838703887
30
0
41
1
10
70.240413955206
20
-2.61101064755257
30
0
41
1
10
70.147655550849
20
-2.55246599143825
30
0
41
1
10
69.9648533503272
20
-2.425438280501
30
0
41
1
10
69.8748592663924
20
-2.35699818251669
30
0
41
1
10
69.7017762747307
20
-2.2087974196329
30
0
41
1
10
69.6179467158818
20
-2.12876650539192
30
0
41
1
10
69.5011226599794
20
-1.99464033665822
30
0
41
1
10
69.4640246083956
20
-1.94792722496129
30
0
41
1
10
69.3953444964226
20
-1.84850296077556
30
0
41
1
10
69.3641032306922
20
-1.79633188453693
30
0
41
1
10
69.3130894595845
20
-1.68623240880194
30
0
41
1
10
69.2929791700471
20
-1.62705964986728
30
0
41
1
10
69.2807995704241
20
-1.53817864468522
30
0
41
1
10
69.2798216103449
20
-1.50858781183274
30
0
41
1
10
69.2848338803532
20
-1.45251437662526
30
0
41
1
10
69.2909525184839
20
-1.42523909551883
30
0
41
1
10
69.3093803395663
20
-1.37583913776584
30
0
41
1
10
69.321718945677
20
-1.35330161540026
30
0
41
1
10
69.3508012550499
20
-1.31307423606924
30
0
41
1
10
69.3672866695639
20
-1.2955904301443
30
0
41
1
10
69.4210377608686
20
-1.24894839552417
30
0
41
1
10
69.462396718897
20
-1.22579043440405
30
0
41
1
10
69.5483082251865
20
-1.19026906513056
30
0
41
1
10
69.5937668203487
20
-1.1775474714938
30
0
41
1
10
69.6867850866717
20
-1.15907319273111
30
0
41
1
10
69.733968305277
20
-1.15339033124408
30
0
41
1
10
69.8769094101829
20
-1.14367849731886
30
0
41
1
10
69.9740348806035
20
-1.14686044161425
30
0
41
1
10
70.1705371933555
20
-1.16509523097523
30
0
41
1
10
70.26915071869
20
-1.18024683282863
30
0
41
1
10
70.4652329794675
20
-1.21877322712444
30
0
41
1
10
70.5630201588405
20
-1.24223530456751
30
0
41
1
10
70.8557721844808
20
-1.32269934631179
30
0
41
1
10
71.0501409598895
20
-1.3895568734078
30
0
41
1
10
71.3406632879388
20
-1.50688721100954
30
0
41
1
10
71.4373280570194
20
-1.54890745978616
30
0
41
1
10
71.6302847024266
20
-1.63911344572054
30
0
41
1
10
71.7266913538509
20
-1.68736742644526
30
0
41
1
10
71.8219814354936
20
-1.73869689868405
30
0
0
SPLINE
5
B5
100
AcDbEntity
8
1
62
256
6
ByLayer
370
13
48
1
60
0
100
AcDbSpline
70
4
71
3
72
8
73
4
40
0
40
0
40
0
40
0
40
1
40
1
40
1
40
1
41
1
10
2.57428275660879
20
-5.02575891839427
30
0
41
1
10
2.57514405548059
20
-4.97827175550739
30
0
41
1
10
2.57601281036637
20
-4.93078236541876
30
0
41
1
10
2.57688901459588
20
-4.88329066807427
30
0
0
SPLINE
5
B6
100
AcDbEntity
8
1
62
256
6
ByLayer
370
18
48
1
60
0
100
AcDbSpline
70
4
71
3
72
12
73
8
40
0
40
0
40
0
40
0
40
0.587115050291924
40
0.587115050291924
40
0.880672575437886
40
0.880672575437886
40
1
40
1
40
1
40
1
41
1
10
71.2995980493531
20
-4.9828146698857
30
0
41
1
10
69.8626417417765
20
-5.01188441802924
30
0
41
1
10
68.4426302271049
20
-4.8965480282867
30
0
41
1
10
66.3060491099305
20
-4.52584986549545
30
0
41
1
10
65.5925997879682
20
-4.36924647945372
30
0
41
1
10
64.5836686221761
20
-4.10555832471502
30
0
41
1
10
64.290865539036
20
-4.02405512441112
30
0
41
1
10
63.9984531646653
20
-3.93800877368656
30
0
0
SPLINE
5
B7
100
AcDbEntity
8
1
62
256
6
ByLayer
370
13
48
1
60
0
100
AcDbSpline
70
4
71
3
72
22
73
18
40
0
40
0
40
0
40
0
40
0.0148161943094421
40
0.0148161943094421
40
0.0940364876215661
40
0.0940364876215661
40
0.410917660870062
40
0.410917660870062
40
0.56935824749431
40
0.56935824749431
40
0.608968394150371
40
0.608968394150371
40
0.648578540806433
40
0.648578540806433
40
0.727798834118556
40
0.727798834118556
40
1
40
1
40
1
40
1
41
1
10
63.998453129193
20
-3.9380087632484
30
0
41
1
10
63.9311835174917
20
-3.91821375751601
30
0
41
1
10
63.8639345833642
20
-3.89817831358775
30
0
41
1
10
63.4373693732908
20
-3.76954798278734
30
0
41
1
10
63.07919701657
20
-3.654635761088
30
0
41
1
10
61.2925975740001
20
-3.05027887450154
30
0
41
1
10
59.8771435439771
20
-2.47065930932041
30
0
41
1
10
57.7408643132565
20
-1.51920864474337
30
0
41
1
10
57.0267001805335
20
-1.18820523531852
30
0
41
1
10
56.1279504857598
20
-0.763782925787609
30
0
41
1
10
55.9476872210542
20
-0.678285094609038
30
0
41
1
10
55.5879854340289
20
-0.507174951876038
30
0
41
1
10
55.4084427932469
20
-0.42151381491351
30
0
41
1
10
54.8706067147937
20
-0.164500083460382
30
0
41
1
10
54.5131114229358
20
0.0068948982810753
30
0
41
1
10
52.9304938158341
20
0.764381144320026
30
0
41
1
10
51.7128835189969
20
1.34255956812174
30
0
41
1
10
50.4899829896679
20
1.88413606059177
30
0
0
SPLINE
5
B8
100
AcDbEntity
8
1
62
256
6
ByLayer
370
18
48
1
60
0
100
AcDbSpline
70
4
71
3
72
8
73
4
40
0
40
0
40
0
40
0
40
1
40
1
40
1
40
1
41
1
10
5.51746154272362
20
-4.94649374378122
30
0
41
1
10
4.57814601210848
20
-4.94447895252665
30
0
41
1
10
3.63666349458569
20
-4.88194001856724
30
0
41
1
10
2.68666904790507
20
-4.75777282796693
30
0
0
SPLINE
5
B9
100
AcDbEntity
8
1
62
256
6
ByLayer
370
18
48
1
60
0
100
AcDbSpline
70
4
71
3
72
8
73
4
40
0
40
0
40
0
40
0
40
1
40
1
40
1
40
1
41
1
10
2.68950346891211
20
3.46610303329885
30
0
41
1
10
2.68891324609919
20
3.46630546904362
30
0
41
1
10
2.68832302004455
20
3.46650789010633
30
0
41
1
10
2.68773279074887
20
3.46671029648235
30
0
0
SPLINE
5
BA
100
AcDbEntity
8
1
62
256
6
ByLayer
370
18
48
1
60
0
100
AcDbSpline
70
4
71
3
72
12
73
8
40
0
40
0
40
0
40
0
40
0.25
40
0.25
40
0.5
40
0.5
40
1
40
1
40
1
40
1
41
1
10
72.9947736681959
20
0.208213205343213
30
0
41
1
10
72.9900483932462
20
0.302640789762165
30
0
41
1
10
72.982116532677
20
0.397629853652262
30
0
41
1
10
72.9599459293266
20
0.589930688122678
30
0
41
1
10
72.9457004163888
20
0.687169715310461
30
0
41
1
10
72.8944542841016
20
0.981267888489839
30
0
41
1
10
72.8488662086635
20
1.18141606654515
30
0
41
1
10
72.7939480321369
20
1.38932351037812
30
0
0
SPLINE
5
BB
100
AcDbEntity
8
1
62
256
6
ByLayer
370
18
48
1
60
0
100
AcDbSpline
70
4
71
3
72
8
73
4
40
0
40
0
40
0
40
0
40
1
40
1
40
1
40
1
41
1
10
71.1745108046437
20
1.25518427452525
30
0
41
1
10
71.6984918532155
20
1.23552156526802
30
0
41
1
10
72.2225374596158
20
1.21510305515594
30
0
41
1
10
72.7462140559403
20
1.19900467379219
30
0
0
SPLINE
5
BC
100
AcDbEntity
8
1
62
256
6
ByLayer
370
18
48
1
60
0
100
AcDbSpline
70
4
71
3
72
8
73
4
40
0
40
0
40
0
40
0
40
1
40
1
40
1
40
1
41
1
10
72.9635997152592
20
-0.0591646378068731
30
0
41
1
10
72.6019914952205
20
-0.638707867374507
30
0
41
1
10
72.2180068404786
20
-1.19496697201697
30
0
41
1
10
71.821981435494
20
-1.73869689868437
30
0
0
SPLINE
5
BD
100
AcDbEntity
8
1
62
256
6
ByLayer
370
18
48
1
60
0
100
AcDbSpline
70
4
71
3
72
58
73
54
40
0
40
0
40
0
40
0
40
0.0312499999999963
40
0.0312499999999963
40
0.0468749999999945
40
0.0468749999999945
40
0.0624999999999927
40
0.0624999999999927
40
0.0781249999999908
40
0.0781249999999908
40
0.093749999999989
40
0.093749999999989
40
0.109374999999987
40
0.109374999999987
40
0.124999999999985
40
0.124999999999985
40
0.140624999999984
40
0.140624999999984
40
0.156249999999982
40
0.156249999999982
40
0.187499999999978
40
0.187499999999978
40
0.218749999999975
40
0.218749999999975
40
0.249999999999971
40
0.249999999999971
40
0.26562499999997
40
0.26562499999997
40
0.26953124999997
40
0.26953124999997
40
0.273437499999969
40
0.273437499999969
40
0.281249999999968
40
0.281249999999968
40
0.285156249999967
40
0.285156249999967
40
0.289062499999966
40
0.296874999999966
40
0.312499999999967
40
0.312499999999967
40
0.37499999999997
40
0.37499999999997
40
0.437499999999973
40
0.437499999999973
40
0.499999999999976
40
0.499999999999976
40
0.624999999999982
40
0.624999999999982
40
0.749999999999988
40
0.749999999999988
40
0.874999999999994
40
0.874999999999994
40
1
40
1
40
1
40
1
41
1
10
2.43634759131066
20
2.14448614307147
30
0
41
1
10
2.34937784180883
20
2.25514100398936
30
0
41
1
10
2.27024658132569
20
2.36897960015551
30
0
41
1
10
2.17003068527376
20
2.54398014412317
30
0
41
1
10
2.13964734596038
20
2.60313944056787
30
0
41
1
10
2.08630159225982
20
2.72354596073561
30
0
41
1
10
2.0636789983152
20
2.78412154336971
30
0
41
1
10
2.02814358993095
20
2.90488021878923
30
0
41
1
10
2.01514219596214
20
2.96525233202692
30
0
41
1
10
2.00002821694045
20
3.08606336389221
30
0
41
1
10
1.99805168081849
20
3.1467545608468
30
0
41
1
10
2.00593237157327
20
3.26368735399146
30
0
41
1
10
2.01565660399027
20
3.32048921162618
30
0
41
1
10
2.04646230044378
20
3.43092191128579
30
0
41
1
10
2.06778404275605
20
3.48495517657184
30
0
41
1
10
2.12055007468064
20
3.58787291184834
30
0
41
1
10
2.15175853820202
20
3.63656690817569
30
0
41
1
10
2.22251510517137
20
3.72927207539524
30
0
41
1
10
2.26225725917254
20
3.77345481000538
30
0
41
1
10
2.39124205148005
20
3.89870226230698
30
0
41
1
10
2.48867586755753
20
3.97158441095235
30
0
41
1
10
2.69939080824787
20
4.10324591335331
30
0
41
1
10
2.81326076003103
20
4.16216086778272
30
0
41
1
10
3.05044564506156
20
4.26849107217356
30
0
41
1
10
3.17349666520664
20
4.31585174715127
30
0
41
1
10
3.36314406301108
20
4.38060178309857
30
0
41
1
10
3.4272114175086
20
4.40112547379684
30
0
41
1
10
3.5082058804216
20
4.42565791160104
30
0
41
1
10
3.52444950670451
20
4.43050093839085
30
0
41
1
10
3.55702249231911
20
4.44004669628009
30
0
41
1
10
3.57303770036424
20
4.44509194803859
30
0
41
1
10
3.62347029904112
20
4.45758977490948
30
0
41
1
10
3.66191445224945
20
4.46118838664754
30
0
41
1
10
3.71767541388687
20
4.4626418060316
30
0
41
1
10
3.73626501214713
20
4.46246276623344
30
0
41
1
10
3.77344307597954
20
4.46239256479936
30
0
41
1
10
3.8292103178261
20
4.46225013729389
30
0
41
1
10
3.95933491698838
20
4.46165476941152
30
0
41
1
10
4.07087205277151
20
4.46069548606167
30
0
41
1
10
4.44266639394493
20
4.45650573523923
30
0
41
1
10
4.73979908384325
20
4.44999464921364
30
0
41
1
10
5.33295849964478
20
4.43063159320428
30
0
41
1
10
5.62906823010533
20
4.41777445628546
30
0
41
1
10
6.22036201025963
20
4.3853767468002
30
0
41
1
10
6.51590358833653
20
4.36582918375885
30
0
41
1
10
7.39820057680083
20
4.29672456772616
30
0
41
1
10
7.9803010826368
20
4.23680691834284
30
0
41
1
10
9.13326266828091
20
4.08571715711733
30
0
41
1
10
9.70410323261186
20
3.9944671040638
30
0
41
1
10
10.8358905888057
20
3.77693320257032
30
0
41
1
10
11.3968452397699
20
3.65063294942897
30
0
41
1
10
12.5108672740788
20
3.36073519003026
30
0
41
1
10
13.0639645092421
20
3.19718324262573
30
0
41
1
10
13.614464707308
20
3.01520098146045
30
0
0
SPLINE
5
BE
100
AcDbEntity
8
1
62
256
6
ByLayer
370
13
48
1
60
0
100
AcDbSpline
70
4
71
3
72
8
73
4
40
0
40
0
40
0
40
0
40
1
40
1
40
1
40
1
41
1
10
2.57688901459585
20
-4.88329066807427
30
0
41
1
10
2.59777144674129
20
-4.87615759519409
30
0
41
1
10
2.62007576719435
20
-4.87407918570781
30
0
41
1
10
2.64286848830324
20
-4.87692475605346
30
0
0
SPLINE
5
BF
100
AcDbEntity
8
1
62
256
6
ByLayer
370
18
48
1
60
0
100
AcDbSpline
70
4
71
3
72
8
73
4
40
0
40
0
40
0
40
0
40
1
40
1
40
1
40
1
41
1
10
72.9949078949072
20
-0.102829312556935
30
0
41
1
10
72.9946765145888
20
-0.085899871148996
30
0
41
1
10
72.9965271138194
20
-0.065508334824159
30
0
41
1
10
72.9997675260109
20
-0.0438461411256981
30
0
0
SPLINE
5
C0
100
AcDbEntity
8
1
62
256
6
ByLayer
370
18
48
1
60
0
100
AcDbSpline
70
4
71
3
72
40
73
36
40
0
40
0
40
0
40
0
40
0.12500000000001
40
0.12500000000001
40
0.25000000000002
40
0.25000000000002
40
0.312500000000025
40
0.312500000000025
40
0.37500000000003
40
0.37500000000003
40
0.500000000000035
40
0.500000000000035
40
0.562500000000038
40
0.562500000000038
40
0.62500000000004
40
0.62500000000004
40
0.750000000000046
40
0.750000000000046
40
0.812500000000049
40
0.812500000000049
40
0.84375000000005
40
0.84375000000005
40
0.847656250000051
40
0.847656250000051
40
0.851562500000051
40
0.851562500000051
40
0.859375000000049
40
0.859375000000049
40
0.867187500000046
40
0.867187500000046
40
0.875000000000044
40
0.875000000000044
40
0.937500000000022
40
0.937500000000022
40
1
40
1
40
1
40
1
41
1
10
66.2088801151307
20
1.6459947447245
30
0
41
1
10
66.4240941337889
20
1.47060750260189
30
0
41
1
10
66.6442960486324
20
1.30740654200636
30
0
41
1
10
67.0946347184223
20
1.00527713048953
30
0
41
1
10
67.32477264138
20
0.866351533219444
30
0
41
1
10
67.6779324291527
20
0.677393437266261
30
0
41
1
10
67.7964916453932
20
0.617941095616573
30
0
41
1
10
68.0336970866401
20
0.50707993116643
30
0
41
1
10
68.1525921509825
20
0.455613368580799
30
0
41
1
10
68.5101870853185
20
0.313549271366384
30
0
41
1
10
68.7497743665233
20
0.234984543467021
30
0
41
1
10
69.111104600764
20
0.143569053421544
30
0
41
1
10
69.2318754522155
20
0.117537129779436
30
0
41
1
10
69.4741267245717
20
0.0750946530450847
30
0
41
1
10
69.5958549403958
20
0.0586871166489971
30
0
41
1
10
69.9575727497106
20
0.025863053285093
30
0
41
1
10
70.1954701281597
20
0.0251645372478606
30
0
41
1
10
70.5462149569888
20
0.0639125374647449
30
0
41
1
10
70.6615753600784
20
0.0833551443149929
30
0
41
1
10
70.8314716764723
20
0.122919556968753
30
0
41
1
10
70.8876034528066
20
0.137697019282911
30
0
41
1
10
70.9499570004189
20
0.156579639402139
30
0
41
1
10
70.9568727090456
20
0.158710819808732
30
0
41
1
10
70.9706771738137
20
0.16304283712347
30
0
41
1
10
70.9775624181161
20
0.165253127785661
30
0
41
1
10
70.9969778154328
20
0.175117121362291
30
0
41
1
10
71.008376305851
20
0.185099033033509
30
0
41
1
10
71.0223954586868
20
0.21353761919886
30
0
41
1
10
71.0230790788374
20
0.232018526359809
30
0
41
1
10
71.0268306970983
20
0.266827259465941
30
0
41
1
10
71.0285997418587
20
0.284271760125904
30
0
41
1
10
71.0435761566077
20
0.441627499306236
30
0
41
1
10
71.0501872718446
20
0.583926657383046
30
0
41
1
10
71.0524090565905
20
0.870535435298962
30
0
41
1
10
71.0480432659397
20
1.01451011362894
30
0
41
1
10
71.0391876395195
20
1.15903430143118
30
0
0
SPLINE
5
C1
100
AcDbEntity
8
1
62
256
6
ByLayer
370
18
48
1
60
0
100
AcDbSpline
70
4
71
3
72
10
73
6
40
0
40
0
40
0
40
0
40
0.5
40
0.5
40
1
40
1
40
1
40
1
41
1
10
71.4361853270658
20
5.10569086558627
30
0
41
1
10
71.4025569684752
20
5.14176245474286
30
0
41
1
10
71.3679221866078
20
5.1714008678079
30
0
41
1
10
71.297753396546
20
5.21657770824257
30
0
41
1
10
71.2622287834089
20
5.23220490332452
30
0
41
1
10
71.2261828948114
20
5.24107601595458
30
0
0
SPLINE
5
C2
100
AcDbEntity
8
1
62
256
6
ByLayer
370
18
48
1
60
0
100
AcDbSpline
70
4
71
3
72
48
73
44
40
0
40
0
40
0
40
0
40
0.0322455738702301
40
0.0322455738702301
40
0.0644911477404602
40
0.0644911477404602
40
0.12898229548092
40
0.12898229548092
40
0.161227869351151
40
0.161227869351151
40
0.193473443221381
40
0.193473443221381
40
0.257964590961841
40
0.257964590961841
40
0.290210164832071
40
0.290210164832071
40
0.322455738702301
40
0.322455738702301
40
0.386946886442762
40
0.386946886442762
40
0.419192460312992
40
0.419192460312992
40
0.451438034183222
40
0.451438034183222
40
0.483683608053452
40
0.483683608053452
40
0.515929181923682
40
0.515929181923682
40
0.644911477404601
40
0.644911477404601
40
0.709402625145059
40
0.709402625145059
40
0.741648199015289
40
0.741648199015289
40
0.773893772885518
40
0.773893772885518
40
0.838384920625978
40
0.838384920625978
40
0.870630494496208
40
0.870630494496208
40
0.902876068366437
40
0.902876068366437
40
1
40
1
40
1
40
1
41
1
10
71.2261828948115
20
-5.24107601595449
30
0
41
1
10
70.8676490244928
20
-5.25134490069877
30
0
41
1
10
70.5092110768948
20
-5.25221710439735
30
0
41
1
10
69.7918461423847
20
-5.23522691963956
30
0
41
1
10
69.432632835668
20
-5.21732809873947
30
0
41
1
10
68.357327987022
20
-5.13594797949196
30
0
41
1
10
67.6424191508221
20
-5.0448367347216
30
0
41
1
10
66.5685543097762
20
-4.85528720880697
30
0
41
1
10
66.2103250725636
20
-4.78330570910208
30
0
41
1
10
65.4924932756538
20
-4.62228282365581
30
0
41
1
10
65.1338039104444
20
-4.53341799608324
30
0
41
1
10
64.0595196317145
20
-4.24348403850757
30
0
41
1
10
63.3446465878623
20
-4.01901003729671
30
0
41
1
10
62.2696868988504
20
-3.64122162869106
30
0
41
1
10
61.9104782733925
20
-3.50824428776434
30
0
41
1
10
61.1931694849364
20
-3.23060105390724
30
0
41
1
10
60.8351142493386
20
-3.08593635390446
30
0
41
1
10
59.761467800918
20
-2.63653661077626
30
0
41
1
10
59.0462710026207
20
-2.31660426530382
30
0
41
1
10
57.9698282725104
20
-1.81402823587359
30
0
41
1
10
57.610660489601
20
-1.6427987976414
30
0
41
1
10
56.8940762091763
20
-1.29578773477129
30
0
41
1
10
56.5362291260928
20
-1.11978918672395
30
0
41
1
10
55.8205087225601
20
-0.764597791372807
30
0
41
1
10
55.4626318701497
20
-0.585413095154109
30
0
41
1
10
54.7461336074515
20
-0.225268558143512
30
0
41
1
10
54.3870141932674
20
-0.0440220591496541
30
0
41
1
10
52.5935538935154
20
0.859780407437228
30
0
41
1
10
51.1794122192574
20
1.56726497801571
30
0
41
1
10
49.053803404914
20
2.53758209509559
30
0
41
1
10
48.3443199019546
20
2.84551804941319
30
0
41
1
10
47.2747993899491
20
3.27694059737465
30
0
41
1
10
46.9173377366935
20
3.41554231239905
30
0
41
1
10
46.1997269132111
20
3.68093278736262
30
0
41
1
10
45.8405605987086
20
3.80734881866803
30
0
41
1
10
44.7656640041179
20
4.16475044641561
30
0
41
1
10
44.0505147100788
20
4.37444155116071
30
0
41
1
10
42.9753740616944
20
4.64078994693787
30
0
41
1
10
42.6159692284803
20
4.72167291686776
30
0
41
1
10
41.8987348284864
20
4.86586861271948
30
0
41
1
10
41.5413898381124
20
4.92913215026468
30
0
41
1
10
40.1113664669496
20
5.14712313988102
30
0
41
1
10
39.0458392477602
20
5.22944638738448
30
0
41
1
10
37.9783385631121
20
5.22904712460263
30
0
0
SPLINE
5
C3
100
AcDbEntity
8
1
62
256
6
ByLayer
370
18
48
1
60
0
100
AcDbSpline
70
4
71
3
72
12
73
8
40
0
40
0
40
0
40
0
40
0.0928878260398015
40
0.0928878260398015
40
0.274310260831842
40
0.274310260831842
40
1
40
1
40
1
40
1
41
1
10
8.498568424426
20
-4.9694506948278
30
0
41
1
10
8.31498429452265
20
-4.99701809735984
30
0
41
1
10
8.131316999392
20
-5.02227312823936
30
0
41
1
10
7.58853317269217
20
-5.08991850736462
30
0
41
1
10
7.22874683625133
20
-5.12568395696547
30
0
41
1
10
5.4355139820324
20
-5.25781332194987
30
0
41
1
10
4.01142714426237
20
-5.21509154858796
30
0
41
1
10
2.57428275660735
20
-5.0257589183789
30
0
0
SPLINE
5
C4
100
AcDbEntity
8
1
62
256
6
ByLayer
370
18
48
1
60
0
100
AcDbSpline
70
4
71
3
72
14
73
10
40
0
40
0
40
0
40
0
40
0.25
40
0.25
40
0.5
40
0.5
40
0.75
40
0.75
40
1
40
1
40
1
40
1
41
1
10
71.0391876395196
20
1.15903430143121
30
0
41
1
10
71.0382463682957
20
1.17439588656049
30
0
41
1
10
71.0414476038655
20
1.18997016934824
30
0
41
1
10
71.0568742394896
20
1.21694653721067
30
0
41
1
10
71.0690569474916
20
1.22815812266254
30
0
41
1
10
71.0964102537918
20
1.24396700228166
30
0
41
1
10
71.1118197058551
20
1.24902323302908
30
0
41
1
10
71.1427752237494
20
1.25487622031011
30
0
41
1
10
71.1586741873659
20
1.25577855327256
30
0
41
1
10
71.1745108046437
20
1.25518427452528
30
0
0
SPLINE
5
C5
100
AcDbEntity
8
1
62
256
6
ByLayer
370
18
48
1
60
0
100
AcDbSpline
70
4
71
3
72
30
73
26
40
0
40
0
40
0
40
0
40
0.0625000000000004
40
0.0625000000000004
40
0.0937500000000009
40
0.0937500000000009
40
0.125000000000001
40
0.125000000000001
40
0.250000000000003
40
0.250000000000003
40
0.312500000000003
40
0.312500000000003
40
0.375000000000002
40
0.375000000000002
40
0.437500000000002
40
0.437500000000002
40
0.500000000000002
40
0.500000000000002
40
0.625000000000001
40
0.625000000000001
40
0.750000000000001
40
0.750000000000001
40
0.875
40
0.875
40
1
40
1
40
1
40
1
41
1
10
66.2088801151306
20
1.64599474472445
30
0
41
1
10
66.2072983751504
20
1.5012253865618
30
0
41
1
10
66.2153473030296
20
1.35481092310377
30
0
41
1
10
66.2416421189488
20
1.13275993220881
30
0
41
1
10
66.2527810801566
20
1.058337406037
30
0
41
1
10
66.2798141085198
20
0.908680089155922
30
0
41
1
10
66.2957434615294
20
0.833402059173352
30
0
41
1
10
66.3855211048783
20
0.461585877981747
30
0
41
1
10
66.4902217080344
20
0.173243530732805
30
0
41
1
10
66.6872447902067
20
-0.248193738011281
30
0
41
1
10
66.7589789613988
20
-0.38527479576544
30
0
41
1
10
66.9112305107828
20
-0.650664098177344
30
0
41
1
10
66.9919936732043
20
-0.779505307870835
30
0
41
1
10
67.1616639599164
20
-1.0304204948043
30
0
41
1
10
67.2505807486134
20
-1.15248644139706
30
0
41
1
10
67.4358614468606
20
-1.3904301427992
30
0
41
1
10
67.5326198734762
20
-1.50668852359507
30
0
41
1
10
67.8290658981431
20
-1.84230408712929
30
0
41
1
10
68.0354771581663
20
-2.04986174506484
30
0
41
1
10
68.461811038004
20
-2.44007031938196
30
0
41
1
10
68.6818122133052
20
-2.62257642715565
30
0
41
1
10
69.1334550163951
20
-2.96613071795224
30
0
41
1
10
69.3657309769987
20
-3.12747890199361
30
0
41
1
10
69.8349577198599
20
-3.4273430021282
30
0
41
1
10
70.0724833499906
20
-3.566352144793
30
0
41
1
10
70.3126111128051
20
-3.69560155891651
30
0
0
SPLINE
5
C6
100
AcDbEntity
8
1
62
256
6
ByLayer
370
18
48
1
60
0
100
AcDbSpline
70
4
71
3
72
8
73
4
40
0
40
0
40
0
40
0
40
1
40
1
40
1
40
1
41
1
10
2.45993653999085
20
3.64914797588943
30
0
41
1
10
2.5358553950993
20
3.58732563116584
30
0
41
1
10
2.6123855661306
20
3.52631981433513
30
0
41
1
10
2.68950346891214
20
3.46610303329891
30
0
0
SPLINE
5
C7
100
AcDbEntity
8
1
62
256
6
ByLayer
370
18
48
1
60
0
100
AcDbSpline
70
4
71
3
72
10
73
6
40
0
40
0
40
0
40
0
40
0.5
40
0.5
40
1
40
1
40
1
40
1
41
1
10
72.9997675260108
20
0.0438461411214917
30
0
41
1
10
72.9970849934608
20
0.0268951916635558
30
0
41
1
10
72.9925746693193
20
0.0080518238181071
30
0
41
1
10
72.9800773019382
20
-0.0282438354907129
30
0
41
1
10
72.9720580067352
20
-0.0456086805941993
30
0
41
1
10
72.9635997152592
20
-0.0591646378068447
30
0
0
SPLINE
5
C8
100
AcDbEntity
8
1
62
256
6
ByLayer
370
18
48
1
60
0
100
AcDbSpline
70
4
71
3
72
90
73
86
40
0
40
0
40
0
40
0
40
0.0178935460628409
40
0.0178935460628409
40
0.0400664790576878
40
0.0400664790576878
40
0.0844123450473816
40
0.0844123450473816
40
0.106585278042228
40
0.106585278042228
40
0.128758211037075
40
0.128758211037075
40
0.150931144031922
40
0.150931144031922
40
0.173104077026769
40
0.173104077026769
40
0.195277010021616
40
0.195277010021616
40
0.217449943016463
40
0.217449943016463
40
0.23962287601131
40
0.23962287601131
40
0.261795809006157
40
0.261795809006157
40
0.306141674995849
40
0.306141674995849
40
0.328314607990696
40
0.328314607990696
40
0.350487540985543
40
0.350487540985543
40
0.37266047398039
40
0.37266047398039
40
0.394833406975237
40
0.394833406975237
40
0.417006339970084
40
0.417006339970084
40
0.43917927296493
40
0.43917927296493
40
0.461352205959777
40
0.461352205959777
40
0.483525138954624
40
0.483525138954624
40
0.527871004944317
40
0.527871004944317
40
0.550043937939164
40
0.550043937939164
40
0.57221687093401
40
0.57221687093401
40
0.594389803928857
40
0.594389803928857
40
0.616562736923704
40
0.616562736923704
40
0.638735669918551
40
0.638735669918551
40
0.660908602913397
40
0.660908602913397
40
0.683081535908244
40
0.683081535908244
40
0.705254468903091
40
0.705254468903091
40
0.749600334892786
40
0.749600334892786
40
0.771773267887633
40
0.771773267887633
40
0.793946200882481
40
0.793946200882481
40
0.805032667379904
40
0.805032667379904
40
0.816119133877328
40
0.816119133877328
40
0.838292066872174
40
0.838292066872174
40
0.86046499986702
40
0.86046499986702
40
0.882637932861866
40
0.882637932861866
40
0.904810865856712
40
0.904810865856712
40
0.926983798851558
40
0.926983798851558
40
0.97132966484125
40
0.97132966484125
40
0.993502597836096
40
0.993502597836096
40
1
40
1
40
1
40
1
41
1
10
28.2433820243218
20
3.71441640059825
30
0
41
1
10
28.4874034211294
20
3.80043197091743
30
0
41
1
10
28.7319431600112
20
3.88349980637986
30
0
41
1
10
29.2804740073682
20
4.06310351231153
30
0
41
1
10
29.5840565348038
20
4.15846085879699
30
0
41
1
10
30.4916831967307
20
4.42513105561491
30
0
41
1
10
31.0950980622998
20
4.57866122233634
30
0
41
1
10
31.9949210688123
20
4.77612378995076
30
0
41
1
10
32.2945819441724
20
4.83581375852478
30
0
41
1
10
32.8944347389021
20
4.9423736510017
30
0
41
1
10
33.1943746600792
20
4.98946523748731
30
0
41
1
10
33.7939149577927
20
5.07146847496617
30
0
41
1
10
34.0931299627466
20
5.10651317461407
30
0
41
1
10
34.6929303008257
20
5.16335572508459
30
0
41
1
10
34.9935615047195
20
5.18522108354028
30
0
41
1
10
35.5957569223467
20
5.21608732211661
30
0
41
1
10
35.8973611905479
20
5.2250826944846
30
0
41
1
10
36.5010401244483
20
5.22980956853857
30
0
41
1
10
36.8036409568494
20
5.22546519972263
30
0
41
1
10
37.4117025605963
20
5.20346911108811
30
0
41
1
10
37.7151566468873
20
5.18588404231821
30
0
41
1
10
38.3198170868547
20
5.13766318124124
30
0
41
1
10
38.620765820194
20
5.10681392463957
30
0
41
1
10
39.5230474524494
20
4.9956191208426
30
0
41
1
10
40.1241512863817
20
4.89741505222622
30
0
41
1
10
41.02223068759
20
4.71224731479344
30
0
41
1
10
41.3214506708978
20
4.64446896069254
30
0
41
1
10
41.9211260798617
20
4.49838613382497
30
0
41
1
10
42.2212827172395
20
4.41983563696343
30
0
41
1
10
42.8218434772594
20
4.25122150079622
30
0
41
1
10
43.1218898903638
20
4.16067703149051
30
0
41
1
10
43.7237024777962
20
3.96954400446839
30
0
41
1
10
44.0256346050791
20
3.86924747566883
30
0
41
1
10
44.6310538288235
20
3.65854174869688
30
0
41
1
10
44.9351651559569
20
3.54796298388575
30
0
41
1
10
45.5415623650615
20
3.31660112270723
30
0
41
1
10
45.8436986600211
20
3.19665793851078
30
0
41
1
10
46.4475630857478
20
2.95128307969853
30
0
41
1
10
46.7489825143514
20
2.82534673315729
30
0
41
1
10
47.3504093821171
20
2.56635315442364
30
0
41
1
10
47.6500617686649
20
2.43263997922659
30
0
41
1
10
48.5489849781319
20
2.02449323034088
30
0
41
1
10
49.1490568854638
20
1.74480379694194
30
0
41
1
10
50.0474196814168
20
1.3083192147202
30
0
41
1
10
50.3468588063014
20
1.16048617316588
30
0
41
1
10
50.9476717464598
20
0.864090812075176
30
0
41
1
10
51.2487063358594
20
0.714868058559063
30
0
41
1
10
51.8516203392851
20
0.413480831704504
30
0
41
1
10
52.1531844529764
20
0.260634810007303
30
0
41
1
10
52.7583854654563
20
-0.0455731605775611
30
0
41
1
10
53.0628706850491
20
-0.198569791081638
30
0
41
1
10
53.6692429483895
20
-0.502386530976537
30
0
41
1
10
53.9715742369501
20
-0.65337374789911
30
0
41
1
10
54.5739668419847
20
-0.954668102676862
30
0
41
1
10
54.8742623570062
20
-1.10445768296614
30
0
41
1
10
55.4751426505547
20
-1.39819375130409
30
0
41
1
10
55.7753855641338
20
-1.54285356223033
30
0
41
1
10
56.3750502594881
20
-1.82863107619468
30
0
41
1
10
56.6741661966119
20
-1.97031429845384
30
0
41
1
10
57.5719078321724
20
-2.3868167378144
30
0
41
1
10
58.172373850632
20
-2.65062082413269
30
0
41
1
10
59.0732438869214
20
-3.03041011564693
30
0
41
1
10
59.3736605865215
20
-3.15411970995987
30
0
41
1
10
59.9770963575105
20
-3.3918051855068
30
0
41
1
10
60.2797553266737
20
-3.50640875792345
30
0
41
1
10
60.7348375236826
20
-3.67240947356402
30
0
41
1
10
60.8868751257516
20
-3.72678713243891
30
0
41
1
10
61.1900491943088
20
-3.83324707544625
30
0
41
1
10
61.3412305770574
20
-3.885425667134
30
0
41
1
10
61.794496182563
20
-4.03746372214178
30
0
41
1
10
62.0963075552935
20
-4.13287797297158
30
0
41
1
10
62.6988099070533
20
-4.31276979534584
30
0
41
1
10
62.9995048206615
20
-4.39724329670841
30
0
41
1
10
63.5992744992445
20
-4.55574498437531
30
0
41
1
10
63.8984068805621
20
-4.62963092933117
30
0
41
1
10
64.4976254456201
20
-4.76443088222925
30
0
41
1
10
64.7973534954106
20
-4.82574717454173
30
0
41
1
10
65.3965821808385
20
-4.93663800716706
30
0
41
1
10
65.6958495942429
20
-4.98634179456892
30
0
41
1
10
66.5943989374687
20
-5.11662616781732
30
0
41
1
10
67.1965888597003
20
-5.17758774871953
30
0
41
1
10
68.1019943109773
20
-5.23075036237995
30
0
41
1
10
68.4041104200038
20
-5.241936432746
30
0
41
1
10
68.7968444186304
20
-5.24761033708748
30
0
41
1
10
68.8858464295338
20
-5.2483205432946
30
0
41
1
10
68.9748361066073
20
-5.24845653892331
30
0
0
SPLINE
5
C9
100
AcDbEntity
8
1
62
256
6
ByLayer
370
18
48
1
60
0
100
AcDbSpline
70
4
71
3
72
8
73
4
40
0
40
0
40
0
40
0
40
1
40
1
40
1
40
1
41
1
10
2.43634759131066
20
2.1444861430715
30
0
41
1
10
2.43634759131066
20
2.15071584110797
30
0
41
1
10
2.43634759131066
20
2.15696477747417
30
0
41
1
10
2.43634759131066
20
2.16323296790407
30
0
0
SPLINE
5
CA
100
AcDbEntity
8
1
62
256
6
ByLayer
370
13
48
1
60
0
100
AcDbSpline
70
4
71
3
72
29
73
25
40
0
40
0
40
0
40
0
40
0.125
40
0.125
40
0.25
40
0.25
40
0.3125
40
0.3125
40
0.375
40
0.375
40
0.5
40
0.5
40
0.5625
40
0.5625
40
0.625
40
0.625
40
0.75
40
0.75
40
0.8125
40
0.8125
40
0.875
40
0.9375
40
0.9375
40
1
40
1
40
1
40
1
41
1
10
2.68666904790513
20
-4.75777282796696
30
0
41
1
10
2.68676428402529
20
-4.6569040666171
30
0
41
1
10
2.68685114009679
20
-4.51760683453048
30
0
41
1
10
2.68701381748434
20
-4.16245514812834
30
0
41
1
10
2.68708718644393
20
-3.95208378455717
30
0
41
1
10
2.6871901432705
20
-3.58916305469773
30
0
41
1
10
2.68722325744361
20
-3.46022176883045
30
0
41
1
10
2.68728767799672
20
-3.18579914123359
30
0
41
1
10
2.68731841862686
20
-3.04273049991897
30
0
41
1
10
2.68740706065472
20
-2.59748372850939
30
0
41
1
10
2.68746156922038
20
-2.27907544376791
30
0
41
1
10
2.68753858812428
20
-1.76794816272681
30
0
41
1
10
2.68756314631827
20
-1.59389650461722
30
0
41
1
10
2.68761001645623
20
-1.2398370716179
30
0
41
1
10
2.68763243385388
20
-1.05890574723074
30
0
41
1
10
2.68769528665172
20
-0.515530618592777
30
0
41
1
10
2.68773177978761
20
-0.150417799636131
30
0
41
1
10
2.68777681944548
20
0.40155382389429
30
0
41
1
10
2.68779019031544
20
0.58677489981298
30
0
41
1
10
2.68781247530202
20
0.949773035718351
30
0
41
1
10
2.6878305025711
20
1.30750258759539
30
0
41
1
10
2.68783897799472
20
1.6548630876328
30
0
41
1
10
2.6878418865895
20
1.99692869173913
30
0
41
1
10
2.68784050521299
20
2.16587209881791
30
0
41
1
10
2.68783597099605
20
2.32797047916813
30
0
0
SPLINE
5
CB
100
AcDbEntity
8
1
62
256
6
ByLayer
370
18
48
1
60
0
100
AcDbSpline
70
4
71
3
72
14
73
10
40
0
40
0
40
0
40
0
40
0.25
40
0.25
40
0.5
40
0.5
40
0.75
40
0.75
40
1
40
1
40
1
40
1
41
1
10
71.2995980493531
20
-4.98281466988573
30
0
41
1
10
71.302901644589
20
-4.98222245317888
30
0
41
1
10
71.3055339781868
20
-4.98336385910159
30
0
41
1
10
71.3090692057214
20
-4.99014581970513
30
0
41
1
10
71.3099136054106
20
-4.99588505759718
30
0
41
1
10
71.3087700084867
20
-5.01281568788829
30
0
41
1
10
71.3067293545589
20
-5.02397986670573
30
0
41
1
10
71.3000079453313
20
-5.04911972551434
30
0
41
1
10
71.2953666512182
20
-5.06297974715531
30
0
41
1
10
71.2902358244168
20
-5.07623442367975
30
0
0
SPLINE
5
CC
100
AcDbEntity
8
1
62
256
6
ByLayer
370
18
48
1
60
0
100
AcDbSpline
70
4
71
3
72
37
73
33
40
0
40
0
40
0
40
0
40
0.0425576989697285
40
0.0425576989697285
40
0.176694683476912
40
0.176694683476912
40
0.243763175730503
40
0.243763175730503
40
0.310831667984095
40
0.310831667984095
40
0.444968652491278
40
0.444968652491278
40
0.579105636998461
40
0.58329741776431
40
0.58329741776431
40
0.58748919853016
40
0.58748919853016
40
0.595872760061859
40
0.595872760061859
40
0.612639883125257
40
0.612639883125257
40
0.646174129252052
40
0.646174129252052
40
0.713242621505644
40
0.713242621505644
40
0.780311113759236
40
0.780311113759236
40
0.847379606012827
40
0.847379606012827
40
0.981516590520011
40
0.981516590520011
40
1
40
1
40
1
40
1
41
1
10
13.614464707308
20
3.01520098146102
30
0
41
1
10
13.614464707308
20
2.94997380335059
30
0
41
1
10
13.614464707308
20
2.882234317328
30
0
41
1
10
13.614464707308
20
2.59100946218669
30
0
41
1
10
13.614464707308
20
2.34576703767235
30
0
41
1
10
13.614464707308
20
1.94253519260897
30
0
41
1
10
13.6144647073081
20
1.80184572714248
30
0
41
1
10
13.6144647073081
20
1.5133604742243
30
0
41
1
10
13.6144647073081
20
1.36506527966543
30
0
41
1
10
13.6144647073081
20
0.908498911008252
30
0
41
1
10
13.6144647073081
20
0.588611335740438
30
0
41
1
10
13.6144647073081
20
-0.081387084240589
30
0
41
1
10
13.6144647073081
20
-0.443397985969057
30
0
41
1
10
13.6144647073081
20
-0.814603026356451
30
0
41
1
10
13.6144647073081
20
-0.837117903736043
30
0
41
1
10
13.614464707308
20
-0.848266501755319
30
0
41
1
10
13.614464707308
20
-0.883780180317331
30
0
41
1
10
13.6144647073081
20
-0.908954198835517
30
0
41
1
10
13.6144647073081
20
-0.978408021555168
30
0
41
1
10
13.614464707308
20
-1.02445025807049
30
0
41
1
10
13.614464707308
20
-1.16222801855309
30
0
41
1
10
13.614464707308
20
-1.25335791631255
30
0
41
1
10
13.614464707308
20
-1.52455764065166
30
0
41
1
10
13.6144647073081
20
-1.70213841029016
30
0
41
1
10
13.6144647073081
20
-2.04979553894935
30
0
41
1
10
13.6144647073081
20
-2.22046518016751
30
0
41
1
10
13.6144647073081
20
-2.55098651938735
30
0
41
1
10
13.6144647073081
20
-2.71107902713587
30
0
41
1
10
13.6144647073081
20
-3.17568417061369
30
0
41
1
10
13.6144647073081
20
-3.46467560122616
30
0
41
1
10
13.6144647073081
20
-3.76756324260651
30
0
41
1
10
13.6144647073081
20
-3.80368050911136
30
0
41
1
10
13.6144647073081
20
-3.83922821712647
30
0
0
SPLINE
5
CD
100
AcDbEntity
8
1
62
256
6
ByLayer
370
18
48
1
60
0
100
AcDbSpline
70
4
71
3
72
32
73
28
40
0
40
0
40
0
40
0
40
0.125
40
0.125
40
0.1875
40
0.1875
40
0.21875
40
0.21875
40
0.25
40
0.25
40
0.374999999999999
40
0.374999999999999
40
0.437499999999999
40
0.437499999999999
40
0.499999999999999
40
0.499999999999999
40
0.624999999999999
40
0.624999999999999
40
0.687499999999999
40
0.687499999999999
40
0.749999999999999
40
0.749999999999999
40
0.875
40
0.875
40
0.9375
40
0.9375
40
1
40
1
40
1
40
1
41
1
10
2.43634759131066
20
2.16323296790407
30
0
41
1
10
2.43634759131066
20
1.82749683184332
30
0
41
1
10
2.43634759131066
20
1.48135373197365
30
0
41
1
10
2.43634759131066
20
0.947726328416167
30
0
41
1
10
2.43634759131066
20
0.767395163714355
30
0
41
1
10
2.43634759131066
20
0.4931035211726
30
0
41
1
10
2.43634759131069
20
0.400928202887258
30
0
41
1
10
2.43634759131066
20
0.217436068618639
30
0
41
1
10
2.43634759131061
20
0.125862312042017
30
0
41
1
10
2.43634759131061
20
-0.331158973271812
30
0
41
1
10
2.43634759131064
20
-0.694092232866552
30
0
41
1
10
2.43634759131064
20
-1.23439219130842
30
0
41
1
10
2.43634759131064
20
-1.41335990192366
30
0
41
1
10
2.43634759131061
20
-1.76377698412529
30
0
41
1
10
2.43634759131064
20
-1.93657682504301
30
0
41
1
10
2.43634759131066
20
-2.44144149396658
30
0
41
1
10
2.43634759131066
20
-2.75702640196184
30
0
41
1
10
2.43634759131066
20
-3.19977369476965
30
0
41
1
10
2.43634759131066
20
-3.34220882386953
30
0
41
1
10
2.43634759131066
20
-3.61639955097891
30
0
41
1
10
2.43634759131066
20
-3.74575152060049
30
0
41
1
10
2.43634759131066
20
-4.11106099900212
30
0
41
1
10
2.43634759131064
20
-4.3246851564773
30
0
41
1
10
2.43634759131066
20
-4.5990392212442
30
0
41
1
10
2.43634759131066
20
-4.68226562869955
30
0
41
1
10
2.43634759131066
20
-4.83006008245471
30
0
41
1
10
2.43634759131066
20
-4.89500420073401
30
0
41
1
10
2.43634759131066
20
-4.95087276180251
30
0
0
SPLINE
5
CE
100
AcDbEntity
8
1
62
256
6
ByLayer
370
18
48
1
60
0
100
AcDbSpline
70
4
71
3
72
8
73
4
40
0
40
0
40
0
40
0
40
1
40
1
40
1
40
1
41
1
10
70.9080816077718
20
-2.94713181223042
30
0
41
1
10
70.7113816541537
20
-3.19872388979192
30
0
41
1
10
70.5127746123845
20
-3.44807656238348
30
0
41
1
10
70.3126111128051
20
-3.69560155891651
30
0
0
SPLINE
5
CF
100
AcDbEntity
8
1
62
256
6
ByLayer
370
18
48
1
60
0
100
AcDbSpline
70
4
71
3
72
8
73
4
40
0
40
0
40
0
40
0
40
1
40
1
40
1
40
1
41
1
10
71.2261828948114
20
5.24107601595449
30
0
41
1
10
71.0247114140857
20
5.24684642591043
30
0
41
1
10
70.8232463478494
20
5.24965035517062
30
0
41
1
10
70.6217272781196
20
5.24949091548848
30
0
0
SPLINE
5
D0
100
AcDbEntity
8
1
62
256
6
ByLayer
370
18
48
1
60
0
100
AcDbSpline
70
4
71
3
72
52
73
48
40
0
40
0
40
0
40
0
40
0.0594747723519386
40
0.0594747723519386
40
0.0893916665756925
40
0.0893916665756925
40
0.119308560799447
40
0.119308560799447
40
0.149225455023201
40
0.149225455023201
40
0.179142349246955
40
0.179142349246955
40
0.238976137694464
40
0.238976137694464
40
0.268893031918219
40
0.268893031918219
40
0.298809926141973
40
0.298809926141973
40
0.358643714589483
40
0.358643714589483
40
0.478311291484502
40
0.478311291484502
40
0.508228185708256
40
0.508228185708256
40
0.538145079932011
40
0.538145079932011
40
0.597978868379521
40
0.597978868379521
40
0.627895762603276
40
0.627895762603276
40
0.657812656827031
40
0.657812656827031
40
0.717646445274542
40
0.717646445274542
40
0.777480233722054
40
0.777480233722054
40
0.80739712794581
40
0.80739712794581
40
0.837314022169566
40
0.837314022169566
40
0.897147810617077
40
0.897147810617077
40
0.927064704840833
40
0.927064704840833
40
0.95698159906459
40
0.95698159906459
40
1
40
1
40
1
40
1
41
1
10
41.1684843709243
20
-4.98597113074848
30
0
41
1
10
40.4566585357933
20
-5.09393910184446
30
0
41
1
10
39.7453317819916
20
-5.1666808847996
30
0
41
1
10
38.67241714209
20
-5.22083446340616
30
0
41
1
10
38.3133310445207
20
-5.22962326688719
30
0
41
1
10
37.5965388578753
20
-5.2285070114751
30
0
41
1
10
37.2385212219977
20
-5.21861940515006
30
0
41
1
10
36.522415970342
20
-5.18032889290049
30
0
41
1
10
36.1643246050244
20
-5.15193050788554
30
0
41
1
10
35.4473463273724
20
-5.07679414993947
30
0
41
1
10
35.088023068353
20
-5.02997978634755
30
0
41
1
10
34.0110888009602
20
-4.86293899444678
30
0
41
1
10
33.2954654348657
20
-4.71635376453489
30
0
41
1
10
32.2209424648105
20
-4.44772758804447
30
0
41
1
10
31.8625751031848
20
-4.35007716471961
30
0
41
1
10
31.1447162449099
20
-4.13926405882461
30
0
41
1
10
30.7852517037556
20
-4.02605725080997
30
0
41
1
10
29.7121917014668
20
-3.66743761595978
30
0
41
1
10
29.0012716434034
20
-3.40211088402538
30
0
41
1
10
26.8728974835651
20
-2.54256113917239
30
0
41
1
10
25.4596341978108
20
-1.88493796005773
30
0
41
1
10
23.6707098597581
20
-1.00969053752968
30
0
41
1
10
23.3111420361097
20
-0.831592701237867
30
0
41
1
10
22.5932137127698
20
-0.473745598635077
30
0
41
1
10
22.234782113716
20
-0.294010075412757
30
0
41
1
10
21.1600125552372
20
0.245484529264729
30
0
41
1
10
20.4442807390842
20
0.605692464722608
30
0
41
1
10
19.3669858561095
20
1.13707646031037
30
0
41
1
10
19.0075829099465
20
1.31269290192964
30
0
41
1
10
18.2922913984959
20
1.656867912991
30
0
41
1
10
17.9357223644834
20
1.8257407845162
30
0
41
1
10
16.8681016978128
20
2.32070638274132
30
0
41
1
10
16.1592554064561
20
2.63535691871095
30
0
41
1
10
14.741274087742
20
3.22349881239492
30
0
41
1
10
14.0322082830861
20
3.49711119591993
30
0
41
1
10
12.9640058201392
20
3.86940186265284
30
0
41
1
10
12.6071597861752
20
3.98713297060527
30
0
41
1
10
11.891234163025
20
4.20875458577481
30
0
41
1
10
11.5314725603075
20
4.31279496275911
30
0
41
1
10
10.4543659283363
20
4.6003883904074
30
0
41
1
10
9.73847305966547
20
4.75989970499487
30
0
41
1
10
8.663241215243
20
4.94701761317381
30
0
41
1
10
8.30460749515643
20
5.00071215872245
30
0
41
1
10
7.58616514361083
20
5.0901777547584
30
0
41
1
10
7.22669383541674
20
5.12586513600243
30
0
41
1
10
6.35307089879279
20
5.19016251147721
30
0
41
1
10
5.83906940170345
20
5.20894300501061
30
0
41
1
10
5.32525074624027
20
5.20864724789951
30
0
0
SPLINE
5
D1
100
AcDbEntity
8
1
62
256
6
ByLayer
370
18
48
1
60
0
100
AcDbSpline
70
4
71
3
72
42
73
38
40
0
40
0
40
0
40
0
40
0.0561451076101409
40
0.0561451076101409
40
0.112290215220282
40
0.112290215220282
40
0.168435322830423
40
0.168435322830423
40
0.224580430440563
40
0.224580430440563
40
0.280725538050703
40
0.280725538050703
40
0.336870645660843
40
0.336870645660843
40
0.393015753270982
40
0.393015753270982
40
0.449160860881122
40
0.449160860881122
40
0.505305968491262
40
0.505305968491262
40
0.561451076101401
40
0.561451076101401
40
0.617596183711541
40
0.617596183711541
40
0.673741291321681
40
0.673741291321681
40
0.72988639893182
40
0.72988639893182
40
0.78603150654196
40
0.78603150654196
40
0.8421766141521
40
0.8421766141521
40
0.898321721762239
40
0.898321721762239
40
0.954466829372379
40
0.954466829372379
40
1
40
1
40
1
40
1
41
1
10
13.6144647073081
20
-3.83922821712719
30
0
41
1
10
13.8895415962029
20
-3.92219302649826
30
0
41
1
10
14.1643834029489
20
-4.0006038084797
30
0
41
1
10
14.7136125624639
20
-4.14929000802283
30
0
41
1
10
14.9879692202126
20
-4.21966295300203
30
0
41
1
10
15.5363286722148
20
-4.35146836290946
30
0
41
1
10
15.8102350974901
20
-4.41283834182588
30
0
41
1
10
16.3585662765109
20
-4.52569885183308
30
0
41
1
10
16.6329987830321
20
-4.57734614023062
30
0
41
1
10
17.182325110162
20
-4.67168432777589
30
0
41
1
10
17.4573459403987
20
-4.71429453407248
30
0
41
1
10
18.0072632824649
20
-4.78919817144717
30
0
41
1
10
18.2816534313349
20
-4.82142710649757
30
0
41
1
10
18.8305988610548
20
-4.8761344078458
30
0
41
1
10
19.1050458858262
20
-4.8990712307953
30
0
41
1
10
19.6535530841995
20
-4.9331323337218
30
0
41
1
10
19.9276545544945
20
-4.94445008501305
30
0
41
1
10
20.4758097172866
20
-4.95726793710375
30
0
41
1
10
20.7500511849917
20
-4.95872116117508
30
0
41
1
10
21.2994053200226
20
-4.95264555580545
30
0
41
1
10
21.5747736847562
20
-4.94418071368489
30
0
41
1
10
22.1242482265433
20
-4.91542760882993
30
0
41
1
10
22.3981148381
20
-4.89578543160388
30
0
41
1
10
22.9447638196727
20
-4.8472890855281
30
0
41
1
10
23.2178588827846
20
-4.81900481613158
30
0
41
1
10
23.7631151373038
20
-4.75178999710562
30
0
41
1
10
24.0351941785916
20
-4.71221306178708
30
0
41
1
10
24.5787366832633
20
-4.62419604172612
30
0
41
1
10
24.8500526381729
20
-4.5754408300777
30
0
41
1
10
25.3928425302476
20
-4.46986982178973
30
0
41
1
10
25.6643146610621
20
-4.41306204577819
30
0
41
1
10
26.207208252854
20
-4.28873534478652
30
0
41
1
10
26.4786723152557
20
-4.22176604118016
30
0
41
1
10
27.0217560346151
20
-4.07952525208216
30
0
41
1
10
27.2933099933898
20
-4.00424204230066
30
0
41
1
10
27.7861140256406
20
-3.86150265416373
30
0
41
1
10
28.0071080277112
20
-3.79461990756005
30
0
41
1
10
28.2284173391961
20
-3.72485174238488
30
0
0
SPLINE
5
D2
100
AcDbEntity
8
1
62
256
6
ByLayer
370
18
48
1
60
0
100
AcDbSpline
70
4
71
3
72
36
73
32
40
0
40
0
40
0
40
0
40
0.0406753448764305
40
0.0406753448764305
40
0.104630321884669
40
0.104630321884669
40
0.168585298892906
40
0.168585298892906
40
0.232540275901144
40
0.232540275901144
40
0.296495252909382
40
0.296495252909382
40
0.36045022991762
40
0.36045022991762
40
0.488360183934098
40
0.488360183934098
40
0.552315160942336
40
0.552315160942336
40
0.616270137950574
40
0.616270137950574
40
0.680225114958811
40
0.680225114958811
40
0.744180091967049
40
0.744180091967049
40
0.808135068975287
40
0.808135068975287
40
0.872090045983525
40
0.872090045983525
40
0.936045022991763
40
0.936045022991763
40
1
40
1
40
1
40
1
41
1
10
53.3515567571972
20
4.97592014073538
30
0
41
1
10
53.5260018602677
20
4.97614786377088
30
0
41
1
10
53.7005436707461
20
4.97414404560831
30
0
41
1
10
54.1498041222702
20
4.96353980255867
30
0
41
1
10
54.4238730074472
20
4.95184632080333
30
0
41
1
10
54.9720049207222
20
4.9191352894124
30
0
41
1
10
55.2460037214341
20
4.89773361541788
30
0
41
1
10
55.7937620387708
20
4.84412937619013
30
0
41
1
10
56.0675443664565
20
4.81216626706026
30
0
41
1
10
56.6150361614741
20
4.73921622793057
30
0
41
1
10
56.888747552473
20
4.69865518462632
30
0
41
1
10
57.4370705134243
20
4.60680782677642
30
0
41
1
10
57.7117364337798
20
4.5552948761185
30
0
41
1
10
58.5357045931948
20
4.38543227727968
30
0
41
1
10
59.0828293912204
20
4.25214901146316
30
0
41
1
10
59.9044860875012
20
4.02945304287226
30
0
41
1
10
60.1784243136877
20
3.95132932656358
30
0
41
1
10
60.7263409739953
20
3.78769257515577
30
0
41
1
10
61.0002373013526
20
3.70200604820766
30
0
41
1
10
61.5484507270079
20
3.52192937481274
30
0
41
1
10
61.8232684166965
20
3.42776804921931
30
0
41
1
10
62.3724651521794
20
3.23246952395812
30
0
41
1
10
62.6467235590698
20
3.13140489000273
30
0
41
1
10
63.1946370387938
20
2.92273878072777
30
0
41
1
10
63.4681717535166
20
2.81489969572516
30
0
41
1
10
64.0155788670649
20
2.59423012338931
30
0
41
1
10
64.2894386686346
20
2.48140752046692
30
0
41
1
10
64.8374184881235
20
2.25112502159169
30
0
41
1
10
65.1115224920077
20
2.13376153270596
30
0
41
1
10
65.6599754013233
20
1.89322920721219
30
0
41
1
10
65.9346243311376
20
1.77001776190465
30
0
41
1
10
66.2088801151195
20
1.64599474472959
30
0
0
SPLINE
5
D3
100
AcDbEntity
8
1
62
256
6
ByLayer
370
13
48
1
60
0
100
AcDbSpline
70
4
71
3
72
10
73
6
40
0
40
0
40
0
40
0
40
0.5
40
0.5
40
1
40
1
40
1
40
1
41
1
10
2.43634759131066
20
-4.95087276180251
30
0
41
1
10
2.43634759131066
20
-4.93782537073767
30
0
41
1
10
2.44869678687394
20
-4.92422414175755
30
0
41
1
10
2.49603748869808
20
-4.90058071226002
30
0
41
1
10
2.53154229226414
20
-4.89009356197798
30
0
41
1
10
2.57688901459585
20
-4.88329066807427
30
0
0
SPLINE
5
D4
100
AcDbEntity
8
1
62
256
6
ByLayer
370
18
48
1
60
0
100
AcDbSpline
70
4
71
3
72
12
73
8
40
0
40
0
40
0
40
0
40
0.250000000000009
40
0.250000000000009
40
0.500000000000019
40
0.500000000000019
40
1
40
1
40
1
40
1
41
1
10
2.57428275660905
20
-5.02575891837913
30
0
41
1
10
2.55349906815621
20
-5.02302082857128
30
0
41
1
10
2.53462599592453
20
-5.01957508362133
30
0
41
1
10
2.50060493822241
20
-5.01119166664719
30
0
41
1
10
2.48573392168979
20
-5.0062818859125
30
0
41
1
10
2.44955398538804
20
-4.98994873130539
30
0
41
1
10
2.43634759131066
20
-4.97667831061378
30
0
41
1
10
2.43634759131066
20
-4.96260259825786
30
0
0
SPLINE
5
D5
100
AcDbEntity
8
1
62
256
6
ByLayer
370
18
48
1
60
0
100
AcDbSpline
70
4
71
3
72
14
73
10
40
0
40
0
40
0
40
0
40
0.25
40
0.25
40
0.5
40
0.5
40
0.75
40
0.75
40
1
40
1
40
1
40
1
41
1
10
2.6877327907489
20
3.46671029648235
30
0
41
1
10
2.66447610136433
20
3.47468567529052
30
0
41
1
10
2.64169077441852
20
3.48473840522431
30
0
41
1
10
2.59709676700277
20
3.50900439926036
30
0
41
1
10
2.57530444205196
20
3.52330233357569
30
0
41
1
10
2.5353801331309
20
3.5547402254432
30
0
41
1
10
2.51662105556829
20
3.57238707274189
30
0
41
1
10
2.48431121040204
20
3.60948262622654
30
0
41
1
10
2.47061153231678
20
3.62897228315319
30
0
41
1
10
2.45993653999136
20
3.64914797588892
30
0
0
SPLINE
5
D6
100
AcDbEntity
8
1
62
256
6
ByLayer
370
18
48
1
60
0
100
AcDbSpline
70
4
71
3
72
10
73
6
40
0
40
0
40
0
40
0
40
0.5
40
0.5
40
1
40
1
40
1
40
1
41
1
10
71.4361853270658
20
5.10569086558627
30
0
41
1
10
71.652454149298
20
4.48554010070362
30
0
41
1
10
71.8757085890795
20
3.86286392041978
30
0
41
1
10
72.3301928978106
20
2.62216678068779
30
0
41
1
10
72.5614452535887
20
2.00414658121707
30
0
41
1
10
72.7939480321369
20
1.38932351037812
30
0
0
SPLINE
5
D7
100
AcDbEntity
8
1
62
256
6
ByLayer
370
18
48
1
60
0
100
AcDbSpline
70
4
71
3
72
8
73
4
40
0
40
0
40
0
40
0
40
1
40
1
40
1
40
1
41
1
10
2.68950346891211
20
3.46610303329888
30
0
41
1
10
2.68891211709263
20
3.46532055859348
30
0
41
1
10
2.68832206231352
20
3.46453751347642
30
0
41
1
10
2.68773330645635
20
3.46375389690266
30
0
0
SPLINE
5
D8
100
AcDbEntity
8
1
62
256
6
ByLayer
370
18
48
1
60
0
100
AcDbSpline
70
4
71
3
72
8
73
4
40
0
40
0
40
0
40
0
40
1
40
1
40
1
40
1
41
1
10
72.7939480321369
20
1.38932351037812
30
0
41
1
10
72.7788871337862
20
1.32559615505787
30
0
41
1
10
72.7629552842205
20
1.26216109124786
30
0
41
1
10
72.7462140559403
20
1.19900467379219
30
0
0
SPLINE
5
D9
100
AcDbEntity
8
1
62
256
6
ByLayer
370
18
48
1
60
0
100
AcDbSpline
70
4
71
3
72
8
73
4
40
0
40
0
40
0
40
0
40
1
40
1
40
1
40
1
41
1
10
71.2902358244171
20
-5.07623442367989
30
0
41
1
10
71.2689373747816
20
-5.13125558719216
30
0
41
1
10
71.247586656564
20
-5.18620295202564
30
0
41
1
10
71.2261828948114
20
-5.24107601595449
30
0
0
SPLINE
5
DA
100
AcDbEntity
8
1
62
256
6
ByLayer
370
18
48
1
60
0
100
AcDbSpline
70
4
71
3
72
54
73
50
40
0
40
0
40
0
40
0
40
0.0795229381641283
40
0.0795229381641283
40
0.119284407246192
40
0.119284407246192
40
0.159045876328257
40
0.159045876328257
40
0.198807345410322
40
0.198807345410322
40
0.238568814492388
40
0.238568814492388
40
0.278330283574453
40
0.278330283574453
40
0.318091752656519
40
0.318091752656519
40
0.357853221738585
40
0.357853221738585
40
0.39761469082065
40
0.39761469082065
40
0.437376159902716
40
0.437376159902716
40
0.477137628984782
40
0.477137628984782
40
0.516899098066847
40
0.516899098066847
40
0.556660567148913
40
0.556660567148913
40
0.596422036230978
40
0.596422036230978
40
0.636183505313044
40
0.636183505313044
40
0.67594497439511
40
0.67594497439511
40
0.715706443477175
40
0.715706443477175
40
0.795229381641308
40
0.795229381641308
40
0.834990850723374
40
0.834990850723374
40
0.874752319805441
40
0.874752319805441
40
0.914513788887507
40
0.914513788887507
40
0.954275257969573
40
0.954275257969573
40
0.99403672705164
40
0.99403672705164
40
1
40
1
40
1
40
1
41
1
10
13.614464707308
20
3.0152009814594
30
0
41
1
10
14.2213871804532
20
2.76414044330446
30
0
41
1
10
14.8270995828841
20
2.50401422790199
30
0
41
1
10
15.7305774739831
20
2.094802028674
30
0
41
1
10
16.0305434719618
20
1.9545302784276
30
0
41
1
10
16.6309766600121
20
1.67175599375128
30
0
41
1
10
16.931290821449
20
1.5289836613583
30
0
41
1
10
17.5315668403502
20
1.23965084259981
30
0
41
1
10
17.831539773775
20
1.09311085552841
30
0
41
1
10
18.4307899691332
20
0.795478957742773
30
0
41
1
10
18.7307950899315
20
0.645842574253606
30
0
41
1
10
19.3321999092279
20
0.346271990332099
30
0
41
1
10
19.6334026183668
20
0.195940679612164
30
0
41
1
10
20.2364686197705
20
-0.10656862711437
30
0
41
1
10
20.5379607791359
20
-0.259547716044864
30
0
41
1
10
21.1435826865202
20
-0.563260329081942
30
0
41
1
10
21.4482650009985
20
-0.714483856424891
30
0
41
1
10
22.0554373074725
20
-1.01415113617907
30
0
41
1
10
22.3580586991575
20
-1.16262673056576
30
0
41
1
10
22.9609661835378
20
-1.45764926164202
30
0
41
1
10
23.2619514839432
20
-1.60275384606314
30
0
41
1
10
23.8637311894059
20
-1.88688068434763
30
0
41
1
10
24.1643201205805
20
-2.02631871693606
30
0
41
1
10
24.7645430414942
20
-2.30062289081738
30
0
41
1
10
25.0637899451209
20
-2.43616554433458
30
0
41
1
10
25.6632481916442
20
-2.69910188572607
30
0
41
1
10
25.9634004994335
20
-2.82664681872652
30
0
41
1
10
26.5640042823943
20
-3.07490781883391
30
0
41
1
10
26.864487427549
20
-3.19557016015381
30
0
41
1
10
27.4653280475905
20
-3.43056713612154
30
0
41
1
10
27.76632528277
20
-3.54385495555812
30
0
41
1
10
28.3704608089269
20
-3.76053583808053
30
0
41
1
10
28.6733561367641
20
-3.86431684420847
30
0
41
1
10
29.2804740073681
20
-4.06310351231153
30
0
41
1
10
29.5840565348037
20
-4.15846085879699
30
0
41
1
10
30.4916831967307
20
-4.42513105561491
30
0
41
1
10
31.0950980622998
20
-4.57866122233625
30
0
41
1
10
31.9949210688123
20
-4.77612378995079
30
0
41
1
10
32.2945819441723
20
-4.83581375852478
30
0
41
1
10
32.894434738902
20
-4.9423736510017
30
0
41
1
10
33.1943746600791
20
-4.98946523748731
30
0
41
1
10
33.7939149577927
20
-5.07146847496617
30
0
41
1
10
34.0931299627466
20
-5.10651317461407
30
0
41
1
10
34.6929303008256
20
-5.16335572508459
30
0
41
1
10
34.9935615047194
20
-5.18522108354028
30
0
41
1
10
35.5957569223466
20
-5.21608732211661
30
0
41
1
10
35.8973611905478
20
-5.2250826944846
30
0
41
1
10
36.2444693854793
20
-5.22780059075097
30
0
41
1
10
36.2897552387412
20
-5.22800417230405
30
0
41
1
10
36.3350604727472
20
-5.22805705877366
30
0
0
SPLINE
5
DB
100
AcDbEntity
8
1
62
256
6
ByLayer
370
18
48
1
60
0
100
AcDbSpline
70
4
71
3
72
30
73
26
40
0
40
0
40
0
40
0
40
0.0166739160085743
40
0.0166739160085743
40
0.0594272240082025
40
0.0594272240082025
40
0.144933840007457
40
0.144933840007457
40
0.23044045600671
40
0.23044045600671
40
0.315947072005964
40
0.315947072005964
40
0.401453688005218
40
0.401453688005218
40
0.486960304004472
40
0.486960304004472
40
0.657973536002979
40
0.657973536002979
40
0.743480152002235
40
0.743480152002235
40
0.82898676800149
40
0.82898676800149
40
0.914493384000745
40
0.914493384000745
40
1
40
1
40
1
40
1
41
1
10
60.8609455002092
20
3.7172252455363
30
0
41
1
10
60.9201548481897
20
3.73832284680933
30
0
41
1
10
60.9793427703078
20
3.75925725831851
30
0
41
1
10
61.1900491943088
20
3.83324707544628
30
0
41
1
10
61.3412305770574
20
3.88542566713397
30
0
41
1
10
61.794496182563
20
4.03746372214181
30
0
41
1
10
62.0963075552935
20
4.13287797297161
30
0
41
1
10
62.6988099070534
20
4.31276979534584
30
0
41
1
10
62.9995048206615
20
4.39724329670841
30
0
41
1
10
63.5992744992445
20
4.55574498437531
30
0
41
1
10
63.8984068805621
20
4.62963092933117
30
0
41
1
10
64.4976254456201
20
4.76443088222928
30
0
41
1
10
64.7973534954106
20
4.82574717454176
30
0
41
1
10
65.3965821808386
20
4.93663800716706
30
0
41
1
10
65.695849594243
20
4.98634179456894
30
0
41
1
10
66.5943989374687
20
5.11662616781732
30
0
41
1
10
67.1965888597003
20
5.17758774871953
30
0
41
1
10
68.1019943109773
20
5.23075036237995
30
0
41
1
10
68.4041104200039
20
5.241936432746
30
0
41
1
10
69.0115720759718
20
5.25071254925013
30
0
41
1
10
69.315289397944
20
5.24839685970249
30
0
41
1
10
69.921808867475
20
5.23047159192316
30
0
41
1
10
70.2244472114481
20
5.21478815997958
30
0
41
1
10
70.8296178150202
20
5.16997503331478
30
0
41
1
10
71.1327387074973
20
5.1410627065253
30
0
41
1
10
71.4361853270657
20
5.10569086558627
30
0
0
SPLINE
5
DC
100
AcDbEntity
8
1
62
256
6
ByLayer
370
18
48
1
60
0
100
AcDbSpline
70
4
71
3
72
18
73
14
40
0
40
0
40
0
40
0
40
0.249999999999999
40
0.249999999999999
40
0.374999999999999
40
0.374999999999999
40
0.5
40
0.5
40
0.750000000000001
40
0.750000000000001
40
0.875
40
0.875
40
1
40
1
40
1
40
1
41
1
10
70.3126111128052
20
-3.69560155891651
30
0
41
1
10
70.3928576038571
20
-3.91449064712461
30
0
41
1
10
70.4748481518585
20
-4.10642459213804
30
0
41
1
10
70.5996978927083
20
-4.35549203827452
30
0
41
1
10
70.6416354644633
20
-4.43199298001807
30
0
41
1
10
70.7261377165722
20
-4.57163631060931
30
0
41
1
10
70.7687222041051
20
-4.63470595088157
30
0
41
1
10
70.8947476058166
20
-4.79978034385911
30
0
41
1
10
70.9773619307654
20
-4.87947820688453
30
0
41
1
10
71.0997151037392
20
-4.95353754665203
30
0
41
1
10
71.1403000361904
20
-4.97060426892637
30
0
41
1
10
71.2208416852379
20
-4.98877300481254
30
0
41
1
10
71.2604841756516
20
-4.98982639130475
30
0
41
1
10
71.2995980493531
20
-4.9828146698857
30
0
0
SPLINE
5
DD
100
AcDbEntity
8
1
62
256
6
ByLayer
370
18
48
1
60
0
100
AcDbSpline
70
4
71
3
72
10
73
6
40
0
40
0
40
0
40
0
40
0.5
40
0.5
40
1
40
1
40
1
40
1
41
1
10
71.4361853270658
20
-5.10569086558627
30
0
41
1
10
71.6524581312416
20
-4.48552868248169
30
0
41
1
10
71.875716800503
20
-3.86284103386734
30
0
41
1
10
72.3302097903044
20
-2.62212113605898
30
0
41
1
10
72.5614966189145
20
-2.00401075235717
30
0
41
1
10
72.7939480321368
20
-1.38932351037849
30
0
0
SPLINE
5
DE
100
AcDbEntity
8
1
62
256
6
ByLayer
370
18
48
1
60
0
100
AcDbSpline
70
4
71
3
72
8
73
4
40
0
40
0
40
0
40
0
40
1
40
1
40
1
40
1
41
1
10
72.9997675260109
20
-0.0438461411256696
30
0
41
1
10
73.0000773542302
20
-0.0146241390476405
30
0
41
1
10
73.0000776033443
20
0.0146006434048616
30
0
41
1
10
72.999767526011
20
0.0438461411213211
30
0
0
SPLINE
5
DF
100
AcDbEntity
8
1
62
256
6
ByLayer
370
18
48
1
60
0
100
AcDbSpline
70
4
71
3
72
24
73
20
40
0
40
0
40
0
40
0
40
0.249999999999955
40
0.249999999999955
40
0.499999999999911
40
0.499999999999911
40
0.624999999999884
40
0.624999999999884
40
0.687499999999871
40
0.687499999999871
40
0.718749999999875
40
0.718749999999875
40
0.749999999999879
40
0.749999999999879
40
0.812499999999909
40
0.812499999999909
40
0.87499999999994
40
0.87499999999994
40
1
40
1
40
1
40
1
41
1
10
2.43634759131066
20
2.16323296790407
30
0
41
1
10
2.43634759131066
20
2.20556355181606
30
0
41
1
10
2.43976473068693
20
2.24696130168215
30
0
41
1
10
2.45388111525685
20
2.32766572747309
30
0
41
1
10
2.46414830130882
20
2.36718863662787
30
0
41
1
10
2.48975019070343
20
2.42255096263983
30
0
41
1
10
2.49986360355592
20
2.44049658195621
30
0
41
1
10
2.52141490169385
20
2.46212597205761
30
0
41
1
10
2.52981473397938
20
2.46864365838925
30
0
41
1
10
2.54606903378354
20
2.47370369707807
30
0
41
1
10
2.55221105658916
20
2.47453255907723
30
0
41
1
10
2.56557848082969
20
2.4731323736082
30
0
41
1
10
2.57273352029739
20
2.47082487988448
30
0
41
1
10
2.59330149589294
20
2.46007778605551
30
0
41
1
10
2.6051146922635
20
2.44893519849637
30
0
41
1
10
2.6258238261637
20
2.42596941625823
30
0
41
1
10
2.63482292726556
20
2.41391319796068
30
0
41
1
10
2.65989816911878
20
2.37760055738016
30
0
41
1
10
2.67427724557552
20
2.35278981631444
30
0
41
1
10
2.68783597099605
20
2.32797047916816
30
0
0
SPLINE
5
E0
100
AcDbEntity
8
1
62
256
6
ByLayer
370
13
48
1
60
0
100
AcDbSpline
70
4
71
3
72
8
73
4
40
0
40
0
40
0
40
0
40
1
40
1
40
1
40
1
41
1
10
2.68773330530527
20
3.46375389719222
30
0
41
1
10
2.68773313400356
20
3.46473978587369
30
0
41
1
10
2.6877329613996
20
3.46573119266841
30
0
41
1
10
2.6877327907489
20
3.46671029648235
30
0
0
SPLINE
5
E1
100
AcDbEntity
8
1
62
256
6
ByLayer
370
18
48
1
60
0
100
AcDbSpline
70
4
71
3
72
10
73
6
40
0
40
0
40
0
40
0
40
0.5
40
0.5
40
1
40
1
40
1
40
1
41
1
10
72.9949078949071
20
0.10282931255702
30
0
41
1
10
72.9947922206641
20
0.0943657564005775
30
0
41
1
10
72.9952116706065
20
0.0848996093578194
30
0
41
1
10
72.9968920410463
20
0.0650785712649622
30
0
41
1
10
72.9981476277582
20
0.054675180040249
30
0
41
1
10
72.9997675260116
20
0.0438461411213211
30
0
0
SPLINE
5
E2
100
AcDbEntity
8
1
62
256
6
ByLayer
370
18
48
1
60
0
100
AcDbSpline
70
4
71
3
72
100
73
96
40
0
40
0
40
0
40
0
40
0.0106600956177299
40
0.0106600956177299
40
0.0311204357927717
40
0.0311204357927717
40
0.0515807759678135
40
0.0515807759678135
40
0.0720411161428552
40
0.0720411161428552
40
0.092501456317897
40
0.092501456317897
40
0.112961796492939
40
0.112961796492939
40
0.133422136667981
40
0.133422136667981
40
0.153882476843022
40
0.153882476843022
40
0.174342817018064
40
0.174342817018064
40
0.194803157193106
40
0.194803157193106
40
0.215263497368148
40
0.215263497368148
40
0.235723837543189
40
0.235723837543189
40
0.276644517893272
40
0.276644517893272
40
0.297104858068313
40
0.297104858068313
40
0.317565198243355
40
0.317565198243355
40
0.358485878593436
40
0.358485878593436
40
0.378946218768477
40
0.378946218768477
40
0.399406558943518
40
0.399406558943518
40
0.419866899118559
40
0.419866899118559
40
0.4403272392936
40
0.4403272392936
40
0.460787579468641
40
0.460787579468641
40
0.481247919643682
40
0.481247919643682
40
0.522168599993764
40
0.522168599993764
40
0.542628940168804
40
0.542628940168804
40
0.563089280343845
40
0.563089280343845
40
0.583549620518886
40
0.583549620518886
40
0.604009960693927
40
0.604009960693927
40
0.624470300868968
40
0.624470300868968
40
0.644930641044009
40
0.644930641044009
40
0.66539098121905
40
0.66539098121905
40
0.685851321394091
40
0.685851321394091
40
0.706311661569132
40
0.706311661569132
40
0.726772001744173
40
0.726772001744173
40
0.747232341919213
40
0.747232341919213
40
0.767692682094254
40
0.767692682094254
40
0.788153022269295
40
0.788153022269295
40
0.808613362444336
40
0.808613362444336
40
0.829073702619377
40
0.829073702619377
40
0.849534042794418
40
0.849534042794418
40
0.869994382969459
40
0.869994382969459
40
0.8904547231445
40
0.8904547231445
40
0.910915063319541
40
0.910915063319541
40
0.931375403494582
40
0.931375403494582
40
0.951835743669622
40
0.951835743669622
40
0.972296083844663
40
0.972296083844663
40
0.992756424019704
40
0.992756424019704
40
1
40
1
40
1
40
1
41
1
10
60.8842483759467
20
-3.7372540754763
30
0
41
1
10
60.7416398850345
20
-3.78202921492658
30
0
41
1
10
60.5989803560849
20
-3.82571083520952
30
0
41
1
10
60.1822662572064
20
-3.95021637627801
30
0
41
1
10
59.9080771668092
20
-4.02845044034387
30
0
41
1
10
59.3592953818898
20
-4.17724661620849
30
0
41
1
10
59.0846434611918
20
-4.2479294625744
30
0
41
1
10
58.5365474887637
20
-4.38021984171965
30
0
41
1
10
58.2626542380601
20
-4.44169204343078
30
0
41
1
10
57.7150154794962
20
-4.55464870991523
30
0
41
1
10
57.4412661069571
20
-4.60604351131744
30
0
41
1
10
56.8938242251864
20
-4.69786530702021
30
0
41
1
10
56.6202493858807
20
-4.73846422226885
30
0
41
1
10
56.0726036692923
20
-4.81154845299054
30
0
41
1
10
55.7985038694911
20
-4.84361261356432
30
0
41
1
10
55.2495597062596
20
-4.89743755352802
30
0
41
1
10
54.9747777123312
20
-4.91893736854624
30
0
41
1
10
54.4265884259932
20
-4.95171639692211
30
0
41
1
10
54.1529830842415
20
-4.96341287935658
30
0
41
1
10
53.6055564393537
20
-4.97643722382767
30
0
41
1
10
53.3318405890804
20
-4.97775557453264
30
0
41
1
10
52.7842571302104
20
-4.96906425347061
30
0
41
1
10
52.5103842454332
20
-4.95900200002424
30
0
41
1
10
51.9627013117421
20
-4.9294819138382
30
0
41
1
10
51.6887271744775
20
-4.9099412259514
30
0
41
1
10
50.8651643738761
20
-4.83605203683916
30
0
41
1
10
50.3166138343222
20
-4.76510639960031
30
0
41
1
10
49.4959884027689
20
-4.63110921755833
30
0
41
1
10
49.2223931753917
20
-4.58188329855344
30
0
41
1
10
48.6748659141504
20
-4.47352127536484
30
0
41
1
10
48.4008969349283
20
-4.41417150517142
30
0
41
1
10
47.5786951888024
20
-4.22299016518861
30
0
41
1
10
47.0296372037946
20
-4.07781875016022
30
0
41
1
10
46.2074660447076
20
-3.83481361350789
30
0
41
1
10
45.9335740731573
20
-3.74989162139585
30
0
41
1
10
45.3863067422166
20
-3.57297073232985
30
0
41
1
10
45.1129874039224
20
-3.48044774685559
30
0
41
1
10
44.5656509334059
20
-3.28851436563769
30
0
41
1
10
44.2916912486199
20
-3.18883720804521
30
0
41
1
10
43.7432713392434
20
-2.98318421349293
30
0
41
1
10
43.4687120976403
20
-2.87741542726946
30
0
41
1
10
42.9201108216973
20
-2.65921650069157
30
0
41
1
10
42.6462540476516
20
-2.54715001318814
30
0
41
1
10
42.0984784479066
20
-2.31859631977721
30
0
41
1
10
41.8246426547644
20
-2.20196711304388
30
0
41
1
10
41.0035188406455
20
-1.84623745009068
30
0
41
1
10
40.457026131581
20
-1.59912032805576
30
0
41
1
10
39.63433583279
20
-1.22092512149217
30
0
41
1
10
39.3595651365332
20
-1.09351380882583
30
0
41
1
10
38.810933822804
20
-0.836522845470284
30
0
41
1
10
38.5371939552835
20
-0.706663515205349
30
0
41
1
10
37.9898616908
20
-0.446297051380157
30
0
41
1
10
37.7161691383596
20
-0.31600040641797
30
0
41
1
10
37.1688029416054
20
-0.0551194089365481
30
0
41
1
10
36.8951305577297
20
0.0754791995592257
30
0
41
1
10
36.3477809152032
20
0.336983353671769
30
0
41
1
10
36.0741547202767
20
0.468007958117568
30
0
41
1
10
35.5257402436153
20
0.727928394478084
30
0
41
1
10
35.2509730527936
20
0.857334806160253
30
0
41
1
10
34.7023890371227
20
1.11381873321076
30
0
41
1
10
34.4284261933235
20
1.24100163640884
30
0
41
1
10
33.8811140675391
20
1.49249308615805
30
0
41
1
10
33.6076899065257
20
1.61677103611134
30
0
41
1
10
33.0604184520799
20
1.86129450601979
30
0
41
1
10
32.7867056784353
20
1.98184218581153
30
0
41
1
10
32.2390208126965
20
2.21873002002533
30
0
41
1
10
31.9650178705143
20
2.33483789630984
30
0
41
1
10
31.416661500316
20
2.5626611374548
30
0
41
1
10
31.1420276786623
20
2.67409078639923
30
0
41
1
10
30.5936037566518
20
2.89087140407679
30
0
41
1
10
30.3196093400386
20
2.99643090885883
30
0
41
1
10
29.7719853049678
20
3.20001885676538
30
0
41
1
10
29.4984402625018
20
3.29814135539107
30
0
41
1
10
28.9513185804882
20
3.48884087257434
30
0
41
1
10
28.6776084270794
20
3.58086585728583
30
0
41
1
10
28.1297199201838
20
3.75718401473614
30
0
41
1
10
27.8555109355132
20
3.84124731395633
30
0
41
1
10
27.3064629707081
20
4.00057851275815
30
0
41
1
10
27.0320643185335
20
4.07674383791013
30
0
41
1
10
26.4838293653437
20
4.22049461183079
30
0
41
1
10
26.2098438750746
20
4.28812965991901
30
0
41
1
10
25.6620248956401
20
4.4135885255161
30
0
41
1
10
25.3881532651515
20
4.47085033666991
30
0
41
1
10
24.8406704563413
20
4.57719538706908
30
0
41
1
10
24.5670507419001
20
4.62624616056505
30
0
41
1
10
24.0189725155797
20
4.71467383880281
30
0
41
1
10
23.7446613296722
20
4.75434535815
30
0
41
1
10
23.1950305159409
20
4.82151645021565
30
0
41
1
10
22.92047917091
20
4.84971044750498
30
0
41
1
10
22.3724073755832
20
4.89777368800918
30
0
41
1
10
22.0985324955599
20
4.91708491466901
30
0
41
1
10
21.5506868942914
20
4.94509985871011
30
0
41
1
10
21.2767071760358
20
4.95314352430648
30
0
41
1
10
20.9056756095276
20
4.95689855686874
30
0
41
1
10
20.8086829943675
20
4.95732371288386
30
0
41
1
10
20.7116935849353
20
4.95716760184203
30
0
0
LINE
5
76
100
AcDbEntity
8
81
62
256
6
ByLayer
370
18
48
1
60
0
100
AcDbLine
10
73
20
0
30
0
11
78
21
0
31
0
39
0
210
0
220
0
230
1
0
LINE
5
77
100
AcDbEntity
8
1
62
256
6
ByLayer
370
18
48
1
60
0
100
AcDbLine
10
5.324039
20
5.20868
30
0
11
0.350219
21
5.205571
31
0
39
0
210
0
220
0
230
1
0
LINE
5
79
100
AcDbEntity
8
1
62
256
6
ByLayer
370
18
48
1
60
0
100
AcDbLine
10
37.974536
20
5.229086
30
0
11
36.345544
21
5.228068
31
0
39
0
210
0
220
0
230
1
0
LINE
5
7A
100
AcDbEntity
8
1
62
256
6
ByLayer
370
18
48
1
60
0
100
AcDbLine
10
70.624854
20
5.249493
30
0
11
68.993038
21
5.248473
31
0
39
0
210
0
220
0
230
1
0
LINE
5
7B
100
AcDbEntity
8
1
62
256
6
ByLayer
370
18
48
1
60
0
100
AcDbLine
10
68.993038
20
-5.248473
30
0
11
70.624908
21
-5.249493
31
0
39
0
210
0
220
0
230
1
0
LINE
5
7C
100
AcDbEntity
8
1
62
256
6
ByLayer
370
18
48
1
60
0
100
AcDbLine
10
36.345544
20
-5.228068
30
0
11
37.974223
21
-5.229086
31
0
39
0
210
0
220
0
230
1
0
LINE
5
7D
100
AcDbEntity
8
1
62
256
6
ByLayer
370
18
48
1
60
0
100
AcDbLine
10
0.350219
20
-5.205571
30
0
11
5.324022
21
-5.20868
31
0
39
0
210
0
220
0
230
1
0
LINE
5
7E
100
AcDbEntity
8
SK1
62
256
6
ByLayer
370
18
48
1
60
0
100
AcDbLine
10
0
20
6
30
0
11
-43.556624
21
6
31
0
39
0
210
0
220
0
230
1
0
LINE
5
80
100
AcDbEntity
8
SK1
62
256
6
ByLayer
370
18
48
1
60
0
100
AcDbLine
10
-43.556624
20
-6
30
0
11
0
21
-6
31
0
39
0
210
0
220
0
230
1
0
LINE
5
81
100
AcDbEntity
8
SK1
62
256
6
ByLayer
370
18
48
1
60
0
100
AcDbLine
10
-43.556624
20
6
30
0
11
-45
21
3.5
31
0
39
0
210
0
220
0
230
1
0
LINE
5
82
100
AcDbEntity
8
SK1
62
256
6
ByLayer
370
18
48
1
60
0
100
AcDbLine
10
-45
20
-3.5
30
0
11
-43.556624
21
-6
31
0
39
0
210
0
220
0
230
1
0
LINE
5
83
100
AcDbEntity
8
SK4
62
256
6
ByLayer
370
18
48
0.05
60
0
100
AcDbLine
10
78
20
0
30
0
11
-50
21
0
31
0
39
0
210
0
220
0
230
1
0
LINE
5
85
100
AcDbEntity
8
4
62
256
6
ByLayer
370
18
48
0.05
60
0
100
AcDbLine
10
73
20
0
30
0
11
0
21
0
31
0
39
0
210
0
220
0
230
1
0
LINE
5
87
100
AcDbEntity
8
80
62
256
6
ByLayer
370
18
48
1
60
0
100
AcDbLine
10
0
20
0
30
0
11
-5
21
0
31
0
39
0
210
0
220
0
230
1
0
LINE
5
88
100
AcDbEntity
8
SK1
62
256
6
ByLayer
370
13
48
1
60
0
100
AcDbLine
10
-43.7
20
4.996588
30
0
11
-43.7
21
3.3159
31
0
39
0
210
0
220
0
230
1
0
LINE
5
89
100
AcDbEntity
8
SK1
62
256
6
ByLayer
370
18
48
1
60
0
100
AcDbLine
10
-45
20
3.5
30
0
11
-45
21
3.264743
31
0
39
0
210
0
220
0
230
1
0
LINE
5
8A
100
AcDbEntity
8
SK1
62
256
6
ByLayer
370
18
48
1
60
0
100
AcDbLine
10
-43.556624
20
6
30
0
11
-43.556624
21
-6
31
0
39
0
210
0
220
0
230
1
0
LINE
5
8B
100
AcDbEntity
8
SK1
62
256
6
ByLayer
370
18
48
1
60
0
100
AcDbLine
10
-43.6
20
3.52974
30
0
11
-43.6
21
5.075944
31
0
39
0
210
0
220
0
230
1
0
LINE
5
8C
100
AcDbEntity
8
SK1
62
256
6
ByLayer
370
18
48
1
60
0
100
AcDbLine
10
0
20
6
30
0
11
0
21
-6
31
0
39
0
210
0
220
0
230
1
0
LINE
5
8D
100
AcDbEntity
8
SK1
62
256
6
ByLayer
370
18
48
1
60
0
100
AcDbLine
10
-45
20
3.005675
30
0
11
-45
21
1.579853
31
0
39
0
210
0
220
0
230
1
0
LINE
5
8E
100
AcDbEntity
8
SK1
62
256
6
ByLayer
370
18
48
1
60
0
100
AcDbLine
10
-45
20
1.579884
30
0
11
-45
21
-3.5
31
0
39
0
210
0
220
0
230
1
0
LINE
5
8F
100
AcDbEntity
8
1
62
256
6
ByLayer
370
13
48
1
60
0
100
AcDbLine
10
71.039188
20
1.159034
30
0
11
72.9636
21
-0.059165
31
0
39
0
210
0
220
0
230
1
0
LINE
5
90
100
AcDbEntity
8
1
62
256
6
ByLayer
370
13
48
1
60
0
100
AcDbLine
10
0.350219
20
5.205571
30
0
11
0.350219
21
-5.205571
31
0
39
0
210
0
220
0
230
1
0
LINE
5
91
100
AcDbEntity
8
1
62
256
6
ByLayer
370
13
48
1
60
0
100
AcDbLine
10
71.174511
20
1.255184
30
0
11
72.994908
21
0.102829
31
0
39
0
210
0
220
0
230
1
0
LINE
5
92
100
AcDbEntity
8
1
62
256
6
ByLayer
370
18
48
1
60
0
100
AcDbLine
10
2.436348
20
-4.962603
30
0
11
2.436348
21
2.144486
31
0
39
0
210
0
220
0
230
1
0
MTEXT
5
E3
100
AcDbEntity
8
SK6
62
256
6
ByLayer
370
13
48
1
60
0
100
AcDbMText
10
16.129169
20
37.632694
30
0
210
0
220
0
230
1
1
\W0.7431;460.1-1050-053A1-XM GC34
40
3.5
41
0
44
1.084337
50
0
71
8
72
5
7
iso_b_vert
0
DIMENSION
5
F0
100
AcDbEntity
8
SK2
62
256
6
ByLayer
370
13
48
1
60
0
100
AcDbDimension
2
DimnDraft3D1
10
71.4406
20
-15.463398
30
0
11
34.190659
21
-15.463398
31
0
70
32
71
5
72
1
41
1
210
0
220
0
230
1
3
Standard
100
AcDbAlignedDimension
13
0
23
-1.5875
33
0
14
71.4406
24
-6.8375
34
0
50
0
100
AcDbRotatedDimension
1001
ACAD
1000
DSTYLE
1002
{
1070
   279
1070
     0
1070
   172
1070
     1
1070
   173
1070
     1
1070
   340
1005
E4
1070
   271
1070
     2
1070
   272
1070
     2
1070
    77
1070
     1
1070
    73
1070
     0
1070
   171
1070
     3
1070
   274
1070
     4
1070
   177
1070
    35
1070
   176
1070
    35
1070
   178
1070
    35
1070
    48
1040
-0.005
1070
    41
1041
3.5
1070
   147
1041
1.75
1070
    42
1041
1.5875
1070
    44
1041
2.0
1070
   140
1041
3.5
1070
   343
1005
0
1070
   344
1005
0
1002
}
0
DIMENSION
5
FA
100
AcDbEntity
8
SK2
62
256
6
ByLayer
370
13
48
1
60
0
100
AcDbDimension
2
DimnDraft3D2
10
73
20
-34.692985
30
0
11
13.7819
21
-34.692985
31
0
70
32
71
5
72
1
41
1
210
0
220
0
230
1
3
Standard
100
AcDbAlignedDimension
13
-45
23
-7.5875
33
0
14
73
24
-1.5875
34
0
50
0
100
AcDbRotatedDimension
1001
ACAD
1000
DSTYLE
1002
{
1070
   279
1070
     0
1070
   172
1070
     1
1070
   173
1070
     1
1070
   340
1005
E4
1070
   271
1070
     2
1070
   272
1070
     2
1070
    77
1070
     1
1070
    73
1070
     0
1070
   171
1070
     3
1070
   274
1070
     4
1070
   177
1070
    35
1070
   176
1070
    35
1070
   178
1070
    35
1070
    48
1040
-0.005
1070
    41
1041
3.5
1070
   147
1041
1.75
1070
    42
1041
1.5875
1070
    44
1041
2.0
1070
   140
1041
3.5
1070
   343
1005
0
1070
   344
1005
0
1002
}
0
DIMENSION
5
104
100
AcDbEntity
8
SK2
62
256
6
ByLayer
370
13
48
1
60
0
100
AcDbDimension
2
DimnDraft3D3
10
73
20
16.859119
30
0
11
45.975
21
16.859119
31
0
70
32
71
5
72
1
41
1
210
0
220
0
230
1
3
Standard
100
AcDbAlignedDimension
13
18.95
23
6.8375
33
0
14
73
24
1.5875
34
0
50
0
100
AcDbRotatedDimension
1001
ACAD
1000
DSTYLE
1002
{
1070
   279
1070
     0
1070
   172
1070
     1
1070
   173
1070
     1
1070
   340
1005
E4
1070
   271
1070
     2
1070
   272
1070
     2
1070
    77
1070
     1
1070
    73
1070
     0
1070
   171
1070
     3
1070
   274
1070
     4
1070
   177
1070
    35
1070
   176
1070
    35
1070
   178
1070
    35
1070
    48
1040
-0.005
1070
    41
1041
3.5
1070
   147
1041
1.75
1070
    42
1041
1.5875
1070
    44
1041
2.0
1070
   140
1041
3.5
1070
   343
1005
0
1070
   344
1005
0
1002
}
0
DIMENSION
5
10E
100
AcDbEntity
8
SK2
62
256
6
ByLayer
370
13
48
1
60
0
100
AcDbDimension
2
DimnDraft3D4
10
71.4406
20
-18.052503
30
0
11
82.981425
21
-18.052503
31
0
70
32
71
5
72
1
41
1
210
0
220
0
230
1
3
Standard
100
AcDbAlignedDimension
13
73
23
-1.5875
33
0
14
71.4406
24
-6.8375
34
0
50
0
100
AcDbRotatedDimension
1001
ACAD
1000
DSTYLE
1002
{
1070
   279
1070
     0
1070
   172
1070
     1
1070
   173
1070
     1
1070
   340
1005
E4
1070
   271
1070
     2
1070
   272
1070
     2
1070
    77
1070
     1
1070
    73
1070
     0
1070
   171
1070
     3
1070
   274
1070
     4
1070
   177
1070
    35
1070
   176
1070
    35
1070
   178
1070
    35
1070
    48
1040
-0.005
1070
    41
1041
3.5
1070
   147
1041
1.75
1070
    42
1041
1.5875
1070
    44
1041
2.0
1070
   140
1041
3.5
1070
   343
1005
0
1070
   344
1005
0
1002
}
0
DIMENSION
5
118
100
AcDbEntity
8
SK2
62
256
6
ByLayer
370
13
48
1
60
0
100
AcDbDimension
2
DimnDraft3D5
10
71.4406
20
-24.343428
30
0
11
10.701276
21
-24.343428
31
0
70
32
71
5
72
1
41
1
210
0
220
0
230
1
3
Standard
100
AcDbAlignedDimension
13
-45
23
-7.5875
33
0
14
71.4406
24
-6.8375
34
0
50
0
100
AcDbRotatedDimension
1001
ACAD
1000
DSTYLE
1002
{
1070
   279
1070
     0
1070
   172
1070
     1
1070
   173
1070
     1
1070
   340
1005
E4
1070
   271
1070
     2
1070
   272
1070
     2
1070
    77
1070
     1
1070
    73
1070
     0
1070
   171
1070
     3
1070
   274
1070
     4
1070
   177
1070
    35
1070
   176
1070
    35
1070
   178
1070
    35
1070
    48
1040
-0.005
1070
    41
1041
3.5
1070
   147
1041
1.75
1070
    42
1041
1.5875
1070
    44
1041
2.0
1070
   140
1041
3.5
1070
   343
1005
0
1070
   344
1005
0
1002
}
0
DIMENSION
5
123
100
AcDbEntity
8
SK2
62
256
6
ByLayer
370
13
48
1
60
0
100
AcDbDimension
2
DimnDraft3D6
10
-55.625163
20
6
30
0
11
-56.250163
21
24.47418
31
0
70
33
71
5
72
1
41
1
210
0
220
0
230
1
3
Standard
100
AcDbAlignedDimension
13
-46.5875
23
-6
33
0
14
-46.5875
24
6
34
0
1001
ACAD
1000
DSTYLE
1002
{
1070
   279
1070
     0
1070
    74
1070
     0
1070
   173
1070
     1
1070
   340
1005
E4
1070
   271
1070
     3
1070
   272
1070
     2
1070
    77
1070
     1
1070
    73
1070
     0
1070
   171
1070
     3
1070
   274
1070
     4
1070
   177
1070
    35
1070
   176
1070
    35
1070
   178
1070
    35
1070
    48
1040
-0.005
1070
    41
1041
3.5
1070
   147
1041
1.75
1070
    42
1041
1.5875
1070
    44
1041
2.0
1070
   140
1041
3.5
1070
   343
1005
0
1070
   344
1005
0
1002
}
0
DIMENSION
5
12E
100
AcDbEntity
8
2
62
256
6
ByLayer
370
13
48
1
60
0
100
AcDbDimension
2
DimnDraft3D7
10
87.083343
20
5.25
30
0
11
82.458343
21
22.317266
31
0
70
33
71
5
72
1
41
1
210
0
220
0
230
1
3
Standard
100
AcDbAlignedDimension
13
73.0281
23
-5.25
33
0
14
73.0281
24
5.25
34
0
1001
ACAD
1000
DSTYLE
1002
{
1070
   279
1070
     0
1070
    74
1070
     0
1070
   173
1070
     1
1070
   340
1005
E4
1070
   271
1070
     3
1070
   272
1070
     2
1070
    77
1070
     1
1070
    73
1070
     0
1070
   171
1070
     3
1070
   274
1070
     4
1070
   177
1070
    35
1070
   176
1070
    35
1070
   178
1070
    35
1070
    48
1040
-0.005
1070
    41
1041
3.5
1070
   147
1041
1.75
1070
    42
1041
1.5875
1070
    44
1041
2.0
1070
   140
1041
3.5
1070
   343
1005
0
1070
   344
1005
0
1002
}
0
ENDSEC
0
SECTION
2
OBJECTS
0
DICTIONARY
5
199
330
0
100
AcDbDictionary
280
0
281
1
3
ACAD_GROUP
350
19a
3
ACAD_MLINESTYLE
350
19b
0
DICTIONARY
5
19a
330
0
100
AcDbDictionary
280
0
281
1
0
DICTIONARY
5
19b
330
0
100
AcDbDictionary
280
0
281
1
3
Standard
350
18
0
MLINESTYLE
5
18
330
19b
100
AcDbMlineStyle
2
Standard
70
0
3

62
256
51
90
52
90
71
2
49
-0.5
62
256
6
ByLayer
49
0.5
62
256
6
ByLayer
0
RASTERVARIABLES
5
187
330

100
AcDbRasterVariables
90
0
70
1
71
1
72
1
0
ENDSEC
0
EOF
