0
SECTION
2
HEADER
9
$ACADVER
1
AC1015
9
$DWGCODEPAGE
3
ANSI_1252
9
$HANDSEED
5
1ad
9
$ANGBASE
50
0
9
$ANGDIR
70
0
9
$ATTMODE
70
1
9
$AUNITS
70
0
9
$AUPREC
70
0
9
$CECOLOR
62
256
9
$CELTSCALE
40
1
9
$CELTYPE
6
ByLayer
9
$CELWEIGHT
370
18
9
$CLAYER
8
0
9
$CMLJUST
70
0
9
$CMLSCALE
40
1
9
$CMLSTYLE
2
Standard
9
$DIMSTYLE
2
Standard
9
$TEXTSIZE
40
0.2
9
$TEXTSTYLE
7
Standard
9
$LUNITS
70
2
9
$LUPREC
70
4
9
$EXTNAMES
290
1
9
$INSUNITS
70
4
9
$LTSCALE
40
1
9
$LWDISPLAY
290
1
9
$PDMODE
70
0
9
$PDSIZE
40
0
9
$PLINEGEN
70
0
0
ENDSEC
0
SECTION
2
CLASSES
0
CLASS
1
RASTERVARIABLES
2
AcDbRasterVariables
3
ISM
90
0
280
0
281
0
0
ENDSEC
0
SECTION
2
TABLES
0
TABLE
2
VPORT
5
1a3
100
AcDbSymbolTable
0
VPORT
5
1
100
AcDbSymbolTableRecord
100
AcDbViewportTableRecord
2
*Active
70
0
10
0
20
0
11
1
21
1
12
-1
22
1
13
0
23
0
14
0.5
24
0.5
15
10
25
10
16
0
26
0
36
1
17
0
27
0
37
0
0
ENDTAB
0
TABLE
2
LTYPE
5
1a4
100
AcDbSymbolTable
0
LTYPE
5
14
100
AcDbSymbolTableRecord
100
AcDbLinetypeTableRecord
70
0
2
ByBlock
3

72
65
73
0
40
0
0
LTYPE
5
15
100
AcDbSymbolTableRecord
100
AcDbLinetypeTableRecord
70
0
2
ByLayer
3

72
65
73
0
40
0
0
LTYPE
5
16
100
AcDbSymbolTableRecord
100
AcDbLinetypeTableRecord
70
0
2
CONTINUOUS
3
Solid line
72
65
73
0
40
0
0
LTYPE
5
6A
100
AcDbSymbolTableRecord
100
AcDbLinetypeTableRecord
70
0
2
CENTER
3
____ _ ____ _ ____ _ ____
72
65
73
4
40
47.5
49
22
74
0
49
-8.5
74
0
49
8.5
74
0
49
-8.5
74
0
0
LTYPE
5
6B
100
AcDbSymbolTableRecord
100
AcDbLinetypeTableRecord
70
0
2
DASHED
3
__ __ __ __ __ __ __ __ __
72
65
73
2
40
25.72
49
12.86
74
0
49
-12.86
74
0
0
ENDTAB
0
TABLE
2
LAYER
5
1a5
100
AcDbSymbolTable
0
LAYER
5
10
100
AcDbSymbolTableRecord
100
AcDbLayerTableRecord
2
0
70
0
62
7
6
CONTINUOUS
290
1
370
-3
390
0
0
LAYER
5
6D
100
AcDbSymbolTableRecord
100
AcDbLayerTableRecord
2
81
70
0
62
-3
6
CONTINUOUS
290
1
370
-3
390
0
0
LAYER
5
6F
100
AcDbSymbolTableRecord
100
AcDbLayerTableRecord
2
80
70
0
62
-6
6
CONTINUOUS
290
1
370
-3
390
0
0
LAYER
5
74
100
AcDbSymbolTableRecord
100
AcDbLayerTableRecord
2
2
70
0
62
7
6
CONTINUOUS
290
1
370
-3
390
0
0
LAYER
5
78
100
AcDbSymbolTableRecord
100
AcDbLayerTableRecord
2
1
70
0
62
4
6
CONTINUOUS
290
1
370
-3
390
0
0
LAYER
5
8A
100
AcDbSymbolTableRecord
100
AcDbLayerTableRecord
2
4
70
0
62
-2
6
CENTER
290
1
370
-3
390
0
0
LAYER
5
18f
100
AcDbSymbolTableRecord
100
AcDbLayerTableRecord
2
SK2
70
0
62
7
6
CONTINUOUS
290
1
370
-3
390
0
0
LAYER
5
190
100
AcDbSymbolTableRecord
100
AcDbLayerTableRecord
2
SK1
70
0
62
4
6
CONTINUOUS
290
1
370
-3
390
0
0
LAYER
5
191
100
AcDbSymbolTableRecord
100
AcDbLayerTableRecord
2
SK4
70
0
62
2
6
CENTER
290
1
370
-3
390
0
0
LAYER
5
192
100
AcDbSymbolTableRecord
100
AcDbLayerTableRecord
2
SK6
70
0
62
5
6
CONTINUOUS
290
1
370
-3
390
0
0
ENDTAB
0
TABLE
2
STYLE
5
1a6
100
AcDbSymbolTable
0
STYLE
5
11
100
AcDbSymbolTableRecord
100
AcDbTextStyleTableRecord
2
Standard
3
txt
70
0
71
0
40
0
41
1
42
0
50
0
0
STYLE
5
EB
100
AcDbSymbolTableRecord
100
AcDbTextStyleTableRecord
2
iso_b_vert
3
simplex.shx
70
0
71
0
40
0
41
1
42
0
50
0
0
STYLE
5
EC
100
AcDbSymbolTableRecord
100
AcDbTextStyleTableRecord
2
DWGDirectTextStyle
3
simplex
70
0
71
0
40
0
41
1
42
0
50
0
0
ENDTAB
0
TABLE
2
DIMSTYLE
5
1a7
100
AcDbSymbolTable
100
AcDbDimStyleTable
0
DIMSTYLE
105
27
100
AcDbSymbolTableRecord
100
AcDbDimStyleTableRecord
2
Standard
70
0
3
<>
41
0.18
42
0.0625
44
0.18
140
0.18
147
0.09
73
0
74
0
77
1
271
2
275
0
278
52
280
0
340
11
0
ENDTAB
0
TABLE
2
VIEW
5
1a8
100
AcDbSymbolTable
0
ENDTAB
0
TABLE
2
UCS
5
1a9
100
AcDbSymbolTable
0
ENDTAB
0
TABLE
2
APPID
5
1aa
100
AcDbSymbolTable
0
APPID
5
12
100
AcDbSymbolTableRecord
100
AcDbRegAppTableRecord
2
ACAD
70
0
0
ENDTAB
0
TABLE
2
BLOCK_RECORD
5
1ab
100
AcDbSymbolTable
0
BLOCK_RECORD
5
1F
100
AcDbSymbolTableRecord
100
AcDbBlockTableRecord
2
*Model_Space
340
0
70
0
0
BLOCK_RECORD
5
1B
100
AcDbSymbolTableRecord
100
AcDbBlockTableRecord
2
*Paper_Space
340
0
70
0
0
BLOCK_RECORD
5
23
100
AcDbSymbolTableRecord
100
AcDbBlockTableRecord
2
*Paper_Space0
340
0
70
0
0
BLOCK_RECORD
5
EE
100
AcDbSymbolTableRecord
100
AcDbBlockTableRecord
2
DimnDraft3D1
340
0
70
0
0
BLOCK_RECORD
5
F8
100
AcDbSymbolTableRecord
100
AcDbBlockTableRecord
2
DimnDraft3D2
340
0
70
0
0
BLOCK_RECORD
5
102
100
AcDbSymbolTableRecord
100
AcDbBlockTableRecord
2
DimnDraft3D3
340
0
70
0
0
BLOCK_RECORD
5
10C
100
AcDbSymbolTableRecord
100
AcDbBlockTableRecord
2
DimnDraft3D4
340
0
70
0
0
BLOCK_RECORD
5
116
100
AcDbSymbolTableRecord
100
AcDbBlockTableRecord
2
DimnDraft3D5
340
0
70
0
0
BLOCK_RECORD
5
120
100
AcDbSymbolTableRecord
100
AcDbBlockTableRecord
2
DimnDraft3D6
340
0
70
0
0
BLOCK_RECORD
5
12B
100
AcDbSymbolTableRecord
100
AcDbBlockTableRecord
2
DimnDraft3D7
340
0
70
0
0
ENDTAB
0
ENDSEC
0
SECTION
2
BLOCKS
0
BLOCK
5
20
100
AcDbEntity
8
0
100
AcDbBlockBegin
2
*Model_Space
70
0
10
0
20
0
30
0
3
*Model_Space
0
ENDBLK
5
21
100
AcDbEntity
8
0
100
AcDbBlockEnd
0
BLOCK
5
1C
100
AcDbEntity
8
0
100
AcDbBlockBegin
2
*Paper_Space
70
0
10
0
20
0
30
0
3
*Paper_Space
0
ENDBLK
5
1D
100
AcDbEntity
8
0
100
AcDbBlockEnd
0
BLOCK
5
24
100
AcDbEntity
8
0
100
AcDbBlockBegin
2
*Paper_Space0
70
0
10
0
20
0
30
0
3
*Paper_Space0
0
ENDBLK
5
25
100
AcDbEntity
8
0
100
AcDbBlockEnd
0
BLOCK
5
F5
100
AcDbEntity
8
0
100
AcDbBlockBegin
2
DimnDraft3D1
70
0
10
0
20
0
30
0
3
DimnDraft3D1
0
MTEXT
5
EF
100
AcDbEntity
8
SK2
62
256
6
ByLayer
370
13
48
1
60
0
100
AcDbMText
10
59.714569
20
-14.497898
30
0
210
0
220
0
230
1
1
\W0.7145;133,47
40
3.5
41
0
44
1.084337
50
0
71
7
72
5
7
iso_b_vert
0
LINE
5
F0
100
AcDbEntity
8
SK2
62
256
6
ByLayer
370
13
48
1
60
0
100
AcDbLine
10
0
20
-1.5875
30
0
11
0
21
-17.372898
31
0
39
0
210
0
220
0
230
1
0
LINE
5
F1
100
AcDbEntity
8
SK2
62
256
6
ByLayer
370
13
48
1
60
0
100
AcDbLine
10
133.4678
20
-6.747
30
0
11
133.4678
21
-17.372898
31
0
39
0
210
0
220
0
230
1
0
LINE
5
F2
100
AcDbEntity
8
SK2
62
256
6
ByLayer
370
13
48
1
60
0
100
AcDbLine
10
0
20
-15.372898
30
0
11
133.4678
21
-15.372898
31
0
39
0
210
0
220
0
230
1
0
SOLID
5
F3
100
AcDbEntity
8
SK2
62
256
6
ByLayer
370
13
48
1
60
0
100
AcDbTrace
10
0
20
-15.372898
30
0
11
3.499998
21
-14.912115
31
0
12
3.500002
22
-15.833682
32
0
13
0
23
-15.372898
33
0
39
0
210
0
220
0
230
1
0
SOLID
5
F4
100
AcDbEntity
8
SK2
62
256
6
ByLayer
370
13
48
1
60
0
100
AcDbTrace
10
133.4678
20
-15.372898
30
0
11
129.967802
21
-15.833682
31
0
12
129.967798
22
-14.912115
32
0
13
133.4678
23
-15.372898
33
0
39
0
210
0
220
0
230
1
0
ENDBLK
5
F6
100
AcDbEntity
8
0
100
AcDbBlockEnd
0
BLOCK
5
FF
100
AcDbEntity
8
0
100
AcDbBlockBegin
2
DimnDraft3D2
70
0
10
0
20
0
30
0
3
DimnDraft3D2
0
MTEXT
5
F9
100
AcDbEntity
8
SK2
62
256
6
ByLayer
370
13
48
1
60
0
100
AcDbMText
10
39.490021
20
-33.817985
30
0
210
0
220
0
230
1
1
\W0.6930;180,00
40
3.5
41
0
44
1.084337
50
0
71
7
72
5
7
iso_b_vert
0
LINE
5
FA
100
AcDbEntity
8
SK2
62
256
6
ByLayer
370
13
48
1
60
0
100
AcDbLine
10
-45
20
-7.5875
30
0
11
-45
21
-36.692985
31
0
39
0
210
0
220
0
230
1
0
LINE
5
FB
100
AcDbEntity
8
SK2
62
256
6
ByLayer
370
13
48
1
60
0
100
AcDbLine
10
135
20
-1.5875
30
0
11
135
21
-36.692985
31
0
39
0
210
0
220
0
230
1
0
LINE
5
FC
100
AcDbEntity
8
SK2
62
256
6
ByLayer
370
13
48
1
60
0
100
AcDbLine
10
-45
20
-34.692985
30
0
11
135
21
-34.692985
31
0
39
0
210
0
220
0
230
1
0
SOLID
5
FD
100
AcDbEntity
8
SK2
62
256
6
ByLayer
370
13
48
1
60
0
100
AcDbTrace
10
-45
20
-34.692985
30
0
11
-41.500002
21
-34.232202
31
0
12
-41.499998
22
-35.153769
32
0
13
-45
23
-34.692985
33
0
39
0
210
0
220
0
230
1
0
SOLID
5
FE
100
AcDbEntity
8
SK2
62
256
6
ByLayer
370
13
48
1
60
0
100
AcDbTrace
10
135
20
-34.692985
30
0
11
131.500002
21
-35.153769
31
0
12
131.499998
22
-34.232202
32
0
13
135
23
-34.692985
33
0
39
0
210
0
220
0
230
1
0
ENDBLK
5
100
100
AcDbEntity
8
0
100
AcDbBlockEnd
0
BLOCK
5
109
100
AcDbEntity
8
0
100
AcDbBlockBegin
2
DimnDraft3D3
70
0
10
0
20
0
30
0
3
DimnDraft3D3
0
MTEXT
5
103
100
AcDbEntity
8
SK2
62
256
6
ByLayer
370
13
48
1
60
0
100
AcDbMText
10
88.322105
20
17.643619
30
0
210
0
220
0
230
1
1
\W0.7669;84,09
40
3.5
41
0
44
1.084337
50
0
71
7
72
5
7
iso_b_vert
0
LINE
5
104
100
AcDbEntity
8
SK2
62
256
6
ByLayer
370
13
48
1
60
0
100
AcDbLine
10
50.91
20
6.747
30
0
11
50.91
21
18.768619
31
0
39
0
210
0
220
0
230
1
0
LINE
5
105
100
AcDbEntity
8
SK2
62
256
6
ByLayer
370
13
48
1
60
0
100
AcDbLine
10
135
20
1.5875
30
0
11
135
21
18.768619
31
0
39
0
210
0
220
0
230
1
0
LINE
5
106
100
AcDbEntity
8
SK2
62
256
6
ByLayer
370
13
48
1
60
0
100
AcDbLine
10
50.91
20
16.768619
30
0
11
135
21
16.768619
31
0
39
0
210
0
220
0
230
1
0
SOLID
5
107
100
AcDbEntity
8
SK2
62
256
6
ByLayer
370
13
48
1
60
0
100
AcDbTrace
10
50.91
20
16.768619
30
0
11
54.409998
21
17.229403
31
0
12
54.410002
22
16.307835
32
0
13
50.91
23
16.768619
33
0
39
0
210
0
220
0
230
1
0
SOLID
5
108
100
AcDbEntity
8
SK2
62
256
6
ByLayer
370
13
48
1
60
0
100
AcDbTrace
10
135
20
16.768619
30
0
11
131.500002
21
16.307835
31
0
12
131.499998
22
17.229403
32
0
13
135
23
16.768619
33
0
39
0
210
0
220
0
230
1
0
ENDBLK
5
10A
100
AcDbEntity
8
0
100
AcDbBlockEnd
0
BLOCK
5
113
100
AcDbEntity
8
0
100
AcDbBlockBegin
2
DimnDraft3D4
70
0
10
0
20
0
30
0
3
DimnDraft3D4
0
MTEXT
5
10D
100
AcDbEntity
8
SK2
62
256
6
ByLayer
370
13
48
1
60
0
100
AcDbMText
10
142.278136
20
-17.087003
30
0
210
0
220
0
230
1
1
\W0.6367;1,53
40
3.5
41
0
44
1.084337
50
0
71
7
72
5
7
iso_b_vert
0
LINE
5
10E
100
AcDbEntity
8
SK2
62
256
6
ByLayer
370
13
48
1
60
0
100
AcDbLine
10
135
20
-1.5875
30
0
11
135
21
-19.962003
31
0
39
0
210
0
220
0
230
1
0
LINE
5
10F
100
AcDbEntity
8
SK2
62
256
6
ByLayer
370
13
48
1
60
0
100
AcDbLine
10
133.4678
20
-6.747
30
0
11
133.4678
21
-19.962003
31
0
39
0
210
0
220
0
230
1
0
LINE
5
110
100
AcDbEntity
8
SK2
62
256
6
ByLayer
370
13
48
1
60
0
100
AcDbLine
10
124.7178
20
-17.962003
30
0
11
148.559715
21
-17.962003
31
0
39
0
210
0
220
0
230
1
0
SOLID
5
111
100
AcDbEntity
8
SK2
62
256
6
ByLayer
370
13
48
1
60
0
100
AcDbTrace
10
135
20
-17.962003
30
0
11
138.499998
21
-17.501219
31
0
12
138.500002
22
-18.422787
32
0
13
135
23
-17.962003
33
0
39
0
210
0
220
0
230
1
0
SOLID
5
112
100
AcDbEntity
8
SK2
62
256
6
ByLayer
370
13
48
1
60
0
100
AcDbTrace
10
133.4678
20
-17.962003
30
0
11
129.967802
21
-18.422787
31
0
12
129.967798
22
-17.501219
32
0
13
133.4678
23
-17.962003
33
0
39
0
210
0
220
0
230
1
0
ENDBLK
5
114
100
AcDbEntity
8
0
100
AcDbBlockEnd
0
BLOCK
5
11D
100
AcDbEntity
8
0
100
AcDbBlockBegin
2
DimnDraft3D5
70
0
10
0
20
0
30
0
3
DimnDraft3D5
0
MTEXT
5
117
100
AcDbEntity
8
SK2
62
256
6
ByLayer
370
13
48
1
60
0
100
AcDbMText
10
36.225187
20
-23.468428
30
0
210
0
220
0
230
1
1
\W0.7145;178,47
40
3.5
41
0
44
1.084337
50
0
71
7
72
5
7
iso_b_vert
0
LINE
5
118
100
AcDbEntity
8
SK2
62
256
6
ByLayer
370
13
48
1
60
0
100
AcDbLine
10
-45
20
-7.5875
30
0
11
-45
21
-26.343428
31
0
39
0
210
0
220
0
230
1
0
LINE
5
119
100
AcDbEntity
8
SK2
62
256
6
ByLayer
370
13
48
1
60
0
100
AcDbLine
10
133.4678
20
-6.747
30
0
11
133.4678
21
-26.343428
31
0
39
0
210
0
220
0
230
1
0
LINE
5
11A
100
AcDbEntity
8
SK2
62
256
6
ByLayer
370
13
48
1
60
0
100
AcDbLine
10
-45
20
-24.343428
30
0
11
133.4678
21
-24.343428
31
0
39
0
210
0
220
0
230
1
0
SOLID
5
11B
100
AcDbEntity
8
SK2
62
256
6
ByLayer
370
13
48
1
60
0
100
AcDbTrace
10
-45
20
-24.343428
30
0
11
-41.500002
21
-23.882645
31
0
12
-41.499998
22
-24.804212
32
0
13
-45
23
-24.343428
33
0
39
0
210
0
220
0
230
1
0
SOLID
5
11C
100
AcDbEntity
8
SK2
62
256
6
ByLayer
370
13
48
1
60
0
100
AcDbTrace
10
133.4678
20
-24.343428
30
0
11
129.967802
21
-24.804212
31
0
12
129.967798
22
-23.882645
32
0
13
133.4678
23
-24.343428
33
0
39
0
210
0
220
0
230
1
0
ENDBLK
5
11E
100
AcDbEntity
8
0
100
AcDbBlockEnd
0
BLOCK
5
128
100
AcDbEntity
8
0
100
AcDbBlockBegin
2
DimnDraft3D6
70
0
10
0
20
0
30
0
3
DimnDraft3D6
0
MTEXT
5
121
100
AcDbEntity
8
SK2
62
256
6
ByLayer
370
13
48
1
60
0
100
AcDbMText
10
-55.375163
20
25.34918
30
0
210
0
220
0
230
1
1
\W0.6930;12,000
40
3.5
41
0
44
1.084337
50
90
71
7
72
5
7
iso_b_vert
0
MTEXT
5
122
100
AcDbEntity
8
SK2
62
256
6
ByLayer
370
13
48
1
60
0
100
AcDbMText
10
-55.375163
20
20.126524
30
0
210
0
220
0
230
1
1
%%c
40
3.5
41
0
44
1.084337
50
90
71
7
72
5
7
iso_b_vert
0
LINE
5
123
100
AcDbEntity
8
SK2
62
256
6
ByLayer
370
13
48
1
60
0
100
AcDbLine
10
-46.5875
20
-6
30
0
11
-55.625163
21
-6
31
0
39
0
210
0
220
0
230
1
0
LINE
5
124
100
AcDbEntity
8
SK2
62
256
6
ByLayer
370
13
48
1
60
0
100
AcDbLine
10
-46.5875
20
6
30
0
11
-55.625163
21
6
31
0
39
0
210
0
220
0
230
1
0
LINE
5
125
100
AcDbEntity
8
SK2
62
256
6
ByLayer
370
13
48
1
60
0
100
AcDbLine
10
-53.625163
20
-6
30
0
11
-53.625163
21
36.862338
31
0
39
0
210
0
220
0
230
1
0
SOLID
5
126
100
AcDbEntity
8
SK2
62
256
6
ByLayer
370
13
48
1
60
0
100
AcDbTrace
10
-53.625163
20
-6
30
0
11
-54.085946
21
-2.500002
31
0
12
-53.164379
22
-2.499998
32
0
13
-53.625163
23
-6
33
0
39
0
210
0
220
0
230
1
0
SOLID
5
127
100
AcDbEntity
8
SK2
62
256
6
ByLayer
370
13
48
1
60
0
100
AcDbTrace
10
-53.625163
20
6
30
0
11
-53.164379
21
2.500002
31
0
12
-54.085946
22
2.499998
32
0
13
-53.625163
23
6
33
0
39
0
210
0
220
0
230
1
0
ENDBLK
5
129
100
AcDbEntity
8
0
100
AcDbBlockEnd
0
BLOCK
5
133
100
AcDbEntity
8
0
100
AcDbBlockBegin
2
DimnDraft3D7
70
0
10
0
20
0
30
0
3
DimnDraft3D7
0
MTEXT
5
12C
100
AcDbEntity
8
2
62
256
6
ByLayer
370
13
48
1
60
0
100
AcDbMText
10
145.333343
20
23.101766
30
0
210
0
220
0
230
1
1
\W0.6501;10,319
40
3.5
41
0
44
1.084337
50
90
71
7
72
5
7
iso_b_vert
0
MTEXT
5
12D
100
AcDbEntity
8
2
62
256
6
ByLayer
370
13
48
1
60
0
100
AcDbMText
10
145.333343
20
17.87911
30
0
210
0
220
0
230
1
1
%%c
40
3.5
41
0
44
1.084337
50
90
71
7
72
5
7
iso_b_vert
0
LINE
5
12E
100
AcDbEntity
8
2
62
256
6
ByLayer
370
13
48
1
60
0
100
AcDbLine
10
135.0553
20
-5.1595
30
0
11
149.083343
21
-5.1595
31
0
39
0
210
0
220
0
230
1
0
LINE
5
12F
100
AcDbEntity
8
2
62
256
6
ByLayer
370
13
48
1
60
0
100
AcDbLine
10
135.0553
20
5.1595
30
0
11
149.083343
21
5.1595
31
0
39
0
210
0
220
0
230
1
0
LINE
5
130
100
AcDbEntity
8
2
62
256
6
ByLayer
370
13
48
1
60
0
100
AcDbLine
10
147.083343
20
-5.1595
30
0
11
147.083343
21
33.739924
31
0
39
0
210
0
220
0
230
1
0
SOLID
5
131
100
AcDbEntity
8
2
62
256
6
ByLayer
370
13
48
1
60
0
100
AcDbTrace
10
147.083343
20
-5.1595
30
0
11
146.622559
21
-1.659502
31
0
12
147.544126
22
-1.659498
32
0
13
147.083343
23
-5.1595
33
0
39
0
210
0
220
0
230
1
0
SOLID
5
132
100
AcDbEntity
8
2
62
256
6
ByLayer
370
13
48
1
60
0
100
AcDbTrace
10
147.083343
20
5.1595
30
0
11
147.544126
21
1.659502
31
0
12
146.622559
22
1.659498
32
0
13
147.083343
23
5.1595
33
0
39
0
210
0
220
0
230
1
0
ENDBLK
5
134
100
AcDbEntity
8
0
100
AcDbBlockEnd
0
ENDSEC
0
SECTION
2
ENTITIES
0
ARC
5
98
100
AcDbEntity
8
1
62
256
6
ByLayer
370
18
48
1
60
0
100
AcDbCircle
39
0
10
-0.35
20
5.426384
30
0
40
0.350000000000009
210
0
220
0
230
-1
100
AcDbArc
50
269.96419
51
0
0
ARC
5
99
100
AcDbEntity
8
1
62
256
6
ByLayer
370
18
48
1
60
0
100
AcDbCircle
39
0
10
-0.35
20
-5.426384
30
0
40
0.350000000000009
210
0
220
0
230
-1
100
AcDbArc
50
0
51
90.03581
0
ELLIPSE
5
9A
100
AcDbEntity
8
1
62
256
6
ByLayer
370
18
48
1
60
0
100
AcDbEllipse
10
7.585376
20
5.07315
30
0
11
-0.25
21
3.06151588455594E-17
31
0
210
0
220
0
230
1
40
0.999998
41
0.00516716344741274
42
1.57449794036904
0
ELLIPSE
5
9B
100
AcDbEntity
8
1
62
256
6
ByLayer
370
18
48
1
60
0
100
AcDbEllipse
10
7.585376
20
-5.07315
30
0
11
-0.25
21
3.06151588455594E-17
31
0
210
0
220
0
230
1
40
0.999998
41
-1.57006511851107
42
-0.0051671634474305
0
POINT
5
6C
100
AcDbEntity
8
81
62
256
6
ByLayer
370
18
48
1
60
0
100
AcDbPoint
10
135
20
0
30
0
39
0
210
0
220
0
230
1
50
360
0
POINT
5
6E
100
AcDbEntity
8
80
62
256
6
ByLayer
370
18
48
1
60
0
100
AcDbPoint
10
0
20
0
30
0
39
0
210
0
220
0
230
1
50
360
0
POINT
5
70
100
AcDbEntity
8
SK2
62
256
6
ByLayer
370
18
48
1
60
1
100
AcDbPoint
10
-45
20
-6
30
0
39
0
210
0
220
0
230
1
50
360
0
POINT
5
72
100
AcDbEntity
8
SK2
62
256
6
ByLayer
370
18
48
1
60
1
100
AcDbPoint
10
-45
20
6
30
0
39
0
210
0
220
0
230
1
50
360
0
POINT
5
73
100
AcDbEntity
8
2
62
256
6
ByLayer
370
18
48
1
60
1
100
AcDbPoint
10
133.4678
20
-5.1595
30
0
39
0
210
0
220
0
230
1
50
360
0
POINT
5
75
100
AcDbEntity
8
2
62
256
6
ByLayer
370
18
48
1
60
1
100
AcDbPoint
10
133.4678
20
5.1595
30
0
39
0
210
0
220
0
230
1
50
360
0
SPLINE
5
9C
100
AcDbEntity
8
1
62
256
6
ByLayer
370
18
48
1
60
0
100
AcDbSpline
70
4
71
1
72
4
73
2
40
0
40
0
40
1
40
1
41
1
10
50.908424060785
20
0.0011115615070878
30
0
41
1
10
50.9084357064409
20
0.0011086704817274
30
0
0
SPLINE
5
9D
100
AcDbEntity
8
1
62
256
6
ByLayer
370
18
48
1
60
0
100
AcDbSpline
70
4
71
2
72
6
73
3
40
0
40
0
40
0
40
1
40
1
40
1
41
1
10
116.212978791975
20
-0.001083151743245
30
0
41
1
10
116.212966416195
20
-0.001077108396629
30
0
41
1
10
116.212954040474
20
-0.0010708702155
30
0
0
SPLINE
5
9E
100
AcDbEntity
8
1
62
256
6
ByLayer
370
18
48
1
60
0
100
AcDbSpline
70
4
71
3
72
21
73
17
40
0
40
0
40
0
40
0
40
0.030910162463332
40
0.0946965000912996
40
0.177430959544021
40
0.268351313857256
40
0.351346607969651
40
0.431067697147555
40
0.510620365153157
40
0.591927665476382
40
0.680159425209437
40
0.795036617966715
40
0.879717469114486
40
0.95056622797232
40
0.995771176106883
40
1
40
1
40
1
40
1
41
1
10
110.217618191964
20
4.88529105752323
30
0
41
1
10
110.144193968356
20
4.88516798324386
30
0
41
1
10
109.919251173853
20
4.88487512298437
30
0
41
1
10
109.497779820077
20
4.88515674059582
30
0
41
1
10
108.933759864189
20
4.88546737424744
30
0
41
1
10
108.324111481594
20
4.88426019071642
30
0
41
1
10
107.721625647843
20
4.88400362627058
30
0
41
1
10
107.146135718282
20
4.8844284184695
30
0
41
1
10
106.574658510905
20
4.88380554280829
30
0
41
1
10
105.982965425567
20
4.88318235608037
30
0
41
1
10
105.307381062307
20
4.88349019788024
30
0
41
1
10
104.623760655667
20
4.88239292290291
30
0
41
1
10
103.981432231355
20
4.88222942802386
30
0
41
1
10
103.504648705814
20
4.88237598706542
30
0
41
1
10
103.218923572562
20
4.8822202683628
30
0
41
1
10
103.101504636502
20
4.88213242568918
30
0
41
1
10
103.091460034646
20
4.88212476062762
30
0
0
SPLINE
5
9F
100
AcDbEntity
8
1
62
256
6
ByLayer
370
18
48
1
60
0
100
AcDbSpline
70
4
71
3
72
22
73
18
40
0
40
0
40
0
40
0
40
0.0825085216438439
40
0.152957437730435
40
0.207908841643945
40
0.251243273931366
40
0.29076342463255
40
0.357342946629121
40
0.424564350713982
40
0.482035648865194
40
0.55970541802278
40
0.641035136124626
40
0.7166198083346
40
0.799080239638325
40
0.879491437153324
40
0.94887567589265
40
1
40
1
40
1
40
1
41
1
10
34.8019575802699
20
-4.83981404774161
30
0
41
1
10
35.0786306648389
20
-4.83953382847471
30
0
41
1
10
35.5915466063041
20
-4.83938456208878
30
0
41
1
10
36.2973594274415
20
-4.84036223164892
30
0
41
1
10
36.8577675767763
20
-4.84141859663816
30
0
41
1
10
37.3240667054695
20
-4.84124997605227
30
0
41
1
10
37.827807547804
20
-4.84175454242555
30
0
41
1
10
38.4131757285816
20
-4.84245729580113
30
0
41
1
10
39.0588496811426
20
-4.8424978371167
30
0
41
1
10
39.7420452804183
20
-4.84267519332968
30
0
41
1
10
40.4728657407552
20
-4.84386413137946
30
0
41
1
10
41.2648103392695
20
-4.84347010677769
30
0
41
1
10
42.0729541408017
20
-4.84482835197537
30
0
41
1
10
42.8779985071823
20
-4.84463298550267
30
0
41
1
10
43.6621074455912
20
-4.84540691654922
30
0
41
1
10
44.3404243584403
20
-4.84579858127626
30
0
41
1
10
44.7472690414069
20
-4.84579143861367
30
0
41
1
10
44.9198681515591
20
-4.84575194509944
30
0
0
SPLINE
5
A0
100
AcDbEntity
8
1
62
256
6
ByLayer
370
18
48
1
60
0
100
AcDbSpline
70
4
71
3
72
27
73
23
40
0
40
0
40
0
40
0
40
0.056730521629476
40
0.110433469151576
40
0.161970915511615
40
0.202560847598877
40
0.231607292784916
40
0.270810122931026
40
0.328890757444078
40
0.367354085289718
40
0.405628599416766
40
0.455759678544224
40
0.520853370778047
40
0.58978026418035
40
0.653987051062021
40
0.702174426477488
40
0.741474138999706
40
0.794293092781848
40
0.8536749173386
40
0.908947319551475
40
0.963595491252234
40
1
40
1
40
1
40
1
41
1
10
100.033635088733
20
-4.88060510658633
30
0
41
1
10
100.220559168882
20
-4.88003522280775
30
0
41
1
10
100.587109657624
20
-4.87940939158017
30
0
41
1
10
101.142969838294
20
-4.87852649208645
30
0
41
1
10
101.631294438059
20
-4.88129006169117
30
0
41
1
10
102.038853691952
20
-4.8814649128698
30
0
41
1
10
102.409709747253
20
-4.88157117136012
30
0
41
1
10
102.839210294771
20
-4.88189942475211
30
0
41
1
10
103.301053885665
20
-4.88232597457056
30
0
41
1
10
103.759628294101
20
-4.88234756802467
30
0
41
1
10
104.191191874397
20
-4.88219077380359
30
0
41
1
10
104.713333093253
20
-4.88264323761155
30
0
41
1
10
105.339744429887
20
-4.883491282119
30
0
41
1
10
106.01403393366
20
-4.8831471505452
30
0
41
1
10
106.630817649747
20
-4.88390922906575
30
0
41
1
10
107.146812410862
20
-4.88435722163601
30
0
41
1
10
107.624078046418
20
-4.88412762412474
30
0
41
1
10
108.139422458618
20
-4.88400486910038
30
0
41
1
10
108.709098955228
20
-4.88510728125826
30
0
41
1
10
109.284998173473
20
-4.88542625094007
30
0
41
1
10
109.782737517458
20
-4.8847984744653
30
0
41
1
10
110.092462241171
20
-4.88515931683364
30
0
41
1
10
110.216295778088
20
-4.88535073856073
30
0
0
SPLINE
5
A1
100
AcDbEntity
8
1
62
256
6
ByLayer
370
18
48
1
60
0
100
AcDbSpline
70
4
71
3
72
23
73
19
40
0
40
0
40
0
40
0
40
0.0755934954395641
40
0.138059265028249
40
0.191085847312152
40
0.24317695585712
40
0.288680960213481
40
0.334053005153992
40
0.390604486107117
40
0.453097294057316
40
0.50133923957601
40
0.563630901792523
40
0.644822662193346
40
0.717469848970001
40
0.790060738127641
40
0.868425276474509
40
0.941417333010768
40
1
40
1
40
1
40
1
41
1
10
67.3802989409753
20
-4.86009079290795
30
0
41
1
10
67.6329621318445
20
-4.85927653509549
30
0
41
1
10
68.0960066106665
20
-4.8585812455616
30
0
41
1
10
68.7542913242501
20
-4.85938538808858
30
0
41
1
10
69.3129132010119
20
-4.86194027336884
30
0
41
1
10
69.8110638408124
20
-4.86044934215337
30
0
41
1
10
70.3027275094013
20
-4.85842934873591
30
0
41
1
10
70.7910282331155
20
-4.86286294673806
30
0
41
1
10
71.3526198645075
20
-4.86230418876076
30
0
41
1
10
71.9233037120592
20
-4.8625697645943
30
0
41
1
10
72.5137748974561
20
-4.86335763368308
30
0
41
1
10
73.1680080255658
20
-4.86357514585532
30
0
41
1
10
73.9055356590771
20
-4.86320931861897
30
0
41
1
10
74.6782040879559
20
-4.86480568173491
30
0
41
1
10
75.4412288174244
20
-4.86391408627335
30
0
41
1
10
76.2054211500434
20
-4.8653036614582
30
0
41
1
10
76.9218206369868
20
-4.86543760784039
30
0
41
1
10
77.3708064125589
20
-4.8656148498996
30
0
41
1
10
77.5707141188817
20
-4.86566062203221
30
0
0
SPLINE
5
A2
100
AcDbEntity
8
1
62
256
6
ByLayer
370
18
48
1
60
0
100
AcDbSpline
70
4
71
3
72
18
73
14
40
0
40
0
40
0
40
0
40
0.125061567279898
40
0.26588159419907
40
0.370027124631697
40
0.443497953683186
40
0.519121751530962
40
0.602300031388755
40
0.691440022802354
40
0.772085312162113
40
0.874639404686943
40
0.977288932825295
40
1
40
1
40
1
40
1
41
1
10
7.58574190155665
20
-4.82312191739612
30
0
41
1
10
7.78144167634414
20
-4.82344042185957
30
0
41
1
10
8.19749993688455
20
-4.82402024103445
30
0
41
1
10
8.7765359215596
20
-4.82456974209222
30
0
41
1
10
9.27482427161308
20
-4.82476862214784
30
0
41
1
10
9.67110951795593
20
-4.8247470387077
30
0
41
1
10
10.0345806583917
20
-4.82465225342648
30
0
41
1
10
10.4225728044737
20
-4.82460594507197
30
0
41
1
10
10.8184205777806
20
-4.82485457703368
30
0
41
1
10
11.2445871886196
20
-4.82533024173085
30
0
41
1
10
11.6918983331621
20
-4.82578644231955
30
0
41
1
10
12.0485496281446
20
-4.82584297216113
30
0
41
1
10
12.2447196319154
20
-4.82601080368218
30
0
41
1
10
12.2802589441266
20
-4.82604215118695
30
0
0
SPLINE
5
A3
100
AcDbEntity
8
1
62
256
6
ByLayer
370
18
48
1
60
0
100
AcDbSpline
70
4
71
3
72
20
73
16
40
0
40
0
40
0
40
0
40
0.0724233961585264
40
0.128356050084689
40
0.188223424943913
40
0.277267228566046
40
0.363749692520516
40
0.442353758402773
40
0.52939295491048
40
0.622292627542972
40
0.695972680239523
40
0.768296914514615
40
0.867753605354507
40
0.951186940712614
40
1
40
1
40
1
40
1
41
1
10
77.5693074542893
20
4.86527945498705
30
0
41
1
10
77.3967296155178
20
4.86535268916921
30
0
41
1
10
77.0908698773304
20
4.86542098041545
30
0
41
1
10
76.6423534073766
20
4.86559164849336
30
0
41
1
10
76.1542303852766
20
4.86510140397479
30
0
41
1
10
75.5933169763483
20
4.86395027075301
30
0
41
1
10
74.9877483464926
20
4.86456034052648
30
0
41
1
10
74.3869589095657
20
4.86436656099463
30
0
41
1
10
73.7708802592958
20
4.86312444128546
30
0
41
1
10
73.166524771592
20
4.86357261780103
30
0
41
1
10
72.5972645311246
20
4.8633975197971
30
0
41
1
10
72.0122611056583
20
4.86269532008325
30
0
41
1
10
71.4045748806184
20
4.86224698570899
30
0
41
1
10
70.8510960587975
20
4.86289048861204
30
0
41
1
10
70.5444985149642
20
4.86052269931261
30
0
41
1
10
70.4303089190551
20
4.8599400481348
30
0
0
SPLINE
5
A4
100
AcDbEntity
8
1
62
256
6
ByLayer
370
18
48
1
60
0
100
AcDbSpline
70
4
71
3
72
17
73
13
40
0
40
0
40
0
40
0
40
0.0431310186389581
40
0.101325597440606
40
0.171664485843159
40
0.319702781205393
40
0.464175611561314
40
0.606151607823155
40
0.747810944964076
40
0.863737127329752
40
0.94118732536665
40
1
40
1
40
1
40
1
41
1
10
44.9164040242091
20
4.84569178751897
30
0
41
1
10
44.8144735973451
20
4.84566085097711
30
0
41
1
10
44.5750135239535
20
4.84559711022706
30
0
41
1
10
44.1693245495744
20
4.84597202141802
30
0
41
1
10
43.5157100693584
20
4.84505693976786
30
0
41
1
10
42.6582001601118
20
4.84497665485003
30
0
41
1
10
41.6313818931125
20
4.84383700484025
30
0
41
1
10
40.6196714231912
20
4.84387823767764
30
0
41
1
10
39.6754045225844
20
4.8425315303333
30
0
41
1
10
38.8836009755498
20
4.84254649337933
30
0
41
1
10
38.2876676448598
20
4.84230711984631
30
0
41
1
10
37.9655626506986
20
4.84193063189483
30
0
41
1
10
37.8266325785277
20
4.84177343187844
30
0
0
SPLINE
5
A5
100
AcDbEntity
8
1
62
256
6
ByLayer
370
18
48
1
60
0
100
AcDbSpline
70
4
71
1
72
4
73
2
40
0
40
0
40
1
40
1
41
1
10
132.774228905891
20
-4.90125397734016
30
0
41
1
10
133.201241730877
20
-4.90147875698361
30
0
0
SPLINE
5
A6
100
AcDbEntity
8
1
62
256
6
ByLayer
370
18
48
1
60
0
100
AcDbSpline
70
4
71
3
72
15
73
11
40
0
40
0
40
0
40
0
40
0.0224680580152401
40
0.1683562434542
40
0.273484827503788
40
0.375996267477553
40
0.481481414628495
40
0.625982462909964
40
0.816094371127207
40
1
40
1
40
1
40
1
41
1
10
12.2815369669351
20
4.8260454301539
30
0
41
1
10
12.2463678888914
20
4.8260142290867
30
0
41
1
10
11.98284115779
20
4.82578227426359
30
0
41
1
10
11.5547571713297
20
4.82572380174844
30
0
41
1
10
11.0013824206386
20
4.82503313289749
30
0
41
1
10
10.5112498576498
20
4.82460669497621
30
0
41
1
10
9.95949645012638
20
4.8246550385698
30
0
41
1
10
9.27065971351777
20
4.82483741951529
30
0
41
1
10
8.4590107627686
20
4.82433554168256
30
0
41
1
10
7.87359169200516
20
4.82358003892216
30
0
41
1
10
7.58574095995453
20
4.82309839632117
30
0
0
SPLINE
5
A7
100
AcDbEntity
8
1
62
256
6
ByLayer
370
18
48
1
60
0
100
AcDbSpline
70
4
71
3
72
24
73
20
40
0
40
0
40
0
40
0
40
0.124999999999991
40
0.124999999999991
40
0.249999999999982
40
0.249999999999982
40
0.312499999999977
40
0.312499999999977
40
0.374999999999973
40
0.374999999999973
40
0.437499999999969
40
0.437499999999969
40
0.499999999999965
40
0.499999999999965
40
0.624999999999974
40
0.624999999999974
40
0.749999999999982
40
0.749999999999982
40
1
40
1
40
1
40
1
41
1
10
7.33537581504925
20
-1.72924827014936
30
0
41
1
10
7.33537581504928
20
-1.70042848747579
30
0
41
1
10
7.33635888835144
20
-1.67190772297883
30
0
41
1
10
7.34168366606949
20
-1.61591157734242
30
0
41
1
10
7.34587658598252
20
-1.58788022074319
30
0
41
1
10
7.35824924142696
20
-1.55115996413645
30
0
41
1
10
7.36354549939125
20
-1.53960049355052
30
0
41
1
10
7.37783266527415
20
-1.52287944324809
30
0
41
1
10
7.38670342816062
20
-1.51866263259461
30
0
41
1
10
7.40499225599783
20
-1.52025742338654
30
0
41
1
10
7.41401607388229
20
-1.52545869550841
30
0
41
1
10
7.43067417140023
20
-1.53921557685413
30
0
41
1
10
7.43838481912078
20
-1.54775212336173
30
0
41
1
10
7.46060163855256
20
-1.57581539252189
30
0
41
1
10
7.47373620046753
20
-1.59712881984615
30
0
41
1
10
7.49863537776366
20
-1.64124472564404
30
0
41
1
10
7.51036902121425
20
-1.66426561946608
30
0
41
1
10
7.5444195785347
20
-1.73490550012647
30
0
41
1
10
7.56561762003409
20
-1.78412580395752
30
0
41
1
10
7.58599007114577
20
-1.83409623115506
30
0
0
SPLINE
5
A8
100
AcDbEntity
8
1
62
256
6
ByLayer
370
18
48
1
60
0
100
AcDbSpline
70
4
71
3
72
12
73
8
40
0
40
0
40
0
40
0
40
0.250000000000001
40
0.250000000000001
40
0.500000000000002
40
0.500000000000002
40
1
40
1
40
1
40
1
41
1
10
7.47552960959834
20
4.37583427320408
30
0
41
1
10
7.45445764276823
20
4.3810608490142
30
0
41
1
10
7.43530351529699
20
4.38761801918633
30
0
41
1
10
7.40073746064829
20
4.4032234541277
30
0
41
1
10
7.38563006819706
20
4.41219929129485
30
0
41
1
10
7.34882432753207
20
4.44119433200808
30
0
41
1
10
7.3353758150493
20
4.46357721453262
30
0
41
1
10
7.3353758150493
20
4.48560995153704
30
0
0
SPLINE
5
A9
100
AcDbEntity
8
1
62
256
6
ByLayer
370
18
48
1
60
0
100
AcDbSpline
70
4
71
3
72
8
73
4
40
0
40
0
40
0
40
0
40
1
40
1
40
1
40
1
41
1
10
134.821975296682
20
-1.22889087408848
30
0
41
1
10
134.88012016219
20
-0.868007868970352
30
0
41
1
10
134.931751323319
20
-0.507175800212224
30
0
41
1
10
134.976827519637
20
-0.146394990465467
30
0
0
SPLINE
5
AA
100
AcDbEntity
8
1
62
256
6
ByLayer
370
18
48
1
60
0
100
AcDbSpline
70
4
71
3
72
46
73
42
40
0
40
0
40
0
40
0
40
0.125000000000011
40
0.125000000000011
40
0.156250000000015
40
0.156250000000015
40
0.187500000000018
40
0.187500000000018
40
0.250000000000024
40
0.250000000000024
40
0.281250000000027
40
0.281250000000027
40
0.31250000000003
40
0.31250000000003
40
0.375000000000037
40
0.375000000000037
40
0.437500000000043
40
0.437500000000043
40
0.50000000000005
40
0.50000000000005
40
0.562500000000056
40
0.562500000000056
40
0.625000000000063
40
0.625000000000063
40
0.632812500000062
40
0.632812500000062
40
0.636718750000062
40
0.636718750000062
40
0.640625000000062
40
0.640625000000062
40
0.648437500000061
40
0.648437500000061
40
0.656250000000061
40
0.656250000000061
40
0.687500000000056
40
0.687500000000056
40
0.750000000000045
40
0.750000000000045
40
0.875000000000023
40
0.875000000000023
40
1
40
1
40
1
40
1
41
1
10
7.33537581504928
20
-1.74519886562305
30
0
41
1
10
7.220869831193
20
-1.44297316941965
30
0
41
1
10
7.12957351123092
20
-1.12712119575718
30
0
41
1
10
7.05560814781455
20
-0.710934672090048
30
0
41
1
10
7.04285259392077
20
-0.626360840527212
30
0
41
1
10
7.02220522734854
20
-0.457501136440897
30
0
41
1
10
7.01425427508207
20
-0.372954428788489
30
0
41
1
10
6.9978756108452
20
-0.118955296631356
30
0
41
1
10
6.99689188987352
20
0.0508549161328062
30
0
41
1
10
7.012250673849
20
0.306341127129088
30
0
41
1
10
7.0202420896276
20
0.39203873255471
30
0
41
1
10
7.04196049456883
20
0.561505956323714
30
0
41
1
10
7.05563265835855
20
0.6451197896005
30
0
41
1
10
7.10506878424647
20
0.892677691737447
30
0
41
1
10
7.14921062574862
20
1.05335143186363
30
0
41
1
10
7.26003060388112
20
1.36622758197373
30
0
41
1
10
7.3272993015197
20
1.51922211084209
30
0
41
1
10
7.47958212504614
20
1.80792406256614
30
0
41
1
10
7.56485032022158
20
1.9447940899293
30
0
41
1
10
7.75206642090967
20
2.20537603910964
30
0
41
1
10
7.85439180136908
20
2.32940536678339
30
0
41
1
10
8.07141722506279
20
2.56247940626707
30
0
41
1
10
8.18648527358056
20
2.67203766182948
30
0
41
1
10
8.32166617545516
20
2.78782592642395
30
0
41
1
10
8.33676586782764
20
2.80058775207854
30
0
41
1
10
8.35953299446001
20
2.81957838038582
30
0
41
1
10
8.36718547835181
20
2.82584423202962
30
0
41
1
10
8.38223445262548
20
2.83858126374747
30
0
41
1
10
8.38980337011179
20
2.844926321743
30
0
41
1
10
8.41657453800559
20
2.86021588264325
30
0
41
1
10
8.43786731777811
20
2.86511898897754
30
0
41
1
10
8.48025226422592
20
2.86743212377772
30
0
41
1
10
8.50150653275639
20
2.86768832010137
30
0
41
1
10
8.60765762721644
20
2.87072077585131
30
0
41
1
10
8.69262979289584
20
2.87188098811291
30
0
41
1
10
8.94741332386522
20
2.87162119275911
30
0
41
1
10
9.11756981744642
20
2.86644045151962
30
0
41
1
10
9.62451003740412
20
2.83635349955503
30
0
41
1
10
9.95786756410976
20
2.79709203294183
30
0
41
1
10
10.6158665530681
20
2.68021770551095
30
0
41
1
10
10.9404710541045
20
2.60244956736045
30
0
41
1
10
11.2607564732993
20
2.5037844115316
30
0
0
SPLINE
5
AB
100
AcDbEntity
8
1
62
256
6
ByLayer
370
18
48
1
60
0
100
AcDbSpline
70
4
71
3
72
34
73
30
40
0
40
0
40
0
40
0
40
0.12499999999999
40
0.12499999999999
40
0.187499999999985
40
0.187499999999985
40
0.24999999999998
40
0.24999999999998
40
0.312499999999975
40
0.312499999999975
40
0.343749999999973
40
0.343749999999973
40
0.37499999999997
40
0.37499999999997
40
0.406249999999968
40
0.406249999999968
40
0.437499999999965
40
0.437499999999965
40
0.499999999999977
40
0.499999999999977
40
0.562499999999989
40
0.562499999999989
40
0.625
40
0.625
40
0.75
40
0.75
40
0.875
40
0.875
40
1
40
1
40
1
40
1
41
1
10
133.193493321018
20
-2.50531294954266
30
0
41
1
10
133.10960529016
20
-2.44399159617254
30
0
41
1
10
133.027993452128
20
-2.37677031351606
30
0
41
1
10
132.913134003293
20
-2.26175550810655
30
0
41
1
10
132.876489494631
20
-2.221373076101
30
0
41
1
10
132.808083654952
20
-2.13452893680343
30
0
41
1
10
132.776095661557
20
-2.08774176068096
30
0
41
1
10
132.723229944268
20
-1.98807410869136
30
0
41
1
10
132.701981314267
20
-1.93427079750444
30
0
41
1
10
132.687117757851
20
-1.85183559909694
30
0
41
1
10
132.685111353784
20
-1.82432209275237
30
0
41
1
10
132.687799944771
20
-1.77144631793001
30
0
41
1
10
132.692575322809
20
-1.74574825139715
30
0
41
1
10
132.707871118323
20
-1.69891148728522
30
0
41
1
10
132.718547633427
20
-1.67713393148227
30
0
41
1
10
132.743636620358
20
-1.63837107168558
30
0
41
1
10
132.75806903077
20
-1.6211387334036
30
0
41
1
10
132.805644530195
20
-1.57431184291053
30
0
41
1
10
132.842094622632
20
-1.55034772102468
30
0
41
1
10
132.918786399065
20
-1.51152160633791
30
0
41
1
10
132.959675952082
20
-1.49650541454099
30
0
41
1
10
133.042548049686
20
-1.47295706992819
30
0
41
1
10
133.084739703309
20
-1.4643322032197
30
0
41
1
10
133.212899499931
20
-1.44506308253239
30
0
41
1
10
133.300425607653
20
-1.44091231150949
30
0
41
1
10
133.478122094083
20
-1.44363189742785
30
0
41
1
10
133.568123871902
20
-1.45066507879272
30
0
41
1
10
133.748048497909
20
-1.47304176082255
30
0
41
1
10
133.838279953251
20
-1.4884307865122
30
0
41
1
10
133.928738888294
20
-1.50737024017371
30
0
0
SPLINE
5
AC
100
AcDbEntity
8
1
62
256
6
ByLayer
370
18
48
1
60
0
100
AcDbSpline
70
4
71
3
72
18
73
14
40
0
40
0
40
0
40
0
40
0.0115916635896464
40
0.0115916635896464
40
0.123049633009586
40
0.123049633009586
40
0.568881510689356
40
0.568881510689356
40
0.79179744952924
40
0.79179744952924
40
0.903255418949181
40
0.903255418949181
40
1
40
1
40
1
40
1
41
1
10
18.2703996783173
20
-0.0043790613927683
30
0
41
1
10
18.3047167304885
20
-0.0206456941968156
30
0
41
1
10
18.3390445676436
20
-0.0369183684051961
30
0
41
1
10
18.7035642217003
20
-0.20971641136336
30
0
41
1
10
19.0342474571473
20
-0.366479472982917
30
0
41
1
10
20.6795896395574
20
-1.14300187606082
30
0
41
1
10
21.981580235766
20
-1.74437802254406
30
0
41
1
10
23.9377846904365
20
-2.5668374340118
30
0
41
1
10
24.5903558406087
20
-2.82785170438388
30
0
41
1
10
25.573332269669
20
-3.19323480039708
30
0
41
1
10
25.9016270194773
20
-3.31074292270813
30
0
41
1
10
26.5166091195316
20
-3.52125397292721
30
0
41
1
10
26.8036396155531
20
-3.61560164244406
30
0
41
1
10
27.0901815021831
20
-3.70555751368582
30
0
0
SPLINE
5
AD
100
AcDbEntity
8
1
62
256
6
ByLayer
370
13
48
1
60
0
100
AcDbSpline
70
4
71
3
72
16
73
12
40
0
40
0
40
0
40
0
40
0.0138664171359197
40
0.0138664171359197
40
0.434034126589038
40
0.434034126589038
40
0.854201836042155
40
0.854201836042155
40
0.959243763405433
40
0.959243763405433
40
1
40
1
40
1
40
1
41
1
10
27.0901815000884
20
-3.70555751302823
30
0
41
1
10
27.1337601903241
20
-3.71923844147722
30
0
41
1
10
27.1773275791162
20
-3.73281778845507
30
0
41
1
10
28.540487506563
20
-4.15458514903312
30
0
41
1
10
29.8435963237713
20
-4.46701946573688
30
0
41
1
10
32.4508362584658
20
-4.87095491940201
30
0
41
1
10
33.7548317655574
20
-4.96251920622891
30
0
41
1
10
35.4063830289434
20
-4.9265435473902
30
0
41
1
10
35.7364038840668
20
-4.91185196148567
30
0
41
1
10
36.1927050322216
20
-4.88136033605863
30
0
41
1
10
36.3201238679619
20
-4.871740211396
30
0
41
1
10
36.4474253241158
20
-4.86103558862561
30
0
0
SPLINE
5
AE
100
AcDbEntity
8
1
62
256
6
ByLayer
370
18
48
1
60
0
100
AcDbSpline
70
4
71
3
72
18
73
14
40
0
40
0
40
0
40
0
40
0.0629954891335843
40
0.0629954891335843
40
0.266206784788211
40
0.266206784788211
40
0.672629376097457
40
0.672629376097457
40
0.774235023924763
40
0.774235023924763
40
0.875840671752069
40
0.875840671752069
40
1
40
1
40
1
40
1
41
1
10
83.6120232804657
20
-0.0244856901386186
30
0
41
1
10
83.8158515289241
20
-0.121952092885238
30
0
41
1
10
84.0193186647529
20
-0.219243005844731
30
0
41
1
10
84.8778905912979
20
-0.629028282689205
30
0
41
1
10
85.530220902365
20
-0.938559159187321
30
0
41
1
10
87.4844119767968
20
-1.84402745583938
30
0
41
1
10
88.7834074614296
20
-2.41692391079113
30
0
41
1
10
90.4234604389411
20
-3.05230818387233
30
0
41
1
10
90.7522644856738
20
-3.17539445997363
30
0
41
1
10
91.4121088436451
20
-3.41235778512524
30
0
41
1
10
91.7416393674961
20
-3.52564930489109
30
0
41
1
10
92.4710950932241
20
-3.76448191407067
30
0
41
1
10
92.8709417301288
20
-3.88731452489142
30
0
41
1
10
93.2699777421759
20
-4.0010838468601
30
0
0
SPLINE
5
AF
100
AcDbEntity
8
1
62
256
6
ByLayer
370
13
48
1
60
0
100
AcDbSpline
70
4
71
3
72
16
73
12
40
0
40
0
40
0
40
0
40
0.0888765046251767
40
0.0888765046251767
40
0.54580908398727
40
0.54580908398727
40
0.660042228827799
40
0.660042228827799
40
0.774275373668328
40
0.774275373668328
40
1
40
1
40
1
40
1
41
1
10
93.2699777433261
20
-4.00108384718806
30
0
41
1
10
93.5240430819184
20
-4.07352052064718
30
0
41
1
10
93.777779806124
20
-4.14228308137436
30
0
41
1
10
95.3348145569316
20
-4.54113291388768
30
0
41
1
10
96.6327617999955
20
-4.77430284359406
30
0
41
1
10
98.2696120901585
20
-4.92105747721146
30
0
41
1
10
98.5976698260259
20
-4.94318930053541
30
0
41
1
10
99.2557719577896
20
-4.97263502360923
30
0
41
1
10
99.586340985597
20
-4.97995799179489
30
0
41
1
10
100.565290988785
20
-4.97924608627417
30
0
41
1
10
101.211391061451
20
-4.94949389990148
30
0
41
1
10
101.855819137018
20
-4.89169958461028
30
0
0
SPLINE
5
B0
100
AcDbEntity
8
1
62
256
6
ByLayer
370
18
48
1
60
0
100
AcDbSpline
70
4
71
3
72
14
73
10
40
0
40
0
40
0
40
0
40
0.25
40
0.25
40
0.5
40
0.5
40
0.75
40
0.75
40
1
40
1
40
1
40
1
41
1
10
133.09789571431
20
1.15399105114375
30
0
41
1
10
133.094102421462
20
1.16920651774396
30
0
41
1
10
133.093098631235
20
1.18525153336788
30
0
41
1
10
133.100237904668
20
1.21549968504218
30
0
41
1
10
133.108870001162
20
1.22966481051148
30
0
41
1
10
133.132853809103
20
1.25018697524996
30
0
41
1
10
133.147609601465
20
1.25673786756914
30
0
41
1
10
133.177993309722
20
1.26438926760733
30
0
41
1
10
133.193790326868
20
1.26561605362031
30
0
41
1
10
133.209496721393
20
1.26515771849313
30
0
0
SPLINE
5
B1
100
AcDbEntity
8
1
62
256
6
ByLayer
370
18
48
1
60
0
100
AcDbSpline
70
4
71
3
72
8
73
4
40
0
40
0
40
0
40
0
40
1
40
1
40
1
40
1
41
1
10
134.999962691995
20
0.0393089313346309
30
0
41
1
10
134.991831872638
20
0.0141713010521016
30
0
41
1
10
134.981159106817
20
-0.0116454895663765
30
0
41
1
10
134.970523320435
20
-0.0314270784386963
30
0
0
SPLINE
5
B2
100
AcDbEntity
8
1
62
256
6
ByLayer
370
18
48
1
60
0
100
AcDbSpline
70
4
71
3
72
12
73
8
40
0
40
0
40
0
40
0
40
0.500000000000025
40
0.500000000000025
40
0.750000000000013
40
0.750000000000013
40
1
40
1
40
1
40
1
41
1
10
133.209496721393
20
1.2651577184931
30
0
41
1
10
133.478501193908
20
1.2573077820276
30
0
41
1
10
133.747478974376
20
1.24974347427667
30
0
41
1
10
134.150784898488
20
1.24011714444856
30
0
41
1
10
134.285211017679
20
1.23718562859546
30
0
41
1
10
134.55361933706
20
1.23293507122418
30
0
41
1
10
134.687807658446
20
1.23087221444752
30
0
41
1
10
134.821975296682
20
1.22889087408836
30
0
0
SPLINE
5
B3
100
AcDbEntity
8
1
62
256
6
ByLayer
370
18
48
1
60
0
100
AcDbSpline
70
4
71
3
72
8
73
4
40
0
40
0
40
0
40
0
40
1
40
1
40
1
40
1
41
1
10
133.214938420578
20
-4.99000244069532
30
0
41
1
10
133.194008453835
20
-5.04348732170587
30
0
41
1
10
133.173061003861
20
-5.0969251844264
30
0
41
1
10
133.152100371551
20
-5.15031164692013
30
0
0
SPLINE
5
B4
100
AcDbEntity
8
1
62
256
6
ByLayer
370
18
48
1
60
0
100
AcDbSpline
70
4
71
3
72
18
73
14
40
0
40
0
40
0
40
0
40
0.0927648197723789
40
0.0927648197723789
40
0.199145385060602
40
0.199145385060602
40
0.411906515637043
40
0.411906515637043
40
0.837428776789926
40
0.837428776789926
40
0.943809342078147
40
0.943809342078147
40
1
40
1
40
1
40
1
41
1
10
50.910640960877
20
5.58147812342E-05
30
0
41
1
10
51.197370610374
20
-0.136486359055169
30
0
41
1
10
51.4848748754625
20
-0.273419617177439
30
0
41
1
10
52.1031889768182
20
-0.566933565173571
30
0
41
1
10
52.4323842061133
20
-0.722601622093578
30
0
41
1
10
53.4174714373879
20
-1.18460683131684
30
0
41
1
10
54.0709958976379
20
-1.48569829555592
30
0
41
1
10
56.0277896702235
20
-2.35652517922475
30
0
41
1
10
57.3277546133558
20
-2.89290862160527
30
0
41
1
10
58.9675939176777
20
-3.46898466374552
30
0
41
1
10
59.2963582240313
20
-3.57941129174444
30
0
41
1
10
59.8003288247785
20
-3.74022648986971
30
0
41
1
10
59.9747198048765
20
-3.79433428638202
30
0
41
1
10
60.1489654030719
20
-3.84678732084208
30
0
0
SPLINE
5
B5
100
AcDbEntity
8
1
62
256
6
ByLayer
370
13
48
1
60
0
100
AcDbSpline
70
4
71
3
72
18
73
14
40
0
40
0
40
0
40
0
40
0.0522953695385046
40
0.0522953695385046
40
0.273981355795718
40
0.273981355795718
40
0.717353328310149
40
0.717353328310149
40
0.828196321438756
40
0.828196321438756
40
0.939039314567362
40
0.939039314567362
40
1
40
1
40
1
40
1
41
1
10
60.1489644449307
20
-3.84678703241349
30
0
41
1
10
60.3046022097978
20
-3.89363856867931
30
0
41
1
10
60.4601239862018
20
-3.93916989863809
30
0
41
1
10
61.2730229747345
20
-4.17012924444145
30
0
41
1
10
61.9272076720456
20
-4.3320199239848
30
0
41
1
10
63.8849214312714
20
-4.73751232208701
30
0
41
1
10
65.1840365737132
20
-4.90076942779291
30
0
41
1
10
66.8213060421672
20
-4.95748086815959
30
0
41
1
10
67.149421999014
20
-4.96146072656219
30
0
41
1
10
67.807526896879
20
-4.954548663308
30
0
41
1
10
68.1379781902248
20
-4.94360349704905
30
0
41
1
10
68.6495930170713
20
-4.91504082027657
30
0
41
1
10
68.831081420483
20
-4.90265366015413
30
0
41
1
10
69.0125532806983
20
-4.88803350703816
30
0
0
SPLINE
5
B6
100
AcDbEntity
8
1
62
256
6
ByLayer
370
18
48
1
60
0
100
AcDbSpline
70
4
71
3
72
18
73
14
40
0
40
0
40
0
40
0
40
0.0429586570028836
40
0.0429586570028836
40
0.151490740133603
40
0.151490740133603
40
0.585619072656482
40
0.585619072656482
40
0.802683238917922
40
0.802683238917922
40
0.911215322048647
40
0.911215322048647
40
1
40
1
40
1
40
1
41
1
10
116.195777303001
20
0.007173513798449
30
0
41
1
10
116.326110129838
20
-0.055397961237702
30
0
41
1
10
116.4563153968
20
-0.117914949579728
30
0
41
1
10
116.914499810799
20
-0.337776987087523
30
0
41
1
10
117.241736004484
20
-0.494548867273721
30
0
41
1
10
118.874159574237
20
-1.2718651177727
30
0
41
1
10
120.168070467309
20
-1.87272242051469
30
0
41
1
10
122.116040100393
20
-2.69208310749326
30
0
41
1
10
122.766513602175
20
-2.95163653962587
30
0
41
1
10
123.747190280475
20
-3.31437282854173
30
0
41
1
10
124.074923869538
20
-3.43084145909046
30
0
41
1
10
124.672694640535
20
-3.63372011408237
30
0
41
1
10
124.94271234593
20
-3.72180210780345
30
0
41
1
10
125.211967322942
20
-3.80580503442758
30
0
0
SPLINE
5
B7
100
AcDbEntity
8
1
62
256
6
ByLayer
370
13
48
1
60
0
100
AcDbSpline
70
4
71
3
72
12
73
8
40
0
40
0
40
0
40
0
40
0.0222379672951695
40
0.0222379672951695
40
0.511118983647586
40
0.511118983647586
40
1
40
1
40
1
40
1
41
1
10
125.211967320222
20
-3.80580503357908
30
0
41
1
10
125.271854761737
20
-3.82448888638149
30
0
41
1
10
125.331704470893
20
-3.8429709467452
30
0
41
1
10
126.705970008197
20
-4.26290492442121
30
0
41
1
10
128.003984946999
20
-4.56641065886615
30
0
41
1
10
130.600542507857
20
-4.95012561891821
30
0
41
1
10
131.899356498528
20
-5.03085487968045
30
0
41
1
10
133.214938420577
20
-4.99000244069521
30
0
0
SPLINE
5
B8
100
AcDbEntity
8
1
62
256
6
ByLayer
370
18
48
1
60
0
100
AcDbSpline
70
4
71
3
72
8
73
4
40
0
40
0
40
0
40
0
40
1
40
1
40
1
40
1
41
1
10
134.849858281497
20
-0.257142528728622
30
0
41
1
10
134.287179285942
20
-1.80309036341737
30
0
41
1
10
133.724500290388
20
-3.34903819810648
30
0
41
1
10
133.161821294833
20
-4.89498603279495
30
0
0
SPLINE
5
B9
100
AcDbEntity
8
1
62
256
6
ByLayer
370
18
48
1
60
0
100
AcDbSpline
70
4
71
3
72
26
73
22
40
0
40
0
40
0
40
0
40
0.0624999999999993
40
0.0624999999999993
40
0.124999999999999
40
0.124999999999999
40
0.249999999999999
40
0.249999999999999
40
0.312499999999999
40
0.312499999999999
40
0.374999999999999
40
0.374999999999999
40
0.499999999999999
40
0.499999999999999
40
0.624999999999999
40
0.624999999999999
40
0.687499999999999
40
0.687499999999999
40
0.75
40
0.75
40
1
40
1
40
1
40
1
41
1
10
7.58599007115083
20
-1.83409623116751
30
0
41
1
10
7.63323799809987
20
-1.94998798522525
30
0
41
1
10
7.68403974755543
20
-2.06307053435984
30
0
41
1
10
7.79214220344156
20
-2.28393565276929
30
0
41
1
10
7.84932793345948
20
-2.39139576415124
30
0
41
1
10
8.02674974412162
20
-2.70090249995383
30
0
41
1
10
8.15369834219283
20
-2.89213324190467
30
0
41
1
10
8.35516444930175
20
-3.15923557083411
30
0
41
1
10
8.42418406783219
20
-3.24495152664437
30
0
41
1
10
8.56585718770447
20
-3.40997471953173
30
0
41
1
10
8.63873136159873
20
-3.48950239485703
30
0
41
1
10
8.86124263007014
20
-3.71702059745345
30
0
41
1
10
9.01368359990406
20
-3.85307919306908
30
0
41
1
10
9.32702831915262
20
-4.09720843329094
30
0
41
1
10
9.4879445587124
20
-4.2052405669767
30
0
41
1
10
9.73651028592164
20
-4.34748534701234
30
0
41
1
10
9.82057003350587
20
-4.39159169795659
30
0
41
1
10
9.99130115855485
20
-4.47331452761335
30
0
41
1
10
10.0781645218278
20
-4.510995550806
30
0
41
1
10
10.5159374248644
20
-4.68206746648943
30
0
41
1
10
10.8787555101078
20
-4.76503906570656
30
0
41
1
10
11.2607564732993
20
-4.80244246630758
30
0
0
SPLINE
5
BA
100
AcDbEntity
8
1
62
256
6
ByLayer
370
18
48
1
60
0
100
AcDbSpline
70
4
71
3
72
26
73
22
40
0
40
0
40
0
40
0
40
0.165864991136785
40
0.165864991136785
40
0.331729982273571
40
0.331729982273571
40
0.414662477841964
40
0.414662477841964
40
0.497594973410357
40
0.497594973410357
40
0.580527468978749
40
0.580527468978749
40
0.663459964547144
40
0.663459964547144
40
0.829324955683932
40
0.829324955683932
40
0.912257451252327
40
0.912257451252327
40
0.995189946820721
40
0.995189946820721
40
1
40
1
40
1
40
1
41
1
10
11.2607564732993
20
-4.80244246630781
30
0
41
1
10
11.8802214326717
20
-4.83102268790344
30
0
41
1
10
12.4981918006302
20
-4.8335443326429
30
0
41
1
10
13.7318205547744
20
-4.78896386253288
30
0
41
1
10
14.3475947808386
20
-4.73934974568738
30
0
41
1
10
15.275475046016
20
-4.62969616495084
30
0
41
1
10
15.585342586863
20
-4.5869034015912
30
0
41
1
10
16.203690418778
20
-4.48937625292695
30
0
41
1
10
16.5125145031495
20
-4.435096429548
30
0
41
1
10
17.1293385222013
20
-4.31520107695903
30
0
41
1
10
17.437102378687
20
-4.24795190720607
30
0
41
1
10
18.0540919691841
20
-4.10354604901298
30
0
41
1
10
18.3628700027356
20
-4.02597158603689
30
0
41
1
10
19.2898794972472
20
-3.77737703308367
30
0
41
1
10
19.9097655253067
20
-3.59054004848008
30
0
41
1
10
20.8347814487592
20
-3.28395679412603
30
0
41
1
10
21.1433366837835
20
-3.17783302299011
30
0
41
1
10
21.7605131289556
20
-2.95680712384663
30
0
41
1
10
22.0690736169007
20
-2.84218485400908
30
0
41
1
10
22.3957153705508
20
-2.7169691156266
30
0
41
1
10
22.4136224290408
20
-2.71009216831266
30
0
41
1
10
22.431530021043
20
-2.70320260193103
30
0
0
SPLINE
5
BB
100
AcDbEntity
8
1
62
256
6
ByLayer
370
18
48
1
60
0
100
AcDbSpline
70
4
71
3
72
110
73
106
40
0
40
0
40
0
40
0
40
0.0140490716879871
40
0.0140490716879871
40
0.0248561444357424
40
0.0248561444357424
40
0.0356632171834977
40
0.0356632171834977
40
0.0572773626790075
40
0.0572773626790075
40
0.0788915081745172
40
0.0788915081745172
40
0.100505653670027
40
0.100505653670027
40
0.122119799165537
40
0.122119799165537
40
0.165348090156556
40
0.165348090156556
40
0.176155162904311
40
0.176155162904311
40
0.186962235652066
40
0.186962235652066
40
0.208576381147575
40
0.208576381147575
40
0.230190526643085
40
0.230190526643085
40
0.251804672138594
40
0.251804672138594
40
0.273418817634103
40
0.273418817634103
40
0.295032963129613
40
0.295032963129613
40
0.316647108625122
40
0.316647108625122
40
0.338261254120632
40
0.338261254120632
40
0.359875399616141
40
0.359875399616141
40
0.38148954511165
40
0.38148954511165
40
0.392296617859405
40
0.392296617859405
40
0.403103690607159
40
0.403103690607159
40
0.424717836102667
40
0.424717836102667
40
0.446331981598175
40
0.446331981598175
40
0.457139054345929
40
0.457139054345929
40
0.467946127093683
40
0.467946127093683
40
0.489560272589191
40
0.489560272589191
40
0.511174418084699
40
0.511174418084699
40
0.532788563580207
40
0.532788563580207
40
0.543595636327961
40
0.543595636327961
40
0.554402709075715
40
0.554402709075715
40
0.576016854571223
40
0.576016854571223
40
0.597631000066732
40
0.597631000066732
40
0.61924514556224
40
0.61924514556224
40
0.640859291057749
40
0.640859291057749
40
0.662473436553257
40
0.662473436553257
40
0.684087582048766
40
0.684087582048766
40
0.705701727544274
40
0.705701727544274
40
0.727315873039783
40
0.727315873039783
40
0.748930018535291
40
0.748930018535291
40
0.7705441640308
40
0.7705441640308
40
0.792158309526308
40
0.792158309526308
40
0.813772455021817
40
0.813772455021817
40
0.835386600517325
40
0.835386600517325
40
0.857000746012834
40
0.857000746012834
40
0.878614891508342
40
0.878614891508342
40
0.900229037003851
40
0.900229037003851
40
0.911036109751604
40
0.911036109751604
40
0.921843182499358
40
0.921843182499358
40
0.943457327994866
40
0.943457327994866
40
0.965071473490375
40
0.965071473490375
40
0.986685618985883
40
0.986685618985883
40
1
40
1
40
1
40
1
41
1
10
44.9304855502491
20
4.84563748987253
30
0
41
1
10
45.1310580318433
20
4.84563686572076
30
0
41
1
10
45.3314502009824
20
4.84305336798684
30
0
41
1
10
45.6856844411764
20
4.83374566726567
30
0
41
1
10
45.8395001398645
20
4.82804139064436
30
0
41
1
10
46.1475457291427
20
4.81329353526158
30
0
41
1
10
46.3017234993963
20
4.80428072608098
30
0
41
1
10
46.7642718288098
20
4.77255877225264
30
0
41
1
10
47.0727604973536
20
4.74539998413539
30
0
41
1
10
47.6901637145427
20
4.67886475880076
30
0
41
1
10
47.9994285368496
20
4.63910363648964
30
0
41
1
10
48.6174897376761
20
4.54655572328898
30
0
41
1
10
48.9255300830364
20
4.49388527834466
30
0
41
1
10
49.5423739028892
20
4.37842941012786
30
0
41
1
10
49.8507857587304
20
4.31507089045968
30
0
41
1
10
50.7758464793953
20
4.1072125557377
30
0
41
1
10
51.3925280027567
20
3.94726199994079
30
0
41
1
10
52.1643018122045
20
3.71899297496069
30
0
41
1
10
52.3187822610041
20
3.67195475950848
30
0
41
1
10
52.6278230608841
20
3.57629982814834
30
0
41
1
10
52.782292491695
20
3.52746678881977
30
0
41
1
10
53.2454848375313
20
3.37777187298724
30
0
41
1
10
53.5539501079325
20
3.27310682077675
30
0
41
1
10
54.1706569760075
20
3.05519664849035
30
0
41
1
10
54.4789100357753
20
2.94212981145608
30
0
41
1
10
55.0950484739506
20
2.70826819347042
30
0
41
1
10
55.4028404228776
20
2.58660330345162
30
0
41
1
10
56.0204355070226
20
2.33826794881074
30
0
41
1
10
56.3300195278171
20
2.21090602631486
30
0
41
1
10
56.948131495135
20
1.95123233870731
30
0
41
1
10
57.2567724482948
20
1.81881971415083
30
0
41
1
10
57.8734427658216
20
1.54866197588484
30
0
41
1
10
58.1814120952196
20
1.41104834647595
30
0
41
1
10
58.7969178570799
20
1.13172356646271
30
0
41
1
10
59.1053825195331
20
0.991950402365262
30
0
41
1
10
59.7226496326142
20
0.708829807760793
30
0
41
1
10
60.031550517059
20
0.566021683136881
30
0
41
1
10
60.6500638630693
20
0.278740866224382
30
0
41
1
10
60.9588887329097
20
0.134409095063518
30
0
41
1
10
61.4211930764312
20
-0.0825138244239554
30
0
41
1
10
61.5751185249021
20
-0.155003761873019
30
0
41
1
10
61.8830439185727
20
-0.299491631986683
30
0
41
1
10
62.037230618477
20
-0.371083306071171
30
0
41
1
10
62.4995856591855
20
-0.585819133578354
30
0
41
1
10
62.8077742414117
20
-0.728504980935242
30
0
41
1
10
63.4244709647944
20
-1.01149565470388
30
0
41
1
10
63.7330549248976
20
-1.15170747198366
30
0
41
1
10
64.1961462699469
20
-1.36059632438574
30
0
41
1
10
64.350584940208
20
-1.43000339903799
30
0
41
1
10
64.659379859563
20
-1.56818499115789
30
0
41
1
10
64.8134855560328
20
-1.637138419357
30
0
41
1
10
65.2763462001027
20
-1.84020505663148
30
0
41
1
10
65.5848444014019
20
-1.97222440093472
30
0
41
1
10
66.20141733952
20
-2.23144148044619
30
0
41
1
10
66.509538506645
20
-2.35855893393034
30
0
41
1
10
67.1257804155887
20
-2.60644418287865
30
0
41
1
10
67.4338808361625
20
-2.72696385263353
30
0
41
1
10
67.8960870853878
20
-2.9031565117084
30
0
41
1
10
68.0501249260991
20
-2.96121410543571
30
0
41
1
10
68.3588731463882
20
-3.07473224660137
30
0
41
1
10
68.5134699004398
20
-3.1306185737493
30
0
41
1
10
68.9769946403333
20
-3.2943724117946
30
0
41
1
10
69.2855596711416
20
-3.39847977768199
30
0
41
1
10
69.9021934440523
20
-3.59819826942007
30
0
41
1
10
70.2102686181043
20
-3.69399580416936
30
0
41
1
10
70.8258647990872
20
-3.87615549259547
30
0
41
1
10
71.1332278057369
20
-3.96203479502645
30
0
41
1
10
71.749636429647
20
-4.12193973634808
30
0
41
1
10
72.0581696820171
20
-4.19701565383949
30
0
41
1
10
72.675921562692
20
-4.33615442190404
30
0
41
1
10
72.9850603892858
20
-4.39975209279663
30
0
41
1
10
73.6018638028944
20
-4.51477232661449
30
0
41
1
10
73.9097736808496
20
-4.56684726953188
30
0
41
1
10
74.5248903667268
20
-4.6598401887963
30
0
41
1
10
74.8329641481226
20
-4.69923889116291
30
0
41
1
10
75.4492647408844
20
-4.76550035081286
30
0
41
1
10
75.7575304408269
20
-4.79252435068156
30
0
41
1
10
76.374524322856
20
-4.83537849236234
30
0
41
1
10
76.6836594075685
20
-4.85003218617638
30
0
41
1
10
77.3005220995246
20
-4.86588869550641
30
0
41
1
10
77.6083362008321
20
-4.86717822498156
30
0
41
1
10
78.2246428987002
20
-4.85864267734601
30
0
41
1
10
78.5326936415457
20
-4.84774782456705
30
0
41
1
10
79.1487795986953
20
-4.81242776433788
30
0
41
1
10
79.4568970365818
20
-4.78823633230363
30
0
41
1
10
80.0731539876101
20
-4.728667649562
30
0
41
1
10
80.3810643361379
20
-4.69242893199282
30
0
41
1
10
80.9984782702719
20
-4.60644746071679
30
0
41
1
10
81.3073826083888
20
-4.55743383485174
30
0
41
1
10
81.9241729033432
20
-4.44851618118645
30
0
41
1
10
82.2322692826428
20
-4.38848036850538
30
0
41
1
10
82.8482832116521
20
-4.25569094893484
30
0
41
1
10
83.1561337966272
20
-4.18345404360716
30
0
41
1
10
83.6177280080898
20
-4.06697564814831
30
0
41
1
10
83.7714700974466
20
-4.02661577136251
30
0
41
1
10
84.0796703056875
20
-3.94383830906685
30
0
41
1
10
84.2339077184944
20
-3.90113614735415
30
0
41
1
10
84.6969810595696
20
-3.76908602475228
30
0
41
1
10
85.0062845673442
20
-3.67578015723669
30
0
41
1
10
85.623504248427
20
-3.4804823166682
30
0
41
1
10
85.9317500413958
20
-3.37833271309827
30
0
41
1
10
86.5475064052529
20
-3.16418860020147
30
0
41
1
10
86.8547458685023
20
-3.05182771524414
30
0
41
1
10
87.3523626761252
20
-2.86603217966191
30
0
41
1
10
87.5421431419297
20
-2.79392164042238
30
0
41
1
10
87.7320199482709
20
-2.72041255147957
30
0
0
SPLINE
5
BC
100
AcDbEntity
8
1
62
256
6
ByLayer
370
18
48
1
60
0
100
AcDbSpline
70
4
71
3
72
56
73
52
40
0
40
0
40
0
40
0
40
0.0022804905221343
40
0.0022804905221343
40
0.0497909433544178
40
0.0497909433544178
40
0.0973013961867013
40
0.0973013961867013
40
0.144811849018985
40
0.144811849018985
40
0.192322301851268
40
0.192322301851268
40
0.239832754683552
40
0.239832754683552
40
0.263587981099693
40
0.263587981099693
40
0.287343207515835
40
0.287343207515835
40
0.334853660348115
40
0.334853660348115
40
0.382364113180395
40
0.382364113180395
40
0.406119339596535
40
0.406119339596535
40
0.429874566012675
40
0.429874566012675
40
0.477385018844955
40
0.477385018844955
40
0.524895471677236
40
0.524895471677236
40
0.572405924509516
40
0.572405924509516
40
0.596161150925653
40
0.596161150925653
40
0.619916377341792
40
0.619916377341792
40
0.667426830174068
40
0.667426830174068
40
0.714937283006344
40
0.714937283006344
40
0.76244773583862
40
0.76244773583862
40
0.809958188670896
40
0.809958188670896
40
0.857468641503172
40
0.857468641503172
40
0.904979094335449
40
0.904979094335449
40
0.952489547167725
40
0.952489547167725
40
1
40
1
40
1
40
1
41
1
10
110.222915361762
20
4.88525653307767
30
0
41
1
10
110.23769399091
20
4.88526944093906
30
0
41
1
10
110.252471966919
20
4.88526899946334
30
0
41
1
10
110.575111619975
20
4.88496961993752
30
0
41
1
10
110.882766610175
20
4.87802711928489
30
0
41
1
10
111.49786429928
20
4.85098132417212
30
0
41
1
10
111.805235360996
20
4.83098326190392
30
0
41
1
10
112.419906296271
20
4.77895903512919
30
0
41
1
10
112.728126333281
20
4.74696707475002
30
0
41
1
10
113.345337144342
20
4.66921634359974
30
0
41
1
10
113.65388253139
20
4.62386458609464
30
0
41
1
10
114.26994060358
20
4.52244028624224
30
0
41
1
10
114.57759623277
20
4.46602939868899
30
0
41
1
10
115.03859203744
20
4.37152984057423
30
0
41
1
10
115.192162185236
20
4.33839546132515
30
0
41
1
10
115.499341361885
20
4.26923528658466
30
0
41
1
10
115.653237109156
20
4.23352416401602
30
0
41
1
10
116.114832677902
20
4.12283702258597
30
0
41
1
10
116.422742031117
20
4.04400726018957
30
0
41
1
10
117.03933591214
20
3.87404876684155
30
0
41
1
10
117.348271397034
20
3.78357438668232
30
0
41
1
10
117.810481507697
20
3.64079879718921
30
0
41
1
10
117.964406189622
20
3.59196774436864
30
0
41
1
10
118.272009385101
20
3.49184101558637
30
0
41
1
10
118.42557528692
20
3.44036960290387
30
0
41
1
10
118.886850796417
20
3.2836521617939
30
0
41
1
10
119.194646060917
20
3.17524720361811
30
0
41
1
10
119.810098099064
20
2.95041758403343
30
0
41
1
10
120.117775371256
20
2.83468973524538
30
0
41
1
10
120.733774401912
20
2.59398441203206
30
0
41
1
10
121.042222011156
20
2.46925763774746
30
0
41
1
10
121.504556257667
20
2.27698704567942
30
0
41
1
10
121.658420358845
20
2.21191203620526
30
0
41
1
10
121.966539787654
20
2.08151496030726
30
0
41
1
10
122.120578984059
20
2.01577908554034
30
0
41
1
10
122.582583606002
20
1.81688233642535
30
0
41
1
10
122.890391614185
20
1.68194278631552
30
0
41
1
10
123.505851889645
20
1.40791991067579
30
0
41
1
10
123.813515214502
20
1.26900838068835
30
0
41
1
10
124.42881650491
20
0.986658332578884
30
0
41
1
10
124.736233151636
20
0.84267305417896
30
0
41
1
10
125.353172003545
20
0.555213941430651
30
0
41
1
10
125.662009515676
20
0.410897821482934
30
0
41
1
10
126.278371179217
20
0.121808894287284
30
0
41
1
10
126.586253400463
20
-0.022908179421222
30
0
41
1
10
127.201639142504
20
-0.312298882559617
30
0
41
1
10
127.509050541072
20
-0.457180710381067
30
0
41
1
10
128.123634996343
20
-0.746541907041092
30
0
41
1
10
128.431561647733
20
-0.889405036956617
30
0
41
1
10
129.048145520449
20
-1.17271763984661
30
0
41
1
10
129.357057492238
20
-1.31363128866374
30
0
41
1
10
129.665266597156
20
-1.45216666980548
30
0
0
SPLINE
5
BD
100
AcDbEntity
8
1
62
256
6
ByLayer
370
18
48
1
60
0
100
AcDbSpline
70
4
71
3
72
8
73
4
40
0
40
0
40
0
40
0
40
1
40
1
40
1
40
1
41
1
10
133.152100371551
20
5.15031164692013
30
0
41
1
10
132.946081790783
20
5.15625438157295
30
0
41
1
10
132.739928212409
20
5.15913811607916
30
0
41
1
10
132.533746697933
20
5.15897824850407
30
0
0
SPLINE
5
BE
100
AcDbEntity
8
1
62
256
6
ByLayer
370
18
48
1
60
0
100
AcDbSpline
70
4
71
3
72
60
73
56
40
0
40
0
40
0
40
0
40
0.0380596687681748
40
0.0380596687681748
40
0.0927433346202732
40
0.0927433346202732
40
0.147427000472372
40
0.147427000472372
40
0.174768833398421
40
0.174768833398421
40
0.20211066632447
40
0.20211066632447
40
0.256794332176571
40
0.256794332176571
40
0.28413616510262
40
0.28413616510262
40
0.311477998028669
40
0.311477998028669
40
0.366161663880768
40
0.366161663880768
40
0.393503496806816
40
0.393503496806816
40
0.420845329732864
40
0.420845329732864
40
0.475528995584959
40
0.475528995584959
40
0.502870828511005
40
0.502870828511005
40
0.530212661437052
40
0.530212661437052
40
0.584896327289143
40
0.584896327289143
40
0.612238160215188
40
0.612238160215188
40
0.639579993141234
40
0.639579993141234
40
0.694263658993325
40
0.694263658993325
40
0.72160549191937
40
0.72160549191937
40
0.748947324845415
40
0.748947324845415
40
0.803630990697506
40
0.803630990697506
40
0.830972823623551
40
0.830972823623551
40
0.858314656549597
40
0.858314656549597
40
0.912998322401687
40
0.912998322401687
40
0.940340155327732
40
0.940340155327732
40
0.967681988253777
40
0.967681988253777
40
1
40
1
40
1
40
1
41
1
10
103.132840014992
20
-4.89172377819077
30
0
41
1
10
102.678132080255
20
-4.96059020663577
30
0
41
1
10
102.223560744316
20
-5.01538487136159
30
0
41
1
10
101.114264705542
20
-5.11353002154655
30
0
41
1
10
100.458251976077
20
-5.14131892061368
30
0
41
1
10
99.1507019471038
20
-5.13545402992406
30
0
41
1
10
98.4979618330816
20
-5.10199631187464
30
0
41
1
10
97.5167056047731
20
-5.00673380905752
30
0
41
1
10
97.1889966601935
20
-4.96742575753345
30
0
41
1
10
96.5337603954979
20
-4.87409915091379
30
0
41
1
10
96.206659145699
20
-4.82017162009791
30
0
41
1
10
95.2259373020437
20
-4.63742722898371
30
0
41
1
10
94.5731251255623
20
-4.48744941922857
30
0
41
1
10
93.5917339053283
20
-4.22365660603231
30
0
41
1
10
93.2639445967512
20
-4.1291495324725
30
0
41
1
10
92.6086907806028
20
-3.92810928486568
30
0
41
1
10
92.2815811984047
20
-3.82173369194004
30
0
41
1
10
91.3008066265035
20
-3.48650799935291
30
0
41
1
10
90.6479208583454
20
-3.24122842180182
30
0
41
1
10
89.6664378290853
20
-2.8460958724927
30
0
41
1
10
89.3385677489828
20
-2.70974397778656
30
0
41
1
10
88.6832718371348
20
-2.42944737633783
30
0
41
1
10
88.3561539959475
20
-2.28564532136346
30
0
41
1
10
87.3753978713934
20
-1.84513953632319
30
0
41
1
10
86.7223554390915
20
-1.53934253726035
30
0
41
1
10
85.7407312420934
20
-1.06869645950374
30
0
41
1
10
85.4128336629966
20
-0.909648654994299
30
0
41
1
10
84.7575204539555
20
-0.589631312878566
30
0
41
1
10
84.4303485035415
20
-0.428784913023577
30
0
41
1
10
83.4494837947549
20
0.0546303469508302
30
0
41
1
10
82.7963926946402
20
0.377973911915262
30
0
41
1
10
81.8146027314078
20
0.857698753419243
30
0
41
1
10
81.486639588259
20
1.01693659522169
30
0
41
1
10
80.8313256125665
20
1.33156648365278
30
0
41
1
10
80.5041483371518
20
1.48686042510954
30
0
41
1
10
79.5231681275592
20
1.94499451750104
30
0
41
1
10
78.8700496846225
20
2.24033552570671
30
0
41
1
10
77.8881488731747
20
2.66160412689976
30
0
41
1
10
77.5600960043325
20
2.7985303446012
30
0
41
1
10
76.9047542151692
20
3.06337282126953
30
0
41
1
10
76.5775791683123
20
3.19123549587152
30
0
41
1
10
75.596575209119
20
3.55968413336348
30
0
41
1
10
74.9433677222559
20
3.78528143731751
30
0
41
1
10
73.9613171933771
20
4.0886514183276
30
0
41
1
10
73.633203435462
20
4.18401950761029
30
0
41
1
10
72.9778396802246
20
4.36178597645775
30
0
41
1
10
72.6506427902475
20
4.44416691302098
30
0
41
1
10
71.6695662450324
20
4.67095459839038
30
0
41
1
10
71.016274739377
20
4.79507197285807
30
0
41
1
10
70.0340963509943
20
4.93785265872319
30
0
41
1
10
69.7059568067786
20
4.97825044466603
30
0
41
1
10
69.050574276172
20
5.04394458645476
30
0
41
1
10
68.7233275039331
20
5.06925906382077
30
0
41
1
10
68.009718672411
20
5.10799494418444
30
0
41
1
10
67.6234186299374
20
5.11839711212863
30
0
41
1
10
67.2369034792354
20
5.11818349888949
30
0
0
SPLINE
5
BF
100
AcDbEntity
8
1
62
256
6
ByLayer
370
18
48
1
60
0
100
AcDbSpline
70
4
71
3
72
52
73
48
40
0
40
0
40
0
40
0
40
0.0268586988096956
40
0.0268586988096956
40
0.0917347855557155
40
0.0917347855557155
40
0.124172828928726
40
0.124172828928726
40
0.156610872301735
40
0.156610872301735
40
0.221486959047757
40
0.221486959047757
40
0.253925002420767
40
0.253925002420767
40
0.286363045793778
40
0.286363045793778
40
0.3512391325398
40
0.3512391325398
40
0.38367717591281
40
0.38367717591281
40
0.416115219285821
40
0.416115219285821
40
0.480991306031842
40
0.480991306031842
40
0.513429349404852
40
0.513429349404852
40
0.545867392777862
40
0.545867392777862
40
0.610743479523882
40
0.610743479523882
40
0.643181522896892
40
0.643181522896892
40
0.675619566269902
40
0.675619566269902
40
0.740495653015923
40
0.740495653015923
40
0.772933696388932
40
0.772933696388932
40
0.805371739761942
40
0.805371739761942
40
0.870247826507962
40
0.870247826507962
40
0.902685869880971
40
0.902685869880971
40
0.935123913253981
40
0.935123913253981
40
1
40
1
40
1
40
1
41
1
10
37.7777805536892
20
-4.86109008641677
30
0
41
1
10
37.5064807562784
20
-4.90117291284488
30
0
41
1
10
37.2354301198682
20
-4.93624624226899
30
0
41
1
10
36.310025030269
20
-5.0387214858072
30
0
41
1
10
35.6560726754233
20
-5.08154780399533
30
0
41
1
10
34.6725843039012
20
-5.10019216221571
30
0
41
1
10
34.3440813208599
20
-5.09878734575435
30
0
41
1
10
33.6884853182266
20
-5.08077749837375
30
0
41
1
10
33.361081666083
20
-5.06419312484036
30
0
41
1
10
32.3792884126359
20
-4.99198012117475
30
0
41
1
10
31.7252890604861
20
-4.9138724641607
30
0
41
1
10
30.7416380789072
20
-4.75323828432241
30
0
41
1
10
30.4130927514622
20
-4.69239789057892
30
0
41
1
10
29.7575000616596
20
-4.55715217517138
30
0
41
1
10
29.4300934559004
20
-4.48272754657143
30
0
41
1
10
28.4482174521348
20
-4.23994515008482
30
0
41
1
10
27.7941655264501
20
-4.05197544075062
30
0
41
1
10
26.8103309914462
20
-3.73490975708876
30
0
41
1
10
26.4817831649706
20
-3.62324574600851
30
0
41
1
10
25.8261733569229
20
-3.38995759056982
30
0
41
1
10
25.4987548900387
20
-3.2682462226804
30
0
41
1
10
24.5167722163541
20
-2.88937604883657
30
0
41
1
10
23.8626873550022
20
-2.6181254871546
30
0
41
1
10
22.8787459804711
20
-2.1894262968259
30
0
41
1
10
22.5501591392755
20
-2.04281122520695
30
0
41
1
10
21.8944704610379
20
-1.74464120269508
30
0
41
1
10
21.5670072928907
20
-1.59294081663
30
0
41
1
10
20.584949149483
20
-1.13160355041384
30
0
41
1
10
19.9308615345195
20
-0.815369489850553
30
0
41
1
10
18.946824320784
20
-0.335662845154559
30
0
41
1
10
18.6182215320956
20
-0.174828950953866
30
0
41
1
10
17.9624695116218
20
0.14601939547839
30
0
41
1
10
17.6349472236845
20
0.306199578540145
30
0
41
1
10
16.652709671768
20
0.78451611019014
30
0
41
1
10
15.9985447551569
20
1.10087181852347
30
0
41
1
10
15.0143555823565
20
1.56361616173271
30
0
41
1
10
14.6857534163526
20
1.71593594609692
30
0
41
1
10
14.0299714627346
20
2.01425204876708
30
0
41
1
10
13.7024266307844
20
2.16042477902519
30
0
41
1
10
12.720039487079
20
2.58854801451733
30
0
41
1
10
12.0654677439663
20
2.86013161893408
30
0
41
1
10
11.0806431612605
20
3.24051343956873
30
0
41
1
10
10.7522203711404
20
3.3626642918135
30
0
41
1
10
10.0966665981716
20
3.59611367047558
30
0
41
1
10
9.76922192586221
20
3.70752302410952
30
0
41
1
10
8.78696119519094
20
4.02455420058089
30
0
41
1
10
8.13218769242928
20
4.21296038113064
30
0
41
1
10
7.47552960959837
20
4.37583427320405
30
0
0
SPLINE
5
C0
100
AcDbEntity
8
1
62
256
6
ByLayer
370
18
48
1
60
0
100
AcDbSpline
70
4
71
3
72
38
73
34
40
0
40
0
40
0
40
0
40
0.0427513728839589
40
0.0427513728839589
40
0.238526648377885
40
0.238526648377885
40
0.336414286124847
40
0.336414286124847
40
0.43430192387181
40
0.43430192387181
40
0.483245742745292
40
0.507717652182033
40
0.519953606900403
40
0.519953606900403
40
0.526071584259588
40
0.526071584259588
40
0.532189561618773
40
0.532189561618773
40
0.538307538977958
40
0.538307538977958
40
0.544425516337143
40
0.544425516337143
40
0.556661471055514
40
0.556661471055514
40
0.581133380492254
40
0.581133380492254
40
0.630077199365736
40
0.630077199365736
40
0.825852474859662
40
0.825852474859662
40
0.923740112606625
40
0.923740112606625
40
1
40
1
40
1
40
1
41
1
10
11.2607564732993
20
2.5037844115316
30
0
41
1
10
11.2607564732993
20
2.42908643175488
30
0
41
1
10
11.2607564732993
20
2.35319797708092
30
0
41
1
10
11.2607564732993
20
1.92333911135665
30
0
41
1
10
11.2607564732993
20
1.5463988665135
30
0
41
1
10
11.2607564732993
20
0.947277172690775
30
0
41
1
10
11.2607564732994
20
0.741921428340248
30
0
41
1
10
11.2607564732994
20
0.320009038543134
30
0
41
1
10
11.2607564732993
20
0.103140993059668
30
0
41
1
10
11.2607564732993
20
-0.228987248563328
30
0
41
1
10
11.2607564732994
20
-0.39679845160893
30
0
41
1
10
11.2607564732995
20
-0.595627241918123
30
0
41
1
10
11.2607564732994
20
-0.68149324685163
30
0
41
1
10
11.2607564732994
20
-0.724535242376874
30
0
41
1
10
11.2607564732993
20
-0.738633879589742
30
0
41
1
10
11.2607564732993
20
-0.768420647036635
30
0
41
1
10
11.2607564732993
20
-0.783836088385726
30
0
41
1
10
11.2607564732993
20
-0.815431303798846
30
0
41
1
10
11.2607564732994
20
-0.831654452352865
30
0
41
1
10
11.2607564732994
20
-0.865238073507811
30
0
41
1
10
11.2607564732993
20
-0.882586892676073
30
0
41
1
10
11.2607564732993
20
-0.934059230417063
30
0
41
1
10
11.2607564732993
20
-0.968404070800972
30
0
41
1
10
11.2607564732993
20
-1.07152917748221
30
0
41
1
10
11.2607564732993
20
-1.14038157089044
30
0
41
1
10
11.2607564732993
20
-1.34713041408389
30
0
41
1
10
11.2607564732993
20
-1.48526554436614
30
0
41
1
10
11.2607564732993
20
-2.17749696547193
30
0
41
1
10
11.2607564732993
20
-2.73682998706062
30
0
41
1
10
11.2607564732993
20
-3.57887595379992
30
0
41
1
10
11.2607564732993
20
-3.8602513329881
30
0
41
1
10
11.2607564732993
20
-4.36216981112526
30
0
41
1
10
11.2607564732993
20
-4.5825970251023
30
0
41
1
10
11.2607564732993
20
-4.80244246630755
30
0
0
SPLINE
5
C1
100
AcDbEntity
8
1
62
256
6
ByLayer
370
18
48
1
60
0
100
AcDbSpline
70
4
71
3
72
8
73
4
40
0
40
0
40
0
40
0
40
1
40
1
40
1
40
1
41
1
10
7.33537581504925
20
-1.74519886562305
30
0
41
1
10
7.33537581504925
20
-1.73988228373662
30
0
41
1
10
7.33537581504928
20
-1.7345654183307
30
0
41
1
10
7.33537581504928
20
-1.72924827015103
30
0
0
SPLINE
5
C2
100
AcDbEntity
8
1
62
256
6
ByLayer
370
18
48
1
60
0
100
AcDbSpline
70
4
71
3
72
41
73
37
40
0
40
0
40
0
40
0
40
0.125000000000003
40
0.125000000000003
40
0.187500000000004
40
0.187500000000004
40
0.250000000000006
40
0.250000000000006
40
0.312500000000007
40
0.312500000000007
40
0.375000000000009
40
0.375000000000009
40
0.43750000000001
40
0.43750000000001
40
0.500000000000012
40
0.500000000000012
40
0.562500000000013
40
0.562500000000013
40
0.625000000000015
40
0.625000000000015
40
0.750000000000017
40
0.750000000000017
40
0.812500000000019
40
0.812500000000019
40
0.828125000000018
40
0.828125000000018
40
0.835937500000018
40
0.835937500000018
40
0.843750000000017
40
0.843750000000017
40
0.859375000000017
40
0.859375000000017
40
0.867187500000016
40
0.867187500000016
40
0.875000000000016
40
1
40
1
40
1
40
1
41
1
10
129.665266597169
20
-1.45216666981139
30
0
41
1
10
129.885360221211
20
-1.49855043027586
30
0
41
1
10
130.10541111144
20
-1.53226885580142
30
0
41
1
10
130.435410657762
20
-1.56008796640933
30
0
41
1
10
130.545021263643
20
-1.56549855276816
30
0
41
1
10
130.761762334596
20
-1.56781508541567
30
0
41
1
10
130.869124905661
20
-1.56474182461019
30
0
41
1
10
131.081632076705
20
-1.54928405677791
30
0
41
1
10
131.186762383404
20
-1.53683954524993
30
0
41
1
10
131.394256735034
20
-1.50033750136075
30
0
41
1
10
131.496741133865
20
-1.47678522571633
30
0
41
1
10
131.698924132593
20
-1.41798563477394
30
0
41
1
10
131.798870545317
20
-1.38256544520482
30
0
41
1
10
131.991699019607
20
-1.30057083582011
30
0
41
1
10
132.085064359917
20
-1.25389693718745
30
0
41
1
10
132.265477436072
20
-1.14878669692604
30
0
41
1
10
132.352523699406
20
-1.09034761369926
30
0
41
1
10
132.520037477666
20
-0.961220792938718
30
0
41
1
10
132.600805515265
20
-0.890223269700954
30
0
41
1
10
132.830771726641
20
-0.660201642937977
30
0
41
1
10
132.965195683122
20
-0.486939945661049
30
0
41
1
10
133.142193645717
20
-0.201069578123878
30
0
41
1
10
133.197082306327
20
-0.101445251549791
30
0
41
1
10
133.260917183541
20
0.028120828387415
30
0
41
1
10
133.273445289043
20
0.0542859044174406
30
0
41
1
10
133.291885833759
20
0.0939042532655776
30
0
41
1
10
133.297884285184
20
0.107234211091082
30
0
41
1
10
133.31032927623
20
0.133546212640653
30
0
41
1
10
133.316428487576
20
0.146795243375891
30
0
41
1
10
133.326878882357
20
0.192463844489822
30
0
41
1
10
133.324540806835
20
0.226490185432851
30
0
41
1
10
133.314156166219
20
0.276356241135204
30
0
41
1
10
133.309733299169
20
0.292881951036208
30
0
41
1
10
133.30169719386
20
0.326014482491814
30
0
41
1
10
133.233326295324
20
0.607635312663774
30
0
41
1
10
133.163924468876
20
0.889139812371127
30
0
41
1
10
133.09789571431
20
1.15399105114372
30
0
0
SPLINE
5
C3
100
AcDbEntity
8
1
62
256
6
ByLayer
370
18
48
1
60
0
100
AcDbSpline
70
4
71
3
72
14
73
10
40
0
40
0
40
0
40
0
40
0.25
40
0.25
40
0.5
40
0.5
40
0.75
40
0.75
40
1
40
1
40
1
40
1
41
1
10
129.665266597169
20
-1.45216666981142
30
0
41
1
10
129.859743880401
20
-1.68380739961108
30
0
41
1
10
130.066038750777
20
-1.9002835831127
30
0
41
1
10
130.497443852641
20
-2.30909173089327
30
0
41
1
10
130.723845443901
20
-2.50215601593902
30
0
41
1
10
131.183636158795
20
-2.85995909880788
30
0
41
1
10
131.417786998721
20
-3.0255749498269
30
0
41
1
10
131.893281929066
20
-3.33434919853374
30
0
41
1
10
132.134633697853
20
-3.47748362422945
30
0
41
1
10
132.379220230569
20
-3.61051906059674
30
0
0
SPLINE
5
C4
100
AcDbEntity
8
1
62
256
6
ByLayer
370
18
48
1
60
0
100
AcDbSpline
70
4
71
3
72
8
73
4
40
0
40
0
40
0
40
0
40
1
40
1
40
1
40
1
41
1
10
133.335762945204
20
5.01917793375708
30
0
41
1
10
133.264990849119
20
5.08837753440957
30
0
41
1
10
133.203977406319
20
5.1324078471232
30
0
41
1
10
133.152100371551
20
5.15031164692013
30
0
0
SPLINE
5
C5
100
AcDbEntity
8
1
62
256
6
ByLayer
370
13
48
1
60
0
100
AcDbSpline
70
4
71
3
72
14
73
10
40
0
40
0
40
0
40
0
40
0.301587606119206
40
0.301587606119206
40
0.543826607173774
40
0.543826607173774
40
0.786065608228342
40
0.786065608228342
40
1
40
1
40
1
40
1
41
1
10
7.58564343931326
20
4.36230164751243
30
0
41
1
10
7.58565803965689
20
4.4529016537071
30
0
41
1
10
7.58567087795913
20
4.53014892352286
30
0
41
1
10
7.58569184549407
20
4.64609036542967
30
0
41
1
10
7.58570039520896
20
4.68930693059855
30
0
41
1
10
7.58571641934938
20
4.7584334197947
30
0
41
1
10
7.58572391152603
20
4.78428849602884
30
0
41
1
10
7.58573715632696
20
4.81529765129039
30
0
41
1
10
7.58574305613485
20
4.82278240653156
30
0
41
1
10
7.58574880140108
20
4.82321362543161
30
0
0
SPLINE
5
C6
100
AcDbEntity
8
1
62
256
6
ByLayer
370
18
48
1
60
0
100
AcDbSpline
70
4
71
3
72
10
73
6
40
0
40
0
40
0
40
0
40
0.5
40
0.5
40
1
40
1
40
1
40
1
41
1
10
134.976827519637
20
-0.146394990465268
30
0
41
1
10
134.9787066746
20
-0.131354612066644
30
0
41
1
10
134.981786865325
20
-0.114556198689911
30
0
41
1
10
134.989663526329
20
-0.0784430139805465
30
0
41
1
10
134.994495396725
20
-0.0590936686647012
30
0
41
1
10
134.999962691995
20
-0.039308931334773
30
0
0
SPLINE
5
C7
100
AcDbEntity
8
1
62
256
6
ByLayer
370
18
48
1
60
0
100
AcDbSpline
70
4
71
3
72
56
73
52
40
0
40
0
40
0
40
0
40
0.0880747130452101
40
0.0880747130452101
40
0.132112069567815
40
0.132112069567815
40
0.17614942609042
40
0.17614942609042
40
0.220186782613025
40
0.220186782613025
40
0.26422413913563
40
0.26422413913563
40
0.286242817396933
40
0.286242817396933
40
0.308261495658235
40
0.308261495658235
40
0.35229885218084
40
0.35229885218084
40
0.396336208703445
40
0.396336208703445
40
0.44037356522605
40
0.44037356522605
40
0.528448278271259
40
0.528448278271259
40
0.572485634793863
40
0.572485634793863
40
0.594504313055165
40
0.594504313055165
40
0.616522991316466
40
0.616522991316466
40
0.660560347839069
40
0.660560347839069
40
0.704597704361671
40
0.704597704361671
40
0.726616382622972
40
0.726616382622972
40
0.748635060884273
40
0.748635060884273
40
0.792672417406875
40
0.792672417406875
40
0.836709773929478
40
0.836709773929478
40
0.85872845219078
40
0.85872845219078
40
0.880747130452081
40
0.880747130452081
40
0.924784486974682
40
0.924784486974682
40
0.968821843497283
40
0.968821843497283
40
1
40
1
40
1
40
1
41
1
10
11.2607564732993
20
2.5037844115316
30
0
41
1
10
11.8962404399348
20
2.22711069031917
30
0
41
1
10
12.5337779064074
20
1.94458326216875
30
0
41
1
10
13.4896499851393
20
1.50664128727956
30
0
41
1
10
13.808148852053
20
1.35816737292956
30
0
41
1
10
14.4441747783872
20
1.0546481488858
30
0
41
1
10
14.7613810543392
20
0.898901571780897
30
0
41
1
10
15.3991940964732
20
0.589620098253164
30
0
41
1
10
15.7186449643476
20
0.435416652729145
30
0
41
1
10
16.3563812675778
20
0.126271210456991
30
0
41
1
10
16.6748916243323
20
-0.028686412046369
30
0
41
1
10
17.1520459723789
20
-0.261846383871529
30
0
41
1
10
17.3109754708655
20
-0.339728209684296
30
0
41
1
10
17.6284466322254
20
-0.496106498554752
30
0
41
1
10
17.786874040868
20
-0.574836127627606
30
0
41
1
10
18.2633709997631
20
-0.808262486975565
30
0
41
1
10
18.5820490333078
20
-0.961443795123614
30
0
41
1
10
19.2207605683903
20
-1.26432885571492
30
0
41
1
10
19.540338060599
20
-1.41418887134361
30
0
41
1
10
20.1777083288743
20
-1.71003563914445
30
0
41
1
10
20.4958754496052
20
-1.85603708960568
30
0
41
1
10
21.4469865603844
20
-2.29141031677062
30
0
41
1
10
22.0844165300071
20
-2.56339311543465
30
0
41
1
10
23.0418593411469
20
-2.95156894359309
30
0
41
1
10
23.3613281955064
20
-3.07735142063498
30
0
41
1
10
23.8383979162755
20
-3.26054794749243
30
0
41
1
10
23.9969454266707
20
-3.32104930532716
30
0
41
1
10
24.3144109813538
20
-3.43882012690207
30
0
41
1
10
24.4732724177853
20
-3.49619196652856
30
0
41
1
10
24.9502520627329
20
-3.66386311560629
30
0
41
1
10
25.2687809683006
20
-3.76972781313276
30
0
41
1
10
25.9058463393162
20
-3.97132309137282
30
0
41
1
10
26.2244803562208
20
-4.06690432173116
30
0
41
1
10
26.7024278422635
20
-4.20245718637099
30
0
41
1
10
26.8618136620942
20
-4.24635228144356
30
0
41
1
10
27.1799792607148
20
-4.33169980948787
30
0
41
1
10
27.3388141746605
20
-4.37291168054225
30
0
41
1
10
27.8159566237206
20
-4.49077363752463
30
0
41
1
10
28.1344440283764
20
-4.56221210641297
30
0
41
1
10
28.771411891918
20
-4.6920939996287
30
0
41
1
10
29.0897719645503
20
-4.75061760442017
30
0
41
1
10
29.5670984835377
20
-4.82868771902531
30
0
41
1
10
29.7261746813773
20
-4.85308913455498
30
0
41
1
10
30.0441198587054
20
-4.89867053446036
30
0
41
1
10
30.2028450584568
20
-4.9199237504028
30
0
41
1
10
30.6793445767573
20
-4.97834329118041
30
0
41
1
10
30.9985114326314
20
-5.00984354932746
30
0
41
1
10
31.6363589830812
20
-5.05843149789555
30
0
41
1
10
31.9551239046469
20
-5.07562183909053
30
0
41
1
10
32.498876622976
20
-5.09300098375468
30
0
41
1
10
32.7241467752211
20
-5.09668441626494
30
0
41
1
10
32.9491340989453
20
-5.09676349364409
30
0
0
SPLINE
5
C8
100
AcDbEntity
8
1
62
256
6
ByLayer
370
18
48
1
60
0
100
AcDbSpline
70
4
71
3
72
116
73
112
40
0
40
0
40
0
40
0
40
0.0021207250395717
40
0.0021207250395717
40
0.0131665445505851
40
0.0131665445505851
40
0.0242123640615985
40
0.0242123640615985
40
0.0463040030836259
40
0.0463040030836259
40
0.0683956421056536
40
0.0683956421056536
40
0.0794414616166673
40
0.0794414616166673
40
0.0904872811276809
40
0.0904872811276809
40
0.134670559171735
40
0.134670559171735
40
0.156762198193762
40
0.156762198193762
40
0.178853837215789
40
0.178853837215789
40
0.223037115259844
40
0.223037115259844
40
0.234082934770857
40
0.234082934770857
40
0.24512875428187
40
0.24512875428187
40
0.267220393303898
40
0.267220393303898
40
0.289312032325925
40
0.289312032325925
40
0.300357851836939
40
0.300357851836939
40
0.311403671347953
40
0.311403671347953
40
0.33349531036998
40
0.33349531036998
40
0.355586949392008
40
0.355586949392008
40
0.366632768903022
40
0.366632768903022
40
0.377678588414035
40
0.377678588414035
40
0.399770227436063
40
0.399770227436063
40
0.42186186645809
40
0.42186186645809
40
0.443953505480117
40
0.443953505480117
40
0.454999324991131
40
0.454999324991131
40
0.466045144502144
40
0.466045144502144
40
0.488136783524171
40
0.488136783524171
40
0.510228422546199
40
0.510228422546199
40
0.532320061568226
40
0.532320061568226
40
0.554411700590253
40
0.554411700590253
40
0.576503339612281
40
0.576503339612281
40
0.587549159123294
40
0.587549159123294
40
0.598594978634307
40
0.598594978634307
40
0.620686617656332
40
0.620686617656332
40
0.642778256678358
40
0.642778256678358
40
0.664869895700384
40
0.664869895700384
40
0.675915715211397
40
0.675915715211397
40
0.68696153472241
40
0.68696153472241
40
0.709053173744437
40
0.709053173744437
40
0.731144812766465
40
0.731144812766465
40
0.753236451788492
40
0.753236451788492
40
0.775328090810519
40
0.775328090810519
40
0.797419729832547
40
0.797419729832547
40
0.808465549343561
40
0.808465549343561
40
0.819511368854574
40
0.819511368854574
40
0.8416030078766
40
0.8416030078766
40
0.863694646898626
40
0.863694646898626
40
0.885786285920652
40
0.885786285920652
40
0.907877924942678
40
0.907877924942678
40
0.929969563964704
40
0.929969563964704
40
0.952061202986729
40
0.952061202986729
40
0.963107022497743
40
0.963107022497743
40
0.974152842008757
40
0.974152842008757
40
0.996244481030784
40
0.996244481030784
40
1
40
1
40
1
40
1
41
1
10
55.0928172217102
20
2.71509084646237
30
0
41
1
10
55.1233409314367
20
2.72786235655775
30
0
41
1
10
55.1538551631699
20
2.74060655302983
30
0
41
1
10
55.3432387483984
20
2.81955959541006
30
0
41
1
10
55.5016732196426
20
2.8854189423804
30
0
41
1
10
55.8187436906831
20
3.01448897277856
30
0
41
1
10
55.9774239422065
20
3.07763643120438
30
0
41
1
10
56.4539087558513
20
3.26299707193263
30
0
41
1
10
56.7722006834764
20
3.38108682628987
30
0
41
1
10
57.4089668990169
20
3.60817205342286
30
0
41
1
10
57.7275037783295
20
3.71705557922047
30
0
41
1
10
58.2054452023963
20
3.87336642583293
30
0
41
1
10
58.3648124151881
20
3.92433799514708
30
0
41
1
10
58.6826937796311
20
4.02391180505148
30
0
41
1
10
58.8412404880818
20
4.07258238977749
30
0
41
1
10
59.6353269581394
20
4.30625252125822
30
0
41
1
10
60.2722685799378
20
4.46619787216474
30
0
41
1
10
61.2265010077445
20
4.67066186123944
30
0
41
1
10
61.5444448628364
20
4.7327638137275
30
0
41
1
10
62.1794752826944
20
4.84466235500267
30
0
41
1
10
62.4982148680334
20
4.89317791913584
30
0
41
1
10
63.453671387668
20
5.01707773362037
30
0
41
1
10
64.0903810331347
20
5.07183314389726
30
0
41
1
10
64.883704230575
20
5.10530426970976
30
0
41
1
10
65.0420262872266
20
5.11023691545202
30
0
41
1
10
65.3593757520383
20
5.11636845052377
30
0
41
1
10
65.5183087926123
20
5.11759637802308
30
0
41
1
10
65.9958843790276
20
5.11589087335679
30
0
41
1
10
66.3154351754334
20
5.10758985381966
30
0
41
1
10
66.952764242447
20
5.0768836396031
30
0
41
1
10
67.2709906972347
20
5.05448228399638
30
0
41
1
10
67.7474755528991
20
5.01008454642135
30
0
41
1
10
67.9061772806671
20
4.99349360948616
30
0
41
1
10
68.2229330013773
20
4.95644140946555
30
0
41
1
10
68.3812911412647
20
4.93611053856503
30
0
41
1
10
68.8572923139444
20
4.87032392104794
30
0
41
1
10
69.1755456997747
20
4.8199694492269
30
0
41
1
10
69.8130420048276
20
4.70611062616265
30
0
41
1
10
70.1324396046356
20
4.6424299762939
30
0
41
1
10
70.6101228104023
20
4.53713095332637
30
0
41
1
10
70.7691805822816
20
4.50039096607185
30
0
41
1
10
71.0868109588205
20
4.42344193278961
30
0
41
1
10
71.2452197577949
20
4.38305477202115
30
0
41
1
10
71.7205230179263
20
4.25742345577498
30
0
41
1
10
72.0380608492997
20
4.16838745008371
30
0
41
1
10
72.6741577120542
20
3.97994117227185
30
0
41
1
10
72.9925487677117
20
3.88032602969747
30
0
41
1
10
73.6295499348086
20
3.66962427024211
30
0
41
1
10
73.9486557293212
20
3.55863019304849
30
0
41
1
10
74.4252151361805
20
3.3831916732569
30
0
41
1
10
74.5836265641172
20
3.32299974233334
30
0
41
1
10
74.9009988111875
20
3.2014255627391
30
0
41
1
10
75.0597912029494
20
3.13979000805091
30
0
41
1
10
75.5364874472502
20
2.95242204256257
30
0
41
1
10
75.854661523461
20
2.82417145193787
30
0
41
1
10
76.4907853765758
20
2.55945553353325
30
0
41
1
10
76.8088763913649
20
2.4232252841561
30
0
41
1
10
77.4447402956899
20
2.14213370710391
30
0
41
1
10
77.7621944937306
20
1.99576433412957
30
0
41
1
10
78.398322799319
20
1.70203466930661
30
0
41
1
10
78.7166846394157
20
1.55420096195999
30
0
41
1
10
79.3530701362993
20
1.25488963276507
30
0
41
1
10
79.6710308125237
20
1.10328185953262
30
0
41
1
10
80.1476243283921
20
0.87291501586347
30
0
41
1
10
80.3064194859731
20
0.795610528391478
30
0
41
1
10
80.6237285321484
20
0.639665885612658
30
0
41
1
10
80.7820482502716
20
0.560628071561666
30
0
41
1
10
81.2579188259198
20
0.324196247691219
30
0
41
1
10
81.5766357825355
20
0.167210600344021
30
0
41
1
10
82.2142567927358
20
-0.145224113354175
30
0
41
1
10
82.5327593790681
20
-0.300913070648761
30
0
41
1
10
83.1688156569331
20
-0.611923213103267
30
0
41
1
10
83.4865354948833
20
-0.766910254073991
30
0
41
1
10
83.9617249874644
20
-1.00042075831544
30
0
41
1
10
84.1199536833233
20
-1.07829607787852
30
0
41
1
10
84.4371670992321
20
-1.23194593312306
30
0
41
1
10
84.59599722709
20
-1.30803142356271
30
0
41
1
10
85.0731222321016
20
-1.53415974527556
30
0
41
1
10
85.3922157711662
20
-1.68234963962834
30
0
41
1
10
86.0299528361435
20
-1.97457676849683
30
0
41
1
10
86.3482610293332
20
-2.11808065518537
30
0
41
1
10
86.9832296703852
20
-2.40072106067393
30
0
41
1
10
87.2993506590882
20
-2.54075801865207
30
0
41
1
10
87.9339830404043
20
-2.80913866602782
30
0
41
1
10
88.2520520786336
20
-2.93835064769431
30
0
41
1
10
88.8886524643656
20
-3.18875414940118
30
0
41
1
10
89.2073012454861
20
-3.30997710815424
30
0
41
1
10
89.6852206548181
20
-3.48554446747488
30
0
41
1
10
89.8442971236205
20
-3.54297522789247
30
0
41
1
10
90.1618430852263
20
-3.65581659952986
30
0
41
1
10
90.3201482317808
20
-3.71144772154401
30
0
41
1
10
90.7958236017997
20
-3.87288433378942
30
0
41
1
10
91.1134855326782
20
-3.97397891717566
30
0
41
1
10
91.749333338328
20
-4.16434597865799
30
0
41
1
10
92.0673571253259
20
-4.25381021320183
30
0
41
1
10
92.7033882216308
20
-4.42144493114515
30
0
41
1
10
93.0215895211934
20
-4.4994417536725
30
0
41
1
10
93.6566932722824
20
-4.64483448083976
30
0
41
1
10
93.9743746667235
20
-4.71025132749725
30
0
41
1
10
94.6103627479799
20
-4.82674080354121
30
0
41
1
10
94.9284726861594
20
-4.8780396391133
30
0
41
1
10
95.5641704820024
20
-4.96736263051707
30
0
41
1
10
95.8819273922123
20
-5.00528611718536
30
0
41
1
10
96.357943134823
20
-5.05198253895702
30
0
41
1
10
96.516313319693
20
-5.06590570419942
30
0
41
1
10
96.8335031361189
20
-5.09001950646652
30
0
41
1
10
96.9923827240103
20
-5.10020758292438
30
0
41
1
10
97.4698770661236
20
-5.1252862585043
30
0
41
1
10
97.7887016438832
20
-5.13468274632825
30
0
41
1
10
98.1610400424487
20
-5.13740131665236
30
0
41
1
10
98.2151294842517
20
-5.137591268439
30
0
41
1
10
98.2692083243015
20
-5.13757564522183
30
0
0
SPLINE
5
C9
100
AcDbEntity
8
1
62
256
6
ByLayer
370
18
48
1
60
0
100
AcDbSpline
70
4
71
3
72
34
73
30
40
0
40
0
40
0
40
0
40
0.0449638524183067
40
0.0449638524183067
40
0.0816960119406826
40
0.0816960119406826
40
0.118428171463058
40
0.118428171463058
40
0.265356809552551
40
0.265356809552551
40
0.3388211285973
40
0.3388211285973
40
0.375553288119672
40
0.375553288119672
40
0.412285447642044
40
0.412285447642044
40
0.559214085731531
40
0.559214085731531
40
0.632678404776275
40
0.632678404776275
40
0.706142723821019
40
0.706142723821019
40
0.779607042865762
40
0.779607042865762
40
0.816339202388137
40
0.816339202388137
40
0.853071361910512
40
0.853071361910512
40
1
40
1
40
1
40
1
41
1
10
120.397632592553
20
2.73632855087575
30
0
41
1
10
120.592637795372
20
2.81771330860758
30
0
41
1
10
120.787663567276
20
2.89779104266776
30
0
41
1
10
121.141394323687
20
3.04061935395612
30
0
41
1
10
121.300255337099
20
3.10389424305885
30
0
41
1
10
121.617465016166
20
3.22875243016097
30
0
41
1
10
121.775624149162
20
3.29062676629968
30
0
41
1
10
122.567037054262
20
3.59264897665651
30
0
41
1
10
123.202969315027
20
3.81004783205753
30
0
41
1
10
124.157199006207
20
4.1064230636749
30
0
41
1
10
124.475880368854
20
4.20004566845609
30
0
41
1
10
124.951784441661
20
4.33263437912404
30
0
41
1
10
125.11003818451
20
4.3755582137797
30
0
41
1
10
125.427103524304
20
4.45745415986423
30
0
41
1
10
125.585739892277
20
4.49662915173363
30
0
41
1
10
126.379417523643
20
4.68388544172731
30
0
41
1
10
127.015288245688
20
4.8071486774584
30
0
41
1
10
127.967750917241
20
4.95376925180298
30
0
41
1
10
128.284928669743
20
4.99644603640263
30
0
41
1
10
128.919872518606
20
5.06610478408086
30
0
41
1
10
129.237174310974
20
5.09345988114282
30
0
41
1
10
129.870535122396
20
5.13417808756984
30
0
41
1
10
130.186555551253
20
5.14751904275039
30
0
41
1
10
130.659590210418
20
5.15694908843068
30
0
41
1
10
130.817088633844
20
5.15832940115769
30
0
41
1
10
131.131585052909
20
5.15749916369282
30
0
41
1
10
131.288394392971
20
5.15526312874954
30
0
41
1
10
132.073535751699
20
5.13509971124836
30
0
41
1
10
132.70448637589
20
5.09101145498229
30
0
41
1
10
133.335762945204
20
5.01917793375705
30
0
0
SPLINE
5
CA
100
AcDbEntity
8
1
62
256
6
ByLayer
370
18
48
1
60
0
100
AcDbSpline
70
4
71
3
72
10
73
6
40
0
40
0
40
0
40
0
40
0.5
40
0.5
40
1
40
1
40
1
40
1
41
1
10
134.976827519637
20
0.146394990465581
30
0
41
1
10
134.9787066746
20
0.131354612066872
30
0
41
1
10
134.981786865324
20
0.11455619869011
30
0
41
1
10
134.989663526329
20
0.0784430139806034
30
0
41
1
10
134.994495396725
20
0.0590936686646444
30
0
41
1
10
134.999962691995
20
0.0393089313346024
30
0
0
SPLINE
5
CB
100
AcDbEntity
8
1
62
256
6
ByLayer
370
18
48
1
60
0
100
AcDbSpline
70
4
71
3
72
56
73
52
40
0
40
0
40
0
40
0
40
0.0294811295504419
40
0.0294811295504419
40
0.0589622591008837
40
0.0589622591008837
40
0.117924518201769
40
0.117924518201769
40
0.147405647752212
40
0.147405647752212
40
0.176886777302655
40
0.176886777302655
40
0.235849036403541
40
0.235849036403541
40
0.265330165953983
40
0.265330165953983
40
0.294811295504424
40
0.294811295504424
40
0.353773554605308
40
0.353773554605308
40
0.38325468415575
40
0.38325468415575
40
0.412735813706192
40
0.412735813706192
40
0.471698072807074
40
0.471698072807074
40
0.501179202357513
40
0.501179202357513
40
0.530660331907953
40
0.530660331907953
40
0.589622591008833
40
0.589622591008833
40
0.619103720559273
40
0.619103720559273
40
0.648584850109713
40
0.648584850109713
40
0.707547109210592
40
0.707547109210592
40
0.737028238761032
40
0.737028238761032
40
0.766509368311472
40
0.766509368311472
40
0.825471627412352
40
0.825471627412352
40
0.854952756962792
40
0.854952756962792
40
0.884433886513231
40
0.884433886513231
40
0.943396145614113
40
0.943396145614113
40
1
40
1
40
1
40
1
41
1
10
133.152100371551
20
-5.15031164692013
30
0
41
1
10
132.825030958261
20
-5.15974616845207
30
0
41
1
10
132.497938440507
20
-5.16149990091998
30
0
41
1
10
131.843209187682
20
-5.14965981954404
30
0
41
1
10
131.515623784743
20
-5.13604874378061
30
0
41
1
10
130.534910980937
20
-5.07252257497385
30
0
41
1
10
129.882528665151
20
-4.99992622544738
30
0
41
1
10
128.902841381863
20
-4.84726273481991
30
0
41
1
10
128.576088594988
20
-4.78908158561177
30
0
41
1
10
127.921580296795
20
-4.65849443175409
30
0
41
1
10
127.593924528685
20
-4.58609729216397
30
0
41
1
10
126.613135587842
20
-4.34937011951865
30
0
41
1
10
125.960707773731
20
-4.16519588034828
30
0
41
1
10
124.980921339642
20
-3.85326250350661
30
0
41
1
10
124.654125604672
20
-3.74335122064372
30
0
41
1
10
123.999514551956
20
-3.51244200880106
30
0
41
1
10
123.671850441617
20
-3.39150809468006
30
0
41
1
10
122.691066608019
20
-3.01492153998143
30
0
41
1
10
122.038609882697
20
-2.74509960228767
30
0
41
1
10
121.058632921141
20
-2.31801827419486
30
0
41
1
10
120.731758031336
20
-2.17193590519409
30
0
41
1
10
120.077011174658
20
-1.87331435730653
30
0
41
1
10
119.749359415202
20
-1.72087566740601
30
0
41
1
10
118.768508475764
20
-1.25761904793359
30
0
41
1
10
118.116039482144
20
-0.940134295365624
30
0
41
1
10
117.135927496942
20
-0.45801964466861
30
0
41
1
10
116.809008869439
20
-0.296294044171901
30
0
41
1
10
116.154156994996
20
0.0280245946146351
30
0
41
1
10
115.826503415984
20
0.190460919210039
30
0
41
1
10
114.845585284082
20
0.675128419415699
30
0
41
1
10
114.19305600553
20
0.995487433539381
30
0
41
1
10
113.212834171037
20
1.4647986611499
30
0
41
1
10
112.885876929872
20
1.61940767969162
30
0
41
1
10
112.230938258786
20
1.92379673640823
30
0
41
1
10
111.903301041623
20
2.07338896973795
30
0
41
1
10
110.922374493144
20
2.51134725334279
30
0
41
1
10
110.269740940092
20
2.7894114092837
30
0
41
1
10
109.289414138462
20
3.17986791884462
30
0
41
1
10
108.962402351861
20
3.30557062898578
30
0
41
1
10
108.307355174975
20
3.54714563105318
30
0
41
1
10
107.97973585995
20
3.66283949719514
30
0
41
1
10
106.998735401123
20
3.99235712325424
30
0
41
1
10
106.346069410238
20
4.18913792484952
30
0
41
1
10
105.365611558073
20
4.44577090759168
30
0
41
1
10
105.038537244074
20
4.5248853064933
30
0
41
1
10
104.383389954918
20
4.6696765165361
30
0
41
1
10
104.055786968563
20
4.73520387182836
30
0
41
1
10
103.07474107028
20
4.91001734350027
30
0
41
1
10
102.422037445426
20
4.9978254223094
30
0
41
1
10
101.140721817608
20
5.11118844670014
30
0
41
1
10
100.511034026162
20
5.13904714582188
30
0
41
1
10
99.8829645405816
20
5.13859096276587
30
0
0
SPLINE
5
CC
100
AcDbEntity
8
1
62
256
6
ByLayer
370
18
48
1
60
0
100
AcDbSpline
70
4
71
3
72
52
73
48
40
0
40
0
40
0
40
0
40
0.001590000612852
40
0.001590000612852
40
0.0564177063651874
40
0.0564177063651874
40
0.111245412117522
40
0.111245412117522
40
0.166073117869858
40
0.166073117869858
40
0.220900823622193
40
0.220900823622193
40
0.275728529374528
40
0.275728529374528
40
0.330556235126863
40
0.330556235126863
40
0.385383940879198
40
0.385383940879198
40
0.440211646631533
40
0.440211646631533
40
0.495039352383869
40
0.495039352383869
40
0.549867058136204
40
0.549867058136204
40
0.604694763888539
40
0.604694763888539
40
0.659522469640874
40
0.659522469640874
40
0.686936322517041
40
0.686936322517041
40
0.714350175393208
40
0.714350175393208
40
0.769177881145542
40
0.769177881145542
40
0.79659173402171
40
0.79659173402171
40
0.824005586897878
40
0.824005586897878
40
0.878833292650211
40
0.878833292650211
40
0.906247145526378
40
0.906247145526378
40
0.933660998402544
40
0.933660998402544
40
0.988488704154878
40
0.988488704154878
40
1
40
1
40
1
40
1
41
1
10
70.4188582288638
20
-4.88184473182864
30
0
41
1
10
70.3998828819489
20
-4.88465249987851
30
0
41
1
10
70.3809066130755
20
-4.88743596930613
30
0
41
1
10
69.7075404075785
20
-4.98533759994751
30
0
41
1
10
69.0509162735042
20
-5.05146822265814
30
0
41
1
10
67.7422208588094
20
-5.12252394398155
30
0
41
1
10
67.0889641458197
20
-5.12771526972941
30
0
41
1
10
65.7799817503467
20
-5.07727497563235
30
0
41
1
10
65.1233281407864
20
-5.02138862783977
30
0
41
1
10
63.8145381730589
20
-4.85111534045762
30
0
41
1
10
63.1611986724744
20
-4.73675620183951
30
0
41
1
10
61.8521109445513
20
-4.45280508586205
30
0
41
1
10
61.1953277916229
20
-4.28294333302404
30
0
41
1
10
59.8865344217419
20
-3.89545776240146
30
0
41
1
10
59.233072338403
20
-3.67783355716156
30
0
41
1
10
57.9238233419545
20
-3.20057382038573
30
0
41
1
10
57.2670113840978
20
-2.94072538453762
30
0
41
1
10
55.9580792713045
20
-2.39101747472424
30
0
41
1
10
55.3046000829186
20
-2.10078635159275
30
0
41
1
10
53.9951415932304
20
-1.49776754363168
30
0
41
1
10
53.3382790073878
20
-1.18471187348686
30
0
41
1
10
52.029320160803
20
-0.550311954683224
30
0
41
1
10
51.3757905984676
20
-0.228523114691342
30
0
41
1
10
50.0661153673589
20
0.415019262123451
30
0
41
1
10
49.409215451382
20
0.737072753048437
30
0
41
1
10
48.1001904967444
20
1.36647990255247
30
0
41
1
10
47.4465547929151
20
1.67426519019557
30
0
41
1
10
46.4641646500728
20
2.11920359871371
30
0
41
1
10
46.1361126382333
20
2.26487451916393
30
0
41
1
10
45.4800370216728
20
2.54885154149642
30
0
41
1
10
45.1524947990269
20
2.68697362564964
30
0
41
1
10
44.1706082435788
20
3.08851711738549
30
0
41
1
10
43.5169041605917
20
3.33893535884516
30
0
41
1
10
42.5344005329045
20
3.68337932602208
30
0
41
1
10
42.2062685365739
20
3.79308695862178
30
0
41
1
10
41.5501626292851
20
4.00066965855081
30
0
41
1
10
41.2226133176628
20
4.09846285591343
30
0
41
1
10
40.2406941879624
20
4.37298970731794
30
0
41
1
10
39.5869277907006
20
4.53071505326932
30
0
41
1
10
38.6042957113558
20
4.72603361510431
30
0
41
1
10
38.2760946366702
20
4.78430574209295
30
0
41
1
10
37.6199756848418
20
4.88626280521226
30
0
41
1
10
37.2924079021311
20
4.92992785387409
30
0
41
1
10
36.3104135940964
20
5.03869627821291
30
0
41
1
10
35.6565919156358
20
5.08150745470655
30
0
41
1
10
34.8638400377364
20
5.09657283254239
30
0
41
1
10
34.726159710999
20
5.09784677440192
30
0
41
1
10
34.588425418278
20
5.09777918012017
30
0
0
SPLINE
5
CD
100
AcDbEntity
8
1
62
256
6
ByLayer
370
18
48
1
60
0
100
AcDbSpline
70
4
71
3
72
14
73
10
40
0
40
0
40
0
40
0
40
0.25
40
0.25
40
0.5
40
0.5
40
0.75
40
0.75
40
1
40
1
40
1
40
1
41
1
10
133.233434567489
20
-4.89652478069834
30
0
41
1
10
133.235766856809
20
-4.89591030371446
30
0
41
1
10
133.237395863155
20
-4.89715997876715
30
0
41
1
10
133.238786699087
20
-4.90450549351706
30
0
41
1
10
133.238471081778
20
-4.91062598351266
30
0
41
1
10
133.235349736111
20
-4.92777351941203
30
0
41
1
10
133.232477088997
20
-4.93897060430325
30
0
41
1
10
133.224782135904
20
-4.96365462100434
30
0
41
1
10
133.220001094975
20
-4.97706517514473
30
0
41
1
10
133.214938420578
20
-4.99000244069512
30
0
0
SPLINE
5
CE
100
AcDbEntity
8
1
62
256
6
ByLayer
370
13
48
1
60
0
100
AcDbSpline
70
4
71
3
72
26
73
22
40
0
40
0
40
0
40
0
40
0.0980571935075343
40
0.0980571935075343
40
0.188251474156781
40
0.188251474156781
40
0.278445754806027
40
0.278445754806027
40
0.368640035455274
40
0.368640035455274
40
0.45883431610452
40
0.45883431610452
40
0.639222877403013
40
0.639222877403013
40
0.72941715805226
40
0.72941715805226
40
0.774514298376883
40
0.774514298376883
40
0.819611438701507
40
0.819611438701507
40
1
40
1
40
1
40
1
41
1
10
7.5857493798955
20
-4.82323320380391
30
0
41
1
10
7.58575643985026
20
-4.82318066039454
30
0
41
1
10
7.58576327361223
20
-4.81243939113619
30
0
41
1
10
7.58577652170504
20
-4.7713130622241
30
0
41
1
10
7.58578294673879
20
-4.74228726901853
30
0
41
1
10
7.5857960509571
20
-4.66640614381325
30
0
41
1
10
7.58580273909425
20
-4.61961288738223
30
0
41
1
10
7.58581663968585
20
-4.50828404247312
30
0
41
1
10
7.58582384523169
20
-4.44375550038612
30
0
41
1
10
7.58583873876344
20
-4.29854820171448
30
0
41
1
10
7.58584644991009
20
-4.21768593705781
30
0
41
1
10
7.58587040382059
20
-3.95019344427482
30
0
41
1
10
7.58588708047756
20
-3.74375974864293
30
0
41
1
10
7.58591223069561
20
-3.39358183678786
30
0
41
1
10
7.58592062497269
20
-3.2700433256658
30
0
41
1
10
7.58593299818563
20
-3.0741917752386
30
0
41
1
10
7.58593708465637
20
-3.00713496007208
30
0
41
1
10
7.58594503661499
20
-2.8711127196828
30
0
41
1
10
7.58594891482861
20
-2.80195075059737
30
0
41
1
10
7.58596769600069
20
-2.4504838699863
30
0
41
1
10
7.58598083280228
20
-2.15139783450434
30
0
41
1
10
7.58599007114117
20
-1.83409623487719
30
0
0
SPLINE
5
CF
100
AcDbEntity
8
1
62
256
6
ByLayer
370
18
48
1
60
0
100
AcDbSpline
70
4
71
3
72
26
73
22
40
0
40
0
40
0
40
0
40
0.176812824841056
40
0.176812824841056
40
0.265219237261583
40
0.265219237261583
40
0.309422443471847
40
0.309422443471847
40
0.353625649682111
40
0.353625649682111
40
0.530438474523167
40
0.530438474523167
40
0.618844886943695
40
0.618844886943695
40
0.707251299364223
40
0.707251299364223
40
0.795657711784751
40
0.795657711784751
40
0.884064124205279
40
0.884064124205279
40
1
40
1
40
1
40
1
41
1
10
7.33537581504928
20
-1.72924827015106
30
0
41
1
10
7.3353758150493
20
-2.07215688556784
30
0
41
1
10
7.3353758150493
20
-2.39600839829538
30
0
41
1
10
7.3353758150493
20
-2.85294696139411
30
0
41
1
10
7.33537581504928
20
-3.00049518980344
30
0
41
1
10
7.3353758150493
20
-3.21445486107959
30
0
41
1
10
7.33537581504928
20
-3.28463327184741
30
0
41
1
10
7.33537581504928
20
-3.42085093017266
30
0
41
1
10
7.33537581504925
20
-3.48709862409754
30
0
41
1
10
7.33537581504925
20
-3.80919636155539
30
0
41
1
10
7.33537581504928
20
-4.03793387999801
30
0
41
1
10
7.3353758150493
20
-4.33700177652381
30
0
41
1
10
7.33537581504928
20
-4.4292842764466
30
0
41
1
10
7.33537581504928
20
-4.59533260448464
30
0
41
1
10
7.33537581504928
20
-4.66959588185682
30
0
41
1
10
7.33537581504928
20
-4.80043279652662
30
0
41
1
10
7.33537581504928
20
-4.85653672370324
30
0
41
1
10
7.33537581504928
20
-4.94980109640915
30
0
41
1
10
7.33537581504928
20
-4.98715881559471
30
0
41
1
10
7.33537581504928
20
-5.05071330850714
30
0
41
1
10
7.33537581504925
20
-5.07003396794772
30
0
41
1
10
7.33537581504925
20
-5.07285227013693
30
0
0
SPLINE
5
D0
100
AcDbEntity
8
1
62
256
6
ByLayer
370
18
48
1
60
0
100
AcDbSpline
70
4
71
3
72
8
73
4
40
0
40
0
40
0
40
0
40
1
40
1
40
1
40
1
41
1
10
133.335762945204
20
-5.01917793375708
30
0
41
1
10
133.264990849118
20
-5.08837753440957
30
0
41
1
10
133.203977406319
20
-5.13240784712323
30
0
41
1
10
133.152100371551
20
-5.15031164692013
30
0
0
SPLINE
5
D1
100
AcDbEntity
8
1
62
256
6
ByLayer
370
18
48
1
60
0
100
AcDbSpline
70
4
71
3
72
14
73
10
40
0
40
0
40
0
40
0
40
0.117271674615971
40
0.117271674615971
40
0.337953755961978
40
0.337953755961978
40
0.558635837307985
40
0.558635837307985
40
1
40
1
40
1
40
1
41
1
10
7.3353758150493
20
5.07315480529246
30
0
41
1
10
7.3353758150493
20
5.07269503797926
30
0
41
1
10
7.33537581504933
20
5.06953014835605
30
0
41
1
10
7.3353758150493
20
5.05265906144678
30
0
41
1
10
7.3353758150493
20
5.03193668941631
30
0
41
1
10
7.3353758150493
20
4.97092667020189
30
0
41
1
10
7.33537581504925
20
4.93104471847667
30
0
41
1
10
7.33537581504928
20
4.78416952178509
30
0
41
1
10
7.33537581504928
20
4.65025834582531
30
0
41
1
10
7.33537581504928
20
4.47895380519478
30
0
0
SPLINE
5
D2
100
AcDbEntity
8
1
62
256
6
ByLayer
370
18
48
1
60
0
100
AcDbSpline
70
4
71
3
72
8
73
4
40
0
40
0
40
0
40
0
40
1
40
1
40
1
40
1
41
1
10
134.999962691995
20
0.0393089313346024
30
0
41
1
10
135.000012435976
20
0.0131029900738042
30
0
41
1
10
135.000012435976
20
-0.0131029900739463
30
0
41
1
10
134.999962691995
20
-0.0393089313347161
30
0
0
SPLINE
5
D3
100
AcDbEntity
8
1
62
256
6
ByLayer
370
18
48
1
60
0
100
AcDbSpline
70
4
71
3
72
8
73
4
40
0
40
0
40
0
40
0
40
1
40
1
40
1
40
1
41
1
10
134.821975296682
20
1.22889087408845
30
0
41
1
10
134.880121103641
20
0.86800202574284
30
0
41
1
10
134.931752054683
20
0.507169946520889
30
0
41
1
10
134.976827519637
20
0.146394990465609
30
0
0
SPLINE
5
D4
100
AcDbEntity
8
1
62
256
6
ByLayer
370
18
48
1
60
0
100
AcDbSpline
70
4
71
3
72
108
73
104
40
0
40
0
40
0
40
0
40
0.0204292703714057
40
0.0204292703714057
40
0.0420247095317153
40
0.0420247095317153
40
0.0636201486920248
40
0.0636201486920248
40
0.0852155878523343
40
0.0852155878523343
40
0.106811027012644
40
0.106811027012644
40
0.128406466172953
40
0.128406466172953
40
0.150001905333263
40
0.150001905333263
40
0.171597344493572
40
0.171597344493572
40
0.193192783653882
40
0.193192783653882
40
0.214788222814191
40
0.214788222814191
40
0.236383661974501
40
0.236383661974501
40
0.257979101134811
40
0.257979101134811
40
0.27957454029512
40
0.27957454029512
40
0.30116997945543
40
0.30116997945543
40
0.322765418615739
40
0.322765418615739
40
0.333563138195895
40
0.333563138195895
40
0.344360857776051
40
0.344360857776051
40
0.36595629693636
40
0.36595629693636
40
0.38755173609667
40
0.38755173609667
40
0.409147175256979
40
0.409147175256979
40
0.419944894837133
40
0.419944894837133
40
0.430742614417287
40
0.430742614417287
40
0.452338053577593
40
0.452338053577593
40
0.4739334927379
40
0.4739334927379
40
0.484731212318054
40
0.484731212318054
40
0.495528931898208
40
0.495528931898208
40
0.517124371058516
40
0.517124371058516
40
0.538719810218824
40
0.538719810218824
40
0.560315249379131
40
0.560315249379131
40
0.58191068853944
40
0.58191068853944
40
0.603506127699747
40
0.603506127699747
40
0.625101566860055
40
0.625101566860055
40
0.646697006020363
40
0.646697006020363
40
0.668292445180671
40
0.668292445180671
40
0.689887884340979
40
0.689887884340979
40
0.711483323501287
40
0.711483323501287
40
0.733078762661595
40
0.733078762661595
40
0.754674201821903
40
0.754674201821903
40
0.776269640982211
40
0.776269640982211
40
0.797865080142519
40
0.797865080142519
40
0.819460519302827
40
0.819460519302827
40
0.841055958463135
40
0.841055958463135
40
0.85185367804329
40
0.85185367804329
40
0.862651397623444
40
0.862651397623444
40
0.884246836783754
40
0.884246836783754
40
0.905842275944063
40
0.905842275944063
40
0.927437715104373
40
0.927437715104373
40
0.949033154264682
40
0.949033154264682
40
0.970628593424992
40
0.970628593424992
40
0.992224032585301
40
0.992224032585301
40
1
40
1
40
1
40
1
41
1
10
120.367306540771
20
-2.73713111839564
30
0
41
1
10
120.075913491029
20
-2.85046504049868
30
0
41
1
10
119.784605189082
20
-2.9597978453566
30
0
41
1
10
119.185023459989
20
-3.17868883629362
30
0
41
1
10
118.876662216662
20
-3.28715695684437
30
0
41
1
10
118.260242248412
20
-3.49649633236058
30
0
41
1
10
117.951735916976
20
-3.59731045919693
30
0
41
1
10
117.334316826429
20
-3.78773369242495
30
0
41
1
10
117.025821506364
20
-3.87793052713403
30
0
41
1
10
116.409311421716
20
-4.04754565311848
30
0
41
1
10
116.101250528165
20
-4.12622370920784
30
0
41
1
10
115.485185402533
20
-4.27368591481721
30
0
41
1
10
115.177643820824
20
-4.34323571871556
30
0
41
1
10
114.561696856177
20
-4.46906783228638
30
0
41
1
10
114.253210960876
20
-4.52540578643527
30
0
41
1
10
113.635184721195
20
-4.62671918535204
30
0
41
1
10
113.326224022136
20
-4.6718849734612
30
0
41
1
10
112.709244314101
20
-4.7490681669893
30
0
41
1
10
112.401000895196
20
-4.78081018863006
30
0
41
1
10
111.785856070801
20
-4.83235629176099
30
0
41
1
10
111.478089265792
20
-4.85212782237613
30
0
41
1
10
110.861875840044
20
-4.87864979371975
30
0
41
1
10
110.553498563015
20
-4.88528454900219
30
0
41
1
10
109.935977736252
20
-4.88524545653576
30
0
41
1
10
109.626549446968
20
-4.87945622611204
30
0
41
1
10
109.009290269012
20
-4.85482393934035
30
0
41
1
10
108.701709333748
20
-4.83534437860809
30
0
41
1
10
108.085919162042
20
-4.78370979731747
30
0
41
1
10
107.777881195268
20
-4.75214032980287
30
0
41
1
10
107.161654004206
20
-4.67702866170123
30
0
41
1
10
106.853446953428
20
-4.63294117658717
30
0
41
1
10
106.390696985123
20
-4.55730468920117
30
0
41
1
10
106.236384233679
20
-4.53056500720515
30
0
41
1
10
105.927674811296
20
-4.47426974092087
30
0
41
1
10
105.773388360015
20
-4.44450040800581
30
0
41
1
10
105.310536890815
20
-4.3510361586433
30
0
41
1
10
105.002203137904
20
-4.28298452451867
30
0
41
1
10
104.385777866229
20
-4.13498256890955
30
0
41
1
10
104.077642103215
20
-4.05635528999454
30
0
41
1
10
103.461393691561
20
-3.88920384414649
30
0
41
1
10
103.153243227294
20
-3.80018015205101
30
0
41
1
10
102.691085603299
20
-3.65798444165534
30
0
41
1
10
102.537261928045
20
-3.60891381008966
30
0
41
1
10
102.229111515526
20
-3.50909024669429
30
0
41
1
10
102.074900464982
20
-3.45822165717726
30
0
41
1
10
101.611796084769
20
-3.30260819228232
30
0
41
1
10
101.302682756394
20
-3.19458958130679
30
0
41
1
10
100.68584550049
20
-2.9693669871483
30
0
41
1
10
100.377613780773
20
-2.85326933961889
30
0
41
1
10
99.9154770040888
20
-2.6741468245213
30
0
41
1
10
99.7614075989231
20
-2.61372016467954
30
0
41
1
10
99.4537513249639
20
-2.49021395161023
30
0
41
1
10
99.3000449735551
20
-2.42726446765013
30
0
41
1
10
98.8384508220336
20
-2.23618295127042
30
0
41
1
10
98.5302980442851
20
-2.10618497490984
30
0
41
1
10
97.9131550646289
20
-1.8419361573439
30
0
41
1
10
97.6038699197527
20
-1.70733907858522
30
0
41
1
10
96.9865061461713
20
-1.43332566869646
30
0
41
1
10
96.6780281266414
20
-1.29474283515512
30
0
41
1
10
96.0628049140915
20
-1.01218375074015
30
0
41
1
10
95.7551301093856
20
-0.870086081340389
30
0
41
1
10
95.1393693272384
20
-0.58431237007639
30
0
41
1
10
94.8313112496847
20
-0.440554867932804
30
0
41
1
10
94.2146454829062
20
-0.152513724041285
30
0
41
1
10
93.9059868605704
20
-0.008215197168056
30
0
41
1
10
93.2880321689745
20
0.281229156802027
30
0
41
1
10
92.9802646712267
20
0.426814820263843
30
0
41
1
10
92.3642552069944
20
0.714569418507153
30
0
41
1
10
92.0562125636775
20
0.857066402809153
30
0
41
1
10
91.4402199068707
20
1.13925653098019
30
0
41
1
10
91.1322690093447
20
1.27876064282702
30
0
41
1
10
90.5159295830952
20
1.55437315695056
30
0
41
1
10
90.2077137902627
20
1.69078932968546
30
0
41
1
10
89.591202179011
20
1.96029804700188
30
0
41
1
10
89.2822313895168
20
2.0921836505409
30
0
41
1
10
88.6651990361872
20
2.34923334098877
30
0
41
1
10
88.3569086325255
20
2.47469289725359
30
0
41
1
10
87.7406299556893
20
2.71831820421855
30
0
41
1
10
87.4325599472929
20
2.83633941065489
30
0
41
1
10
86.8166205812487
20
3.06577896564656
30
0
41
1
10
86.5091721544611
20
3.17790987256455
30
0
41
1
10
85.8925655687416
20
3.39151823906462
30
0
41
1
10
85.5834239473677
20
3.49354276161031
30
0
41
1
10
84.9656156865246
20
3.68821707826126
30
0
41
1
10
84.6570370335435
20
3.7808815835219
30
0
41
1
10
84.1945699625392
20
3.91210954518286
30
0
41
1
10
84.0404746103377
20
3.95452397820614
30
0
41
1
10
83.7325462099909
20
4.03686383008733
30
0
41
1
10
83.5788694517187
20
4.07698746300807
30
0
41
1
10
83.1172904575485
20
4.19275373547808
30
0
41
1
10
82.8092796150805
20
4.26457755738531
30
0
41
1
10
82.1926113026486
20
4.39648505705031
30
0
41
1
10
81.88399255145
20
4.45605987451893
30
0
41
1
10
81.2658198816227
20
4.56426157992902
30
0
41
1
10
80.9565478449233
20
4.61272705119663
30
0
41
1
10
80.3404906368836
20
4.69757707276537
30
0
41
1
10
80.0327693257281
20
4.73304146023756
30
0
41
1
10
79.4167766174682
20
4.79157832556271
30
0
41
1
10
79.1086467832044
20
4.81526083806972
30
0
41
1
10
78.4921536289561
20
4.84946524710153
30
0
41
1
10
78.1836977331564
20
4.85971511558955
30
0
41
1
10
77.7637982973
20
4.86479343531363
30
0
41
1
10
77.6526271874773
20
4.86541649021535
30
0
41
1
10
77.541468845103
20
4.86526457389866
30
0
0
SPLINE
5
D5
100
AcDbEntity
8
1
62
256
6
ByLayer
370
18
48
1
60
0
100
AcDbSpline
70
4
71
3
72
102
73
98
40
0
40
0
40
0
40
0
40
0.0075245346328384
40
0.0075245346328384
40
0.0291480506807789
40
0.0291480506807789
40
0.0507715667287194
40
0.0507715667287194
40
0.0615833247526895
40
0.0615833247526895
40
0.0723950827766599
40
0.0723950827766599
40
0.0940185988246001
40
0.0940185988246001
40
0.115642114872541
40
0.115642114872541
40
0.137265630920481
40
0.137265630920481
40
0.148077388944451
40
0.148077388944451
40
0.158889146968422
40
0.158889146968422
40
0.202136179064301
40
0.202136179064301
40
0.212947937088271
40
0.212947937088271
40
0.223759695112241
40
0.223759695112241
40
0.24538321116018
40
0.24538321116018
40
0.267006727208119
40
0.267006727208119
40
0.288630243256058
40
0.288630243256058
40
0.331877275351937
40
0.331877275351937
40
0.353500791399877
40
0.353500791399877
40
0.375124307447816
40
0.375124307447816
40
0.396747823495755
40
0.396747823495755
40
0.418371339543694
40
0.418371339543694
40
0.429183097567664
40
0.429183097567664
40
0.439994855591633
40
0.439994855591633
40
0.461618371639573
40
0.461618371639573
40
0.483241887687512
40
0.483241887687512
40
0.504865403735451
40
0.504865403735451
40
0.52648891978339
40
0.52648891978339
40
0.54811243583133
40
0.54811243583133
40
0.569735951879269
40
0.569735951879269
40
0.580547709903238
40
0.580547709903238
40
0.591359467927207
40
0.591359467927207
40
0.612982983975146
40
0.612982983975146
40
0.634606500023086
40
0.634606500023086
40
0.656230016071025
40
0.656230016071025
40
0.677853532118964
40
0.677853532118964
40
0.699477048166903
40
0.699477048166903
40
0.721100564214842
40
0.721100564214842
40
0.742724080262782
40
0.742724080262782
40
0.764347596310721
40
0.764347596310721
40
0.78597111235866
40
0.78597111235866
40
0.807594628406599
40
0.807594628406599
40
0.850841660502477
40
0.850841660502477
40
0.872465176550416
40
0.872465176550416
40
0.894088692598355
40
0.894088692598355
40
0.915712208646295
40
0.915712208646295
40
0.937335724694234
40
0.937335724694234
40
0.980582756790112
40
0.980582756790112
40
1
40
1
40
1
40
1
41
1
10
55.0742588276527
20
-2.71479965972088
30
0
41
1
10
54.9672042356064
20
-2.7563939796635
30
0
41
1
10
54.8601392449411
20
-2.7975171688864
30
0
41
1
10
54.4451383970634
20
-2.9546352755998
30
0
41
1
10
54.1369023048196
20
-3.06741492849926
30
0
41
1
10
53.5198243941061
20
-3.28483987188079
30
0
41
1
10
53.2106469856068
20
-3.38935072233045
30
0
41
1
10
52.7472049615923
20
-3.53861754444117
30
0
41
1
10
52.5928275325327
20
-3.58727184573584
30
0
41
1
10
52.2843194596477
20
-3.68244609971794
30
0
41
1
10
52.1303807887495
20
-3.72920272121684
30
0
41
1
10
51.6684914079923
20
-3.86522130180398
30
0
41
1
10
51.3605453721034
20
-3.95020054945962
30
0
41
1
10
50.7443097276323
20
-4.10940408508532
30
0
41
1
10
50.4360947521006
20
-4.18392389590997
30
0
41
1
10
49.819214600703
20
-4.32175489183302
30
0
41
1
10
49.5104785168194
20
-4.38475519691048
30
0
41
1
10
49.0470775163623
20
-4.47092707123093
30
0
41
1
10
48.8928135832628
20
-4.49846202770175
30
0
41
1
10
48.5842789578211
20
-4.55036333595322
30
0
41
1
10
48.4300486400147
20
-4.57482257875645
30
0
41
1
10
47.658998317444
20
-4.68916298820989
30
0
41
1
10
47.0427600573212
20
-4.75424035266298
30
0
41
1
10
46.2719806247322
20
-4.80610126546375
30
0
41
1
10
46.1177461603379
20
-4.81490408216291
30
0
41
1
10
45.8096213988784
20
-4.82924853214681
30
0
41
1
10
45.6556081491104
20
-4.83472830284413
30
0
41
1
10
45.1929029928193
20
-4.84624613579078
30
0
41
1
10
44.8835541458457
20
-4.84761743770051
30
0
41
1
10
44.265828553939
20
-4.83828397318555
30
0
41
1
10
43.9573278416607
20
-4.82703823768631
30
0
41
1
10
43.3406299111161
20
-4.79108895943679
30
0
41
1
10
43.0321882845561
20
-4.76733034238688
30
0
41
1
10
42.109008457054
20
-4.67647225107123
30
0
41
1
10
41.4918465793811
20
-4.58981559639247
30
0
41
1
10
40.5642680781401
20
-4.42614778796465
30
0
41
1
10
40.2554685147346
20
-4.36577328432472
30
0
41
1
10
39.6386828449229
20
-4.23248314549141
30
0
41
1
10
39.331083122538
20
-4.15992830233967
30
0
41
1
10
38.7151460899479
20
-4.00545275962315
30
0
41
1
10
38.4069581572476
20
-3.92310924505182
30
0
41
1
10
37.790133743229
20
-3.74709273309117
30
0
41
1
10
37.4814660799262
20
-3.65400484315902
30
0
41
1
10
37.0178657139421
20
-3.50810097987568
30
0
41
1
10
36.8631701853125
20
-3.45822340004466
30
0
41
1
10
36.5542099369663
20
-3.35604581163955
30
0
41
1
10
36.4000448530257
20
-3.303495045679
30
0
41
1
10
35.9377725371056
20
-3.14244480395016
30
0
41
1
10
35.6296818389695
20
-3.03095524702257
30
0
41
1
10
35.0132483269988
20
-2.80230572996098
30
0
41
1
10
34.7050572248139
20
-2.68434720417562
30
0
41
1
10
34.0884512578202
20
-2.44100359788524
30
0
41
1
10
33.7799490429335
20
-2.31562535191892
30
0
41
1
10
33.1627162202552
20
-2.05952250874475
30
0
41
1
10
32.8540617274046
20
-1.92723996891866
30
0
41
1
10
32.2366757944181
20
-1.65959868801195
30
0
41
1
10
31.9282408856788
20
-1.52365054944445
30
0
41
1
10
31.3115418304804
20
-1.24918424281231
30
0
41
1
10
31.0032901695136
20
-1.11052282763146
30
0
41
1
10
30.5409873003967
20
-0.900150305893163
30
0
41
1
10
30.3868862810718
20
-0.829612959852398
30
0
41
1
10
30.0788422495043
20
-0.687496960254379
30
0
41
1
10
29.9250235917534
20
-0.61568395059831
30
0
41
1
10
29.4628561291779
20
-0.400878517965197
30
0
41
1
10
29.1542491211216
20
-0.257550371013082
30
0
41
1
10
28.5358809884786
20
0.0296929156896795
30
0
41
1
10
28.2271086263215
20
0.173211140031981
30
0
41
1
10
27.6100043163122
20
0.458927734460957
30
0
41
1
10
27.3013876793808
20
0.600713407180763
30
0
41
1
10
26.6858879977597
20
0.885602325626706
30
0
41
1
10
26.3781527418641
20
1.02669542298244
30
0
41
1
10
25.7616898587328
20
1.30491553912114
30
0
41
1
10
25.4531257332978
20
1.44234067505875
30
0
41
1
10
24.8352949694983
20
1.71347025171696
30
0
41
1
10
24.5258231238
20
1.84662548934915
30
0
41
1
10
23.9082736845274
20
2.10787297384002
30
0
41
1
10
23.6003474983342
20
2.23707298991655
30
0
41
1
10
22.9841608433578
20
2.48787718158368
30
0
41
1
10
22.6759425418347
20
2.60962562182559
30
0
41
1
10
22.0592603009354
20
2.84586448703729
30
0
41
1
10
21.7508083284944
20
2.96036805716616
30
0
41
1
10
21.1332753997534
20
3.18134802693231
30
0
41
1
10
20.8239729700365
20
3.28765027683821
30
0
41
1
10
19.8977728503323
20
3.59428634537016
30
0
41
1
10
19.2806232971477
20
3.78004284733385
30
0
41
1
10
18.3550688561128
20
4.02796994736346
30
0
41
1
10
18.0464846227869
20
4.10541360064181
30
0
41
1
10
17.4292906683471
20
4.24969096950841
30
0
41
1
10
17.1211209178008
20
4.31692036959592
30
0
41
1
10
16.5027694083521
20
4.4368650427401
30
0
41
1
10
16.1933335360904
20
4.49113365485607
30
0
41
1
10
15.5757903107297
20
4.58828205662746
30
0
41
1
10
15.2674156666821
20
4.63073668574683
30
0
41
1
10
14.3430661540469
20
4.73970575329724
30
0
41
1
10
13.7290498703836
20
4.78911000324905
30
0
41
1
10
12.8369267481914
20
4.82128249149736
30
0
41
1
10
12.5601450212941
20
4.82627314007269
30
0
41
1
10
12.2829823969712
20
4.82615926765794
30
0
0
SPLINE
5
D6
100
AcDbEntity
8
1
62
256
6
ByLayer
370
18
48
1
60
0
100
AcDbSpline
70
4
71
3
72
18
73
14
40
0
40
0
40
0
40
0
40
0.249999999999998
40
0.249999999999998
40
0.375000000000001
40
0.375000000000001
40
0.500000000000004
40
0.500000000000004
40
0.750000000000003
40
0.750000000000003
40
0.875000000000002
40
0.875000000000002
40
1
40
1
40
1
40
1
41
1
10
133.161821294834
20
-4.89498603279307
30
0
41
1
10
133.056743957354
20
-4.88108002735001
30
0
41
1
10
132.959410212279
20
-4.84491188137395
30
0
41
1
10
132.826093790648
20
-4.75419372532801
30
0
41
1
10
132.783713379689
20
-4.71767497581013
30
0
41
1
10
132.705123492719
20
-4.63346737796275
30
0
41
1
10
132.668679542684
20
-4.58566103909502
30
0
41
1
10
132.5679551701
20
-4.42502539774796
30
0
41
1
10
132.512205706882
20
-4.29513252174675
30
0
41
1
10
132.447138536488
20
-4.06317555913776
30
0
41
1
10
132.428583342375
20
-3.97944922655449
30
0
41
1
10
132.398675493524
20
-3.80260793016683
30
0
41
1
10
132.387196378495
20
-3.70911844914059
30
0
41
1
10
132.379220230568
20
-3.61051906059674
30
0
0
SPLINE
5
D7
100
AcDbEntity
8
1
62
256
6
ByLayer
370
18
48
1
60
0
100
AcDbSpline
70
4
71
3
72
8
73
4
40
0
40
0
40
0
40
0
40
1
40
1
40
1
40
1
41
1
10
134.970523320435
20
-0.0314270784386963
30
0
41
1
10
134.930145552797
20
-0.106526029310032
30
0
41
1
10
134.889923785
20
-0.181764433976412
30
0
41
1
10
134.849858281484
20
-0.257142528754514
30
0
0
SPLINE
5
D8
100
AcDbEntity
8
1
62
256
6
ByLayer
370
18
48
1
60
0
100
AcDbSpline
70
4
71
3
72
8
73
4
40
0
40
0
40
0
40
0
40
1
40
1
40
1
40
1
41
1
10
133.161821294836
20
-4.89498603279293
30
0
41
1
10
133.17348653083
20
-4.89943125368873
30
0
41
1
10
133.185953642141
20
-4.90157153184185
30
0
41
1
10
133.19924056698
20
-4.90142867765886
30
0
0
SPLINE
5
D9
100
AcDbEntity
8
1
62
256
6
ByLayer
370
18
48
1
60
0
100
AcDbSpline
70
4
71
3
72
10
73
6
40
0
40
0
40
0
40
0
40
0.553709981065281
40
0.553709981065281
40
1
40
1
40
1
40
1
41
1
10
133.233434567489
20
-4.89652478069834
30
0
41
1
10
131.918158229799
20
-4.92380571658765
30
0
41
1
10
130.619182470683
20
-4.83213994941426
30
0
41
1
10
128.274037687463
20
-4.47104571844275
30
0
41
1
10
127.227589947927
20
-4.23922773173246
30
0
41
1
10
126.17282709964
20
-3.94416232240494
30
0
0
SPLINE
5
DA
100
AcDbEntity
8
1
62
256
6
ByLayer
370
13
48
1
60
0
100
AcDbSpline
70
4
71
3
72
24
73
20
40
0
40
0
40
0
40
0
40
0.0554128848571401
40
0.0554128848571401
40
0.126821017011011
40
0.126821017011011
40
0.198229149164882
40
0.198229149164882
40
0.341045413472624
40
0.341045413472624
40
0.626677942088107
40
0.626677942088107
40
0.698086074241981
40
0.698086074241981
40
0.769494206395854
40
0.769494206395854
40
0.912310470703601
40
0.912310470703601
40
1
40
1
40
1
40
1
41
1
10
126.172827894415
20
-3.9441625447397
30
0
41
1
10
125.91895104708
20
-3.87314158658785
30
0
41
1
10
125.664592468993
20
-3.7984564265569
30
0
41
1
10
125.081080033738
20
-3.61937844396834
30
0
41
1
10
124.750893181906
20
-3.51239813098098
30
0
41
1
10
124.093654862548
20
-3.28932016495349
30
0
41
1
10
123.76604822051
20
-3.17312039905292
30
0
41
1
10
122.785664970701
20
-2.81177341094005
30
0
41
1
10
122.13526643951
20
-2.55393227825795
30
0
41
1
10
120.187346770734
20
-1.74193483815776
30
0
41
1
10
118.893174026649
20
-1.1490940313318
30
0
41
1
10
117.260822798968
20
-0.385362345117812
30
0
41
1
10
116.933622055741
20
-0.231480250208904
30
0
41
1
10
116.277227473238
20
0.0773978224835616
30
0
41
1
10
115.947285457543
20
0.232715134408608
30
0
41
1
10
114.959717627753
20
0.695853731234337
30
0
41
1
10
114.305425793707
20
1.00039646957509
30
0
41
1
10
113.2524678498
20
1.47782201826476
30
0
41
1
10
112.852635032394
20
1.6561867732546
30
0
41
1
10
112.453065118911
20
1.83036313473627
30
0
0
SPLINE
5
DB
100
AcDbEntity
8
1
62
256
6
ByLayer
370
18
48
1
60
0
100
AcDbSpline
70
4
71
3
72
14
73
10
40
0
40
0
40
0
40
0
40
0.122450917013459
40
0.122450917013459
40
0.64574550522025
40
0.64574550522025
40
0.907392799323644
40
0.907392799323644
40
1
40
1
40
1
40
1
41
1
10
67.4453867834622
20
-4.86011856115042
30
0
41
1
10
67.1376411407956
20
-4.85961314555183
30
0
41
1
10
66.8306671185567
20
-4.85273950648423
30
0
41
1
10
65.2147805322637
20
-4.78323529597853
30
0
41
1
10
63.915630797596
20
-4.61166867735082
30
0
41
1
10
61.9580321271317
20
-4.19842047972998
30
0
41
1
10
61.3039461907024
20
-4.03468285445732
30
0
41
1
10
60.4136573177605
20
-3.78038416757639
30
0
41
1
10
60.1801328155314
20
-3.71075424899047
30
0
41
1
10
59.9466431329709
20
-3.6384038259759
30
0
0
SPLINE
5
DC
100
AcDbEntity
8
1
62
256
6
ByLayer
370
13
48
1
60
0
100
AcDbSpline
70
4
71
3
72
20
73
16
40
0
40
0
40
0
40
0
40
0.0219770670847464
40
0.0219770670847464
40
0.097209600385918
40
0.097209600385918
40
0.39813973359061
40
0.39813973359061
40
0.548604800192957
40
0.548604800192957
40
0.62383733349413
40
0.62383733349413
40
0.699069866795303
40
0.699069866795303
40
1
40
1
40
1
40
1
41
1
10
59.9466431322612
20
-3.63840382575594
30
0
41
1
10
59.8502883580569
20
-3.60854679482745
30
0
41
1
10
59.7539395135938
20
-3.57822646579405
30
0
41
1
10
59.3280492108441
20
-3.44219775158919
30
0
41
1
10
58.9994167623628
20
-3.33193457208068
30
0
41
1
10
57.360079539545
20
-2.7576941097295
30
0
41
1
10
56.0601121301477
20
-2.22582946836604
30
0
41
1
10
54.1034203616668
20
-1.3663816500754
30
0
41
1
10
53.4499768588896
20
-1.0697855638623
30
0
41
1
10
52.4651293811415
20
-0.615687232432975
30
0
41
1
10
52.1360463575623
20
-0.462824319968519
30
0
41
1
10
51.4757431756079
20
-0.155220415788449
30
0
41
1
10
51.1463204702886
20
-0.0013275422548986
30
0
41
1
10
49.5041858033836
20
0.764576395251765
30
0
41
1
10
48.203643001769
20
1.36697225535139
30
0
41
1
10
46.8999690276357
20
1.92470542403234
30
0
0
SPLINE
5
DD
100
AcDbEntity
8
1
62
256
6
ByLayer
370
18
48
1
60
0
100
AcDbSpline
70
4
71
3
72
8
73
4
40
0
40
0
40
0
40
0
40
1
40
1
40
1
40
1
41
1
10
133.335762945204
20
-5.01917793375705
30
0
41
1
10
133.83441463023
20
-3.75877546439466
30
0
41
1
10
134.333662961135
20
-2.49586165218236
30
0
41
1
10
134.821975296682
20
-1.22889087408848
30
0
0
SPLINE
5
DE
100
AcDbEntity
8
1
62
256
6
ByLayer
370
18
48
1
60
0
100
AcDbSpline
70
4
71
3
72
106
73
102
40
0
40
0
40
0
40
0
40
0.0065897652951551
40
0.0065897652951551
40
0.0287028946018181
40
0.0287028946018181
40
0.0397594592551491
40
0.0397594592551491
40
0.0508160239084802
40
0.0508160239084802
40
0.0729291532151431
40
0.0729291532151431
40
0.095042282521806
40
0.095042282521806
40
0.106098847175138
40
0.106098847175138
40
0.11715541182847
40
0.11715541182847
40
0.139268541135133
40
0.139268541135133
40
0.161381670441797
40
0.161381670441797
40
0.172438235095129
40
0.172438235095129
40
0.183494799748461
40
0.183494799748461
40
0.205607929055125
40
0.205607929055125
40
0.227721058361788
40
0.227721058361788
40
0.249834187668452
40
0.249834187668452
40
0.260890752321784
40
0.260890752321784
40
0.271947316975116
40
0.271947316975116
40
0.294060446281779
40
0.294060446281779
40
0.316173575588442
40
0.316173575588442
40
0.338286704895104
40
0.338286704895104
40
0.360399834201767
40
0.360399834201767
40
0.38251296350843
40
0.38251296350843
40
0.393569528161762
40
0.393569528161762
40
0.404626092815093
40
0.404626092815093
40
0.448852351428418
40
0.448852351428418
40
0.47096548073508
40
0.47096548073508
40
0.482022045388411
40
0.482022045388411
40
0.493078610041743
40
0.493078610041743
40
0.537304868655069
40
0.537304868655069
40
0.559417997961731
40
0.559417997961731
40
0.581531127268394
40
0.581531127268394
40
0.603644256575057
40
0.603644256575057
40
0.614700821228389
40
0.614700821228389
40
0.625757385881721
40
0.625757385881721
40
0.669983644495049
40
0.669983644495049
40
0.692096773801713
40
0.692096773801713
40
0.714209903108377
40
0.714209903108377
40
0.758436161721704
40
0.758436161721704
40
0.769492726375036
40
0.769492726375036
40
0.780549291028368
40
0.780549291028368
40
0.802662420335032
40
0.802662420335032
40
0.824775549641695
40
0.824775549641695
40
0.835832114295027
40
0.835832114295027
40
0.846888678948358
40
0.846888678948358
40
0.891114937561685
40
0.891114937561685
40
0.913228066868349
40
0.913228066868349
40
0.935341196175012
40
0.935341196175012
40
0.97956745478834
40
0.97956745478834
40
0.990624019441672
40
0.990624019441672
40
1
40
1
40
1
40
1
41
1
10
22.4374573627859
20
2.70560381447135
30
0
41
1
10
22.5325174521048
20
2.74476575179139
30
0
41
1
10
22.6276049900432
20
2.78361789321497
30
0
41
1
10
23.0418593411469
20
2.95156894359306
30
0
41
1
10
23.3613281955064
20
3.07735142063498
30
0
41
1
10
23.8383979162755
20
3.26054794749243
30
0
41
1
10
23.9969454266707
20
3.32104930532716
30
0
41
1
10
24.3144109813538
20
3.43882012690207
30
0
41
1
10
24.4732724177853
20
3.49619196652856
30
0
41
1
10
24.9502520627329
20
3.66386311560629
30
0
41
1
10
25.2687809683006
20
3.76972781313273
30
0
41
1
10
25.9058463393162
20
3.97132309137282
30
0
41
1
10
26.2244803562208
20
4.06690432173116
30
0
41
1
10
26.7024278422636
20
4.20245718637099
30
0
41
1
10
26.8618136620942
20
4.24635228144356
30
0
41
1
10
27.1799792607148
20
4.33169980948784
30
0
41
1
10
27.3388141746606
20
4.37291168054225
30
0
41
1
10
27.8159566237206
20
4.49077363752463
30
0
41
1
10
28.1344440283764
20
4.56221210641294
30
0
41
1
10
28.771411891918
20
4.6920939996287
30
0
41
1
10
29.0897719645503
20
4.75061760442017
30
0
41
1
10
29.5670984835377
20
4.82868771902531
30
0
41
1
10
29.7261746813773
20
4.85308913455498
30
0
41
1
10
30.0441198587055
20
4.89867053446036
30
0
41
1
10
30.2028450584568
20
4.9199237504028
30
0
41
1
10
30.6793445767574
20
4.97834329118041
30
0
41
1
10
30.9985114326315
20
5.00984354932746
30
0
41
1
10
31.6363589830812
20
5.05843149789555
30
0
41
1
10
31.9551239046469
20
5.07562183909053
30
0
41
1
10
32.5918391606907
20
5.095972204563
30
0
41
1
10
32.9099475380152
20
5.09912395185995
30
0
41
1
10
33.3860688688794
20
5.09296211165867
30
0
41
1
10
33.5444528762565
20
5.08905192394491
30
0
41
1
10
33.8620161495224
20
5.07765985158551
30
0
41
1
10
34.0210379930655
20
5.0701769062903
30
0
41
1
10
34.4988213453792
20
5.04249164537765
30
0
41
1
10
34.818603048671
20
5.01704378254081
30
0
41
1
10
35.4567276031368
20
4.95222927785574
30
0
41
1
10
35.7752951402572
20
4.91291464236943
30
0
41
1
10
36.4110720954901
20
4.8200498205743
30
0
41
1
10
36.7275758890309
20
4.76590868832861
30
0
41
1
10
37.362791594446
20
4.64561918259832
30
0
41
1
10
37.6812409012506
20
4.57943707758719
30
0
41
1
10
38.3188822450931
20
4.43453390676268
30
0
41
1
10
38.6383463985597
20
4.35562254033513
30
0
41
1
10
39.1166196036718
20
4.22788126309712
30
0
41
1
10
39.2758463678875
20
4.18373957326924
30
0
41
1
10
39.5937584182971
20
4.09211485510798
30
0
41
1
10
39.7522498243614
20
4.04438158187094
30
0
41
1
10
40.5454592771552
20
3.79985398416179
30
0
41
1
10
41.1825732810263
20
3.58629256237842
30
0
41
1
10
42.1382105970927
20
3.23479814141797
30
0
41
1
10
42.4572433748472
20
3.11259744313637
30
0
41
1
10
42.9342668192579
20
2.92050950413747
30
0
41
1
10
43.0929506311621
20
2.85511127742987
30
0
41
1
10
43.4108144131262
20
2.72355138242844
30
0
41
1
10
43.5698348218249
20
2.65712257156105
30
0
41
1
10
44.3653369707208
20
2.32176916392621
30
0
41
1
10
45.0023645475197
20
2.04225404682626
30
0
41
1
10
45.956133488179
20
1.60079660891725
30
0
41
1
10
46.2733677573437
20
1.44872737983613
30
0
41
1
10
46.9106408023446
20
1.14515171576178
30
0
41
1
10
47.2294802693767
20
0.993210607668885
30
0
41
1
10
47.8665503063787
20
0.687007776630054
30
0
41
1
10
48.1847764759186
20
0.532734663923549
30
0
41
1
10
48.661619715697
20
0.299489934540645
30
0
41
1
10
48.8204670880434
20
0.221399615864272
30
0
41
1
10
49.1378177780377
20
0.0642346798510971
30
0
41
1
10
49.296155645546
20
-0.0151810732660635
30
0
41
1
10
50.089764293742
20
-0.409023093134806
30
0
41
1
10
50.7300020298292
20
-0.718098517236285
30
0
41
1
10
51.6850788933615
20
-1.17599407140005
30
0
41
1
10
52.003089902442
20
-1.32723970244459
30
0
41
1
10
52.6366910904089
20
-1.63019161485434
30
0
41
1
10
52.9540870825239
20
-1.77833486549665
30
0
41
1
10
53.908821973399
20
-2.21158821679998
30
0
41
1
10
54.5488401524928
20
-2.48837890763477
30
0
41
1
10
55.3432387483985
20
-2.81955959541006
30
0
41
1
10
55.5016732196426
20
-2.8854189423804
30
0
41
1
10
55.8187436906832
20
-3.01448897277856
30
0
41
1
10
55.9774239422065
20
-3.07763643120438
30
0
41
1
10
56.4539087558513
20
-3.26299707193263
30
0
41
1
10
56.7722006834764
20
-3.38108682628984
30
0
41
1
10
57.4089668990169
20
-3.60817205342286
30
0
41
1
10
57.7275037783296
20
-3.7170555792205
30
0
41
1
10
58.2054452023964
20
-3.87336642583296
30
0
41
1
10
58.3648124151882
20
-3.92433799514706
30
0
41
1
10
58.6826937796311
20
-4.02391180505151
30
0
41
1
10
58.8412404880819
20
-4.07258238977749
30
0
41
1
10
59.6353269581395
20
-4.30625252125822
30
0
41
1
10
60.2722685799378
20
-4.46619787216474
30
0
41
1
10
61.2265010077445
20
-4.67066186123944
30
0
41
1
10
61.5444448628364
20
-4.7327638137275
30
0
41
1
10
62.1794752826944
20
-4.84466235500267
30
0
41
1
10
62.4982148680335
20
-4.89317791913584
30
0
41
1
10
63.453671387668
20
-5.01707773362037
30
0
41
1
10
64.0903810331348
20
-5.07183314389724
30
0
41
1
10
64.8837042305751
20
-5.10530426970976
30
0
41
1
10
65.0420262872266
20
-5.11023691545202
30
0
41
1
10
65.3352573897873
20
-5.11590245766601
30
0
41
1
10
65.4699995109233
20
-5.11718063035116
30
0
41
1
10
65.6049276961109
20
-5.117162453579
30
0
0
SPLINE
5
DF
100
AcDbEntity
8
1
62
256
6
ByLayer
370
18
48
1
60
0
100
AcDbSpline
70
4
71
3
72
110
73
106
40
0
40
0
40
0
40
0
40
0.0190245128227711
40
0.0190245128227711
40
0.0410946954365299
40
0.0410946954365299
40
0.0521297867434101
40
0.0521297867434101
40
0.0631648780502906
40
0.0631648780502906
40
0.0852350606640522
40
0.0852350606640522
40
0.107305243277814
40
0.107305243277814
40
0.129375425891576
40
0.129375425891576
40
0.151445608505338
40
0.151445608505338
40
0.1735157911191
40
0.1735157911191
40
0.195585973732861
40
0.195585973732861
40
0.206621065039742
40
0.206621065039742
40
0.217656156346622
40
0.217656156346622
40
0.239726338960382
40
0.239726338960382
40
0.261796521574143
40
0.261796521574143
40
0.272831612881022
40
0.272831612881022
40
0.283866704187901
40
0.283866704187901
40
0.30593688680166
40
0.30593688680166
40
0.328007069415419
40
0.328007069415419
40
0.350077252029177
40
0.350077252029177
40
0.394217617256694
40
0.394217617256694
40
0.416287799870451
40
0.416287799870451
40
0.427322891177331
40
0.427322891177331
40
0.438357982484209
40
0.438357982484209
40
0.460428165097966
40
0.460428165097966
40
0.482498347711723
40
0.482498347711723
40
0.493533439018601
40
0.493533439018601
40
0.504568530325479
40
0.504568530325479
40
0.526638712939234
40
0.526638712939234
40
0.548708895552989
40
0.548708895552989
40
0.559743986859866
40
0.559743986859866
40
0.570779078166744
40
0.570779078166744
40
0.592849260780497
40
0.592849260780497
40
0.614919443394251
40
0.614919443394251
40
0.636989626008004
40
0.636989626008004
40
0.64802471731488
40
0.64802471731488
40
0.659059808621756
40
0.659059808621756
40
0.681129991235508
40
0.681129991235508
40
0.703200173849259
40
0.703200173849259
40
0.725270356463011
40
0.725270356463011
40
0.747340539076763
40
0.747340539076763
40
0.769410721690515
40
0.769410721690515
40
0.78044581299739
40
0.78044581299739
40
0.791480904304265
40
0.791480904304265
40
0.835621269531763
40
0.835621269531763
40
0.857691452145512
40
0.857691452145512
40
0.868726543452386
40
0.868726543452386
40
0.87976163475926
40
0.87976163475926
40
0.923901999986755
40
0.923901999986755
40
0.945972182600502
40
0.945972182600502
40
0.968042365214249
40
0.968042365214249
40
0.990112547827996
40
0.990112547827996
40
1
40
1
40
1
40
1
41
1
10
87.7480767282414
20
2.73022097973507
30
0
41
1
10
88.0217740528595
20
2.84472462246973
30
0
41
1
10
88.2959772830076
20
2.95562840189447
30
0
41
1
10
88.8886524643657
20
3.18875414940121
30
0
41
1
10
89.2073012454862
20
3.30997710815427
30
0
41
1
10
89.6852206548181
20
3.48554446747491
30
0
41
1
10
89.8442971236205
20
3.54297522789247
30
0
41
1
10
90.1618430852263
20
3.65581659952986
30
0
41
1
10
90.3201482317808
20
3.71144772154401
30
0
41
1
10
90.7958236017997
20
3.87288433378939
30
0
41
1
10
91.1134855326783
20
3.97397891717569
30
0
41
1
10
91.749333338328
20
4.16434597865802
30
0
41
1
10
92.0673571253259
20
4.25381021320183
30
0
41
1
10
92.7033882216309
20
4.42144493114517
30
0
41
1
10
93.0215895211934
20
4.4994417536725
30
0
41
1
10
93.6566932722824
20
4.64483448083979
30
0
41
1
10
93.9743746667236
20
4.71025132749725
30
0
41
1
10
94.61036274798
20
4.82674080354124
30
0
41
1
10
94.9284726861594
20
4.8780396391133
30
0
41
1
10
95.5641704820025
20
4.96736263051707
30
0
41
1
10
95.8819273922124
20
5.00528611718536
30
0
41
1
10
96.3579431348229
20
5.05198253895702
30
0
41
1
10
96.5163133196932
20
5.06590570419942
30
0
41
1
10
96.833503136119
20
5.09001950646652
30
0
41
1
10
96.9923827240104
20
5.10020758292438
30
0
41
1
10
97.4698770661236
20
5.1252862585043
30
0
41
1
10
97.7887016438832
20
5.13468274632825
30
0
41
1
10
98.4251790080822
20
5.13932988581468
30
0
41
1
10
98.7430621542118
20
5.13455811612542
30
0
41
1
10
99.2192536999918
20
5.11659678646186
30
0
41
1
10
99.3778594268864
20
5.10880465700336
30
0
41
1
10
99.6946678613069
20
5.08948244592983
30
0
41
1
10
99.8527996818503
20
5.07791053244617
30
0
41
1
10
100.328438630667
20
5.03809592034847
30
0
41
1
10
100.646554228932
20
5.00465385688969
30
0
41
1
10
101.284122212713
20
4.92411733263432
30
0
41
1
10
101.603006759442
20
4.87696872291105
30
0
41
1
10
102.239072075308
20
4.76904876861164
30
0
41
1
10
102.556520594488
20
4.70826619910869
30
0
41
1
10
103.505810470675
20
4.50355314704095
30
0
41
1
10
104.142098271129
20
4.34418617158011
30
0
41
1
10
105.097863282693
20
4.0685333216357
30
0
41
1
10
105.416620286625
20
3.97068264422484
30
0
41
1
10
105.892654721538
20
3.81453128031234
30
0
41
1
10
106.050860063024
20
3.76059827935166
30
0
41
1
10
106.367688400725
20
3.6508326538183
30
0
41
1
10
106.526236917992
20
3.59490919547903
30
0
41
1
10
107.002293723788
20
3.42412991719021
30
0
41
1
10
107.320223106818
20
3.30630945969475
30
0
41
1
10
107.95612522592
20
3.06124614633654
30
0
41
1
10
108.274199186494
20
2.93414814227833
30
0
41
1
10
108.751332081496
20
2.73619787356705
30
0
41
1
10
108.910476322253
20
2.66896749725206
30
0
41
1
10
109.227900652573
20
2.53169959627715
30
0
41
1
10
109.38638935663
20
2.4620032201872
30
0
41
1
10
109.862497137613
20
2.25211749950509
30
0
41
1
10
110.180323808087
20
2.11037896403599
30
0
41
1
10
110.816021349423
20
1.82199863790484
30
0
41
1
10
111.133773066013
20
1.67512476976683
30
0
41
1
10
111.610227121998
20
1.45069083246949
30
0
41
1
10
111.769019214254
20
1.37519785069725
30
0
41
1
10
112.086410122348
20
1.22254543427485
30
0
41
1
10
112.244866500929
20
1.14510026575428
30
0
41
1
10
112.720573815081
20
0.911454254182644
30
0
41
1
10
113.039088852376
20
0.755520789763239
30
0
41
1
10
113.675503966743
20
0.444367719465418
30
0
41
1
10
113.993589770186
20
0.288640325994152
30
0
41
1
10
114.629010149907
20
-0.0241496581112415
30
0
41
1
10
114.946503445172
20
-0.180889778277674
30
0
41
1
10
115.421760744679
20
-0.417847782365044
30
0
41
1
10
115.579858278703
20
-0.497461663405971
30
0
41
1
10
115.896859772207
20
-0.655003028290281
30
0
41
1
10
116.055611981164
20
-0.73323870932353
30
0
41
1
10
116.532621155896
20
-0.966346134853694
30
0
41
1
10
116.851829217555
20
-1.11980228559247
30
0
41
1
10
117.488482291462
20
-1.42335825838589
30
0
41
1
10
117.806350194439
20
-1.57333742830841
30
0
41
1
10
118.440822861684
20
-1.87028118679601
30
0
41
1
10
118.756702252715
20
-2.01857437627578
30
0
41
1
10
119.390708028564
20
-2.30541882016715
30
0
41
1
10
119.708604355715
20
-2.44446397433913
30
0
41
1
10
120.34526613375
20
-2.71560855483676
30
0
41
1
10
120.664261073343
20
-2.84796396515836
30
0
41
1
10
121.141394323687
20
-3.0406193539562
30
0
41
1
10
121.300255337099
20
-3.10389424305893
30
0
41
1
10
121.617465016166
20
-3.22875243016105
30
0
41
1
10
121.775624149163
20
-3.29062676629977
30
0
41
1
10
122.567037054263
20
-3.59264897665659
30
0
41
1
10
123.202969315027
20
-3.81004783205756
30
0
41
1
10
124.157199006207
20
-4.10642306367495
30
0
41
1
10
124.475880368854
20
-4.20004566845614
30
0
41
1
10
124.951784441661
20
-4.3326343791241
30
0
41
1
10
125.11003818451
20
-4.37555821377975
30
0
41
1
10
125.427103524304
20
-4.45745415986428
30
0
41
1
10
125.585739892277
20
-4.49662915173369
30
0
41
1
10
126.379417523643
20
-4.68388544172737
30
0
41
1
10
127.015288245688
20
-4.80714867745846
30
0
41
1
10
127.967750917242
20
-4.95376925180301
30
0
41
1
10
128.284928669743
20
-4.99644603640266
30
0
41
1
10
128.919872518606
20
-5.06610478408086
30
0
41
1
10
129.237174310974
20
-5.09345988114285
30
0
41
1
10
129.870535122396
20
-5.13417808756984
30
0
41
1
10
130.186555551253
20
-5.14751904275039
30
0
41
1
10
130.643191823614
20
-5.15662218313179
30
0
41
1
10
130.784327312886
20
-5.15802323005124
30
0
41
1
10
130.925267805346
20
-5.1579855776321
30
0
0
SPLINE
5
E0
100
AcDbEntity
8
1
62
256
6
ByLayer
370
18
48
1
60
0
100
AcDbSpline
70
4
71
3
72
44
73
40
40
0
40
0
40
0
40
0
40
0.0312499999999979
40
0.0312499999999979
40
0.0624999999999959
40
0.0624999999999959
40
0.0937499999999938
40
0.0937499999999938
40
0.124999999999992
40
0.124999999999992
40
0.187499999999988
40
0.187499999999988
40
0.249999999999984
40
0.249999999999984
40
0.31249999999998
40
0.31249999999998
40
0.374999999999976
40
0.374999999999976
40
0.437499999999972
40
0.437499999999972
40
0.499999999999968
40
0.499999999999968
40
0.562499999999964
40
0.562499999999964
40
0.624999999999961
40
0.624999999999961
40
0.656249999999964
40
0.656249999999964
40
0.687499999999968
40
0.687499999999968
40
0.749999999999974
40
0.749999999999974
40
0.812499999999981
40
0.812499999999981
40
0.874999999999987
40
0.874999999999987
40
0.937499999999994
40
0.937499999999994
40
1
40
1
40
1
40
1
41
1
10
133.193493321028
20
-2.50531294954277
30
0
41
1
10
133.189199054928
20
-2.53542989985607
30
0
41
1
10
133.186312456401
20
-2.56421240378901
30
0
41
1
10
133.18324856243
20
-2.61920903559931
30
0
41
1
10
133.183095542836
20
-2.6455789649992
30
0
41
1
10
133.185418561725
20
-2.6942110260899
30
0
41
1
10
133.187867109663
20
-2.71666290411503
30
0
41
1
10
133.195155397033
20
-2.75810324732368
30
0
41
1
10
133.200038521338
20
-2.77716255322156
30
0
41
1
10
133.217694947604
20
-2.82803752484855
30
0
41
1
10
133.233603112712
20
-2.85429400057043
30
0
41
1
10
133.271855357172
20
-2.89235952792939
30
0
41
1
10
133.293842480983
20
-2.90396211906591
30
0
41
1
10
133.342878719141
20
-2.91402104397838
30
0
41
1
10
133.369658541285
20
-2.91229706411565
30
0
41
1
10
133.42611832332
20
-2.89663720535788
30
0
41
1
10
133.456290001234
20
-2.88251112431391
30
0
41
1
10
133.518319602532
20
-2.84283607041857
30
0
41
1
10
133.550076562442
20
-2.81747500794876
30
0
41
1
10
133.61510421568
20
-2.75548689101166
30
0
41
1
10
133.648568005363
20
-2.71856258161009
30
0
41
1
10
133.715043646115
20
-2.63437109217773
30
0
41
1
10
133.74797654396
20
-2.58725018177171
30
0
41
1
10
133.811580654367
20
-2.48430172780033
30
0
41
1
10
133.842908661884
20
-2.42727479165893
30
0
41
1
10
133.886070864011
20
-2.33737891044854
30
0
41
1
10
133.899851574437
20
-2.30666977451122
30
0
41
1
10
133.926092123141
20
-2.24363202648218
30
0
41
1
10
133.938646394641
20
-2.21100802500251
30
0
41
1
10
133.972883162169
20
-2.11374684369517
30
0
41
1
10
133.991609774037
20
-2.04875794020464
30
0
41
1
10
134.019249696635
20
-1.92081466852903
30
0
41
1
10
134.027484091054
20
-1.86107662557748
30
0
41
1
10
134.032995392247
20
-1.75097198049758
30
0
41
1
10
134.030141193577
20
-1.70306374587426
30
0
41
1
10
134.014746803548
20
-1.62102120271919
30
0
41
1
10
134.002508346625
20
-1.58820369144218
30
0
41
1
10
133.970322276839
20
-1.53654500290406
30
0
41
1
10
133.950928684886
20
-1.51861253666579
30
0
41
1
10
133.928738888294
20
-1.50737024017369
30
0
0
SPLINE
5
E1
100
AcDbEntity
8
1
62
256
6
ByLayer
370
18
48
1
60
0
100
AcDbSpline
70
4
71
3
72
8
73
4
40
0
40
0
40
0
40
0
40
1
40
1
40
1
40
1
41
1
10
133.335762945204
20
5.01917793375702
30
0
41
1
10
133.834392324445
20
3.75883184496328
30
0
41
1
10
134.333545831735
20
2.496165555066
30
0
41
1
10
134.821975296682
20
1.22889087408845
30
0
0
SPLINE
5
E2
100
AcDbEntity
8
1
62
256
6
ByLayer
370
18
48
1
60
0
100
AcDbSpline
70
4
71
3
72
16
73
12
40
0
40
0
40
0
40
0
40
0.0280989032640867
40
0.0280989032640867
40
0.165839494506688
40
0.165839494506688
40
0.303580085749289
40
0.303580085749289
40
0.854542450719682
40
0.854542450719682
40
1
40
1
40
1
40
1
41
1
10
100.138586895043
20
-4.88064599498213
30
0
41
1
10
100.071577935414
20
-4.88066938231577
30
0
41
1
10
100.004531064345
20
-4.88038774933298
30
0
41
1
10
99.6085834812409
20
-4.87691785812251
30
0
41
1
10
99.2781901296423
20
-4.86661373279972
30
0
41
1
10
98.6204106630871
20
-4.83159875223618
30
0
41
1
10
98.292481941931
20
-4.80685886773384
30
0
41
1
10
96.6561532458155
20
-4.64791852092554
30
0
41
1
10
95.3581169641528
20
-4.40793229750017
30
0
41
1
10
93.7105503168528
20
-3.98124640001819
30
0
41
1
10
93.3660686690754
20
-3.88533250056727
30
0
41
1
10
93.0209125637749
20
-3.78297797362345
30
0
0
SPLINE
5
E3
100
AcDbEntity
8
1
62
256
6
ByLayer
370
13
48
1
60
0
100
AcDbSpline
70
4
71
3
72
22
73
18
40
0
40
0
40
0
40
0
40
0.06994483321734
40
0.06994483321734
40
0.144040922105715
40
0.144040922105715
40
0.218137010994091
40
0.218137010994091
40
0.514521366547602
40
0.514521366547602
40
0.662713544324359
40
0.662713544324359
40
0.736809633212737
40
0.736809633212737
40
0.810905722101115
40
0.810905722101115
40
1
40
1
40
1
40
1
41
1
10
93.0209125636004
20
-3.78297797357169
30
0
41
1
10
92.7123795857822
20
-3.69148387421538
30
0
41
1
10
92.4033076850302
20
-3.59484341390331
30
0
41
1
10
91.7652525278065
20
-3.3857488585723
30
0
41
1
10
91.4357631962035
20
-3.27258522547311
30
0
41
1
10
90.7763045448382
20
-3.03645113966203
30
0
41
1
10
90.4476556402665
20
-2.91397180801502
30
0
41
1
10
88.8082175462914
20
-2.28258600471148
30
0
41
1
10
87.5091949348056
20
-1.71599821215867
30
0
41
1
10
85.5550598470383
20
-0.824216723347519
30
0
41
1
10
84.9027474171983
20
-0.51998268202874
30
0
41
1
10
83.9198154179401
20
-0.0597003284929087
30
0
41
1
10
83.5914218227198
20
0.0943750695295194
30
0
41
1
10
82.932608025439
20
0.4026634305377
30
0
41
1
10
82.6023705860708
20
0.556788513270988
30
0
41
1
10
81.4350629337963
20
1.09772926102656
30
0
41
1
10
80.6021888262776
20
1.47653014664158
30
0
41
1
10
79.7708603367523
20
1.83699243581722
30
0
0
SPLINE
5
E4
100
AcDbEntity
8
1
62
256
6
ByLayer
370
18
48
1
60
0
100
AcDbSpline
70
4
71
3
72
10
73
6
40
0
40
0
40
0
40
0
40
0.570968336537351
40
0.570968336537351
40
1
40
1
40
1
40
1
41
1
10
35.0233351480799
20
-4.8390853248207
30
0
41
1
10
33.733240274695
20
-4.850083890213
30
0
41
1
10
32.4586585087973
20
-4.74878892992103
30
0
41
1
10
30.2269863772662
20
-4.39147145443312
30
0
41
1
10
29.2697534242235
20
-4.18018113887177
30
0
41
1
10
28.3062703302779
20
-3.91685843521358
30
0
0
SPLINE
5
E5
100
AcDbEntity
8
1
62
256
6
ByLayer
370
13
48
1
60
0
100
AcDbSpline
70
4
71
3
72
24
73
20
40
0
40
0
40
0
40
0
40
0.0738515263300111
40
0.0738515263300111
40
0.143392590652333
40
0.143392590652333
40
0.212933654974656
40
0.212933654974656
40
0.352015783619302
40
0.352015783619302
40
0.630180040908592
40
0.630180040908592
40
0.699721105230914
40
0.699721105230914
40
0.769262169553237
40
0.769262169553237
40
0.908344298197881
40
0.908344298197881
40
1
40
1
40
1
40
1
41
1
10
28.306270325253
20
-3.91685843384028
30
0
41
1
10
27.9580066763249
20
-3.82167697579621
30
0
41
1
10
27.6089264113611
20
-3.71969719383071
30
0
41
1
10
26.9289611765949
20
-3.5090362721057
30
0
41
1
10
26.5982395604858
20
-3.40110435278896
30
0
41
1
10
25.9400537680999
20
-3.17639753523707
30
0
41
1
10
25.6118613834492
20
-3.05941191161253
30
0
41
1
10
24.6291313206985
20
-2.6961442893172
30
0
41
1
10
23.97659206524
20
-2.43737652891244
30
0
41
1
10
22.0205098527491
20
-1.62369693081106
30
0
41
1
10
20.7184641593053
20
-1.03118838692302
30
0
41
1
10
19.0736960670604
20
-0.269130577393327
30
0
41
1
10
18.7431790607636
20
-0.115441931969258
30
0
41
1
10
18.0831516937064
20
0.191183709251788
30
0
41
1
10
17.754127496329
20
0.343884387886447
30
0
41
1
10
16.7692909253742
20
0.798553134263642
30
0
41
1
10
16.1159326546228
20
1.09770538588103
30
0
41
1
10
15.0335606937792
20
1.57934385178544
30
0
41
1
10
14.604015233387
20
1.76681464247534
30
0
41
1
10
14.1743087699264
20
1.94929852305177
30
0
0
SPLINE
5
E6
100
AcDbEntity
8
SK1
62
256
6
ByLayer
370
18
48
1
60
0
100
AcDbSpline
70
4
71
3
72
10
73
6
40
0
40
0
40
0
40
0
40
0.5
40
0.5
40
1
40
1
40
1
40
1
41
1
10
-43.7
20
3.28299939574359
30
0
41
1
10
-43.9194066797618
20
3.13556009230081
30
0
41
1
10
-44.138045988393
20
2.98795700349996
30
0
41
1
10
-44.5722309834578
20
2.69211306300915
30
0
41
1
10
-44.7878870153227
20
2.5438931639622
30
0
41
1
10
-45
20
2.39493842256837
30
0
0
SPLINE
5
E7
100
AcDbEntity
8
SK1
62
256
6
ByLayer
370
18
48
1
60
0
100
AcDbSpline
70
4
71
3
72
14
73
10
40
0
40
0
40
0
40
0
40
0.125
40
0.125
40
0.25
40
0.25
40
0.5
40
0.5
40
1
40
1
40
1
40
1
41
1
10
-43.6
20
3.265430653724
30
0
41
1
10
-43.6
20
3.27448073628864
30
0
41
1
10
-43.6017220508865
20
3.2817155998153
30
0
41
1
10
-43.6068954324577
20
3.29271876438642
30
0
41
1
10
-43.610237321167
20
3.29652057242686
30
0
41
1
10
-43.6215324998379
20
3.305070903743
30
0
41
1
10
-43.6303471072619
20
3.30675352361007
30
0
41
1
10
-43.658490206513
20
3.30581754318931
30
0
41
1
10
-43.678793979422
20
3.29724964968389
30
0
41
1
10
-43.7
20
3.28299939574359
30
0
0
SPLINE
5
E8
100
AcDbEntity
8
SK1
62
256
6
ByLayer
370
18
48
1
60
0
100
AcDbSpline
70
4
71
3
72
10
73
6
40
0
40
0
40
0
40
0
40
0.5
40
0.5
40
1
40
1
40
1
40
1
41
1
10
-45
20
0.0811407578190426
30
0
41
1
10
-44.7879560509785
20
0.230047019445038
30
0
41
1
10
-44.5723064231521
20
0.378263757734999
30
0
41
1
10
-44.1380787819166
20
0.674137231523389
30
0
41
1
10
-43.9194191697905
20
0.821754034365227
30
0
41
1
10
-43.7
20
0.969201730994257
30
0
0
SPLINE
5
E9
100
AcDbEntity
8
SK1
62
256
6
ByLayer
370
18
48
1
60
0
100
AcDbSpline
70
4
71
3
72
14
73
10
40
0
40
0
40
0
40
0
40
0.500000000000003
40
0.500000000000003
40
0.750000000000003
40
0.750000000000003
40
0.875000000000002
40
0.875000000000002
40
1
40
1
40
1
40
1
41
1
10
-43.7
20
0.969201730994172
30
0
41
1
10
-43.6789021434844
20
0.983379299663369
30
0
41
1
10
-43.6585587767127
20
1.00310385144812
30
0
41
1
10
-43.6303722414292
20
1.04342812114601
30
0
41
1
10
-43.6214260646625
20
1.05867787320741
30
0
41
1
10
-43.6102968606991
20
1.08496418078084
30
0
41
1
10
-43.6069058574072
20
1.09446530362868
30
0
41
1
10
-43.6017309986994
20
1.11500496137367
30
0
41
1
10
-43.6
20
1.12603312580373
30
0
41
1
10
-43.6
20
1.13673680215462
30
0
0
LINE
5
76
100
AcDbEntity
8
81
62
256
6
ByLayer
370
18
48
1
60
0
100
AcDbLine
10
135
20
0
30
0
11
140
21
0
31
0
39
0
210
0
220
0
230
1
0
LINE
5
77
100
AcDbEntity
8
1
62
256
6
ByLayer
370
18
48
1
60
0
100
AcDbLine
10
7.335376
20
5.08075
30
0
11
0.350219
21
5.076384
31
0
39
0
210
0
220
0
230
1
0
LINE
5
79
100
AcDbEntity
8
1
62
256
6
ByLayer
370
18
48
1
60
0
100
AcDbLine
10
34.584875
20
5.097781
30
0
11
32.943154
21
5.096755
31
0
39
0
210
0
220
0
230
1
0
LINE
5
7A
100
AcDbEntity
8
1
62
256
6
ByLayer
370
18
48
1
60
0
100
AcDbLine
10
67.235861
20
5.118188
30
0
11
65.592584
21
5.117161
31
0
39
0
210
0
220
0
230
1
0
LINE
5
7B
100
AcDbEntity
8
1
62
256
6
ByLayer
370
18
48
1
60
0
100
AcDbLine
10
99.885786
20
5.138594
30
0
11
98.248332
21
5.137571
31
0
39
0
210
0
220
0
230
1
0
LINE
5
7C
100
AcDbEntity
8
1
62
256
6
ByLayer
370
18
48
1
60
0
100
AcDbLine
10
132.535908
20
5.159
30
0
11
130.906444
21
5.157982
31
0
39
0
210
0
220
0
230
1
0
LINE
5
7D
100
AcDbEntity
8
1
62
256
6
ByLayer
370
18
48
1
60
0
100
AcDbLine
10
130.906444
20
-5.157982
30
0
11
132.535854
21
-5.159
31
0
39
0
210
0
220
0
230
1
0
LINE
5
7E
100
AcDbEntity
8
1
62
256
6
ByLayer
370
18
48
1
60
0
100
AcDbLine
10
98.248332
20
-5.137571
30
0
11
99.885313
21
-5.138594
31
0
39
0
210
0
220
0
230
1
0
LINE
5
7F
100
AcDbEntity
8
1
62
256
6
ByLayer
370
18
48
1
60
0
100
AcDbLine
10
65.592584
20
-5.117161
30
0
11
67.235854
21
-5.118188
31
0
39
0
210
0
220
0
230
1
0
LINE
5
80
100
AcDbEntity
8
1
62
256
6
ByLayer
370
18
48
1
60
0
100
AcDbLine
10
32.943154
20
-5.096755
30
0
11
34.585331
21
-5.097781
31
0
39
0
210
0
220
0
230
1
0
LINE
5
81
100
AcDbEntity
8
1
62
256
6
ByLayer
370
18
48
1
60
0
100
AcDbLine
10
0.350219
20
-5.076384
30
0
11
7.335376
21
-5.08075
31
0
39
0
210
0
220
0
230
1
0
LINE
5
82
100
AcDbEntity
8
SK1
62
256
6
ByLayer
370
18
48
1
60
0
100
AcDbLine
10
-43.556624
20
6
30
0
11
-45
21
3.5
31
0
39
0
210
0
220
0
230
1
0
LINE
5
84
100
AcDbEntity
8
SK1
62
256
6
ByLayer
370
18
48
1
60
0
100
AcDbLine
10
-45
20
-3.5
30
0
11
-43.556624
21
-6
31
0
39
0
210
0
220
0
230
1
0
LINE
5
85
100
AcDbEntity
8
SK1
62
256
6
ByLayer
370
18
48
1
60
0
100
AcDbLine
10
0
20
6
30
0
11
-43.556624
21
6
31
0
39
0
210
0
220
0
230
1
0
LINE
5
86
100
AcDbEntity
8
SK1
62
256
6
ByLayer
370
18
48
1
60
0
100
AcDbLine
10
-43.556624
20
-6
30
0
11
0
21
-6
31
0
39
0
210
0
220
0
230
1
0
LINE
5
87
100
AcDbEntity
8
SK4
62
256
6
ByLayer
370
18
48
0.05
60
0
100
AcDbLine
10
140
20
0
30
0
11
-50
21
0
31
0
39
0
210
0
220
0
230
1
0
LINE
5
89
100
AcDbEntity
8
4
62
256
6
ByLayer
370
18
48
0.05
60
0
100
AcDbLine
10
135
20
0
30
0
11
0
21
0
31
0
39
0
210
0
220
0
230
1
0
LINE
5
8B
100
AcDbEntity
8
80
62
256
6
ByLayer
370
18
48
1
60
0
100
AcDbLine
10
0
20
0
30
0
11
-5
21
0
31
0
39
0
210
0
220
0
230
1
0
LINE
5
8C
100
AcDbEntity
8
1
62
256
6
ByLayer
370
13
48
1
60
0
100
AcDbLine
10
133.209497
20
1.265158
30
0
11
134.976828
21
0.146395
31
0
39
0
210
0
220
0
230
1
0
LINE
5
8D
100
AcDbEntity
8
1
62
256
6
ByLayer
370
13
48
1
60
0
100
AcDbLine
10
133.097896
20
1.153991
30
0
11
134.970523
21
-0.031427
31
0
39
0
210
0
220
0
230
1
0
LINE
5
8E
100
AcDbEntity
8
1
62
256
6
ByLayer
370
13
48
1
60
0
100
AcDbLine
10
0.350219
20
5.076384
30
0
11
0.350219
21
-5.076384
31
0
39
0
210
0
220
0
230
1
0
LINE
5
8F
100
AcDbEntity
8
1
62
256
6
ByLayer
370
18
48
1
60
0
100
AcDbLine
10
132.37922
20
-3.610519
30
0
11
133.193493
21
-2.505313
31
0
39
0
210
0
220
0
230
1
0
LINE
5
90
100
AcDbEntity
8
1
62
256
6
ByLayer
370
18
48
1
60
0
100
AcDbLine
10
133.928739
20
-1.50737
30
0
11
134.849858
21
-0.257143
31
0
39
0
210
0
220
0
230
1
0
LINE
5
91
100
AcDbEntity
8
SK1
62
256
6
ByLayer
370
18
48
1
60
0
100
AcDbLine
10
-45
20
3.5
30
0
11
-45
21
2.394938
31
0
39
0
210
0
220
0
230
1
0
LINE
5
92
100
AcDbEntity
8
SK1
62
256
6
ByLayer
370
18
48
1
60
0
100
AcDbLine
10
-45
20
2.394938
30
0
11
-45
21
0.081158
31
0
39
0
210
0
220
0
230
1
0
LINE
5
93
100
AcDbEntity
8
SK1
62
256
6
ByLayer
370
18
48
1
60
0
100
AcDbLine
10
-45
20
0.081141
30
0
11
-45
21
-3.5
31
0
39
0
210
0
220
0
230
1
0
LINE
5
94
100
AcDbEntity
8
SK1
62
256
6
ByLayer
370
13
48
1
60
0
100
AcDbLine
10
-43.7
20
3.282999
30
0
11
-43.7
21
0.969204
31
0
39
0
210
0
220
0
230
1
0
LINE
5
95
100
AcDbEntity
8
SK1
62
256
6
ByLayer
370
18
48
1
60
0
100
AcDbLine
10
-43.556624
20
6
30
0
11
-43.556624
21
-6
31
0
39
0
210
0
220
0
230
1
0
LINE
5
96
100
AcDbEntity
8
SK1
62
256
6
ByLayer
370
18
48
1
60
0
100
AcDbLine
10
-43.6
20
1.136737
30
0
11
-43.6
21
3.265431
31
0
39
0
210
0
220
0
230
1
0
LINE
5
97
100
AcDbEntity
8
SK1
62
256
6
ByLayer
370
18
48
1
60
0
100
AcDbLine
10
0
20
6
30
0
11
0
21
-6
31
0
39
0
210
0
220
0
230
1
0
MTEXT
5
EA
100
AcDbEntity
8
SK6
62
256
6
ByLayer
370
13
48
1
60
0
100
AcDbMText
10
47.129169
20
37.542194
30
0
210
0
220
0
230
1
1
\W0.7431;460.1-1032-077A1-XM GC34
40
3.5
41
0
44
1.084337
50
0
71
8
72
5
7
iso_b_vert
0
DIMENSION
5
F7
100
AcDbEntity
8
SK2
62
256
6
ByLayer
370
13
48
1
60
0
100
AcDbDimension
2
DimnDraft3D1
10
133.4678
20
-15.372898
30
0
11
65.217859
21
-15.372898
31
0
70
32
71
5
72
1
41
1
210
0
220
0
230
1
3
Standard
100
AcDbAlignedDimension
13
0
23
-1.5875
33
0
14
133.4678
24
-6.747
34
0
50
0
100
AcDbRotatedDimension
1001
ACAD
1000
DSTYLE
1002
{
1070
   279
1070
     0
1070
   172
1070
     1
1070
   173
1070
     1
1070
   340
1005
EB
1070
   271
1070
     2
1070
   272
1070
     2
1070
    77
1070
     1
1070
    73
1070
     0
1070
   171
1070
     3
1070
   274
1070
     4
1070
   177
1070
    35
1070
   176
1070
    35
1070
   178
1070
    35
1070
    48
1040
-0.005
1070
    41
1041
3.5
1070
   147
1041
1.75
1070
    42
1041
1.5875
1070
    44
1041
2.0
1070
   140
1041
3.5
1070
   343
1005
0
1070
   344
1005
0
1002
}
0
DIMENSION
5
101
100
AcDbEntity
8
SK2
62
256
6
ByLayer
370
13
48
1
60
0
100
AcDbDimension
2
DimnDraft3D2
10
135
20
-34.692985
30
0
11
44.8091
21
-34.692985
31
0
70
32
71
5
72
1
41
1
210
0
220
0
230
1
3
Standard
100
AcDbAlignedDimension
13
-45
23
-7.5875
33
0
14
135
24
-1.5875
34
0
50
0
100
AcDbRotatedDimension
1001
ACAD
1000
DSTYLE
1002
{
1070
   279
1070
     0
1070
   172
1070
     1
1070
   173
1070
     1
1070
   340
1005
EB
1070
   271
1070
     2
1070
   272
1070
     2
1070
    77
1070
     1
1070
    73
1070
     0
1070
   171
1070
     3
1070
   274
1070
     4
1070
   177
1070
    35
1070
   176
1070
    35
1070
   178
1070
    35
1070
    48
1040
-0.005
1070
    41
1041
3.5
1070
   147
1041
1.75
1070
    42
1041
1.5875
1070
    44
1041
2.0
1070
   140
1041
3.5
1070
   343
1005
0
1070
   344
1005
0
1002
}
0
DIMENSION
5
10B
100
AcDbEntity
8
SK2
62
256
6
ByLayer
370
13
48
1
60
0
100
AcDbDimension
2
DimnDraft3D3
10
135
20
16.768619
30
0
11
92.955
21
16.768619
31
0
70
32
71
5
72
1
41
1
210
0
220
0
230
1
3
Standard
100
AcDbAlignedDimension
13
50.91
23
6.747
33
0
14
135
24
1.5875
34
0
50
0
100
AcDbRotatedDimension
1001
ACAD
1000
DSTYLE
1002
{
1070
   279
1070
     0
1070
   172
1070
     1
1070
   173
1070
     1
1070
   340
1005
EB
1070
   271
1070
     2
1070
   272
1070
     2
1070
    77
1070
     1
1070
    73
1070
     0
1070
   171
1070
     3
1070
   274
1070
     4
1070
   177
1070
    35
1070
   176
1070
    35
1070
   178
1070
    35
1070
    48
1040
-0.005
1070
    41
1041
3.5
1070
   147
1041
1.75
1070
    42
1041
1.5875
1070
    44
1041
2.0
1070
   140
1041
3.5
1070
   343
1005
0
1070
   344
1005
0
1002
}
0
DIMENSION
5
115
100
AcDbEntity
8
SK2
62
256
6
ByLayer
370
13
48
1
60
0
100
AcDbDimension
2
DimnDraft3D4
10
133.4678
20
-17.962003
30
0
11
144.981425
21
-17.962003
31
0
70
32
71
5
72
1
41
1
210
0
220
0
230
1
3
Standard
100
AcDbAlignedDimension
13
135
23
-1.5875
33
0
14
133.4678
24
-6.747
34
0
50
0
100
AcDbRotatedDimension
1001
ACAD
1000
DSTYLE
1002
{
1070
   279
1070
     0
1070
   172
1070
     1
1070
   173
1070
     1
1070
   340
1005
EB
1070
   271
1070
     2
1070
   272
1070
     2
1070
    77
1070
     1
1070
    73
1070
     0
1070
   171
1070
     3
1070
   274
1070
     4
1070
   177
1070
    35
1070
   176
1070
    35
1070
   178
1070
    35
1070
    48
1040
-0.005
1070
    41
1041
3.5
1070
   147
1041
1.75
1070
    42
1041
1.5875
1070
    44
1041
2.0
1070
   140
1041
3.5
1070
   343
1005
0
1070
   344
1005
0
1002
}
0
DIMENSION
5
11F
100
AcDbEntity
8
SK2
62
256
6
ByLayer
370
13
48
1
60
0
100
AcDbDimension
2
DimnDraft3D5
10
133.4678
20
-24.343428
30
0
11
41.728476
21
-24.343428
31
0
70
32
71
5
72
1
41
1
210
0
220
0
230
1
3
Standard
100
AcDbAlignedDimension
13
-45
23
-7.5875
33
0
14
133.4678
24
-6.747
34
0
50
0
100
AcDbRotatedDimension
1001
ACAD
1000
DSTYLE
1002
{
1070
   279
1070
     0
1070
   172
1070
     1
1070
   173
1070
     1
1070
   340
1005
EB
1070
   271
1070
     2
1070
   272
1070
     2
1070
    77
1070
     1
1070
    73
1070
     0
1070
   171
1070
     3
1070
   274
1070
     4
1070
   177
1070
    35
1070
   176
1070
    35
1070
   178
1070
    35
1070
    48
1040
-0.005
1070
    41
1041
3.5
1070
   147
1041
1.75
1070
    42
1041
1.5875
1070
    44
1041
2.0
1070
   140
1041
3.5
1070
   343
1005
0
1070
   344
1005
0
1002
}
0
DIMENSION
5
12A
100
AcDbEntity
8
SK2
62
256
6
ByLayer
370
13
48
1
60
0
100
AcDbDimension
2
DimnDraft3D6
10
-55.625163
20
6
30
0
11
-56.250163
21
24.47418
31
0
70
33
71
5
72
1
41
1
210
0
220
0
230
1
3
Standard
100
AcDbAlignedDimension
13
-46.5875
23
-6
33
0
14
-46.5875
24
6
34
0
1001
ACAD
1000
DSTYLE
1002
{
1070
   279
1070
     0
1070
    74
1070
     0
1070
   173
1070
     1
1070
   340
1005
EB
1070
   271
1070
     3
1070
   272
1070
     2
1070
    77
1070
     1
1070
    73
1070
     0
1070
   171
1070
     3
1070
   274
1070
     4
1070
   177
1070
    35
1070
   176
1070
    35
1070
   178
1070
    35
1070
    48
1040
-0.005
1070
    41
1041
3.5
1070
   147
1041
1.75
1070
    42
1041
1.5875
1070
    44
1041
2.0
1070
   140
1041
3.5
1070
   343
1005
0
1070
   344
1005
0
1002
}
0
DIMENSION
5
135
100
AcDbEntity
8
2
62
256
6
ByLayer
370
13
48
1
60
0
100
AcDbDimension
2
DimnDraft3D7
10
149.083343
20
5.1595
30
0
11
144.458343
21
22.226766
31
0
70
33
71
5
72
1
41
1
210
0
220
0
230
1
3
Standard
100
AcDbAlignedDimension
13
135.0553
23
-5.1595
33
0
14
135.0553
24
5.1595
34
0
1001
ACAD
1000
DSTYLE
1002
{
1070
   279
1070
     0
1070
    74
1070
     0
1070
   173
1070
     1
1070
   340
1005
EB
1070
   271
1070
     3
1070
   272
1070
     2
1070
    77
1070
     1
1070
    73
1070
     0
1070
   171
1070
     3
1070
   274
1070
     4
1070
   177
1070
    35
1070
   176
1070
    35
1070
   178
1070
    35
1070
    48
1040
-0.005
1070
    41
1041
3.5
1070
   147
1041
1.75
1070
    42
1041
1.5875
1070
    44
1041
2.0
1070
   140
1041
3.5
1070
   343
1005
0
1070
   344
1005
0
1002
}
0
ENDSEC
0
SECTION
2
OBJECTS
0
DICTIONARY
5
1a0
330
0
100
AcDbDictionary
280
0
281
1
3
ACAD_GROUP
350
1a1
3
ACAD_MLINESTYLE
350
1a2
0
DICTIONARY
5
1a1
330
0
100
AcDbDictionary
280
0
281
1
0
DICTIONARY
5
1a2
330
0
100
AcDbDictionary
280
0
281
1
3
Standard
350
18
0
MLINESTYLE
5
18
330
1a2
100
AcDbMlineStyle
2
Standard
70
0
3

62
256
51
90
52
90
71
2
49
-0.5
62
256
6
ByLayer
49
0.5
62
256
6
ByLayer
0
RASTERVARIABLES
5
18e
330

100
AcDbRasterVariables
90
0
70
1
71
1
72
1
0
ENDSEC
0
EOF
