0
SECTION
2
HEADER
9
$ACADVER
1
AC1015
9
$DWGCODEPAGE
3
ANSI_1252
9
$HANDSEED
5
1a1
9
$ANGBASE
50
0
9
$ANGDIR
70
0
9
$ATTMODE
70
1
9
$AUNITS
70
0
9
$AUPREC
70
0
9
$CECOLOR
62
256
9
$CELTSCALE
40
1
9
$CELTYPE
6
ByLayer
9
$CELWEIGHT
370
18
9
$CLAYER
8
0
9
$CMLJUST
70
0
9
$CMLSCALE
40
1
9
$CMLSTYLE
2
Standard
9
$DIMSTYLE
2
Standard
9
$TEXTSIZE
40
0.2
9
$TEXTSTYLE
7
Standard
9
$LUNITS
70
2
9
$LUPREC
70
4
9
$EXTNAMES
290
1
9
$INSUNITS
70
4
9
$LTSCALE
40
1
9
$LWDISPLAY
290
1
9
$PDMODE
70
0
9
$PDSIZE
40
0
9
$PLINEGEN
70
0
0
ENDSEC
0
SECTION
2
CLASSES
0
CLASS
1
RASTERVARIABLES
2
AcDbRasterVariables
3
ISM
90
0
280
0
281
0
0
ENDSEC
0
SECTION
2
TABLES
0
TABLE
2
VPORT
5
197
100
AcDbSymbolTable
0
VPORT
5
1
100
AcDbSymbolTableRecord
100
AcDbViewportTableRecord
2
*Active
70
0
10
0
20
0
11
1
21
1
12
-1
22
1
13
0
23
0
14
0.5
24
0.5
15
10
25
10
16
0
26
0
36
1
17
0
27
0
37
0
0
ENDTAB
0
TABLE
2
LTYPE
5
198
100
AcDbSymbolTable
0
LTYPE
5
14
100
AcDbSymbolTableRecord
100
AcDbLinetypeTableRecord
70
0
2
ByBlock
3

72
65
73
0
40
0
0
LTYPE
5
15
100
AcDbSymbolTableRecord
100
AcDbLinetypeTableRecord
70
0
2
ByLayer
3

72
65
73
0
40
0
0
LTYPE
5
16
100
AcDbSymbolTableRecord
100
AcDbLinetypeTableRecord
70
0
2
CONTINUOUS
3
Solid line
72
65
73
0
40
0
0
LTYPE
5
6A
100
AcDbSymbolTableRecord
100
AcDbLinetypeTableRecord
70
0
2
CENTER
3
____ _ ____ _ ____ _ ____
72
65
73
4
40
47.5
49
22
74
0
49
-8.5
74
0
49
8.5
74
0
49
-8.5
74
0
0
LTYPE
5
6B
100
AcDbSymbolTableRecord
100
AcDbLinetypeTableRecord
70
0
2
DASHED
3
__ __ __ __ __ __ __ __ __
72
65
73
2
40
25.72
49
12.86
74
0
49
-12.86
74
0
0
ENDTAB
0
TABLE
2
LAYER
5
199
100
AcDbSymbolTable
0
LAYER
5
10
100
AcDbSymbolTableRecord
100
AcDbLayerTableRecord
2
0
70
0
62
7
6
CONTINUOUS
290
1
370
-3
390
0
0
LAYER
5
6D
100
AcDbSymbolTableRecord
100
AcDbLayerTableRecord
2
81
70
0
62
-3
6
CONTINUOUS
290
1
370
-3
390
0
0
LAYER
5
6F
100
AcDbSymbolTableRecord
100
AcDbLayerTableRecord
2
80
70
0
62
-6
6
CONTINUOUS
290
1
370
-3
390
0
0
LAYER
5
74
100
AcDbSymbolTableRecord
100
AcDbLayerTableRecord
2
2
70
0
62
7
6
CONTINUOUS
290
1
370
-3
390
0
0
LAYER
5
78
100
AcDbSymbolTableRecord
100
AcDbLayerTableRecord
2
1
70
0
62
4
6
CONTINUOUS
290
1
370
-3
390
0
0
LAYER
5
86
100
AcDbSymbolTableRecord
100
AcDbLayerTableRecord
2
4
70
0
62
-2
6
CENTER
290
1
370
-3
390
0
0
LAYER
5
183
100
AcDbSymbolTableRecord
100
AcDbLayerTableRecord
2
SK2
70
0
62
7
6
CONTINUOUS
290
1
370
-3
390
0
0
LAYER
5
184
100
AcDbSymbolTableRecord
100
AcDbLayerTableRecord
2
SK1
70
0
62
4
6
CONTINUOUS
290
1
370
-3
390
0
0
LAYER
5
185
100
AcDbSymbolTableRecord
100
AcDbLayerTableRecord
2
SK4
70
0
62
2
6
CENTER
290
1
370
-3
390
0
0
LAYER
5
186
100
AcDbSymbolTableRecord
100
AcDbLayerTableRecord
2
SK6
70
0
62
5
6
CONTINUOUS
290
1
370
-3
390
0
0
ENDTAB
0
TABLE
2
STYLE
5
19a
100
AcDbSymbolTable
0
STYLE
5
11
100
AcDbSymbolTableRecord
100
AcDbTextStyleTableRecord
2
Standard
3
txt
70
0
71
0
40
0
41
1
42
0
50
0
0
STYLE
5
DF
100
AcDbSymbolTableRecord
100
AcDbTextStyleTableRecord
2
iso_b_vert
3
simplex.shx
70
0
71
0
40
0
41
1
42
0
50
0
0
STYLE
5
E0
100
AcDbSymbolTableRecord
100
AcDbTextStyleTableRecord
2
DWGDirectTextStyle
3
simplex
70
0
71
0
40
0
41
1
42
0
50
0
0
ENDTAB
0
TABLE
2
DIMSTYLE
5
19b
100
AcDbSymbolTable
100
AcDbDimStyleTable
0
DIMSTYLE
105
27
100
AcDbSymbolTableRecord
100
AcDbDimStyleTableRecord
2
Standard
70
0
3
<>
41
0.18
42
0.0625
44
0.18
140
0.18
147
0.09
73
0
74
0
77
1
271
2
275
0
278
52
280
0
340
11
0
ENDTAB
0
TABLE
2
VIEW
5
19c
100
AcDbSymbolTable
0
ENDTAB
0
TABLE
2
UCS
5
19d
100
AcDbSymbolTable
0
ENDTAB
0
TABLE
2
APPID
5
19e
100
AcDbSymbolTable
0
APPID
5
12
100
AcDbSymbolTableRecord
100
AcDbRegAppTableRecord
2
ACAD
70
0
0
ENDTAB
0
TABLE
2
BLOCK_RECORD
5
19f
100
AcDbSymbolTable
0
BLOCK_RECORD
5
1F
100
AcDbSymbolTableRecord
100
AcDbBlockTableRecord
2
*Model_Space
340
0
70
0
0
BLOCK_RECORD
5
1B
100
AcDbSymbolTableRecord
100
AcDbBlockTableRecord
2
*Paper_Space
340
0
70
0
0
BLOCK_RECORD
5
23
100
AcDbSymbolTableRecord
100
AcDbBlockTableRecord
2
*Paper_Space0
340
0
70
0
0
BLOCK_RECORD
5
E2
100
AcDbSymbolTableRecord
100
AcDbBlockTableRecord
2
DimnDraft3D1
340
0
70
0
0
BLOCK_RECORD
5
EC
100
AcDbSymbolTableRecord
100
AcDbBlockTableRecord
2
DimnDraft3D2
340
0
70
0
0
BLOCK_RECORD
5
F6
100
AcDbSymbolTableRecord
100
AcDbBlockTableRecord
2
DimnDraft3D3
340
0
70
0
0
BLOCK_RECORD
5
100
100
AcDbSymbolTableRecord
100
AcDbBlockTableRecord
2
DimnDraft3D4
340
0
70
0
0
BLOCK_RECORD
5
10A
100
AcDbSymbolTableRecord
100
AcDbBlockTableRecord
2
DimnDraft3D5
340
0
70
0
0
BLOCK_RECORD
5
114
100
AcDbSymbolTableRecord
100
AcDbBlockTableRecord
2
DimnDraft3D6
340
0
70
0
0
BLOCK_RECORD
5
11F
100
AcDbSymbolTableRecord
100
AcDbBlockTableRecord
2
DimnDraft3D7
340
0
70
0
0
ENDTAB
0
ENDSEC
0
SECTION
2
BLOCKS
0
BLOCK
5
20
100
AcDbEntity
8
0
100
AcDbBlockBegin
2
*Model_Space
70
0
10
0
20
0
30
0
3
*Model_Space
0
ENDBLK
5
21
100
AcDbEntity
8
0
100
AcDbBlockEnd
0
BLOCK
5
1C
100
AcDbEntity
8
0
100
AcDbBlockBegin
2
*Paper_Space
70
0
10
0
20
0
30
0
3
*Paper_Space
0
ENDBLK
5
1D
100
AcDbEntity
8
0
100
AcDbBlockEnd
0
BLOCK
5
24
100
AcDbEntity
8
0
100
AcDbBlockBegin
2
*Paper_Space0
70
0
10
0
20
0
30
0
3
*Paper_Space0
0
ENDBLK
5
25
100
AcDbEntity
8
0
100
AcDbBlockEnd
0
BLOCK
5
E9
100
AcDbEntity
8
0
100
AcDbBlockBegin
2
DimnDraft3D1
70
0
10
0
20
0
30
0
3
DimnDraft3D1
0
MTEXT
5
E3
100
AcDbEntity
8
SK2
62
256
6
ByLayer
370
13
48
1
60
0
100
AcDbMText
10
30.031464
20
-14.469398
30
0
210
0
220
0
230
1
1
\W0.6977;71,48
40
3.5
41
0
44
1.084337
50
0
71
7
72
5
7
iso_b_vert
0
LINE
5
E4
100
AcDbEntity
8
SK2
62
256
6
ByLayer
370
13
48
1
60
0
100
AcDbLine
10
0
20
-1.5875
30
0
11
0
21
-17.344398
31
0
39
0
210
0
220
0
230
1
0
LINE
5
E5
100
AcDbEntity
8
SK2
62
256
6
ByLayer
370
13
48
1
60
0
100
AcDbLine
10
71.4768
20
-6.7185
30
0
11
71.4768
21
-17.344398
31
0
39
0
210
0
220
0
230
1
0
LINE
5
E6
100
AcDbEntity
8
SK2
62
256
6
ByLayer
370
13
48
1
60
0
100
AcDbLine
10
0
20
-15.344398
30
0
11
71.4768
21
-15.344398
31
0
39
0
210
0
220
0
230
1
0
SOLID
5
E7
100
AcDbEntity
8
SK2
62
256
6
ByLayer
370
13
48
1
60
0
100
AcDbTrace
10
0
20
-15.344398
30
0
11
3.499998
21
-14.883615
31
0
12
3.500002
22
-15.805182
32
0
13
0
23
-15.344398
33
0
39
0
210
0
220
0
230
1
0
SOLID
5
E8
100
AcDbEntity
8
SK2
62
256
6
ByLayer
370
13
48
1
60
0
100
AcDbTrace
10
71.4768
20
-15.344398
30
0
11
67.976802
21
-15.805182
31
0
12
67.976798
22
-14.883615
32
0
13
71.4768
23
-15.344398
33
0
39
0
210
0
220
0
230
1
0
ENDBLK
5
EA
100
AcDbEntity
8
0
100
AcDbBlockEnd
0
BLOCK
5
F3
100
AcDbEntity
8
0
100
AcDbBlockBegin
2
DimnDraft3D2
70
0
10
0
20
0
30
0
3
DimnDraft3D2
0
MTEXT
5
ED
100
AcDbEntity
8
SK2
62
256
6
ByLayer
370
13
48
1
60
0
100
AcDbMText
10
8.936521
20
-33.817985
30
0
210
0
220
0
230
1
1
\W0.6440;118,00
40
3.5
41
0
44
1.084337
50
0
71
7
72
5
7
iso_b_vert
0
LINE
5
EE
100
AcDbEntity
8
SK2
62
256
6
ByLayer
370
13
48
1
60
0
100
AcDbLine
10
-45
20
-7.5875
30
0
11
-45
21
-36.692985
31
0
39
0
210
0
220
0
230
1
0
LINE
5
EF
100
AcDbEntity
8
SK2
62
256
6
ByLayer
370
13
48
1
60
0
100
AcDbLine
10
73
20
-1.5875
30
0
11
73
21
-36.692985
31
0
39
0
210
0
220
0
230
1
0
LINE
5
F0
100
AcDbEntity
8
SK2
62
256
6
ByLayer
370
13
48
1
60
0
100
AcDbLine
10
-45
20
-34.692985
30
0
11
73
21
-34.692985
31
0
39
0
210
0
220
0
230
1
0
SOLID
5
F1
100
AcDbEntity
8
SK2
62
256
6
ByLayer
370
13
48
1
60
0
100
AcDbTrace
10
-45
20
-34.692985
30
0
11
-41.500002
21
-34.232202
31
0
12
-41.499998
22
-35.153769
32
0
13
-45
23
-34.692985
33
0
39
0
210
0
220
0
230
1
0
SOLID
5
F2
100
AcDbEntity
8
SK2
62
256
6
ByLayer
370
13
48
1
60
0
100
AcDbTrace
10
73
20
-34.692985
30
0
11
69.500002
21
-35.153769
31
0
12
69.499998
22
-34.232202
32
0
13
73
23
-34.692985
33
0
39
0
210
0
220
0
230
1
0
ENDBLK
5
F4
100
AcDbEntity
8
0
100
AcDbBlockEnd
0
BLOCK
5
FD
100
AcDbEntity
8
0
100
AcDbBlockBegin
2
DimnDraft3D3
70
0
10
0
20
0
30
0
3
DimnDraft3D3
0
MTEXT
5
F7
100
AcDbEntity
8
SK2
62
256
6
ByLayer
370
13
48
1
60
0
100
AcDbMText
10
42.141316
20
17.615119
30
0
210
0
220
0
230
1
1
\W0.7317;52,82
40
3.5
41
0
44
1.084337
50
0
71
7
72
5
7
iso_b_vert
0
LINE
5
F8
100
AcDbEntity
8
SK2
62
256
6
ByLayer
370
13
48
1
60
0
100
AcDbLine
10
20.18
20
6.7185
30
0
11
20.18
21
18.740119
31
0
39
0
210
0
220
0
230
1
0
LINE
5
F9
100
AcDbEntity
8
SK2
62
256
6
ByLayer
370
13
48
1
60
0
100
AcDbLine
10
73
20
1.5875
30
0
11
73
21
18.740119
31
0
39
0
210
0
220
0
230
1
0
LINE
5
FA
100
AcDbEntity
8
SK2
62
256
6
ByLayer
370
13
48
1
60
0
100
AcDbLine
10
20.18
20
16.740119
30
0
11
73
21
16.740119
31
0
39
0
210
0
220
0
230
1
0
SOLID
5
FB
100
AcDbEntity
8
SK2
62
256
6
ByLayer
370
13
48
1
60
0
100
AcDbTrace
10
20.18
20
16.740119
30
0
11
23.679998
21
17.200903
31
0
12
23.680002
22
16.279335
32
0
13
20.18
23
16.740119
33
0
39
0
210
0
220
0
230
1
0
SOLID
5
FC
100
AcDbEntity
8
SK2
62
256
6
ByLayer
370
13
48
1
60
0
100
AcDbTrace
10
73
20
16.740119
30
0
11
69.500002
21
16.279335
31
0
12
69.499998
22
17.200903
32
0
13
73
23
16.740119
33
0
39
0
210
0
220
0
230
1
0
ENDBLK
5
FE
100
AcDbEntity
8
0
100
AcDbBlockEnd
0
BLOCK
5
107
100
AcDbEntity
8
0
100
AcDbBlockBegin
2
DimnDraft3D4
70
0
10
0
20
0
30
0
3
DimnDraft3D4
0
MTEXT
5
101
100
AcDbEntity
8
SK2
62
256
6
ByLayer
370
13
48
1
60
0
100
AcDbMText
10
80.278136
20
-17.058503
30
0
210
0
220
0
230
1
1
\W0.6367;1,52
40
3.5
41
0
44
1.084337
50
0
71
7
72
5
7
iso_b_vert
0
LINE
5
102
100
AcDbEntity
8
SK2
62
256
6
ByLayer
370
13
48
1
60
0
100
AcDbLine
10
73
20
-1.5875
30
0
11
73
21
-19.933503
31
0
39
0
210
0
220
0
230
1
0
LINE
5
103
100
AcDbEntity
8
SK2
62
256
6
ByLayer
370
13
48
1
60
0
100
AcDbLine
10
71.4768
20
-6.7185
30
0
11
71.4768
21
-19.933503
31
0
39
0
210
0
220
0
230
1
0
LINE
5
104
100
AcDbEntity
8
SK2
62
256
6
ByLayer
370
13
48
1
60
0
100
AcDbLine
10
62.7268
20
-17.933503
30
0
11
86.559715
21
-17.933503
31
0
39
0
210
0
220
0
230
1
0
SOLID
5
105
100
AcDbEntity
8
SK2
62
256
6
ByLayer
370
13
48
1
60
0
100
AcDbTrace
10
73
20
-17.933503
30
0
11
76.499998
21
-17.472719
31
0
12
76.500002
22
-18.394287
32
0
13
73
23
-17.933503
33
0
39
0
210
0
220
0
230
1
0
SOLID
5
106
100
AcDbEntity
8
SK2
62
256
6
ByLayer
370
13
48
1
60
0
100
AcDbTrace
10
71.4768
20
-17.933503
30
0
11
67.976802
21
-18.394287
31
0
12
67.976798
22
-17.472719
32
0
13
71.4768
23
-17.933503
33
0
39
0
210
0
220
0
230
1
0
ENDBLK
5
108
100
AcDbEntity
8
0
100
AcDbBlockEnd
0
BLOCK
5
111
100
AcDbEntity
8
0
100
AcDbBlockBegin
2
DimnDraft3D5
70
0
10
0
20
0
30
0
3
DimnDraft3D5
0
MTEXT
5
10B
100
AcDbEntity
8
SK2
62
256
6
ByLayer
370
13
48
1
60
0
100
AcDbMText
10
5.671687
20
-23.468428
30
0
210
0
220
0
230
1
1
\W0.6654;116,48
40
3.5
41
0
44
1.084337
50
0
71
7
72
5
7
iso_b_vert
0
LINE
5
10C
100
AcDbEntity
8
SK2
62
256
6
ByLayer
370
13
48
1
60
0
100
AcDbLine
10
-45
20
-7.5875
30
0
11
-45
21
-26.343428
31
0
39
0
210
0
220
0
230
1
0
LINE
5
10D
100
AcDbEntity
8
SK2
62
256
6
ByLayer
370
13
48
1
60
0
100
AcDbLine
10
71.4768
20
-6.7185
30
0
11
71.4768
21
-26.343428
31
0
39
0
210
0
220
0
230
1
0
LINE
5
10E
100
AcDbEntity
8
SK2
62
256
6
ByLayer
370
13
48
1
60
0
100
AcDbLine
10
-45
20
-24.343428
30
0
11
71.4768
21
-24.343428
31
0
39
0
210
0
220
0
230
1
0
SOLID
5
10F
100
AcDbEntity
8
SK2
62
256
6
ByLayer
370
13
48
1
60
0
100
AcDbTrace
10
-45
20
-24.343428
30
0
11
-41.500002
21
-23.882645
31
0
12
-41.499998
22
-24.804212
32
0
13
-45
23
-24.343428
33
0
39
0
210
0
220
0
230
1
0
SOLID
5
110
100
AcDbEntity
8
SK2
62
256
6
ByLayer
370
13
48
1
60
0
100
AcDbTrace
10
71.4768
20
-24.343428
30
0
11
67.976802
21
-24.804212
31
0
12
67.976798
22
-23.882645
32
0
13
71.4768
23
-24.343428
33
0
39
0
210
0
220
0
230
1
0
ENDBLK
5
112
100
AcDbEntity
8
0
100
AcDbBlockEnd
0
BLOCK
5
11C
100
AcDbEntity
8
0
100
AcDbBlockBegin
2
DimnDraft3D6
70
0
10
0
20
0
30
0
3
DimnDraft3D6
0
MTEXT
5
115
100
AcDbEntity
8
SK2
62
256
6
ByLayer
370
13
48
1
60
0
100
AcDbMText
10
-55.375163
20
25.34918
30
0
210
0
220
0
230
1
1
\W0.6930;12,000
40
3.5
41
0
44
1.084337
50
90
71
7
72
5
7
iso_b_vert
0
MTEXT
5
116
100
AcDbEntity
8
SK2
62
256
6
ByLayer
370
13
48
1
60
0
100
AcDbMText
10
-55.375163
20
20.126524
30
0
210
0
220
0
230
1
1
%%c
40
3.5
41
0
44
1.084337
50
90
71
7
72
5
7
iso_b_vert
0
LINE
5
117
100
AcDbEntity
8
SK2
62
256
6
ByLayer
370
13
48
1
60
0
100
AcDbLine
10
-46.5875
20
-6
30
0
11
-55.625163
21
-6
31
0
39
0
210
0
220
0
230
1
0
LINE
5
118
100
AcDbEntity
8
SK2
62
256
6
ByLayer
370
13
48
1
60
0
100
AcDbLine
10
-46.5875
20
6
30
0
11
-55.625163
21
6
31
0
39
0
210
0
220
0
230
1
0
LINE
5
119
100
AcDbEntity
8
SK2
62
256
6
ByLayer
370
13
48
1
60
0
100
AcDbLine
10
-53.625163
20
-6
30
0
11
-53.625163
21
36.862338
31
0
39
0
210
0
220
0
230
1
0
SOLID
5
11A
100
AcDbEntity
8
SK2
62
256
6
ByLayer
370
13
48
1
60
0
100
AcDbTrace
10
-53.625163
20
-6
30
0
11
-54.085946
21
-2.500002
31
0
12
-53.164379
22
-2.499998
32
0
13
-53.625163
23
-6
33
0
39
0
210
0
220
0
230
1
0
SOLID
5
11B
100
AcDbEntity
8
SK2
62
256
6
ByLayer
370
13
48
1
60
0
100
AcDbTrace
10
-53.625163
20
6
30
0
11
-53.164379
21
2.500002
31
0
12
-54.085946
22
2.499998
32
0
13
-53.625163
23
6
33
0
39
0
210
0
220
0
230
1
0
ENDBLK
5
11D
100
AcDbEntity
8
0
100
AcDbBlockEnd
0
BLOCK
5
127
100
AcDbEntity
8
0
100
AcDbBlockBegin
2
DimnDraft3D7
70
0
10
0
20
0
30
0
3
DimnDraft3D7
0
MTEXT
5
120
100
AcDbEntity
8
2
62
256
6
ByLayer
370
13
48
1
60
0
100
AcDbMText
10
83.333343
20
23.073266
30
0
210
0
220
0
230
1
1
\W0.6930;10,262
40
3.5
41
0
44
1.084337
50
90
71
7
72
5
7
iso_b_vert
0
MTEXT
5
121
100
AcDbEntity
8
2
62
256
6
ByLayer
370
13
48
1
60
0
100
AcDbMText
10
83.333343
20
17.85061
30
0
210
0
220
0
230
1
1
%%c
40
3.5
41
0
44
1.084337
50
90
71
7
72
5
7
iso_b_vert
0
LINE
5
122
100
AcDbEntity
8
2
62
256
6
ByLayer
370
13
48
1
60
0
100
AcDbLine
10
73.0643
20
-5.131
30
0
11
87.083343
21
-5.131
31
0
39
0
210
0
220
0
230
1
0
LINE
5
123
100
AcDbEntity
8
2
62
256
6
ByLayer
370
13
48
1
60
0
100
AcDbLine
10
73.0643
20
5.131
30
0
11
87.083343
21
5.131
31
0
39
0
210
0
220
0
230
1
0
LINE
5
124
100
AcDbEntity
8
2
62
256
6
ByLayer
370
13
48
1
60
0
100
AcDbLine
10
85.083343
20
-5.131
30
0
11
85.083343
21
34.586424
31
0
39
0
210
0
220
0
230
1
0
SOLID
5
125
100
AcDbEntity
8
2
62
256
6
ByLayer
370
13
48
1
60
0
100
AcDbTrace
10
85.083343
20
-5.131
30
0
11
84.622559
21
-1.631002
31
0
12
85.544126
22
-1.630998
32
0
13
85.083343
23
-5.131
33
0
39
0
210
0
220
0
230
1
0
SOLID
5
126
100
AcDbEntity
8
2
62
256
6
ByLayer
370
13
48
1
60
0
100
AcDbTrace
10
85.083343
20
5.131
30
0
11
85.544126
21
1.631002
31
0
12
84.622559
22
1.630998
32
0
13
85.083343
23
5.131
33
0
39
0
210
0
220
0
230
1
0
ENDBLK
5
128
100
AcDbEntity
8
0
100
AcDbBlockEnd
0
ENDSEC
0
SECTION
2
ENTITIES
0
ARC
5
93
100
AcDbEntity
8
1
62
256
6
ByLayer
370
18
48
1
60
0
100
AcDbCircle
39
0
10
-0.35
20
5.436558
30
0
40
0.350000000000009
210
0
220
0
230
-1
100
AcDbArc
50
269.96419
51
0
0
ARC
5
94
100
AcDbEntity
8
1
62
256
6
ByLayer
370
18
48
1
60
0
100
AcDbCircle
39
0
10
-0.35
20
-5.436558
30
0
40
0.350000000000009
210
0
220
0
230
-1
100
AcDbArc
50
0
51
90.03581
0
ELLIPSE
5
95
100
AcDbEntity
8
1
62
256
6
ByLayer
370
13
48
1
60
0
100
AcDbEllipse
10
2.70717
20
-4.745735
30
0
11
0.0129114889123493
21
0.0991629641250517
31
0
210
0
220
0
230
1
40
0.41238
41
0.302843310767244
42
1.85760458546034
0
ELLIPSE
5
96
100
AcDbEntity
8
1
62
256
6
ByLayer
370
13
48
1
60
0
100
AcDbEllipse
10
2.642503
20
-4.751367
30
0
11
-0.0311283476276243
21
0.0950317103601412
31
0
210
0
220
0
230
1
40
0.48352
41
0.29044259718695
42
1.6602969190047
0
POINT
5
6C
100
AcDbEntity
8
81
62
256
6
ByLayer
370
18
48
1
60
0
100
AcDbPoint
10
73
20
0
30
0
39
0
210
0
220
0
230
1
50
360
0
POINT
5
6E
100
AcDbEntity
8
80
62
256
6
ByLayer
370
18
48
1
60
0
100
AcDbPoint
10
0
20
0
30
0
39
0
210
0
220
0
230
1
50
360
0
POINT
5
70
100
AcDbEntity
8
SK2
62
256
6
ByLayer
370
18
48
1
60
1
100
AcDbPoint
10
-45
20
-6
30
0
39
0
210
0
220
0
230
1
50
360
0
POINT
5
72
100
AcDbEntity
8
SK2
62
256
6
ByLayer
370
18
48
1
60
1
100
AcDbPoint
10
-45
20
6
30
0
39
0
210
0
220
0
230
1
50
360
0
POINT
5
73
100
AcDbEntity
8
2
62
256
6
ByLayer
370
18
48
1
60
1
100
AcDbPoint
10
71.4768
20
-5.131
30
0
39
0
210
0
220
0
230
1
50
360
0
POINT
5
75
100
AcDbEntity
8
2
62
256
6
ByLayer
370
18
48
1
60
1
100
AcDbPoint
10
71.4768
20
5.131
30
0
39
0
210
0
220
0
230
1
50
360
0
SPLINE
5
97
100
AcDbEntity
8
1
62
256
6
ByLayer
370
18
48
1
60
0
100
AcDbSpline
70
4
71
1
72
4
73
2
40
0
40
0
40
1
40
1
41
1
10
21.6556957503101
20
0.0028529878772474
30
0
41
1
10
21.6557050570472
20
0.0028470356791104
30
0
0
SPLINE
5
98
100
AcDbEntity
8
1
62
256
6
ByLayer
370
18
48
1
60
0
100
AcDbSpline
70
4
71
3
72
30
73
26
40
0
40
0
40
0
40
0
40
0.0512231564533491
40
0.0957965229796345
40
0.13550981786359
40
0.167550086101273
40
0.194035619671404
40
0.236415212251435
40
0.284344192504982
40
0.323902907987733
40
0.359850702058494
40
0.409774029922709
40
0.459366719629451
40
0.504378218999311
40
0.548612511881796
40
0.59588243578646
40
0.652025887696174
40
0.705506536608568
40
0.757566643590195
40
0.812019339640194
40
0.856139494322027
40
0.894440906353122
40
0.939758345408176
40
0.974695642541056
40
1
40
1
40
1
40
1
41
1
10
5.47105872729011
20
-4.83324914302725
30
0
41
1
10
5.7224428576564
20
-4.83185710544052
30
0
41
1
10
6.19586486542497
20
-4.83055653224693
30
0
41
1
10
6.89829665629745
20
-4.83061166620658
30
0
41
1
10
7.46882404457892
20
-4.83578085230567
30
0
41
1
10
7.96722480712259
20
-4.83540879172105
30
0
41
1
10
8.48204111036412
20
-4.83596778021723
30
0
41
1
10
9.07702952242863
20
-4.83680825689828
30
0
41
1
10
9.73904395795205
20
-4.83724608731376
30
0
41
1
10
10.3681728017999
20
-4.83746272102022
30
0
41
1
10
11.007472604784
20
-4.83828821517895
30
0
41
1
10
11.6979228195317
20
-4.83874726795779
30
0
41
1
10
12.4345707017628
20
-4.83856196208555
30
0
41
1
10
13.1422202204622
20
-4.83957451402151
30
0
41
1
10
13.8380337771366
20
-4.83998312034407
30
0
41
1
10
14.5905843333799
20
-4.83978621262008
30
0
41
1
10
15.390265659919
20
-4.84127455669588
30
0
41
1
10
16.2143629328394
20
-4.84114699060481
30
0
41
1
10
17.0298367820448
20
-4.8414686764967
30
0
41
1
10
17.7976204520249
20
-4.84287396163271
30
0
41
1
10
18.4952059121167
20
-4.84262057151074
30
0
41
1
10
19.1464725054873
20
-4.84446634926604
30
0
41
1
10
19.7492486027487
20
-4.84448339705958
30
0
41
1
10
20.287950483214
20
-4.84352451793234
30
0
41
1
10
20.5938644688563
20
-4.84390065308875
30
0
41
1
10
20.722248981691
20
-4.84413473862037
30
0
0
SPLINE
5
99
100
AcDbEntity
8
1
62
256
6
ByLayer
370
18
48
1
60
0
100
AcDbSpline
70
4
71
1
72
4
73
2
40
0
40
0
40
1
40
1
41
1
10
70.8445002085969
20
-4.87402017066211
30
0
41
1
10
71.2075609879943
20
-4.87333340147794
30
0
0
SPLINE
5
9A
100
AcDbEntity
8
1
62
256
6
ByLayer
370
18
48
1
60
0
100
AcDbSpline
70
4
71
3
72
25
73
21
40
0
40
0
40
0
40
0
40
0.0041691855278546
40
0.0516492553477031
40
0.103280529426102
40
0.149682991838291
40
0.19230203661252
40
0.227705992512736
40
0.275798872673364
40
0.329845102244122
40
0.372185951178411
40
0.41141995265065
40
0.481666114474954
40
0.554267662107911
40
0.624437320369989
40
0.699086542918432
40
0.784378043073518
40
0.863156489489541
40
0.935747946270522
40
1
40
1
40
1
40
1
41
1
10
53.3140611043728
20
4.862851207983
30
0
41
1
10
53.2971542662706
20
4.86285901419467
30
0
41
1
10
53.0877067006958
20
4.8629345639952
30
0
41
1
10
52.6688792179947
20
4.86196065450051
30
0
41
1
10
52.0787956982743
20
4.86093880903155
30
0
41
1
10
51.5084005906118
20
4.86112573345966
30
0
41
1
10
51.0042717019064
20
4.86126856607052
30
0
41
1
10
50.4937370233293
20
4.86013512053441
30
0
41
1
10
49.9355959573268
20
4.85965413958485
30
0
41
1
10
49.3505325266008
20
4.86025338605918
30
0
41
1
10
48.8005393600719
20
4.86028503748321
30
0
41
1
10
48.1848778253454
20
4.85836793210112
30
0
41
1
10
47.4464916673744
20
4.8592573492937
30
0
41
1
10
46.5826609890924
20
4.85897334131943
30
0
41
1
10
45.7009753946026
20
4.85732163305346
30
0
41
1
10
44.7678218264399
20
4.85847571140121
30
0
41
1
10
43.7997896463909
20
4.85630004024736
30
0
41
1
10
42.840066919718
20
4.85709151609097
30
0
41
1
10
41.9656795133441
20
4.85576710333444
30
0
41
1
10
41.4107365267632
20
4.85569416962926
30
0
41
1
10
41.1501927939684
20
4.85561731629915
30
0
0
SPLINE
5
9B
100
AcDbEntity
8
1
62
256
6
ByLayer
370
18
48
1
60
0
100
AcDbSpline
70
4
71
3
72
30
73
26
40
0
40
0
40
0
40
0
40
0.0619853518226719
40
0.114484059026245
40
0.15357220065405
40
0.185255609424199
40
0.211597451589143
40
0.253448445321429
40
0.303022420664048
40
0.346938717672279
40
0.392634219213821
40
0.444755804860887
40
0.489287163998873
40
0.526253208132423
40
0.574278539153178
40
0.613543308027755
40
0.64601104407942
40
0.681879675370627
40
0.731572880949994
40
0.781730275498805
40
0.826751995659488
40
0.862339466084677
40
0.921700498962684
40
0.991361157037291
40
1
40
1
40
1
40
1
41
1
10
38.2099935783579
20
-4.85370227997262
30
0
41
1
10
38.5222683350283
20
-4.85382980961373
30
0
41
1
10
39.0987615487789
20
-4.85416564186824
30
0
41
1
10
39.8758936785648
20
-4.85450674855073
30
0
41
1
10
40.4930203477333
20
-4.8554412368853
30
0
41
1
10
40.9830864422182
20
-4.85533500695084
30
0
41
1
10
41.4865624016961
20
-4.85568772552358
30
0
41
1
10
42.0807450150303
20
-4.85598251940385
30
0
41
1
10
42.7637559828787
20
-4.85687818468367
30
0
41
1
10
43.4661276188255
20
-4.85673718717473
30
0
41
1
10
44.1813674173419
20
-4.85701461187671
30
0
41
1
10
44.8997056806446
20
-4.85826205917459
30
0
41
1
10
45.5739945846885
20
-4.85776171673939
30
0
41
1
10
46.2276109348949
20
-4.8578029784922
30
0
41
1
10
46.8546501516199
20
-4.85936787267588
30
0
41
1
10
47.4589866568136
20
-4.85911624580677
30
0
41
1
10
48.0019811698701
20
-4.85841991818376
30
0
41
1
10
48.5975990008014
20
-4.85972169773967
30
0
41
1
10
49.2824865583572
20
-4.86049571249134
30
0
41
1
10
50.0135612906318
20
-4.85963146890702
30
0
41
1
10
50.6734512344374
20
-4.86090067604817
30
0
41
1
10
51.3798013383378
20
-4.86136703080271
30
0
41
1
10
52.210403787334
20
-4.86053194372658
30
0
41
1
10
52.9053260312156
20
-4.86298112695613
30
0
41
1
10
53.3002117167385
20
-4.86283486357129
30
0
41
1
10
53.3437779174049
20
-4.86281503684543
30
0
0
SPLINE
5
9C
100
AcDbEntity
8
1
62
256
6
ByLayer
370
18
48
1
60
0
100
AcDbSpline
70
4
71
3
72
26
73
22
40
0
40
0
40
0
40
0
40
0.0171519110130468
40
0.0711244865437947
40
0.129383864624225
40
0.187469184307474
40
0.235468264170174
40
0.28653610029137
40
0.350764374239376
40
0.409441596908213
40
0.465001736626133
40
0.542551213376388
40
0.606277477207418
40
0.668566648505611
40
0.746744100964328
40
0.805298820711165
40
0.846357338515734
40
0.894995068052962
40
0.939544285525807
40
0.97724948273424
40
1
40
1
40
1
40
1
41
1
10
20.6825146878453
20
4.84427556979
30
0
41
1
10
20.6136185480394
20
4.84416751166839
30
0
41
1
10
20.3279250203871
20
4.84379749503677
30
0
41
1
10
19.8082363656881
20
4.84466660004864
30
0
41
1
10
19.1241001346616
20
4.84442457533925
30
0
41
1
10
18.4639503693992
20
4.84264140840955
30
0
41
1
10
17.832688710668
20
4.84279225254005
30
0
41
1
10
17.1767520104588
20
4.84183842221486
30
0
41
1
10
16.4779249536134
20
4.84100610640266
30
0
41
1
10
15.7610487760804
20
4.84144608412294
30
0
41
1
10
14.9906634307966
20
4.84046885603235
30
0
41
1
10
14.2000007292369
20
4.83975724958938
30
0
41
1
10
13.3823030835142
20
4.83994418933048
30
0
41
1
10
12.5620864053046
20
4.83860879212656
30
0
41
1
10
11.7626374971656
20
4.83875316696722
30
0
41
1
10
11.0484813978111
20
4.83833921185601
30
0
41
1
10
10.4529749285257
20
4.83755438790567
30
0
41
1
10
9.91373294536294
20
4.83726492368828
30
0
41
1
10
9.38795029247498
20
4.8370919304663
30
0
41
1
10
8.96617200216457
20
4.83660054157014
30
0
41
1
10
8.72332094990074
20
4.83627328677218
30
0
41
1
10
8.63193745286102
20
4.83616589823294
30
0
0
SPLINE
5
9D
100
AcDbEntity
8
SK1
62
256
6
ByLayer
370
18
48
1
60
0
100
AcDbSpline
70
4
71
3
72
14
73
10
40
0
40
0
40
0
40
0
40
0.125000000000001
40
0.125000000000001
40
0.250000000000001
40
0.250000000000001
40
0.500000000000004
40
0.500000000000004
40
1
40
1
40
1
40
1
41
1
10
-43.6
20
5.14984422126318
30
0
41
1
10
-43.6
20
5.15520733731736
30
0
41
1
10
-43.6017220508865
20
5.15785943413619
30
0
41
1
10
-43.6068954324577
20
5.1594633762364
30
0
41
1
10
-43.610237321167
20
5.15853947070636
30
0
41
1
10
-43.6215324998379
20
5.15286897480144
30
0
41
1
10
-43.6303471072619
20
5.14548702161508
30
0
41
1
10
-43.658490206513
20
5.11820360273612
30
0
41
1
10
-43.678793979422
20
5.09387149636305
30
0
41
1
10
-43.7
20
5.06539798911183
30
0
0
SPLINE
5
9E
100
AcDbEntity
8
SK1
62
256
6
ByLayer
370
18
48
1
60
0
100
AcDbSpline
70
4
71
3
72
14
73
10
40
0
40
0
40
0
40
0
40
0.500000000000003
40
0.500000000000003
40
0.750000000000004
40
0.750000000000004
40
0.875000000000002
40
0.875000000000002
40
1
40
1
40
1
40
1
41
1
10
-43.7
20
3.4309474179903
30
0
41
1
10
-43.6789021434844
20
3.45927569241951
30
0
41
1
10
-43.6585587767126
20
3.49151926513838
30
0
41
1
10
-43.6303722414292
20
3.54666520337864
30
0
41
1
10
-43.6214260646625
20
3.5661431438451
30
0
41
1
10
-43.6102968606991
20
3.59624958149732
30
0
41
1
10
-43.6069058574072
20
3.6066209855727
30
0
41
1
10
-43.6017309986994
20
3.62729846034716
30
0
41
1
10
-43.6
20
3.63755317431449
30
0
41
1
10
-43.6
20
3.64614969583144
30
0
0
SPLINE
5
9F
100
AcDbEntity
8
SK1
62
256
6
ByLayer
370
18
48
1
60
0
100
AcDbSpline
70
4
71
3
72
10
73
6
40
0
40
0
40
0
40
0
40
0.5
40
0.5
40
1
40
1
40
1
40
1
41
1
10
-45
20
1.65650812272293
30
0
41
1
10
-44.7879431296683
20
1.95405663683803
30
0
41
1
10
-44.572235488008
20
2.25028824135322
30
0
41
1
10
-44.1380320517221
20
2.84144059717687
30
0
41
1
10
-43.9193989286455
20
3.1363585788099
30
0
41
1
10
-43.7
20
3.43094741799035
30
0
0
SPLINE
5
A0
100
AcDbEntity
8
SK1
62
256
6
ByLayer
370
18
48
1
60
0
100
AcDbSpline
70
4
71
3
72
14
73
10
40
0
40
0
40
0
40
0
40
0.25
40
0.25
40
0.5
40
0.5
40
0.75
40
0.75
40
1
40
1
40
1
40
1
41
1
10
-44.9999999999995
20
3.03045694074675
30
0
41
1
10
-44.9796660022004
20
3.0505304735488
30
0
41
1
10
-44.9614925292868
20
3.07254685622621
30
0
41
1
10
-44.9346224101493
20
3.1192604227754
30
0
41
1
10
-44.9258108047359
20
3.14454011682932
30
0
41
1
10
-44.9217886721455
20
3.19512143296558
30
0
41
1
10
-44.9266519520473
20
3.22109529158931
30
0
41
1
10
-44.9482016783346
20
3.2693775086147
30
0
41
1
10
-44.9648050157504
20
3.29215522294962
30
0
41
1
10
-44.9844831297563
20
3.31271914262396
30
0
0
SPLINE
5
A1
100
AcDbEntity
8
SK1
62
256
6
ByLayer
370
18
48
1
60
0
100
AcDbSpline
70
4
71
4
72
13
73
8
40
0
40
0
40
0
40
0
40
0
40
0.748690608337222
40
0.748690608337222
40
0.748690608337222
40
1
40
1
40
1
40
1
40
1
41
1.0074188631935
10
-45.0000004756957
20
3.29489331997963
30
0
41
1.01083792843915
10
-45.0000002963642
20
3.25200445290009
30
0
41
1.01419413961448
10
-45.0000001143775
20
3.20460865682267
30
0
41
1.0166117137858
10
-44.9999999343393
20
3.15420882679069
30
0
41
1.0166117137858
10
-44.9999997032274
20
3.08564654500003
30
0
41
1.0163393229613
10
-44.9999996442578
20
3.06781395395859
30
0
41
1.01585047439092
10
-44.9999995845621
20
3.04940659436646
30
0
41
1.01519344424023
10
-44.9999995243025
20
3.03045687457782
30
0
0
SPLINE
5
A2
100
AcDbEntity
8
SK1
62
256
6
ByLayer
370
18
48
1
60
0
100
AcDbSpline
70
4
71
3
72
10
73
6
40
0
40
0
40
0
40
0
40
0.5
40
0.5
40
1
40
1
40
1
40
1
41
1
10
-43.7
20
5.06539798911183
30
0
41
1
10
-43.9167304552462
20
4.77439213224548
30
0
41
1
10
-44.1327070121544
20
4.48307125627014
30
0
41
1
10
-44.5616758990216
20
3.89918253444697
30
0
41
1
10
-44.7747676774162
20
3.60665624348255
30
0
41
1
10
-44.9844831297425
20
3.31271914263047
30
0
0
SPLINE
5
A3
100
AcDbEntity
8
SK1
62
256
6
ByLayer
370
18
48
1
60
0
100
AcDbSpline
70
4
71
3
72
8
73
4
40
0
40
0
40
0
40
0
40
1
40
1
40
1
40
1
41
1
10
-44.9844831297434
20
3.31271914262715
30
0
41
1
10
-44.9896059517494
20
3.30693587221742
30
0
41
1
10
-44.9947778737429
20
3.30099368530202
30
0
41
1
10
-45
20
3.29489321375172
30
0
0
SPLINE
5
A4
100
AcDbEntity
8
1
62
256
6
ByLayer
370
18
48
1
60
0
100
AcDbSpline
70
4
71
3
72
47
73
43
40
0
40
0
40
0
40
0
40
0.0372524747756874
40
0.0372524747756874
40
0.105728907092314
40
0.105728907092314
40
0.174205339408942
40
0.174205339408942
40
0.311158204042196
40
0.311158204042196
40
0.44811106867545
40
0.44811106867545
40
0.516587500992077
40
0.516587500992077
40
0.55082571715039
40
0.55082571715039
40
0.567944825229547
40
0.567944825229547
40
0.576504379269125
40
0.580784156288915
40
0.580784156288915
40
0.585063933308704
40
0.585063933308704
40
0.593623487348282
40
0.593623487348282
40
0.597903264368072
40
0.597903264368072
40
0.602183041387861
40
0.602183041387861
40
0.619302149467018
40
0.619302149467018
40
0.653540365625332
40
0.653540365625332
40
0.72201679794196
40
0.72201679794196
40
0.790493230258588
40
0.790493230258588
40
0.858969662575215
40
0.858969662575215
40
0.995922527208471
40
0.995922527208471
40
1
40
1
40
1
40
1
41
1
10
13.6145101337504
20
2.95376680092227
30
0
41
1
10
13.6145101337504
20
2.89710213413162
30
0
41
1
10
13.6145101337504
20
2.83849572548607
30
0
41
1
10
13.6145101337504
20
2.6667401363637
30
0
41
1
10
13.6145101337505
20
2.54901196992347
30
0
41
1
10
13.6145101337505
20
2.30057696163979
30
0
41
1
10
13.6145101337504
20
2.16931361300701
30
0
41
1
10
13.6145101337504
20
1.76312181822448
30
0
41
1
10
13.6145101337504
20
1.47435138140301
30
0
41
1
10
13.6145101337504
20
0.863389548783857
30
0
41
1
10
13.6145101337504
20
0.541181808135548
30
0
41
1
10
13.6145101337504
20
0.0327868498428643
30
0
41
1
10
13.6145101337504
20
-0.140446980998377
30
0
41
1
10
13.6145101337504
20
-0.403996126918798
30
0
41
1
10
13.6145101337504
20
-0.49255415471535
30
0
41
1
10
13.6145101337504
20
-0.626449539295663
30
0
41
1
10
13.6145101337504
20
-0.671262814296313
30
0
41
1
10
13.6145101337504
20
-0.738700310524735
30
0
41
1
10
13.6145101337505
20
-0.772476025707078
30
0
41
1
10
13.6145101337505
20
-0.806337073000549
30
0
41
1
10
13.6145101337505
20
-0.828930056445444
30
0
41
1
10
13.6145101337505
20
-0.840122390175281
30
0
41
1
10
13.6145101337505
20
-0.874628684828878
30
0
41
1
10
13.6145101337504
20
-0.899592732012479
30
0
41
1
10
13.6145101337504
20
-0.934323350175021
30
0
41
1
10
13.6145101337505
20
-0.945677554956461
30
0
41
1
10
13.6145101337505
20
-0.968533297419782
30
0
41
1
10
13.6145101337505
20
-0.979950896386612
30
0
41
1
10
13.6145101337505
20
-1.03698746670426
30
0
41
1
10
13.6145101337505
20
-1.08245554764954
30
0
41
1
10
13.6145101337505
20
-1.21834102693347
30
0
41
1
10
13.6145101337505
20
-1.30819883316474
30
0
41
1
10
13.6145101337505
20
-1.57555068989527
30
0
41
1
10
13.6145101337504
20
-1.7505054064666
30
0
41
1
10
13.6145101337504
20
-2.09286931839108
30
0
41
1
10
13.6145101337505
20
-2.26084862210678
30
0
41
1
10
13.6145101337505
20
-2.58595608353843
30
0
41
1
10
13.6145101337505
20
-2.74333685335281
30
0
41
1
10
13.6145101337505
20
-3.19981071060775
30
0
41
1
10
13.6145101337504
20
-3.48338276144668
30
0
41
1
10
13.6145101337504
20
-3.75201698580219
30
0
41
1
10
13.6145101337504
20
-3.75975864503474
30
0
41
1
10
13.6145101337504
20
-3.76747503813829
30
0
0
SPLINE
5
A5
100
AcDbEntity
8
1
62
256
6
ByLayer
370
18
48
1
60
0
100
AcDbSpline
70
4
71
3
72
14
73
10
40
0
40
0
40
0
40
0
40
0.25
40
0.25
40
0.5
40
0.5
40
0.75
40
0.75
40
1
40
1
40
1
40
1
41
1
10
2.69628510848813
20
3.38897006183814
30
0
41
1
10
2.67555882489603
20
3.39662592251895
30
0
41
1
10
2.65521165774919
20
3.40593622237816
30
0
41
1
10
2.61531745258088
20
3.42795016695265
30
0
41
1
10
2.59586091007088
20
3.44066718215896
30
0
41
1
10
2.55988400892178
20
3.46839439564909
30
0
41
1
10
2.5428809977009
20
3.48377228641485
30
0
41
1
10
2.51269690907432
20
3.51633923810246
30
0
41
1
10
2.49963918650894
20
3.53330282266927
30
0
41
1
10
2.48878472293305
20
3.55099446281176
30
0
0
SPLINE
5
A6
100
AcDbEntity
8
1
62
256
6
ByLayer
370
13
48
1
60
0
100
AcDbSpline
70
4
71
3
72
8
73
4
40
0
40
0
40
0
40
0
40
1
40
1
40
1
40
1
41
1
10
2.59951924905604
20
-4.66462616218348
30
0
41
1
10
2.63350927668242
20
-4.65167959779589
30
0
41
1
10
2.6699415172088
20
-4.64661817034647
30
0
41
1
10
2.70729864606858
20
-4.64949643042672
30
0
0
SPLINE
5
A7
100
AcDbEntity
8
1
62
256
6
ByLayer
370
18
48
1
60
0
100
AcDbSpline
70
4
71
3
72
34
73
30
40
0
40
0
40
0
40
0
40
0.0312500000000006
40
0.0312500000000006
40
0.0625000000000013
40
0.0625000000000013
40
0.125000000000001
40
0.125000000000001
40
0.187500000000002
40
0.187500000000002
40
0.218750000000002
40
0.218750000000002
40
0.250000000000002
40
0.250000000000002
40
0.375000000000001
40
0.375000000000001
40
0.4375
40
0.4375
40
0.5
40
0.5
40
0.562499999999999
40
0.562499999999999
40
0.624999999999999
40
0.624999999999999
40
0.749999999999999
40
0.749999999999999
40
0.875
40
0.875
40
1
40
1
40
1
40
1
41
1
10
2.70847291661102
20
2.2165485026278
30
0
41
1
10
2.77109547257186
20
2.108951779878
30
0
41
1
10
2.84353759047093
20
2.00568525139224
30
0
41
1
10
3.0018233613371
20
1.80484238870457
30
0
41
1
10
3.08775264113595
20
1.70730854844499
30
0
41
1
10
3.36077512579016
20
1.42094242660815
30
0
41
1
10
3.55747669656512
20
1.24342362750238
30
0
41
1
10
3.96695024452723
20
0.903151971713498
30
0
41
1
10
4.18006699365822
20
0.740585015619956
30
0
41
1
10
4.50812437319922
20
0.504036215705298
30
0
41
1
10
4.61905442643257
20
0.42633802490073
30
0
41
1
10
4.84176588900448
20
0.274084566999989
30
0
41
1
10
4.95372373716884
20
0.199399491715781
30
0
41
1
10
5.51600950698966
20
-0.167939921752065
30
0
41
1
10
5.97360120457134
20
-0.442754108762585
30
0
41
1
10
6.66636356194604
20
-0.838387943219203
30
0
41
1
10
6.89840956627376
20
-0.96736765605732
30
0
41
1
10
7.3647374785931
20
-1.21938866375046
30
0
41
1
10
7.59898903227386
20
-1.34251948276741
30
0
41
1
10
8.06947824267309
20
-1.58357465767512
30
0
41
1
10
8.30571650673988
20
-1.70149865711832
30
0
41
1
10
8.78013436046899
20
-1.93241506651881
30
0
41
1
10
9.01830671562027
20
-2.04542635816591
30
0
41
1
10
9.73633314371534
20
-2.37572942431976
30
0
41
1
10
10.2160665911487
20
-2.58317251067436
30
0
41
1
10
11.1779257091585
20
-2.97172936785429
30
0
41
1
10
11.6603804467483
20
-3.15204704666033
30
0
41
1
10
12.6317077988275
20
-3.48239832935923
30
0
41
1
10
13.1205930651522
20
-3.63324491840666
30
0
41
1
10
13.6145101337504
20
-3.76747503813829
30
0
0
SPLINE
5
A8
100
AcDbEntity
8
1
62
256
6
ByLayer
370
18
48
1
60
0
100
AcDbSpline
70
4
71
3
72
8
73
4
40
0
40
0
40
0
40
0
40
1
40
1
40
1
40
1
41
1
10
72.9381565284992
20
1.17197229027951
30
0
41
1
10
72.9617126043834
20
0.822622590711092
30
0
41
1
10
72.9787726025294
20
0.473667308269455
30
0
41
1
10
72.9893334100926
20
0.125106631954736
30
0
0
SPLINE
5
A9
100
AcDbEntity
8
1
62
256
6
ByLayer
370
13
48
1
60
0
100
AcDbSpline
70
4
71
3
72
10
73
6
40
0
40
0
40
0
40
0
40
0.5
40
0.5
40
1
40
1
40
1
40
1
41
1
10
2.45697804112371
20
-4.84286943876344
30
0
41
1
10
2.45697804112371
20
-4.82970289437296
30
0
41
1
10
2.46950892258576
20
-4.81597464024858
30
0
41
1
10
2.51757180577269
20
-4.79214130610612
30
0
41
1
10
2.55359822739439
20
-4.78160494189717
30
0
41
1
10
2.59951924905602
20
-4.77485235589265
30
0
0
SPLINE
5
AA
100
AcDbEntity
8
1
62
256
6
ByLayer
370
18
48
1
60
0
100
AcDbSpline
70
4
71
3
72
8
73
4
40
0
40
0
40
0
40
0
40
1
40
1
40
1
40
1
41
1
10
71.2613472017438
20
-4.96459763636986
30
0
41
1
10
71.2402273475524
20
-5.01758327010853
30
0
41
1
10
71.2190678346395
20
-5.07050907735686
30
0
41
1
10
71.197873280023
20
-5.12337013305256
30
0
0
SPLINE
5
AB
100
AcDbEntity
8
1
62
256
6
ByLayer
370
18
48
1
60
0
100
AcDbSpline
70
4
71
3
72
18
73
14
40
0
40
0
40
0
40
0
40
0.272795261674374
40
0.272795261674374
40
0.409192892511561
40
0.409192892511561
40
0.545590523348747
40
0.545590523348747
40
0.818385785023122
40
0.818385785023122
40
0.954783415860311
40
0.954783415860311
40
1
40
1
40
1
40
1
41
1
10
70.8643222369336
20
-3.84384148807075
30
0
41
1
10
70.8638975832188
20
-4.02069993003138
30
0
41
1
10
70.8717576335213
20
-4.17570160217238
30
0
41
1
10
70.8963452325031
20
-4.37603150295641
30
0
41
1
10
70.906690512063
20
-4.43741508815904
30
0
41
1
10
70.931950961156
20
-4.54911741844592
30
0
41
1
10
70.9467626319597
20
-4.59887625248322
30
0
41
1
10
70.9973814625046
20
-4.72911617866379
30
0
41
1
10
71.0394665517168
20
-4.79136304336086
30
0
41
1
10
71.116079439324
20
-4.84867019525993
30
0
41
1
10
71.1439786325729
20
-4.86174346678675
30
0
41
1
10
71.1840128975145
20
-4.87086991947149
30
0
41
1
10
71.1942098928024
20
-4.87246237829714
30
0
41
1
10
71.2046391970781
20
-4.87337932237725
30
0
0
SPLINE
5
AC
100
AcDbEntity
8
1
62
256
6
ByLayer
370
18
48
1
60
0
100
AcDbSpline
70
4
71
3
72
10
73
6
40
0
40
0
40
0
40
0
40
0.5
40
0.5
40
1
40
1
40
1
40
1
41
1
10
71.4568288138785
20
4.98982535928019
30
0
41
1
10
71.6869219048231
20
4.34914308041095
30
0
41
1
10
71.9271511981062
20
3.70784591956985
30
0
41
1
10
72.4221765237488
20
2.43367920786261
30
0
41
1
10
72.6772948072951
20
1.80039934658473
30
0
41
1
10
72.9381565285004
20
1.1719722902767
30
0
0
SPLINE
5
AD
100
AcDbEntity
8
1
62
256
6
ByLayer
370
18
48
1
60
0
100
AcDbSpline
70
4
71
3
72
16
73
12
40
0
40
0
40
0
40
0
40
0.252592933522709
40
0.252592933522709
40
0.58061880345012
40
0.58061880345012
40
0.744631738413825
40
0.744631738413825
40
0.908644673377529
40
0.908644673377529
40
1
40
1
40
1
40
1
41
1
10
38.6660110703347
20
-4.84945922233638
30
0
41
1
10
38.1161834143908
20
-4.86015545888239
30
0
41
1
10
37.5645394351361
20
-4.85055695410404
30
0
41
1
10
36.2896634237035
20
-4.78058845607754
30
0
41
1
10
35.5707888110494
20
-4.706381927872
30
0
41
1
10
34.490542910977
20
-4.54509246411507
30
0
41
1
10
34.1310903047018
20
-4.48313029647525
30
0
41
1
10
33.414717480228
20
-4.34399471032381
30
0
41
1
10
33.0575122638253
20
-4.26675654864715
30
0
41
1
10
32.5023209207112
20
-4.13522972029114
30
0
41
1
10
32.3038998032339
20
-4.08593209822169
30
0
41
1
10
32.1056156870339
20
-4.03447155145446
30
0
0
SPLINE
5
AE
100
AcDbEntity
8
1
62
256
6
ByLayer
370
13
48
1
60
0
100
AcDbSpline
70
4
71
3
72
24
73
20
40
0
40
0
40
0
40
0
40
0.25359059064424
40
0.25359059064424
40
0.327244568375846
40
0.327244568375846
40
0.364071557241647
40
0.364071557241647
40
0.400898546107449
40
0.400898546107449
40
0.548206501570656
40
0.548206501570656
40
0.842822412497072
40
0.842822412497072
40
0.916476390228675
40
0.916476390228675
40
0.990130367960277
40
0.990130367960277
40
1
40
1
40
1
40
1
41
1
10
32.1056156875121
20
-4.03447155157855
30
0
41
1
10
30.8799583189331
20
-3.71637749774919
30
0
41
1
10
29.6595355916351
20
-3.31564089395934
30
0
41
1
10
28.0744018746854
20
-2.71696511786519
30
0
41
1
10
27.7169125124164
20
-2.57699152293023
30
0
41
1
10
27.179131442381
20
-2.35995443551278
30
0
41
1
10
26.9996208010662
20
-2.28641335904948
30
0
41
1
10
26.6400127065933
20
-2.13709209243566
30
0
41
1
10
26.4597502769325
20
-2.0612400097306
30
0
41
1
10
25.5607001082146
20
-1.6784562836109
30
0
41
1
10
24.846140825573
20
-1.36019591923079
30
0
41
1
10
22.7086099152987
20
-0.386576097743813
30
0
41
1
10
21.2918956083895
20
0.287865725824986
30
0
41
1
10
19.5048550798412
20
1.10424143037969
30
0
41
1
10
19.1466571844921
20
1.26621909190959
30
0
41
1
10
18.4280234447937
20
1.58612134698683
30
0
41
1
10
18.0672600514335
20
1.74411336209087
30
0
41
1
10
17.6602808453642
20
1.91839155079992
30
0
41
1
10
17.6122092626022
20
1.93891582167763
30
0
41
1
10
17.5641562920914
20
1.95936921043585
30
0
0
SPLINE
5
AF
100
AcDbEntity
8
1
62
256
6
ByLayer
370
13
48
1
60
0
100
AcDbSpline
70
4
71
3
72
10
73
6
40
0
40
0
40
0
40
0
40
0.941176773369247
40
0.941176773369247
40
1
40
1
40
1
40
1
41
1
10
2.66429545144985
20
-4.768680156263
30
0
41
1
10
4.10529085442747
20
-4.94399902658489
30
0
41
1
10
5.52791271251695
20
-4.97781086529326
30
0
41
1
10
7.04319802432656
20
-4.86726071620169
30
0
41
1
10
7.13234573722815
20
-4.86021790442965
30
0
41
1
10
7.2215126026216
20
-4.85263688540934
30
0
0
SPLINE
5
B0
100
AcDbEntity
8
1
62
256
6
ByLayer
370
18
48
1
60
0
100
AcDbSpline
70
4
71
3
72
14
73
10
40
0
40
0
40
0
40
0
40
0.545980573708639
40
0.545980573708639
40
0.831610003767739
40
0.831610003767739
40
0.974424718797287
40
0.974424718797287
40
1
40
1
40
1
40
1
41
1
10
54.3134174380892
20
-0.0006901255913192
30
0
41
1
10
55.6840099215715
20
-0.655259839609471
30
0
41
1
10
57.0391220170674
20
-1.30257420789374
30
0
41
1
10
59.1091574046472
20
-2.21608350448477
30
0
41
1
10
59.8210749631642
20
-2.51720711302747
30
0
41
1
10
60.8944626454958
20
-2.94155693349646
30
0
41
1
10
61.2532127522956
20
-3.07839655494277
30
0
41
1
10
61.6777684009044
20
-3.23344148980729
30
0
41
1
10
61.7422263118938
20
-3.25679488372592
30
0
41
1
10
61.8066571740112
20
-3.27994909565311
30
0
0
SPLINE
5
B1
100
AcDbEntity
8
1
62
256
6
ByLayer
370
13
48
1
60
0
100
AcDbSpline
70
4
71
3
72
16
73
12
40
0
40
0
40
0
40
0
40
0.0930651065467419
40
0.0930651065467419
40
0.546532553273369
40
0.546532553273369
40
0.773266276636684
40
0.773266276636684
40
0.886633138318343
40
0.886633138318343
40
1
40
1
40
1
40
1
41
1
10
61.8066571745189
20
-3.27994909583555
30
0
41
1
10
62.1020141534472
20
-3.38609012606923
30
0
41
1
10
62.3968027301768
20
-3.48804556654494
30
0
41
1
10
64.1229820653172
20
-4.05985426900688
30
0
41
1
10
65.5393807340743
20
-4.42688115450639
30
0
41
1
10
67.6730557708957
20
-4.78152691671878
30
0
41
1
10
68.3858952063833
20
-4.86719153691749
30
0
41
1
10
69.4615107703515
20
-4.94362703152421
30
0
41
1
10
69.821682703652
20
-4.96041867756003
30
0
41
1
10
70.5416874137636
20
-4.97598752652408
30
0
41
1
10
70.9014668532764
20
-4.97479672304388
30
0
41
1
10
71.2613472016834
20
-4.96459763634132
30
0
0
SPLINE
5
B2
100
AcDbEntity
8
1
62
256
6
ByLayer
370
18
48
1
60
0
100
AcDbSpline
70
4
71
3
72
24
73
20
40
0
40
0
40
0
40
0
40
0.0770950346862598
40
0.0770950346862598
40
0.15419006937252
40
0.15419006937252
40
0.231285104058779
40
0.231285104058779
40
0.308380138745039
40
0.308380138745039
40
0.462570208117559
40
0.462570208117559
40
0.616760277490078
40
0.616760277490078
40
0.770950346862598
40
0.770950346862598
40
0.925140416235117
40
0.925140416235117
40
1
40
1
40
1
40
1
41
1
10
71.9421237017102
20
-1.79394447565454
30
0
41
1
10
71.9381451770722
20
-1.82854259417681
30
0
41
1
10
71.9324174506098
20
-1.86587253316773
30
0
41
1
10
71.917954523387
20
-1.94268271439091
30
0
41
1
10
71.9091826221542
20
-1.98256591823719
30
0
41
1
10
71.8885064707578
20
-2.06537632677686
30
0
41
1
10
71.8766519556842
20
-2.10799616052785
30
0
41
1
10
71.8508856678603
20
-2.19267289505498
30
0
41
1
10
71.836871303741
20
-2.23515145149463
30
0
41
1
10
71.7915287589755
20
-2.36302289141219
30
0
41
1
10
71.7584009612991
20
-2.44471242019773
30
0
41
1
10
71.6887929947158
20
-2.59846144538412
30
0
41
1
10
71.6532073451128
20
-2.66855749429092
30
0
41
1
10
71.5819837842623
20
-2.79439285672771
30
0
41
1
10
71.5473655606775
20
-2.8483951470416
30
0
41
1
10
71.4799686291364
20
-2.93987595345635
30
0
41
1
10
71.4481923608132
20
-2.9759134427959
30
0
41
1
10
71.4042928204657
20
-3.01490146701914
30
0
41
1
10
71.3903515912784
20
-3.02539551632177
30
0
41
1
10
71.3771687499797
20
-3.03332797995802
30
0
0
SPLINE
5
B3
100
AcDbEntity
8
1
62
256
6
ByLayer
370
18
48
1
60
0
100
AcDbSpline
70
4
71
3
72
10
73
6
40
0
40
0
40
0
40
0
40
0.118559039828898
40
0.118559039828898
40
1
40
1
40
1
40
1
41
1
10
71.3086776985458
20
-3.05078104312003
30
0
41
1
10
71.307262606013
20
-3.05049847085962
30
0
41
1
10
71.305862394817
20
-3.05016501280616
30
0
41
1
10
71.2941783128354
20
-3.04691996341126
30
0
41
1
10
71.2847002184852
20
-3.0411512770126
30
0
41
1
10
71.2763862224727
20
-3.03258032890696
30
0
0
SPLINE
5
B4
100
AcDbEntity
8
1
62
256
6
ByLayer
370
18
48
1
60
0
100
AcDbSpline
70
4
71
3
72
22
73
18
40
0
40
0
40
0
40
0
40
0.124999999999969
40
0.124999999999969
40
0.249999999999939
40
0.249999999999939
40
0.312499999999923
40
0.312499999999923
40
0.374999999999908
40
0.374999999999908
40
0.499999999999923
40
0.499999999999923
40
0.624999999999939
40
0.624999999999939
40
0.749999999999954
40
0.749999999999954
40
1
40
1
40
1
40
1
41
1
10
2.69628510849054
20
3.38897006183518
30
0
41
1
10
2.68759222311417
20
3.3792549116767
30
0
41
1
10
2.67837155671288
20
3.37010596272413
30
0
41
1
10
2.65797457279118
20
3.35380543487025
30
0
41
1
10
2.64673012323982
20
3.34652001118394
30
0
41
1
10
2.62738227366967
20
3.3404148264371
30
0
41
1
10
2.62039651226587
20
3.33921163525184
30
0
41
1
10
2.60571384908675
20
3.33986097490393
30
0
41
1
10
2.59799758943518
20
3.34183785019124
30
0
41
1
10
2.57637169091203
20
3.35250796569827
30
0
41
1
10
2.56435747055105
20
3.36525574748796
30
0
41
1
10
2.54527460117504
20
3.39154201987421
30
0
41
1
10
2.53754546586163
20
3.40577165247822
30
0
41
1
10
2.52413092248199
20
3.43416574451373
30
0
41
1
10
2.51838446837553
20
3.44853344820564
30
0
41
1
10
2.50305765769571
20
3.49200027554366
30
0
41
1
10
2.49526231277636
20
3.52151843128476
30
0
41
1
10
2.48878472293305
20
3.55099446281176
30
0
0
SPLINE
5
B5
100
AcDbEntity
8
1
62
256
6
ByLayer
370
18
48
1
60
0
100
AcDbSpline
70
4
71
3
72
28
73
24
40
0
40
0
40
0
40
0
40
0.0625
40
0.0625
40
0.0937499999999999
40
0.0937499999999999
40
0.125
40
0.125
40
0.25
40
0.25
40
0.375
40
0.375
40
0.4375
40
0.4375
40
0.5
40
0.5
40
0.625
40
0.625
40
0.75
40
0.75
40
0.875
40
0.875
40
1
40
1
40
1
40
1
41
1
10
66.3985904843802
20
1.50062429023836
30
0
41
1
10
66.402034753133
20
1.3487602078367
30
0
41
1
10
66.4161095927727
20
1.19565147141978
30
0
41
1
10
66.4526714735678
20
0.96417948621459
30
0
41
1
10
66.4674385805457
20
0.886720106764471
30
0
41
1
10
66.5021052195759
20
0.731200430609164
30
0
41
1
10
66.5220012964468
20
0.653273702888868
30
0
41
1
10
66.6319866461418
20
0.269108802076658
30
0
41
1
10
66.7544615727696
20
-0.0268682181477402
30
0
41
1
10
67.0531975635113
20
-0.599149117705082
30
0
41
1
10
67.2240302650535
20
-0.865560433908456
30
0
41
1
10
67.5043648183892
20
-1.24303938950024
30
0
41
1
10
67.6019212924729
20
-1.36508653872042
30
0
41
1
10
67.8044005408509
20
-1.60241015417768
30
0
41
1
10
67.9093983586577
20
-1.71771446156728
30
0
41
1
10
68.2293079711585
20
-2.04954125245345
30
0
41
1
10
68.4507151916214
20
-2.25415506981017
30
0
41
1
10
68.9064492515685
20
-2.63701018465804
30
0
41
1
10
69.1408128568546
20
-2.81517643296681
30
0
41
1
10
69.6207012735301
20
-3.14872581738913
30
0
41
1
10
69.8666000817782
20
-3.30420510689879
30
0
41
1
10
70.3617829190085
20
-3.59084980425473
30
0
41
1
10
70.6118942807377
20
-3.72264440165401
30
0
41
1
10
70.8643222369336
20
-3.84384148807072
30
0
0
SPLINE
5
B6
100
AcDbEntity
8
1
62
256
6
ByLayer
370
18
48
1
60
0
100
AcDbSpline
70
4
71
3
72
8
73
4
40
0
40
0
40
0
40
0
40
1
40
1
40
1
40
1
41
1
10
72.9893334100925
20
0.125106631954736
30
0
41
1
10
72.989997478702
20
0.103188970617225
30
0
41
1
10
72.9940372724939
20
0.076400526403404
30
0
41
1
10
72.9999573603277
20
0.0482007673856515
30
0
0
SPLINE
5
B7
100
AcDbEntity
8
1
62
256
6
ByLayer
370
18
48
1
60
0
100
AcDbSpline
70
4
71
3
72
42
73
38
40
0
40
0
40
0
40
0
40
0.0563856963542819
40
0.0563856963542819
40
0.112771392708564
40
0.112771392708564
40
0.169157089062846
40
0.169157089062846
40
0.225542785417128
40
0.225542785417128
40
0.28192848177141
40
0.28192848177141
40
0.338314178125692
40
0.338314178125692
40
0.394699874479974
40
0.394699874479974
40
0.451085570834255
40
0.451085570834255
40
0.507471267188538
40
0.507471267188538
40
0.563856963542819
40
0.563856963542819
40
0.620242659897101
40
0.620242659897101
40
0.676628356251383
40
0.676628356251383
40
0.733014052605665
40
0.733014052605665
40
0.789399748959947
40
0.789399748959947
40
0.845785445314229
40
0.845785445314229
40
0.902171141668511
40
0.902171141668511
40
0.958556838022793
40
0.958556838022793
40
1
40
1
40
1
40
1
41
1
10
13.6145101337504
20
-3.76747503813829
30
0
41
1
10
13.8905562739648
20
-3.84832459879553
30
0
41
1
10
14.166368166066
20
-3.92466484805942
30
0
41
1
10
14.7175384715548
20
-4.06931197184471
30
0
41
1
10
14.9928677615918
20
-4.13772281006604
30
0
41
1
10
15.5431713472533
20
-4.2657205952996
30
0
41
1
10
15.8180488637605
20
-4.32524363793021
30
0
41
1
10
16.368310378088
20
-4.4345103204424
30
0
41
1
10
16.6436929517258
20
-4.48442311099751
30
0
41
1
10
17.1948893143386
20
-4.57543192432817
30
0
41
1
10
17.4707331671168
20
-4.61643159191055
30
0
41
1
10
18.0227051483931
20
-4.68829207855612
30
0
41
1
10
18.2981339408458
20
-4.71905030138643
30
0
41
1
10
18.8491166142758
20
-4.7709676370757
30
0
41
1
10
19.1245620591585
20
-4.79257249451177
30
0
41
1
10
19.6750332311588
20
-4.82416466481405
30
0
41
1
10
19.9500995111254
20
-4.83435056342884
30
0
41
1
10
20.5001438087617
20
-4.84503161994755
30
0
41
1
10
20.7753519220129
20
-4.84549912234928
30
0
41
1
10
21.3265320020964
20
-4.83757165727801
30
0
41
1
10
21.6025383327371
20
-4.82824518953271
30
0
41
1
10
22.1545807662081
20
-4.79798334840331
30
0
41
1
10
22.4300631684855
20
-4.77763552443326
30
0
41
1
10
22.980725644891
20
-4.7278203486884
30
0
41
1
10
23.2561229942857
20
-4.69892615641601
30
0
41
1
10
23.8067259152704
20
-4.6302511643419
30
0
41
1
10
24.0819093821222
20
-4.58996160524069
30
0
41
1
10
24.6323046268552
20
-4.50045963066711
30
0
41
1
10
24.9073907743824
20
-4.45090516865201
30
0
41
1
10
25.4584745966585
20
-4.3437313737856
30
0
41
1
10
25.7346213918186
20
-4.28583920601375
30
0
41
1
10
26.2866881268618
20
-4.15939973509703
30
0
41
1
10
26.5623094141338
20
-4.09151921681999
30
0
41
1
10
27.1129447878145
20
-3.94766367988584
30
0
41
1
10
27.3879902672354
20
-3.87187514956295
30
0
41
1
10
27.8655121642337
20
-3.73418913205484
30
0
41
1
10
28.0678046189199
20
-3.67341490874145
30
0
41
1
10
28.270116947411
20
-3.61041762177544
30
0
0
SPLINE
5
B8
100
AcDbEntity
8
1
62
256
6
ByLayer
370
18
48
1
60
0
100
AcDbSpline
70
4
71
3
72
36
73
32
40
0
40
0
40
0
40
0
40
0.0548800039248096
40
0.0548800039248096
40
0.117888003663155
40
0.117888003663155
40
0.243904003139845
40
0.243904003139845
40
0.306912002878191
40
0.306912002878191
40
0.369920002616537
40
0.369920002616537
40
0.432928002354883
40
0.432928002354883
40
0.49593600209323
40
0.49593600209323
40
0.558944001831576
40
0.558944001831576
40
0.621952001569922
40
0.621952001569922
40
0.684960001308269
40
0.684960001308269
40
0.747968001046615
40
0.747968001046615
40
0.810976000784961
40
0.810976000784961
40
0.873984000523308
40
0.873984000523308
40
0.936992000261654
40
0.936992000261654
40
1
40
1
40
1
40
1
41
1
10
53.3064480400656
20
4.86287225402808
30
0
41
1
10
53.5449483346022
20
4.86314156433886
30
0
41
1
10
53.7838349551362
20
4.85930666102317
30
0
41
1
10
54.2978648036702
20
4.84281404084314
30
0
41
1
10
54.5734716778673
20
4.82899200803752
30
0
41
1
10
55.3995462884757
20
4.7734570449195
30
0
41
1
10
55.9492221212698
20
4.7149267432782
30
0
41
1
10
56.7728123868835
20
4.60058373152376
30
0
41
1
10
57.0474574093711
20
4.55857692135274
30
0
41
1
10
57.5971730256129
20
4.46333142746371
30
0
41
1
10
57.8722028685043
20
4.41031506102496
30
0
41
1
10
58.4226983890912
20
4.29438227097432
30
0
41
1
10
58.6983059319111
20
4.23138017781926
30
0
41
1
10
59.2486934902706
20
4.09700956425135
30
0
41
1
10
59.5237939422159
20
4.02581213810572
30
0
41
1
10
60.0738015487202
20
3.87591692744721
30
0
41
1
10
60.3486958706342
20
3.79723381606146
30
0
41
1
10
60.8982413549575
20
3.63260674553629
30
0
41
1
10
61.1727626399756
20
3.54625141037369
30
0
41
1
10
61.722441399976
20
3.36585485218163
30
0
41
1
10
61.9975579928672
20
3.27176827220626
30
0
41
1
10
62.5483560734832
20
3.07655016178256
30
0
41
1
10
62.8242514081591
20
2.97531055501236
30
0
41
1
10
63.3748011433108
20
2.7666075144522
30
0
41
1
10
63.6496343200088
20
2.6590913701767
30
0
41
1
10
64.1994746511891
20
2.43972188338225
30
0
41
1
10
64.4743629724306
20
2.32768957061492
30
0
41
1
10
65.0240321977336
20
2.09924681241091
30
0
41
1
10
65.2987906618952
20
1.98274006944527
30
0
41
1
10
65.8482157838754
20
1.74427031712062
30
0
41
1
10
66.1231870145634
20
1.6231143811207
30
0
41
1
10
66.3985904843794
20
1.50062429023865
30
0
0
SPLINE
5
B9
100
AcDbEntity
8
1
62
256
6
ByLayer
370
18
48
1
60
0
100
AcDbSpline
70
4
71
3
72
10
73
6
40
0
40
0
40
0
40
0
40
0.5
40
0.5
40
1
40
1
40
1
40
1
41
1
10
71.23849165377
20
1.23343140148515
30
0
41
1
10
71.5218288730146
20
1.22248191449157
30
0
41
1
10
71.8051714056664
20
1.21146960758884
30
0
41
1
10
72.3717734025103
20
1.19042710429943
30
0
41
1
10
72.6549742180743
20
1.18109030507841
30
0
41
1
10
72.9381565285061
20
1.17197229027909
30
0
0
SPLINE
5
BA
100
AcDbEntity
8
1
62
256
6
ByLayer
370
18
48
1
60
0
100
AcDbSpline
70
4
71
3
72
10
73
6
40
0
40
0
40
0
40
0
40
0.5
40
0.5
40
1
40
1
40
1
40
1
41
1
10
71.4568288138786
20
4.98982535928019
30
0
41
1
10
71.4093640579447
20
5.02533954696599
30
0
41
1
10
71.3640715822776
20
5.05442751252096
30
0
41
1
10
71.2777618976973
20
5.09918911057491
30
0
41
1
10
71.236672340375
20
5.11488066704194
30
0
41
1
10
71.197873280023
20
5.12337013305256
30
0
0
SPLINE
5
BB
100
AcDbEntity
8
1
62
256
6
ByLayer
370
18
48
1
60
0
100
AcDbSpline
70
4
71
3
72
14
73
10
40
0
40
0
40
0
40
0
40
0.25
40
0.25
40
0.5
40
0.5
40
0.75
40
0.75
40
1
40
1
40
1
40
1
41
1
10
71.2705883836396
20
-4.87072048014099
30
0
41
1
10
71.2739557082427
20
-4.87019062511857
30
0
41
1
10
71.2766581948897
20
-4.87140222163035
30
0
41
1
10
71.2803364466067
20
-4.87832801945973
30
0
41
1
10
71.2812538672887
20
-4.88414360538195
30
0
41
1
10
71.2801953304497
20
-4.90120230533006
30
0
41
1
10
71.2781610258111
20
-4.91242107207421
30
0
41
1
10
71.2713437660517
20
-4.93758662024925
30
0
41
1
10
71.2666022294268
20
-4.95141378720234
30
0
41
1
10
71.2613472017559
20
-4.96459763633925
30
0
0
SPLINE
5
BC
100
AcDbEntity
8
1
62
256
6
ByLayer
370
18
48
1
60
0
100
AcDbSpline
70
4
71
3
72
12
73
8
40
0
40
0
40
0
40
0
40
0.249999999999999
40
0.249999999999999
40
0.499999999999998
40
0.499999999999998
40
1
40
1
40
1
40
1
41
1
10
71.4568288138786
20
-4.98982535928016
30
0
41
1
10
71.5718946884167
20
-4.66943039906417
30
0
41
1
10
71.6894010610122
20
-4.34912542519763
30
0
41
1
10
71.9289713525655
20
-3.70891246920115
30
0
41
1
10
72.0509782508009
20
-3.38911954878475
30
0
41
1
10
72.4222909486591
20
-2.43339000815965
30
0
41
1
10
72.6774455749471
20
-1.80003614085516
30
0
41
1
10
72.9381565284992
20
-1.17197229027937
30
0
0
SPLINE
5
BD
100
AcDbEntity
8
1
62
256
6
ByLayer
370
13
48
1
60
0
100
AcDbSpline
70
4
71
3
72
29
73
25
40
0
40
0
40
0
40
0
40
0.125
40
0.125
40
0.25
40
0.25
40
0.3125
40
0.3125
40
0.374999999999999
40
0.374999999999999
40
0.499999999999999
40
0.499999999999999
40
0.5625
40
0.5625
40
0.625
40
0.625
40
0.75
40
0.75
40
0.8125
40
0.8125
40
0.875
40
0.9375
40
0.9375
40
1
40
1
40
1
40
1
41
1
10
2.70729864606855
20
-4.64949643042672
30
0
41
1
10
2.7073942951107
20
-4.55179457169055
30
0
41
1
10
2.7074819733229
20
-4.41713170779391
30
0
41
1
10
2.70764678166145
20
-4.07390032984958
30
0
41
1
10
2.70772140762574
20
-3.87062269439039
30
0
41
1
10
2.70782614306086
20
-3.52013303025143
30
0
41
1
10
2.70785983588286
20
-3.39563195512102
30
0
41
1
10
2.70792533473366
20
-3.13072900249818
30
0
41
1
10
2.70795665051702
20
-2.99228114174645
30
0
41
1
10
2.7080467000535
20
-2.56194676108706
30
0
41
1
10
2.70810188051428
20
-2.25424224684022
30
0
41
1
10
2.70817938481963
20
-1.76048415992528
30
0
41
1
10
2.70820409133995
20
-1.59186976723399
30
0
41
1
10
2.70825102046001
20
-1.24931441615618
30
0
41
1
10
2.70827339537658
20
-1.07417089938534
30
0
41
1
10
2.7083359684967
20
-0.547534775499514
30
0
41
1
10
2.70837195631901
20
-0.193741843570422
30
0
41
1
10
2.7084160475153
20
0.340978850188151
30
0
41
1
10
2.70842911009566
20
0.520863751154081
30
0
41
1
10
2.70845081523351
20
0.87413092244347
30
0
41
1
10
2.70846824997605
20
1.22222934394577
30
0
41
1
10
2.70847626224079
20
1.56020492157114
30
0
41
1
10
2.70847887017018
20
1.8930393966163
30
0
41
1
10
2.70847742702858
20
2.05784547404286
30
0
41
1
10
2.70847291661099
20
2.21654850262775
30
0
0
SPLINE
5
BE
100
AcDbEntity
8
1
62
256
6
ByLayer
370
18
48
1
60
0
100
AcDbSpline
70
4
71
3
72
18
73
14
40
0
40
0
40
0
40
0
40
0.276489248349024
40
0.276489248349024
40
0.517859553696677
40
0.517859553696677
40
0.57820213003359
40
0.57820213003359
40
0.638544706370503
40
0.638544706370503
40
0.75922985904433
40
0.75922985904433
40
1
40
1
40
1
40
1
41
1
10
21.6565021556621
20
0.0025573816413669
30
0
41
1
10
22.4714740754243
20
-0.38504331143821
30
0
41
1
10
23.285155046356
20
-0.772222063084257
30
0
41
1
10
24.8145116964095
20
-1.47988242238239
30
0
41
1
10
25.5294402054311
20
-1.80273627512065
30
0
41
1
10
26.4292123666403
20
-2.19014802712445
30
0
41
1
10
26.609618868972
20
-2.26686932015602
30
0
41
1
10
26.9694556152916
20
-2.41778447463182
30
0
41
1
10
27.1490700548779
20
-2.49205921220116
30
0
41
1
10
27.6871318616913
20
-2.71111007118088
30
0
41
1
10
28.0447737480758
20
-2.85216846959352
30
0
41
1
10
29.1137464766545
20
-3.25817788238535
30
0
41
1
10
29.8230466587261
20
-3.50642956367355
30
0
41
1
10
30.5322583543806
20
-3.72870558555206
30
0
0
SPLINE
5
BF
100
AcDbEntity
8
1
62
256
6
ByLayer
370
13
48
1
60
0
100
AcDbSpline
70
4
71
3
72
16
73
12
40
0
40
0
40
0
40
0
40
0.231575599760533
40
0.231575599760533
40
0.347076157214368
40
0.347076157214368
40
0.462576714668204
40
0.462576714668204
40
0.693577829575874
40
0.693577829575874
40
1
40
1
40
1
40
1
41
1
10
30.5322574002921
20
-3.72870528652851
30
0
41
1
10
31.2450050983764
20
-3.95208956020963
30
0
41
1
10
31.9576634242808
20
-4.14923851051856
30
0
41
1
10
33.029692058516
20
-4.39964782870251
30
0
41
1
10
33.3870950071024
20
-4.47550957805055
30
0
41
1
10
34.1039314718441
20
-4.61141944222015
30
0
41
1
10
34.4637013073494
20
-4.67153091443561
30
0
41
1
10
35.5447450257467
20
-4.82650801124069
30
0
41
1
10
36.26410231619
20
-4.89557986717497
30
0
41
1
10
37.9411243395536
20
-4.97360366257777
30
0
41
1
10
38.8879769958471
20
-4.9548549120679
30
0
41
1
10
39.8318818592421
20
-4.87604571620682
30
0
0
SPLINE
5
C0
100
AcDbEntity
8
1
62
256
6
ByLayer
370
18
48
1
60
0
100
AcDbSpline
70
4
71
3
72
8
73
4
40
0
40
0
40
0
40
0
40
1
40
1
40
1
40
1
41
1
10
2.48878472293305
20
3.55099446281179
30
0
41
1
10
2.55746943124109
20
3.49632785342578
30
0
41
1
10
2.62664193134154
20
3.44232654866889
30
0
41
1
10
2.6962851084881
20
3.38897006183814
30
0
0
SPLINE
5
C1
100
AcDbEntity
8
1
62
256
6
ByLayer
370
18
48
1
60
0
100
AcDbSpline
70
4
71
3
72
8
73
4
40
0
40
0
40
0
40
0
40
1
40
1
40
1
40
1
41
1
10
2.45697804112376
20
2.04502107676521
30
0
41
1
10
2.45697804112376
20
2.04777802718215
30
0
41
1
10
2.45697804112376
20
2.05053867096581
30
0
41
1
10
2.45697804112376
20
2.05330301080068
30
0
0
SPLINE
5
C2
100
AcDbEntity
8
1
62
256
6
ByLayer
370
18
48
1
60
0
100
AcDbSpline
70
4
71
3
72
8
73
4
40
0
40
0
40
0
40
0
40
1
40
1
40
1
40
1
41
1
10
72.9893334100926
20
-0.125106631954623
30
0
41
1
10
72.9899974787023
20
-0.103188970610546
30
0
41
1
10
72.9940372724962
20
-0.0764005263874026
30
0
41
1
10
72.999957360333
20
-0.0482007673602425
30
0
0
SPLINE
5
C3
100
AcDbEntity
8
1
62
256
6
ByLayer
370
18
48
1
60
0
100
AcDbSpline
70
4
71
3
72
10
73
6
40
0
40
0
40
0
40
0
40
0.5
40
0.5
40
1
40
1
40
1
40
1
41
1
10
2.45697804112373
20
-4.84286943876344
30
0
41
1
10
2.45697804112373
20
-4.80801959020056
30
0
41
1
10
2.4694800987086
20
-4.77188140734359
30
0
41
1
10
2.51755138367909
20
-4.70949146009164
30
0
41
1
10
2.55361754641226
20
-4.68210980048201
30
0
41
1
10
2.59951924905604
20
-4.66462616218348
30
0
0
SPLINE
5
C4
100
AcDbEntity
8
1
62
256
6
ByLayer
370
18
48
1
60
0
100
AcDbSpline
70
4
71
3
72
56
73
52
40
0
40
0
40
0
40
0
40
0.0312500000000043
40
0.0312500000000043
40
0.0625000000000087
40
0.0625000000000087
40
0.0781250000000108
40
0.0781250000000108
40
0.0937500000000129
40
0.0937500000000129
40
0.109375000000015
40
0.109375000000015
40
0.125000000000017
40
0.125000000000017
40
0.140625000000019
40
0.140625000000019
40
0.156250000000021
40
0.156250000000021
40
0.171875000000023
40
0.171875000000023
40
0.187500000000025
40
0.187500000000025
40
0.218750000000028
40
0.218750000000028
40
0.250000000000031
40
0.250000000000031
40
0.265625000000033
40
0.265625000000033
40
0.269531250000033
40
0.269531250000033
40
0.273437500000033
40
0.273437500000033
40
0.281250000000033
40
0.281250000000033
40
0.296875000000033
40
0.296875000000033
40
0.312500000000033
40
0.312500000000033
40
0.37500000000003
40
0.37500000000003
40
0.500000000000023
40
0.500000000000023
40
0.56250000000002
40
0.56250000000002
40
0.625000000000017
40
0.625000000000017
40
0.750000000000011
40
0.750000000000011
40
0.875000000000006
40
0.875000000000006
40
1
40
1
40
1
40
1
41
1
10
2.45697804112376
20
2.04502107676521
30
0
41
1
10
2.36871117750303
20
2.15365554349936
30
0
41
1
10
2.28690692017943
20
2.26666039978213
30
0
41
1
10
2.14587924870608
20
2.50316567575101
30
0
41
1
10
2.08859812319128
20
2.62336442318724
30
0
41
1
10
2.03110442821017
20
2.80830175570543
30
0
41
1
10
2.01700033661422
20
2.87018409093494
30
0
41
1
10
2.00050755356875
20
2.99174466841714
30
0
41
1
10
1.99798651906767
20
3.0518192985208
30
0
41
1
10
2.00525251969813
20
3.17054331044793
30
0
41
1
10
2.01525544575134
20
3.22964985053278
30
0
41
1
10
2.04707895462093
20
3.34206538802062
30
0
41
1
10
2.06882017425451
20
3.39584802993397
30
0
41
1
10
2.12296902858682
20
3.49908177341967
30
0
41
1
10
2.15567707414087
20
3.54885738803202
30
0
41
1
10
2.22892049618747
20
3.64211986192603
30
0
41
1
10
2.26947619348158
20
3.68583585645686
30
0
41
1
10
2.35708725327976
20
3.7685369639164
30
0
41
1
10
2.4041494371013
20
3.80751673937053
30
0
41
1
10
2.50384137571234
20
3.88150850674876
30
0
41
1
10
2.55659765450986
20
3.9165596600171
30
0
41
1
10
2.71929358698472
20
4.01507462738618
30
0
41
1
10
2.83445071076676
20
4.07269300303761
30
0
41
1
10
3.07425425903875
20
4.17699187310498
30
0
41
1
10
3.19894552484868
20
4.22361263198118
30
0
41
1
10
3.39152377674893
20
4.28744841728542
30
0
41
1
10
3.45667723842539
20
4.30770504020046
30
0
41
1
10
3.53883774631987
20
4.33181096709805
30
0
41
1
10
3.55493792117448
20
4.33692744652257
30
0
41
1
10
3.58886688846428
20
4.3454711969745
30
0
41
1
10
3.60719888069016
20
4.34848487607741
30
0
41
1
10
3.66162046281136
20
4.3547088960961
30
0
41
1
10
3.69847683294969
20
4.35499946383922
30
0
41
1
10
3.80924326937864
20
4.35456909157759
30
0
41
1
10
3.88304882326796
20
4.35454509291063
30
0
41
1
10
4.03067925103147
20
4.35369623767295
30
0
41
1
10
4.10448551816006
20
4.35307993001032
30
0
41
1
10
4.47347242827701
20
4.3490420139089
30
0
41
1
10
4.76865699845382
20
4.34275346158049
30
0
41
1
10
5.65187704984021
20
4.31467449011097
30
0
41
1
10
6.23807954346731
20
4.2837821713118
30
0
41
1
10
7.1136595029788
20
4.21719515910539
30
0
41
1
10
7.40489770274058
20
4.19159762633586
30
0
41
1
10
7.98617634010066
20
4.13310183119728
30
0
41
1
10
8.27606636372812
20
4.1002180532407
30
0
41
1
10
9.14048695307318
20
3.99026646409337
30
0
41
1
10
9.7108903926154
20
3.90170654363084
30
0
41
1
10
10.8414250363785
20
3.69083837832116
30
0
41
1
10
11.4015413930445
20
3.5684637194577
30
0
41
1
10
12.5135346500805
20
3.28790708024331
30
0
41
1
10
13.065417138148
20
3.129710045628
30
0
41
1
10
13.6145101337504
20
2.95376680093051
30
0
0
SPLINE
5
C5
100
AcDbEntity
8
1
62
256
6
ByLayer
370
18
48
1
60
0
100
AcDbSpline
70
4
71
3
72
88
73
84
40
0
40
0
40
0
40
0
40
0.0184146784995386
40
0.0184146784995386
40
0.0405743590845588
40
0.0405743590845588
40
0.0848937202546
40
0.0848937202546
40
0.107053400839621
40
0.107053400839621
40
0.129213081424641
40
0.129213081424641
40
0.151372762009662
40
0.151372762009662
40
0.173532442594683
40
0.173532442594683
40
0.195692123179703
40
0.195692123179703
40
0.217851803764724
40
0.217851803764724
40
0.240011484349744
40
0.240011484349744
40
0.262171164934765
40
0.262171164934765
40
0.306490526104805
40
0.306490526104805
40
0.328650206689826
40
0.328650206689826
40
0.350809887274846
40
0.350809887274846
40
0.372969567859866
40
0.372969567859866
40
0.395129248444886
40
0.395129248444886
40
0.417288929029907
40
0.417288929029907
40
0.439448609614927
40
0.439448609614927
40
0.461608290199947
40
0.461608290199947
40
0.483767970784967
40
0.483767970784967
40
0.528087331955008
40
0.528087331955008
40
0.550247012540028
40
0.550247012540028
40
0.572406693125048
40
0.572406693125048
40
0.594566373710068
40
0.594566373710068
40
0.616726054295089
40
0.616726054295089
40
0.638885734880109
40
0.638885734880109
40
0.661045415465129
40
0.661045415465129
40
0.683205096050149
40
0.683205096050149
40
0.70536477663517
40
0.70536477663517
40
0.74968413780521
40
0.74968413780521
40
0.77184381839023
40
0.77184381839023
40
0.79400349897525
40
0.79400349897525
40
0.816163179560271
40
0.816163179560271
40
0.838322860145291
40
0.838322860145291
40
0.860482540730311
40
0.860482540730311
40
0.882642221315331
40
0.882642221315331
40
0.904801901900351
40
0.904801901900351
40
0.926961582485372
40
0.926961582485372
40
0.971280943655411
40
0.971280943655411
40
0.993440624240431
40
0.993440624240431
40
1
40
1
40
1
40
1
41
1
10
28.2278441475012
20
3.61793398318795
30
0
41
1
10
28.4788797773469
20
3.70469082199622
30
0
41
1
10
28.7304026846016
20
3.78839610102841
30
0
41
1
10
29.2854752764396
20
3.96631854078518
30
0
41
1
10
29.5894544518819
20
4.05982954565735
30
0
41
1
10
30.4992308137825
20
4.3213780218214
30
0
41
1
10
31.1037108918533
20
4.4719865026857
30
0
41
1
10
32.0048161776796
20
4.66566210753743
30
0
41
1
10
32.304923037581
20
4.72411715781209
30
0
41
1
10
32.9053723368799
20
4.82854960971088
30
0
41
1
10
33.2055069744041
20
4.87471220983474
30
0
41
1
10
33.8052522640024
20
4.95511896461466
30
0
41
1
10
34.1044882929746
20
4.98949080150473
30
0
41
1
10
34.7042656823055
20
5.04521470057881
30
0
41
1
10
35.0047626106565
20
5.06667478999034
30
0
41
1
10
35.6064389753701
20
5.09704724505781
30
0
41
1
10
35.9076494475164
20
5.10595273090107
30
0
41
1
10
36.5103575115809
20
5.1108248245815
30
0
41
1
10
36.8124719317067
20
5.1067260622045
30
0
41
1
10
37.4191589263274
20
5.08560084497896
30
0
41
1
10
37.7239722423544
20
5.06852130402194
30
0
41
1
10
38.330398146696
20
5.02150731816067
30
0
41
1
10
38.632136960121
20
4.99135939081287
30
0
41
1
10
39.5367100100074
20
4.88278119037028
30
0
41
1
10
40.1387691174768
20
4.78677077634686
30
0
41
1
10
41.03762785922
20
4.60565976034297
30
0
41
1
10
41.3371465706492
20
4.53951536761454
30
0
41
1
10
41.9369820062799
20
4.39686765085693
30
0
41
1
10
42.2370585637998
20
4.32015628875507
30
0
41
1
10
42.8371787443153
20
4.15550500943914
30
0
41
1
10
43.136849716673
20
4.06705428912761
30
0
41
1
10
43.7378584239472
20
3.88077848617326
30
0
41
1
10
44.0392168467361
20
3.7830611153247
30
0
41
1
10
44.6431225805666
20
3.57777988610266
30
0
41
1
10
44.9457057832065
20
3.47027180398797
30
0
41
1
10
45.5516513208566
20
3.24429610481215
30
0
41
1
10
45.8558051333727
20
3.12660312023002
30
0
41
1
10
46.4619836143463
20
2.88610974019056
30
0
41
1
10
46.7643876676706
20
2.76265249890486
30
0
41
1
10
47.3674901767139
20
2.50875092144062
30
0
41
1
10
47.6678137244951
20
2.37759065934549
30
0
41
1
10
48.568728794176
20
1.97826330341522
30
0
41
1
10
49.1693807608085
20
1.70466719845223
30
0
41
1
10
50.0675583096983
20
1.27762400297342
30
0
41
1
10
50.3669966904054
20
1.1334891125376
30
0
41
1
10
50.9672392719216
20
0.844289762926849
30
0
41
1
10
51.2677713780553
20
0.698680816157122
30
0
41
1
10
51.8692969454907
20
0.404658209863328
30
0
41
1
10
52.1699317684006
20
0.255464790101513
30
0
41
1
10
52.7732253457783
20
-0.0425060792246654
30
0
41
1
10
53.0759732059054
20
-0.191064900549264
30
0
41
1
10
53.6831746143489
20
-0.488415267427058
30
0
41
1
10
53.9875782188553
20
-0.637083660849413
30
0
41
1
10
54.5924437582708
20
-0.933169629012127
30
0
41
1
10
54.8940383633011
20
-1.07981702767822
30
0
41
1
10
55.4969211655416
20
-1.36761894274207
30
0
41
1
10
55.7979354519739
20
-1.50936727815949
30
0
41
1
10
56.398749293342
20
-1.78933480074383
30
0
41
1
10
56.6981835197954
20
-1.92824437162773
30
0
41
1
10
57.596951005183
20
-2.33510280348472
30
0
41
1
10
58.1971833391938
20
-2.5926525995842
30
0
41
1
10
59.096217494632
20
-2.96360206064799
30
0
41
1
10
59.396080948361
20
-3.08391954930522
30
0
41
1
10
59.9977435376709
20
-3.31528998891727
30
0
41
1
10
60.2992411121006
20
-3.4268702682111
30
0
41
1
10
60.9031996833349
20
-3.64233530340434
30
0
41
1
10
61.2053235619345
20
-3.74671140632765
30
0
41
1
10
61.811965831623
20
-3.94536239409683
30
0
41
1
10
62.1160902680857
20
-4.03924859557574
30
0
41
1
10
62.7215508671238
20
-4.21588985915119
30
0
41
1
10
63.023495124149
20
-4.29878852867995
30
0
41
1
10
63.6252260553828
20
-4.4543486231253
30
0
41
1
10
63.9254151471012
20
-4.52649799632201
30
0
41
1
10
64.526059033447
20
-4.65821060459982
30
0
41
1
10
64.8262131919928
20
-4.71811187071509
30
0
41
1
10
65.4257984921965
20
-4.82637786440759
30
0
41
1
10
65.7248876272504
20
-4.87493383230321
30
0
41
1
10
66.623084697653
20
-5.00158363091904
30
0
41
1
10
67.223931873524
20
-5.06076865117643
30
0
41
1
10
68.125449359896
20
-5.11235860596923
30
0
41
1
10
68.4262823430676
20
-5.12314143351205
30
0
41
1
10
68.8177842541141
20
-5.12864413240561
30
0
41
1
10
68.90728353703
20
-5.12933598485998
30
0
41
1
10
68.9968590249995
20
-5.1294598616831
30
0
0
SPLINE
5
C6
100
AcDbEntity
8
1
62
256
6
ByLayer
370
13
48
1
60
0
100
AcDbSpline
70
4
71
3
72
8
73
4
40
0
40
0
40
0
40
0
40
1
40
1
40
1
40
1
41
1
10
2.59951924905602
20
-4.77485235589265
30
0
41
1
10
2.6200645112641
20
-4.76797964223121
30
0
41
1
10
2.64193589521514
20
-4.76595977829936
30
0
41
1
10
2.66429545144985
20
-4.768680156263
30
0
0
SPLINE
5
C7
100
AcDbEntity
8
1
62
256
6
ByLayer
370
18
48
1
60
0
100
AcDbSpline
70
4
71
3
72
10
73
6
40
0
40
0
40
0
40
0
40
0.5
40
0.5
40
1
40
1
40
1
40
1
41
1
10
71.4568288138786
20
-4.98982535928022
30
0
41
1
10
71.4093640579447
20
-5.02533954696599
30
0
41
1
10
71.3640715822775
20
-5.05442751252096
30
0
41
1
10
71.2777618976972
20
-5.09918911057491
30
0
41
1
10
71.236672340375
20
-5.11488066704194
30
0
41
1
10
71.197873280023
20
-5.12337013305256
30
0
0
SPLINE
5
C8
100
AcDbEntity
8
1
62
256
6
ByLayer
370
18
48
1
60
0
100
AcDbSpline
70
4
71
3
72
102
73
98
40
0
40
0
40
0
40
0
40
0.0063600259564479
40
0.0063600259564479
40
0.026875776707009
40
0.026875776707009
40
0.0473915274575702
40
0.0473915274575702
40
0.0679072782081313
40
0.0679072782081313
40
0.0884230289586925
40
0.0884230289586925
40
0.108938779709254
40
0.108938779709254
40
0.149970281210375
40
0.149970281210375
40
0.170486031960936
40
0.170486031960936
40
0.191001782711496
40
0.191001782711496
40
0.211517533462057
40
0.211517533462057
40
0.232033284212618
40
0.232033284212618
40
0.252549034963178
40
0.252549034963178
40
0.273064785713739
40
0.273064785713739
40
0.2935805364643
40
0.2935805364643
40
0.314096287214861
40
0.314096287214861
40
0.334612037965421
40
0.334612037965421
40
0.355127788715982
40
0.355127788715982
40
0.375643539466543
40
0.375643539466543
40
0.396159290217103
40
0.396159290217103
40
0.416675040967664
40
0.416675040967664
40
0.437190791718225
40
0.437190791718225
40
0.457706542468785
40
0.457706542468785
40
0.478222293219346
40
0.478222293219346
40
0.498738043969907
40
0.498738043969907
40
0.519253794720468
40
0.519253794720468
40
0.560285296221589
40
0.560285296221589
40
0.58080104697215
40
0.58080104697215
40
0.601316797722711
40
0.601316797722711
40
0.621832548473272
40
0.621832548473272
40
0.642348299223834
40
0.642348299223834
40
0.662864049974395
40
0.662864049974395
40
0.683379800724956
40
0.683379800724956
40
0.703895551475517
40
0.703895551475517
40
0.724411302226078
40
0.724411302226078
40
0.744927052976639
40
0.744927052976639
40
0.7654428037272
40
0.7654428037272
40
0.785958554477761
40
0.785958554477761
40
0.806474305228323
40
0.806474305228323
40
0.826990055978884
40
0.826990055978884
40
0.847505806729445
40
0.847505806729445
40
0.868021557480006
40
0.868021557480006
40
0.888537308230567
40
0.888537308230567
40
0.909053058981128
40
0.909053058981128
40
0.929568809731689
40
0.929568809731689
40
0.95008456048225
40
0.95008456048225
40
0.970600311232812
40
0.970600311232812
40
0.991116061983373
40
0.991116061983373
40
1
40
1
40
1
40
1
41
1
10
60.8800032980382
20
-3.63688497479464
30
0
41
1
10
60.7948105836263
20
-3.66318998373927
30
0
41
1
10
60.7095931468911
20
-3.68911749132016
30
0
41
1
10
60.349314376032
20
-3.79705655813817
30
0
41
1
10
60.0740089000236
20
-3.87586386159589
30
0
41
1
10
59.5228387914359
20
-4.02606899929879
30
0
41
1
10
59.2471492265988
20
-4.09739972656493
30
0
41
1
10
58.6971593355963
20
-4.23164689266284
30
0
41
1
10
58.4224718685882
20
-4.29442683209595
30
0
41
1
10
57.8729619268632
20
-4.41015834590075
30
0
41
1
10
57.5982217219281
20
-4.46313519112888
30
0
41
1
10
57.0486466325807
20
-4.55838534948808
30
0
41
1
10
56.773841836682
20
-4.60043320617996
30
0
41
1
10
55.9493002977845
20
-4.71493106385603
30
0
41
1
10
55.3973042284822
20
-4.77365022729308
30
0
41
1
10
54.5719296901445
20
-4.82907434207195
30
0
41
1
10
54.2973012378552
20
-4.84283790419511
30
0
41
1
10
53.7480113400028
20
-4.86045026845389
30
0
41
1
10
53.4733344051528
20
-4.86421389744484
30
0
41
1
10
52.9237514921635
20
-4.86072472200647
30
0
41
1
10
52.6488214393828
20
-4.85326488409038
30
0
41
1
10
52.0989015372816
20
-4.82888331593477
30
0
41
1
10
51.8239719066832
20
-4.81193203211711
30
0
41
1
10
51.2729652854648
20
-4.7681765751031
30
0
41
1
10
50.9974135357661
20
-4.74125516513936
30
0
41
1
10
50.447102071785
20
-4.67675689857577
30
0
41
1
10
50.1722037252474
20
-4.63958453883978
30
0
41
1
10
49.623022219418
20
-4.55617293372859
30
0
41
1
10
49.3485577750074
20
-4.50991617736031
30
0
41
1
10
48.7991065796902
20
-4.40765696937515
30
0
41
1
10
48.5241469595781
20
-4.35125240447988
30
0
41
1
10
47.9739516314037
20
-4.22993985729326
30
0
41
1
10
47.6988713626602
20
-4.16533526198882
30
0
41
1
10
47.1481089736403
20
-4.02667646472881
30
0
41
1
10
46.8727825433455
20
-3.95314563049794
30
0
41
1
10
46.3226211814645
20
-3.79756174221396
30
0
41
1
10
46.0476796670181
20
-3.71567406526185
30
0
41
1
10
45.4982672013878
20
-3.54525657230579
30
0
41
1
10
45.223912708769
20
-3.45606683488862
30
0
41
1
10
44.6747419997857
20
-3.27053542667056
30
0
41
1
10
44.3998951753668
20
-3.17413402020483
30
0
41
1
10
43.8496401665047
20
-2.97484899501882
30
0
41
1
10
43.574341308039
20
-2.87239174328482
30
0
41
1
10
43.0233346595414
20
-2.66072442799754
30
0
41
1
10
42.7483931092298
20
-2.55168237140194
30
0
41
1
10
42.1985185064368
20
-2.32923541980537
30
0
41
1
10
41.9236528288449
20
-2.21560173370827
30
0
41
1
10
41.3741536698967
20
-1.98456871135562
30
0
41
1
10
41.0995375094523
20
-1.86695085376647
30
0
41
1
10
40.5505146035744
20
-1.62697469355922
30
0
41
1
10
40.2759014734383
20
-1.50503938530417
30
0
41
1
10
39.4507127383489
20
-1.13559232784363
30
0
41
1
10
38.8989774801783
20
-0.883614418536553
30
0
41
1
10
38.0747771899615
20
-0.500722435439542
30
0
41
1
10
37.8000688812344
20
-0.37294974197448
30
0
41
1
10
37.2507026617801
20
-0.117169143039717
30
0
41
1
10
36.9760536359893
20
0.0108623734668072
30
0
41
1
10
36.4268233859066
20
0.267230914184864
30
0
41
1
10
36.1523424151389
20
0.395788064200872
30
0
41
1
10
35.6024442035058
20
0.651053640955865
30
0
41
1
10
35.327037742876
20
0.778074139278829
30
0
41
1
10
34.7759940076943
20
1.03043511436917
30
0
41
1
10
34.5008326893502
20
1.15558124506126
30
0
41
1
10
33.9512360544229
20
1.4030677764388
30
0
41
1
10
33.6768178122084
20
1.52553593386546
30
0
41
1
10
33.1276562374465
20
1.76643924813354
30
0
41
1
10
32.8530435029671
20
1.88518488792209
30
0
41
1
10
32.3036800896978
20
2.11859601189133
30
0
41
1
10
32.0288965254967
20
2.23302049786929
30
0
41
1
10
31.4791342028323
20
2.45750700907746
30
0
41
1
10
31.2038453997262
20
2.56755196757805
30
0
41
1
10
30.6529882344362
20
2.78193387920291
30
0
41
1
10
30.3778346911459
20
2.88633315144676
30
0
41
1
10
29.8280514044364
20
3.08783536036364
30
0
41
1
10
29.5534699879241
20
3.18481799819654
30
0
41
1
10
29.0045867816888
20
3.37362093682603
30
0
41
1
10
28.7300686256472
20
3.46476444281723
30
0
41
1
10
28.1807265342882
20
3.63945784333598
30
0
41
1
10
27.9058845266666
20
3.72284619212084
30
0
41
1
10
27.3557399946712
20
3.88083879719858
30
0
41
1
10
27.0804632508765
20
3.95645869590254
30
0
41
1
10
26.5298831435
20
4.09964291783251
30
0
41
1
10
26.254807540984
20
4.16704312311302
30
0
41
1
10
25.7050015036393
20
4.29224079679912
30
0
41
1
10
25.4302456796458
20
4.34946973873889
30
0
41
1
10
24.8811383377506
20
4.4557363178246
30
0
41
1
10
24.6068353809207
20
4.50487093274523
30
0
41
1
10
24.0575988311436
20
4.59361960234767
30
0
41
1
10
23.7828040408791
20
4.63355296763689
30
0
41
1
10
23.2324752793555
20
4.70152874943895
30
0
41
1
10
22.9567872050333
20
4.73023332176038
30
0
41
1
10
22.4063087707267
20
4.77951465248975
30
0
41
1
10
22.1313921342862
20
4.7995252266947
30
0
41
1
10
21.5816381157459
20
4.8290975835707
30
0
41
1
10
21.3068381487927
20
4.83806452304353
30
0
41
1
10
20.913138863466
20
4.84341591758584
30
0
41
1
10
20.794212231717
20
4.8442121638715
30
0
41
1
10
20.6753056494188
20
4.844146074268
30
0
0
SPLINE
5
C9
100
AcDbEntity
8
1
62
256
6
ByLayer
370
18
48
1
60
0
100
AcDbSpline
70
4
71
3
72
8
73
4
40
0
40
0
40
0
40
0
40
1
40
1
40
1
40
1
41
1
10
71.2763862224728
20
-3.03258032890699
30
0
41
1
10
71.1369226835835
20
-3.301085546499
30
0
41
1
10
70.9995634834175
20
-3.57150181142902
30
0
41
1
10
70.8643222369336
20
-3.84384148807078
30
0
0
SPLINE
5
CA
100
AcDbEntity
8
1
62
256
6
ByLayer
370
18
48
1
60
0
100
AcDbSpline
70
4
71
3
72
50
73
46
40
0
40
0
40
0
40
0
40
0.0625000000000014
40
0.0625000000000014
40
0.125000000000003
40
0.125000000000003
40
0.187500000000004
40
0.187500000000004
40
0.250000000000006
40
0.250000000000006
40
0.312500000000007
40
0.312500000000007
40
0.343750000000006
40
0.343750000000006
40
0.375000000000004
40
0.375000000000004
40
0.406250000000002
40
0.406250000000002
40
0.421875000000002
40
0.421875000000002
40
0.437500000000001
40
0.437500000000001
40
0.453125
40
0.453125
40
0.468749999999999
40
0.468749999999999
40
0.484374999999999
40
0.484374999999999
40
0.499999999999998
40
0.499999999999998
40
0.53125
40
0.53125
40
0.562500000000002
40
0.562500000000002
40
0.625000000000002
40
0.625000000000002
40
0.687500000000002
40
0.687500000000002
40
0.750000000000001
40
0.750000000000001
40
0.812500000000001
40
0.812500000000001
40
0.875000000000001
40
0.875000000000001
40
1
40
1
40
1
40
1
41
1
10
71.2763862224726
20
-3.0325803289069
30
0
41
1
10
71.1652186092947
20
-2.99995372674763
30
0
41
1
10
71.0542199598469
20
-2.96237588029791
30
0
41
1
10
70.8325534874458
20
-2.87752578261967
30
0
41
1
10
70.721625464908
20
-2.83013039007596
30
0
41
1
10
70.5013154665085
20
-2.72549736710346
30
0
41
1
10
70.39245154344
20
-2.66854193512415
30
0
41
1
10
70.1776158410811
20
-2.54423941050675
30
0
41
1
10
70.0716316933285
20
-2.47693675855751
30
0
41
1
10
69.8633270508008
20
-2.32916771127881
30
0
41
1
10
69.7608268161367
20
-2.24863601530547
30
0
41
1
10
69.6142575377783
20
-2.1155378258299
30
0
41
1
10
69.5663448977964
20
-2.068841241174
30
0
41
1
10
69.4746647086033
20
-1.97074633003879
30
0
41
1
10
69.4308250604888
20
-1.91937733358796
30
0
41
1
10
69.349121185957
20
-1.80970479588231
30
0
41
1
10
69.3108396239682
20
-1.75085358787797
30
0
41
1
10
69.2636024112336
20
-1.65707766145937
30
0
41
1
10
69.2494478845877
20
-1.62456041973516
30
0
41
1
10
69.2266221032313
20
-1.55875552204893
30
0
41
1
10
69.2178404718149
20
-1.52536714243845
30
0
41
1
10
69.207608536868
20
-1.45723646198445
30
0
41
1
10
69.2064259707921
20
-1.42368917328449
30
0
41
1
10
69.2132720427754
20
-1.35918028870955
30
0
41
1
10
69.2213154306884
20
-1.32888587118526
30
0
41
1
10
69.2452127179614
20
-1.27435171014756
30
0
41
1
10
69.2610601981921
20
-1.25005195804926
30
0
41
1
10
69.2972492443256
20
-1.20806387634505
30
0
41
1
10
69.3179961181057
20
-1.18983819653676
30
0
41
1
10
69.3838546964261
20
-1.14311116092247
30
0
41
1
10
69.4326340547865
20
-1.12175570225128
30
0
41
1
10
69.5351382897885
20
-1.09000695829198
30
0
41
1
10
69.5877846639306
20
-1.08010719915086
30
0
41
1
10
69.7482745777012
20
-1.06133847085616
30
0
41
1
10
69.8593641839897
20
-1.06335788378715
30
0
41
1
10
70.0811986272348
20
-1.08299560496315
30
0
41
1
10
70.1920145505518
20
-1.10079149687019
30
0
41
1
10
70.4135109539637
20
-1.14704915332996
30
0
41
1
10
70.5241901360905
20
-1.17561313017527
30
0
41
1
10
70.7454382531515
20
-1.24142282146133
30
0
41
1
10
70.8560068493105
20
-1.27869521375766
30
0
41
1
10
71.0770434937569
20
-1.36115793454408
30
0
41
1
10
71.187786496702
20
-1.40648910150966
30
0
41
1
10
71.5164919447464
20
-1.55299034879076
30
0
41
1
10
71.7318636217027
20
-1.66424484446594
30
0
41
1
10
71.9421237017103
20
-1.79394447565454
30
0
0
SPLINE
5
CB
100
AcDbEntity
8
1
62
256
6
ByLayer
370
18
48
1
60
0
100
AcDbSpline
70
4
71
3
72
22
73
18
40
0
40
0
40
0
40
0
40
0.249999999999984
40
0.249999999999984
40
0.499999999999969
40
0.499999999999969
40
0.62499999999996
40
0.62499999999996
40
0.687499999999964
40
0.687499999999964
40
0.749999999999968
40
0.749999999999968
40
0.812499999999972
40
0.812499999999972
40
0.874999999999975
40
0.874999999999975
40
1
40
1
40
1
40
1
41
1
10
2.45697804112376
20
2.0533030108007
30
0
41
1
10
2.45697804112376
20
2.09401252730737
30
0
41
1
10
2.46032584234251
20
2.13391123587033
30
0
41
1
10
2.47443294314408
20
2.21178067564779
30
0
41
1
10
2.48484639783115
20
2.24996805395514
30
0
41
1
10
2.51035330031294
20
2.30219088288311
30
0
41
1
10
2.52047883523855
20
2.31906833998201
30
0
41
1
10
2.5418304555273
20
2.33930807824126
30
0
41
1
10
2.55011160514931
20
2.34534597259031
30
0
41
1
10
2.57111328690996
20
2.35195933336485
30
0
41
1
10
2.58427372924669
20
2.35180737679556
30
0
41
1
10
2.61121072530108
20
2.34041207545803
30
0
41
1
10
2.62340420978052
20
2.33058530594565
30
0
41
1
10
2.64483807390152
20
2.3094608343022
30
0
41
1
10
2.65405646583466
20
2.29825610055363
30
0
41
1
10
2.67989221577858
20
2.26402910855995
30
0
41
1
10
2.69467124434215
20
2.24026223774837
30
0
41
1
10
2.7084729166167
20
2.216548502618
30
0
0
SPLINE
5
CC
100
AcDbEntity
8
1
62
256
6
ByLayer
370
18
48
1
60
0
100
AcDbSpline
70
4
71
3
72
8
73
4
40
0
40
0
40
0
40
0
40
1
40
1
40
1
40
1
41
1
10
71.197873280023
20
5.12337013305256
30
0
41
1
10
71.0101727625087
20
5.12825742233346
30
0
41
1
10
70.8224681118427
20
5.13062881188352
30
0
41
1
10
70.6347120838848
20
5.13048617579676
30
0
0
SPLINE
5
CD
100
AcDbEntity
8
1
62
256
6
ByLayer
370
18
48
1
60
0
100
AcDbSpline
70
4
71
3
72
48
73
44
40
0
40
0
40
0
40
0
40
0.0586157256458377
40
0.0586157256458377
40
0.0885522605343365
40
0.0885522605343365
40
0.118488795422835
40
0.118488795422835
40
0.178361865199832
40
0.178361865199832
40
0.20829840008833
40
0.20829840008833
40
0.238234934976828
40
0.238234934976828
40
0.298108004753824
40
0.298108004753824
40
0.357981074530821
40
0.357981074530821
40
0.387917609419319
40
0.387917609419319
40
0.417854144307817
40
0.417854144307817
40
0.477727214084812
40
0.477727214084812
40
0.597473353638802
40
0.597473353638802
40
0.627409888527299
40
0.627409888527299
40
0.657346423415796
40
0.657346423415796
40
0.717219493192789
40
0.717219493192789
40
0.747156028081286
40
0.747156028081286
40
0.777092562969783
40
0.777092562969783
40
0.836965632746776
40
0.836965632746776
40
0.956711772300763
40
0.956711772300763
40
0.98664830718926
40
0.98664830718926
40
1
40
1
40
1
40
1
41
1
10
41.1333731073133
20
-4.87953406799267
30
0
41
1
10
40.4325528176463
20
-4.98189870870178
30
0
41
1
10
39.732764081858
20
-5.05076657522983
30
0
41
1
10
38.6729611899041
20
-5.10239470671235
30
0
41
1
10
38.3137894475869
20
-5.11079382238785
30
0
41
1
10
37.5967311864584
20
-5.10928256538128
30
0
41
1
10
37.2387512915589
20
-5.09940319761276
30
0
41
1
10
36.1652639350713
20
-5.04269107552173
30
0
41
1
10
35.4502426712638
20
-4.96876631786742
30
0
41
1
10
34.3742605823171
20
-4.80524719399293
30
0
41
1
10
34.0151702721755
20
-4.74198189422623
30
0
41
1
10
33.2986901561665
20
-4.59910014347747
30
0
41
1
10
32.9408668868205
20
-4.51941352927818
30
0
41
1
10
31.8674729082005
20
-4.25679746161447
30
0
41
1
10
31.1516927437003
20
-4.05013386053116
30
0
41
1
10
29.7158064031793
20
-3.58086215548099
30
0
41
1
10
29.0004879708037
20
-3.31977950293737
30
0
41
1
10
27.9270003450309
20
-2.89553085716665
30
0
41
1
10
27.569046091145
20
-2.74874787857877
30
0
41
1
10
26.8522082087708
20
-2.44557758290497
30
0
41
1
10
26.4926970811482
20
-2.2888735776821
30
0
41
1
10
25.4185807731133
20
-1.80923935808988
30
0
41
1
10
24.707208427766
20
-1.47661111410031
30
0
41
1
10
22.578589754651
20
-0.457935765963839
30
0
41
1
10
21.1670850648414
20
0.249442454217245
30
0
41
1
10
19.3834803576489
20
1.10917659934177
30
0
41
1
10
19.0258375340645
20
1.27998023154342
30
0
41
1
10
18.3078944568705
20
1.6175915954324
30
0
41
1
10
17.9491495975971
20
1.78363600964138
30
0
41
1
10
16.8745189833337
20
2.27044807568527
30
0
41
1
10
16.1594828394124
20
2.58053640236153
30
0
41
1
10
15.0844180450316
20
3.01568649621282
30
0
41
1
10
14.7250117737412
20
3.15596402518673
30
0
41
1
10
14.007913947273
20
3.4241550252093
30
0
41
1
10
13.6506282453478
20
3.5519090727104
30
0
41
1
10
12.5813419117067
20
3.91465910652408
30
0
41
1
10
11.8720164995911
20
4.12928652386643
30
0
41
1
10
9.74597063981508
20
4.68204903219586
30
0
41
1
10
8.33155656771015
20
4.92912439215311
30
0
41
1
10
6.53850329018442
20
5.05942116125246
30
0
41
1
10
6.17906157060716
20
5.07650646139447
30
0
41
1
10
5.66085362276456
20
5.08800194339855
30
0
41
1
10
5.50110339830934
20
5.08974062044419
30
0
41
1
10
5.34140456664232
20
5.08967685528407
30
0
0
SPLINE
5
CE
100
AcDbEntity
8
1
62
256
6
ByLayer
370
18
48
1
60
0
100
AcDbSpline
70
4
71
3
72
8
73
4
40
0
40
0
40
0
40
0
40
1
40
1
40
1
40
1
41
1
10
72.9999573603329
20
0.048200767367689
30
0
41
1
10
73.0000142158659
20
0.0160654285393491
30
0
41
1
10
73.0000142093235
20
-0.0160691263255615
30
0
41
1
10
72.9999573603329
20
-0.0482007673598446
30
0
0
SPLINE
5
CF
100
AcDbEntity
8
1
62
256
6
ByLayer
370
18
48
1
60
0
100
AcDbSpline
70
4
71
3
72
8
73
4
40
0
40
0
40
0
40
0
40
1
40
1
40
1
40
1
41
1
10
72.9381565284992
20
-1.17197229027934
30
0
41
1
10
72.96170823069
20
-0.822687455015227
30
0
41
1
10
72.978770640646
20
-0.473732060457365
30
0
41
1
10
72.9893334100926
20
-0.125106631954736
30
0
0
SPLINE
5
D0
100
AcDbEntity
8
1
62
256
6
ByLayer
370
18
48
1
60
0
100
AcDbSpline
70
4
71
3
72
42
73
38
40
0
40
0
40
0
40
0
40
0.124999999999995
40
0.124999999999995
40
0.249999999999991
40
0.249999999999991
40
0.312499999999989
40
0.312499999999989
40
0.374999999999987
40
0.374999999999987
40
0.499999999999977
40
0.499999999999977
40
0.562499999999973
40
0.562499999999973
40
0.624999999999968
40
0.624999999999968
40
0.749999999999959
40
0.749999999999959
40
0.812499999999957
40
0.812499999999957
40
0.828124999999955
40
0.828124999999955
40
0.835937499999954
40
0.835937499999954
40
0.843749999999954
40
0.843749999999954
40
0.851562499999953
40
0.851562499999953
40
0.855468749999954
40
0.855468749999954
40
0.859374999999955
40
0.859374999999955
40
0.87499999999996
40
0.87499999999996
40
0.93749999999998
40
0.93749999999998
40
1
40
1
40
1
40
1
41
1
10
66.3985904843802
20
1.50062429023834
30
0
41
1
10
66.6118296030475
20
1.33391555942953
30
0
41
1
10
66.8295582655452
20
1.1789796809708
30
0
41
1
10
67.2740317659301
20
0.892750883253683
30
0
41
1
10
67.5007710973757
20
0.761443524549918
30
0
41
1
10
67.8481427249756
20
0.58352715538993
30
0
41
1
10
67.9648797129948
20
0.527561529943711
30
0
41
1
10
68.1981933624708
20
0.423839338610492
30
0
41
1
10
68.3150646335001
20
0.375860216357324
30
0
41
1
10
68.6663305577982
20
0.243727569399511
30
0
41
1
10
68.9013717764342
20
0.171278371917339
30
0
41
1
10
69.2553580003598
20
0.0883894342648546
30
0
41
1
10
69.3735921100738
20
0.0650808414439439
30
0
41
1
10
69.6105789055387
20
0.0278510803915992
30
0
41
1
10
69.7296478306661
20
0.013923265730881
30
0
41
1
10
70.0834112904664
20
-0.011858899437982
30
0
41
1
10
70.3156732586654
20
-0.0079397362451914
30
0
41
1
10
70.6576049349591
20
0.0360303579613799
30
0
41
1
10
70.7701167229358
20
0.0569586826390491
30
0
41
1
10
70.9080920394021
20
0.0915073173236749
30
0
41
1
10
70.9355458184862
20
0.0988343663531452
30
0
41
1
10
70.9765101924543
20
0.110463826154444
30
0
41
1
10
70.9901292991843
20
0.114446928881137
30
0
41
1
10
71.0172900697521
20
0.12262703215481
30
0
41
1
10
71.0309834861823
20
0.126429464474626
30
0
41
1
10
71.0578030808132
20
0.135495258466079
30
0
41
1
10
71.0707042053668
20
0.141808265449498
30
0
41
1
10
71.0856409477858
20
0.158037823384262
30
0
41
1
10
71.0897871148835
20
0.164381821848536
30
0
41
1
10
71.095704542034
20
0.17918827739112
30
0
41
1
10
71.0971184648928
20
0.187486934340427
30
0
41
1
10
71.101418075491
20
0.229841567600516
30
0
41
1
10
71.104220550091
20
0.264100120555554
30
0
41
1
10
71.1174204285911
20
0.435307166644634
30
0
41
1
10
71.1217614095919
20
0.574098658410236
30
0
41
1
10
71.1201684878623
20
0.853918859852371
30
0
41
1
10
71.1141920231979
20
0.995461385318265
30
0
41
1
10
71.1040223922124
20
1.13674088697996
30
0
0
SPLINE
5
D1
100
AcDbEntity
8
1
62
256
6
ByLayer
370
18
48
1
60
0
100
AcDbSpline
70
4
71
3
72
14
73
10
40
0
40
0
40
0
40
0
40
0.142450262225867
40
0.142450262225867
40
0.284900524451734
40
0.284900524451734
40
0.569801048903463
40
0.569801048903463
40
1
40
1
40
1
40
1
41
1
10
71.2705883837437
20
-4.87072048013914
30
0
41
1
10
70.9109479906816
20
-4.87708036036923
30
0
41
1
10
70.5514033394354
20
-4.87462879273116
30
0
41
1
10
69.831887029133
20
-4.85218010527086
30
0
41
1
10
69.4720711587801
20
-4.83215975527204
30
0
41
1
10
68.3972979974879
20
-4.74673450534985
30
0
41
1
10
67.6848401388198
20
-4.65595079060827
30
0
41
1
10
65.9003510806029
20
-4.34874937796423
30
0
41
1
10
64.8300705327606
20
-4.09159894342585
30
0
41
1
10
63.7539358680113
20
-3.77231941470512
30
0
0
SPLINE
5
D2
100
AcDbEntity
8
1
62
256
6
ByLayer
370
13
48
1
60
0
100
AcDbSpline
70
4
71
3
72
22
73
18
40
0
40
0
40
0
40
0
40
0.0786710494988498
40
0.0786710494988498
40
0.158947145434334
40
0.158947145434334
40
0.239223241369818
40
0.239223241369818
40
0.399775433240784
40
0.399775433240784
40
0.720879816982714
40
0.720879816982714
40
0.801155912918198
40
0.801155912918198
40
0.881432008853682
40
0.881432008853682
40
1
40
1
40
1
40
1
41
1
10
63.7539358899192
20
-3.772319421205
30
0
41
1
10
63.404723834731
20
-3.66871132849124
30
0
41
1
10
63.0548953171335
20
-3.55856078844599
30
0
41
1
10
62.3462266203581
20
-3.32349902412204
30
0
41
1
10
61.9869782785051
20
-3.19820494974326
30
0
41
1
10
61.2674923838359
20
-2.93618210657911
30
0
41
1
10
60.9090107844418
20
-2.80008607205286
30
0
41
1
10
59.8363061301228
20
-2.37869398072871
30
0
41
1
10
59.1247097315127
20
-2.08045906731078
30
0
41
1
10
56.9925333351022
20
-1.15046546046926
30
0
41
1
10
55.5750409838939
20
-0.482131601227167
30
0
41
1
10
53.7814206016333
20
0.356737547952577
30
0
41
1
10
53.4208660788551
20
0.524998589250259
30
0
41
1
10
52.7029994959121
20
0.857305939166963
30
0
41
1
10
52.3452092930441
20
1.02169722759027
30
0
41
1
10
51.46099026163
20
1.42301616056793
30
0
41
1
10
50.935371506424
20
1.65668282933822
30
0
41
1
10
50.4104416843366
20
1.88292093955019
30
0
0
SPLINE
5
D3
100
AcDbEntity
8
1
62
256
6
ByLayer
370
18
48
1
60
0
100
AcDbSpline
70
4
71
3
72
8
73
4
40
0
40
0
40
0
40
0
40
1
40
1
40
1
40
1
41
1
10
5.53747164181618
20
-4.83343872735912
30
0
41
1
10
4.59772635855492
20
-4.8315959326294
30
0
41
1
10
3.65637188810825
20
-4.770564878339
30
0
41
1
10
2.70729864606835
20
-4.64949643042669
30
0
0
SPLINE
5
D4
100
AcDbEntity
8
1
62
256
6
ByLayer
370
18
48
1
60
0
100
AcDbSpline
70
4
71
3
72
12
73
8
40
0
40
0
40
0
40
0
40
0.249999999999999
40
0.249999999999999
40
0.499999999999998
40
0.499999999999998
40
1
40
1
40
1
40
1
41
1
10
2.59697313059132
20
-4.91221568356019
30
0
41
1
10
2.57592169143607
20
-4.9095152419618
30
0
41
1
10
2.5567876126334
20
-4.90609400951649
30
0
41
1
10
2.52226050543789
20
-4.89772810896082
30
0
41
1
10
2.50717001353033
20
-4.89281698939513
30
0
41
1
10
2.47040914499715
20
-4.87642429792422
30
0
41
1
10
2.45697804112376
20
-4.86305421874087
30
0
41
1
10
2.45697804112376
20
-4.84885236404122
30
0
0
SPLINE
5
D5
100
AcDbEntity
8
1
62
256
6
ByLayer
370
18
48
1
60
0
100
AcDbSpline
70
4
71
3
72
14
73
10
40
0
40
0
40
0
40
0
40
0.25
40
0.25
40
0.5
40
0.5
40
0.75
40
0.75
40
1
40
1
40
1
40
1
41
1
10
71.1040223922125
20
1.13674088697996
30
0
41
1
10
71.1029151716729
20
1.15212272003555
30
0
41
1
10
71.1059012535085
20
1.1677641863966
30
0
41
1
10
71.1210124169836
20
1.19494548086601
30
0
41
1
10
71.1331083677011
20
1.20627285021098
30
0
41
1
10
71.1603829094146
20
1.22221055692216
30
0
41
1
10
71.1757876243466
20
1.22729145968131
30
0
41
1
10
71.2067371766473
20
1.23315393415621
30
0
41
1
10
71.2226546721423
20
1.23404341717736
30
0
41
1
10
71.23849165377
20
1.23343140148518
30
0
0
SPLINE
5
D6
100
AcDbEntity
8
1
62
256
6
ByLayer
370
18
48
1
60
0
100
AcDbSpline
70
4
71
3
72
30
73
26
40
0
40
0
40
0
40
0
40
0.125
40
0.125
40
0.1875
40
0.1875
40
0.25
40
0.25
40
0.375
40
0.375
40
0.4375
40
0.4375
40
0.5
40
0.5
40
0.625
40
0.625
40
0.6875
40
0.6875
40
0.75
40
0.75
40
0.875
40
0.875
40
0.9375
40
0.9375
40
1
40
1
40
1
40
1
41
1
10
2.45697804112373
20
2.05330301080068
30
0
41
1
10
2.45697804112373
20
1.72629627175206
30
0
41
1
10
2.45697804112373
20
1.38946677314956
30
0
41
1
10
2.45697804112371
20
0.869928077683738
30
0
41
1
10
2.45697804112373
20
0.694346563246398
30
0
41
1
10
2.45697804112373
20
0.338210954848392
30
0
41
1
10
2.45697804112373
20
0.160000838020011
30
0
41
1
10
2.45697804112376
20
-0.371587739020356
30
0
41
1
10
2.45697804112376
20
-0.723462430892994
30
0
41
1
10
2.45697804112376
20
-1.24740261194404
30
0
41
1
10
2.45697804112371
20
-1.42052575792948
30
0
41
1
10
2.45697804112371
20
-1.75975008501638
30
0
41
1
10
2.45697804112376
20
-1.92712595879129
30
0
41
1
10
2.45697804112373
20
-2.41516710735289
30
0
41
1
10
2.45697804112373
20
-2.7203535003961
30
0
41
1
10
2.45697804112373
20
-3.14859123508819
30
0
41
1
10
2.45697804112371
20
-3.28648962590759
30
0
41
1
10
2.45697804112373
20
-3.55150460415905
30
0
41
1
10
2.45697804112373
20
-3.67648763708019
30
0
41
1
10
2.45697804112371
20
-4.02965989077811
30
0
41
1
10
2.45697804112373
20
-4.23630724263185
30
0
41
1
10
2.45697804112376
20
-4.50187090625016
30
0
41
1
10
2.45697804112376
20
-4.58244386499115
30
0
41
1
10
2.45697804112376
20
-4.72564564059132
30
0
41
1
10
2.45697804112376
20
-4.78862625760777
30
0
41
1
10
2.45697804112376
20
-4.84286943876344
30
0
0
SPLINE
5
D7
100
AcDbEntity
8
1
62
256
6
ByLayer
370
13
48
1
60
0
100
AcDbSpline
70
4
71
3
72
8
73
4
40
0
40
0
40
0
40
0
40
1
40
1
40
1
40
1
41
1
10
2.59697313059132
20
-4.91221568355991
30
0
41
1
10
2.59781491469909
20
-4.86643005642912
30
0
41
1
10
2.59866362527697
20
-4.82064230459423
30
0
41
1
10
2.59951924905602
20
-4.77485235589265
30
0
0
SPLINE
5
D8
100
AcDbEntity
8
1
62
256
6
ByLayer
370
18
48
1
60
0
100
AcDbSpline
70
4
71
3
72
50
73
46
40
0
40
0
40
0
40
0
40
0.032261186434447
40
0.032261186434447
40
0.0645223728688939
40
0.0645223728688939
40
0.129044745737787
40
0.129044745737787
40
0.161305932172234
40
0.161305932172234
40
0.193567118606681
40
0.193567118606681
40
0.258089491475575
40
0.258089491475575
40
0.290350677910022
40
0.290350677910022
40
0.322611864344468
40
0.322611864344468
40
0.387134237213362
40
0.387134237213362
40
0.41939542364781
40
0.41939542364781
40
0.451656610082257
40
0.451656610082257
40
0.516178982951151
40
0.516178982951151
40
0.580701355820045
40
0.580701355820045
40
0.612962542254493
40
0.612962542254493
40
0.64522372868894
40
0.64522372868894
40
0.709746101557834
40
0.709746101557834
40
0.742007287992281
40
0.742007287992281
40
0.774268474426728
40
0.774268474426728
40
0.838790847295623
40
0.838790847295623
40
0.903313220164518
40
0.903313220164518
40
0.967835593033412
40
0.967835593033412
40
1
40
1
40
1
40
1
41
1
10
71.1978732800229
20
-5.12337013305256
30
0
41
1
10
70.8399120614832
20
-5.13269061894954
30
0
41
1
10
70.4820289736621
20
-5.13285840645858
30
0
41
1
10
69.7657638435194
20
-5.11494308649
30
0
41
1
10
69.4071540460443
20
-5.09682599336176
30
0
41
1
10
68.333698573709
20
-5.01553441355873
30
0
41
1
10
67.6199281326996
20
-4.92545578684559
30
0
41
1
10
66.5478163011967
20
-4.73888479714842
30
0
41
1
10
66.190180292393
20
-4.6681342976764
30
0
41
1
10
65.4735794062481
20
-4.51005781907483
30
0
41
1
10
65.1153870864867
20
-4.42286029990032
30
0
41
1
10
64.0427500387399
20
-4.13862371581007
30
0
41
1
10
63.3290111599629
20
-3.91882650673165
30
0
41
1
10
62.256014618773
20
-3.54930004839923
30
0
41
1
10
61.89756396562
20
-3.41931291368186
30
0
41
1
10
61.1811742703005
20
-3.14776648018994
30
0
41
1
10
60.8236094661446
20
-3.00631849087537
30
0
41
1
10
59.7515423293165
20
-2.56710985840022
30
0
41
1
10
59.0375803726096
20
-2.25463425199519
30
0
41
1
10
57.9634504050211
20
-1.76414791656774
30
0
41
1
10
57.6046691672313
20
-1.59687587568052
30
0
41
1
10
56.8889277381048
20
-1.2579643465987
30
0
41
1
10
56.5315630733677
20
-1.08612058046597
30
0
41
1
10
55.4596522309924
20
-0.566104846899691
30
0
41
1
10
54.7453324209138
20
-0.213364047163822
30
0
41
1
10
53.3115785068647
20
0.492721265694826
30
0
41
1
10
52.5965731680931
20
0.843562995521012
30
0
41
1
10
51.5246328748554
20
1.35717723157148
30
0
41
1
10
51.1672436234655
20
1.526198270055
30
0
41
1
10
50.4516255177617
20
1.85851561236638
30
0
41
1
10
50.0930272273001
20
2.02212392638961
30
0
41
1
10
49.0183104172749
20
2.50064630093786
30
0
41
1
10
48.3040091086373
20
2.80276575670902
30
0
41
1
10
47.2317321422112
20
3.22367244086462
30
0
41
1
10
46.8741507124916
20
3.35856285286516
30
0
41
1
10
46.1578527537754
20
3.61617567103678
30
0
41
1
10
45.7990096340439
20
3.73894561972102
30
0
41
1
10
44.7252048236952
20
4.08580764489733
30
0
41
1
10
44.0110988707655
20
4.28893816477594
30
0
41
1
10
42.5805677790458
20
4.63228036237828
30
0
41
1
10
41.8626492184265
20
4.77255797452878
30
0
41
1
10
40.4318386227727
20
4.98244947515229
30
0
41
1
10
39.7176743500922
20
5.05247278108965
30
0
41
1
10
38.6449693287207
20
5.10324369447795
30
0
41
1
10
38.2872584133605
20
5.11114922457597
30
0
41
1
10
37.93001792191
20
5.10996992183817
30
0
0
SPLINE
5
D9
100
AcDbEntity
8
1
62
256
6
ByLayer
370
18
48
1
60
0
100
AcDbSpline
70
4
71
3
72
14
73
10
40
0
40
0
40
0
40
0
40
0.289265358714255
40
0.289265358714255
40
0.466949019035691
40
0.466949019035691
40
0.644632679357126
40
0.644632679357126
40
1
40
1
40
1
40
1
41
1
10
8.63495271925288
20
-4.83734145533452
30
0
41
1
10
8.05683727038178
20
-4.92541620961504
30
0
41
1
10
7.47701415383048
20
-4.99130799347245
30
0
41
1
10
6.53578044205346
20
-5.05956575248672
30
0
41
1
10
6.17651114106107
20
-5.07660214442896
30
0
41
1
10
5.46021286783838
20
-5.09241342503509
30
0
41
1
10
5.10249823720156
20
-5.09124614632125
30
0
41
1
10
4.02954705273663
20
-5.06068347631421
30
0
41
1
10
3.31446574957712
20
-5.00425437509796
30
0
41
1
10
2.59697313059135
20
-4.91221568356019
30
0
0
SPLINE
5
DA
100
AcDbEntity
8
1
62
256
6
ByLayer
370
18
48
1
60
0
100
AcDbSpline
70
4
71
3
72
10
73
6
40
0
40
0
40
0
40
0
40
0.5
40
0.5
40
1
40
1
40
1
40
1
41
1
10
72.9999573603417
20
0.0482007673957412
30
0
41
1
10
72.9962138676663
20
0.0329512249346919
30
0
41
1
10
72.9911219606904
20
0.0166275971267567
30
0
41
1
10
72.9788757831695
20
-0.0143475697574331
30
0
41
1
10
72.9716898441552
20
-0.0290133565617339
30
0
41
1
10
72.9644080380027
20
-0.0409277884799337
30
0
0
SPLINE
5
DB
100
AcDbEntity
8
1
62
256
6
ByLayer
370
18
48
1
60
0
100
AcDbSpline
70
4
71
3
72
8
73
4
40
0
40
0
40
0
40
0
40
1
40
1
40
1
40
1
41
1
10
72.9644080380027
20
-0.0409277884799621
30
0
41
1
10
72.6131181985739
20
-0.615705362588614
30
0
41
1
10
72.2722953399654
20
-1.19998848616592
30
0
41
1
10
71.9421237017102
20
-1.79394447565451
30
0
0
SPLINE
5
DC
100
AcDbEntity
8
1
62
256
6
ByLayer
370
18
48
1
60
0
100
AcDbSpline
70
4
71
3
72
54
73
50
40
0
40
0
40
0
40
0
40
0.0794818641079927
40
0.0794818641079927
40
0.119222796161989
40
0.119222796161989
40
0.158963728215986
40
0.158963728215986
40
0.198704660269982
40
0.198704660269982
40
0.238445592323978
40
0.238445592323978
40
0.278186524377975
40
0.278186524377975
40
0.317927456431971
40
0.317927456431971
40
0.357668388485967
40
0.357668388485967
40
0.397409320539964
40
0.397409320539964
40
0.43715025259396
40
0.43715025259396
40
0.476891184647956
40
0.476891184647956
40
0.516632116701953
40
0.516632116701953
40
0.556373048755949
40
0.556373048755949
40
0.596113980809945
40
0.596113980809945
40
0.635854912863942
40
0.635854912863942
40
0.675595844917938
40
0.675595844917938
40
0.715336776971935
40
0.715336776971935
40
0.794818641079928
40
0.794818641079928
40
0.834559573133924
40
0.834559573133924
40
0.87430050518792
40
0.87430050518792
40
0.914041437241917
40
0.914041437241917
40
0.953782369295913
40
0.953782369295913
40
0.993523301349909
40
0.993523301349909
40
1
40
1
40
1
40
1
41
1
10
13.6145101337504
20
2.95376680093051
30
0
41
1
10
14.2217572329928
20
2.70862036975902
30
0
41
1
10
14.8277720575634
20
2.45458369971163
30
0
41
1
10
15.7317765647319
20
2.05479074755809
30
0
41
1
10
16.0319448795139
20
1.917719616738
30
0
41
1
10
16.6327422288855
20
1.64142110822198
30
0
41
1
10
16.933218098174
20
1.50191582590637
30
0
41
1
10
17.5337879580508
20
1.21917015446863
30
0
41
1
10
17.8338888212247
20
1.07594209420773
30
0
41
1
10
18.4333974715162
20
0.785039247204622
30
0
41
1
10
18.7335230493451
20
0.638834802529033
30
0
41
1
10
19.3350588867091
20
0.346102101338232
30
0
41
1
10
19.6362869990262
20
0.199197778397917
30
0
41
1
10
20.2393343310509
20
-0.0964322737308123
30
0
41
1
10
20.5407998163195
20
-0.245938973744558
30
0
41
1
10
21.146273795704
20
-0.54263358235869
30
0
41
1
10
21.4507194968141
20
-0.690304811838502
30
0
41
1
10
22.0587231524435
20
-0.983623816196257
30
0
41
1
10
22.3617277372307
20
-1.12899124779992
30
0
41
1
10
22.9654068045515
20
-1.41780300266538
30
0
41
1
10
23.2667840398003
20
-1.55975747150396
30
0
41
1
10
23.8691999724714
20
-1.83779316747643
30
0
41
1
10
24.1700577904529
20
-1.97425040367378
30
0
41
1
10
24.7707327300848
20
-2.24271503402505
30
0
41
1
10
25.0701835115599
20
-2.37537608745524
30
0
41
1
10
25.6699851298858
20
-2.63255178229588
30
0
41
1
10
25.9702363240116
20
-2.75729649110022
30
0
41
1
10
26.5708989719178
20
-3.00013028573701
30
0
41
1
10
26.8713313470189
20
-3.11818164474988
30
0
41
1
10
27.4719950844862
20
-3.34803832184508
30
0
41
1
10
27.7728997910639
20
-3.45872416389486
30
0
41
1
10
28.3765915205855
20
-3.67052223182327
30
0
41
1
10
28.6791696383889
20
-3.77197390920634
30
0
41
1
10
29.2854752764397
20
-3.96631854078518
30
0
41
1
10
29.5894544518818
20
-4.05982954565738
30
0
41
1
10
30.4992308137825
20
-4.3213780218214
30
0
41
1
10
31.1037108918532
20
-4.47198650268581
30
0
41
1
10
32.0048161776796
20
-4.66566210753737
30
0
41
1
10
32.304923037581
20
-4.72411715781209
30
0
41
1
10
32.9053723368799
20
-4.82854960971088
30
0
41
1
10
33.2055069744041
20
-4.87471220983477
30
0
41
1
10
33.8052522640023
20
-4.95511896461466
30
0
41
1
10
34.1044882929745
20
-4.98949080150473
30
0
41
1
10
34.7042656823055
20
-5.04521470057881
30
0
41
1
10
35.0047626106565
20
-5.06667478999034
30
0
41
1
10
35.6064389753701
20
-5.09704724505781
30
0
41
1
10
35.9076494475163
20
-5.10595273090107
30
0
41
1
10
36.258116048167
20
-5.10878578758647
30
0
41
1
10
36.3072488128427
20
-5.10900923161464
30
0
41
1
10
36.3564038023406
20
-5.10905941699576
30
0
0
SPLINE
5
DD
100
AcDbEntity
8
1
62
256
6
ByLayer
370
18
48
1
60
0
100
AcDbSpline
70
4
71
3
72
28
73
24
40
0
40
0
40
0
40
0
40
0.0589419633260491
40
0.0589419633260491
40
0.144492693932771
40
0.144492693932771
40
0.230043424539492
40
0.230043424539492
40
0.315594155146212
40
0.315594155146212
40
0.401144885752934
40
0.401144885752934
40
0.486695616359655
40
0.486695616359655
40
0.657797077573101
40
0.657797077573101
40
0.743347808179826
40
0.743347808179826
40
0.82889853878655
40
0.82889853878655
40
0.914449269393275
40
0.914449269393275
40
1
40
1
40
1
40
1
41
1
10
60.8830670762956
20
3.63410156607651
30
0
41
1
10
61.0912541447149
20
3.70677472402124
30
0
41
1
10
61.2996652634154
20
3.7776045259196
30
0
41
1
10
61.811965831623
20
3.94536239409683
30
0
41
1
10
62.1160902680857
20
4.03924859557574
30
0
41
1
10
62.7215508671237
20
4.21588985915119
30
0
41
1
10
63.023495124149
20
4.29878852867992
30
0
41
1
10
63.6252260553828
20
4.4543486231253
30
0
41
1
10
63.9254151471011
20
4.52649799632201
30
0
41
1
10
64.526059033447
20
4.65821060459982
30
0
41
1
10
64.8262131919928
20
4.71811187071506
30
0
41
1
10
65.4257984921964
20
4.82637786440756
30
0
41
1
10
65.7248876272503
20
4.87493383230321
30
0
41
1
10
66.6230846976529
20
5.00158363091904
30
0
41
1
10
67.2239318735239
20
5.0607686511764
30
0
41
1
10
68.1254493598959
20
5.11235860596923
30
0
41
1
10
68.4262823430676
20
5.12314143351205
30
0
41
1
10
69.0304496383381
20
5.13163322017621
30
0
41
1
10
69.3334579661651
20
5.12943127172045
30
0
41
1
10
69.9409527208622
20
5.111898612456
30
0
41
1
10
70.2442785242117
20
5.096463695171
30
0
41
1
10
70.8503406004317
20
5.05263535116083
30
0
41
1
10
71.1535967104956
20
5.02438269862478
30
0
41
1
10
71.4568288138785
20
4.98982535928022
30
0
0
LINE
5
76
100
AcDbEntity
8
81
62
256
6
ByLayer
370
18
48
1
60
0
100
AcDbLine
10
73
20
0
30
0
11
78
21
0
31
0
39
0
210
0
220
0
230
1
0
LINE
5
77
100
AcDbEntity
8
1
62
256
6
ByLayer
370
18
48
1
60
0
100
AcDbLine
10
5.335973
20
5.089674
30
0
11
0.350219
21
5.086558
31
0
39
0
210
0
220
0
230
1
0
LINE
5
79
100
AcDbEntity
8
1
62
256
6
ByLayer
370
18
48
1
60
0
100
AcDbLine
10
37.987048
20
5.110081
30
0
11
36.365462
21
5.109068
31
0
39
0
210
0
220
0
230
1
0
LINE
5
7A
100
AcDbEntity
8
1
62
256
6
ByLayer
370
18
48
1
60
0
100
AcDbLine
10
36.365462
20
-5.109068
30
0
11
37.987093
21
-5.110081
31
0
39
0
210
0
220
0
230
1
0
LINE
5
7B
100
AcDbEntity
8
1
62
256
6
ByLayer
370
18
48
1
60
0
100
AcDbLine
10
0.350219
20
-5.086558
30
0
11
5.336048
21
-5.089674
31
0
39
0
210
0
220
0
230
1
0
LINE
5
7C
100
AcDbEntity
8
SK1
62
256
6
ByLayer
370
18
48
1
60
0
100
AcDbLine
10
-43.556624
20
6
30
0
11
-45
21
3.5
31
0
39
0
210
0
220
0
230
1
0
LINE
5
7E
100
AcDbEntity
8
SK1
62
256
6
ByLayer
370
18
48
1
60
0
100
AcDbLine
10
-45
20
-3.5
30
0
11
-43.556624
21
-6
31
0
39
0
210
0
220
0
230
1
0
LINE
5
7F
100
AcDbEntity
8
SK1
62
256
6
ByLayer
370
18
48
1
60
0
100
AcDbLine
10
0
20
6
30
0
11
-43.556624
21
6
31
0
39
0
210
0
220
0
230
1
0
LINE
5
80
100
AcDbEntity
8
SK1
62
256
6
ByLayer
370
18
48
1
60
0
100
AcDbLine
10
-43.556624
20
-6
30
0
11
0
21
-6
31
0
39
0
210
0
220
0
230
1
0
LINE
5
81
100
AcDbEntity
8
1
62
256
6
ByLayer
370
18
48
1
60
0
100
AcDbLine
10
70.637294
20
5.130488
30
0
11
69.015276
21
5.129474
31
0
39
0
210
0
220
0
230
1
0
LINE
5
82
100
AcDbEntity
8
1
62
256
6
ByLayer
370
18
48
1
60
0
100
AcDbLine
10
69.015276
20
-5.129474
30
0
11
70.637353
21
-5.130488
31
0
39
0
210
0
220
0
230
1
0
LINE
5
83
100
AcDbEntity
8
SK4
62
256
6
ByLayer
370
18
48
0.05
60
0
100
AcDbLine
10
78
20
0
30
0
11
-50
21
0
31
0
39
0
210
0
220
0
230
1
0
LINE
5
85
100
AcDbEntity
8
4
62
256
6
ByLayer
370
18
48
0.05
60
0
100
AcDbLine
10
73
20
0
30
0
11
0
21
0
31
0
39
0
210
0
220
0
230
1
0
LINE
5
87
100
AcDbEntity
8
80
62
256
6
ByLayer
370
18
48
1
60
0
100
AcDbLine
10
0
20
0
30
0
11
-5
21
0
31
0
39
0
210
0
220
0
230
1
0
LINE
5
88
100
AcDbEntity
8
SK1
62
256
6
ByLayer
370
13
48
1
60
0
100
AcDbLine
10
-43.7
20
5.065398
30
0
11
-43.7
21
3.430914
31
0
39
0
210
0
220
0
230
1
0
LINE
5
89
100
AcDbEntity
8
SK1
62
256
6
ByLayer
370
18
48
1
60
0
100
AcDbLine
10
-45
20
3.5
30
0
11
-45
21
3.294893
31
0
39
0
210
0
220
0
230
1
0
LINE
5
8A
100
AcDbEntity
8
SK1
62
256
6
ByLayer
370
18
48
1
60
0
100
AcDbLine
10
-45
20
1.656508
30
0
11
-45
21
-3.5
31
0
39
0
210
0
220
0
230
1
0
LINE
5
8B
100
AcDbEntity
8
SK1
62
256
6
ByLayer
370
18
48
1
60
0
100
AcDbLine
10
-45
20
3.030457
30
0
11
-45
21
1.656444
31
0
39
0
210
0
220
0
230
1
0
LINE
5
8C
100
AcDbEntity
8
SK1
62
256
6
ByLayer
370
18
48
1
60
0
100
AcDbLine
10
-43.556624
20
6
30
0
11
-43.556624
21
-6
31
0
39
0
210
0
220
0
230
1
0
LINE
5
8D
100
AcDbEntity
8
SK1
62
256
6
ByLayer
370
18
48
1
60
0
100
AcDbLine
10
-43.6
20
3.64615
30
0
11
-43.6
21
5.149844
31
0
39
0
210
0
220
0
230
1
0
LINE
5
8E
100
AcDbEntity
8
SK1
62
256
6
ByLayer
370
18
48
1
60
0
100
AcDbLine
10
0
20
6
30
0
11
0
21
-6
31
0
39
0
210
0
220
0
230
1
0
LINE
5
8F
100
AcDbEntity
8
1
62
256
6
ByLayer
370
13
48
1
60
0
100
AcDbLine
10
0.350219
20
5.086558
30
0
11
0.350219
21
-5.086558
31
0
39
0
210
0
220
0
230
1
0
LINE
5
90
100
AcDbEntity
8
1
62
256
6
ByLayer
370
18
48
1
60
0
100
AcDbLine
10
2.456978
20
-4.848852
30
0
11
2.456978
21
2.045021
31
0
39
0
210
0
220
0
230
1
0
LINE
5
91
100
AcDbEntity
8
1
62
256
6
ByLayer
370
13
48
1
60
0
100
AcDbLine
10
71.104022
20
1.136741
30
0
11
72.964408
21
-0.040928
31
0
39
0
210
0
220
0
230
1
0
LINE
5
92
100
AcDbEntity
8
1
62
256
6
ByLayer
370
13
48
1
60
0
100
AcDbLine
10
71.238492
20
1.233431
30
0
11
72.989333
21
0.125107
31
0
39
0
210
0
220
0
230
1
0
MTEXT
5
DE
100
AcDbEntity
8
SK6
62
256
6
ByLayer
370
13
48
1
60
0
100
AcDbMText
10
16.129169
20
37.513694
30
0
210
0
220
0
230
1
1
\W0.7324;460.1-1026-051A1-XM GC34
40
3.5
41
0
44
1.084337
50
0
71
8
72
5
7
iso_b_vert
0
DIMENSION
5
EB
100
AcDbEntity
8
SK2
62
256
6
ByLayer
370
13
48
1
60
0
100
AcDbDimension
2
DimnDraft3D1
10
71.4768
20
-15.344398
30
0
11
34.226859
21
-15.344398
31
0
70
32
71
5
72
1
41
1
210
0
220
0
230
1
3
Standard
100
AcDbAlignedDimension
13
0
23
-1.5875
33
0
14
71.4768
24
-6.7185
34
0
50
0
100
AcDbRotatedDimension
1001
ACAD
1000
DSTYLE
1002
{
1070
   279
1070
     0
1070
   172
1070
     1
1070
   173
1070
     1
1070
   340
1005
DF
1070
   271
1070
     2
1070
   272
1070
     2
1070
    77
1070
     1
1070
    73
1070
     0
1070
   171
1070
     3
1070
   274
1070
     4
1070
   177
1070
    35
1070
   176
1070
    35
1070
   178
1070
    35
1070
    48
1040
-0.005
1070
    41
1041
3.5
1070
   147
1041
1.75
1070
    42
1041
1.5875
1070
    44
1041
2.0
1070
   140
1041
3.5
1070
   343
1005
0
1070
   344
1005
0
1002
}
0
DIMENSION
5
F5
100
AcDbEntity
8
SK2
62
256
6
ByLayer
370
13
48
1
60
0
100
AcDbDimension
2
DimnDraft3D2
10
73
20
-34.692985
30
0
11
13.8181
21
-34.692985
31
0
70
32
71
5
72
1
41
1
210
0
220
0
230
1
3
Standard
100
AcDbAlignedDimension
13
-45
23
-7.5875
33
0
14
73
24
-1.5875
34
0
50
0
100
AcDbRotatedDimension
1001
ACAD
1000
DSTYLE
1002
{
1070
   279
1070
     0
1070
   172
1070
     1
1070
   173
1070
     1
1070
   340
1005
DF
1070
   271
1070
     2
1070
   272
1070
     2
1070
    77
1070
     1
1070
    73
1070
     0
1070
   171
1070
     3
1070
   274
1070
     4
1070
   177
1070
    35
1070
   176
1070
    35
1070
   178
1070
    35
1070
    48
1040
-0.005
1070
    41
1041
3.5
1070
   147
1041
1.75
1070
    42
1041
1.5875
1070
    44
1041
2.0
1070
   140
1041
3.5
1070
   343
1005
0
1070
   344
1005
0
1002
}
0
DIMENSION
5
FF
100
AcDbEntity
8
SK2
62
256
6
ByLayer
370
13
48
1
60
0
100
AcDbDimension
2
DimnDraft3D3
10
73
20
16.740119
30
0
11
46.59
21
16.740119
31
0
70
32
71
5
72
1
41
1
210
0
220
0
230
1
3
Standard
100
AcDbAlignedDimension
13
20.18
23
6.7185
33
0
14
73
24
1.5875
34
0
50
0
100
AcDbRotatedDimension
1001
ACAD
1000
DSTYLE
1002
{
1070
   279
1070
     0
1070
   172
1070
     1
1070
   173
1070
     1
1070
   340
1005
DF
1070
   271
1070
     2
1070
   272
1070
     2
1070
    77
1070
     1
1070
    73
1070
     0
1070
   171
1070
     3
1070
   274
1070
     4
1070
   177
1070
    35
1070
   176
1070
    35
1070
   178
1070
    35
1070
    48
1040
-0.005
1070
    41
1041
3.5
1070
   147
1041
1.75
1070
    42
1041
1.5875
1070
    44
1041
2.0
1070
   140
1041
3.5
1070
   343
1005
0
1070
   344
1005
0
1002
}
0
DIMENSION
5
109
100
AcDbEntity
8
SK2
62
256
6
ByLayer
370
13
48
1
60
0
100
AcDbDimension
2
DimnDraft3D4
10
71.4768
20
-17.933503
30
0
11
82.981425
21
-17.933503
31
0
70
32
71
5
72
1
41
1
210
0
220
0
230
1
3
Standard
100
AcDbAlignedDimension
13
73
23
-1.5875
33
0
14
71.4768
24
-6.7185
34
0
50
0
100
AcDbRotatedDimension
1001
ACAD
1000
DSTYLE
1002
{
1070
   279
1070
     0
1070
   172
1070
     1
1070
   173
1070
     1
1070
   340
1005
DF
1070
   271
1070
     2
1070
   272
1070
     2
1070
    77
1070
     1
1070
    73
1070
     0
1070
   171
1070
     3
1070
   274
1070
     4
1070
   177
1070
    35
1070
   176
1070
    35
1070
   178
1070
    35
1070
    48
1040
-0.005
1070
    41
1041
3.5
1070
   147
1041
1.75
1070
    42
1041
1.5875
1070
    44
1041
2.0
1070
   140
1041
3.5
1070
   343
1005
0
1070
   344
1005
0
1002
}
0
DIMENSION
5
113
100
AcDbEntity
8
SK2
62
256
6
ByLayer
370
13
48
1
60
0
100
AcDbDimension
2
DimnDraft3D5
10
71.4768
20
-24.343428
30
0
11
10.737476
21
-24.343428
31
0
70
32
71
5
72
1
41
1
210
0
220
0
230
1
3
Standard
100
AcDbAlignedDimension
13
-45
23
-7.5875
33
0
14
71.4768
24
-6.7185
34
0
50
0
100
AcDbRotatedDimension
1001
ACAD
1000
DSTYLE
1002
{
1070
   279
1070
     0
1070
   172
1070
     1
1070
   173
1070
     1
1070
   340
1005
DF
1070
   271
1070
     2
1070
   272
1070
     2
1070
    77
1070
     1
1070
    73
1070
     0
1070
   171
1070
     3
1070
   274
1070
     4
1070
   177
1070
    35
1070
   176
1070
    35
1070
   178
1070
    35
1070
    48
1040
-0.005
1070
    41
1041
3.5
1070
   147
1041
1.75
1070
    42
1041
1.5875
1070
    44
1041
2.0
1070
   140
1041
3.5
1070
   343
1005
0
1070
   344
1005
0
1002
}
0
DIMENSION
5
11E
100
AcDbEntity
8
SK2
62
256
6
ByLayer
370
13
48
1
60
0
100
AcDbDimension
2
DimnDraft3D6
10
-55.625163
20
6
30
0
11
-56.250163
21
24.47418
31
0
70
33
71
5
72
1
41
1
210
0
220
0
230
1
3
Standard
100
AcDbAlignedDimension
13
-46.5875
23
-6
33
0
14
-46.5875
24
6
34
0
1001
ACAD
1000
DSTYLE
1002
{
1070
   279
1070
     0
1070
    74
1070
     0
1070
   173
1070
     1
1070
   340
1005
DF
1070
   271
1070
     3
1070
   272
1070
     2
1070
    77
1070
     1
1070
    73
1070
     0
1070
   171
1070
     3
1070
   274
1070
     4
1070
   177
1070
    35
1070
   176
1070
    35
1070
   178
1070
    35
1070
    48
1040
-0.005
1070
    41
1041
3.5
1070
   147
1041
1.75
1070
    42
1041
1.5875
1070
    44
1041
2.0
1070
   140
1041
3.5
1070
   343
1005
0
1070
   344
1005
0
1002
}
0
DIMENSION
5
129
100
AcDbEntity
8
2
62
256
6
ByLayer
370
13
48
1
60
0
100
AcDbDimension
2
DimnDraft3D7
10
87.083343
20
5.131
30
0
11
82.458343
21
22.198266
31
0
70
33
71
5
72
1
41
1
210
0
220
0
230
1
3
Standard
100
AcDbAlignedDimension
13
73.0643
23
-5.131
33
0
14
73.0643
24
5.131
34
0
1001
ACAD
1000
DSTYLE
1002
{
1070
   279
1070
     0
1070
    74
1070
     0
1070
   173
1070
     1
1070
   340
1005
DF
1070
   271
1070
     3
1070
   272
1070
     2
1070
    77
1070
     1
1070
    73
1070
     0
1070
   171
1070
     3
1070
   274
1070
     4
1070
   177
1070
    35
1070
   176
1070
    35
1070
   178
1070
    35
1070
    48
1040
-0.005
1070
    41
1041
3.5
1070
   147
1041
1.75
1070
    42
1041
1.5875
1070
    44
1041
2.0
1070
   140
1041
3.5
1070
   343
1005
0
1070
   344
1005
0
1002
}
0
ENDSEC
0
SECTION
2
OBJECTS
0
DICTIONARY
5
194
330
0
100
AcDbDictionary
280
0
281
1
3
ACAD_GROUP
350
195
3
ACAD_MLINESTYLE
350
196
0
DICTIONARY
5
195
330
0
100
AcDbDictionary
280
0
281
1
0
DICTIONARY
5
196
330
0
100
AcDbDictionary
280
0
281
1
3
Standard
350
18
0
MLINESTYLE
5
18
330
196
100
AcDbMlineStyle
2
Standard
70
0
3

62
256
51
90
52
90
71
2
49
-0.5
62
256
6
ByLayer
49
0.5
62
256
6
ByLayer
0
RASTERVARIABLES
5
182
330

100
AcDbRasterVariables
90
0
70
1
71
1
72
1
0
ENDSEC
0
EOF
