0
SECTION
2
HEADER
9
$ACADVER
1
AC1015
9
$DWGCODEPAGE
3
ANSI_1252
9
$HANDSEED
5
1ac
9
$ANGBASE
50
0
9
$ANGDIR
70
0
9
$ATTMODE
70
1
9
$AUNITS
70
0
9
$AUPREC
70
0
9
$CECOLOR
62
256
9
$CELTSCALE
40
1
9
$CELTYPE
6
ByLayer
9
$CELWEIGHT
370
18
9
$CLAYER
8
0
9
$CMLJUST
70
0
9
$CMLSCALE
40
1
9
$CMLSTYLE
2
Standard
9
$DIMSTYLE
2
Standard
9
$TEXTSIZE
40
0.2
9
$TEXTSTYLE
7
Standard
9
$LUNITS
70
2
9
$LUPREC
70
4
9
$EXTNAMES
290
1
9
$INSUNITS
70
4
9
$LTSCALE
40
1
9
$LWDISPLAY
290
1
9
$PDMODE
70
0
9
$PDSIZE
40
0
9
$PLINEGEN
70
0
0
ENDSEC
0
SECTION
2
CLASSES
0
CLASS
1
RASTERVARIABLES
2
AcDbRasterVariables
3
ISM
90
0
280
0
281
0
0
ENDSEC
0
SECTION
2
TABLES
0
TABLE
2
VPORT
5
1a2
100
AcDbSymbolTable
0
VPORT
5
1
100
AcDbSymbolTableRecord
100
AcDbViewportTableRecord
2
*Active
70
0
10
0
20
0
11
1
21
1
12
-1
22
1
13
0
23
0
14
0.5
24
0.5
15
10
25
10
16
0
26
0
36
1
17
0
27
0
37
0
0
ENDTAB
0
TABLE
2
LTYPE
5
1a3
100
AcDbSymbolTable
0
LTYPE
5
14
100
AcDbSymbolTableRecord
100
AcDbLinetypeTableRecord
70
0
2
ByBlock
3

72
65
73
0
40
0
0
LTYPE
5
15
100
AcDbSymbolTableRecord
100
AcDbLinetypeTableRecord
70
0
2
ByLayer
3

72
65
73
0
40
0
0
LTYPE
5
16
100
AcDbSymbolTableRecord
100
AcDbLinetypeTableRecord
70
0
2
CONTINUOUS
3
Solid line
72
65
73
0
40
0
0
LTYPE
5
6A
100
AcDbSymbolTableRecord
100
AcDbLinetypeTableRecord
70
0
2
CENTER
3
____ _ ____ _ ____ _ ____
72
65
73
4
40
47.5
49
22
74
0
49
-8.5
74
0
49
8.5
74
0
49
-8.5
74
0
0
LTYPE
5
6B
100
AcDbSymbolTableRecord
100
AcDbLinetypeTableRecord
70
0
2
DASHED
3
__ __ __ __ __ __ __ __ __
72
65
73
2
40
25.72
49
12.86
74
0
49
-12.86
74
0
0
ENDTAB
0
TABLE
2
LAYER
5
1a4
100
AcDbSymbolTable
0
LAYER
5
10
100
AcDbSymbolTableRecord
100
AcDbLayerTableRecord
2
0
70
0
62
7
6
CONTINUOUS
290
1
370
-3
390
0
0
LAYER
5
6D
100
AcDbSymbolTableRecord
100
AcDbLayerTableRecord
2
81
70
0
62
-3
6
CONTINUOUS
290
1
370
-3
390
0
0
LAYER
5
6F
100
AcDbSymbolTableRecord
100
AcDbLayerTableRecord
2
80
70
0
62
-6
6
CONTINUOUS
290
1
370
-3
390
0
0
LAYER
5
74
100
AcDbSymbolTableRecord
100
AcDbLayerTableRecord
2
2
70
0
62
7
6
CONTINUOUS
290
1
370
-3
390
0
0
LAYER
5
78
100
AcDbSymbolTableRecord
100
AcDbLayerTableRecord
2
1
70
0
62
4
6
CONTINUOUS
290
1
370
-3
390
0
0
LAYER
5
8A
100
AcDbSymbolTableRecord
100
AcDbLayerTableRecord
2
4
70
0
62
-2
6
CENTER
290
1
370
-3
390
0
0
LAYER
5
18e
100
AcDbSymbolTableRecord
100
AcDbLayerTableRecord
2
SK2
70
0
62
7
6
CONTINUOUS
290
1
370
-3
390
0
0
LAYER
5
18f
100
AcDbSymbolTableRecord
100
AcDbLayerTableRecord
2
SK1
70
0
62
4
6
CONTINUOUS
290
1
370
-3
390
0
0
LAYER
5
190
100
AcDbSymbolTableRecord
100
AcDbLayerTableRecord
2
SK4
70
0
62
2
6
CENTER
290
1
370
-3
390
0
0
LAYER
5
191
100
AcDbSymbolTableRecord
100
AcDbLayerTableRecord
2
SK6
70
0
62
5
6
CONTINUOUS
290
1
370
-3
390
0
0
ENDTAB
0
TABLE
2
STYLE
5
1a5
100
AcDbSymbolTable
0
STYLE
5
11
100
AcDbSymbolTableRecord
100
AcDbTextStyleTableRecord
2
Standard
3
txt
70
0
71
0
40
0
41
1
42
0
50
0
0
STYLE
5
EA
100
AcDbSymbolTableRecord
100
AcDbTextStyleTableRecord
2
iso_b_vert
3
simplex.shx
70
0
71
0
40
0
41
1
42
0
50
0
0
STYLE
5
EB
100
AcDbSymbolTableRecord
100
AcDbTextStyleTableRecord
2
DWGDirectTextStyle
3
simplex
70
0
71
0
40
0
41
1
42
0
50
0
0
ENDTAB
0
TABLE
2
DIMSTYLE
5
1a6
100
AcDbSymbolTable
100
AcDbDimStyleTable
0
DIMSTYLE
105
27
100
AcDbSymbolTableRecord
100
AcDbDimStyleTableRecord
2
Standard
70
0
3
<>
41
0.18
42
0.0625
44
0.18
140
0.18
147
0.09
73
0
74
0
77
1
271
2
275
0
278
52
280
0
340
11
0
ENDTAB
0
TABLE
2
VIEW
5
1a7
100
AcDbSymbolTable
0
ENDTAB
0
TABLE
2
UCS
5
1a8
100
AcDbSymbolTable
0
ENDTAB
0
TABLE
2
APPID
5
1a9
100
AcDbSymbolTable
0
APPID
5
12
100
AcDbSymbolTableRecord
100
AcDbRegAppTableRecord
2
ACAD
70
0
0
ENDTAB
0
TABLE
2
BLOCK_RECORD
5
1aa
100
AcDbSymbolTable
0
BLOCK_RECORD
5
1F
100
AcDbSymbolTableRecord
100
AcDbBlockTableRecord
2
*Model_Space
340
0
70
0
0
BLOCK_RECORD
5
1B
100
AcDbSymbolTableRecord
100
AcDbBlockTableRecord
2
*Paper_Space
340
0
70
0
0
BLOCK_RECORD
5
23
100
AcDbSymbolTableRecord
100
AcDbBlockTableRecord
2
*Paper_Space0
340
0
70
0
0
BLOCK_RECORD
5
ED
100
AcDbSymbolTableRecord
100
AcDbBlockTableRecord
2
DimnDraft3D1
340
0
70
0
0
BLOCK_RECORD
5
F7
100
AcDbSymbolTableRecord
100
AcDbBlockTableRecord
2
DimnDraft3D2
340
0
70
0
0
BLOCK_RECORD
5
101
100
AcDbSymbolTableRecord
100
AcDbBlockTableRecord
2
DimnDraft3D3
340
0
70
0
0
BLOCK_RECORD
5
10B
100
AcDbSymbolTableRecord
100
AcDbBlockTableRecord
2
DimnDraft3D4
340
0
70
0
0
BLOCK_RECORD
5
115
100
AcDbSymbolTableRecord
100
AcDbBlockTableRecord
2
DimnDraft3D5
340
0
70
0
0
BLOCK_RECORD
5
11F
100
AcDbSymbolTableRecord
100
AcDbBlockTableRecord
2
DimnDraft3D6
340
0
70
0
0
BLOCK_RECORD
5
12A
100
AcDbSymbolTableRecord
100
AcDbBlockTableRecord
2
DimnDraft3D7
340
0
70
0
0
ENDTAB
0
ENDSEC
0
SECTION
2
BLOCKS
0
BLOCK
5
20
100
AcDbEntity
8
0
100
AcDbBlockBegin
2
*Model_Space
70
0
10
0
20
0
30
0
3
*Model_Space
0
ENDBLK
5
21
100
AcDbEntity
8
0
100
AcDbBlockEnd
0
BLOCK
5
1C
100
AcDbEntity
8
0
100
AcDbBlockBegin
2
*Paper_Space
70
0
10
0
20
0
30
0
3
*Paper_Space
0
ENDBLK
5
1D
100
AcDbEntity
8
0
100
AcDbBlockEnd
0
BLOCK
5
24
100
AcDbEntity
8
0
100
AcDbBlockBegin
2
*Paper_Space0
70
0
10
0
20
0
30
0
3
*Paper_Space0
0
ENDBLK
5
25
100
AcDbEntity
8
0
100
AcDbBlockEnd
0
BLOCK
5
F4
100
AcDbEntity
8
0
100
AcDbBlockBegin
2
DimnDraft3D1
70
0
10
0
20
0
30
0
3
DimnDraft3D1
0
MTEXT
5
EE
100
AcDbEntity
8
SK2
62
256
6
ByLayer
370
13
48
1
60
0
100
AcDbMText
10
59.732669
20
-14.438398
30
0
210
0
220
0
230
1
1
\W0.7213;133,49
40
3.5
41
0
44
1.084337
50
0
71
7
72
5
7
iso_b_vert
0
LINE
5
EF
100
AcDbEntity
8
SK2
62
256
6
ByLayer
370
13
48
1
60
0
100
AcDbLine
10
0
20
-1.5875
30
0
11
0
21
-17.313398
31
0
39
0
210
0
220
0
230
1
0
LINE
5
F0
100
AcDbEntity
8
SK2
62
256
6
ByLayer
370
13
48
1
60
0
100
AcDbLine
10
133.4859
20
-6.6875
30
0
11
133.4859
21
-17.313398
31
0
39
0
210
0
220
0
230
1
0
LINE
5
F1
100
AcDbEntity
8
SK2
62
256
6
ByLayer
370
13
48
1
60
0
100
AcDbLine
10
0
20
-15.313398
30
0
11
133.4859
21
-15.313398
31
0
39
0
210
0
220
0
230
1
0
SOLID
5
F2
100
AcDbEntity
8
SK2
62
256
6
ByLayer
370
13
48
1
60
0
100
AcDbTrace
10
0
20
-15.313398
30
0
11
3.499998
21
-14.852615
31
0
12
3.500002
22
-15.774182
32
0
13
0
23
-15.313398
33
0
39
0
210
0
220
0
230
1
0
SOLID
5
F3
100
AcDbEntity
8
SK2
62
256
6
ByLayer
370
13
48
1
60
0
100
AcDbTrace
10
133.4859
20
-15.313398
30
0
11
129.985902
21
-15.774182
31
0
12
129.985898
22
-14.852615
32
0
13
133.4859
23
-15.313398
33
0
39
0
210
0
220
0
230
1
0
ENDBLK
5
F5
100
AcDbEntity
8
0
100
AcDbBlockEnd
0
BLOCK
5
FE
100
AcDbEntity
8
0
100
AcDbBlockBegin
2
DimnDraft3D2
70
0
10
0
20
0
30
0
3
DimnDraft3D2
0
MTEXT
5
F8
100
AcDbEntity
8
SK2
62
256
6
ByLayer
370
13
48
1
60
0
100
AcDbMText
10
39.508121
20
-33.817985
30
0
210
0
220
0
230
1
1
\W0.6930;180,00
40
3.5
41
0
44
1.084337
50
0
71
7
72
5
7
iso_b_vert
0
LINE
5
F9
100
AcDbEntity
8
SK2
62
256
6
ByLayer
370
13
48
1
60
0
100
AcDbLine
10
-45
20
-7.5875
30
0
11
-45
21
-36.692985
31
0
39
0
210
0
220
0
230
1
0
LINE
5
FA
100
AcDbEntity
8
SK2
62
256
6
ByLayer
370
13
48
1
60
0
100
AcDbLine
10
135
20
-1.5875
30
0
11
135
21
-36.692985
31
0
39
0
210
0
220
0
230
1
0
LINE
5
FB
100
AcDbEntity
8
SK2
62
256
6
ByLayer
370
13
48
1
60
0
100
AcDbLine
10
-45
20
-34.692985
30
0
11
135
21
-34.692985
31
0
39
0
210
0
220
0
230
1
0
SOLID
5
FC
100
AcDbEntity
8
SK2
62
256
6
ByLayer
370
13
48
1
60
0
100
AcDbTrace
10
-45
20
-34.692985
30
0
11
-41.500002
21
-34.232202
31
0
12
-41.499998
22
-35.153769
32
0
13
-45
23
-34.692985
33
0
39
0
210
0
220
0
230
1
0
SOLID
5
FD
100
AcDbEntity
8
SK2
62
256
6
ByLayer
370
13
48
1
60
0
100
AcDbTrace
10
135
20
-34.692985
30
0
11
131.500002
21
-35.153769
31
0
12
131.499998
22
-34.232202
32
0
13
135
23
-34.692985
33
0
39
0
210
0
220
0
230
1
0
ENDBLK
5
FF
100
AcDbEntity
8
0
100
AcDbBlockEnd
0
BLOCK
5
108
100
AcDbEntity
8
0
100
AcDbBlockBegin
2
DimnDraft3D3
70
0
10
0
20
0
30
0
3
DimnDraft3D3
0
MTEXT
5
102
100
AcDbEntity
8
SK2
62
256
6
ByLayer
370
13
48
1
60
0
100
AcDbMText
10
89.871316
20
17.584119
30
0
210
0
220
0
230
1
1
\W0.6563;83,11
40
3.5
41
0
44
1.084337
50
0
71
7
72
5
7
iso_b_vert
0
LINE
5
103
100
AcDbEntity
8
SK2
62
256
6
ByLayer
370
13
48
1
60
0
100
AcDbLine
10
51.89
20
6.6875
30
0
11
51.89
21
18.709119
31
0
39
0
210
0
220
0
230
1
0
LINE
5
104
100
AcDbEntity
8
SK2
62
256
6
ByLayer
370
13
48
1
60
0
100
AcDbLine
10
135
20
1.5875
30
0
11
135
21
18.709119
31
0
39
0
210
0
220
0
230
1
0
LINE
5
105
100
AcDbEntity
8
SK2
62
256
6
ByLayer
370
13
48
1
60
0
100
AcDbLine
10
51.89
20
16.709119
30
0
11
135
21
16.709119
31
0
39
0
210
0
220
0
230
1
0
SOLID
5
106
100
AcDbEntity
8
SK2
62
256
6
ByLayer
370
13
48
1
60
0
100
AcDbTrace
10
51.89
20
16.709119
30
0
11
55.389998
21
17.169903
31
0
12
55.390002
22
16.248335
32
0
13
51.89
23
16.709119
33
0
39
0
210
0
220
0
230
1
0
SOLID
5
107
100
AcDbEntity
8
SK2
62
256
6
ByLayer
370
13
48
1
60
0
100
AcDbTrace
10
135
20
16.709119
30
0
11
131.500002
21
16.248335
31
0
12
131.499998
22
17.169903
32
0
13
135
23
16.709119
33
0
39
0
210
0
220
0
230
1
0
ENDBLK
5
109
100
AcDbEntity
8
0
100
AcDbBlockEnd
0
BLOCK
5
112
100
AcDbEntity
8
0
100
AcDbBlockBegin
2
DimnDraft3D4
70
0
10
0
20
0
30
0
3
DimnDraft3D4
0
MTEXT
5
10C
100
AcDbEntity
8
SK2
62
256
6
ByLayer
370
13
48
1
60
0
100
AcDbMText
10
142.715636
20
-17.027503
30
0
210
0
220
0
230
1
1
\W0.6132;1,51
40
3.5
41
0
44
1.084337
50
0
71
7
72
5
7
iso_b_vert
0
LINE
5
10D
100
AcDbEntity
8
SK2
62
256
6
ByLayer
370
13
48
1
60
0
100
AcDbLine
10
135
20
-1.5875
30
0
11
135
21
-19.902503
31
0
39
0
210
0
220
0
230
1
0
LINE
5
10E
100
AcDbEntity
8
SK2
62
256
6
ByLayer
370
13
48
1
60
0
100
AcDbLine
10
133.4859
20
-6.6875
30
0
11
133.4859
21
-19.902503
31
0
39
0
210
0
220
0
230
1
0
LINE
5
10F
100
AcDbEntity
8
SK2
62
256
6
ByLayer
370
13
48
1
60
0
100
AcDbLine
10
124.7359
20
-17.902503
30
0
11
148.122215
21
-17.902503
31
0
39
0
210
0
220
0
230
1
0
SOLID
5
110
100
AcDbEntity
8
SK2
62
256
6
ByLayer
370
13
48
1
60
0
100
AcDbTrace
10
135
20
-17.902503
30
0
11
138.499998
21
-17.441719
31
0
12
138.500002
22
-18.363287
32
0
13
135
23
-17.902503
33
0
39
0
210
0
220
0
230
1
0
SOLID
5
111
100
AcDbEntity
8
SK2
62
256
6
ByLayer
370
13
48
1
60
0
100
AcDbTrace
10
133.4859
20
-17.902503
30
0
11
129.985902
21
-18.363287
31
0
12
129.985898
22
-17.441719
32
0
13
133.4859
23
-17.902503
33
0
39
0
210
0
220
0
230
1
0
ENDBLK
5
113
100
AcDbEntity
8
0
100
AcDbBlockEnd
0
BLOCK
5
11C
100
AcDbEntity
8
0
100
AcDbBlockBegin
2
DimnDraft3D5
70
0
10
0
20
0
30
0
3
DimnDraft3D5
0
MTEXT
5
116
100
AcDbEntity
8
SK2
62
256
6
ByLayer
370
13
48
1
60
0
100
AcDbMText
10
36.243287
20
-23.468428
30
0
210
0
220
0
230
1
1
\W0.7213;178,49
40
3.5
41
0
44
1.084337
50
0
71
7
72
5
7
iso_b_vert
0
LINE
5
117
100
AcDbEntity
8
SK2
62
256
6
ByLayer
370
13
48
1
60
0
100
AcDbLine
10
-45
20
-7.5875
30
0
11
-45
21
-26.343428
31
0
39
0
210
0
220
0
230
1
0
LINE
5
118
100
AcDbEntity
8
SK2
62
256
6
ByLayer
370
13
48
1
60
0
100
AcDbLine
10
133.4859
20
-6.6875
30
0
11
133.4859
21
-26.343428
31
0
39
0
210
0
220
0
230
1
0
LINE
5
119
100
AcDbEntity
8
SK2
62
256
6
ByLayer
370
13
48
1
60
0
100
AcDbLine
10
-45
20
-24.343428
30
0
11
133.4859
21
-24.343428
31
0
39
0
210
0
220
0
230
1
0
SOLID
5
11A
100
AcDbEntity
8
SK2
62
256
6
ByLayer
370
13
48
1
60
0
100
AcDbTrace
10
-45
20
-24.343428
30
0
11
-41.500002
21
-23.882645
31
0
12
-41.499998
22
-24.804212
32
0
13
-45
23
-24.343428
33
0
39
0
210
0
220
0
230
1
0
SOLID
5
11B
100
AcDbEntity
8
SK2
62
256
6
ByLayer
370
13
48
1
60
0
100
AcDbTrace
10
133.4859
20
-24.343428
30
0
11
129.985902
21
-24.804212
31
0
12
129.985898
22
-23.882645
32
0
13
133.4859
23
-24.343428
33
0
39
0
210
0
220
0
230
1
0
ENDBLK
5
11D
100
AcDbEntity
8
0
100
AcDbBlockEnd
0
BLOCK
5
127
100
AcDbEntity
8
0
100
AcDbBlockBegin
2
DimnDraft3D6
70
0
10
0
20
0
30
0
3
DimnDraft3D6
0
MTEXT
5
120
100
AcDbEntity
8
SK2
62
256
6
ByLayer
370
13
48
1
60
0
100
AcDbMText
10
-55.375163
20
25.34918
30
0
210
0
220
0
230
1
1
\W0.6930;12,000
40
3.5
41
0
44
1.084337
50
90
71
7
72
5
7
iso_b_vert
0
MTEXT
5
121
100
AcDbEntity
8
SK2
62
256
6
ByLayer
370
13
48
1
60
0
100
AcDbMText
10
-55.375163
20
20.126524
30
0
210
0
220
0
230
1
1
%%c
40
3.5
41
0
44
1.084337
50
90
71
7
72
5
7
iso_b_vert
0
LINE
5
122
100
AcDbEntity
8
SK2
62
256
6
ByLayer
370
13
48
1
60
0
100
AcDbLine
10
-46.5875
20
-6
30
0
11
-55.625163
21
-6
31
0
39
0
210
0
220
0
230
1
0
LINE
5
123
100
AcDbEntity
8
SK2
62
256
6
ByLayer
370
13
48
1
60
0
100
AcDbLine
10
-46.5875
20
6
30
0
11
-55.625163
21
6
31
0
39
0
210
0
220
0
230
1
0
LINE
5
124
100
AcDbEntity
8
SK2
62
256
6
ByLayer
370
13
48
1
60
0
100
AcDbLine
10
-53.625163
20
-6
30
0
11
-53.625163
21
36.862338
31
0
39
0
210
0
220
0
230
1
0
SOLID
5
125
100
AcDbEntity
8
SK2
62
256
6
ByLayer
370
13
48
1
60
0
100
AcDbTrace
10
-53.625163
20
-6
30
0
11
-54.085946
21
-2.500002
31
0
12
-53.164379
22
-2.499998
32
0
13
-53.625163
23
-6
33
0
39
0
210
0
220
0
230
1
0
SOLID
5
126
100
AcDbEntity
8
SK2
62
256
6
ByLayer
370
13
48
1
60
0
100
AcDbTrace
10
-53.625163
20
6
30
0
11
-53.164379
21
2.500002
31
0
12
-54.085946
22
2.499998
32
0
13
-53.625163
23
6
33
0
39
0
210
0
220
0
230
1
0
ENDBLK
5
128
100
AcDbEntity
8
0
100
AcDbBlockEnd
0
BLOCK
5
132
100
AcDbEntity
8
0
100
AcDbBlockBegin
2
DimnDraft3D7
70
0
10
0
20
0
30
0
3
DimnDraft3D7
0
MTEXT
5
12B
100
AcDbEntity
8
2
62
256
6
ByLayer
370
13
48
1
60
0
100
AcDbMText
10
145.333343
20
23.042266
30
0
210
0
220
0
230
1
1
\W0.6930;10,200
40
3.5
41
0
44
1.084337
50
90
71
7
72
5
7
iso_b_vert
0
MTEXT
5
12C
100
AcDbEntity
8
2
62
256
6
ByLayer
370
13
48
1
60
0
100
AcDbMText
10
145.333343
20
17.81961
30
0
210
0
220
0
230
1
1
%%c
40
3.5
41
0
44
1.084337
50
90
71
7
72
5
7
iso_b_vert
0
LINE
5
12D
100
AcDbEntity
8
2
62
256
6
ByLayer
370
13
48
1
60
0
100
AcDbLine
10
135.0734
20
-5.1
30
0
11
149.083343
21
-5.1
31
0
39
0
210
0
220
0
230
1
0
LINE
5
12E
100
AcDbEntity
8
2
62
256
6
ByLayer
370
13
48
1
60
0
100
AcDbLine
10
135.0734
20
5.1
30
0
11
149.083343
21
5.1
31
0
39
0
210
0
220
0
230
1
0
LINE
5
12F
100
AcDbEntity
8
2
62
256
6
ByLayer
370
13
48
1
60
0
100
AcDbLine
10
147.083343
20
-5.1
30
0
11
147.083343
21
34.555424
31
0
39
0
210
0
220
0
230
1
0
SOLID
5
130
100
AcDbEntity
8
2
62
256
6
ByLayer
370
13
48
1
60
0
100
AcDbTrace
10
147.083343
20
-5.1
30
0
11
146.622559
21
-1.600002
31
0
12
147.544126
22
-1.599998
32
0
13
147.083343
23
-5.1
33
0
39
0
210
0
220
0
230
1
0
SOLID
5
131
100
AcDbEntity
8
2
62
256
6
ByLayer
370
13
48
1
60
0
100
AcDbTrace
10
147.083343
20
5.1
30
0
11
147.544126
21
1.600002
31
0
12
146.622559
22
1.599998
32
0
13
147.083343
23
5.1
33
0
39
0
210
0
220
0
230
1
0
ENDBLK
5
133
100
AcDbEntity
8
0
100
AcDbBlockEnd
0
ENDSEC
0
SECTION
2
ENTITIES
0
ARC
5
98
100
AcDbEntity
8
1
62
256
6
ByLayer
370
18
48
1
60
0
100
AcDbCircle
39
0
10
-0.35
20
5.366872
30
0
40
0.350000000000001
210
0
220
0
230
-1
100
AcDbArc
50
269.96419
51
0
0
ARC
5
99
100
AcDbEntity
8
1
62
256
6
ByLayer
370
18
48
1
60
0
100
AcDbCircle
39
0
10
-0.35
20
-5.366872
30
0
40
0.350000000000001
210
0
220
0
230
-1
100
AcDbArc
50
0
51
90.03581
0
ELLIPSE
5
9A
100
AcDbEntity
8
1
62
256
6
ByLayer
370
18
48
1
60
0
100
AcDbEllipse
10
7.604382
20
5.016645
30
0
11
-0.25
21
3.06151588455594E-17
31
0
210
0
220
0
230
1
40
0.999998
41
0.00534509206367625
42
1.57480396296829
0
ELLIPSE
5
9B
100
AcDbEntity
8
1
62
256
6
ByLayer
370
18
48
1
60
0
100
AcDbEllipse
10
7.604382
20
-5.016645
30
0
11
-0.25
21
3.06151588455594E-17
31
0
210
0
220
0
230
1
40
0.999998
41
-1.56989890299718
42
-0.00534509206371888
0
POINT
5
6C
100
AcDbEntity
8
81
62
256
6
ByLayer
370
18
48
1
60
0
100
AcDbPoint
10
135
20
0
30
0
39
0
210
0
220
0
230
1
50
360
0
POINT
5
6E
100
AcDbEntity
8
80
62
256
6
ByLayer
370
18
48
1
60
0
100
AcDbPoint
10
0
20
0
30
0
39
0
210
0
220
0
230
1
50
360
0
POINT
5
70
100
AcDbEntity
8
SK2
62
256
6
ByLayer
370
18
48
1
60
1
100
AcDbPoint
10
-45
20
-6
30
0
39
0
210
0
220
0
230
1
50
360
0
POINT
5
72
100
AcDbEntity
8
SK2
62
256
6
ByLayer
370
18
48
1
60
1
100
AcDbPoint
10
-45
20
6
30
0
39
0
210
0
220
0
230
1
50
360
0
POINT
5
73
100
AcDbEntity
8
2
62
256
6
ByLayer
370
18
48
1
60
1
100
AcDbPoint
10
133.4859
20
-5.1
30
0
39
0
210
0
220
0
230
1
50
360
0
POINT
5
75
100
AcDbEntity
8
2
62
256
6
ByLayer
370
18
48
1
60
1
100
AcDbPoint
10
133.4859
20
5.1
30
0
39
0
210
0
220
0
230
1
50
360
0
SPLINE
5
9C
100
AcDbEntity
8
1
62
256
6
ByLayer
370
18
48
1
60
0
100
AcDbSpline
70
4
71
1
72
4
73
2
40
0
40
0
40
1
40
1
41
1
10
50.923559407124
20
0.0010900782594376
30
0
41
1
10
50.9235716879227
20
0.0010865852898689
30
0
0
SPLINE
5
9D
100
AcDbEntity
8
1
62
256
6
ByLayer
370
18
48
1
60
0
100
AcDbSpline
70
4
71
3
72
21
73
17
40
0
40
0
40
0
40
0
40
0.0730726057829209
40
0.135760703939139
40
0.189372208842141
40
0.232057119530756
40
0.269389112702579
40
0.331385195351972
40
0.400362989400186
40
0.464822933326062
40
0.55302423960533
40
0.656158410307125
40
0.761727419119445
40
0.864524294781938
40
0.953886649176086
40
1
40
1
40
1
40
1
41
1
10
67.3978799382055
20
-4.80356262800834
30
0
41
1
10
67.6422514277873
20
-4.80287793414081
30
0
41
1
10
68.0977411799329
20
-4.80226193150452
30
0
41
1
10
68.749798650299
20
-4.80290081920629
30
0
41
1
10
69.2799214189145
20
-4.80497482516688
30
0
41
1
10
69.7373455464343
20
-4.80487964146877
30
0
41
1
10
70.2200885924725
20
-4.80515828648879
30
0
41
1
10
70.7948646542346
20
-4.80588682525993
30
0
41
1
10
71.4608233537841
20
-4.80588579271207
30
0
41
1
10
72.2168392523448
20
-4.80636636022317
30
0
41
1
10
73.0892230967714
20
-4.80712145441873
30
0
41
1
10
74.1018615504203
20
-4.80713986352569
30
0
41
1
10
75.1642656635708
20
-4.80787635564937
30
0
41
1
10
76.1796965709643
20
-4.80861272898679
30
0
41
1
10
76.9923535379435
20
-4.80890560639358
30
0
41
1
10
77.4544085605577
20
-4.80896619233457
30
0
41
1
10
77.6116833234842
20
-4.80897394713068
30
0
0
SPLINE
5
9E
100
AcDbEntity
8
1
62
256
6
ByLayer
370
18
48
1
60
0
100
AcDbSpline
70
4
71
3
72
23
73
19
40
0
40
0
40
0
40
0
40
0.0821874702043655
40
0.152483634327282
40
0.207377597873621
40
0.250666044770155
40
0.290241943693061
40
0.35686984148498
40
0.423415492413811
40
0.47964591620301
40
0.557835849868732
40
0.639875149372813
40
0.715421974174887
40
0.797874478822214
40
0.878163976778281
40
0.937726505023071
40
0.996398164383051
40
1
40
1
40
1
40
1
41
1
10
34.8193978461582
20
-4.78326864570641
30
0
41
1
10
35.0955834819902
20
-4.78300102492184
30
0
41
1
10
35.6079980296041
20
-4.78286442621001
30
0
41
1
10
36.3131949157524
20
-4.7838474446101
30
0
41
1
10
36.8741027168
20
-4.78487473689475
30
0
41
1
10
37.3411290120306
20
-4.78471845212425
30
0
41
1
10
37.8460114608564
20
-4.78522659680425
30
0
41
1
10
38.430558571433
20
-4.78592506119873
30
0
41
1
10
39.0711332358791
20
-4.78597851642999
30
0
41
1
10
39.7508956298087
20
-4.78613896527935
30
0
41
1
10
40.4830623106553
20
-4.78735250020191
30
0
41
1
10
41.2805242580796
20
-4.78694999911153
30
0
41
1
10
42.0924277498103
20
-4.78831074887054
30
0
41
1
10
42.898432438725
20
-4.78815874075934
30
0
41
1
10
43.6503531889005
20
-4.78876494748411
30
0
41
1
10
44.3218501105032
20
-4.78956418087452
30
0
41
1
10
44.7339532272393
20
-4.78891788603698
30
0
41
1
10
44.9445894867906
20
-4.7891193354973
30
0
41
1
10
44.9567724729546
20
-4.78913140647637
30
0
0
SPLINE
5
9F
100
AcDbEntity
8
1
62
256
6
ByLayer
370
18
48
1
60
0
100
AcDbSpline
70
4
71
1
72
4
73
2
40
0
40
0
40
1
40
1
41
1
10
132.791286094293
20
-4.84472596840232
30
0
41
1
10
133.221703978247
20
-4.84495478747331
30
0
0
SPLINE
5
A0
100
AcDbEntity
8
1
62
256
6
ByLayer
370
18
48
1
60
0
100
AcDbSpline
70
4
71
3
72
29
73
25
40
0
40
0
40
0
40
0
40
0.0484849086211839
40
0.0946055795259447
40
0.139338280074222
40
0.180104567297417
40
0.212174619013591
40
0.239262941317431
40
0.281511599246126
40
0.33241020431082
40
0.363630130057197
40
0.392279580642341
40
0.427443494154775
40
0.467641184077775
40
0.531476112278396
40
0.599897153195708
40
0.661112198624121
40
0.706543668207215
40
0.7464968906058
40
0.800815169350022
40
0.867628592695329
40
0.927257166305416
40
0.994500245201617
40
1
40
1
40
1
40
1
41
1
10
100.051291400538
20
-4.82409742418525
30
0
41
1
10
100.211347157522
20
-4.8237511746143
30
0
41
1
10
100.526319793339
20
-4.82330476681443
30
0
41
1
10
101.002231233472
20
-4.82197831445245
30
0
41
1
10
101.450638698163
20
-4.82379339656563
30
0
41
1
10
101.84346784935
20
-4.82495311361211
30
0
41
1
10
102.183073763179
20
-4.82497088593112
30
0
41
1
10
102.529082940249
20
-4.82513465313053
30
0
41
1
10
102.938944551736
20
-4.82547730258707
30
0
41
1
10
103.363026012483
20
-4.82582073097879
30
0
41
1
10
103.740696008891
20
-4.82583405233692
30
0
41
1
10
104.06472815262
20
-4.82575723597947
30
0
41
1
10
104.419367963099
20
-4.8257761602988
30
0
41
1
10
104.893974002899
20
-4.82648560839039
30
0
41
1
10
105.481984100618
20
-4.82690765146137
30
0
41
1
10
106.141645846708
20
-4.82669764795142
30
0
41
1
10
106.738567905111
20
-4.82753481242602
30
0
41
1
10
107.238416186763
20
-4.82784105730596
30
0
41
1
10
107.714753802119
20
-4.82757014537154
30
0
41
1
10
108.26399701601
20
-4.82760316649797
30
0
41
1
10
108.880325530033
20
-4.82892341105216
30
0
41
1
10
109.540722110147
20
-4.82860215810672
30
0
41
1
10
109.992063388479
20
-4.82850108141346
30
0
41
1
10
110.240090376512
20
-4.82872508752587
30
0
41
1
10
110.258842567323
20
-4.8287429564854
30
0
0
SPLINE
5
A1
100
AcDbEntity
8
1
62
256
6
ByLayer
370
18
48
1
60
0
100
AcDbSpline
70
4
71
3
72
21
73
17
40
0
40
0
40
0
40
0
40
0.0274287359380107
40
0.0892738420695814
40
0.168879444253635
40
0.259993222702819
40
0.345062051622164
40
0.424303606132296
40
0.499900812198999
40
0.578793715704787
40
0.664145461801702
40
0.773948338029082
40
0.85555234118147
40
0.93455495638835
40
0.986523665533241
40
1
40
1
40
1
40
1
41
1
10
110.258652705769
20
4.82879238140958
30
0
41
1
10
110.192991096484
20
4.82868284384463
30
0
41
1
10
109.979278518009
20
4.82840012234908
30
0
41
1
10
109.574997311054
20
4.82857435832776
30
0
41
1
10
109.01826077823
20
4.82900350977883
30
0
41
1
10
108.405928718006
20
4.82788954889452
30
0
41
1
10
107.794473546931
20
4.82745486283793
30
0
41
1
10
107.220156363847
20
4.82790987606126
30
0
41
1
10
106.66062799276
20
4.8274096994632
30
0
41
1
10
106.086470414254
20
4.82670322064305
30
0
41
1
10
105.430445886676
20
4.82693751762983
30
0
41
1
10
104.767915944873
20
4.82617458845434
30
0
41
1
10
104.120574312836
20
4.82563526553883
30
0
41
1
10
103.6117313125
20
4.82589314747855
30
0
41
1
10
103.265935849997
20
4.8257360300137
30
0
41
1
10
103.109277682304
20
4.82561777105534
30
0
41
1
10
103.077018509021
20
4.82559219633467
30
0
0
SPLINE
5
A2
100
AcDbEntity
8
1
62
256
6
ByLayer
370
18
48
1
60
0
100
AcDbSpline
70
4
71
3
72
18
73
14
40
0
40
0
40
0
40
0
40
0.124447094387766
40
0.264567925468844
40
0.368141136581053
40
0.441240900927427
40
0.516607885243075
40
0.599530709048691
40
0.688357461917724
40
0.768617855790541
40
0.870628181463826
40
0.973261600595583
40
1
40
1
40
1
40
1
41
1
10
7.60476431084442
20
-4.76661242039515
30
0
41
1
10
7.80035833765132
20
-4.76694627710879
30
0
41
1
10
8.21618049243034
20
-4.76755147443652
30
0
41
1
10
8.79479797188762
20
-4.76810867437896
30
0
41
1
10
9.29269540052164
20
-4.76830645667982
30
0
41
1
10
9.68883600096515
20
-4.76828181003668
30
0
41
1
10
10.0525165131455
20
-4.76818479604151
30
0
41
1
10
10.4409165698765
20
-4.76813889199957
30
0
41
1
10
10.8370058229595
20
-4.76839446961671
30
0
41
1
10
11.2630941435077
20
-4.76887786972051
30
0
41
1
10
11.7108863678131
20
-4.76933572672093
30
0
41
1
10
12.0745554586903
20
-4.76939342523417
30
0
41
1
10
12.2778922204411
20
-4.76957130782188
30
0
41
1
10
12.3199175876176
20
-4.76960944272375
30
0
0
SPLINE
5
A3
100
AcDbEntity
8
1
62
256
6
ByLayer
370
18
48
1
60
0
100
AcDbSpline
70
4
71
3
72
17
73
13
40
0
40
0
40
0
40
0
40
0.0452698349969192
40
0.103282390326016
40
0.172967743529441
40
0.319911547187324
40
0.463438744242809
40
0.605201671215285
40
0.746921404377801
40
0.859876950160852
40
0.93645888616401
40
1
40
1
40
1
40
1
41
1
10
44.9568078986381
20
4.78920864663496
30
0
41
1
10
44.8489471592328
20
4.78917108838883
30
0
41
1
10
44.6028647974759
20
4.78909657205057
30
0
41
1
10
44.1907518510895
20
4.78947195546226
30
0
41
1
10
43.5363835921845
20
4.78855281381325
30
0
41
1
10
42.6782856796541
20
4.78847164981784
30
0
41
1
10
41.648422034535
20
4.78731560589858
30
0
41
1
10
40.6310764668592
20
4.78736877107525
30
0
41
1
10
39.68651532021
20
4.78599863980079
30
0
41
1
10
38.8972357970865
20
4.78602208465446
30
0
41
1
10
38.294305815799
20
4.78577245877025
30
0
41
1
10
37.9603573219053
20
4.78537401413391
30
0
41
1
10
37.809047499224
20
4.78520424856026
30
0
0
SPLINE
5
A4
100
AcDbEntity
8
1
62
256
6
ByLayer
370
18
48
1
60
0
100
AcDbSpline
70
4
71
3
72
17
73
13
40
0
40
0
40
0
40
0
40
0.0107236615599065
40
0.0899036896623996
40
0.19310595481934
40
0.342217785658673
40
0.495910850781571
40
0.644291615758554
40
0.771616483035849
40
0.899259227439271
40
0.975083346923559
40
1
40
1
40
1
40
1
41
1
10
77.6116529856187
20
4.80886887617933
30
0
41
1
10
77.5859945099044
20
4.8088292795895
30
0
41
1
10
77.3708821550439
20
4.80852292189465
30
0
41
1
10
76.9088365288966
20
4.80932097016742
30
0
41
1
10
76.1156688635884
20
4.80836260566403
30
0
41
1
10
75.1442194224459
20
4.80797950865116
30
0
41
1
10
74.0646669775134
20
4.80700407752104
30
0
41
1
10
73.0372355466433
20
4.80718806498393
30
0
41
1
10
72.0721687370734
20
4.80612628841772
30
0
41
1
10
71.2806037755779
20
4.80598163768897
30
0
41
1
10
70.7346111567811
20
4.80572671728112
30
0
41
1
10
70.4934306758733
20
4.80549081565138
30
0
41
1
10
70.4337873374
20
4.80543068568616
30
0
0
SPLINE
5
A5
100
AcDbEntity
8
1
62
256
6
ByLayer
370
18
48
1
60
0
100
AcDbSpline
70
4
71
3
72
15
73
11
40
0
40
0
40
0
40
0
40
0.0339702978797457
40
0.179111805026155
40
0.280212417940883
40
0.381481535342693
40
0.488353467869843
40
0.632761520914046
40
0.820548667321131
40
1
40
1
40
1
40
1
41
1
10
12.3192817114779
20
4.76962074228547
30
0
41
1
10
12.2658963460469
20
4.769573882956
30
0
41
1
10
11.9844166361841
20
4.76932821602949
30
0
41
1
10
11.544053723756
20
4.76924208287892
30
0
41
1
10
10.9979291470374
20
4.76855193744953
30
0
41
1
10
10.5119465378263
20
4.76813295530138
30
0
41
1
10
9.95791320603112
20
4.76819551258896
30
0
41
1
10
9.26794641096274
20
4.76837224707052
30
0
41
1
10
8.46386273915164
20
4.76786198379378
30
0
41
1
10
7.88676216883113
20
4.76708144997812
30
0
41
1
10
7.60476340820702
20
4.76658867597365
30
0
0
SPLINE
5
A6
100
AcDbEntity
8
1
62
256
6
ByLayer
370
18
48
1
60
0
100
AcDbSpline
70
4
71
3
72
20
73
16
40
0
40
0
40
0
40
0
40
0.0624999999999998
40
0.0624999999999998
40
0.125
40
0.125
40
0.249999999999999
40
0.249999999999999
40
0.374999999999999
40
0.374999999999999
40
0.499999999999998
40
0.499999999999998
40
0.749999999999999
40
0.749999999999999
40
1
40
1
40
1
40
1
41
1
10
7.60502009423615
20
-1.84511575983672
30
0
41
1
10
7.65267168737043
20
-1.95794218238041
30
0
41
1
10
7.70369811226243
20
-2.06795249471045
30
0
41
1
10
7.81191594897666
20
-2.28267367326703
30
0
41
1
10
7.8692117926268
20
-2.38748581218257
30
0
41
1
10
8.04661489286192
20
-2.68917994889901
30
0
41
1
10
8.17307855435763
20
-2.87537810226797
30
0
41
1
10
8.43990884838465
20
-3.22187802954866
30
0
41
1
10
8.58030970554489
20
-3.3821304618001
30
0
41
1
10
8.87476237959049
20
-3.67810905859039
30
0
41
1
10
9.0262021294225
20
-3.8111497250438
30
0
41
1
10
9.49169839749635
20
-4.16864301136576
30
0
41
1
10
9.81749985394893
20
-4.35252367796687
30
0
41
1
10
10.5102689133757
20
-4.62248042366429
30
0
41
1
10
10.8684730790122
20
-4.70510248435448
30
0
41
1
10
11.2446042538777
20
-4.74365698991772
30
0
0
SPLINE
5
A7
100
AcDbEntity
8
1
62
256
6
ByLayer
370
18
48
1
60
0
100
AcDbSpline
70
4
71
3
72
8
73
4
40
0
40
0
40
0
40
0
40
1
40
1
40
1
40
1
41
1
10
133.354723191604
20
-4.96131276131561
30
0
41
1
10
133.847544236001
20
-3.7147415386535
30
0
41
1
10
134.341005945051
20
-2.46611213739055
30
0
41
1
10
134.824186630336
20
-1.21305593698054
30
0
0
SPLINE
5
A8
100
AcDbEntity
8
1
62
256
6
ByLayer
370
18
48
1
60
0
100
AcDbSpline
70
4
71
3
72
8
73
4
40
0
40
0
40
0
40
0
40
1
40
1
40
1
40
1
41
1
10
133.354723191604
20
-4.96131276131564
30
0
41
1
10
133.285020599197
20
-5.02946121781758
30
0
41
1
10
133.22489667475
20
-5.07290884077699
30
0
41
1
10
133.173740964876
20
-5.09072657589854
30
0
0
SPLINE
5
A9
100
AcDbEntity
8
1
62
256
6
ByLayer
370
18
48
1
60
0
100
AcDbSpline
70
4
71
3
72
8
73
4
40
0
40
0
40
0
40
0
40
1
40
1
40
1
40
1
41
1
10
133.182422061951
20
-4.83838589032271
30
0
41
1
10
133.19403178182
20
-4.84286890330537
30
0
41
1
10
133.206447543807
20
-4.84503461337644
30
0
41
1
10
133.21968753985
20
-4.8449051113698
30
0
0
SPLINE
5
AA
100
AcDbEntity
8
1
62
256
6
ByLayer
370
18
48
1
60
0
100
AcDbSpline
70
4
71
3
72
10
73
6
40
0
40
0
40
0
40
0
40
0.5
40
0.5
40
1
40
1
40
1
40
1
41
1
10
134.976815982062
20
-0.146406162794449
30
0
41
1
10
134.978696879885
20
-0.131363666044251
30
0
41
1
10
134.981778895454
20
-0.114562948332178
30
0
41
1
10
134.989659276331
20
-0.0784449089959196
30
0
41
1
10
134.994493045125
20
-0.059093014806308
30
0
41
1
10
134.999962258511
20
-0.0393056911388783
30
0
0
SPLINE
5
AB
100
AcDbEntity
8
1
62
256
6
ByLayer
370
18
48
1
60
0
100
AcDbSpline
70
4
71
3
72
8
73
4
40
0
40
0
40
0
40
0
40
1
40
1
40
1
40
1
41
1
10
133.354723191604
20
4.96131276131561
30
0
41
1
10
133.847547164062
20
3.71473413224194
30
0
41
1
10
134.341007777878
20
2.46610738422788
30
0
41
1
10
134.824186630336
20
1.21305593698054
30
0
0
SPLINE
5
AC
100
AcDbEntity
8
1
62
256
6
ByLayer
370
18
48
1
60
0
100
AcDbSpline
70
4
71
3
72
14
73
10
40
0
40
0
40
0
40
0
40
0.25
40
0.25
40
0.5
40
0.5
40
0.75
40
0.75
40
1
40
1
40
1
40
1
41
1
10
133.120743428665
20
1.13953176945552
30
0
41
1
10
133.116937291282
20
1.15475455092377
30
0
41
1
10
133.115922189546
20
1.1708097308312
30
0
41
1
10
133.123064136623
20
1.20107634781246
30
0
41
1
10
133.131715322382
20
1.21524709853273
30
0
41
1
10
133.155736815218
20
1.23574738555899
30
0
41
1
10
133.170510852366
20
1.24227938298799
30
0
41
1
10
133.200929026946
20
1.24989571539058
30
0
41
1
10
133.216734031002
20
1.25110437255736
30
0
41
1
10
133.232450400974
20
1.25063135827793
30
0
0
SPLINE
5
AD
100
AcDbEntity
8
1
62
256
6
ByLayer
370
18
48
1
60
0
100
AcDbSpline
70
4
71
3
72
10
73
6
40
0
40
0
40
0
40
0
40
0.547345495530955
40
0.547345495530955
40
1
40
1
40
1
40
1
41
1
10
133.253848809751
20
-4.83999051816997
30
0
41
1
10
131.938392168533
20
-4.86713624355065
30
0
41
1
10
130.639138091756
20
-4.77665807514248
30
0
41
1
10
128.266575661973
20
-4.41580594758955
30
0
41
1
10
127.192936629335
20
-4.17892670338449
30
0
41
1
10
126.110639964619
20
-3.87655392690928
30
0
0
SPLINE
5
AE
100
AcDbEntity
8
1
62
256
6
ByLayer
370
13
48
1
60
0
100
AcDbSpline
70
4
71
3
72
22
73
18
40
0
40
0
40
0
40
0
40
0.0495489824742646
40
0.0495489824742646
40
0.121151402019684
40
0.121151402019684
40
0.192753821565104
40
0.192753821565104
40
0.335958660655949
40
0.335958660655949
40
0.622368338837639
40
0.622368338837639
40
0.765573177928486
40
0.765573177928486
40
0.908778017019333
40
0.908778017019333
40
1
40
1
40
1
40
1
41
1
10
126.110639866662
20
-3.87655389954196
30
0
41
1
10
125.884233793017
20
-3.81330041628533
30
0
41
1
10
125.657448855979
20
-3.74718089520158
30
0
41
1
10
125.101813615706
20
-3.57868549727968
30
0
41
1
10
124.771691876204
20
-3.47299944792172
30
0
41
1
10
124.113935124962
20
-3.25238570462349
30
0
41
1
10
123.786097631337
20
-3.13747380941913
30
0
41
1
10
122.805117784494
20
-2.78015346457491
30
0
41
1
10
122.154452814857
20
-2.52521312719694
30
0
41
1
10
120.206254374289
20
-1.72254069279001
30
0
41
1
10
118.9125678826
20
-1.136785336663
30
0
41
1
10
116.956015806854
20
-0.231980704184934
30
0
41
1
10
116.301153624848
20
0.0739470257526307
30
0
41
1
10
114.982009846423
20
0.685555560490201
30
0
41
1
10
114.326625658908
20
0.987061081637023
30
0
41
1
10
113.257489894833
20
1.46623812228051
30
0
41
1
10
112.84237111834
20
1.64917574138909
30
0
41
1
10
112.427645347093
20
1.82756644095383
30
0
0
SPLINE
5
AF
100
AcDbEntity
8
1
62
256
6
ByLayer
370
18
48
1
60
0
100
AcDbSpline
70
4
71
3
72
12
73
8
40
0
40
0
40
0
40
0
40
0.13666956846261
40
0.13666956846261
40
0.721978262418786
40
0.721978262418786
40
1
40
1
40
1
40
1
41
1
10
67.4624114774813
20
-4.80359015785939
30
0
41
1
10
67.1552946058256
20
-4.80308555524934
30
0
41
1
10
66.8489391999492
20
-4.79631253116435
30
0
41
1
10
65.2334919412714
20
-4.72773716503937
30
0
41
1
10
63.9341232428739
20
-4.55818821673341
30
0
41
1
10
62.0092269064186
20
-4.15665496558273
30
0
41
1
10
61.3880055510285
20
-4.00417967919944
30
0
41
1
10
60.7638366484972
20
-3.8301739072426
30
0
0
SPLINE
5
B0
100
AcDbEntity
8
1
62
256
6
ByLayer
370
13
48
1
60
0
100
AcDbSpline
70
4
71
3
72
22
73
18
40
0
40
0
40
0
40
0
40
0.0071499545956029
40
0.0071499545956029
40
0.0786500275426504
40
0.0786500275426504
40
0.150150100489698
40
0.150150100489698
40
0.436150392277891
40
0.436150392277891
40
0.579150538171988
40
0.579150538171988
40
0.650650611119036
40
0.650650611119036
40
0.722150684066085
40
0.722150684066085
40
1
40
1
40
1
40
1
41
1
10
60.7638366491817
20
-3.83017390743342
30
0
41
1
10
60.7309859091954
20
-3.82101577996664
30
0
41
1
10
60.6981270043853
20
-3.81179801219108
30
0
41
1
10
60.3365842368063
20
-3.70974846545281
30
0
41
1
10
60.0064522973356
20
-3.61080040379795
30
0
41
1
10
59.3468779592714
20
-3.40261902423183
30
0
41
1
10
59.0180741874783
20
-3.29359608570081
30
0
41
1
10
57.3779546771564
20
-2.72582150971039
30
0
41
1
10
56.0776099661612
20
-2.19998058864508
30
0
41
1
10
54.1211750914461
20
-1.3506637866426
30
0
41
1
10
53.467925692759
20
-1.05770347075452
30
0
41
1
10
52.4837268045242
20
-0.609078891847759
30
0
41
1
10
52.1549285511657
20
-0.458022694089721
30
0
41
1
10
51.4952274429965
20
-0.154284850098634
30
0
41
1
10
51.1650113224423
20
-0.0019275374978065
30
0
41
1
10
49.5587913081357
20
0.738301869946923
30
0
41
1
10
48.2943551006449
20
1.31739623004697
30
0
41
1
10
47.0281304412531
20
1.85526777144398
30
0
0
SPLINE
5
B1
100
AcDbEntity
8
1
62
256
6
ByLayer
370
18
48
1
60
0
100
AcDbSpline
70
4
71
3
72
8
73
4
40
0
40
0
40
0
40
0
40
1
40
1
40
1
40
1
41
1
10
134.999962258511
20
0.0393056911386225
30
0
41
1
10
134.991831022716
20
0.014170463524124
30
0
41
1
10
134.981158186305
20
-0.0116433818154178
30
0
41
1
10
134.970522885475
20
-0.0314229343310615
30
0
0
SPLINE
5
B2
100
AcDbEntity
8
1
62
256
6
ByLayer
370
18
48
1
60
0
100
AcDbSpline
70
4
71
3
72
44
73
40
40
0
40
0
40
0
40
0
40
0.0312499999999987
40
0.0312499999999987
40
0.0624999999999974
40
0.0624999999999974
40
0.0937499999999961
40
0.0937499999999961
40
0.124999999999995
40
0.124999999999995
40
0.187499999999992
40
0.187499999999992
40
0.24999999999999
40
0.24999999999999
40
0.312499999999987
40
0.312499999999987
40
0.374999999999985
40
0.374999999999985
40
0.437499999999982
40
0.437499999999982
40
0.499999999999979
40
0.499999999999979
40
0.562499999999977
40
0.562499999999977
40
0.624999999999974
40
0.624999999999974
40
0.656249999999973
40
0.656249999999973
40
0.687499999999971
40
0.687499999999971
40
0.749999999999977
40
0.749999999999977
40
0.812499999999983
40
0.812499999999983
40
0.874999999999989
40
0.874999999999989
40
0.937499999999994
40
0.937499999999994
40
1
40
1
40
1
40
1
41
1
10
133.193494126952
20
-2.50530729746325
30
0
41
1
10
133.189199665573
20
-2.53542454361684
30
0
41
1
10
133.186312889674
20
-2.56420732641445
30
0
41
1
10
133.183248665115
20
-2.61920449305492
30
0
41
1
10
133.183095489439
20
-2.64557471579298
30
0
41
1
10
133.185418238431
20
-2.69420738883642
30
0
41
1
10
133.187866669432
20
-2.71665954675052
30
0
41
1
10
133.19515474832
20
-2.75810041295677
30
0
41
1
10
133.200037784582
20
-2.7771599829002
30
0
41
1
10
133.217694008211
20
-2.82803571288912
30
0
41
1
10
133.233602076211
20
-2.85429258196848
30
0
41
1
10
133.271854267725
20
-2.89235883093866
30
0
41
1
10
133.293841400258
20
-2.90396169147866
30
0
41
1
10
133.342877699913
20
-2.9140210407883
30
0
41
1
10
133.369657605531
20
-2.91229720947985
30
0
41
1
10
133.426117561222
20
-2.89663753091165
30
0
41
1
10
133.456289340923
20
-2.88251148759511
30
0
41
1
10
133.518319188538
20
-2.84283639427761
30
0
41
1
10
133.550076278088
20
-2.81747526386204
30
0
41
1
10
133.615104203082
20
-2.75548691817048
30
0
41
1
10
133.648568136196
20
-2.71856244544432
30
0
41
1
10
133.715044059461
20
-2.63437053914197
30
0
41
1
10
133.747977087412
20
-2.58724938853032
30
0
41
1
10
133.811581442708
20
-2.48430036542436
30
0
41
1
10
133.842909563833
20
-2.42727309445937
30
0
41
1
10
133.886071867233
20
-2.33737673032309
30
0
41
1
10
133.899852605537
20
-2.30666742620102
30
0
41
1
10
133.926093194841
20
-2.24362932322157
30
0
41
1
10
133.938647472268
20
-2.2110051478461
30
0
41
1
10
133.972884187099
20
-2.11374356358613
30
0
41
1
10
133.991610758567
20
-2.0487542474535
30
0
41
1
10
134.019250348286
20
-1.92081078745781
30
0
41
1
10
134.027484550425
20
-1.8610725393581
30
0
41
1
10
134.032995329392
20
-1.75096814477121
30
0
41
1
10
134.030140835849
20
-1.7030599727228
30
0
41
1
10
134.014745857316
20
-1.62101802673095
30
0
41
1
10
134.002507065181
20
-1.58820076128904
30
0
41
1
10
133.970320421574
20
-1.53654289871986
30
0
41
1
10
133.95092654313
20
-1.51861084446304
30
0
41
1
10
133.9287364428
20
-1.50736900121601
30
0
0
SPLINE
5
B3
100
AcDbEntity
8
1
62
256
6
ByLayer
370
18
48
1
60
0
100
AcDbSpline
70
4
71
3
72
18
73
14
40
0
40
0
40
0
40
0
40
0.0948466480575106
40
0.0948466480575106
40
0.203115923004247
40
0.203115923004247
40
0.419654472897716
40
0.419654472897716
40
0.852731572684649
40
0.852731572684649
40
0.961000847631384
40
0.961000847631384
40
1
40
1
40
1
40
1
41
1
10
50.925518497897
20
0.0001681354872005
30
0
41
1
10
51.2139271592769
20
-0.135555523367515
30
0
41
1
10
51.5033332511279
20
-0.271736275610095
30
0
41
1
10
52.1223915290154
20
-0.562241609752164
30
0
41
1
10
52.4512933172054
20
-0.716096587059496
30
0
41
1
10
53.4357152045672
20
-1.17260313238731
30
0
41
1
10
54.0890379778117
20
-1.47005237138163
30
0
41
1
10
56.0455640163841
20
-2.33073041097677
30
0
41
1
10
57.3459134370339
20
-2.86108867883809
30
0
41
1
10
58.9865618256658
20
-3.43069242810358
30
0
41
1
10
59.3155037958723
20
-3.53987716284215
30
0
41
1
10
59.7643286181349
20
-3.68139961706629
30
0
41
1
10
59.88322235812
20
-3.71818082567978
30
0
41
1
10
60.0020703361379
20
-3.75421823397164
30
0
0
SPLINE
5
B4
100
AcDbEntity
8
1
62
256
6
ByLayer
370
13
48
1
60
0
100
AcDbSpline
70
4
71
3
72
18
73
14
40
0
40
0
40
0
40
0
40
0.0695596635531998
40
0.0695596635531998
40
0.287003647636183
40
0.287003647636183
40
0.721891615802152
40
0.721891615802152
40
0.830613607843645
40
0.830613607843645
40
0.939335599885138
40
0.939335599885138
40
1
40
1
40
1
40
1
41
1
10
60.0020712928387
20
-3.75421852406512
30
0
41
1
10
60.2131682283258
20
-3.81822790607805
30
0
41
1
10
60.4241207904519
20
-3.87989070087389
30
0
41
1
10
61.2919942734123
20
-4.12353185443015
30
0
41
1
10
61.9460813469349
20
-4.28346206221065
30
0
41
1
10
63.9037132866672
20
-4.684026145464
30
0
41
1
10
65.2030489448807
20
-4.84525258329953
30
0
41
1
10
66.8405418063346
20
-4.90103483505249
30
0
41
1
10
67.1687000425435
20
-4.90491035154162
30
0
41
1
10
67.8268743122047
20
-4.89795613783622
30
0
41
1
10
68.1573466221561
20
-4.88707403996423
30
0
41
1
10
68.6716437845389
20
-4.85859402535917
30
0
41
1
10
68.8557864510717
20
-4.8461020098992
30
0
41
1
10
69.0399126392563
20
-4.83133777541136
30
0
0
SPLINE
5
B5
100
AcDbEntity
8
1
62
256
6
ByLayer
370
18
48
1
60
0
100
AcDbSpline
70
4
71
3
72
16
73
12
40
0
40
0
40
0
40
0
40
0.147723271207424
40
0.147723271207424
40
0.587375462242692
40
0.587375462242692
40
0.807201557760325
40
0.807201557760325
40
0.917114605519146
40
0.917114605519146
40
1
40
1
40
1
40
1
41
1
10
116.270151367166
20
-0.0210463689089693
30
0
41
1
10
116.711533811813
20
-0.230557332435495
30
0
41
1
10
117.151037535157
20
-0.439154524392279
30
0
41
1
10
118.89367837748
20
-1.25949198995687
30
0
41
1
10
120.18707516577
20
-1.85325080255143
30
0
41
1
10
122.135313886918
20
-2.66328204231127
30
0
41
1
10
122.786055993074
20
-2.91993623961054
30
0
41
1
10
123.767341593945
20
-3.27864943328038
30
0
41
1
10
124.095311515833
20
-3.39383196038216
30
0
41
1
10
124.672522134957
20
-3.58741574523245
30
0
41
1
10
124.921345104186
20
-3.66787083948097
30
0
41
1
10
125.169559980734
20
-3.74493183043796
30
0
0
SPLINE
5
B6
100
AcDbEntity
8
1
62
256
6
ByLayer
370
13
48
1
60
0
100
AcDbSpline
70
4
71
3
72
12
73
8
40
0
40
0
40
0
40
0
40
0.0298209180418974
40
0.0298209180418974
40
0.51491045902095
40
0.51491045902095
40
1
40
1
40
1
40
1
41
1
10
125.169559980114
20
-3.74493183024558
30
0
41
1
10
125.250499036759
20
-3.77006023511541
30
0
41
1
10
125.331373434187
20
-3.79482774095302
30
0
41
1
10
126.725926480505
20
-4.21587573248488
30
0
41
1
10
128.023805835025
20
-4.51570326366092
30
0
41
1
10
130.620500876663
20
-4.8945743262334
30
0
41
1
10
131.919585996787
20
-4.97412885043627
30
0
41
1
10
133.235345929745
20
-4.93342028109163
30
0
0
SPLINE
5
B7
100
AcDbEntity
8
1
62
256
6
ByLayer
370
18
48
1
60
0
100
AcDbSpline
70
4
71
3
72
14
73
10
40
0
40
0
40
0
40
0
40
0.25
40
0.25
40
0.5
40
0.5
40
0.75
40
0.75
40
1
40
1
40
1
40
1
41
1
10
129.740957098842
20
-1.45139301408335
30
0
41
1
10
129.932686487319
20
-1.67833486218828
30
0
41
1
10
130.135787937389
20
-1.89048387374163
30
0
41
1
10
130.560144969506
20
-2.29116690805509
30
0
41
1
10
130.782692992324
20
-2.48044625980944
30
0
41
1
10
131.234832157449
20
-2.83157947060081
30
0
41
1
10
131.46503293171
20
-2.99417488549958
30
0
41
1
10
131.932425938496
20
-3.29741380805618
30
0
41
1
10
132.169625403537
20
-3.43803460692544
30
0
41
1
10
132.409971217254
20
-3.56877644325138
30
0
0
SPLINE
5
B8
100
AcDbEntity
8
1
62
256
6
ByLayer
370
18
48
1
60
0
100
AcDbSpline
70
4
71
3
72
50
73
46
40
0
40
0
40
0
40
0
40
0.0879662464194155
40
0.0879662464194155
40
0.131949369629123
40
0.131949369629123
40
0.175932492838831
40
0.175932492838831
40
0.219915616048539
40
0.219915616048539
40
0.263898739258246
40
0.263898739258246
40
0.2858903008631
40
0.2858903008631
40
0.307881862467954
40
0.307881862467954
40
0.351864985677662
40
0.351864985677662
40
0.39584810888737
40
0.39584810888737
40
0.439831232097077
40
0.439831232097077
40
0.527797478516495
40
0.527797478516495
40
0.571780601726203
40
0.571780601726203
40
0.593772163331057
40
0.593772163331057
40
0.615763724935912
40
0.615763724935912
40
0.659746848145619
40
0.659746848145619
40
0.703729971355326
40
0.703729971355326
40
0.725721532960179
40
0.725721532960179
40
0.747713094565033
40
0.747713094565033
40
0.79169621777474
40
0.79169621777474
40
0.879662464194154
40
0.879662464194154
40
0.967628710613567
40
0.967628710613567
40
1
40
1
40
1
40
1
41
1
10
11.2446042538776
20
2.48898686338288
30
0
41
1
10
11.8835993274781
20
2.21462458053003
30
0
41
1
10
12.522210237462
20
1.93530685877849
30
0
41
1
10
13.4765883877444
20
1.50357333724654
30
0
41
1
10
13.7940710574158
20
1.35741200338177
30
0
41
1
10
14.4270496821321
20
1.05910083625869
30
0
41
1
10
14.7422352115594
20
0.906284622207096
30
0
41
1
10
15.3747818559552
20
0.603312540296855
30
0
41
1
10
15.6916690501626
20
0.452188170676948
30
0
41
1
10
16.3256476335929
20
0.148545654836255
30
0
41
1
10
16.6427665974266
20
-0.0039179967201903
30
0
41
1
10
17.1185940592687
20
-0.233705854994696
30
0
41
1
10
17.2772097332999
20
-0.310523350729426
30
0
41
1
10
17.5943239432881
20
-0.464896437823114
30
0
41
1
10
17.7527011448261
20
-0.542717685873271
30
0
41
1
10
18.2293232810193
20
-0.773688012681504
30
0
41
1
10
18.5485182923485
20
-0.925502531150499
30
0
41
1
10
19.1891827089386
20
-1.22610562754235
30
0
41
1
10
19.5108295991399
20
-1.37535367997296
30
0
41
1
10
20.1505321540399
20
-1.66922423873714
30
0
41
1
10
20.4693220782345
20
-1.81399029548976
30
0
41
1
10
21.42065006976
20
-2.24515195133213
30
0
41
1
10
22.0556562229884
20
-2.51354038439581
30
0
41
1
10
23.0060186337091
20
-2.89558799464643
30
0
41
1
10
23.3225707336424
20
-3.0192390735038
30
0
41
1
10
23.7965319147564
20
-3.19985863491334
30
0
41
1
10
23.954177040625
20
-3.25956597313049
30
0
41
1
10
24.2699735627927
20
-3.37601484728643
30
0
41
1
10
24.4281038070754
20
-3.43280170810976
30
0
41
1
10
24.9031935519305
20
-3.59892235940782
30
0
41
1
10
25.2208779421965
20
-3.70400321565802
30
0
41
1
10
25.8571277614655
20
-3.90446165563864
30
0
41
1
10
26.1757718107897
20
-3.99971120659507
30
0
41
1
10
26.6544205925975
20
-4.13503749847965
30
0
41
1
10
26.8140762158362
20
-4.17889799249667
30
0
41
1
10
27.133400754926
20
-4.26428694109251
30
0
41
1
10
27.2933098747631
20
-4.30576876255302
30
0
41
1
10
27.7732132864538
20
-4.42420968933322
30
0
41
1
10
28.0928360014614
20
-4.4958661764106
30
0
41
1
10
29.0498023999495
20
-4.69111936816981
30
0
41
1
10
29.6848585152779
20
-4.79554985192073
30
0
41
1
10
30.947197875207
20
-4.95230512033649
30
0
41
1
10
31.5806569566972
20
-5.0015225648346
30
0
41
1
10
32.4470571267438
20
-5.03200826268173
30
0
41
1
10
32.6801895402405
20
-5.03649811977849
30
0
41
1
10
32.9132368400639
20
-5.03717276519055
30
0
0
SPLINE
5
B9
100
AcDbEntity
8
1
62
256
6
ByLayer
370
18
48
1
60
0
100
AcDbSpline
70
4
71
3
72
114
73
110
40
0
40
0
40
0
40
0
40
0.0014587101996298
40
0.0014587101996298
40
0.0125094116011074
40
0.0125094116011074
40
0.0235601130025851
40
0.0235601130025851
40
0.0456615158055402
40
0.0456615158055402
40
0.0677629186084953
40
0.0677629186084953
40
0.0788136200099734
40
0.0788136200099734
40
0.0898643214114515
40
0.0898643214114515
40
0.111965724214407
40
0.111965724214407
40
0.134067127017364
40
0.134067127017364
40
0.145117828418842
40
0.145117828418842
40
0.15616852982032
40
0.15616852982032
40
0.178269932623277
40
0.178269932623277
40
0.222472738229191
40
0.222472738229191
40
0.23352343963067
40
0.23352343963067
40
0.244574141032149
40
0.244574141032149
40
0.266675543835107
40
0.266675543835107
40
0.288776946638066
40
0.288776946638066
40
0.310878349441023
40
0.310878349441023
40
0.332979752243982
40
0.332979752243982
40
0.355081155046939
40
0.355081155046939
40
0.366131856448418
40
0.366131856448418
40
0.377182557849897
40
0.377182557849897
40
0.399283960652854
40
0.399283960652854
40
0.443486766258767
40
0.443486766258767
40
0.454537467660246
40
0.454537467660246
40
0.465588169061725
40
0.465588169061725
40
0.487689571864683
40
0.487689571864683
40
0.509790974667641
40
0.509790974667641
40
0.531892377470599
40
0.531892377470599
40
0.553993780273558
40
0.553993780273558
40
0.576095183076516
40
0.576095183076516
40
0.587145884477995
40
0.587145884477995
40
0.598196585879473
40
0.598196585879473
40
0.62029798868243
40
0.62029798868243
40
0.642399391485387
40
0.642399391485387
40
0.664500794288343
40
0.664500794288343
40
0.675551495689822
40
0.675551495689822
40
0.6866021970913
40
0.6866021970913
40
0.708703599894258
40
0.708703599894258
40
0.730805002697217
40
0.730805002697217
40
0.752906405500175
40
0.752906405500175
40
0.775007808303133
40
0.775007808303133
40
0.797109211106092
40
0.797109211106092
40
0.808159912507571
40
0.808159912507571
40
0.819210613909052
40
0.819210613909052
40
0.841312016712011
40
0.841312016712011
40
0.88551482231793
40
0.88551482231793
40
0.90761622512089
40
0.90761622512089
40
0.929717627923849
40
0.929717627923849
40
0.951819030726809
40
0.951819030726809
40
0.96286973212829
40
0.96286973212829
40
0.973920433529771
40
0.973920433529771
40
0.996021836332734
40
0.996021836332734
40
1
40
1
40
1
40
1
41
1
10
55.1325178233956
20
2.69235257586715
30
0
41
1
10
55.1533571632089
20
2.70097479338236
30
0
41
1
10
55.1741936513951
20
2.70958543967629
30
0
41
1
10
55.3528554434559
20
2.78332912234032
30
0
41
1
10
55.510306236148
20
2.84816305890402
30
0
41
1
10
55.8257089193162
20
2.97498950157961
30
0
41
1
10
55.9836105541442
20
3.03707969768416
30
0
41
1
10
56.4579205858542
20
3.21944755495056
30
0
41
1
10
56.7749522799818
20
3.33581632769955
30
0
41
1
10
57.4096330330649
20
3.55990353333917
30
0
41
1
10
57.7273686762219
20
3.6674721137538
30
0
41
1
10
58.2044483095748
20
3.82211117134773
30
0
41
1
10
58.3635501051458
20
3.87254439634597
30
0
41
1
10
58.6816769986519
20
3.97143142272279
30
0
41
1
10
58.8408018270723
20
4.01973400906428
30
0
41
1
10
59.3198233950982
20
4.15923591461885
30
0
41
1
10
59.6409071636748
20
4.24572661657575
30
0
41
1
10
60.2800960350411
20
4.40556615296742
30
0
41
1
10
60.5987997871644
20
4.47924384996969
30
0
41
1
10
61.075495608976
20
4.58045744592766
30
0
41
1
10
61.2341713561746
20
4.61264036078299
30
0
41
1
10
61.5509397019275
20
4.67397365759371
30
0
41
1
10
61.7089043428736
20
4.70322057792842
30
0
41
1
10
62.1824507368366
20
4.78586343938926
30
0
41
1
10
62.4985162658213
20
4.83359647325301
30
0
41
1
10
63.4474775856594
20
4.95604773103813
30
0
41
1
10
64.0805056573767
20
5.01071699409636
30
0
41
1
10
64.8701834069307
20
5.04483321574918
30
0
41
1
10
65.0278544640486
20
5.04993047643111
30
0
41
1
10
65.3440263509409
20
5.05645899170997
30
0
41
1
10
65.5024022564781
20
5.05792309212691
30
0
41
1
10
65.978399040193
20
5.05702709371843
30
0
41
1
10
66.2968673118674
20
5.0494219365045
30
0
41
1
10
66.9351095207134
20
5.02011851990605
30
0
41
1
10
67.2554167103266
20
4.99838479020946
30
0
41
1
10
67.8955126749015
20
4.94033774330018
30
0
41
1
10
68.2133775246761
20
4.90370903447948
30
0
41
1
10
68.8492992165858
20
4.81770016936142
30
0
41
1
10
69.1671879614493
20
4.76837995696215
30
0
41
1
10
69.8020266704704
20
4.65710651785125
30
0
41
1
10
70.1188902227413
20
4.59506058533194
30
0
41
1
10
70.5933521709971
20
4.49233625417759
30
0
41
1
10
70.7513615850884
20
4.45647979844085
30
0
41
1
10
71.0669536493685
20
4.38134724126903
30
0
41
1
10
71.2243639251849
20
4.34187852187162
30
0
41
1
10
71.6969235836952
20
4.21927596480469
30
0
41
1
10
72.0126955315646
20
4.13234457596721
30
0
41
1
10
72.9616957118481
20
3.85614271084492
30
0
41
1
10
73.5960366176331
20
3.65104020062861
30
0
41
1
10
74.3890125654819
20
3.36378718595472
30
0
41
1
10
74.5474927842989
20
3.30455985559055
30
0
41
1
10
74.8655386188202
20
3.18470942453203
30
0
41
1
10
75.0249411799548
20
3.12382947779679
30
0
41
1
10
75.5042726456176
20
2.93838253789909
30
0
41
1
10
75.8256300665607
20
2.81077569073014
30
0
41
1
10
76.4648141311055
20
2.54857536308472
30
0
41
1
10
76.7834286864413
20
2.41399200739542
30
0
41
1
10
77.4182995886808
20
2.13705659661903
30
0
41
1
10
77.7339403784249
20
1.99347196010913
30
0
41
1
10
78.3664210926872
20
1.70548661693013
30
0
41
1
10
78.6829439129604
20
1.56049807563306
30
0
41
1
10
79.3156460730421
20
1.26681371596121
30
0
41
1
10
79.631776046692
20
1.1180112276736
30
0
41
1
10
80.1056413885856
20
0.891841393414268
30
0
41
1
10
80.2635296362577
20
0.815932327664228
30
0
41
1
10
80.579037504826
20
0.662777616328185
30
0
41
1
10
80.736474150565
20
0.585144816359644
30
0
41
1
10
81.2096840978422
20
0.352951851850406
30
0
41
1
10
81.5262516826851
20
0.198896986178937
30
0
41
1
10
82.1611302410756
20
-0.108568329054691
30
0
41
1
10
82.4792810329448
20
-0.262324432552873
30
0
41
1
10
83.1167127096113
20
-0.570576014372222
30
0
41
1
10
83.4362428762137
20
-0.724766002576729
30
0
41
1
10
83.9155339254531
20
-0.957873645309604
30
0
41
1
10
84.075004293884
20
-1.03550999287933
30
0
41
1
10
84.394380920664
20
-1.18858087979334
30
0
41
1
10
84.5541428765067
20
-1.2643142828376
30
0
41
1
10
85.0336171879368
20
-1.48922715869691
30
0
41
1
10
85.3534367158962
20
-1.6362942814657
30
0
41
1
10
85.9925709214626
20
-1.92639048925915
30
0
41
1
10
86.3120487277787
20
-2.06910189726511
30
0
41
1
10
86.9502844278339
20
-2.35072878247732
30
0
41
1
10
87.26857952791
20
-2.49044153473378
30
0
41
1
10
87.908536209142
20
-2.75849989544875
30
0
41
1
10
88.2293224321545
20
-2.88760314671191
30
0
41
1
10
88.8702697846833
20
-3.13752015948424
30
0
41
1
10
89.19063960133
20
-3.25834489544238
30
0
41
1
10
89.6709745099477
20
-3.43336592824042
30
0
41
1
10
89.8310636447762
20
-3.49071129244206
30
0
41
1
10
90.1504597601801
20
-3.60335723553317
30
0
41
1
10
90.3097195076057
20
-3.65882169128946
30
0
41
1
10
90.7882805846929
20
-3.81962463098904
30
0
41
1
10
91.1077763167596
20
-3.92030105310465
30
0
41
1
10
92.0666580373513
20
-4.20479180911633
30
0
41
1
10
92.7062022931415
20
-4.37164652659169
30
0
41
1
10
93.6630337008944
20
-4.58868996648982
30
0
41
1
10
93.9832118501049
20
-4.6537808982913
30
0
41
1
10
94.6230578034471
20
-4.76973748272718
30
0
41
1
10
94.9429379889104
20
-4.82082002212229
30
0
41
1
10
95.5819946798495
20
-4.9097015882391
30
0
41
1
10
95.9013387405992
20
-4.94740734438562
30
0
41
1
10
96.3794953599332
20
-4.99380674454127
30
0
41
1
10
96.5385441779785
20
-5.00762807541071
30
0
41
1
10
96.8573393941233
20
-5.03145402771278
30
0
41
1
10
97.0169929280094
20
-5.04150875181904
30
0
41
1
10
97.4967227715443
20
-5.06621976997454
30
0
41
1
10
97.817725626908
20
-5.07545353388576
30
0
41
1
10
98.1954589996844
20
-5.07797845990623
30
0
41
1
10
98.2530638536806
20
-5.07813369379693
30
0
41
1
10
98.310653494464
20
-5.07805828172201
30
0
0
SPLINE
5
BA
100
AcDbEntity
8
1
62
256
6
ByLayer
370
18
48
1
60
0
100
AcDbSpline
70
4
71
3
72
34
73
30
40
0
40
0
40
0
40
0
40
0.0431327516629565
40
0.0431327516629565
40
0.0799353381374571
40
0.0799353381374571
40
0.116737924611958
40
0.116737924611958
40
0.263948270509963
40
0.263948270509963
40
0.337553443458969
40
0.337553443458969
40
0.411158616407973
40
0.411158616407973
40
0.558368962305984
40
0.558368962305984
40
0.595171548780485
40
0.595171548780485
40
0.631974135254985
40
0.631974135254985
40
0.705579308203989
40
0.705579308203989
40
0.779184481152992
40
0.779184481152992
40
0.815987067627493
40
0.815987067627493
40
0.852789654101994
40
0.852789654101994
40
1
40
1
40
1
40
1
41
1
10
120.44330511819
20
2.71561430181956
30
0
41
1
10
120.628637799607
20
2.79199287991702
30
0
41
1
10
120.813809997287
20
2.86714948666239
30
0
41
1
10
121.156674999235
20
3.00416307173001
30
0
41
1
10
121.314396139604
20
3.06638039963622
30
0
41
1
10
121.629430093531
20
3.18926766451116
30
0
41
1
10
121.786576510993
20
3.25019722306177
30
0
41
1
10
122.573853769145
20
3.54673514464301
30
0
41
1
10
123.207111513078
20
3.7609608722905
30
0
41
1
10
124.158486856785
20
4.05379182543822
30
0
41
1
10
124.47611861863
20
4.14625833180799
30
0
41
1
10
125.110972249362
20
4.32216921493196
30
0
41
1
10
125.429974458374
20
4.40390042519289
30
0
41
1
10
126.390022156011
20
4.62803138521326
30
0
41
1
10
127.027202335825
20
4.75026869172186
30
0
41
1
10
127.818077402221
20
4.87115262438084
30
0
41
1
10
127.975790235238
20
4.89381145428555
30
0
41
1
10
128.291152552414
20
4.93551020913384
30
0
41
1
10
128.448910186434
20
4.95450373151758
30
0
41
1
10
128.922425794016
20
5.00607333186659
30
0
41
1
10
129.23848180025
20
5.03325620849438
30
0
41
1
10
129.870338073673
20
5.07396935971082
30
0
41
1
10
130.186167162398
20
5.08746185081569
30
0
41
1
10
130.65970862596
20
5.0972255402209
30
0
41
1
10
130.817503779726
20
5.09873475535989
30
0
41
1
10
131.13285691993
20
5.09816973646591
30
0
41
1
10
131.290288193297
20
5.09606961200834
30
0
41
1
10
132.079646924744
20
5.07664589240699
30
0
41
1
10
132.715954064774
20
5.03320628692649
30
0
41
1
10
133.354723191604
20
4.96131276131564
30
0
0
SPLINE
5
BB
100
AcDbEntity
8
1
62
256
6
ByLayer
370
18
48
1
60
0
100
AcDbSpline
70
4
71
3
72
34
73
30
40
0
40
0
40
0
40
0
40
0.124999999999988
40
0.124999999999988
40
0.187499999999982
40
0.187499999999982
40
0.249999999999976
40
0.249999999999976
40
0.31249999999997
40
0.31249999999997
40
0.343749999999964
40
0.343749999999964
40
0.374999999999958
40
0.374999999999958
40
0.406249999999952
40
0.406249999999952
40
0.437499999999946
40
0.437499999999946
40
0.499999999999952
40
0.499999999999952
40
0.562499999999958
40
0.562499999999958
40
0.624999999999964
40
0.624999999999964
40
0.749999999999976
40
0.749999999999976
40
0.874999999999988
40
0.874999999999988
40
1
40
1
40
1
40
1
41
1
10
133.193494126941
20
-2.50530729746313
30
0
41
1
10
133.109538228138
20
-2.44393571667055
30
0
41
1
10
133.027887354897
20
-2.37668041502749
30
0
41
1
10
132.912914625991
20
-2.26151396593119
30
0
41
1
10
132.876237509725
20
-2.22107620691065
30
0
41
1
10
132.807785267028
20
-2.13410286041722
30
0
41
1
10
132.775800699717
20
-2.08726497026785
30
0
41
1
10
132.72297959333
20
-1.98748459264857
30
0
41
1
10
132.701769296103
20
-1.93360454246786
30
0
41
1
10
132.6870427086
20
-1.85107166899903
30
0
41
1
10
132.685114440506
20
-1.8236080598347
30
0
41
1
10
132.687873579296
20
-1.77109793731839
30
0
41
1
10
132.692672143557
20
-1.74535599218891
30
0
41
1
10
132.7080805693
20
-1.69843818888083
30
0
41
1
10
132.718734627049
20
-1.67678867715699
30
0
41
1
10
132.744024795247
20
-1.63786638068285
30
0
41
1
10
132.75850427041
20
-1.62067299363704
30
0
41
1
10
132.805985250714
20
-1.57409043038581
30
0
41
1
10
132.842799126255
20
-1.54992739071446
30
0
41
1
10
132.919543933034
20
-1.51121765773971
30
0
41
1
10
132.960175125529
20
-1.49632501001378
30
0
41
1
10
133.043650642063
20
-1.47269286038736
30
0
41
1
10
133.086042883394
20
-1.46408890784434
30
0
41
1
10
133.214572909608
20
-1.44491889084676
30
0
41
1
10
133.302041013107
20
-1.44088186630967
30
0
41
1
10
133.479198062799
20
-1.44370743965072
30
0
41
1
10
133.569271378721
20
-1.45077189977943
30
0
41
1
10
133.749253673516
20
-1.47322854899355
30
0
41
1
10
133.839067883716
20
-1.48859539970127
30
0
41
1
10
133.9287364428
20
-1.50736900121601
30
0
0
SPLINE
5
BC
100
AcDbEntity
8
1
62
256
6
ByLayer
370
18
48
1
60
0
100
AcDbSpline
70
4
71
3
72
58
73
54
40
0
40
0
40
0
40
0
40
0.0294759138521351
40
0.0294759138521351
40
0.0589518277042702
40
0.0589518277042702
40
0.117903655408538
40
0.117903655408538
40
0.147379569260672
40
0.147379569260672
40
0.176855483112807
40
0.176855483112807
40
0.235807310817073
40
0.235807310817073
40
0.265283224669206
40
0.265283224669206
40
0.294759138521339
40
0.294759138521339
40
0.353710966225605
40
0.353710966225605
40
0.383186880077739
40
0.383186880077739
40
0.412662793929873
40
0.412662793929873
40
0.471614621634142
40
0.471614621634142
40
0.501090535486275
40
0.501090535486275
40
0.530566449338408
40
0.530566449338408
40
0.589518277042672
40
0.589518277042672
40
0.618994190894805
40
0.618994190894805
40
0.648470104746938
40
0.648470104746938
40
0.707421932451207
40
0.707421932451207
40
0.736897846303342
40
0.736897846303342
40
0.766373760155477
40
0.766373760155477
40
0.825325587859747
40
0.825325587859747
40
0.854801501711882
40
0.854801501711882
40
0.884277415564017
40
0.884277415564017
40
0.943229243268288
40
0.943229243268288
40
0.972705157120422
40
0.972705157120422
40
1
40
1
40
1
40
1
41
1
10
133.173740964876
20
-5.09072657589854
30
0
41
1
10
132.846596082988
20
-5.10015318420722
30
0
41
1
10
132.519429157172
20
-5.10198405834433
30
0
41
1
10
131.864562051286
20
-5.09046856422671
30
0
41
1
10
131.536908616334
20
-5.07710520674652
30
0
41
1
10
130.555978337656
20
-5.01457071113961
30
0
41
1
10
129.903446110286
20
-4.94296740373693
30
0
41
1
10
128.923589043783
20
-4.79228301690713
30
0
41
1
10
128.59678911752
20
-4.73484312295255
30
0
41
1
10
127.942215571881
20
-4.60590307039891
30
0
41
1
10
127.614447169215
20
-4.53439183209366
30
0
41
1
10
126.633358182673
20
-4.30053550494594
30
0
41
1
10
125.980768839026
20
-4.11856404816703
30
0
41
1
10
125.000858616235
20
-3.810357158389
30
0
41
1
10
124.674041839192
20
-3.70175803116243
30
0
41
1
10
124.019437879829
20
-3.47361636207069
30
0
41
1
10
123.691616137402
20
-3.35407034993796
30
0
41
1
10
122.71044886242
20
-2.98182010241638
30
0
41
1
10
122.057816847653
20
-2.71511165267893
30
0
41
1
10
121.077761583798
20
-2.29301136923513
30
0
41
1
10
120.750891597157
20
-2.14864074404656
30
0
41
1
10
120.096224529951
20
-1.85354783740851
30
0
41
1
10
119.768368185391
20
-1.70279874462821
30
0
41
1
10
118.787054258544
20
-1.24473365027066
30
0
41
1
10
118.134399383976
20
-0.930845012822999
30
0
41
1
10
117.154252650356
20
-0.454300638505543
30
0
41
1
10
116.827363549991
20
-0.29445978420344
30
0
41
1
10
116.172662287272
20
0.0260366425070231
30
0
41
1
10
115.844757587783
20
0.186722167891929
30
0
41
1
10
114.863326054575
20
0.666115603983343
30
0
41
1
10
114.210577075577
20
0.982832579681627
30
0
41
1
10
113.23035811608
20
1.44672610854309
30
0
41
1
10
112.903456534296
20
1.59953554479921
30
0
41
1
10
112.248740245454
20
1.90033101303328
30
0
41
1
10
111.920800888957
20
2.04834479462585
30
0
41
1
10
110.939253287002
20
2.48155170142755
30
0
41
1
10
110.286412890007
20
2.75650745823725
30
0
41
1
10
109.306140596292
20
3.14246483995024
30
0
41
1
10
108.979208496178
20
3.26669640693609
30
0
41
1
10
108.324455463363
20
3.50540534463562
30
0
41
1
10
107.996483817145
20
3.61990625977987
30
0
41
1
10
107.014784162423
20
3.94588548096431
30
0
41
1
10
106.36189906038
20
4.14045951343152
30
0
41
1
10
105.38154266448
20
4.39412195816732
30
0
41
1
10
105.05457447951
20
4.47230358937784
30
0
41
1
10
104.399793792429
20
4.61536611934375
30
0
41
1
10
104.071785388872
20
4.68023409816968
30
0
41
1
10
103.08996150285
20
4.85318116307798
30
0
41
1
10
102.437028593215
20
4.93998154799459
30
0
41
1
10
101.456577307626
20
5.0257135460715
30
0
41
1
10
101.129607416788
20
5.04689441350538
30
0
41
1
10
100.499032043841
20
5.0732083171801
30
0
41
1
10
100.195306074339
20
5.07939378373541
30
0
41
1
10
99.8921055128226
20
5.07908391622053
30
0
0
SPLINE
5
BD
100
AcDbEntity
8
1
62
256
6
ByLayer
370
18
48
1
60
0
100
AcDbSpline
70
4
71
3
72
64
73
60
40
0
40
0
40
0
40
0
40
0.0027925344641284
40
0.0027925344641284
40
0.0301702929678346
40
0.0301702929678346
40
0.0575480514715409
40
0.0575480514715409
40
0.112303568478953
40
0.112303568478953
40
0.139681326982659
40
0.139681326982659
40
0.167059085486365
40
0.167059085486365
40
0.221814602493778
40
0.221814602493778
40
0.249192360997484
40
0.249192360997484
40
0.276570119501191
40
0.276570119501191
40
0.331325636508604
40
0.331325636508604
40
0.358703395012311
40
0.358703395012311
40
0.386081153516018
40
0.386081153516018
40
0.440836670523431
40
0.440836670523431
40
0.468214429027138
40
0.468214429027138
40
0.495592187530845
40
0.495592187530845
40
0.550347704538258
40
0.550347704538258
40
0.577725463041965
40
0.577725463041965
40
0.605103221545672
40
0.605103221545672
40
0.659858738553087
40
0.659858738553087
40
0.687236497056794
40
0.687236497056794
40
0.714614255560501
40
0.714614255560501
40
0.769369772567915
40
0.769369772567915
40
0.796747531071622
40
0.796747531071622
40
0.824125289575329
40
0.824125289575329
40
0.878880806582744
40
0.878880806582744
40
0.906258565086451
40
0.906258565086451
40
0.933636323590158
40
0.933636323590158
40
0.988391840597574
40
0.988391840597574
40
1
40
1
40
1
40
1
41
1
10
70.4707215482466
20
-4.81970532985639
30
0
41
1
10
70.4373680407921
20
-4.82463786742053
30
0
41
1
10
70.4040135181386
20
-4.82949601949846
30
0
41
1
10
70.0436400929354
20
-4.88117712103622
30
0
41
1
10
69.7165006757053
20
-4.92090962844506
30
0
41
1
10
69.0613928229865
20
-4.98567546593171
30
0
41
1
10
68.7330753473234
20
-5.01071341577551
30
0
41
1
10
67.7500941911763
20
-5.06317094651214
30
0
41
1
10
67.0965235646735
20
-5.06803096334045
30
0
41
1
10
66.1153672523334
20
-5.03032799372912
30
0
41
1
10
65.788205802183
20
-5.01026222820292
30
0
41
1
10
65.1330660927017
20
-4.95521544194267
30
0
41
1
10
64.8047324397214
20
-4.92018810768042
30
0
41
1
10
63.821607247073
20
-4.79345285974327
30
0
41
1
10
63.1679464472583
20
-4.68008714955218
30
0
41
1
10
62.1867600836885
20
-4.46940227263963
30
0
41
1
10
61.8595789691398
20
-4.39240572396076
30
0
41
1
10
61.2043584166118
20
-4.22545157248632
30
0
41
1
10
60.876002247833
20
-4.13534788024378
30
0
41
1
10
59.8928004404841
20
-3.84735335594982
30
0
41
1
10
59.2390106967456
20
-3.63191259823046
30
0
41
1
10
58.2577541571029
20
-3.27810414769166
30
0
41
1
10
57.930559610345
20
-3.15507815385217
30
0
41
1
10
57.275307132605
20
-2.89984681861836
30
0
41
1
10
56.9469243187917
20
-2.76743319212835
30
0
41
1
10
55.9635465682221
20
-2.35904848210694
30
0
41
1
10
55.3097340110618
20
-2.07189065736455
30
0
41
1
10
54.3283693299008
20
-1.62507379045871
30
0
41
1
10
54.0011137684854
20
-1.47350774891214
30
0
41
1
10
53.345819588672
20
-1.16612060005605
30
0
41
1
10
53.0174413832252
20
-1.01007093782889
30
0
41
1
10
52.0340301579525
20
-0.538778841970071
30
0
41
1
10
51.3801384496032
20
-0.2205848750624
30
0
41
1
10
50.3986254140312
20
0.255977387594413
30
0
41
1
10
50.071362518134
20
0.414752884103137
30
0
41
1
10
49.416062221313
20
0.730923075818112
30
0
41
1
10
49.0876587854048
20
0.88849813242328
30
0
41
1
10
48.1040678548496
20
1.35582388137266
30
0
41
1
10
47.4500823152206
20
1.66005848255267
30
0
41
1
10
46.4685276469267
20
2.09924195618828
30
0
41
1
10
46.1412602925649
20
2.2428003198263
30
0
41
1
10
45.4859149260314
20
2.52301177466779
30
0
41
1
10
45.1574738125436
20
2.65982851915652
30
0
41
1
10
44.1736957291497
20
3.05717922590546
30
0
41
1
10
43.5196373566477
20
3.30453798653318
30
0
41
1
10
42.5380193284576
20
3.6442756779978
30
0
41
1
10
42.2107223726587
20
3.75230077411282
30
0
41
1
10
41.5553253387642
20
3.95699643618616
30
0
41
1
10
41.2268759945214
20
4.05379861649044
30
0
41
1
10
40.2429933517769
20
4.32522589757278
30
0
41
1
10
39.588867046058
20
4.48079501475473
30
0
41
1
10
38.6071725349218
20
4.67311864898912
30
0
41
1
10
38.2798538391117
20
4.73038484245174
30
0
41
1
10
37.6244220667568
20
4.83072346331954
30
0
41
1
10
37.2959549032399
20
4.87384650498564
30
0
41
1
10
36.3119277028011
20
4.9810142111038
30
0
41
1
10
35.6577405172006
20
5.02286580675292
30
0
41
1
10
34.8644483773097
20
5.03726840006613
30
0
41
1
10
34.7256725553646
20
5.03844104951827
30
0
41
1
10
34.5868588815604
20
5.03826544762876
30
0
0
SPLINE
5
BE
100
AcDbEntity
8
1
62
256
6
ByLayer
370
18
48
1
60
0
100
AcDbSpline
70
4
71
3
72
8
73
4
40
0
40
0
40
0
40
0
40
1
40
1
40
1
40
1
41
1
10
134.970522885475
20
-0.0314229343311183
30
0
41
1
10
134.930144547609
20
-0.106518643146558
30
0
41
1
10
134.88992401568
20
-0.181755424476762
30
0
41
1
10
134.849861560332
20
-0.257133520194714
30
0
0
SPLINE
5
BF
100
AcDbEntity
8
1
62
256
6
ByLayer
370
13
48
1
60
0
100
AcDbSpline
70
4
71
3
72
14
73
10
40
0
40
0
40
0
40
0
40
0.299359728325134
40
0.299359728325134
40
0.540486738984548
40
0.540486738984548
40
0.781613749643962
40
0.781613749643962
40
1
40
1
40
1
40
1
41
1
10
7.6046534309562
20
4.31091112818615
30
0
41
1
10
7.60466927199215
20
4.39984279592497
30
0
41
1
10
7.60468338888654
20
4.47576100645335
30
0
41
1
10
7.60470671032868
20
4.5900476928586
30
0
41
1
10
7.60471632744489
20
4.63277678882017
30
0
41
1
10
7.60473446858146
20
4.70128949544593
30
0
41
1
10
7.60474301925333
20
4.72704238039003
30
0
41
1
10
7.60475835689925
20
4.75857209837824
30
0
41
1
10
7.60476528580685
20
4.76627466873052
30
0
41
1
10
7.60477201748404
20
4.76670709921598
30
0
0
SPLINE
5
C0
100
AcDbEntity
8
1
62
256
6
ByLayer
370
18
48
1
60
0
100
AcDbSpline
70
4
71
3
72
8
73
4
40
0
40
0
40
0
40
0
40
1
40
1
40
1
40
1
41
1
10
133.354723191604
20
4.96131276131564
30
0
41
1
10
133.285020599197
20
5.02946121781758
30
0
41
1
10
133.22489667475
20
5.07290884077699
30
0
41
1
10
133.173740964876
20
5.09072657589854
30
0
0
SPLINE
5
C1
100
AcDbEntity
8
1
62
256
6
ByLayer
370
18
48
1
60
0
100
AcDbSpline
70
4
71
3
72
106
73
102
40
0
40
0
40
0
40
0
40
0.0195433424723834
40
0.0195433424723834
40
0.0411621694720662
40
0.0411621694720662
40
0.0627809964717489
40
0.0627809964717489
40
0.0843998234714317
40
0.0843998234714317
40
0.106018650471114
40
0.106018650471114
40
0.116828063970956
40
0.116828063970956
40
0.127637477470797
40
0.127637477470797
40
0.149256304470481
40
0.149256304470481
40
0.170875131470166
40
0.170875131470166
40
0.19249395846985
40
0.19249395846985
40
0.214112785469534
40
0.214112785469534
40
0.257350439468903
40
0.257350439468903
40
0.278969266468588
40
0.278969266468588
40
0.300588093468272
40
0.300588093468272
40
0.322206920467956
40
0.322206920467956
40
0.343825747467641
40
0.343825747467641
40
0.365444574467325
40
0.365444574467325
40
0.387063401467009
40
0.387063401467009
40
0.408682228466694
40
0.408682228466694
40
0.430301055466378
40
0.430301055466378
40
0.451919882466062
40
0.451919882466062
40
0.473538709465747
40
0.473538709465747
40
0.484348122965588
40
0.484348122965588
40
0.495157536465429
40
0.495157536465429
40
0.516776363465112
40
0.516776363465112
40
0.538395190464795
40
0.538395190464795
40
0.560014017464478
40
0.560014017464478
40
0.570823430964319
40
0.570823430964319
40
0.58163284446416
40
0.58163284446416
40
0.603251671463842
40
0.603251671463842
40
0.624870498463523
40
0.624870498463523
40
0.635679911963363
40
0.635679911963363
40
0.646489325463202
40
0.646489325463202
40
0.668108152462884
40
0.668108152462884
40
0.689726979462565
40
0.689726979462565
40
0.711345806462246
40
0.711345806462246
40
0.732964633461927
40
0.732964633461927
40
0.754583460461608
40
0.754583460461608
40
0.77620228746129
40
0.77620228746129
40
0.797821114460971
40
0.797821114460971
40
0.819439941460652
40
0.819439941460652
40
0.862677595460014
40
0.862677595460014
40
0.884296422459696
40
0.884296422459696
40
0.905915249459377
40
0.905915249459377
40
0.927534076459058
40
0.927534076459058
40
0.938343489958899
40
0.938343489958899
40
0.949152903458741
40
0.949152903458741
40
0.970771730458423
40
0.970771730458423
40
0.992390557458106
40
0.992390557458106
40
1
40
1
40
1
40
1
41
1
10
120.413914241897
20
-2.70284138008773
30
0
41
1
10
120.136691698132
20
-2.80949693475702
30
0
41
1
10
119.859229461873
20
-2.91265885020078
30
0
41
1
10
119.274172034017
20
-3.12446461468537
30
0
41
1
10
118.966465597817
20
-3.23210848728002
30
0
41
1
10
118.350225582999
20
-3.43926122943978
30
0
41
1
10
118.042081792962
20
-3.53950944572856
30
0
41
1
10
117.42324143084
20
-3.72942636495028
30
0
41
1
10
117.112614533926
20
-3.81972722126963
30
0
41
1
10
116.490209942466
20
-3.99005207443642
30
0
41
1
10
116.180077906407
20
-4.06897069866454
30
0
41
1
10
115.715961519184
20
-4.1791685789741
30
0
41
1
10
115.561415410543
20
-4.21474008428692
30
0
41
1
10
115.252772545019
20
-4.28318830813691
30
0
41
1
10
115.09888083745
20
-4.31623976075053
30
0
41
1
10
114.637167896522
20
-4.41031836431827
30
0
41
1
10
114.329699700761
20
-4.46648549665738
30
0
41
1
10
113.715125749352
20
-4.56693954146232
30
0
41
1
10
113.408030949206
20
-4.61202729631765
30
0
41
1
10
112.794143510301
20
-4.68919534329311
30
0
41
1
10
112.487190579704
20
-4.72103717052329
30
0
41
1
10
111.874056119121
20
-4.77290756291021
30
0
41
1
10
111.567615368713
20
-4.79310995940807
30
0
41
1
10
110.646116461269
20
-4.83447057921893
30
0
41
1
10
110.029923702868
20
-4.83571902917646
30
0
41
1
10
109.101904401358
20
-4.80145487183006
30
0
41
1
10
108.792302380711
20
-4.78302759598785
30
0
41
1
10
108.170655908859
20
-4.73274581347786
30
0
41
1
10
107.859688463479
20
-4.70164677657252
30
0
41
1
10
107.239837510108
20
-4.62802890426212
30
0
41
1
10
106.930702638497
20
-4.58489228236255
30
0
41
1
10
106.313602013817
20
-4.48617856776536
30
0
41
1
10
106.005544872524
20
-4.43116729945771
30
0
41
1
10
105.391148076651
20
-4.30938879651512
30
0
41
1
10
105.084085253594
20
-4.24302859327366
30
0
41
1
10
104.469960955521
20
-4.09813611940504
30
0
41
1
10
104.162862066197
20
-4.02101997444046
30
0
41
1
10
103.548537743894
20
-3.85732572631349
30
0
41
1
10
103.241264439439
20
-3.77023466898129
30
0
41
1
10
102.62646717283
20
-3.58458879306608
30
0
41
1
10
102.319349684942
20
-3.48591999860736
30
0
41
1
10
101.703308616302
20
-3.28196192056564
30
0
41
1
10
101.394602199103
20
-3.17596479100081
30
0
41
1
10
100.775571910669
20
-2.95347915761249
30
0
41
1
10
100.465301365376
20
-2.83819028155068
30
0
41
1
10
99.9986655049204
20
-2.65996126896289
30
0
41
1
10
99.8428714783253
20
-2.59959558711691
30
0
41
1
10
99.5321545959297
20
-2.47720879471581
30
0
41
1
10
99.3772896689936
20
-2.41469127602954
30
0
41
1
10
98.9131764529284
20
-2.22504170002154
30
0
41
1
10
98.6043472557376
20
-2.0961986347923
30
0
41
1
10
97.9873297459291
20
-1.83529227875607
30
0
41
1
10
97.6792595273803
20
-1.70296008749983
30
0
41
1
10
97.0641300964447
20
-1.43353282208548
30
0
41
1
10
96.7569062070286
20
-1.2968572677473
30
0
41
1
10
96.2966578325339
20
-1.08927058816411
30
0
41
1
10
96.1435227859069
20
-1.01921851642828
30
0
41
1
10
95.8369525636505
20
-0.879237479769188
30
0
41
1
10
95.6836290888857
20
-0.809073979949545
30
0
41
1
10
95.2234987910496
20
-0.597993539917354
30
0
41
1
10
94.9165334559597
20
-0.45643033808534
30
0
41
1
10
94.3020706443176
20
-0.172761518458714
30
0
41
1
10
93.9945438916522
20
-0.0306253901711102
30
0
41
1
10
93.5326874346214
20
0.183047688457918
30
0
41
1
10
93.3785675915563
20
0.254212303605641
30
0
41
1
10
93.0705096360683
20
0.397576167010726
30
0
41
1
10
92.9163885374376
20
0.469331960863741
30
0
41
1
10
92.453253457444
20
0.683555448995151
30
0
41
1
10
92.1436209212023
20
0.825380530467271
30
0
41
1
10
91.5224239603286
20
1.10696688166911
30
0
41
1
10
91.2106635609321
20
1.24674421569819
30
0
41
1
10
90.5898816730532
20
1.52138646010613
30
0
41
1
10
90.2800930469793
20
1.65642160250536
30
0
41
1
10
89.6631935248063
20
1.92361429639669
30
0
41
1
10
89.3551941477672
20
2.05391592725303
30
0
41
1
10
88.7395152094596
20
2.30797982303054
30
0
41
1
10
88.4319209658785
20
2.43191846289196
30
0
41
1
10
87.8172130037759
20
2.6726973328604
30
0
41
1
10
87.5100139893093
20
2.78932603994434
30
0
41
1
10
86.8958503525347
20
3.01582939783705
30
0
41
1
10
86.5893304107054
20
3.12653074765501
30
0
41
1
10
85.9750696766029
20
3.337916164429
30
0
41
1
10
85.6674735067747
20
3.43876039014322
30
0
41
1
10
84.7433183754988
20
3.72791645908501
30
0
41
1
10
84.1252045244979
20
3.90284798090448
30
0
41
1
10
83.1945402374926
20
4.13517681415621
30
0
41
1
10
82.8827833067509
20
4.20748252556029
30
0
41
1
10
82.2617414628643
20
4.33965275705847
30
0
41
1
10
81.9521300607915
20
4.39912636461278
30
0
41
1
10
81.3340605211739
20
4.50667208251329
30
0
41
1
10
81.0255333123673
20
4.55495902768931
30
0
41
1
10
80.5638111617865
20
4.61809006987232
30
0
41
1
10
80.4102899955103
20
4.63771311724065
30
0
41
1
10
80.1031312938696
20
4.67337152398838
30
0
41
1
10
79.9495940160194
20
4.68943668295069
30
0
41
1
10
79.4889443087357
20
4.73327567536248
30
0
41
1
10
79.1818110472387
20
4.75700137377294
30
0
41
1
10
78.5676522520807
20
4.79165694356439
30
0
41
1
10
78.2605583528582
20
4.80237048211109
30
0
41
1
10
77.8451802237235
20
4.80797967758812
30
0
41
1
10
77.737002951032
20
4.80873262623186
30
0
41
1
10
77.6288485185802
20
4.80878453275179
30
0
0
SPLINE
5
C2
100
AcDbEntity
8
1
62
256
6
ByLayer
370
18
48
1
60
0
100
AcDbSpline
70
4
71
3
72
104
73
100
40
0
40
0
40
0
40
0
40
0.0073186982441041
40
0.0073186982441041
40
0.0289740603785855
40
0.0289740603785855
40
0.0506294225130669
40
0.0506294225130669
40
0.0722847846475483
40
0.0722847846475483
40
0.0939401467820299
40
0.0939401467820299
40
0.115595508916511
40
0.115595508916511
40
0.137250871050993
40
0.137250871050993
40
0.148078552118234
40
0.148078552118234
40
0.158906233185475
40
0.158906233185475
40
0.20221695745444
40
0.20221695745444
40
0.213044638521682
40
0.213044638521682
40
0.223872319588923
40
0.223872319588923
40
0.245527681723405
40
0.245527681723405
40
0.267183043857888
40
0.267183043857888
40
0.288838405992371
40
0.288838405992371
40
0.310493768126853
40
0.310493768126853
40
0.332149130261336
40
0.332149130261336
40
0.353804492395819
40
0.353804492395819
40
0.375459854530302
40
0.375459854530302
40
0.397115216664784
40
0.397115216664784
40
0.418770578799267
40
0.418770578799267
40
0.44042594093375
40
0.44042594093375
40
0.462081303068232
40
0.462081303068232
40
0.483736665202715
40
0.483736665202715
40
0.505392027337198
40
0.505392027337198
40
0.52704738947168
40
0.52704738947168
40
0.548702751606163
40
0.548702751606163
40
0.570358113740646
40
0.570358113740646
40
0.581185794807887
40
0.581185794807887
40
0.592013475875129
40
0.592013475875129
40
0.613668838009611
40
0.613668838009611
40
0.635324200144093
40
0.635324200144093
40
0.656979562278574
40
0.656979562278574
40
0.667807243345815
40
0.667807243345815
40
0.678634924413056
40
0.678634924413056
40
0.700290286547537
40
0.700290286547537
40
0.721945648682018
40
0.721945648682018
40
0.732773329749258
40
0.732773329749258
40
0.743601010816499
40
0.743601010816499
40
0.76525637295098
40
0.76525637295098
40
0.786911735085461
40
0.786911735085461
40
0.808567097219942
40
0.808567097219942
40
0.830222459354424
40
0.830222459354424
40
0.851877821488905
40
0.851877821488905
40
0.873533183623386
40
0.873533183623386
40
0.895188545757867
40
0.895188545757867
40
0.938499270026829
40
0.938499270026829
40
0.981809994295791
40
0.981809994295791
40
1
40
1
40
1
40
1
41
1
10
55.116559943299
20
-2.68210655635787
30
0
41
1
10
55.0126446714139
20
-2.72200958157569
30
0
41
1
10
54.9087764262795
20
-2.76146141167115
30
0
41
1
10
54.4975853421172
20
-2.91555297702755
30
0
41
1
10
54.1902692757714
20
-3.02682116553314
30
0
41
1
10
53.5758359138199
20
-3.24105174756315
30
0
41
1
10
53.2687381179132
20
-3.3438752948268
30
0
41
1
10
52.6543657707464
20
-3.53985622891091
30
0
41
1
10
52.3471240880265
20
-3.63383098258549
30
0
41
1
10
51.7329579798602
20
-3.8133444642082
30
0
41
1
10
51.4253492144808
20
-3.89760253534203
30
0
41
1
10
50.8087787498378
20
-4.05551435328647
30
0
41
1
10
50.4999126530057
20
-4.12953968908053
30
0
41
1
10
49.8807942625738
20
-4.2668586243438
30
0
41
1
10
49.5704435453385
20
-4.32978520642448
30
0
41
1
10
49.1037878401258
20
-4.41580345449273
30
0
41
1
10
48.9481549603441
20
-4.44327330468863
30
0
41
1
10
48.6374698738671
20
-4.49513133589369
30
0
41
1
10
48.4822873423318
20
-4.51955261603067
30
0
41
1
10
47.707119841165
20
-4.63363973734403
30
0
41
1
10
47.0896939604878
20
-4.6981587403472
30
0
41
1
10
46.3197828665448
20
-4.74959910593876
30
0
41
1
10
46.165908087891
20
-4.75835040094267
30
0
41
1
10
45.8584450622025
20
-4.77258557274558
30
0
41
1
10
45.7050568103647
20
-4.77807346545333
30
0
41
1
10
45.244527905466
20
-4.78963279665382
30
0
41
1
10
44.9374026804439
20
-4.79109506358222
30
0
41
1
10
44.3228239646379
20
-4.78232226003527
30
0
41
1
10
44.0154539191102
20
-4.77158548814526
30
0
41
1
10
43.4001709547576
20
-4.73662207910655
30
0
41
1
10
43.0920906397399
20
-4.71336494824388
30
0
41
1
10
42.4761271142842
20
-4.65418580582204
30
0
41
1
10
42.1678621814036
20
-4.61814975669401
30
0
41
1
10
41.5491265156578
20
-4.5332401295849
30
0
41
1
10
41.2389332447961
20
-4.48503913704002
30
0
41
1
10
40.6168605309235
20
-4.37692534892758
30
0
41
1
10
40.3048509731701
20
-4.31680482994344
30
0
41
1
10
39.6841556714262
20
-4.18449255510819
30
0
41
1
10
39.3750854016539
20
-4.11250223817012
30
0
41
1
10
38.7575501037853
20
-3.9594324666927
30
0
41
1
10
38.449163971444
20
-3.8779862410625
30
0
41
1
10
37.8332285709729
20
-3.70439000405122
30
0
41
1
10
37.5256297889298
20
-3.61263685095332
30
0
41
1
10
36.9106696432723
20
-3.42147160948505
30
0
41
1
10
36.6033927663927
20
-3.32138309386741
30
0
41
1
10
35.9898649661679
20
-3.11026493539947
30
0
41
1
10
35.6828592897568
20
-3.00043185003534
30
0
41
1
10
35.0680276791727
20
-2.7751559010598
30
0
41
1
10
34.7603021735257
20
-2.65890948398837
30
0
41
1
10
34.1439820034304
20
-2.41876775766514
30
0
41
1
10
33.8352767591171
20
-2.29484318068498
30
0
41
1
10
33.2170707842048
20
-2.04159387093048
30
0
41
1
10
32.9079657453933
20
-1.91087418707792
30
0
41
1
10
32.2869993009487
20
-1.64482441318867
30
0
41
1
10
31.9748480091221
20
-1.5088522120823
30
0
41
1
10
31.3527655341322
20
-1.2352074169589
30
0
41
1
10
31.0424279918604
20
-1.09722777169094
30
0
41
1
10
30.5781225973129
20
-0.888366087952619
30
0
41
1
10
30.4235611067012
20
-0.818415369412349
30
0
41
1
10
30.1148147517837
20
-0.677905882489483
30
0
41
1
10
29.9608352300362
20
-0.606882234525841
30
0
41
1
10
29.498737738267
20
-0.394491996826446
30
0
41
1
10
29.1907826074709
20
-0.253068175642426
30
0
41
1
10
28.5752512165642
20
0.0295568747694404
30
0
41
1
10
28.2677070752111
20
0.170827010585697
30
0
41
1
10
27.6525460050002
20
0.452343448854094
30
0
41
1
10
27.3448227861363
20
0.592382831443587
30
0
41
1
10
26.8836414678743
20
0.802579758902766
30
0
41
1
10
26.7300717038384
20
0.872852324787857
30
0
41
1
10
26.4224601615008
20
1.01208089011897
30
0
41
1
10
26.2685195769274
20
1.0812741928606
30
0
41
1
10
25.8062557062514
20
1.28757221332853
30
0
41
1
10
25.4975314176109
20
1.42346821159993
30
0
41
1
10
24.8789549745526
20
1.69180969256215
30
0
41
1
10
24.5689155047451
20
1.82372784141035
30
0
41
1
10
24.1027792307873
20
2.01856205973377
30
0
41
1
10
23.9471783693092
20
2.0829119645361
30
0
41
1
10
23.6360503144006
20
2.2115203187131
30
0
41
1
10
23.480233125048
20
2.27515024043078
30
0
41
1
10
23.0132594698822
20
2.46300762522472
30
0
41
1
10
22.7021104249945
20
2.58442140866958
30
0
41
1
10
22.0801145711509
20
2.81966273312304
30
0
41
1
10
21.7692959446341
20
2.93353143795525
30
0
41
1
10
21.147616233896
20
3.15298666598483
30
0
41
1
10
20.8367775772982
20
3.25820246885527
30
0
41
1
10
20.215610868747
20
3.46092727610665
30
0
41
1
10
19.9045313537935
20
3.55785993188977
30
0
41
1
10
19.2811510251963
20
3.74206059730716
30
0
41
1
10
18.9693893485178
20
3.82926112974184
30
0
41
1
10
18.3481296717491
20
3.99274915902779
30
0
41
1
10
18.0381893264283
20
4.06906653643284
30
0
41
1
10
17.4198053072495
20
4.21076150645055
30
0
41
1
10
17.1117847721624
20
4.27645811146428
30
0
41
1
10
16.1874991603696
20
4.45180982851593
30
0
41
1
10
15.5716743584315
20
4.54687467761988
30
0
41
1
10
14.3399335217534
20
4.6881295648692
30
0
41
1
10
13.7250075173602
20
4.7359144079243
30
0
41
1
10
12.8476673346511
20
4.76537725476354
30
0
41
1
10
12.5876750349545
20
4.76977152304733
30
0
41
1
10
12.3271464045306
20
4.76971400938447
30
0
0
SPLINE
5
C3
100
AcDbEntity
8
1
62
256
6
ByLayer
370
18
48
1
60
0
100
AcDbSpline
70
4
71
3
72
106
73
102
40
0
40
0
40
0
40
0
40
0.0057520490371479
40
0.0057520490371479
40
0.0278749619011457
40
0.0278749619011457
40
0.0389364183331449
40
0.0389364183331449
40
0.0499978747651442
40
0.0499978747651442
40
0.0721207876291428
40
0.0721207876291428
40
0.0942437004931414
40
0.0942437004931414
40
0.105305156925141
40
0.105305156925141
40
0.11636661335714
40
0.11636661335714
40
0.138489526221139
40
0.138489526221139
40
0.182735351949136
40
0.182735351949136
40
0.226981177677133
40
0.226981177677133
40
0.249104090541131
40
0.249104090541131
40
0.26016554697313
40
0.26016554697313
40
0.271227003405129
40
0.271227003405129
40
0.293349916269128
40
0.293349916269128
40
0.315472829133126
40
0.315472829133126
40
0.337595741997125
40
0.337595741997125
40
0.359718654861123
40
0.359718654861123
40
0.381841567725122
40
0.381841567725122
40
0.392903024157121
40
0.392903024157121
40
0.40396448058912
40
0.40396448058912
40
0.448210306317118
40
0.448210306317118
40
0.470333219181116
40
0.470333219181116
40
0.481394675613115
40
0.481394675613115
40
0.492456132045114
40
0.492456132045114
40
0.53670195777311
40
0.53670195777311
40
0.558824870637108
40
0.558824870637108
40
0.580947783501106
40
0.580947783501106
40
0.603070696365105
40
0.603070696365105
40
0.614132152797103
40
0.614132152797103
40
0.625193609229102
40
0.625193609229102
40
0.647316522093099
40
0.647316522093099
40
0.669439434957097
40
0.669439434957097
40
0.691562347821094
40
0.691562347821094
40
0.713685260685092
40
0.713685260685092
40
0.757931086413086
40
0.757931086413086
40
0.768992542845084
40
0.768992542845084
40
0.780053999277082
40
0.780053999277082
40
0.802176912141078
40
0.802176912141078
40
0.824299825005074
40
0.824299825005074
40
0.835361281437072
40
0.835361281437072
40
0.84642273786907
40
0.84642273786907
40
0.868545650733065
40
0.868545650733065
40
0.89066856359706
40
0.89066856359706
40
0.901730020029058
40
0.901730020029058
40
0.912791476461055
40
0.912791476461055
40
0.934914389325051
40
0.934914389325051
40
0.979160215053043
40
0.979160215053043
40
0.990221671485041
40
0.990221671485041
40
1
40
1
40
1
40
1
41
1
10
22.4420653076566
20
2.66819894034472
30
0
41
1
10
22.5244748647087
20
2.70178478098839
30
0
41
1
10
22.606865108222
20
2.73512747051879
30
0
41
1
10
23.0060186337091
20
2.89558799464641
30
0
41
1
10
23.3225707336423
20
3.01923907350374
30
0
41
1
10
23.7965319147564
20
3.19985863491331
30
0
41
1
10
23.9541770406249
20
3.25956597313046
30
0
41
1
10
24.2699735627926
20
3.3760148472864
30
0
41
1
10
24.4281038070754
20
3.43280170810974
30
0
41
1
10
24.9031935519304
20
3.59892235940779
30
0
41
1
10
25.2208779421963
20
3.70400321565799
30
0
41
1
10
25.8571277614654
20
3.90446165563861
30
0
41
1
10
26.1757718107897
20
3.99971120659504
30
0
41
1
10
26.6544205925974
20
4.13503749847962
30
0
41
1
10
26.8140762158362
20
4.17889799249664
30
0
41
1
10
27.133400754926
20
4.26428694109251
30
0
41
1
10
27.2933098747631
20
4.30576876255299
30
0
41
1
10
27.7732132864538
20
4.42420968933322
30
0
41
1
10
28.0928360014613
20
4.4958661764106
30
0
41
1
10
29.0498023999494
20
4.69111936816978
30
0
41
1
10
29.6848585152779
20
4.7955498519207
30
0
41
1
10
30.9471978752069
20
4.95230512033649
30
0
41
1
10
31.5806569566971
20
5.00152256483457
30
0
41
1
10
32.5306594269875
20
5.03494994546608
30
0
41
1
10
32.8474510177705
20
5.03924172437701
30
0
41
1
10
33.3222513951214
20
5.03501098093869
30
0
41
1
10
33.4802823240846
20
5.03178362312465
30
0
41
1
10
33.7972165190337
20
5.02178074130973
30
0
41
1
10
33.9560041149907
20
5.01501113006327
30
0
41
1
10
34.433327077398
20
4.98950754262142
30
0
41
1
10
34.7528041789981
20
4.96561962547179
30
0
41
1
10
35.3933166039029
20
4.9037395867696
30
0
41
1
10
35.7146339607408
20
4.86572676524148
30
0
41
1
10
36.354525171251
20
4.77561250256494
30
0
41
1
10
36.6728909885519
20
4.7228756025612
30
0
41
1
10
37.311264162509
20
4.6053294226345
30
0
41
1
10
37.6310847735192
20
4.54053980981504
30
0
41
1
10
38.2710991329877
20
4.39856331317839
30
0
41
1
10
38.5912079642728
20
4.32126891146831
30
0
41
1
10
39.0715302847992
20
4.19570320873646
30
0
41
1
10
39.2316564432871
20
4.15223467856671
30
0
41
1
10
39.5518084610463
20
4.06182407904308
30
0
41
1
10
39.7115102702138
20
4.01467435850694
30
0
41
1
10
40.510078635347
20
3.77306078767799
30
0
41
1
10
41.1505590296183
20
3.56195621733437
30
0
41
1
10
42.1099484193065
20
3.2145978276252
30
0
41
1
10
42.4297374329084
20
3.09396861741888
30
0
41
1
10
42.9085183133295
20
2.90396875872054
30
0
41
1
10
43.0680283366222
20
2.83921806572269
30
0
41
1
10
43.3879466701406
20
2.70873678392957
30
0
41
1
10
43.5482261524366
20
2.64274359412741
30
0
41
1
10
44.3492781507432
20
2.3098094201236
30
0
41
1
10
44.9897994122709
20
2.03242445720943
30
0
41
1
10
45.9474042561917
20
1.59455815777798
30
0
41
1
10
46.2656019079205
20
1.44395073482752
30
0
41
1
10
46.9049712787145
20
1.14331357890066
30
0
41
1
10
47.2259600801399
20
0.992270898036281
30
0
41
1
10
47.8675335627841
20
0.687566123355822
30
0
41
1
10
48.1877827417216
20
0.534126044720466
30
0
41
1
10
48.6672843987429
20
0.302198324979258
30
0
41
1
10
48.8269532582029
20
0.224553663183855
30
0
41
1
10
49.1458163491725
20
0.0682938582174017
30
0
41
1
10
49.3048982672959
20
-0.0105542059876882
30
0
41
1
10
49.7832008756131
20
-0.244884508483693
30
0
41
1
10
50.1028921553085
20
-0.399369450543247
30
0
41
1
10
50.7432595881981
20
-0.706241509851793
30
0
41
1
10
51.0639838166013
20
-0.859032955807578
30
0
41
1
10
51.7051548718264
20
-1.16299879541373
30
0
41
1
10
52.0244855748981
20
-1.31358379704918
30
0
41
1
10
52.6596912838864
20
-1.6137347224176
30
0
41
1
10
52.977260140126
20
-1.75972715040456
30
0
41
1
10
53.9297274579471
20
-2.18649817523979
30
0
41
1
10
54.5637143635737
20
-2.45760660102954
30
0
41
1
10
55.3528554434557
20
-2.78332912234021
30
0
41
1
10
55.5103062361477
20
-2.84816305890394
30
0
41
1
10
55.825708919316
20
-2.97498950157947
30
0
41
1
10
55.9836105541439
20
-3.03707969768405
30
0
41
1
10
56.457920585854
20
-3.21944755495048
30
0
41
1
10
56.7749522799816
20
-3.33581632769946
30
0
41
1
10
57.4096330330647
20
-3.55990353333908
30
0
41
1
10
57.7273686762217
20
-3.66747211375372
30
0
41
1
10
58.2044483095747
20
-3.82211117134764
30
0
41
1
10
58.3635501051455
20
-3.87254439634589
30
0
41
1
10
58.6816769986517
20
-3.9714314227227
30
0
41
1
10
58.840801827072
20
-4.01973400906419
30
0
41
1
10
59.319823395098
20
-4.15923591461879
30
0
41
1
10
59.6409071636746
20
-4.24572661657569
30
0
41
1
10
60.280096035041
20
-4.40556615296737
30
0
41
1
10
60.5987997871641
20
-4.47924384996964
30
0
41
1
10
61.0754956089758
20
-4.58045744592761
30
0
41
1
10
61.2341713561744
20
-4.61264036078293
30
0
41
1
10
61.5509397019271
20
-4.67397365759362
30
0
41
1
10
61.7089043428734
20
-4.70322057792839
30
0
41
1
10
62.1824507368363
20
-4.7858634393892
30
0
41
1
10
62.498516265821
20
-4.83359647325298
30
0
41
1
10
63.4474775856592
20
-4.9560477310381
30
0
41
1
10
64.0805056573765
20
-5.01071699409633
30
0
41
1
10
64.8701834069305
20
-5.04483321574918
30
0
41
1
10
65.0278544640484
20
-5.04993047643111
30
0
41
1
10
65.325688396208
20
-5.05608033812749
30
0
41
1
10
65.4656629775851
20
-5.05755919822587
30
0
41
1
10
65.6058639629961
20
-5.05765714411388
30
0
0
SPLINE
5
C4
100
AcDbEntity
8
1
62
256
6
ByLayer
370
18
48
1
60
0
100
AcDbSpline
70
4
71
3
72
102
73
98
40
0
40
0
40
0
40
0
40
0.0187656460969838
40
0.0187656460969838
40
0.0408436397922325
40
0.0408436397922325
40
0.0518826366398562
40
0.0518826366398562
40
0.0629216334874796
40
0.0629216334874796
40
0.084999627182727
40
0.084999627182727
40
0.129155614573222
40
0.129155614573222
40
0.151233608268469
40
0.151233608268469
40
0.173311601963716
40
0.173311601963716
40
0.195389595658963
40
0.195389595658963
40
0.206428592506588
40
0.206428592506588
40
0.217467589354212
40
0.217467589354212
40
0.23954558304946
40
0.23954558304946
40
0.261623576744707
40
0.261623576744707
40
0.283701570439954
40
0.283701570439954
40
0.305779564135201
40
0.305779564135201
40
0.327857557830449
40
0.327857557830449
40
0.338896554678072
40
0.338896554678072
40
0.349935551525696
40
0.349935551525696
40
0.394091538916189
40
0.394091538916189
40
0.416169532611436
40
0.416169532611436
40
0.427208529459059
40
0.427208529459059
40
0.438247526306682
40
0.438247526306682
40
0.482403513697172
40
0.482403513697172
40
0.504481507392418
40
0.504481507392418
40
0.526559501087663
40
0.526559501087663
40
0.548637494782909
40
0.548637494782909
40
0.559676491630532
40
0.559676491630532
40
0.570715488478154
40
0.570715488478154
40
0.614871475868642
40
0.614871475868642
40
0.636949469563886
40
0.636949469563886
40
0.647988466411508
40
0.647988466411508
40
0.659027463259129
40
0.659027463259129
40
0.68110545695437
40
0.68110545695437
40
0.703183450649611
40
0.703183450649611
40
0.725261444344852
40
0.725261444344852
40
0.747339438040093
40
0.747339438040093
40
0.769417431735334
40
0.769417431735334
40
0.780456428582955
40
0.780456428582955
40
0.791495425430575
40
0.791495425430575
40
0.835651412821057
40
0.835651412821057
40
0.857729406516298
40
0.857729406516298
40
0.879807400211539
40
0.879807400211539
40
0.92396338760202
40
0.92396338760202
40
0.93500238444964
40
0.93500238444964
40
0.946041381297259
40
0.946041381297259
40
0.968119374992497
40
0.968119374992497
40
0.990197368687735
40
0.990197368687735
40
1
40
1
40
1
40
1
41
1
10
87.7326270897727
20
2.68446566521604
30
0
41
1
10
88.0047838872641
20
2.79714516238857
30
0
41
1
10
88.2774028975502
20
2.90635059334227
30
0
41
1
10
88.8702697846828
20
3.13752015948404
30
0
41
1
10
89.1906396013295
20
3.25834489544218
30
0
41
1
10
89.670974509947
20
3.43336592824022
30
0
41
1
10
89.8310636447757
20
3.49071129244189
30
0
41
1
10
90.1504597601796
20
3.603357235533
30
0
41
1
10
90.3097195076052
20
3.65882169128926
30
0
41
1
10
90.7882805846923
20
3.81962463098884
30
0
41
1
10
91.1077763167591
20
3.92030105310448
30
0
41
1
10
92.0666580373507
20
4.20479180911619
30
0
41
1
10
92.7062022931408
20
4.37164652659158
30
0
41
1
10
93.6630337008938
20
4.58868996648968
30
0
41
1
10
93.9832118501042
20
4.65378089829116
30
0
41
1
10
94.6230578034463
20
4.76973748272707
30
0
41
1
10
94.9429379889098
20
4.82082002212221
30
0
41
1
10
95.5819946798488
20
4.90970158823902
30
0
41
1
10
95.9013387405985
20
4.94740734438554
30
0
41
1
10
96.3794953599324
20
4.99380674454122
30
0
41
1
10
96.5385441779778
20
5.00762807541065
30
0
41
1
10
96.8573393941225
20
5.03145402771273
30
0
41
1
10
97.0169929280087
20
5.04150875181898
30
0
41
1
10
97.4967227715437
20
5.06621976997451
30
0
41
1
10
97.8177256269073
20
5.07545353388574
30
0
41
1
10
98.4579538633224
20
5.07973308409149
30
0
41
1
10
98.7776234995599
20
5.0747763377222
30
0
41
1
10
99.4157951062571
20
5.05041980631523
30
0
41
1
10
99.7335513869981
20
5.03073934569531
30
0
41
1
10
100.371152906499
20
4.97743291130183
30
0
41
1
10
100.690855732598
20
4.94393375640291
30
0
41
1
10
101.33119081417
20
4.86325504089152
30
0
41
1
10
101.652157610331
20
4.81590798375936
30
0
41
1
10
102.131279828052
20
4.7348114368011
30
0
41
1
10
102.290682453442
20
4.70608915529496
30
0
41
1
10
102.608739941953
20
4.64511620566378
30
0
41
1
10
102.767222606319
20
4.6127028268395
30
0
41
1
10
103.559393231467
20
4.4431537326123
30
0
41
1
10
104.193645077135
20
4.28542938645992
30
0
41
1
10
105.142260701492
20
4.01382213644092
30
0
41
1
10
105.458174178458
20
3.91758538740598
30
0
41
1
10
105.930930814792
20
3.76349462005658
30
0
41
1
10
106.088235649341
20
3.71035245748629
30
0
41
1
10
106.403622520521
20
3.60242023892971
30
0
41
1
10
106.561537793325
20
3.54740343297439
30
0
41
1
10
107.352207629565
20
3.26719874437776
30
0
41
1
10
107.987602147328
20
3.02601278598544
30
0
41
1
10
108.942465320344
20
2.63338920382722
30
0
41
1
10
109.260831811278
20
2.49595601702629
30
0
41
1
10
109.900200176891
20
2.21777424228219
30
0
41
1
10
110.219523771652
20
2.07715731155213
30
0
41
1
10
110.856618911711
20
1.79127359798875
30
0
41
1
10
111.17433840234
20
1.64589805197772
30
0
41
1
10
111.649677206448
20
1.4241856129303
30
0
41
1
10
111.807904451873
20
1.34964812581529
30
0
41
1
10
112.12378213393
20
1.19901563509876
30
0
41
1
10
112.28124934465
20
1.12254202851915
30
0
41
1
10
113.069356339657
20
0.740821086247109
30
0
41
1
10
113.701883727425
20
0.43672698034635
30
0
41
1
10
114.650079277486
20
-0.024932334479189
30
0
41
1
10
114.966246622391
20
-0.179323625239789
30
0
41
1
10
115.439844582171
20
-0.413424243109176
30
0
41
1
10
115.597633559949
20
-0.491812274487756
30
0
41
1
10
115.914151464484
20
-0.646966748147548
30
0
41
1
10
116.07272704601
20
-0.724058457545311
30
0
41
1
10
116.549371545003
20
-0.953935183955224
30
0
41
1
10
116.868284351745
20
-1.10547612519048
30
0
41
1
10
117.507591702213
20
-1.40690981811105
30
0
41
1
10
117.828397259837
20
-1.55659823017285
30
0
41
1
10
118.465695576418
20
-1.85195043774118
30
0
41
1
10
118.782352789253
20
-1.99890689330238
30
0
41
1
10
119.416512068462
20
-2.28179045954101
30
0
41
1
10
119.733613899618
20
-2.41862316971688
30
0
41
1
10
120.366915193654
20
-2.68518836003773
30
0
41
1
10
120.68310526735
20
-2.81491807332978
30
0
41
1
10
121.156674999234
20
-3.00416307172941
30
0
41
1
10
121.314396139602
20
-3.06638039963559
30
0
41
1
10
121.629430093529
20
-3.18926766451062
30
0
41
1
10
121.786576510991
20
-3.25019722306123
30
0
41
1
10
122.573853769143
20
-3.54673514464247
30
0
41
1
10
123.207111513076
20
-3.76096087228996
30
0
41
1
10
124.158486856783
20
-4.05379182543777
30
0
41
1
10
124.476118618629
20
-4.14625833180759
30
0
41
1
10
125.11097224936
20
-4.32216921493153
30
0
41
1
10
125.429974458372
20
-4.40390042519252
30
0
41
1
10
126.390022156009
20
-4.62803138521292
30
0
41
1
10
127.027202335823
20
-4.75026869172157
30
0
41
1
10
127.818077402219
20
-4.87115262438061
30
0
41
1
10
127.975790235236
20
-4.89381145428533
30
0
41
1
10
128.291152552412
20
-4.93551020913364
30
0
41
1
10
128.448910186432
20
-4.95450373151738
30
0
41
1
10
128.922425794014
20
-5.00607333186642
30
0
41
1
10
129.238481800248
20
-5.03325620849424
30
0
41
1
10
129.870338073671
20
-5.07396935971073
30
0
41
1
10
130.186167162396
20
-5.08746185081563
30
0
41
1
10
130.642029774846
20
-5.0968610297723
30
0
41
1
10
130.782157073352
20
-5.09837479817566
30
0
41
1
10
130.922196743773
20
-5.09847980813112
30
0
0
SPLINE
5
C5
100
AcDbEntity
8
1
62
256
6
ByLayer
370
18
48
1
60
0
100
AcDbSpline
70
4
71
3
72
8
73
4
40
0
40
0
40
0
40
0
40
1
40
1
40
1
40
1
41
1
10
134.824186630336
20
1.21305593698054
30
0
41
1
10
134.881475697308
20
0.857450066610937
30
0
41
1
10
134.932365406796
20
0.501900026207522
30
0
41
1
10
134.976815982062
20
0.14640616279479
30
0
0
SPLINE
5
C6
100
AcDbEntity
8
1
62
256
6
ByLayer
370
18
48
1
60
0
100
AcDbSpline
70
4
71
3
72
8
73
4
40
0
40
0
40
0
40
0
40
1
40
1
40
1
40
1
41
1
10
134.824186630336
20
-1.21305593698054
30
0
41
1
10
134.881474768526
20
-0.857455831767794
30
0
41
1
10
134.93236468464
20
-0.501905801652384
30
0
41
1
10
134.976815982062
20
-0.146406162794676
30
0
0
SPLINE
5
C7
100
AcDbEntity
8
1
62
256
6
ByLayer
370
18
48
1
60
0
100
AcDbSpline
70
4
71
3
72
10
73
6
40
0
40
0
40
0
40
0
40
0.5
40
0.5
40
1
40
1
40
1
40
1
41
1
10
133.232450400974
20
1.25063135827796
30
0
41
1
10
133.498028604372
20
1.24263827318649
30
0
41
1
10
133.763565076137
20
1.23489522012753
30
0
41
1
10
134.294232489741
20
1.2218388169608
30
0
41
1
10
134.55918506462
20
1.2175941394795
30
0
41
1
10
134.824186630336
20
1.21305593698054
30
0
0
SPLINE
5
C8
100
AcDbEntity
8
1
62
256
6
ByLayer
370
18
48
1
60
0
100
AcDbSpline
70
4
71
3
72
10
73
6
40
0
40
0
40
0
40
0
40
0.5
40
0.5
40
1
40
1
40
1
40
1
41
1
10
134.976815982062
20
0.146406162794762
30
0
41
1
10
134.978696879885
20
0.131363666044479
30
0
41
1
10
134.981778895454
20
0.114562948332349
30
0
41
1
10
134.989659276331
20
0.0784449089958912
30
0
41
1
10
134.994493045125
20
0.0590930148061659
30
0
41
1
10
134.999962258511
20
0.0393056911386509
30
0
0
SPLINE
5
C9
100
AcDbEntity
8
1
62
256
6
ByLayer
370
18
48
1
60
0
100
AcDbSpline
70
4
71
3
72
14
73
10
40
0
40
0
40
0
40
0
40
0.121379341784771
40
0.121379341784771
40
0.341034506338578
40
0.341034506338578
40
0.560689670892386
40
0.560689670892386
40
1
40
1
40
1
40
1
41
1
10
7.35438155541792
20
5.0166488206323
30
0
41
1
10
7.35438155541792
20
5.01617098156032
30
0
41
1
10
7.35438155541794
20
5.01282867501067
30
0
41
1
10
7.35438155541794
20
4.99543257759964
30
0
41
1
10
7.35438155541794
20
4.9746989546174
30
0
41
1
10
7.35438155541794
20
4.9141552427582
30
0
41
1
10
7.35438155541794
20
4.87471266443973
30
0
41
1
10
7.35438155541794
20
4.72973364311235
30
0
41
1
10
7.35438155541794
20
4.59784812804509
30
0
41
1
10
7.35438155541792
20
4.4293428206708
30
0
0
SPLINE
5
CA
100
AcDbEntity
8
1
62
256
6
ByLayer
370
18
48
1
60
0
100
AcDbSpline
70
4
71
3
72
26
73
22
40
0
40
0
40
0
40
0
40
0.165289251969685
40
0.165289251969685
40
0.33057850393937
40
0.33057850393937
40
0.495867755909055
40
0.495867755909055
40
0.578512381893899
40
0.578512381893899
40
0.661157007878742
40
0.661157007878742
40
0.743801633863585
40
0.743801633863585
40
0.826446259848428
40
0.826446259848428
40
0.909090885833272
40
0.909090885833272
40
0.991735511818115
40
0.991735511818115
40
1
40
1
40
1
40
1
41
1
10
11.2446042538776
20
-4.74365698991764
30
0
41
1
10
11.8686100252197
20
-4.77366968548378
30
0
41
1
10
12.4891996247085
20
-4.77740655742764
30
0
41
1
10
13.7244828358848
20
-4.73594078687557
30
0
41
1
10
14.3390875198447
20
-4.68819388317033
30
0
41
1
10
15.5699634161057
20
-4.54710351943211
30
0
41
1
10
16.1852420567069
20
-4.45216021662603
30
0
41
1
10
17.1085512887274
20
-4.27711018987964
30
0
41
1
10
17.4162081467104
20
-4.21154004003211
30
0
41
1
10
18.033801562925
20
-4.07011706121159
30
0
41
1
10
18.3433169372449
20
-3.99395652019422
30
0
41
1
10
18.9636642604721
20
-3.83082586068346
30
0
41
1
10
19.2745637152718
20
-3.74393651423108
30
0
41
1
10
19.8979573367313
20
-3.55987153971685
30
0
41
1
10
20.2091272576108
20
-3.46297147937304
30
0
41
1
10
20.8290382799748
20
-3.2607984437638
30
0
41
1
10
21.1386579980353
20
-3.1560530860865
30
0
41
1
10
21.7567429446452
20
-2.93805528403965
30
0
41
1
10
22.0652288805933
20
-2.82514844498755
30
0
41
1
10
22.4041710964866
20
-2.69711322888924
30
0
41
1
10
22.4349803439021
20
-2.68543844228742
30
0
41
1
10
22.4657858270212
20
-2.67372846342286
30
0
0
SPLINE
5
CB
100
AcDbEntity
8
1
62
256
6
ByLayer
370
18
48
1
60
0
100
AcDbSpline
70
4
71
3
72
110
73
106
40
0
40
0
40
0
40
0
40
0.0133717959009462
40
0.0133717959009462
40
0.0241905614100123
40
0.0241905614100123
40
0.0350093269190787
40
0.0350093269190787
40
0.0782843889553448
40
0.0782843889553448
40
0.0891031544644112
40
0.0891031544644112
40
0.0999219199734775
40
0.0999219199734775
40
0.121559450991611
40
0.121559450991611
40
0.143196982009745
40
0.143196982009745
40
0.164834513027878
40
0.164834513027878
40
0.186472044046012
40
0.186472044046012
40
0.208109575064145
40
0.208109575064145
40
0.229747106082279
40
0.229747106082279
40
0.251384637100412
40
0.251384637100412
40
0.273022168118546
40
0.273022168118546
40
0.294659699136679
40
0.294659699136679
40
0.316297230154812
40
0.316297230154812
40
0.337934761172946
40
0.337934761172946
40
0.35957229219108
40
0.35957229219108
40
0.381209823209213
40
0.381209823209213
40
0.39202858871828
40
0.39202858871828
40
0.402847354227346
40
0.402847354227346
40
0.42448488524548
40
0.42448488524548
40
0.446122416263613
40
0.446122416263613
40
0.45694118177268
40
0.45694118177268
40
0.467759947281747
40
0.467759947281747
40
0.48939747829988
40
0.48939747829988
40
0.511035009318014
40
0.511035009318014
40
0.532672540336147
40
0.532672540336147
40
0.554310071354281
40
0.554310071354281
40
0.575947602372414
40
0.575947602372414
40
0.597585133390548
40
0.597585133390548
40
0.619222664408681
40
0.619222664408681
40
0.640860195426814
40
0.640860195426814
40
0.684135257463081
40
0.684135257463081
40
0.705772788481215
40
0.705772788481215
40
0.727410319499348
40
0.727410319499348
40
0.749047850517481
40
0.749047850517481
40
0.759866616026548
40
0.759866616026548
40
0.770685381535614
40
0.770685381535614
40
0.792322912553747
40
0.792322912553747
40
0.813960443571879
40
0.813960443571879
40
0.824779209080946
40
0.824779209080946
40
0.835597974590013
40
0.835597974590013
40
0.857235505608148
40
0.857235505608148
40
0.878873036626283
40
0.878873036626283
40
0.900510567644419
40
0.900510567644419
40
0.911329333153487
40
0.911329333153487
40
0.922148098662555
40
0.922148098662555
40
0.943785629680693
40
0.943785629680693
40
0.965423160698831
40
0.965423160698831
40
0.98706069171697
40
0.98706069171697
40
1
40
1
40
1
40
1
41
1
10
44.9792865456642
20
4.78915473888097
30
0
41
1
10
45.1690988044294
20
4.78909155206932
30
0
41
1
10
45.3588559345401
20
4.78673737807651
30
0
41
1
10
45.702064831552
20
4.7781690524468
30
0
41
1
10
45.8554347192896
20
4.77270363569386
30
0
41
1
10
46.1628566158972
20
4.75851257657843
30
0
41
1
10
46.3167126380054
20
4.7497835642468
30
0
41
1
10
47.0865217959884
20
4.6984523524543
30
0
41
1
10
47.7038549505236
20
4.63402832019389
30
0
41
1
10
48.4788906401707
20
4.52007520608672
30
0
41
1
10
48.6340460298811
20
4.49568064941877
30
0
41
1
10
48.944675295286
20
4.44387580361968
30
0
41
1
10
49.1002821189759
20
4.41642851286076
30
0
41
1
10
49.5669574801982
20
4.33046938059172
30
0
41
1
10
49.8773201797654
20
4.26758663399823
30
0
41
1
10
50.4964559786451
20
4.13034843087655
30
0
41
1
10
50.8053272665926
20
4.05635838439261
30
0
41
1
10
51.4219052817159
20
3.89852406689599
30
0
41
1
10
51.7295161493652
20
3.81430989410328
30
0
41
1
10
52.34367893006
20
3.6348780854633
30
0
41
1
10
52.6509077109388
20
3.54092572299265
30
0
41
1
10
53.2652623697769
20
3.34501726483137
30
0
41
1
10
53.572348268492
20
3.2422360943367
30
0
41
1
10
54.1867522131118
20
3.02807874687343
30
0
41
1
10
54.4940522198368
20
2.91684593939607
30
0
41
1
10
55.1086679995123
20
2.68658385808138
30
0
41
1
10
55.415996815706
20
2.56681955405111
30
0
41
1
10
56.0329713115919
20
2.32205540446174
30
0
41
1
10
56.3421322318296
20
2.19651362973917
30
0
41
1
10
56.9615816500495
20
1.93961573156361
30
0
41
1
10
57.2720119322319
20
1.80815002184417
30
0
41
1
10
57.8948792612829
20
1.53857443031464
30
0
41
1
10
58.2052265557249
20
1.40131893409466
30
0
41
1
10
58.8242529849528
20
1.12400828301085
30
0
41
1
10
59.1337328753529
20
0.985585894531937
30
0
41
1
10
59.751026750988
20
0.70578590103807
30
0
41
1
10
60.0591419520771
20
0.565024729606478
30
0
41
1
10
60.6746518512079
20
0.282461436688862
30
0
41
1
10
60.981959159174
20
0.140446801054793
30
0
41
1
10
61.4423776178934
20
-0.0731842403992289
30
0
41
1
10
61.5956612044613
20
-0.144727178759268
30
0
41
1
10
61.9026931642368
20
-0.286631243268516
30
0
41
1
10
62.05631874561
20
-0.357263795006531
30
0
41
1
10
62.5172398463672
20
-0.56884682467043
30
0
41
1
10
62.824566631253
20
-0.709541862164372
30
0
41
1
10
63.4398682195741
20
-0.988730318701812
30
0
41
1
10
63.7478933112291
20
-1.12714301044329
30
0
41
1
10
64.2102954616661
20
-1.33351558859496
30
0
41
1
10
64.3644927334225
20
-1.40208920436044
30
0
41
1
10
64.673049893897
20
-1.53872511192392
30
0
41
1
10
64.8273433065904
20
-1.60693227084647
30
0
41
1
10
65.2915935526137
20
-1.80826713819715
30
0
41
1
10
65.6021454476083
20
-1.93980866868088
30
0
41
1
10
66.2248319527645
20
-2.19880033849787
30
0
41
1
10
66.5361763827302
20
-2.32584151782183
30
0
41
1
10
67.1562287600851
20
-2.57257658636451
30
0
41
1
10
67.4652503701522
20
-2.69217837623145
30
0
41
1
10
68.081741813989
20
-2.92473118416339
30
0
41
1
10
68.3897983275709
20
-3.03708837485487
30
0
41
1
10
69.0053540738921
20
-3.25215243862351
30
0
41
1
10
69.3127599153975
20
-3.35480604240163
30
0
41
1
10
69.9272282190619
20
-3.55178717706974
30
0
41
1
10
70.2342657714888
20
-3.64635616165512
30
0
41
1
10
70.8479169354293
20
-3.82627110633339
30
0
41
1
10
71.1544724156348
20
-3.91105012528846
30
0
41
1
10
71.7692600400157
20
-4.06906313791342
30
0
41
1
10
72.0769975512188
20
-4.14332919436839
30
0
41
1
10
73.0013918991301
20
-4.3499140075194
30
0
41
1
10
73.6197577886483
20
-4.4641871734836
30
0
41
1
10
74.5506523078246
20
-4.60399254059084
30
0
41
1
10
74.8627173513555
20
-4.64347121849954
30
0
41
1
10
75.4834044867202
20
-4.7096353559337
30
0
41
1
10
75.7929362829967
20
-4.73654421531705
30
0
41
1
10
76.4107503902852
20
-4.77907812538155
30
0
41
1
10
76.7189125017288
20
-4.79352982262557
30
0
41
1
10
77.1801748341322
20
-4.80535216767925
30
0
41
1
10
77.3336846917342
20
-4.80765708333013
30
0
41
1
10
77.6408806940486
20
-4.8092479544994
30
0
41
1
10
77.7945852694209
20
-4.80862895780123
30
0
41
1
10
78.2554663275884
20
-4.80250546824402
30
0
41
1
10
78.5625730513527
20
-4.79187271015539
30
0
41
1
10
79.176743702891
20
-4.75735699278167
30
0
41
1
10
79.4838771888475
20
-4.73369383041862
30
0
41
1
10
79.9445221633496
20
-4.68995060814117
30
0
41
1
10
80.0980562887224
20
-4.6739221567307
30
0
41
1
10
80.4052045192162
20
-4.63834077273626
30
0
41
1
10
80.5587151610948
20
-4.61875360065696
30
0
41
1
10
81.0204010236798
20
-4.55572561824198
30
0
41
1
10
81.3289050774254
20
-4.50750875410924
30
0
41
1
10
81.946915613116
20
-4.4000930765722
30
0
41
1
10
82.2564887612803
20
-4.34070147319591
30
0
41
1
10
82.8774448035124
20
-4.2086866618838
30
0
41
1
10
83.1891921470929
20
-4.13644662712935
30
0
41
1
10
83.6545667164428
20
-4.02036869461352
30
0
41
1
10
83.8094232908064
20
-3.9803181434599
30
0
41
1
10
84.1191607043892
20
-3.89815850655248
30
0
41
1
10
84.2738836724892
20
-3.85582667521541
30
0
41
1
10
84.7375938779799
20
-3.72513833247225
30
0
41
1
10
85.0460968467087
20
-3.63312834843924
30
0
41
1
10
85.662178252015
20
-3.44046899214805
30
0
41
1
10
85.9697562433923
20
-3.33968799742223
30
0
41
1
10
86.5839622297235
20
-3.12843379927287
30
0
41
1
10
86.8904390602211
20
-3.0177860585195
30
0
41
1
10
87.3810761354097
20
-2.83690106585897
30
0
41
1
10
87.5647213692075
20
-2.76800606916103
30
0
41
1
10
87.7484133813342
20
-2.69782344128228
30
0
0
SPLINE
5
CC
100
AcDbEntity
8
1
62
256
6
ByLayer
370
18
48
1
60
0
100
AcDbSpline
70
4
71
3
72
50
73
46
40
0
40
0
40
0
40
0
40
0.050692901454752
40
0.050692901454752
40
0.0981582563820124
40
0.0981582563820124
40
0.145623611309272
40
0.145623611309272
40
0.193088966236532
40
0.193088966236532
40
0.240554321163792
40
0.240554321163792
40
0.264286998627422
40
0.264286998627422
40
0.288019676091052
40
0.288019676091052
40
0.335485031018315
40
0.335485031018315
40
0.382950385945578
40
0.382950385945578
40
0.430415740872841
40
0.430415740872841
40
0.477881095800105
40
0.477881095800105
40
0.525346450727368
40
0.525346450727368
40
0.572811805654631
40
0.572811805654631
40
0.620277160581895
40
0.620277160581895
40
0.667742515509158
40
0.667742515509158
40
0.715207870436421
40
0.715207870436421
40
0.762673225363684
40
0.762673225363684
40
0.810138580290947
40
0.810138580290947
40
0.857603935218211
40
0.857603935218211
40
0.905069290145474
40
0.905069290145474
40
0.952534645072737
40
0.952534645072737
40
1
40
1
40
1
40
1
41
1
10
110.269754622231
20
4.82889622983535
30
0
41
1
10
110.599050909226
20
4.82891489915514
30
0
41
1
10
110.927701098908
20
4.8217625889294
30
0
41
1
10
111.563008904236
20
4.79338068420918
30
0
41
1
10
111.869489077962
20
4.7732410637559
30
0
41
1
10
112.482602218534
20
4.72147742065835
30
0
41
1
10
112.789551809298
20
4.6897073028212
30
0
41
1
10
113.40337102549
20
4.61267732636782
30
0
41
1
10
113.710411933513
20
4.56765247197038
30
0
41
1
10
114.324848500736
20
4.46733510864919
30
0
41
1
10
114.632229919176
20
4.41125600025276
30
0
41
1
10
115.093781590267
20
4.31731221027985
30
0
41
1
10
115.247611236324
20
4.28430488881151
30
0
41
1
10
115.556119164843
20
4.21594175454331
30
0
41
1
10
115.710597277202
20
4.18041433878722
30
0
41
1
10
116.174494942981
20
4.07035065457407
30
0
41
1
10
116.484459825405
20
3.99155535926255
30
0
41
1
10
117.106487865078
20
3.82147276341885
30
0
41
1
10
117.417641249802
20
3.73108539424675
30
0
41
1
10
118.037024287994
20
3.5411201538148
30
0
41
1
10
118.345455672058
20
3.44082559861576
30
0
41
1
10
118.962326848837
20
3.23353825692405
30
0
41
1
10
119.270378054527
20
3.12581219506961
30
0
41
1
10
119.885670422353
20
2.90311219581542
30
0
41
1
10
120.19294930639
20
2.78857106301166
30
0
41
1
10
120.807007957281
20
2.55065641172104
30
0
41
1
10
121.113745662972
20
2.42764436095695
30
0
41
1
10
121.726903438079
20
2.1749056912025
30
0
41
1
10
122.033979786823
20
2.04637447291833
30
0
41
1
10
122.648793475832
20
1.78451889801184
30
0
41
1
10
122.956458879426
20
1.65103397633672
30
0
41
1
10
123.572603059752
20
1.3796379565508
30
0
41
1
10
123.88100125884
20
1.2418021644134
30
0
41
1
10
124.498879430491
20
0.960994000529041
30
0
41
1
10
124.80832862176
20
0.817907484521555
30
0
41
1
10
125.430070800668
20
0.531701451169567
30
0
41
1
10
125.741487919047
20
0.387776564392084
30
0
41
1
10
126.361262114393
20
0.100348642872689
30
0
41
1
10
126.670283797241
20
-0.0432158386662707
30
0
41
1
10
127.286794334929
20
-0.330015549734185
30
0
41
1
10
127.594156308077
20
-0.473572637669236
30
0
41
1
10
128.207817786264
20
-0.758992341397487
30
0
41
1
10
128.514919367041
20
-0.8990259287649
30
0
41
1
10
129.128224011683
20
-1.17737408570568
30
0
41
1
10
129.434615030604
20
-1.31543321324674
30
0
41
1
10
129.740957098842
20
-1.45139301408307
30
0
0
SPLINE
5
CD
100
AcDbEntity
8
1
62
256
6
ByLayer
370
18
48
1
60
0
100
AcDbSpline
70
4
71
3
72
18
73
14
40
0
40
0
40
0
40
0
40
0.250000000000003
40
0.250000000000003
40
0.375000000000005
40
0.375000000000005
40
0.500000000000006
40
0.500000000000006
40
0.750000000000003
40
0.750000000000003
40
0.875000000000002
40
0.875000000000002
40
1
40
1
40
1
40
1
41
1
10
133.182422061949
20
-4.83838589032396
30
0
41
1
10
133.078700844949
20
-4.82449084597451
30
0
41
1
10
132.982625160141
20
-4.78862396404656
30
0
41
1
10
132.851035445997
20
-4.69883253161279
30
0
41
1
10
132.809206283733
20
-4.6627056661398
30
0
41
1
10
132.731639262104
20
-4.57943210795855
30
0
41
1
10
132.695669710581
20
-4.53216850381966
30
0
41
1
10
132.596256781957
20
-4.37338954103998
30
0
41
1
10
132.541233747625
20
-4.24503676909492
30
0
41
1
10
132.477013639767
20
-4.01588584108478
30
0
41
1
10
132.458699230811
20
-3.93317845968016
30
0
41
1
10
132.429177815206
20
-3.75849947104561
30
0
41
1
10
132.417846161805
20
-3.66615874156932
30
0
41
1
10
132.409971217254
20
-3.56877644325138
30
0
0
SPLINE
5
CE
100
AcDbEntity
8
1
62
256
6
ByLayer
370
18
48
1
60
0
100
AcDbSpline
70
4
71
3
72
8
73
4
40
0
40
0
40
0
40
0
40
1
40
1
40
1
40
1
41
1
10
133.173740964876
20
5.09072657589854
30
0
41
1
10
132.965707103459
20
5.09672102617145
30
0
41
1
10
132.757537401237
20
5.09963243609431
30
0
41
1
10
132.549340996973
20
5.09947634145647
30
0
0
SPLINE
5
CF
100
AcDbEntity
8
1
62
256
6
ByLayer
370
18
48
1
60
0
100
AcDbSpline
70
4
71
3
72
60
73
56
40
0
40
0
40
0
40
0
40
0.0367367771632393
40
0.0367367771632393
40
0.0914863093714138
40
0.0914863093714138
40
0.146235841579588
40
0.146235841579588
40
0.173610607683676
40
0.173610607683676
40
0.200985373787765
40
0.200985373787765
40
0.255734905995941
40
0.255734905995941
40
0.28310967210003
40
0.28310967210003
40
0.310484438204119
40
0.310484438204119
40
0.3652339704123
40
0.3652339704123
40
0.39260873651639
40
0.39260873651639
40
0.41998350262048
40
0.41998350262048
40
0.47473303482866
40
0.47473303482866
40
0.502107800932749
40
0.502107800932749
40
0.529482567036838
40
0.529482567036838
40
0.584232099245017
40
0.584232099245017
40
0.611606865349105
40
0.611606865349105
40
0.638981631453193
40
0.638981631453193
40
0.693731163661372
40
0.693731163661372
40
0.721105929765462
40
0.721105929765462
40
0.748480695869551
40
0.748480695869551
40
0.80323022807773
40
0.80323022807773
40
0.830604994181819
40
0.830604994181819
40
0.857979760285908
40
0.857979760285908
40
0.912729292494086
40
0.912729292494086
40
0.940104058598173
40
0.940104058598173
40
0.967478824702262
40
0.967478824702262
40
1
40
1
40
1
40
1
41
1
10
103.09831501371
20
-4.84247584675194
30
0
41
1
10
102.659778226589
20
-4.90714576459521
30
0
41
1
10
102.221480593769
20
-4.95884300202138
30
0
41
1
10
101.128832265348
20
-5.05435166143826
30
0
41
1
10
100.472668123506
20
-5.08182218235936
30
0
41
1
10
99.1641348895612
20
-5.07593899386174
30
0
41
1
10
98.5112396610676
20
-5.04278028841102
30
0
41
1
10
97.5303136872914
20
-4.9485742087175
30
0
41
1
10
97.2031013176801
20
-4.90976185196462
30
0
41
1
10
96.5476907598621
20
-4.81745495512462
30
0
41
1
10
96.219953992643
20
-4.76402739110833
30
0
41
1
10
95.2384355441803
20
-4.58316006007504
30
0
41
1
10
94.5854708110126
20
-4.43478337095479
30
0
41
1
10
93.6044747206881
20
-4.17405262265044
30
0
41
1
10
93.2772364174987
20
-4.08077141228287
30
0
41
1
10
92.6217935358147
20
-3.88195334277515
30
0
41
1
10
92.2940024890743
20
-3.77656498730713
30
0
41
1
10
91.3123726387602
20
-3.4448354679389
30
0
41
1
10
90.6593367571788
20
-3.20224518193064
30
0
41
1
10
89.6783134426801
20
-2.81178633591466
30
0
41
1
10
89.3510446469831
20
-2.67723943426014
30
0
41
1
10
88.695546008894
20
-2.4000610380501
30
0
41
1
10
88.3677028635529
20
-2.25758844017346
30
0
41
1
10
87.3860335950569
20
-1.82171016021053
30
0
41
1
10
86.7328428438453
20
-1.51933485613472
30
0
41
1
10
85.751746862121
20
-1.05434875448137
30
0
41
1
10
85.4244981338958
20
-0.897446167211285
30
0
41
1
10
84.7689666685446
20
-0.581020338344985
30
0
41
1
10
84.4410274538708
20
-0.42166121614332
30
0
41
1
10
83.4591943551844
20
0.0566294887870242
30
0
41
1
10
82.8059569938903
20
0.376281474342051
30
0
41
1
10
81.8247626717143
20
0.850120976002557
30
0
41
1
10
81.497493527319
20
1.00716613332787
30
0
41
1
10
80.8419464958653
20
1.31822133449288
30
0
41
1
10
80.5139606004091
20
1.47207116391365
30
0
41
1
10
79.5319552131136
20
1.92527342394956
30
0
41
1
10
78.8786951924476
20
2.21715616126767
30
0
41
1
10
77.897454217338
20
2.63311188630911
30
0
41
1
10
77.5701371117933
20
2.76810212154462
30
0
41
1
10
76.9145493832785
20
3.02987362746319
30
0
41
1
10
76.5865263442369
20
3.15652593319723
30
0
41
1
10
75.6044404506923
20
3.52089715176055
30
0
41
1
10
74.9510947244166
20
3.74373147830488
30
0
41
1
10
73.9697720698696
20
4.04310229722662
30
0
41
1
10
73.6424323888742
20
4.13706528519415
30
0
41
1
10
72.9868099239994
20
4.31267892982117
30
0
41
1
10
72.6587270371552
20
4.39423671509306
30
0
41
1
10
71.6765132724455
20
4.61834164547091
30
0
41
1
10
71.0230874052168
20
4.74076807467279
30
0
41
1
10
70.0417052516152
20
4.88142780804156
30
0
41
1
10
69.7143743608113
20
4.92115582747886
30
0
41
1
10
69.0587188558847
20
4.98590357208857
30
0
41
1
10
68.7305512171083
20
5.01088311948794
30
0
41
1
10
68.0141113744271
20
5.04903961812639
30
0
41
1
10
67.6256139480172
20
5.05915283754899
30
0
41
1
10
67.2371400279893
20
5.05866749359683
30
0
0
SPLINE
5
D0
100
AcDbEntity
8
1
62
256
6
ByLayer
370
18
48
1
60
0
100
AcDbSpline
70
4
71
3
72
48
73
44
40
0
40
0
40
0
40
0
40
0.0286232558348751
40
0.0286232558348751
40
0.0933817054458846
40
0.0933817054458846
40
0.125760930251389
40
0.125760930251389
40
0.158140155056893
40
0.158140155056893
40
0.222898604667902
40
0.222898604667902
40
0.255277829473407
40
0.255277829473407
40
0.287657054278911
40
0.287657054278911
40
0.352415503889919
40
0.352415503889919
40
0.384794728695423
40
0.384794728695423
40
0.417173953500927
40
0.417173953500927
40
0.481932403111935
40
0.481932403111935
40
0.51431162791744
40
0.51431162791744
40
0.546690852722944
40
0.546690852722944
40
0.611449302333953
40
0.611449302333953
40
0.643828527139457
40
0.643828527139457
40
0.676207751944961
40
0.676207751944961
40
0.740966201555969
40
0.740966201555969
40
0.773345426361472
40
0.773345426361472
40
0.805724651166977
40
0.805724651166977
40
0.870483100777984
40
0.870483100777984
40
1
40
1
40
1
40
1
41
1
10
37.8344727453777
20
-4.79825937091803
30
0
41
1
10
37.5444452529531
20
-4.84114081310759
30
0
41
1
10
37.2541012814676
20
-4.87845166155611
30
0
41
1
10
36.3088213915179
20
-4.98124523546386
30
0
41
1
10
35.6547854740631
20
-5.02301486787738
30
0
41
1
10
34.6727204099319
20
-5.04070126306166
30
0
41
1
10
34.3451977585692
20
-5.03910350055969
30
0
41
1
10
33.6892230710745
20
-5.02085620302717
30
0
41
1
10
33.3606480409736
20
-5.00418200572324
30
0
41
1
10
32.3771930607311
20
-4.93195550302607
30
0
41
1
10
31.7231217377389
20
-4.85416936260128
30
0
41
1
10
30.7409643329277
20
-4.69494522922227
30
0
41
1
10
30.4134138689197
20
-4.63477791996763
30
0
41
1
10
29.7574246080345
20
-4.50061752431384
30
0
41
1
10
29.4288222560193
20
-4.42658663521257
30
0
41
1
10
28.4452319159509
20
-4.18554992497087
30
0
41
1
10
27.7911127704493
20
-3.99924615102009
30
0
41
1
10
26.8088467214726
20
-3.6857919773206
30
0
41
1
10
26.4812838008619
20
-3.57559077561504
30
0
41
1
10
25.8252738379559
20
-3.34455287533854
30
0
41
1
10
25.4966435959097
20
-3.2236569021191
30
0
41
1
10
24.5128999291052
20
-2.84804052420202
30
0
41
1
10
23.8587542136917
20
-2.57957803053867
30
0
41
1
10
22.8764535278249
20
-2.15622044209917
30
0
41
1
10
22.5488471657093
20
-2.0116487719468
30
0
41
1
10
21.8927492339635
20
-1.71659199674431
30
0
41
1
10
21.5640586681383
20
-1.56601921413557
30
0
41
1
10
20.5801924808391
20
-1.10899616192
30
0
41
1
10
19.9260522050743
20
-0.796296415183662
30
0
41
1
10
18.9437266664547
20
-0.322948594160152
30
0
41
1
10
18.6160969614538
20
-0.164455908766172
30
0
41
1
10
17.9599259795106
20
0.152838159717476
30
0
41
1
10
17.6311617376506
20
0.311727874674659
30
0
41
1
10
16.6470733709393
20
0.785258264317036
30
0
41
1
10
15.9928655380028
20
1.09781139688343
30
0
41
1
10
15.0104639336516
20
1.55405678812235
30
0
41
1
10
14.682824335435
20
1.70406354312189
30
0
41
1
10
14.026662067596
20
1.9988495790893
30
0
41
1
10
13.6978295699714
20
2.1437568514452
30
0
41
1
10
12.7148597191032
20
2.56670315665849
30
0
41
1
10
12.062620220796
20
2.8337430715774
30
0
41
1
10
10.1083557996826
20
3.57899139341816
30
0
41
1
10
8.80876078804224
20
4.00121904407342
30
0
41
1
10
7.49557593452823
20
4.32337559053533
30
0
0
SPLINE
5
D1
100
AcDbEntity
8
1
62
256
6
ByLayer
370
18
48
1
60
0
100
AcDbSpline
70
4
71
3
72
8
73
4
40
0
40
0
40
0
40
0
40
1
40
1
40
1
40
1
41
1
10
134.999962258511
20
0.0393056911387362
30
0
41
1
10
135.00001258047
20
0.0131019103103824
30
0
41
1
10
135.00001258047
20
-0.0131019103104961
30
0
41
1
10
134.999962258511
20
-0.0393056911388499
30
0
0
SPLINE
5
D2
100
AcDbEntity
8
1
62
256
6
ByLayer
370
18
48
1
60
0
100
AcDbSpline
70
4
71
3
72
39
73
35
40
0
40
0
40
0
40
0
40
0.125000000000015
40
0.125000000000015
40
0.187500000000022
40
0.187500000000022
40
0.25000000000003
40
0.25000000000003
40
0.375000000000045
40
0.375000000000045
40
0.437500000000048
40
0.437500000000048
40
0.500000000000051
40
0.500000000000051
40
0.625000000000056
40
0.625000000000056
40
0.750000000000062
40
0.750000000000062
40
0.812500000000065
40
0.828125000000065
40
0.828125000000065
40
0.835937500000062
40
0.835937500000062
40
0.84375000000006
40
0.84375000000006
40
0.851562500000057
40
0.851562500000057
40
0.859375000000055
40
0.859375000000055
40
0.867187500000052
40
0.867187500000052
40
0.87500000000005
40
0.87500000000005
40
1
40
1
40
1
40
1
41
1
10
129.740957098842
20
-1.45139301408332
30
0
41
1
10
129.957973386508
20
-1.49505775724546
30
0
41
1
10
130.174864803334
20
-1.52629844841582
30
0
41
1
10
130.499976976534
20
-1.5507778320069
30
0
41
1
10
130.607930038391
20
-1.55513066448753
30
0
41
1
10
130.821339100964
20
-1.55546925038911
30
0
41
1
10
130.92702939309
20
-1.55150585141658
30
0
41
1
10
131.240680066539
20
-1.52567944932403
30
0
41
1
10
131.444792012586
20
-1.48813533467955
30
0
41
1
10
131.742862164158
20
-1.39882341608552
30
0
41
1
10
131.8411291519
20
-1.36319476239092
30
0
41
1
10
132.030787670825
20
-1.28111391828654
30
0
41
1
10
132.122613614827
20
-1.23457023028527
30
0
41
1
10
132.388773903387
20
-1.07786572852271
30
0
41
1
10
132.55410228496
20
-0.950305584901571
30
0
41
1
10
132.856648727202
20
-0.647354152814017
30
0
41
1
10
132.989431966913
20
-0.476625051160397
30
0
41
1
10
133.164574315836
20
-0.195506646935627
30
0
41
1
10
133.232534730234
20
-0.0731513343232848
30
0
41
1
10
133.294662054562
20
0.0552779017797036
30
0
41
1
10
133.312956909474
20
0.0941641907280655
30
0
41
1
10
133.31891849179
20
0.107268633802988
30
0
41
1
10
133.331217155805
20
0.13308651715829
30
0
41
1
10
133.337202149497
20
0.146196943749146
30
0
41
1
10
133.343920613694
20
0.175505172978148
30
0
41
1
10
133.345124856128
20
0.191559232250711
30
0
41
1
10
133.343933876903
20
0.223797129702348
30
0
41
1
10
133.341567018805
20
0.240342419272906
30
0
41
1
10
133.33464069964
20
0.273137582412943
30
0
41
1
10
133.330333100919
20
0.289459581667245
30
0
41
1
10
133.322319988379
20
0.322160867626252
30
0
41
1
10
133.318377415944
20
0.338519179465862
30
0
41
1
10
133.250737380682
20
0.616536612892219
30
0
41
1
10
133.186113162247
20
0.878083201249041
30
0
41
1
10
133.120743428664
20
1.13953176945549
30
0
0
SPLINE
5
D3
100
AcDbEntity
8
1
62
256
6
ByLayer
370
18
48
1
60
0
100
AcDbSpline
70
4
71
3
72
14
73
10
40
0
40
0
40
0
40
0
40
0.25
40
0.25
40
0.5
40
0.5
40
0.75
40
0.75
40
1
40
1
40
1
40
1
41
1
10
133.253848809752
20
-4.83999051816997
30
0
41
1
10
133.256179734319
20
-4.83937265231461
30
0
41
1
10
133.257805049311
20
-4.84062762000102
30
0
41
1
10
133.25918247654
20
-4.84798841847709
30
0
41
1
10
133.258858041476
20
-4.85412140743543
30
0
41
1
10
133.255726103332
20
-4.87127209491226
30
0
41
1
10
133.252852772787
20
-4.88245947829441
30
0
41
1
10
133.245168932745
20
-4.9071086119651
30
0
41
1
10
133.240399436728
20
-4.92049500554881
30
0
41
1
10
133.235345929746
20
-4.93342028109163
30
0
0
SPLINE
5
D4
100
AcDbEntity
8
1
62
256
6
ByLayer
370
18
48
1
60
0
100
AcDbSpline
70
4
71
3
72
42
73
38
40
0
40
0
40
0
40
0
40
0.125000000000001
40
0.125000000000001
40
0.156250000000002
40
0.156250000000002
40
0.187500000000002
40
0.187500000000002
40
0.250000000000002
40
0.250000000000002
40
0.312500000000003
40
0.312500000000003
40
0.375000000000003
40
0.375000000000003
40
0.437500000000004
40
0.437500000000004
40
0.500000000000004
40
0.500000000000004
40
0.562500000000004
40
0.562500000000004
40
0.625000000000005
40
0.625000000000005
40
0.640625000000004
40
0.640625000000004
40
0.644531250000005
40
0.644531250000005
40
0.648437500000005
40
0.648437500000005
40
0.656250000000006
40
0.656250000000006
40
0.687500000000005
40
0.687500000000005
40
0.750000000000003
40
0.750000000000003
40
0.875000000000002
40
0.875000000000002
40
1
40
1
40
1
40
1
41
1
10
7.35438155543113
20
-1.75964871210141
30
0
41
1
10
7.23678695314385
20
-1.46035862961776
30
0
41
1
10
7.14236695673412
20
-1.14758301548335
30
0
41
1
10
7.06397782371718
20
-0.735631133933595
30
0
41
1
10
7.05028254064337
20
-0.651828249116704
30
0
41
1
10
7.02765897193927
20
-0.483841521329566
30
0
41
1
10
7.01871940560793
20
-0.399739207557673
30
0
41
1
10
6.99935985986878
20
-0.147097413064586
30
0
41
1
10
6.99636841519777
20
0.0217757496042736
30
0
41
1
10
7.01272948113822
20
0.360482182440762
30
0
41
1
10
7.03247713261817
20
0.531256825133454
30
0
41
1
10
7.09454644527671
20
0.860931047855786
30
0
41
1
10
7.13684330490645
20
1.02133997190327
30
0
41
1
10
7.24403550754556
20
1.33359960950221
30
0
41
1
10
7.30959498371058
20
1.48647321838652
30
0
41
1
10
7.45891366046709
20
1.77527687040239
30
0
41
1
10
7.54278806927613
20
1.91210173136534
30
0
41
1
10
7.7272954885471
20
2.17248386153494
30
0
41
1
10
7.82835629726213
20
2.29640645428052
30
0
41
1
10
8.04309911921916
20
2.52928946776453
30
0
41
1
10
8.15706876047634
20
2.63870277292307
30
0
41
1
10
8.30597502423475
20
2.76717296328007
30
0
41
1
10
8.3362071284902
20
2.79234068508444
30
0
41
1
10
8.37394238267825
20
2.82366872781813
30
0
41
1
10
8.3819517516599
20
2.8296173143311
30
0
41
1
10
8.4004145544225
20
2.83883737941431
30
0
41
1
10
8.41027273264206
20
2.84213701214037
30
0
41
1
10
8.44147545550851
20
2.84864772336897
30
0
41
1
10
8.46322837610569
20
2.84800583990827
30
0
41
1
10
8.57006109923719
20
2.85136360858999
30
0
41
1
10
8.65560743767344
20
2.8527747003682
30
0
41
1
10
8.91205262211031
20
2.85323985315975
30
0
41
1
10
9.08298296249768
20
2.84853685290352
30
0
41
1
10
9.59478425868213
20
2.81961390691416
30
0
41
1
10
9.93113907460946
20
2.78090396857033
30
0
41
1
10
10.5947258779462
20
2.66489717164643
30
0
41
1
10
10.9219132210601
20
2.58741845703949
30
0
41
1
10
11.2446042538777
20
2.48898686338285
30
0
0
SPLINE
5
D5
100
AcDbEntity
8
1
62
256
6
ByLayer
370
18
48
1
60
0
100
AcDbSpline
70
4
71
3
72
34
73
30
40
0
40
0
40
0
40
0
40
0.0184729841761225
40
0.0184729841761225
40
0.215613328128019
40
0.215613328128019
40
0.314183500103968
40
0.314183500103968
40
0.412753672079916
40
0.412753672079916
40
0.511323844055865
40
0.511323844055865
40
0.523645115552859
40
0.529805751301355
40
0.529805751301355
40
0.535966387049852
40
0.535966387049852
40
0.548287658546846
40
0.548287658546846
40
0.554448294295343
40
0.554448294295343
40
0.560608930043839
40
0.609894016031814
40
0.609894016031814
40
0.807034359983712
40
0.807034359983712
40
0.90560453195966
40
0.90560453195966
40
1
40
1
40
1
40
1
41
1
10
11.2446042538776
20
2.4889868634003
30
0
41
1
10
11.2446042538776
20
2.45778664421934
30
0
41
1
10
11.2446042538776
20
2.42636637675821
30
0
41
1
10
11.2446042538776
20
2.05710084837787
30
0
41
1
10
11.2446042538776
20
1.69466830305916
30
0
41
1
10
11.2446042538776
20
1.11568754109888
30
0
41
1
10
11.2446042538776
20
0.916400462402862
30
0
41
1
10
11.2446042538776
20
0.508083622082722
30
0
41
1
10
11.2446042538776
20
0.299164149865305
30
0
41
1
10
11.2446042538776
20
-0.128043738642816
30
0
41
1
10
11.2446042538776
20
-0.346441694817514
30
0
41
1
10
11.2446042538776
20
-0.597093293342937
30
0
41
1
10
11.2446042538776
20
-0.638970045218088
30
0
41
1
10
11.2446042538776
20
-0.680999007303626
30
0
41
1
10
11.2446042538776
20
-0.709052141734901
30
0
41
1
10
11.2446042538776
20
-0.722874657523732
30
0
41
1
10
11.2446042538776
20
-0.766039138567521
30
0
41
1
10
11.2446042538776
20
-0.797398051318964
30
0
41
1
10
11.2446042538776
20
-0.84815491885854
30
0
41
1
10
11.2446042538776
20
-0.86592806697098
30
0
41
1
10
11.2446042538776
20
-0.900950514409743
30
0
41
1
10
11.2446042538776
20
-1.05859972220205
30
0
41
1
10
11.2446042538776
20
-1.21668388177972
30
0
41
1
10
11.2446042538776
20
-1.92104821863364
30
0
41
1
10
11.2446042538776
20
-2.48887717326733
30
0
41
1
10
11.2446042538776
20
-3.34620248232824
30
0
41
1
10
11.2446042538776
20
-3.63352501011815
30
0
41
1
10
11.2446042538776
20
-4.19551006228465
30
0
41
1
10
11.2446042538776
20
-4.4698755203087
30
0
41
1
10
11.2446042538776
20
-4.74365698991772
30
0
0
SPLINE
5
D6
100
AcDbEntity
8
1
62
256
6
ByLayer
370
18
48
1
60
0
100
AcDbSpline
70
4
71
3
72
8
73
4
40
0
40
0
40
0
40
0
40
1
40
1
40
1
40
1
41
1
10
134.849861560344
20
-0.257133520170043
30
0
41
1
10
134.294048394212
20
-1.78421764355488
30
0
41
1
10
133.73823522808
20
-3.31130176693992
30
0
41
1
10
133.182422061948
20
-4.83838589032578
30
0
0
SPLINE
5
D7
100
AcDbEntity
8
1
62
256
6
ByLayer
370
18
48
1
60
0
100
AcDbSpline
70
4
71
3
72
26
73
22
40
0
40
0
40
0
40
0
40
0.177326512804807
40
0.177326512804807
40
0.26598976920721
40
0.26598976920721
40
0.310321397408412
40
0.310321397408412
40
0.354653025609613
40
0.354653025609613
40
0.531979538414421
40
0.531979538414421
40
0.620642794816824
40
0.620642794816824
40
0.709306051219228
40
0.709306051219228
40
0.797969307621631
40
0.797969307621631
40
0.886632564024035
40
0.886632564024035
40
1
40
1
40
1
40
1
41
1
10
7.35438155541792
20
-1.7504745507544
30
0
41
1
10
7.35438155541792
20
-2.08664571753027
30
0
41
1
10
7.35438155541789
20
-2.40356851372528
30
0
41
1
10
7.35438155541789
20
-2.85116823393864
30
0
41
1
10
7.35438155541789
20
-2.99569772223003
30
0
41
1
10
7.35438155541792
20
-3.20525963223881
30
0
41
1
10
7.35438155541792
20
-3.27384909434582
30
0
41
1
10
7.35438155541794
20
-3.40696563938241
30
0
41
1
10
7.35438155541794
20
-3.47170635868551
30
0
41
1
10
7.35438155541794
20
-3.78647331311143
30
0
41
1
10
7.35438155541792
20
-4.00999004530058
30
0
41
1
10
7.35438155541792
20
-4.30205537803638
30
0
41
1
10
7.35438155541794
20
-4.39202930608562
30
0
41
1
10
7.35438155541794
20
-4.55386838972916
30
0
41
1
10
7.35438155541789
20
-4.6262142110069
30
0
41
1
10
7.35438155541789
20
-4.75356911011968
30
0
41
1
10
7.35438155541792
20
-4.80803991284466
30
0
41
1
10
7.35438155541792
20
-4.89853012569679
30
0
41
1
10
7.35438155541794
20
-4.93469194624578
30
0
41
1
10
7.35438155541794
20
-4.99503013454887
30
0
41
1
10
7.35438155541789
20
-5.01333805722234
30
0
41
1
10
7.35438155541786
20
-5.01628455075462
30
0
0
SPLINE
5
D8
100
AcDbEntity
8
1
62
256
6
ByLayer
370
13
48
1
60
0
100
AcDbSpline
70
4
71
3
72
26
73
22
40
0
40
0
40
0
40
0
40
0.0916774404078373
40
0.0916774404078373
40
0.182509696367054
40
0.182509696367054
40
0.27334195232627
40
0.27334195232627
40
0.364174208285486
40
0.364174208285486
40
0.455006464244702
40
0.455006464244702
40
0.636670976163135
40
0.636670976163135
40
0.727503232122351
40
0.727503232122351
40
0.772919360101959
40
0.772919360101959
40
0.818335488081567
40
0.818335488081567
40
1
40
1
40
1
40
1
41
1
10
7.60477390785354
20
-4.76663673776844
30
0
41
1
10
7.60478137000968
20
-4.76559792030682
30
0
41
1
10
7.60478860624428
20
-4.75553172592751
30
0
41
1
10
7.60480301179032
20
-4.71755357444965
30
0
41
1
10
7.60481020562437
20
-4.68953404917352
30
0
41
1
10
7.60482471109839
20
-4.61595097800304
30
0
41
1
10
7.60483202648547
20
-4.57047983919261
30
0
41
1
10
7.60484702835126
20
-4.46216671961207
30
0
41
1
10
7.60485471348247
20
-4.39927670335666
30
0
41
1
10
7.60487040057163
20
-4.25766402217124
30
0
41
1
10
7.60487842619011
20
-4.1787824443407
30
0
41
1
10
7.60490309806551
20
-3.91764056772874
30
0
41
1
10
7.60491995923053
20
-3.71560923321596
30
0
41
1
10
7.6049449749041
20
-3.37310155350326
30
0
41
1
10
7.60495325946528
20
-3.25225894899614
30
0
41
1
10
7.60496538391408
20
-3.06068658331111
30
0
41
1
10
7.60496938011778
20
-2.99498688892712
30
0
41
1
10
7.60497713101677
20
-2.86166163816193
30
0
41
1
10
7.60498089693647
20
-2.79386793866493
30
0
41
1
10
7.60499906657481
20
-2.4493447527955
30
0
41
1
10
7.60501155304342
20
-2.1561357106273
30
0
41
1
10
7.60502009423021
20
-1.84511576261144
30
0
0
SPLINE
5
D9
100
AcDbEntity
8
1
62
256
6
ByLayer
370
18
48
1
60
0
100
AcDbSpline
70
4
71
3
72
18
73
14
40
0
40
0
40
0
40
0
40
0.0124819782001546
40
0.0124819782001546
40
0.125936100378465
40
0.125936100378465
40
0.579752589091699
40
0.579752589091699
40
0.806660833448314
40
0.806660833448314
40
0.920114955626622
40
0.920114955626622
40
1
40
1
40
1
40
1
41
1
10
18.2849113692335
20
-0.0040552921294079
30
0
41
1
10
18.3212472069151
20
-0.0210812775707154
30
0
41
1
10
18.3575778290493
20
-0.0381058594124113
30
0
41
1
10
18.7240500449462
20
-0.209837076152894
30
0
41
1
10
19.0531341458615
20
-0.364049800767049
30
0
41
1
10
20.6945378164238
20
-1.1298135277078
30
0
41
1
10
21.9955153064848
20
-1.72388033643313
30
0
41
1
10
23.9528261733442
20
-2.5373984362889
30
0
41
1
10
24.606209353626
20
-2.79575488350389
30
0
41
1
10
25.5910156457022
20
-3.15757122612544
30
0
41
1
10
25.9200237036036
20
-3.27396192055389
30
0
41
1
10
26.4824421423994
20
-3.46420533624197
30
0
41
1
10
26.7151844021021
20
-3.54037991640965
30
0
41
1
10
26.9474720576199
20
-3.61370462523712
30
0
0
SPLINE
5
DA
100
AcDbEntity
8
1
62
256
6
ByLayer
370
13
48
1
60
0
100
AcDbSpline
70
4
71
3
72
18
73
14
40
0
40
0
40
0
40
0
40
0.0302604202784912
40
0.0302604202784912
40
0.439347549938054
40
0.439347549938054
40
0.643891114767833
40
0.643891114767833
40
0.746162897182724
40
0.746162897182724
40
0.848434679597615
40
0.848434679597615
40
1
40
1
40
1
40
1
41
1
10
26.9474720577642
20
-3.61370462528265
30
0
41
1
10
27.0450833495713
20
-3.64451693656954
30
0
41
1
10
27.1426143661983
20
-3.67482601022078
30
0
41
1
10
28.5566141041064
20
-4.10712260422136
30
0
41
1
10
29.8585695482954
20
-4.41583503047167
30
0
41
1
10
31.8144519412787
20
-4.7153582119783
30
0
41
1
10
32.466860404153
20
-4.78803234957155
30
0
41
1
10
33.4493016406417
20
-4.85412811679089
30
0
41
1
10
33.7774258869776
20
-4.8689874269138
30
0
41
1
10
34.4354314549389
20
-4.8840820796091
30
0
41
1
10
34.7659645127579
20
-4.88431172300889
30
0
41
1
10
35.585229484959
20
-4.86649586775943
30
0
41
1
10
36.0721165016097
20
-4.83964619934628
30
0
41
1
10
36.5575491415564
20
-4.79723175146293
30
0
0
SPLINE
5
DB
100
AcDbEntity
8
1
62
256
6
ByLayer
370
18
48
1
60
0
100
AcDbSpline
70
4
71
3
72
18
73
14
40
0
40
0
40
0
40
0
40
0.0664255284564938
40
0.0664255284564938
40
0.279327792765676
40
0.279327792765676
40
0.705132321384037
40
0.705132321384037
40
0.811583453538624
40
0.811583453538624
40
0.918034585693211
40
0.918034585693211
40
1
40
1
40
1
40
1
41
1
10
83.6289104858666
20
-0.025053572128428
30
0
41
1
10
83.8334354252382
20
-0.121740647182776
30
0
41
1
10
84.037660559483
20
-0.218282717593894
30
0
41
1
10
84.8954728203943
20
-0.6230391014482
30
0
41
1
10
85.5468836427888
20
-0.928611579197622
30
0
41
1
10
87.5001299554486
20
-1.8233268493907
30
0
41
1
10
88.8008983147971
20
-2.39058694508
30
0
41
1
10
90.4458895765612
20
-3.02036934901275
30
0
41
1
10
90.7764702735774
20
-3.14262185185297
30
0
41
1
10
91.4348488416621
20
-3.37620886937725
30
0
41
1
10
91.7630974481588
20
-3.48770458338629
30
0
41
1
10
92.3427420553999
20
-3.67522732744726
30
0
41
1
10
92.5944645012916
20
-3.75350489210484
30
0
41
1
10
92.8458745761201
20
-3.82834061535974
30
0
0
SPLINE
5
DC
100
AcDbEntity
8
1
62
256
6
ByLayer
370
13
48
1
60
0
100
AcDbSpline
70
4
71
3
72
16
73
12
40
0
40
0
40
0
40
0
40
0.134751880481136
40
0.134751880481136
40
0.572963175682453
40
0.572963175682453
40
0.68251599948278
40
0.68251599948278
40
0.792068823283106
40
0.792068823283106
40
1
40
1
40
1
40
1
41
1
10
92.8458755353436
20
-3.82834090088599
30
0
41
1
10
93.2474939157736
20
-3.9478882124701
30
0
41
1
10
93.6483151602714
20
-4.05865232578483
30
0
41
1
10
95.3513539706026
20
-4.48979831095394
30
0
41
1
10
96.6504295188712
20
-4.72064046400891
30
0
41
1
10
98.290999112193
20
-4.86566434636515
30
0
41
1
10
98.6199182074741
20
-4.88750874027863
30
0
41
1
10
99.2799706317347
20
-4.91646845446175
30
0
41
1
10
99.6091080927124
20
-4.9235277866357
30
0
41
1
10
100.560159873059
20
-4.92255252639131
30
0
41
1
10
101.179900726537
20
-4.8953305772485
30
0
41
1
10
101.798431998713
20
-4.84250158440204
30
0
0
SPLINE
5
DD
100
AcDbEntity
8
1
62
256
6
ByLayer
370
18
48
1
60
0
100
AcDbSpline
70
4
71
3
72
12
73
8
40
0
40
0
40
0
40
0
40
0.249999999999989
40
0.249999999999989
40
0.499999999999978
40
0.499999999999978
40
1
40
1
40
1
40
1
41
1
10
7.49557593452818
20
4.32337559053536
30
0
41
1
10
7.47436926510369
20
4.32857810818965
30
0
41
1
10
7.45508353844309
20
4.33512790070597
30
0
41
1
10
7.42026178716236
20
4.35074992957445
30
0
41
1
10
7.40504361350614
20
4.35974407773472
30
0
41
1
10
7.36794355518069
20
4.38883311517102
30
0
41
1
10
7.35438155541789
20
4.41131359058107
30
0
41
1
10
7.35438155541792
20
4.43343112344147
30
0
0
SPLINE
5
DE
100
AcDbEntity
8
1
62
256
6
ByLayer
370
18
48
1
60
0
100
AcDbSpline
70
4
71
3
72
8
73
4
40
0
40
0
40
0
40
0
40
1
40
1
40
1
40
1
41
1
10
133.235345929746
20
-4.93342028109197
30
0
41
1
10
133.214826839736
20
-4.98590163576873
30
0
41
1
10
133.194290489562
20
-5.03833844707583
30
0
41
1
10
133.173740964876
20
-5.09072657589854
30
0
0
SPLINE
5
DF
100
AcDbEntity
8
1
62
256
6
ByLayer
370
18
48
1
60
0
100
AcDbSpline
70
4
71
3
72
8
73
4
40
0
40
0
40
0
40
0
40
1
40
1
40
1
40
1
41
1
10
7.35438155541792
20
-1.75964871209922
30
0
41
1
10
7.35438155541792
20
-1.75659075662426
30
0
41
1
10
7.35438155541792
20
-1.75353270279535
30
0
41
1
10
7.35438155541792
20
-1.75047455075443
30
0
0
SPLINE
5
E0
100
AcDbEntity
8
1
62
256
6
ByLayer
370
18
48
1
60
0
100
AcDbSpline
70
4
71
3
72
24
73
20
40
0
40
0
40
0
40
0
40
0.125000000000007
40
0.125000000000007
40
0.250000000000014
40
0.250000000000014
40
0.312500000000017
40
0.312500000000017
40
0.37500000000002
40
0.37500000000002
40
0.437500000000023
40
0.437500000000023
40
0.500000000000026
40
0.500000000000026
40
0.625000000000019
40
0.625000000000019
40
0.750000000000012
40
0.750000000000012
40
1
40
1
40
1
40
1
41
1
10
7.35438155541786
20
-1.75047455075418
30
0
41
1
10
7.35438155541786
20
-1.72244625603003
30
0
41
1
10
7.35536739685892
20
-1.69473563198844
30
0
41
1
10
7.36067396679681
20
-1.64041193306233
30
0
41
1
10
7.36490359723936
20
-1.6131561960139
30
0
41
1
10
7.37702617823527
20
-1.57770159783826
30
0
41
1
10
7.38223834824498
20
-1.56647544870825
30
0
41
1
10
7.39590452571369
20
-1.54998965832178
30
0
41
1
10
7.40454687940161
20
-1.54523160825022
30
0
41
1
10
7.42240210524025
20
-1.54528544714535
30
0
41
1
10
7.43138368403226
20
-1.54954578342119
30
0
41
1
10
7.44813118824482
20
-1.56177556944095
30
0
41
1
10
7.45597507435787
20
-1.56971152709693
30
0
41
1
10
7.47818356330302
20
-1.59562506400192
30
0
41
1
10
7.49166577717733
20
-1.6161401278479
30
0
41
1
10
7.51700006875006
20
-1.65865101408823
30
0
41
1
10
7.5288770342535
20
-1.68086971035413
30
0
41
1
10
7.56325803268601
20
-1.74907371597826
30
0
41
1
10
7.58452588247931
20
-1.79659086395543
30
0
41
1
10
7.60502009423521
20
-1.84511575983444
30
0
0
SPLINE
5
E1
100
AcDbEntity
8
1
62
256
6
ByLayer
370
18
48
1
60
0
100
AcDbSpline
70
4
71
3
72
16
73
12
40
0
40
0
40
0
40
0
40
0.0267334392634645
40
0.0267334392634645
40
0.159078343141454
40
0.159078343141454
40
0.291423247019444
40
0.291423247019444
40
0.820802862531383
40
0.820802862531383
40
1
40
1
40
1
40
1
41
1
10
100.157807695354
20
-4.8241375288583
30
0
41
1
10
100.091596497081
20
-4.82416567072767
30
0
41
1
10
100.025353145835
20
-4.82389944442369
30
0
41
1
10
99.6309651348908
20
-4.82055712034074
30
0
41
1
10
99.3018366307203
20
-4.81051752738929
30
0
41
1
10
98.6421825706121
20
-4.77596355958994
30
0
41
1
10
98.3134254515363
20
-4.75150184597055
30
0
41
1
10
96.6735209013444
20
-4.59425834238158
30
0
41
1
10
95.3744029678445
20
-4.35661224955979
30
0
41
1
10
93.6310275377996
20
-3.91033390341661
30
0
41
1
10
93.1897718317455
20
-3.78650839060117
30
0
41
1
10
92.7475158176459
20
-3.65249128487005
30
0
0
SPLINE
5
E2
100
AcDbEntity
8
1
62
256
6
ByLayer
370
13
48
1
60
0
100
AcDbSpline
70
4
71
3
72
22
73
18
40
0
40
0
40
0
40
0
40
0.0483593290369911
40
0.0483593290369911
40
0.1232208432308
40
0.1232208432308
40
0.19808235742461
40
0.19808235742461
40
0.497528414199843
40
0.497528414199843
40
0.647251442587459
40
0.647251442587459
40
0.722112956781264
40
0.722112956781264
40
0.79697447097507
40
0.79697447097507
40
1
40
1
40
1
40
1
41
1
10
92.7475158179249
20
-3.65249128495452
30
0
41
1
10
92.5365211103824
20
-3.58855343193036
30
0
41
1
10
92.3252987204766
20
-3.522295847528
30
0
41
1
10
91.7863414215751
20
-3.34777246522066
30
0
41
1
10
91.4581576986992
20
-3.23640880749485
30
0
41
1
10
90.7999589789705
20
-3.0035643200647
30
0
41
1
10
90.4695741963819
20
-2.88192807805555
30
0
41
1
10
88.8253939838186
20
-2.2562051279441
30
0
41
1
10
87.5246738846571
20
-1.69530372091401
30
0
41
1
10
85.5714846809665
20
-0.814266835887139
30
0
41
1
10
84.9200737452459
20
-0.51397456247426
30
0
41
1
10
83.9394508333256
20
-0.060103975995446
30
0
41
1
10
83.6119872012939
20
0.091751652954116
30
0
41
1
10
82.9553696509057
20
0.395453877273866
30
0
41
1
10
82.6258660162596
20
0.547464400054366
30
0
41
1
10
81.4014766518188
20
1.10831371969027
30
0
41
1
10
80.5145864976905
20
1.50649867877903
30
0
41
1
10
79.6303071240939
20
1.88307925111368
30
0
0
SPLINE
5
E3
100
AcDbEntity
8
1
62
256
6
ByLayer
370
18
48
1
60
0
100
AcDbSpline
70
4
71
3
72
14
73
10
40
0
40
0
40
0
40
0
40
0.107165329391458
40
0.107165329391458
40
0.250846270434354
40
0.250846270434354
40
0.538208152520149
40
0.538208152520149
40
1
40
1
40
1
40
1
41
1
10
34.8804285667637
20
-4.78332846600875
30
0
41
1
10
34.6342786728589
20
-4.78365259034123
30
0
41
1
10
34.3881699865285
20
-4.77995519973467
30
0
41
1
10
33.8139976021921
20
-4.76199808061796
30
0
41
1
10
33.4859720970624
20
-4.7445652235476
30
0
41
1
10
32.5037667173941
20
-4.67126835843155
30
0
41
1
10
31.851396371631
20
-4.59450373689569
30
0
41
1
10
30.1518410515598
20
-4.32541647115622
30
0
41
1
10
29.1053862032138
20
-4.09107792714485
30
0
41
1
10
28.0518309320477
20
-3.79636530837536
30
0
0
SPLINE
5
E4
100
AcDbEntity
8
1
62
256
6
ByLayer
370
13
48
1
60
0
100
AcDbSpline
70
4
71
3
72
24
73
20
40
0
40
0
40
0
40
0
40
0.0558232231305588
40
0.0558232231305588
40
0.126845954716318
40
0.126845954716318
40
0.197868686302077
40
0.197868686302077
40
0.339914149473596
40
0.339914149473596
40
0.624005075816631
40
0.624005075816631
40
0.695027807402389
40
0.695027807402389
40
0.766050538988147
40
0.766050538988147
40
0.908096002159661
40
0.908096002159661
40
1
40
1
40
1
40
1
41
1
10
28.0518309344361
20
-3.79636530904347
30
0
41
1
10
27.7941823485436
20
-3.72429287817434
30
0
41
1
10
27.5361091185568
20
-3.64860974763789
30
0
41
1
10
26.9484545082403
20
-3.4687010159947
30
0
41
1
10
26.6178533925101
20
-3.36210787527972
30
0
41
1
10
25.9581015965838
20
-3.1395259522381
30
0
41
1
10
25.6292226158178
20
-3.02366455862125
30
0
41
1
10
24.644731466581
20
-2.6639836677364
30
0
41
1
10
23.9914109786977
20
-2.40788621125066
30
0
41
1
10
22.0342685729396
20
-1.60316665279083
30
0
41
1
10
20.7332102744708
20
-1.01795550061485
30
0
41
1
10
19.0922640759433
20
-0.266558092232827
30
0
41
1
10
18.7633003717712
20
-0.115381304447823
30
0
41
1
10
18.1033110174131
20
0.187641687082902
30
0
41
1
10
17.7726734755035
20
0.339298456300071
30
0
41
1
10
16.7853665108499
20
0.78976849377861
30
0
41
1
10
16.1308274790021
20
1.0859392664947
30
0
41
1
10
15.0551677068711
20
1.5589481344565
30
0
41
1
10
14.6332059215411
20
1.74098514749082
30
0
41
1
10
14.2113186274719
20
1.91819589985249
30
0
0
SPLINE
5
E5
100
AcDbEntity
8
SK1
62
256
6
ByLayer
370
18
48
1
60
0
100
AcDbSpline
70
4
71
3
72
14
73
10
40
0
40
0
40
0
40
0
40
0.500000000000003
40
0.500000000000003
40
0.750000000000003
40
0.750000000000003
40
0.875000000000002
40
0.875000000000002
40
1
40
1
40
1
40
1
41
1
10
-43.7
20
0.969201730994172
30
0
41
1
10
-43.6789021434844
20
0.983379299663369
30
0
41
1
10
-43.6585587767127
20
1.00310385144812
30
0
41
1
10
-43.6303722414292
20
1.04342812114601
30
0
41
1
10
-43.6214260646625
20
1.05867787320741
30
0
41
1
10
-43.6102968606991
20
1.08496418078084
30
0
41
1
10
-43.6069058574072
20
1.09446530362868
30
0
41
1
10
-43.6017309986994
20
1.11500496137367
30
0
41
1
10
-43.6
20
1.12603312580373
30
0
41
1
10
-43.6
20
1.13673680215462
30
0
0
SPLINE
5
E6
100
AcDbEntity
8
SK1
62
256
6
ByLayer
370
18
48
1
60
0
100
AcDbSpline
70
4
71
3
72
14
73
10
40
0
40
0
40
0
40
0
40
0.125
40
0.125
40
0.25
40
0.25
40
0.5
40
0.5
40
1
40
1
40
1
40
1
41
1
10
-43.6
20
3.265430653724
30
0
41
1
10
-43.6
20
3.27448073628864
30
0
41
1
10
-43.6017220508865
20
3.2817155998153
30
0
41
1
10
-43.6068954324577
20
3.29271876438642
30
0
41
1
10
-43.610237321167
20
3.29652057242686
30
0
41
1
10
-43.6215324998379
20
3.305070903743
30
0
41
1
10
-43.6303471072619
20
3.30675352361007
30
0
41
1
10
-43.658490206513
20
3.30581754318931
30
0
41
1
10
-43.678793979422
20
3.29724964968389
30
0
41
1
10
-43.7
20
3.28299939574359
30
0
0
SPLINE
5
E7
100
AcDbEntity
8
SK1
62
256
6
ByLayer
370
18
48
1
60
0
100
AcDbSpline
70
4
71
3
72
10
73
6
40
0
40
0
40
0
40
0
40
0.5
40
0.5
40
1
40
1
40
1
40
1
41
1
10
-45
20
0.0811407578190426
30
0
41
1
10
-44.7879560509785
20
0.230047019445038
30
0
41
1
10
-44.5723064231521
20
0.378263757734999
30
0
41
1
10
-44.1380787819166
20
0.674137231523389
30
0
41
1
10
-43.9194191697905
20
0.821754034365227
30
0
41
1
10
-43.7
20
0.969201730994257
30
0
0
SPLINE
5
E8
100
AcDbEntity
8
SK1
62
256
6
ByLayer
370
18
48
1
60
0
100
AcDbSpline
70
4
71
3
72
10
73
6
40
0
40
0
40
0
40
0
40
0.5
40
0.5
40
1
40
1
40
1
40
1
41
1
10
-43.7
20
3.28299939574359
30
0
41
1
10
-43.9194066797618
20
3.13556009230081
30
0
41
1
10
-44.138045988393
20
2.98795700349996
30
0
41
1
10
-44.5722309834578
20
2.69211306300915
30
0
41
1
10
-44.7878870153227
20
2.5438931639622
30
0
41
1
10
-45
20
2.39493842256837
30
0
0
LINE
5
76
100
AcDbEntity
8
81
62
256
6
ByLayer
370
18
48
1
60
0
100
AcDbLine
10
135
20
0
30
0
11
140
21
0
31
0
39
0
210
0
220
0
230
1
0
LINE
5
77
100
AcDbEntity
8
1
62
256
6
ByLayer
370
18
48
1
60
0
100
AcDbLine
10
7.354382
20
5.02125
30
0
11
0.350219
21
5.016872
31
0
39
0
210
0
220
0
230
1
0
LINE
5
79
100
AcDbEntity
8
1
62
256
6
ByLayer
370
18
48
1
60
0
100
AcDbLine
10
67.250321
20
5.058685
30
0
11
65.608425
21
5.057659
31
0
39
0
210
0
220
0
230
1
0
LINE
5
7A
100
AcDbEntity
8
1
62
256
6
ByLayer
370
18
48
1
60
0
100
AcDbLine
10
99.901236
20
5.079092
30
0
11
98.264854
21
5.078069
31
0
39
0
210
0
220
0
230
1
0
LINE
5
7B
100
AcDbEntity
8
1
62
256
6
ByLayer
370
18
48
1
60
0
100
AcDbLine
10
132.551009
20
5.099498
30
0
11
130.91965
21
5.098478
31
0
39
0
210
0
220
0
230
1
0
LINE
5
7C
100
AcDbEntity
8
1
62
256
6
ByLayer
370
18
48
1
60
0
100
AcDbLine
10
130.91965
20
-5.098478
30
0
11
132.550952
21
-5.099498
31
0
39
0
210
0
220
0
230
1
0
LINE
5
7D
100
AcDbEntity
8
1
62
256
6
ByLayer
370
18
48
1
60
0
100
AcDbLine
10
98.264854
20
-5.078069
30
0
11
99.900921
21
-5.079092
31
0
39
0
210
0
220
0
230
1
0
LINE
5
7E
100
AcDbEntity
8
1
62
256
6
ByLayer
370
18
48
1
60
0
100
AcDbLine
10
65.608425
20
-5.057659
30
0
11
67.249935
21
-5.058685
31
0
39
0
210
0
220
0
230
1
0
LINE
5
7F
100
AcDbEntity
8
1
62
256
6
ByLayer
370
18
48
1
60
0
100
AcDbLine
10
0.350219
20
-5.016872
30
0
11
7.354382
21
-5.02125
31
0
39
0
210
0
220
0
230
1
0
LINE
5
80
100
AcDbEntity
8
1
62
256
6
ByLayer
370
18
48
1
60
0
100
AcDbLine
10
34.600764
20
5.038279
30
0
11
32.958257
21
5.037252
31
0
39
0
210
0
220
0
230
1
0
LINE
5
81
100
AcDbEntity
8
1
62
256
6
ByLayer
370
18
48
1
60
0
100
AcDbLine
10
32.958257
20
-5.037252
30
0
11
34.600375
21
-5.038279
31
0
39
0
210
0
220
0
230
1
0
LINE
5
82
100
AcDbEntity
8
SK1
62
256
6
ByLayer
370
18
48
1
60
0
100
AcDbLine
10
-43.556624
20
6
30
0
11
-45
21
3.5
31
0
39
0
210
0
220
0
230
1
0
LINE
5
84
100
AcDbEntity
8
SK1
62
256
6
ByLayer
370
18
48
1
60
0
100
AcDbLine
10
-45
20
-3.5
30
0
11
-43.556624
21
-6
31
0
39
0
210
0
220
0
230
1
0
LINE
5
85
100
AcDbEntity
8
SK1
62
256
6
ByLayer
370
18
48
1
60
0
100
AcDbLine
10
0
20
6
30
0
11
-43.556624
21
6
31
0
39
0
210
0
220
0
230
1
0
LINE
5
86
100
AcDbEntity
8
SK1
62
256
6
ByLayer
370
18
48
1
60
0
100
AcDbLine
10
-43.556624
20
-6
30
0
11
0
21
-6
31
0
39
0
210
0
220
0
230
1
0
LINE
5
87
100
AcDbEntity
8
SK4
62
256
6
ByLayer
370
18
48
0.05
60
0
100
AcDbLine
10
140
20
0
30
0
11
-50
21
0
31
0
39
0
210
0
220
0
230
1
0
LINE
5
89
100
AcDbEntity
8
4
62
256
6
ByLayer
370
18
48
0.05
60
0
100
AcDbLine
10
135
20
0
30
0
11
0
21
0
31
0
39
0
210
0
220
0
230
1
0
LINE
5
8B
100
AcDbEntity
8
80
62
256
6
ByLayer
370
18
48
1
60
0
100
AcDbLine
10
0
20
0
30
0
11
-5
21
0
31
0
39
0
210
0
220
0
230
1
0
LINE
5
8C
100
AcDbEntity
8
1
62
256
6
ByLayer
370
18
48
1
60
0
100
AcDbLine
10
133.928736
20
-1.507369
30
0
11
134.849862
21
-0.257134
31
0
39
0
210
0
220
0
230
1
0
LINE
5
8D
100
AcDbEntity
8
1
62
256
6
ByLayer
370
13
48
1
60
0
100
AcDbLine
10
133.23245
20
1.250631
30
0
11
134.976816
21
0.146406
31
0
39
0
210
0
220
0
230
1
0
LINE
5
8E
100
AcDbEntity
8
1
62
256
6
ByLayer
370
13
48
1
60
0
100
AcDbLine
10
0.350219
20
5.016872
30
0
11
0.350219
21
-5.016872
31
0
39
0
210
0
220
0
230
1
0
LINE
5
8F
100
AcDbEntity
8
1
62
256
6
ByLayer
370
13
48
1
60
0
100
AcDbLine
10
133.120743
20
1.139532
30
0
11
134.970523
21
-0.031423
31
0
39
0
210
0
220
0
230
1
0
LINE
5
90
100
AcDbEntity
8
1
62
256
6
ByLayer
370
18
48
1
60
0
100
AcDbLine
10
132.409971
20
-3.568776
30
0
11
133.193494
21
-2.505307
31
0
39
0
210
0
220
0
230
1
0
LINE
5
91
100
AcDbEntity
8
SK1
62
256
6
ByLayer
370
18
48
1
60
0
100
AcDbLine
10
-43.6
20
1.136737
30
0
11
-43.6
21
3.265431
31
0
39
0
210
0
220
0
230
1
0
LINE
5
92
100
AcDbEntity
8
SK1
62
256
6
ByLayer
370
18
48
1
60
0
100
AcDbLine
10
-45
20
2.394938
30
0
11
-45
21
0.081158
31
0
39
0
210
0
220
0
230
1
0
LINE
5
93
100
AcDbEntity
8
SK1
62
256
6
ByLayer
370
13
48
1
60
0
100
AcDbLine
10
-43.7
20
3.282999
30
0
11
-43.7
21
0.969204
31
0
39
0
210
0
220
0
230
1
0
LINE
5
94
100
AcDbEntity
8
SK1
62
256
6
ByLayer
370
18
48
1
60
0
100
AcDbLine
10
0
20
6
30
0
11
0
21
-6
31
0
39
0
210
0
220
0
230
1
0
LINE
5
95
100
AcDbEntity
8
SK1
62
256
6
ByLayer
370
18
48
1
60
0
100
AcDbLine
10
-45
20
0.081141
30
0
11
-45
21
-3.5
31
0
39
0
210
0
220
0
230
1
0
LINE
5
96
100
AcDbEntity
8
SK1
62
256
6
ByLayer
370
18
48
1
60
0
100
AcDbLine
10
-43.556624
20
6
30
0
11
-43.556624
21
-6
31
0
39
0
210
0
220
0
230
1
0
LINE
5
97
100
AcDbEntity
8
SK1
62
256
6
ByLayer
370
18
48
1
60
0
100
AcDbLine
10
-45
20
3.5
30
0
11
-45
21
2.394938
31
0
39
0
210
0
220
0
230
1
0
MTEXT
5
E9
100
AcDbEntity
8
SK6
62
256
6
ByLayer
370
13
48
1
60
0
100
AcDbMText
10
47.129169
20
37.482694
30
0
210
0
220
0
230
1
1
\W0.7431;460.1-1020-077A1-XM GC34
40
3.5
41
0
44
1.084337
50
0
71
8
72
5
7
iso_b_vert
0
DIMENSION
5
F6
100
AcDbEntity
8
SK2
62
256
6
ByLayer
370
13
48
1
60
0
100
AcDbDimension
2
DimnDraft3D1
10
133.4859
20
-15.313398
30
0
11
65.235959
21
-15.313398
31
0
70
32
71
5
72
1
41
1
210
0
220
0
230
1
3
Standard
100
AcDbAlignedDimension
13
0
23
-1.5875
33
0
14
133.4859
24
-6.6875
34
0
50
0
100
AcDbRotatedDimension
1001
ACAD
1000
DSTYLE
1002
{
1070
   279
1070
     0
1070
   172
1070
     1
1070
   173
1070
     1
1070
   340
1005
EA
1070
   271
1070
     2
1070
   272
1070
     2
1070
    77
1070
     1
1070
    73
1070
     0
1070
   171
1070
     3
1070
   274
1070
     4
1070
   177
1070
    35
1070
   176
1070
    35
1070
   178
1070
    35
1070
    48
1040
-0.005
1070
    41
1041
3.5
1070
   147
1041
1.75
1070
    42
1041
1.5875
1070
    44
1041
2.0
1070
   140
1041
3.5
1070
   343
1005
0
1070
   344
1005
0
1002
}
0
DIMENSION
5
100
100
AcDbEntity
8
SK2
62
256
6
ByLayer
370
13
48
1
60
0
100
AcDbDimension
2
DimnDraft3D2
10
135
20
-34.692985
30
0
11
44.8272
21
-34.692985
31
0
70
32
71
5
72
1
41
1
210
0
220
0
230
1
3
Standard
100
AcDbAlignedDimension
13
-45
23
-7.5875
33
0
14
135
24
-1.5875
34
0
50
0
100
AcDbRotatedDimension
1001
ACAD
1000
DSTYLE
1002
{
1070
   279
1070
     0
1070
   172
1070
     1
1070
   173
1070
     1
1070
   340
1005
EA
1070
   271
1070
     2
1070
   272
1070
     2
1070
    77
1070
     1
1070
    73
1070
     0
1070
   171
1070
     3
1070
   274
1070
     4
1070
   177
1070
    35
1070
   176
1070
    35
1070
   178
1070
    35
1070
    48
1040
-0.005
1070
    41
1041
3.5
1070
   147
1041
1.75
1070
    42
1041
1.5875
1070
    44
1041
2.0
1070
   140
1041
3.5
1070
   343
1005
0
1070
   344
1005
0
1002
}
0
DIMENSION
5
10A
100
AcDbEntity
8
SK2
62
256
6
ByLayer
370
13
48
1
60
0
100
AcDbDimension
2
DimnDraft3D3
10
135
20
16.709119
30
0
11
93.445
21
16.709119
31
0
70
32
71
5
72
1
41
1
210
0
220
0
230
1
3
Standard
100
AcDbAlignedDimension
13
51.89
23
6.6875
33
0
14
135
24
1.5875
34
0
50
0
100
AcDbRotatedDimension
1001
ACAD
1000
DSTYLE
1002
{
1070
   279
1070
     0
1070
   172
1070
     1
1070
   173
1070
     1
1070
   340
1005
EA
1070
   271
1070
     2
1070
   272
1070
     2
1070
    77
1070
     1
1070
    73
1070
     0
1070
   171
1070
     3
1070
   274
1070
     4
1070
   177
1070
    35
1070
   176
1070
    35
1070
   178
1070
    35
1070
    48
1040
-0.005
1070
    41
1041
3.5
1070
   147
1041
1.75
1070
    42
1041
1.5875
1070
    44
1041
2.0
1070
   140
1041
3.5
1070
   343
1005
0
1070
   344
1005
0
1002
}
0
DIMENSION
5
114
100
AcDbEntity
8
SK2
62
256
6
ByLayer
370
13
48
1
60
0
100
AcDbDimension
2
DimnDraft3D4
10
133.4859
20
-17.902503
30
0
11
144.981425
21
-17.902503
31
0
70
32
71
5
72
1
41
1
210
0
220
0
230
1
3
Standard
100
AcDbAlignedDimension
13
135
23
-1.5875
33
0
14
133.4859
24
-6.6875
34
0
50
0
100
AcDbRotatedDimension
1001
ACAD
1000
DSTYLE
1002
{
1070
   279
1070
     0
1070
   172
1070
     1
1070
   173
1070
     1
1070
   340
1005
EA
1070
   271
1070
     2
1070
   272
1070
     2
1070
    77
1070
     1
1070
    73
1070
     0
1070
   171
1070
     3
1070
   274
1070
     4
1070
   177
1070
    35
1070
   176
1070
    35
1070
   178
1070
    35
1070
    48
1040
-0.005
1070
    41
1041
3.5
1070
   147
1041
1.75
1070
    42
1041
1.5875
1070
    44
1041
2.0
1070
   140
1041
3.5
1070
   343
1005
0
1070
   344
1005
0
1002
}
0
DIMENSION
5
11E
100
AcDbEntity
8
SK2
62
256
6
ByLayer
370
13
48
1
60
0
100
AcDbDimension
2
DimnDraft3D5
10
133.4859
20
-24.343428
30
0
11
41.746576
21
-24.343428
31
0
70
32
71
5
72
1
41
1
210
0
220
0
230
1
3
Standard
100
AcDbAlignedDimension
13
-45
23
-7.5875
33
0
14
133.4859
24
-6.6875
34
0
50
0
100
AcDbRotatedDimension
1001
ACAD
1000
DSTYLE
1002
{
1070
   279
1070
     0
1070
   172
1070
     1
1070
   173
1070
     1
1070
   340
1005
EA
1070
   271
1070
     2
1070
   272
1070
     2
1070
    77
1070
     1
1070
    73
1070
     0
1070
   171
1070
     3
1070
   274
1070
     4
1070
   177
1070
    35
1070
   176
1070
    35
1070
   178
1070
    35
1070
    48
1040
-0.005
1070
    41
1041
3.5
1070
   147
1041
1.75
1070
    42
1041
1.5875
1070
    44
1041
2.0
1070
   140
1041
3.5
1070
   343
1005
0
1070
   344
1005
0
1002
}
0
DIMENSION
5
129
100
AcDbEntity
8
SK2
62
256
6
ByLayer
370
13
48
1
60
0
100
AcDbDimension
2
DimnDraft3D6
10
-55.625163
20
6
30
0
11
-56.250163
21
24.47418
31
0
70
33
71
5
72
1
41
1
210
0
220
0
230
1
3
Standard
100
AcDbAlignedDimension
13
-46.5875
23
-6
33
0
14
-46.5875
24
6
34
0
1001
ACAD
1000
DSTYLE
1002
{
1070
   279
1070
     0
1070
    74
1070
     0
1070
   173
1070
     1
1070
   340
1005
EA
1070
   271
1070
     3
1070
   272
1070
     2
1070
    77
1070
     1
1070
    73
1070
     0
1070
   171
1070
     3
1070
   274
1070
     4
1070
   177
1070
    35
1070
   176
1070
    35
1070
   178
1070
    35
1070
    48
1040
-0.005
1070
    41
1041
3.5
1070
   147
1041
1.75
1070
    42
1041
1.5875
1070
    44
1041
2.0
1070
   140
1041
3.5
1070
   343
1005
0
1070
   344
1005
0
1002
}
0
DIMENSION
5
134
100
AcDbEntity
8
2
62
256
6
ByLayer
370
13
48
1
60
0
100
AcDbDimension
2
DimnDraft3D7
10
149.083343
20
5.1
30
0
11
144.458343
21
22.167266
31
0
70
33
71
5
72
1
41
1
210
0
220
0
230
1
3
Standard
100
AcDbAlignedDimension
13
135.0734
23
-5.1
33
0
14
135.0734
24
5.1
34
0
1001
ACAD
1000
DSTYLE
1002
{
1070
   279
1070
     0
1070
    74
1070
     0
1070
   173
1070
     1
1070
   340
1005
EA
1070
   271
1070
     3
1070
   272
1070
     2
1070
    77
1070
     1
1070
    73
1070
     0
1070
   171
1070
     3
1070
   274
1070
     4
1070
   177
1070
    35
1070
   176
1070
    35
1070
   178
1070
    35
1070
    48
1040
-0.005
1070
    41
1041
3.5
1070
   147
1041
1.75
1070
    42
1041
1.5875
1070
    44
1041
2.0
1070
   140
1041
3.5
1070
   343
1005
0
1070
   344
1005
0
1002
}
0
ENDSEC
0
SECTION
2
OBJECTS
0
DICTIONARY
5
19f
330
0
100
AcDbDictionary
280
0
281
1
3
ACAD_GROUP
350
1a0
3
ACAD_MLINESTYLE
350
1a1
0
DICTIONARY
5
1a0
330
0
100
AcDbDictionary
280
0
281
1
0
DICTIONARY
5
1a1
330
0
100
AcDbDictionary
280
0
281
1
3
Standard
350
18
0
MLINESTYLE
5
18
330
1a1
100
AcDbMlineStyle
2
Standard
70
0
3

62
256
51
90
52
90
71
2
49
-0.5
62
256
6
ByLayer
49
0.5
62
256
6
ByLayer
0
RASTERVARIABLES
5
18d
330

100
AcDbRasterVariables
90
0
70
1
71
1
72
1
0
ENDSEC
0
EOF
