0
SECTION
2
HEADER
9
$ACADVER
1
AC1015
9
$DWGCODEPAGE
3
ANSI_1252
9
$HANDSEED
5
1a0
9
$ANGBASE
50
0
9
$ANGDIR
70
0
9
$ATTMODE
70
1
9
$AUNITS
70
0
9
$AUPREC
70
0
9
$CECOLOR
62
256
9
$CELTSCALE
40
1
9
$CELTYPE
6
ByLayer
9
$CELWEIGHT
370
18
9
$CLAYER
8
0
9
$CMLJUST
70
0
9
$CMLSCALE
40
1
9
$CMLSTYLE
2
Standard
9
$DIMSTYLE
2
Standard
9
$TEXTSIZE
40
0.2
9
$TEXTSTYLE
7
Standard
9
$LUNITS
70
2
9
$LUPREC
70
4
9
$EXTNAMES
290
1
9
$INSUNITS
70
4
9
$LTSCALE
40
1
9
$LWDISPLAY
290
1
9
$PDMODE
70
0
9
$PDSIZE
40
0
9
$PLINEGEN
70
0
0
ENDSEC
0
SECTION
2
CLASSES
0
CLASS
1
RASTERVARIABLES
2
AcDbRasterVariables
3
ISM
90
0
280
0
281
0
0
ENDSEC
0
SECTION
2
TABLES
0
TABLE
2
VPORT
5
196
100
AcDbSymbolTable
0
VPORT
5
1
100
AcDbSymbolTableRecord
100
AcDbViewportTableRecord
2
*Active
70
0
10
0
20
0
11
1
21
1
12
-1
22
1
13
0
23
0
14
0.5
24
0.5
15
10
25
10
16
0
26
0
36
1
17
0
27
0
37
0
0
ENDTAB
0
TABLE
2
LTYPE
5
197
100
AcDbSymbolTable
0
LTYPE
5
14
100
AcDbSymbolTableRecord
100
AcDbLinetypeTableRecord
70
0
2
ByBlock
3

72
65
73
0
40
0
0
LTYPE
5
15
100
AcDbSymbolTableRecord
100
AcDbLinetypeTableRecord
70
0
2
ByLayer
3

72
65
73
0
40
0
0
LTYPE
5
16
100
AcDbSymbolTableRecord
100
AcDbLinetypeTableRecord
70
0
2
CONTINUOUS
3
Solid line
72
65
73
0
40
0
0
LTYPE
5
6A
100
AcDbSymbolTableRecord
100
AcDbLinetypeTableRecord
70
0
2
CENTER
3
____ _ ____ _ ____ _ ____
72
65
73
4
40
47.5
49
22
74
0
49
-8.5
74
0
49
8.5
74
0
49
-8.5
74
0
0
LTYPE
5
6B
100
AcDbSymbolTableRecord
100
AcDbLinetypeTableRecord
70
0
2
DASHED
3
__ __ __ __ __ __ __ __ __
72
65
73
2
40
25.72
49
12.86
74
0
49
-12.86
74
0
0
ENDTAB
0
TABLE
2
LAYER
5
198
100
AcDbSymbolTable
0
LAYER
5
10
100
AcDbSymbolTableRecord
100
AcDbLayerTableRecord
2
0
70
0
62
7
6
CONTINUOUS
290
1
370
-3
390
0
0
LAYER
5
6D
100
AcDbSymbolTableRecord
100
AcDbLayerTableRecord
2
81
70
0
62
-3
6
CONTINUOUS
290
1
370
-3
390
0
0
LAYER
5
6F
100
AcDbSymbolTableRecord
100
AcDbLayerTableRecord
2
80
70
0
62
-6
6
CONTINUOUS
290
1
370
-3
390
0
0
LAYER
5
74
100
AcDbSymbolTableRecord
100
AcDbLayerTableRecord
2
2
70
0
62
7
6
CONTINUOUS
290
1
370
-3
390
0
0
LAYER
5
78
100
AcDbSymbolTableRecord
100
AcDbLayerTableRecord
2
1
70
0
62
4
6
CONTINUOUS
290
1
370
-3
390
0
0
LAYER
5
86
100
AcDbSymbolTableRecord
100
AcDbLayerTableRecord
2
4
70
0
62
-2
6
CENTER
290
1
370
-3
390
0
0
LAYER
5
182
100
AcDbSymbolTableRecord
100
AcDbLayerTableRecord
2
SK2
70
0
62
7
6
CONTINUOUS
290
1
370
-3
390
0
0
LAYER
5
183
100
AcDbSymbolTableRecord
100
AcDbLayerTableRecord
2
SK1
70
0
62
4
6
CONTINUOUS
290
1
370
-3
390
0
0
LAYER
5
184
100
AcDbSymbolTableRecord
100
AcDbLayerTableRecord
2
SK4
70
0
62
2
6
CENTER
290
1
370
-3
390
0
0
LAYER
5
185
100
AcDbSymbolTableRecord
100
AcDbLayerTableRecord
2
SK6
70
0
62
5
6
CONTINUOUS
290
1
370
-3
390
0
0
ENDTAB
0
TABLE
2
STYLE
5
199
100
AcDbSymbolTable
0
STYLE
5
11
100
AcDbSymbolTableRecord
100
AcDbTextStyleTableRecord
2
Standard
3
txt
70
0
71
0
40
0
41
1
42
0
50
0
0
STYLE
5
DE
100
AcDbSymbolTableRecord
100
AcDbTextStyleTableRecord
2
iso_b_vert
3
simplex.shx
70
0
71
0
40
0
41
1
42
0
50
0
0
STYLE
5
DF
100
AcDbSymbolTableRecord
100
AcDbTextStyleTableRecord
2
DWGDirectTextStyle
3
simplex
70
0
71
0
40
0
41
1
42
0
50
0
0
ENDTAB
0
TABLE
2
DIMSTYLE
5
19a
100
AcDbSymbolTable
100
AcDbDimStyleTable
0
DIMSTYLE
105
27
100
AcDbSymbolTableRecord
100
AcDbDimStyleTableRecord
2
Standard
70
0
3
<>
41
0.18
42
0.0625
44
0.18
140
0.18
147
0.09
73
0
74
0
77
1
271
2
275
0
278
52
280
0
340
11
0
ENDTAB
0
TABLE
2
VIEW
5
19b
100
AcDbSymbolTable
0
ENDTAB
0
TABLE
2
UCS
5
19c
100
AcDbSymbolTable
0
ENDTAB
0
TABLE
2
APPID
5
19d
100
AcDbSymbolTable
0
APPID
5
12
100
AcDbSymbolTableRecord
100
AcDbRegAppTableRecord
2
ACAD
70
0
0
ENDTAB
0
TABLE
2
BLOCK_RECORD
5
19e
100
AcDbSymbolTable
0
BLOCK_RECORD
5
1F
100
AcDbSymbolTableRecord
100
AcDbBlockTableRecord
2
*Model_Space
340
0
70
0
0
BLOCK_RECORD
5
1B
100
AcDbSymbolTableRecord
100
AcDbBlockTableRecord
2
*Paper_Space
340
0
70
0
0
BLOCK_RECORD
5
23
100
AcDbSymbolTableRecord
100
AcDbBlockTableRecord
2
*Paper_Space0
340
0
70
0
0
BLOCK_RECORD
5
E1
100
AcDbSymbolTableRecord
100
AcDbBlockTableRecord
2
DimnDraft3D1
340
0
70
0
0
BLOCK_RECORD
5
EB
100
AcDbSymbolTableRecord
100
AcDbBlockTableRecord
2
DimnDraft3D2
340
0
70
0
0
BLOCK_RECORD
5
F5
100
AcDbSymbolTableRecord
100
AcDbBlockTableRecord
2
DimnDraft3D3
340
0
70
0
0
BLOCK_RECORD
5
FF
100
AcDbSymbolTableRecord
100
AcDbBlockTableRecord
2
DimnDraft3D4
340
0
70
0
0
BLOCK_RECORD
5
109
100
AcDbSymbolTableRecord
100
AcDbBlockTableRecord
2
DimnDraft3D5
340
0
70
0
0
BLOCK_RECORD
5
113
100
AcDbSymbolTableRecord
100
AcDbBlockTableRecord
2
DimnDraft3D6
340
0
70
0
0
BLOCK_RECORD
5
11E
100
AcDbSymbolTableRecord
100
AcDbBlockTableRecord
2
DimnDraft3D7
340
0
70
0
0
ENDTAB
0
ENDSEC
0
SECTION
2
BLOCKS
0
BLOCK
5
20
100
AcDbEntity
8
0
100
AcDbBlockBegin
2
*Model_Space
70
0
10
0
20
0
30
0
3
*Model_Space
0
ENDBLK
5
21
100
AcDbEntity
8
0
100
AcDbBlockEnd
0
BLOCK
5
1C
100
AcDbEntity
8
0
100
AcDbBlockBegin
2
*Paper_Space
70
0
10
0
20
0
30
0
3
*Paper_Space
0
ENDBLK
5
1D
100
AcDbEntity
8
0
100
AcDbBlockEnd
0
BLOCK
5
24
100
AcDbEntity
8
0
100
AcDbBlockBegin
2
*Paper_Space0
70
0
10
0
20
0
30
0
3
*Paper_Space0
0
ENDBLK
5
25
100
AcDbEntity
8
0
100
AcDbBlockEnd
0
BLOCK
5
E8
100
AcDbEntity
8
0
100
AcDbBlockBegin
2
DimnDraft3D1
70
0
10
0
20
0
30
0
3
DimnDraft3D1
0
MTEXT
5
E2
100
AcDbEntity
8
SK2
62
256
6
ByLayer
370
13
48
1
60
0
100
AcDbMText
10
25.266975
20
-14.299398
30
0
210
0
220
0
230
1
1
\W0.6713;61,53
40
3.5
41
0
44
1.084337
50
0
71
7
72
5
7
iso_b_vert
0
LINE
5
E3
100
AcDbEntity
8
SK2
62
256
6
ByLayer
370
13
48
1
60
0
100
AcDbLine
10
0
20
-1.5875
30
0
11
0
21
-17.174398
31
0
39
0
210
0
220
0
230
1
0
LINE
5
E4
100
AcDbEntity
8
SK2
62
256
6
ByLayer
370
13
48
1
60
0
100
AcDbLine
10
61.5281
20
-6.5485
30
0
11
61.5281
21
-17.174398
31
0
39
0
210
0
220
0
230
1
0
LINE
5
E5
100
AcDbEntity
8
SK2
62
256
6
ByLayer
370
13
48
1
60
0
100
AcDbLine
10
0
20
-15.174398
30
0
11
61.5281
21
-15.174398
31
0
39
0
210
0
220
0
230
1
0
SOLID
5
E6
100
AcDbEntity
8
SK2
62
256
6
ByLayer
370
13
48
1
60
0
100
AcDbTrace
10
0
20
-15.174398
30
0
11
3.499998
21
-14.713615
31
0
12
3.500002
22
-15.635182
32
0
13
0
23
-15.174398
33
0
39
0
210
0
220
0
230
1
0
SOLID
5
E7
100
AcDbEntity
8
SK2
62
256
6
ByLayer
370
13
48
1
60
0
100
AcDbTrace
10
61.5281
20
-15.174398
30
0
11
58.028102
21
-15.635182
31
0
12
58.028098
22
-14.713615
32
0
13
61.5281
23
-15.174398
33
0
39
0
210
0
220
0
230
1
0
ENDBLK
5
E9
100
AcDbEntity
8
0
100
AcDbBlockEnd
0
BLOCK
5
F2
100
AcDbEntity
8
0
100
AcDbBlockBegin
2
DimnDraft3D2
70
0
10
0
20
0
30
0
3
DimnDraft3D2
0
MTEXT
5
EC
100
AcDbEntity
8
SK2
62
256
6
ByLayer
370
13
48
1
60
0
100
AcDbMText
10
6.050321
20
-32.817985
30
0
210
0
220
0
230
1
1
\W0.6930;103,00
40
3.5
41
0
44
1.084337
50
0
71
7
72
5
7
iso_b_vert
0
LINE
5
ED
100
AcDbEntity
8
SK2
62
256
6
ByLayer
370
13
48
1
60
0
100
AcDbLine
10
-40
20
-6.5875
30
0
11
-40
21
-35.692985
31
0
39
0
210
0
220
0
230
1
0
LINE
5
EE
100
AcDbEntity
8
SK2
62
256
6
ByLayer
370
13
48
1
60
0
100
AcDbLine
10
63
20
-1.5875
30
0
11
63
21
-35.692985
31
0
39
0
210
0
220
0
230
1
0
LINE
5
EF
100
AcDbEntity
8
SK2
62
256
6
ByLayer
370
13
48
1
60
0
100
AcDbLine
10
-40
20
-33.692985
30
0
11
63
21
-33.692985
31
0
39
0
210
0
220
0
230
1
0
SOLID
5
F0
100
AcDbEntity
8
SK2
62
256
6
ByLayer
370
13
48
1
60
0
100
AcDbTrace
10
-40
20
-33.692985
30
0
11
-36.500002
21
-33.232202
31
0
12
-36.499998
22
-34.153769
32
0
13
-40
23
-33.692985
33
0
39
0
210
0
220
0
230
1
0
SOLID
5
F1
100
AcDbEntity
8
SK2
62
256
6
ByLayer
370
13
48
1
60
0
100
AcDbTrace
10
63
20
-33.692985
30
0
11
59.500002
21
-34.153769
31
0
12
59.499998
22
-33.232202
32
0
13
63
23
-33.692985
33
0
39
0
210
0
220
0
230
1
0
ENDBLK
5
F3
100
AcDbEntity
8
0
100
AcDbBlockEnd
0
BLOCK
5
FC
100
AcDbEntity
8
0
100
AcDbBlockBegin
2
DimnDraft3D3
70
0
10
0
20
0
30
0
3
DimnDraft3D3
0
MTEXT
5
F6
100
AcDbEntity
8
SK2
62
256
6
ByLayer
370
13
48
1
60
0
100
AcDbMText
10
34.754605
20
17.445119
30
0
210
0
220
0
230
1
1
\W0.6977;48,10
40
3.5
41
0
44
1.084337
50
0
71
7
72
5
7
iso_b_vert
0
LINE
5
F7
100
AcDbEntity
8
SK2
62
256
6
ByLayer
370
13
48
1
60
0
100
AcDbLine
10
14.9
20
6.5485
30
0
11
14.9
21
18.570119
31
0
39
0
210
0
220
0
230
1
0
LINE
5
F8
100
AcDbEntity
8
SK2
62
256
6
ByLayer
370
13
48
1
60
0
100
AcDbLine
10
63
20
1.5875
30
0
11
63
21
18.570119
31
0
39
0
210
0
220
0
230
1
0
LINE
5
F9
100
AcDbEntity
8
SK2
62
256
6
ByLayer
370
13
48
1
60
0
100
AcDbLine
10
14.9
20
16.570119
30
0
11
63
21
16.570119
31
0
39
0
210
0
220
0
230
1
0
SOLID
5
FA
100
AcDbEntity
8
SK2
62
256
6
ByLayer
370
13
48
1
60
0
100
AcDbTrace
10
14.9
20
16.570119
30
0
11
18.399998
21
17.030903
31
0
12
18.400002
22
16.109335
32
0
13
14.9
23
16.570119
33
0
39
0
210
0
220
0
230
1
0
SOLID
5
FB
100
AcDbEntity
8
SK2
62
256
6
ByLayer
370
13
48
1
60
0
100
AcDbTrace
10
63
20
16.570119
30
0
11
59.500002
21
16.109335
31
0
12
59.499998
22
17.030903
32
0
13
63
23
16.570119
33
0
39
0
210
0
220
0
230
1
0
ENDBLK
5
FD
100
AcDbEntity
8
0
100
AcDbBlockEnd
0
BLOCK
5
106
100
AcDbEntity
8
0
100
AcDbBlockBegin
2
DimnDraft3D4
70
0
10
0
20
0
30
0
3
DimnDraft3D4
0
MTEXT
5
100
100
AcDbEntity
8
SK2
62
256
6
ByLayer
370
13
48
1
60
0
100
AcDbMText
10
70.093925
20
-16.888503
30
0
210
0
220
0
230
1
1
\W0.6709;1,47
40
3.5
41
0
44
1.084337
50
0
71
7
72
5
7
iso_b_vert
0
LINE
5
101
100
AcDbEntity
8
SK2
62
256
6
ByLayer
370
13
48
1
60
0
100
AcDbLine
10
63
20
-1.5875
30
0
11
63
21
-19.763503
31
0
39
0
210
0
220
0
230
1
0
LINE
5
102
100
AcDbEntity
8
SK2
62
256
6
ByLayer
370
13
48
1
60
0
100
AcDbLine
10
61.5281
20
-6.5485
30
0
11
61.5281
21
-19.763503
31
0
39
0
210
0
220
0
230
1
0
LINE
5
103
100
AcDbEntity
8
SK2
62
256
6
ByLayer
370
13
48
1
60
0
100
AcDbLine
10
52.7781
20
-17.763503
30
0
11
76.743925
21
-17.763503
31
0
39
0
210
0
220
0
230
1
0
SOLID
5
104
100
AcDbEntity
8
SK2
62
256
6
ByLayer
370
13
48
1
60
0
100
AcDbTrace
10
63
20
-17.763503
30
0
11
66.499998
21
-17.302719
31
0
12
66.500002
22
-18.224287
32
0
13
63
23
-17.763503
33
0
39
0
210
0
220
0
230
1
0
SOLID
5
105
100
AcDbEntity
8
SK2
62
256
6
ByLayer
370
13
48
1
60
0
100
AcDbTrace
10
61.5281
20
-17.763503
30
0
11
58.028102
21
-18.224287
31
0
12
58.028098
22
-17.302719
32
0
13
61.5281
23
-17.763503
33
0
39
0
210
0
220
0
230
1
0
ENDBLK
5
107
100
AcDbEntity
8
0
100
AcDbBlockEnd
0
BLOCK
5
110
100
AcDbEntity
8
0
100
AcDbBlockBegin
2
DimnDraft3D5
70
0
10
0
20
0
30
0
3
DimnDraft3D5
0
MTEXT
5
10A
100
AcDbEntity
8
SK2
62
256
6
ByLayer
370
13
48
1
60
0
100
AcDbMText
10
3.407197
20
-22.468428
30
0
210
0
220
0
230
1
1
\W0.6440;101,53
40
3.5
41
0
44
1.084337
50
0
71
7
72
5
7
iso_b_vert
0
LINE
5
10B
100
AcDbEntity
8
SK2
62
256
6
ByLayer
370
13
48
1
60
0
100
AcDbLine
10
-40
20
-6.5875
30
0
11
-40
21
-25.343428
31
0
39
0
210
0
220
0
230
1
0
LINE
5
10C
100
AcDbEntity
8
SK2
62
256
6
ByLayer
370
13
48
1
60
0
100
AcDbLine
10
61.5281
20
-6.5485
30
0
11
61.5281
21
-25.343428
31
0
39
0
210
0
220
0
230
1
0
LINE
5
10D
100
AcDbEntity
8
SK2
62
256
6
ByLayer
370
13
48
1
60
0
100
AcDbLine
10
-40
20
-23.343428
30
0
11
61.5281
21
-23.343428
31
0
39
0
210
0
220
0
230
1
0
SOLID
5
10E
100
AcDbEntity
8
SK2
62
256
6
ByLayer
370
13
48
1
60
0
100
AcDbTrace
10
-40
20
-23.343428
30
0
11
-36.500002
21
-22.882645
31
0
12
-36.499998
22
-23.804212
32
0
13
-40
23
-23.343428
33
0
39
0
210
0
220
0
230
1
0
SOLID
5
10F
100
AcDbEntity
8
SK2
62
256
6
ByLayer
370
13
48
1
60
0
100
AcDbTrace
10
61.5281
20
-23.343428
30
0
11
58.028102
21
-23.804212
31
0
12
58.028098
22
-22.882645
32
0
13
61.5281
23
-23.343428
33
0
39
0
210
0
220
0
230
1
0
ENDBLK
5
111
100
AcDbEntity
8
0
100
AcDbBlockEnd
0
BLOCK
5
11B
100
AcDbEntity
8
0
100
AcDbBlockBegin
2
DimnDraft3D6
70
0
10
0
20
0
30
0
3
DimnDraft3D6
0
MTEXT
5
114
100
AcDbEntity
8
SK2
62
256
6
ByLayer
370
13
48
1
60
0
100
AcDbMText
10
-50.375163
20
24.34918
30
0
210
0
220
0
230
1
1
\W0.6930;10,000
40
3.5
41
0
44
1.084337
50
90
71
7
72
5
7
iso_b_vert
0
MTEXT
5
115
100
AcDbEntity
8
SK2
62
256
6
ByLayer
370
13
48
1
60
0
100
AcDbMText
10
-50.375163
20
19.126524
30
0
210
0
220
0
230
1
1
%%c
40
3.5
41
0
44
1.084337
50
90
71
7
72
5
7
iso_b_vert
0
LINE
5
116
100
AcDbEntity
8
SK2
62
256
6
ByLayer
370
13
48
1
60
0
100
AcDbLine
10
-41.5875
20
-5
30
0
11
-50.625163
21
-5
31
0
39
0
210
0
220
0
230
1
0
LINE
5
117
100
AcDbEntity
8
SK2
62
256
6
ByLayer
370
13
48
1
60
0
100
AcDbLine
10
-41.5875
20
5
30
0
11
-50.625163
21
5
31
0
39
0
210
0
220
0
230
1
0
LINE
5
118
100
AcDbEntity
8
SK2
62
256
6
ByLayer
370
13
48
1
60
0
100
AcDbLine
10
-48.625163
20
-5
30
0
11
-48.625163
21
35.862338
31
0
39
0
210
0
220
0
230
1
0
SOLID
5
119
100
AcDbEntity
8
SK2
62
256
6
ByLayer
370
13
48
1
60
0
100
AcDbTrace
10
-48.625163
20
-5
30
0
11
-49.085946
21
-1.500002
31
0
12
-48.164379
22
-1.499998
32
0
13
-48.625163
23
-5
33
0
39
0
210
0
220
0
230
1
0
SOLID
5
11A
100
AcDbEntity
8
SK2
62
256
6
ByLayer
370
13
48
1
60
0
100
AcDbTrace
10
-48.625163
20
5
30
0
11
-48.164379
21
1.500002
31
0
12
-49.085946
22
1.499998
32
0
13
-48.625163
23
5
33
0
39
0
210
0
220
0
230
1
0
ENDBLK
5
11C
100
AcDbEntity
8
0
100
AcDbBlockEnd
0
BLOCK
5
126
100
AcDbEntity
8
0
100
AcDbBlockBegin
2
DimnDraft3D7
70
0
10
0
20
0
30
0
3
DimnDraft3D7
0
MTEXT
5
11F
100
AcDbEntity
8
2
62
256
6
ByLayer
370
13
48
1
60
0
100
AcDbMText
10
73.333343
20
22.903266
30
0
210
0
220
0
230
1
1
\W0.7317;9,922
40
3.5
41
0
44
1.084337
50
90
71
7
72
5
7
iso_b_vert
0
MTEXT
5
120
100
AcDbEntity
8
2
62
256
6
ByLayer
370
13
48
1
60
0
100
AcDbMText
10
73.333343
20
17.68061
30
0
210
0
220
0
230
1
1
%%c
40
3.5
41
0
44
1.084337
50
90
71
7
72
5
7
iso_b_vert
0
LINE
5
121
100
AcDbEntity
8
2
62
256
6
ByLayer
370
13
48
1
60
0
100
AcDbLine
10
63.1156
20
-4.961
30
0
11
77.083343
21
-4.961
31
0
39
0
210
0
220
0
230
1
0
LINE
5
122
100
AcDbEntity
8
2
62
256
6
ByLayer
370
13
48
1
60
0
100
AcDbLine
10
63.1156
20
4.961
30
0
11
77.083343
21
4.961
31
0
39
0
210
0
220
0
230
1
0
LINE
5
123
100
AcDbEntity
8
2
62
256
6
ByLayer
370
13
48
1
60
0
100
AcDbLine
10
75.083343
20
-4.961
30
0
11
75.083343
21
32.675635
31
0
39
0
210
0
220
0
230
1
0
SOLID
5
124
100
AcDbEntity
8
2
62
256
6
ByLayer
370
13
48
1
60
0
100
AcDbTrace
10
75.083343
20
-4.961
30
0
11
74.622559
21
-1.461002
31
0
12
75.544126
22
-1.460998
32
0
13
75.083343
23
-4.961
33
0
39
0
210
0
220
0
230
1
0
SOLID
5
125
100
AcDbEntity
8
2
62
256
6
ByLayer
370
13
48
1
60
0
100
AcDbTrace
10
75.083343
20
4.961
30
0
11
75.544126
21
1.461002
31
0
12
74.622559
22
1.460998
32
0
13
75.083343
23
4.961
33
0
39
0
210
0
220
0
230
1
0
ENDBLK
5
127
100
AcDbEntity
8
0
100
AcDbBlockEnd
0
ENDSEC
0
SECTION
2
ENTITIES
0
ARC
5
92
100
AcDbEntity
8
1
62
256
6
ByLayer
370
18
48
1
60
0
100
AcDbCircle
39
0
10
-0.026
20
4.948576
30
0
40
0.0259999999999962
210
0
220
0
230
-1
100
AcDbArc
50
269.96419
51
0
0
ARC
5
93
100
AcDbEntity
8
1
62
256
6
ByLayer
370
18
48
1
60
0
100
AcDbCircle
39
0
10
-0.026
20
-4.948576
30
0
40
0.0259999999999962
210
0
220
0
230
-1
100
AcDbArc
50
0
51
90.03581
0
ELLIPSE
5
94
100
AcDbEntity
8
1
62
256
6
ByLayer
370
13
48
1
60
0
100
AcDbEllipse
10
2.682397
20
-4.291051
30
0
11
-0.0245375024388098
21
0.0969428232210379
31
0
210
0
220
0
230
1
40
0.579746
41
0.499443139913465
42
1.81885129500973
0
ELLIPSE
5
95
100
AcDbEntity
8
1
62
256
6
ByLayer
370
13
48
1
60
0
100
AcDbEllipse
10
2.755283
20
-4.291877
30
0
11
0.0236331075546012
21
0.0971672590295345
31
0
210
0
220
0
230
1
40
0.433657
41
0.508394465452069
42
2.06370516313119
0
POINT
5
6C
100
AcDbEntity
8
81
62
256
6
ByLayer
370
18
48
1
60
0
100
AcDbPoint
10
63
20
0
30
0
39
0
210
0
220
0
230
1
50
360
0
POINT
5
6E
100
AcDbEntity
8
80
62
256
6
ByLayer
370
18
48
1
60
0
100
AcDbPoint
10
0
20
0
30
0
39
0
210
0
220
0
230
1
50
360
0
POINT
5
70
100
AcDbEntity
8
SK2
62
256
6
ByLayer
370
18
48
1
60
1
100
AcDbPoint
10
-40
20
-5
30
0
39
0
210
0
220
0
230
1
50
360
0
POINT
5
72
100
AcDbEntity
8
SK2
62
256
6
ByLayer
370
18
48
1
60
1
100
AcDbPoint
10
-40
20
5
30
0
39
0
210
0
220
0
230
1
50
360
0
POINT
5
73
100
AcDbEntity
8
2
62
256
6
ByLayer
370
18
48
1
60
1
100
AcDbPoint
10
61.5281
20
-4.961
30
0
39
0
210
0
220
0
230
1
50
360
0
POINT
5
75
100
AcDbEntity
8
2
62
256
6
ByLayer
370
18
48
1
60
1
100
AcDbPoint
10
61.5281
20
4.961
30
0
39
0
210
0
220
0
230
1
50
360
0
SPLINE
5
96
100
AcDbEntity
8
1
62
256
6
ByLayer
370
18
48
1
60
0
100
AcDbSpline
70
4
71
1
72
4
73
2
40
0
40
0
40
1
40
1
41
1
10
47.2812548182463
20
0.0004983191886083
30
0
41
1
10
47.2812453815048
20
0.0005024038987074
30
0
0
SPLINE
5
97
100
AcDbEntity
8
1
62
256
6
ByLayer
370
18
48
1
60
0
100
AcDbSpline
70
4
71
1
72
4
73
2
40
0
40
0
40
1
40
1
41
1
10
20.077137761365
20
0.0027365200550378
30
0
41
1
10
20.0771473208651
20
0.0027314793949245
30
0
0
SPLINE
5
98
100
AcDbEntity
8
1
62
256
6
ByLayer
370
18
48
1
60
0
100
AcDbSpline
70
4
71
3
72
31
73
27
40
0
40
0
40
0
40
0
40
0.0404488999993299
40
0.0585237013725335
40
0.0885511206768016
40
0.120165553356756
40
0.153676453713397
40
0.192944261752646
40
0.226318582657601
40
0.283351074011596
40
0.348458995705674
40
0.398954241192474
40
0.44841500808723
40
0.486329859431632
40
0.515373829648298
40
0.553515488174038
40
0.608534459894369
40
0.649359632992624
40
0.697309234656143
40
0.753059452158799
40
0.802974562807794
40
0.851096894845387
40
0.905902061136618
40
0.960340734780722
40
0.982713199630933
40
1
40
1
40
1
40
1
41
1
10
6.60590228496849
20
-4.6787808426017
30
0
41
1
10
6.76326969400523
20
-4.67732517045445
30
0
41
1
10
6.99942569133719
20
-4.67610739569363
30
0
41
1
10
7.38604433717273
20
-4.67441298991443
30
0
41
1
10
7.72203732490371
20
-4.6786310275819
30
0
41
1
10
8.12715283476413
20
-4.6799158660906
30
0
41
1
10
8.57730980905572
20
-4.68047362911139
30
0
41
1
10
9.0364085037678
20
-4.68055542729141
30
0
41
1
10
9.59738200675832
20
-4.68099332061618
30
0
41
1
10
10.2701363147499
20
-4.68184410123493
30
0
41
1
10
11.0169288754308
20
-4.68170604734667
30
0
41
1
10
11.7309965048536
20
-4.68271173693515
30
0
41
1
10
12.3274215520318
20
-4.68293301081889
30
0
41
1
10
12.8308329119006
20
-4.68293780414371
30
0
41
1
10
13.2838374583163
20
-4.68309766419551
30
0
41
1
10
13.8132361029025
20
-4.68410173881048
30
0
41
1
10
14.3915584076474
20
-4.68397090476734
30
0
41
1
10
15.0138439209005
20
-4.68561925822365
30
0
41
1
10
15.6389862961354
20
-4.68589543583317
30
0
41
1
10
16.303544303298
20
-4.68511956093403
30
0
41
1
10
16.9688163135643
20
-4.68800891054806
30
0
41
1
10
17.6300120925758
20
-4.68653297199072
30
0
41
1
10
18.3107749056375
20
-4.68664795671052
30
0
41
1
10
18.8801407685224
20
-4.68896344293586
30
0
41
1
10
19.2871702372139
20
-4.68812881725239
30
0
41
1
10
19.4586654692137
20
-4.68799410905254
30
0
41
1
10
19.5334101886791
20
-4.68792462751679
30
0
0
SPLINE
5
99
100
AcDbEntity
8
1
62
256
6
ByLayer
370
18
48
1
60
0
100
AcDbSpline
70
4
71
1
72
4
73
2
40
0
40
0
40
1
40
1
41
1
10
61.0765433967445
20
-4.71262028339305
30
0
41
1
10
61.3173400073254
20
-4.7120321464636
30
0
0
SPLINE
5
9A
100
AcDbEntity
8
1
62
256
6
ByLayer
370
18
48
1
60
0
100
AcDbSpline
70
4
71
3
72
31
73
27
40
0
40
0
40
0
40
0
40
0.0582415790020934
40
0.108863987040461
40
0.146623998192504
40
0.176444752513753
40
0.201445894574198
40
0.223576946319848
40
0.266917403360798
40
0.316542189637421
40
0.35433483962632
40
0.387891972234597
40
0.43113063423224
40
0.47053066430892
40
0.499243000686743
40
0.532499985970316
40
0.576701690187288
40
0.639162667930904
40
0.696474915586543
40
0.754024160666727
40
0.814618887106467
40
0.862418351192535
40
0.914267826061919
40
0.951215243300011
40
0.981976115417911
40
1
40
1
40
1
40
1
41
1
10
33.8834733168745
20
-4.69575012953959
30
0
41
1
10
34.1329025033035
20
-4.69590447075967
30
0
41
1
10
34.5987342751123
20
-4.69618898675367
30
0
41
1
10
35.2282639513231
20
-4.69674808679852
30
0
41
1
10
35.7307254736116
20
-4.69693060050272
30
0
41
1
10
36.1229450921098
20
-4.69591740452762
30
0
41
1
10
36.4550264441797
20
-4.69634257452341
30
0
41
1
10
36.8352350947032
20
-4.69795942560393
30
0
41
1
10
37.3300703341719
20
-4.69796922273912
30
0
41
1
10
37.8896381476084
20
-4.69778054652753
30
0
41
1
10
38.4078942004365
20
-4.69875607810025
30
0
41
1
10
38.8990044995627
20
-4.69909384215211
30
0
41
1
10
39.3949369938769
20
-4.69853875322963
30
0
41
1
10
39.8725254741806
20
-4.69820025499251
30
0
41
1
10
40.3052205763382
20
-4.69978721113293
30
0
41
1
10
40.7590426980172
20
-4.69992586292901
30
0
41
1
10
41.3586554850539
20
-4.6995397211962
30
0
41
1
10
42.0610115101809
20
-4.70132694633747
30
0
41
1
10
42.8206568216342
20
-4.70060218541136
30
0
41
1
10
43.5722789051888
20
-4.70118494501682
30
0
41
1
10
44.2831528592993
20
-4.70218353669566
30
0
41
1
10
44.9696183710152
20
-4.70141439037613
30
0
41
1
10
45.5547564080325
20
-4.70321878074952
30
0
41
1
10
46.0669664727132
20
-4.70363269966933
30
0
41
1
10
46.4340205035008
20
-4.70314017532286
30
0
41
1
10
46.6428451492447
20
-4.70292865546077
30
0
41
1
10
46.7199881753183
20
-4.70283918010423
30
0
0
SPLINE
5
9B
100
AcDbEntity
8
1
62
256
6
ByLayer
370
18
48
1
60
0
100
AcDbSpline
70
4
71
3
72
27
73
23
40
0
40
0
40
0
40
0
40
0.0219796023372836
40
0.0734428057590256
40
0.133861725332762
40
0.187392455742465
40
0.246152659643291
40
0.318515276590289
40
0.384878002336095
40
0.452542023240697
40
0.525881101284887
40
0.585115052412704
40
0.628181397099837
40
0.669714864447956
40
0.727499921931138
40
0.780924813331203
40
0.823011293169438
40
0.876159889234921
40
0.91868236409555
40
0.955100093151131
40
0.984880104355158
40
1
40
1
40
1
40
1
41
1
10
46.7195558990898
20
4.70284114214596
30
0
41
1
10
46.6438379497241
20
4.70293169877229
30
0
41
1
10
46.3908067997626
20
4.70317472405614
30
0
41
1
10
45.9294392120964
20
4.70386555328469
30
0
41
1
10
45.3590599140671
20
4.70239596958396
30
0
41
1
10
44.7635825114009
20
4.70149367904173
30
0
41
1
10
44.1269071377355
20
4.70231611263438
30
0
41
1
10
43.4459940657328
20
4.70077312805751
30
0
41
1
10
42.7343915874661
20
4.70079244930361
30
0
41
1
10
42.0193615561573
20
4.70119933554952
30
0
41
1
10
41.3291520766656
20
4.69949839646179
30
0
41
1
10
40.7230218511752
20
4.70000533697086
30
0
41
1
10
40.2290634536855
20
4.69958120606162
30
0
41
1
10
39.7383052743791
20
4.69789295522347
30
0
41
1
10
39.2125365166325
20
4.69895874069726
30
0
41
1
10
38.6848113510488
20
4.69905942269406
30
0
41
1
10
38.1720931119268
20
4.69826765173806
30
0
41
1
10
37.6970646125303
20
4.6978727287788
30
0
41
1
10
37.241933303762
20
4.69795041066567
30
0
41
1
10
36.8661797639749
20
4.69783596019954
30
0
41
1
10
36.590883790299
20
4.69691397385688
30
0
41
1
10
36.4363923272133
20
4.69647093195007
30
0
41
1
10
36.3842744034352
20
4.69635402994581
30
0
0
SPLINE
5
9C
100
AcDbEntity
8
1
62
256
6
ByLayer
370
18
48
1
60
0
100
AcDbSpline
70
4
71
3
72
26
73
22
40
0
40
0
40
0
40
0
40
0.0319972538824971
40
0.0778610611165184
40
0.136889348603423
40
0.188619922598353
40
0.225081272040797
40
0.269194762636204
40
0.321645659877955
40
0.369605977064562
40
0.413192158739799
40
0.468090771673289
40
0.537224419109769
40
0.603403669595907
40
0.655013421675869
40
0.699569871177284
40
0.747571626229228
40
0.802753583211696
40
0.874176192756247
40
0.949671572509833
40
1
40
1
40
1
40
1
41
1
10
19.4952797958748
20
4.68781605756041
30
0
41
1
10
19.3849160634813
20
4.68800780170025
30
0
41
1
10
19.1164186353005
20
4.68829389847335
30
0
41
1
10
18.6452812017018
20
4.68872148612331
30
0
41
1
10
18.1048670928582
20
4.68619734605883
30
0
41
1
10
17.5972423717637
20
4.68676110569993
30
0
41
1
10
17.1409677030205
20
4.68760110520887
30
0
41
1
10
16.6822228516465
20
4.68672411502089
30
0
41
1
10
16.1838236982424
20
4.68536113283773
30
0
41
1
10
15.6872424260766
20
4.68567698938375
30
0
41
1
10
15.1822159711012
20
4.68603851199265
30
0
41
1
10
14.6041754403652
20
4.68415829995445
30
0
41
1
10
13.9482168975996
20
4.68432043153607
30
0
41
1
10
13.303611597876
20
4.68342142527692
30
0
41
1
10
12.7437531471831
20
4.682851260143
30
0
41
1
10
12.2465774299095
20
4.68295372500481
30
0
41
1
10
11.7371012116795
20
4.68269409328477
30
0
41
1
10
11.1349458914322
20
4.68184768729804
30
0
41
1
10
10.438219807406
20
4.68177721004085
30
0
41
1
10
9.75717736106341
20
4.68129686161779
30
0
41
1
10
9.32480028090814
20
4.68062540329214
30
0
41
1
10
9.15113379825638
20
4.68047337783014
30
0
0
SPLINE
5
9D
100
AcDbEntity
8
1
62
256
6
ByLayer
370
18
48
1
60
0
100
AcDbSpline
70
4
71
3
72
8
73
4
40
0
40
0
40
0
40
0
40
1
40
1
40
1
40
1
41
1
10
62.9997931397559
20
-0.0396104602368439
30
0
41
1
10
63.0000688789753
20
-0.0132070408458844
30
0
41
1
10
63.0000690076621
20
0.0131947184326862
30
0
41
1
10
62.9997931397559
20
0.0396104602391745
30
0
0
SPLINE
5
9E
100
AcDbEntity
8
1
62
256
6
ByLayer
370
18
48
1
60
0
100
AcDbSpline
70
4
71
3
72
8
73
4
40
0
40
0
40
0
40
0
40
1
40
1
40
1
40
1
41
1
10
61.3021948823307
20
4.95503863420069
30
0
41
1
10
61.1616071448227
20
4.95886250909146
30
0
41
1
10
61.0210249313673
20
4.96071891130117
30
0
41
1
10
60.8804124266337
20
4.96061003339193
30
0
0
SPLINE
5
9F
100
AcDbEntity
8
1
62
256
6
ByLayer
370
18
48
1
60
0
100
AcDbSpline
70
4
71
3
72
46
73
42
40
0
40
0
40
0
40
0
40
0.025038835521043
40
0.025038835521043
40
0.0863512988768934
40
0.0863512988768934
40
0.147663762232744
40
0.147663762232744
40
0.178319993910668
40
0.178319993910668
40
0.208976225588593
40
0.208976225588593
40
0.270288688944443
40
0.270288688944443
40
0.300944920622369
40
0.300944920622369
40
0.331601152300295
40
0.331601152300295
40
0.36225738397822
40
0.36225738397822
40
0.392913615656146
40
0.392913615656146
40
0.51553854236785
40
0.51553854236785
40
0.576851005723702
40
0.576851005723702
40
0.638163469079554
40
0.638163469079554
40
0.760788395791257
40
0.760788395791257
40
0.791444627469184
40
0.791444627469184
40
0.82210085914711
40
0.82210085914711
40
0.883413322502962
40
0.883413322502962
40
0.944725785858814
40
0.944725785858814
40
0.97538201753674
40
0.97538201753674
40
1
40
1
40
1
40
1
41
1
10
36.3574422194869
20
-4.71099989081262
30
0
41
1
10
36.1068243071176
20
-4.75439232073467
30
0
41
1
10
35.8562875989412
20
-4.79186975077343
30
0
41
1
10
34.9936456312296
20
-4.89994540508178
30
0
41
1
10
34.3819226993457
20
-4.9403305190404
30
0
41
1
10
33.1534349748044
20
-4.94651237884304
30
0
41
1
10
32.5411050344101
20
-4.91222436985225
30
0
41
1
10
31.6224301785518
20
-4.80617572723193
30
0
41
1
10
31.3160476102109
20
-4.76173144303891
30
0
41
1
10
30.7021382327189
20
-4.65491072119104
30
0
41
1
10
30.3948778185166
20
-4.59254262277315
30
0
41
1
10
29.4753948264295
20
-4.38040372252456
30
0
41
1
10
28.8637707357165
20
-4.20534638784014
30
0
41
1
10
27.9433742802524
20
-3.8965889035679
30
0
41
1
10
27.6358978672554
20
-3.78587934035383
30
0
41
1
10
27.0226238585679
20
-3.55125644991932
30
0
41
1
10
26.7163965543207
20
-3.42721925090996
30
0
41
1
10
26.1038882863906
20
-3.16684629915883
30
0
41
1
10
25.7976207456829
20
-3.03049395946943
30
0
41
1
10
25.1842351471905
20
-2.7465406120582
30
0
41
1
10
24.8765211192773
20
-2.59858809256093
30
0
41
1
10
23.3453520123221
20
-1.83939868062757
30
0
41
1
10
22.1385911201274
20
-1.16839551723885
30
0
41
1
10
20.3165657898155
20
-0.134714086634432
30
0
41
1
10
19.7073654987714
20
0.214596355551123
30
0
41
1
10
18.4781911948587
20
0.910334115572113
30
0
41
1
10
17.8684080920096
20
1.2513116062014
30
0
41
1
10
16.0460273486238
20
2.23449344218645
30
0
41
1
10
14.8396536222384
20
2.83886010982707
30
0
41
1
10
13.3093921086568
20
3.47776022833361
30
0
41
1
10
13.0014030684305
20
3.5999608470685
30
0
41
1
10
12.3888022324548
20
3.82910214792503
30
0
41
1
10
12.083666427573
20
3.93626223203538
30
0
41
1
10
11.1703781564084
20
4.23444688204179
30
0
41
1
10
10.5644894397066
20
4.40232458846398
30
0
41
1
10
9.35198937057044
20
4.67134154957148
30
0
41
1
10
8.74548079258432
20
4.77255229104227
30
0
41
1
10
7.83030099868216
20
4.87084045809613
30
0
41
1
10
7.52432874590019
20
4.89468352063167
30
0
41
1
10
6.97029792687846
20
4.92107320085174
30
0
41
1
10
6.72378851682302
20
4.92682088134353
30
0
41
1
10
6.47784257973379
20
4.9266057957108
30
0
0
SPLINE
5
A0
100
AcDbEntity
8
1
62
256
6
ByLayer
370
18
48
1
60
0
100
AcDbSpline
70
4
71
3
72
8
73
4
40
0
40
0
40
0
40
0
40
1
40
1
40
1
40
1
41
1
10
62.8339822524747
20
1.1840695915279
30
0
41
1
10
62.8269416563161
20
1.15740848117463
30
0
41
1
10
62.8197490214571
20
1.13080549442381
30
0
41
1
10
62.8124088038123
20
1.10425958008489
30
0
0
SPLINE
5
A1
100
AcDbEntity
8
1
62
256
6
ByLayer
370
18
48
1
60
0
100
AcDbSpline
70
4
71
3
72
44
73
40
40
0
40
0
40
0
40
0
40
0.0952362299972009
40
0.0952362299972009
40
0.15612994396203
40
0.15612994396203
40
0.217023657926859
40
0.217023657926859
40
0.338811085856517
40
0.338811085856517
40
0.399704799821346
40
0.399704799821346
40
0.460598513786176
40
0.460598513786176
40
0.521492227751005
40
0.521492227751005
40
0.55193908473342
40
0.559550798979023
40
0.563356656101825
40
0.563356656101825
40
0.567162513224627
40
0.567162513224627
40
0.574774227470231
40
0.574774227470231
40
0.578580084593033
40
0.578580084593033
40
0.582385941715834
40
0.582385941715834
40
0.704173369645494
40
0.704173369645494
40
0.765067083610324
40
0.765067083610324
40
0.825960797575154
40
0.825960797575154
40
0.886854511539983
40
0.886854511539983
40
0.947748225504813
40
0.947748225504813
40
1
40
1
40
1
40
1
41
1
10
11.8342649408653
20
3.50710708637445
30
0
41
1
10
11.8342649408653
20
3.34348658725176
30
0
41
1
10
11.8342649408653
20
3.16675192871119
30
0
41
1
10
11.8342649408653
20
2.85658224613621
30
0
41
1
10
11.8342649408653
20
2.73048444451081
30
0
41
1
10
11.8342649408653
20
2.46804149282622
30
0
41
1
10
11.8342649408653
20
2.33280587170364
30
0
41
1
10
11.8342649408653
20
1.91936745355989
30
0
41
1
10
11.8342649408653
20
1.63196300651939
30
0
41
1
10
11.8342649408653
20
1.18444301483547
30
0
41
1
10
11.8342649408653
20
1.03251889424516
30
0
41
1
10
11.8342649408653
20
0.723214051704929
30
0
41
1
10
11.8342649408653
20
0.565439571957739
30
0
41
1
10
11.8342649408653
20
0.246405599142037
30
0
41
1
10
11.8342649408653
20
0.085413583369359
30
0
41
1
10
11.8342649408653
20
-0.158244579604513
30
0
41
1
10
11.8342649408653
20
-0.260260474858626
30
0
41
1
10
11.8342649408653
20
-0.372926049370818
30
0
41
1
10
11.8342649408653
20
-0.403690814805486
30
0
41
1
10
11.8342649408653
20
-0.424208959893463
30
0
41
1
10
11.8342649408652
20
-0.4344718480138
30
0
41
1
10
11.8342649408652
20
-0.465253521426916
30
0
41
1
10
11.8342649408653
20
-0.486297659046045
30
0
41
1
10
11.8342649408653
20
-0.514531037659538
30
0
41
1
10
11.8342649408653
20
-0.523515658891512
30
0
41
1
10
11.8342649408653
20
-0.54176690718495
30
0
41
1
10
11.8342649408653
20
-0.550880498971367
30
0
41
1
10
11.8342649408653
20
-0.851231351309593
30
0
41
1
10
11.8342649408653
20
-1.13018878873609
30
0
41
1
10
11.8342649408653
20
-1.52358665622424
30
0
41
1
10
11.8342649408653
20
-1.65094026129074
30
0
41
1
10
11.8342649408653
20
-1.89459776353436
30
0
41
1
10
11.8342649408653
20
-2.0112258944898
30
0
41
1
10
11.8342649408653
20
-2.23384469995955
30
0
41
1
10
11.8342649408653
20
-2.33983694815191
30
0
41
1
10
11.8342649408653
20
-2.54067653964714
30
0
41
1
10
11.8342649408653
20
-2.63584391688048
30
0
41
1
10
11.8342649408653
20
-2.80015561034205
30
0
41
1
10
11.8342649408653
20
-2.87074808850971
30
0
41
1
10
11.8342649408653
20
-2.93592880795319
30
0
0
SPLINE
5
A2
100
AcDbEntity
8
1
62
256
6
ByLayer
370
18
48
1
60
0
100
AcDbSpline
70
4
71
3
72
32
73
28
40
0
40
0
40
0
40
0
40
0.0624999999999998
40
0.0624999999999998
40
0.093749999999999
40
0.093749999999999
40
0.124999999999998
40
0.124999999999998
40
0.187499999999998
40
0.187499999999998
40
0.249999999999998
40
0.249999999999998
40
0.374999999999996
40
0.374999999999996
40
0.437499999999996
40
0.437499999999996
40
0.499999999999995
40
0.499999999999995
40
0.624999999999997
40
0.624999999999997
40
0.749999999999998
40
0.749999999999998
40
0.874999999999999
40
0.874999999999999
40
0.937499999999999
40
0.937499999999999
40
1
40
1
40
1
40
1
41
1
10
2.75644824984983
20
2.8235171810658
30
0
41
1
10
2.88089918426405
20
2.66493200745174
30
0
41
1
10
3.02584330834628
20
2.51369648530317
30
0
41
1
10
3.25997875143131
20
2.29176375172281
30
0
41
1
10
3.34096262677593
20
2.21867160172968
30
0
41
1
10
3.50763725679011
20
2.07373984895472
30
0
41
1
10
3.59323164349013
20
2.00200560731025
30
0
41
1
10
3.85284215688995
20
1.79049290569597
30
0
41
1
10
4.0306782865251
20
1.65345119528851
30
0
41
1
10
4.39259764922818
20
1.3840945556081
30
0
41
1
10
4.57671706162529
20
1.25181665651235
30
0
41
1
10
5.13592696259926
20
0.859606836240687
30
0
41
1
10
5.51779701040465
20
0.60416938004937
30
0
41
1
10
6.09906766591814
20
0.225290449888121
30
0
41
1
10
6.29422621067448
20
0.0997965701064061
30
0
41
1
10
6.6838924571332
20
-0.147489841219965
30
0
41
1
10
6.87882566621875
20
-0.269596946267086
30
0
41
1
10
7.46392512220217
20
-0.631805968499464
30
0
41
1
10
7.85434617747987
20
-0.868067562514966
30
0
41
1
10
8.63716464033917
20
-1.32801674191714
30
0
41
1
10
9.0295883110868
20
-1.55156935783791
30
0
41
1
10
9.81925080791146
20
-1.98273325858767
30
0
41
1
10
10.2165015274012
20
-2.19008714569719
30
0
41
1
10
10.8191122643034
20
-2.48406552771695
30
0
41
1
10
11.0211914082568
20
-2.57930104474116
30
0
41
1
10
11.4264515282754
20
-2.76287136800031
30
0
41
1
10
11.629836641354
20
-2.85128442000598
30
0
41
1
10
11.8342649408653
20
-2.93592880795316
30
0
0
SPLINE
5
A3
100
AcDbEntity
8
1
62
256
6
ByLayer
370
18
48
1
60
0
100
AcDbSpline
70
4
71
3
72
8
73
4
40
0
40
0
40
0
40
0
40
1
40
1
40
1
40
1
41
1
10
62.9684594876701
20
0.494139586808899
30
0
41
1
10
62.9826576561259
20
0.36433997986714
30
0
41
1
10
62.9911856546375
20
0.234787953691608
30
0
41
1
10
62.9927315056253
20
0.105540794116393
30
0
0
SPLINE
5
A4
100
AcDbEntity
8
1
62
256
6
ByLayer
370
18
48
1
60
0
100
AcDbSpline
70
4
71
3
72
10
73
6
40
0
40
0
40
0
40
0
40
0.5
40
0.5
40
1
40
1
40
1
40
1
41
1
10
62.9997931397571
20
0.0396104602404819
30
0
41
1
10
62.9967173243002
20
0.0233110025172323
30
0
41
1
10
62.9920185720978
20
0.0054338733972088
30
0
41
1
10
62.9796445859507
20
-0.0290780472434449
30
0
41
1
10
62.9720556313402
20
-0.0453431491518188
30
0
41
1
10
62.9642169571304
20
-0.0582215916825248
30
0
0
SPLINE
5
A5
100
AcDbEntity
8
1
62
256
6
ByLayer
370
13
48
1
60
0
100
AcDbSpline
70
4
71
3
72
8
73
4
40
0
40
0
40
0
40
0
40
1
40
1
40
1
40
1
41
1
10
2.63393976019265
20
-4.32864222486026
30
0
41
1
10
2.65676032155042
20
-4.3227042287688
30
0
41
1
10
2.6816241919359
20
-4.32289552342672
30
0
41
1
10
2.70697851853779
20
-4.32882652958608
30
0
0
SPLINE
5
A6
100
AcDbEntity
8
1
62
256
6
ByLayer
370
18
48
1
60
0
100
AcDbSpline
70
4
71
3
72
10
73
6
40
0
40
0
40
0
40
0
40
0.5
40
0.5
40
1
40
1
40
1
40
1
41
1
10
61.3512438238661
20
1.14464181509806
30
0
41
1
10
61.5949117531738
20
1.13662288477036
30
0
41
1
10
61.8385659029698
20
1.1287303901247
30
0
41
1
10
62.3255822839179
20
1.11562393785795
30
0
41
1
10
62.5690018503572
20
1.10988389294195
30
0
41
1
10
62.8124088038122
20
1.10425958008489
30
0
0
SPLINE
5
A7
100
AcDbEntity
8
1
62
256
6
ByLayer
370
13
48
1
60
0
100
AcDbSpline
70
4
71
3
72
8
73
4
40
0
40
0
40
0
40
0
40
1
40
1
40
1
40
1
41
1
10
2.75541551591206
20
-4.20200953806929
30
0
41
1
10
2.7129772234016
20
-4.1959252148005
30
0
41
1
10
2.67152606975202
20
-4.19950091622167
30
0
41
1
10
2.63393976019265
20
-4.21276275194677
30
0
0
SPLINE
5
A8
100
AcDbEntity
8
1
62
256
6
ByLayer
370
18
48
1
60
0
100
AcDbSpline
70
4
71
3
72
12
73
8
40
0
40
0
40
0
40
0
40
0.25
40
0.25
40
0.5
40
0.5
40
1
40
1
40
1
40
1
41
1
10
61.5052842639979
20
4.82614198047412
30
0
41
1
10
61.6099012499881
20
4.52275560322425
30
0
41
1
10
61.7169699074408
20
4.21783330364113
30
0
41
1
10
61.9344159660147
20
3.60806870135406
30
0
41
1
10
62.0445908641371
20
3.30382690982023
30
0
41
1
10
62.3785271736847
20
2.39259393113022
30
0
41
1
10
62.6058277204077
20
1.7866471014554
30
0
41
1
10
62.8339822524747
20
1.1840695915279
30
0
0
SPLINE
5
A9
100
AcDbEntity
8
1
62
256
6
ByLayer
370
18
48
1
60
0
100
AcDbSpline
70
4
71
3
72
8
73
4
40
0
40
0
40
0
40
0
40
1
40
1
40
1
40
1
41
1
10
61.5052842639979
20
-4.82614198047415
30
0
41
1
10
61.4392072998919
20
-4.89778324682263
30
0
41
1
10
61.371760869157
20
-4.94030899159139
30
0
41
1
10
61.3021948823307
20
-4.95503863420069
30
0
0
SPLINE
5
AA
100
AcDbEntity
8
1
62
256
6
ByLayer
370
18
48
1
60
0
100
AcDbSpline
70
4
71
3
72
10
73
6
40
0
40
0
40
0
40
0
40
0.5
40
0.5
40
1
40
1
40
1
40
1
41
1
10
62.8339822524747
20
-1.18406959152796
30
0
41
1
10
62.864458400747
20
-1.06382185887597
30
0
41
1
10
62.8912898699843
20
-0.94617960330558
30
0
41
1
10
62.9363233161075
20
-0.716832549101696
30
0
41
1
10
62.9546264918618
20
-0.604727451044937
30
0
41
1
10
62.9684594876701
20
-0.494139586809297
30
0
0
SPLINE
5
AB
100
AcDbEntity
8
1
62
256
6
ByLayer
370
18
48
1
60
0
100
AcDbSpline
70
4
71
3
72
14
73
10
40
0
40
0
40
0
40
0
40
0.25
40
0.25
40
0.5
40
0.5
40
0.75
40
0.75
40
1
40
1
40
1
40
1
41
1
10
61.3716711060017
20
-4.71036356686386
30
0
41
1
10
61.3749340468611
20
-4.70990581841659
30
0
41
1
10
61.3775587645347
20
-4.7110915703349
30
0
41
1
10
61.3811236262343
20
-4.7178397641288
30
0
41
1
10
61.382012856905
20
-4.72347717119928
30
0
41
1
10
61.3809348515887
20
-4.74033103561791
30
0
41
1
10
61.3788910903969
20
-4.75159361985828
30
0
41
1
10
61.3719423104284
20
-4.77724591156596
30
0
41
1
10
61.367114763378
20
-4.79137997059945
30
0
41
1
10
61.3618393962855
20
-4.80473059508822
30
0
0
SPLINE
5
AC
100
AcDbEntity
8
1
62
256
6
ByLayer
370
18
48
1
60
0
100
AcDbSpline
70
4
71
3
72
35
73
31
40
0
40
0
40
0
40
0
40
0.0625
40
0.0625
40
0.125
40
0.1875
40
0.1875
40
0.21875
40
0.21875
40
0.25
40
0.25
40
0.375
40
0.375
40
0.4375
40
0.4375
40
0.5
40
0.5
40
0.625
40
0.625
40
0.6875
40
0.6875
40
0.75
40
0.75
40
0.8125
40
0.8125
40
0.84375
40
0.84375
40
0.875
40
0.875
40
1
40
1
40
1
40
1
41
1
10
2.50509435474171
20
-4.34804897494249
30
0
41
1
10
2.50509474703478
20
-4.26573423838926
30
0
41
1
10
2.50509512943103
20
-4.17484011543422
30
0
41
1
10
2.50509586402615
20
-3.97936040931768
30
0
41
1
10
2.50509657083231
20
-3.76981481194949
30
0
41
1
10
2.50509723271338
20
-3.5327033061578
30
0
41
1
10
2.50509771698111
20
-3.34439499444832
30
0
41
1
10
2.50509787638572
20
-3.27987618468549
30
0
41
1
10
2.5050981920356
20
-3.14727135144835
30
0
41
1
10
2.50509834842904
20
-3.07910325225808
30
0
41
1
10
2.50509911564228
20
-2.73337781700502
30
0
41
1
10
2.50509969034584
20
-2.4383082922761
30
0
41
1
10
2.50510054130851
20
-1.9685080527197
30
0
41
1
10
2.50510082399967
20
-1.80674922094909
30
0
41
1
10
2.50510138760274
20
-1.47631639907067
30
0
41
1
10
2.50510166566238
20
-1.30937406140518
30
0
41
1
10
2.50510249614902
20
-0.803536990287313
30
0
41
1
10
2.50510304616083
20
-0.459688292453905
30
0
41
1
10
2.50510387366106
20
0.0663813276862868
30
0
41
1
10
2.50510414580341
20
0.241074745721846
30
0
41
1
10
2.50510467650327
20
0.586903554333787
30
0
41
1
10
2.505104935661
20
0.758415633701844
30
0
41
1
10
2.50510543578781
20
1.09864985849541
30
0
41
1
10
2.50510567678009
20
1.26737218633389
30
0
41
1
10
2.50510601751338
20
1.51830316356504
30
0
41
1
10
2.50510612781733
20
1.60177054596343
30
0
41
1
10
2.50510633751603
20
1.76609624300704
30
0
41
1
10
2.50510643719122
20
1.84715093668672
30
0
41
1
10
2.5051069064219
20
2.24698496551312
30
0
41
1
10
2.50510719046701
20
2.54962697516643
30
0
41
1
10
2.505107326396
20
2.83485766415868
30
0
0
SPLINE
5
AD
100
AcDbEntity
8
1
62
256
6
ByLayer
370
18
48
1
60
0
100
AcDbSpline
70
4
71
3
72
10
73
6
40
0
40
0
40
0
40
0
40
0.5
40
0.5
40
1
40
1
40
1
40
1
41
1
10
62.9684594876701
20
0.494139586808899
30
0
41
1
10
62.954552359409
20
0.605320102826909
30
0
41
1
10
62.9360189632221
20
0.718597778381138
30
0
41
1
10
62.8908168815967
20
0.948369492389389
30
0
41
1
10
62.8641709843268
20
1.06495589893095
30
0
41
1
10
62.8339822524747
20
1.1840695915279
30
0
0
SPLINE
5
AE
100
AcDbEntity
8
1
62
256
6
ByLayer
370
13
48
1
60
0
100
AcDbSpline
70
4
71
3
72
14
73
10
40
0
40
0
40
0
40
0
40
0.25
40
0.25
40
0.5
40
0.5
40
0.75
40
0.75
40
1
40
1
40
1
40
1
41
1
10
2.63393976019265
20
-4.21276275194677
30
0
41
1
10
2.61318494145132
20
-4.22008581717637
30
0
41
1
10
2.59497707837033
20
-4.22889434755399
30
0
41
1
10
2.56294157577696
20
-4.24900596950852
30
0
41
1
10
2.54933590312649
20
-4.26026927200723
30
0
41
1
10
2.5277339045256
20
-4.2837384290988
30
0
41
1
10
2.5194433155917
20
-4.29621097479173
30
0
41
1
10
2.50821144544352
20
-4.32186259911975
30
0
41
1
10
2.50528936167299
20
-4.3351504395329
30
0
41
1
10
2.50509435474171
20
-4.34804897494249
30
0
0
SPLINE
5
AF
100
AcDbEntity
8
1
62
256
6
ByLayer
370
18
48
1
60
0
100
AcDbSpline
70
4
71
3
72
50
73
46
40
0
40
0
40
0
40
0
40
0.0759330349558724
40
0.0759330349558724
40
0.113899552433809
40
0.113899552433809
40
0.151866069911745
40
0.151866069911745
40
0.189832587389681
40
0.189832587389681
40
0.227799104867617
40
0.227799104867617
40
0.265765622345553
40
0.265765622345553
40
0.30373213982349
40
0.30373213982349
40
0.379665174779362
40
0.379665174779362
40
0.455598209735234
40
0.455598209735234
40
0.49356472721317
40
0.49356472721317
40
0.531531244691107
40
0.531531244691107
40
0.569497762169042
40
0.569497762169042
40
0.607464279646977
40
0.607464279646977
40
0.645430797124913
40
0.645430797124913
40
0.683397314602848
40
0.683397314602848
40
0.759330349558718
40
0.759330349558718
40
0.835263384514587
40
0.835263384514587
40
0.873229901992523
40
0.873229901992523
40
0.911196419470458
40
0.911196419470458
40
0.949162936948393
40
0.949162936948393
40
0.987129454426329
40
0.987129454426329
40
1
40
1
40
1
40
1
41
1
10
11.8342649408653
20
3.50710708638249
30
0
41
1
10
12.3554494393877
20
3.29634376786675
30
0
41
1
10
12.875708790389
20
3.07189843722375
30
0
41
1
10
13.6511205154816
20
2.71071478976722
30
0
41
1
10
13.9084488906642
20
2.58568369712612
30
0
41
1
10
14.4239155724476
20
2.33107816348115
30
0
41
1
10
14.6818397687515
20
2.20121297751348
30
0
41
1
10
15.1975515221384
20
1.93560048119488
30
0
41
1
10
15.4552762968525
20
1.79974567475909
30
0
41
1
10
15.9704339340438
20
1.52173578935856
30
0
41
1
10
16.2286350008755
20
1.38087773348246
30
0
41
1
10
16.7466705659963
20
1.09619853411883
30
0
41
1
10
17.0063619500571
20
0.952134839567435
30
0
41
1
10
17.5266881883348
20
0.659692472280994
30
0
41
1
10
17.7876361997154
20
0.510329133670808
30
0
41
1
10
18.5690521787498
20
0.065899493942112
30
0
41
1
10
19.0878300775664
20
-0.228038689938103
30
0
41
1
10
20.118527116386
20
-0.816033510832966
30
0
41
1
10
20.6343714170526
20
-1.10304687052638
30
0
41
1
10
21.4072319169057
20
-1.52615670950311
30
0
41
1
10
21.6643356895462
20
-1.66655174857939
30
0
41
1
10
22.1805620476956
20
-1.94084643704306
30
0
41
1
10
22.4394448531811
20
-2.07517156376451
30
0
41
1
10
22.9582376095559
20
-2.33902056021242
30
0
41
1
10
23.218056717662
20
-2.46868971852589
30
0
41
1
10
23.7387459603273
20
-2.72305334915677
30
0
41
1
10
23.9999958445731
20
-2.84631293153993
30
0
41
1
10
24.5201701090719
20
-3.08292791039707
30
0
41
1
10
24.7795977182246
20
-3.1967581160003
30
0
41
1
10
25.2966926640186
20
-3.41614943717235
30
0
41
1
10
25.5540835661096
20
-3.52200757947887
30
0
41
1
10
26.3273570233182
20
-3.82234225320798
30
0
41
1
10
26.8429999039057
20
-4.00169836975448
30
0
41
1
10
27.8722115483051
20
-4.32067601064276
30
0
41
1
10
28.3897036485211
20
-4.45651686216931
30
0
41
1
10
29.1684454368283
20
-4.62603031764522
30
0
41
1
10
29.4284770159098
20
-4.67696475586732
30
0
41
1
10
29.9503481168652
20
-4.76519380409775
30
0
41
1
10
30.2106926988361
20
-4.80254358887674
30
0
41
1
10
30.7297264940063
20
-4.86430761260866
30
0
41
1
10
30.9882857742811
20
-4.8887445768826
30
0
41
1
10
31.5038884535661
20
-4.92448675024633
30
0
41
1
10
31.7616827194513
20
-4.93564172069685
30
0
41
1
10
32.1068701724394
20
-4.94184404939921
30
0
41
1
10
32.1942531101452
20
-4.94266655955784
30
0
41
1
10
32.2816179683345
20
-4.9427388652478
30
0
0
SPLINE
5
B0
100
AcDbEntity
8
1
62
256
6
ByLayer
370
18
48
1
60
0
100
AcDbSpline
70
4
71
3
72
30
73
26
40
0
40
0
40
0
40
0
40
0.0098123202120443
40
0.0098123202120443
40
0.0998293820109498
40
0.0998293820109498
40
0.189846443809855
40
0.189846443809855
40
0.279863505608759
40
0.279863505608759
40
0.369880567407665
40
0.369880567407665
40
0.45989762920657
40
0.45989762920657
40
0.549914691005475
40
0.549914691005475
40
0.63993175280438
40
0.63993175280438
40
0.729948814603285
40
0.729948814603285
40
0.81996587640219
40
0.81996587640219
40
0.909982938201095
40
0.909982938201095
40
1
40
1
40
1
40
1
41
1
10
52.8724592266962
20
3.58099741787157
30
0
41
1
10
52.9007638277703
20
3.59222869332731
30
0
41
1
10
52.9290841947878
20
3.60339804653347
30
0
41
1
10
53.2173918296186
20
3.71637792818203
30
0
41
1
10
53.4791000551934
20
3.81350095707444
30
0
41
1
10
53.9997723977217
20
3.99674976340293
30
0
41
1
10
54.2588708203025
20
4.08323071608223
30
0
41
1
10
54.775510015175
20
4.24488298795339
30
0
41
1
10
55.033709929288
20
4.31943501216008
30
0
41
1
10
55.5496234629105
20
4.45662652982591
30
0
41
1
10
55.8073095488747
20
4.51929428535402
30
0
41
1
10
56.321621142342
20
4.63307435596261
30
0
41
1
10
56.5781556093071
20
4.68416516050078
30
0
41
1
10
57.0928469487156
20
4.77305543395926
30
0
41
1
10
57.3506606786545
20
4.81112215559452
30
0
41
1
10
57.8667298717861
20
4.87471277523687
30
0
41
1
10
58.1247859936515
20
4.90027924884342
30
0
41
1
10
58.6418580367124
20
4.93825899591903
30
0
41
1
10
58.9015356188343
20
4.95054883900747
30
0
41
1
10
59.422918330549
20
4.96181517340378
30
0
41
1
10
59.6842902216689
20
4.96076793803664
30
0
41
1
10
60.204711240282
20
4.94515523644287
30
0
41
1
10
60.4641491877422
20
4.93050824255462
30
0
41
1
10
60.9843770372288
20
4.88815897466438
30
0
41
1
10
61.244802222138
20
4.86045351986758
30
0
41
1
10
61.5052842639978
20
4.82614198047415
30
0
0
SPLINE
5
B1
100
AcDbEntity
8
1
62
256
6
ByLayer
370
18
48
1
60
0
100
AcDbSpline
70
4
71
3
72
30
73
26
40
0
40
0
40
0
40
0
40
0.0624999999999992
40
0.0624999999999992
40
0.0937499999999988
40
0.0937499999999988
40
0.124999999999998
40
0.124999999999998
40
0.187499999999997
40
0.187499999999997
40
0.249999999999997
40
0.249999999999997
40
0.374999999999995
40
0.374999999999995
40
0.437499999999995
40
0.437499999999995
40
0.499999999999996
40
0.499999999999996
40
0.624999999999997
40
0.624999999999997
40
0.749999999999998
40
0.749999999999998
40
0.874999999999999
40
0.874999999999999
40
1
40
1
40
1
40
1
41
1
10
56.6196024060212
20
1.97989474404196
30
0
41
1
10
56.5976209282427
20
1.83960937980763
30
0
41
1
10
56.5857745538447
20
1.69530458671198
30
0
41
1
10
56.5840037763912
20
1.47250252101591
30
0
41
1
10
56.5861206278744
20
1.39678930868985
30
0
41
1
10
56.5957051038372
20
1.24562251471053
30
0
41
1
10
56.6031385584399
20
1.17010980282339
30
0
41
1
10
56.6330149552892
20
0.943774419435698
30
0
41
1
10
56.663013202458
20
0.793153945475552
30
0
41
1
10
56.7419060096872
20
0.492418706858359
30
0
41
1
10
56.791226828759
20
0.341528908301285
30
0
41
1
10
56.9605655483875
20
-0.0967926155213945
30
0
41
1
10
57.1024246972818
20
-0.374484070555127
30
0
41
1
10
57.3488180264154
20
-0.774173056596595
30
0
41
1
10
57.4358311673611
20
-0.903211487807795
30
0
41
1
10
57.6165102170617
20
-1.15182577615073
30
0
41
1
10
57.7104352376706
20
-1.27184047015874
30
0
41
1
10
58.0017180736774
20
-1.62050212431703
30
0
41
1
10
58.2086739482384
20
-1.83765857007353
30
0
41
1
10
58.6434921289306
20
-2.2469428960392
30
0
41
1
10
58.8669325515772
20
-2.43529190466785
30
0
41
1
10
59.3230141475026
20
-2.78595445516515
30
0
41
1
10
59.5557521946506
20
-2.94823171120151
30
0
41
1
10
60.0292673690732
20
-3.25044499710526
30
0
41
1
10
60.2700512939893
20
-3.3903621358003
30
0
41
1
10
60.5144832608776
20
-3.52014108337264
30
0
0
SPLINE
5
B2
100
AcDbEntity
8
1
62
256
6
ByLayer
370
18
48
1
60
0
100
AcDbSpline
70
4
71
3
72
46
73
42
40
0
40
0
40
0
40
0
40
0.0331730061003505
40
0.0331730061003505
40
0.066346012200701
40
0.066346012200701
40
0.132692024401401
40
0.132692024401401
40
0.16586503050175
40
0.16586503050175
40
0.1990380366021
40
0.1990380366021
40
0.265384048802797
40
0.265384048802797
40
0.331730061003495
40
0.331730061003495
40
0.364903067103844
40
0.364903067103844
40
0.398076073204193
40
0.398076073204193
40
0.464422085404891
40
0.464422085404891
40
0.49759509150524
40
0.49759509150524
40
0.530768097605589
40
0.530768097605589
40
0.663460122006987
40
0.663460122006987
40
0.696633128107337
40
0.696633128107337
40
0.729806134207686
40
0.729806134207686
40
0.796152146408385
40
0.796152146408385
40
0.862498158609083
40
0.862498158609083
40
0.895671164709432
40
0.895671164709432
40
0.928844170809781
40
0.928844170809781
40
1
40
1
40
1
40
1
41
1
10
61.3021948823307
20
-4.95503863420069
30
0
41
1
10
60.9951789159604
20
-4.96338922484026
30
0
41
1
10
60.6883085440951
20
-4.96235373306192
30
0
41
1
10
60.0741133808634
20
-4.94159972050534
30
0
41
1
10
59.7664173287603
20
-4.92183978923083
30
0
41
1
10
58.844478463697
20
-4.83486261875731
30
0
41
1
10
58.2320622093347
20
-4.74016614463622
30
0
41
1
10
57.3118704412423
20
-4.54557741656583
30
0
41
1
10
57.0045139831693
20
-4.47188129670167
30
0
41
1
10
56.3897680495913
20
-4.30789288109889
30
0
41
1
10
56.0836764984498
20
-4.21797499061341
30
0
41
1
10
55.1680275003047
20
-3.92604430728889
30
0
41
1
10
54.5610920047984
20
-3.70184895552103
30
0
41
1
10
53.3475181147299
20
-3.20295511885834
30
0
41
1
10
52.7408998284388
20
-2.92824567743031
30
0
41
1
10
51.8264778801524
20
-2.48440817644854
30
0
41
1
10
51.5208836949073
20
-2.33122196757299
30
0
41
1
10
50.9072536703625
20
-2.01552642746935
30
0
41
1
10
50.5991593401519
20
-1.85297255272746
30
0
41
1
10
49.6780907010377
20
-1.35747430890626
30
0
41
1
10
49.0656961232852
20
-1.01521927440075
30
0
41
1
10
48.1444137900014
20
-0.492733554242307
30
0
41
1
10
47.8362704259969
20
-0.316820446675422
30
0
41
1
10
47.2231605409957
20
0.0336710531405515
30
0
41
1
10
46.917759395834
20
0.208542923270443
30
0
41
1
10
45.3943477211266
20
1.07726178797679
30
0
41
1
10
44.1867770308872
20
1.75359263764364
30
0
41
1
10
42.6591613214051
20
2.52042199660443
30
0
41
1
10
42.3525105655636
20
2.66981152870307
30
0
41
1
10
41.737032700295
20
2.95880679328295
30
0
41
1
10
41.4306705003391
20
3.09738682880314
30
0
41
1
10
40.5144499012715
20
3.49397708900349
30
0
41
1
10
39.9071037817774
20
3.73237068963374
30
0
41
1
10
38.6932514731202
20
4.15092481131154
30
0
41
1
10
38.0866345972775
20
4.33094792378455
30
0
41
1
10
37.1723805311831
20
4.55211973827292
30
0
41
1
10
36.8669037307723
20
4.61769339465408
30
0
41
1
10
36.2535901526659
20
4.73163873708015
30
0
41
1
10
35.9451836321203
20
4.78005694395935
30
0
41
1
10
34.9812066109618
20
4.90284575294973
30
0
41
1
10
34.3288261188696
20
4.94420319312124
30
0
41
1
10
33.6775212363816
20
4.94360763733684
30
0
0
SPLINE
5
B3
100
AcDbEntity
8
1
62
256
6
ByLayer
370
18
48
1
60
0
100
AcDbSpline
70
4
71
3
72
16
73
12
40
0
40
0
40
0
40
0
40
0.157182382063535
40
0.157182382063535
40
0.297651985052947
40
0.297651985052947
40
0.438121588042359
40
0.438121588042359
40
0.71906079402118
40
0.71906079402118
40
1
40
1
40
1
40
1
41
1
10
9.17070878576908
20
-4.69256611926224
30
0
41
1
10
8.83079148506363
20
-4.75149001486352
30
0
41
1
10
8.49069399478344
20
-4.79959033939878
30
0
41
1
10
7.84521293532129
20
-4.86951699206702
30
0
41
1
10
7.53997321123239
20
-4.89359488199139
30
0
41
1
10
6.92748514404008
20
-4.92343771603629
30
0
41
1
10
6.6195725836406
20
-4.92918483825912
30
0
41
1
10
5.69633451835858
20
-4.91829364994643
30
0
41
1
10
5.08421978755749
20
-4.87371243635926
30
0
41
1
10
3.85961088101348
20
-4.71270514227606
30
0
41
1
10
3.24711022617436
20
-4.59635258139951
30
0
41
1
10
2.6314176352418
20
-4.4452467627454
30
0
0
SPLINE
5
B4
100
AcDbEntity
8
1
62
256
6
ByLayer
370
18
48
1
60
0
100
AcDbSpline
70
4
71
3
72
8
73
4
40
0
40
0
40
0
40
0
40
1
40
1
40
1
40
1
41
1
10
62.9642169571304
20
-0.0582215916825817
30
0
41
1
10
62.6975540647929
20
-0.49633174170171
30
0
41
1
10
62.4178309753229
20
-0.921067582762163
30
0
41
1
10
62.130160215821
20
-1.33766460375514
30
0
0
SPLINE
5
B5
100
AcDbEntity
8
1
62
256
6
ByLayer
370
18
48
1
60
0
100
AcDbSpline
70
4
71
3
72
22
73
18
40
0
40
0
40
0
40
0
40
0.250000000000014
40
0.250000000000014
40
0.375000000000021
40
0.375000000000021
40
0.500000000000028
40
0.500000000000028
40
0.625000000000035
40
0.625000000000035
40
0.687500000000039
40
0.687500000000039
40
0.750000000000042
40
0.750000000000042
40
0.875000000000021
40
0.875000000000021
40
1
40
1
40
1
40
1
41
1
10
2.50510732639617
20
2.83485766415256
30
0
41
1
10
2.50543079747362
20
2.85710148373121
30
0
41
1
10
2.50892334336368
20
2.87811613332852
30
0
41
1
10
2.52041438890475
20
2.9068611407055
30
0
41
1
10
2.52529456243349
20
2.91597511663122
30
0
41
1
10
2.53818425791951
20
2.93262570850135
30
0
41
1
10
2.54615654341521
20
2.94023080085384
30
0
41
1
10
2.56744375707496
20
2.95129691552785
30
0
41
1
10
2.58094778501629
20
2.95506170582596
30
0
41
1
10
2.60872018546698
20
2.95070173459615
30
0
41
1
10
2.61920360422039
20
2.9473760033508
30
0
41
1
10
2.64080415928768
20
2.93688493443852
30
0
41
1
10
2.65159239761289
20
2.92992812582628
30
0
41
1
10
2.68145157702986
20
2.90744386745729
30
0
41
1
10
2.69863763452696
20
2.89038129451458
30
0
41
1
10
2.72940398992159
20
2.857057719117
30
0
41
1
10
2.74328519733609
20
2.84029057837299
30
0
41
1
10
2.75644824984977
20
2.82351718106585
30
0
0
SPLINE
5
B6
100
AcDbEntity
8
1
62
256
6
ByLayer
370
18
48
1
60
0
100
AcDbSpline
70
4
71
3
72
14
73
10
40
0
40
0
40
0
40
0
40
0.25
40
0.25
40
0.5
40
0.5
40
0.75
40
0.75
40
1
40
1
40
1
40
1
41
1
10
61.2145247205369
20
1.04937550432501
30
0
41
1
10
61.2139643308747
20
1.06465717728491
30
0
41
1
10
61.2176253255429
20
1.08004383747084
30
0
41
1
10
61.2336330952729
20
1.10655666405802
30
0
41
1
10
61.2459258276091
20
1.11755545223539
30
0
41
1
10
61.2733446564791
20
1.13319205279936
30
0
41
1
10
61.2887128669266
20
1.13825272498124
30
0
41
1
10
61.3196201285936
20
1.14418928464624
30
0
41
1
10
61.3354349046816
20
1.14516207487111
30
0
41
1
10
61.3512438238661
20
1.14464181509848
30
0
0
SPLINE
5
B7
100
AcDbEntity
8
1
62
256
6
ByLayer
370
13
48
1
60
0
100
AcDbSpline
70
4
71
3
72
14
73
10
40
0
40
0
40
0
40
0
40
0.337779687659536
40
0.337779687659536
40
0.506669531489306
40
0.506669531489306
40
0.675559375319075
40
0.675559375319075
40
1
40
1
40
1
40
1
41
1
10
2.70697851853779
20
-4.32882652958608
30
0
41
1
10
3.32320367314924
20
-4.47297688486589
30
0
41
1
10
3.93731604965711
20
-4.58318875682366
30
0
41
1
10
4.85978607582956
20
-4.69611111066553
30
0
41
1
10
5.1676062331303
20
-4.72501269559112
30
0
41
1
10
5.7841234059787
20
-4.7648767856569
30
0
41
1
10
6.09109037663524
20
-4.77572908800897
30
0
41
1
10
6.98511564512236
20
-4.7811628701244
30
0
41
1
10
7.569730964619
20
-4.75161410837805
30
0
41
1
10
8.15377497171338
20
-4.69010926782826
30
0
0
SPLINE
5
B8
100
AcDbEntity
8
1
62
256
6
ByLayer
370
18
48
1
60
0
100
AcDbSpline
70
4
71
3
72
16
73
12
40
0
40
0
40
0
40
0
40
0.478927056402345
40
0.478927056402345
40
0.620831430764542
40
0.620831430764542
40
0.69178361794564
40
0.69178361794564
40
0.762735805126738
40
0.762735805126738
40
1
40
1
40
1
40
1
41
1
10
47.2911908315644
20
-0.0050534326542504
30
0
41
1
10
48.3179065472797
20
-0.574740123687121
30
0
41
1
10
49.3374821060444
20
-1.14052267262363
30
0
41
1
10
50.669397491267
20
-1.83341027978091
30
0
41
1
10
50.9745165591215
20
-1.9890691011191
30
0
41
1
10
51.4337890192495
20
-2.21744260221047
30
0
41
1
10
51.5871467440626
20
-2.29271249038183
30
0
41
1
10
51.8945043829139
20
-2.44134639481942
30
0
41
1
10
52.0485884082073
20
-2.51474657733124
30
0
41
1
10
52.7155975484889
20
-2.82718623634463
30
0
41
1
10
53.2256159033484
20
-3.052276587569
30
0
41
1
10
53.7339688987385
20
-3.25989039525709
30
0
0
SPLINE
5
B9
100
AcDbEntity
8
1
62
256
6
ByLayer
370
13
48
1
60
0
100
AcDbSpline
70
4
71
3
72
16
73
12
40
0
40
0
40
0
40
0
40
0.0393850236340289
40
0.0393850236340289
40
0.519692511817014
40
0.519692511817014
40
0.63976938386276
40
0.63976938386276
40
0.759846255908507
40
0.759846255908507
40
1
40
1
40
1
40
1
41
1
10
53.7339698247591
20
-3.25989077344832
30
0
41
1
10
53.8336940585427
20
-3.3006186260393
30
0
41
1
10
53.9333542040848
20
-3.34067392608583
30
0
41
1
10
55.2477193358638
20
-3.86013203222638
30
0
41
1
10
56.4550462345235
20
-4.23787409302469
30
0
41
1
10
57.9861298449526
20
-4.54625249827586
30
0
41
1
10
58.2942205706838
20
-4.59981772454961
30
0
41
1
10
58.9089669695778
20
-4.68910728868096
30
0
41
1
10
59.2156975985781
20
-4.72490977742075
30
0
41
1
10
60.1352870942347
20
-4.8054864769336
30
0
41
1
10
60.7475415998888
20
-4.82339477057596
30
0
41
1
10
61.3618393962858
20
-4.80473059508822
30
0
0
SPLINE
5
BA
100
AcDbEntity
8
1
62
256
6
ByLayer
370
18
48
1
60
0
100
AcDbSpline
70
4
71
3
72
88
73
84
40
0
40
0
40
0
40
0
40
0.0038571574864826
40
0.0038571574864826
40
0.0497738199388096
40
0.0497738199388096
40
0.0956904823911367
40
0.0956904823911367
40
0.1186488136173
40
0.1186488136173
40
0.141607144843464
40
0.141607144843464
40
0.164565476069627
40
0.164565476069627
40
0.187523807295791
40
0.187523807295791
40
0.210482138521954
40
0.210482138521954
40
0.233440469748118
40
0.233440469748118
40
0.256398800974281
40
0.256398800974281
40
0.279357132200445
40
0.279357132200445
40
0.302315463426608
40
0.302315463426608
40
0.325273794652772
40
0.325273794652772
40
0.348232125878935
40
0.348232125878935
40
0.371190457105099
40
0.371190457105099
40
0.394148788331263
40
0.394148788331263
40
0.417107119557426
40
0.417107119557426
40
0.44006545078359
40
0.44006545078359
40
0.463023782009753
40
0.463023782009753
40
0.485982113235917
40
0.485982113235917
40
0.508940444462081
40
0.508940444462081
40
0.554857106914409
40
0.554857106914409
40
0.577815438140572
40
0.577815438140572
40
0.600773769366736
40
0.600773769366736
40
0.6237321005929
40
0.6237321005929
40
0.646690431819063
40
0.646690431819063
40
0.669648763045227
40
0.669648763045227
40
0.69260709427139
40
0.69260709427139
40
0.715565425497554
40
0.715565425497554
40
0.738523756723718
40
0.738523756723718
40
0.784440419176045
40
0.784440419176045
40
0.807398750402209
40
0.807398750402209
40
0.830357081628373
40
0.830357081628373
40
0.853315412854537
40
0.853315412854537
40
0.876273744080701
40
0.876273744080701
40
0.899232075306865
40
0.899232075306865
40
0.922190406533029
40
0.922190406533029
40
0.945148737759193
40
0.945148737759193
40
0.968107068985356
40
0.968107068985356
40
0.99106540021152
40
0.99106540021152
40
1
40
1
40
1
40
1
41
1
10
25.6819499734789
20
3.57118328595675
30
0
41
1
10
25.7252415704701
20
3.58831807250684
30
0
41
1
10
25.7685362994684
20
3.60529970738423
30
0
41
1
10
26.3273570233182
20
3.82234225320795
30
0
41
1
10
26.8429999039057
20
4.00169836975451
30
0
41
1
10
27.8722115483051
20
4.32067601064276
30
0
41
1
10
28.389703648521
20
4.45651686216931
30
0
41
1
10
29.1684454368283
20
4.62603031764519
30
0
41
1
10
29.4284770159097
20
4.67696475586729
30
0
41
1
10
29.9503481168651
20
4.76519380409775
30
0
41
1
10
30.2106926988361
20
4.80254358887674
30
0
41
1
10
30.7297264940063
20
4.86430761260866
30
0
41
1
10
30.988285774281
20
4.8887445768826
30
0
41
1
10
31.5038884535661
20
4.92448675024633
30
0
41
1
10
31.7616827194513
20
4.93564172069685
30
0
41
1
10
32.2772736950249
20
4.94490586016312
30
0
41
1
10
32.5349906276201
20
4.94303119154807
30
0
41
1
10
33.0498026671279
20
4.92614230833212
30
0
41
1
10
33.3066566235164
20
4.91100978989482
30
0
41
1
10
33.8222906968214
20
4.86788406672844
30
0
41
1
10
34.0807806477395
20
4.8399088389495
30
0
41
1
10
34.5985971790692
20
4.77092362719222
30
0
41
1
10
34.8577941015571
20
4.72983347432216
30
0
41
1
10
35.377222937293
20
4.63416720542023
30
0
41
1
10
35.6387770170365
20
4.57989782413716
30
0
41
1
10
36.1597916560706
20
4.45992128180427
30
0
41
1
10
36.4195415506015
20
4.39412883512779
30
0
41
1
10
36.9370623741045
20
4.25061399321774
30
0
41
1
10
37.194630118032
20
4.17263903942552
30
0
41
1
10
37.7103778228181
20
4.00723719780305
30
0
41
1
10
37.9682510736078
20
3.91957113919955
30
0
41
1
10
38.4834910927617
20
3.73388562635307
30
0
41
1
10
38.7407101163271
20
3.63567828402699
30
0
41
1
10
39.2548737686429
20
3.42894416637708
30
0
41
1
10
39.5125540405412
20
3.32135030275447
30
0
41
1
10
40.0290353340886
20
3.09776536862898
30
0
41
1
10
40.2877698476605
20
2.98169172319973
30
0
41
1
10
40.8057707994766
20
2.74009519168811
30
0
41
1
10
41.0648447390317
20
2.61421027411146
30
0
41
1
10
41.5861269623951
20
2.35676888974558
30
0
41
1
10
41.8475169408707
20
2.22500785902719
30
0
41
1
10
42.3672792621358
20
1.95669454876247
30
0
41
1
10
42.6260608404868
20
1.81956665853775
30
0
41
1
10
43.4001170797057
20
1.40095839070352
30
0
41
1
10
43.9161676943132
20
1.11754945542799
30
0
41
1
10
44.6879104485345
20
0.682001027547528
30
0
41
1
10
44.9445716686495
20
0.534705548061226
30
0
41
1
10
45.4596827981426
20
0.241137707925816
30
0
41
1
10
45.7178094133146
20
0.0943033705646315
30
0
41
1
10
46.2347021267729
20
-0.200374056780561
30
0
41
1
10
46.4933018537463
20
-0.348523531786384
30
0
41
1
10
47.0115059680228
20
-0.645249262532275
30
0
41
1
10
47.2721692633872
20
-0.792719464464966
30
0
41
1
10
47.7942158371849
20
-1.08489621216961
30
0
41
1
10
48.0543801367486
20
-1.22904370486771
30
0
41
1
10
48.572504760932
20
-1.51438093477711
30
0
41
1
10
48.8303362764648
20
-1.65575025624477
30
0
41
1
10
49.3464515473371
20
-1.93098973868817
30
0
41
1
10
49.604403453552
20
-2.06546404234965
30
0
41
1
10
50.1196030746405
20
-2.32901391991652
30
0
41
1
10
50.3766639442297
20
-2.45837137658742
30
0
41
1
10
51.1474150804008
20
-2.83715081774557
30
0
41
1
10
51.6636063731196
20
-3.073028687304
30
0
41
1
10
52.4389684947208
20
-3.40532813394788
30
0
41
1
10
52.6974525961208
20
-3.51262795430605
30
0
41
1
10
53.2173918296185
20
-3.716377928182
30
0
41
1
10
53.4791000551933
20
-3.81350095707441
30
0
41
1
10
53.9997723977216
20
-3.9967497634029
30
0
41
1
10
54.2588708203026
20
-4.08323071608226
30
0
41
1
10
54.7755100151751
20
-4.24488298795336
30
0
41
1
10
55.0337099292879
20
-4.31943501216011
30
0
41
1
10
55.5496234629105
20
-4.45662652982591
30
0
41
1
10
55.8073095488747
20
-4.51929428535402
30
0
41
1
10
56.321621142342
20
-4.63307435596261
30
0
41
1
10
56.5781556093072
20
-4.68416516050078
30
0
41
1
10
57.0928469487157
20
-4.77305543395929
30
0
41
1
10
57.3506606786545
20
-4.81112215559452
30
0
41
1
10
57.8667298717861
20
-4.87471277523687
30
0
41
1
10
58.1247859936514
20
-4.90027924884339
30
0
41
1
10
58.6418580367124
20
-4.93825899591903
30
0
41
1
10
58.9015356188343
20
-4.95054883900747
30
0
41
1
10
59.2636791625687
20
-4.95837424282601
30
0
41
1
10
59.3652344175814
20
-4.95955473179012
30
0
41
1
10
59.4667841785801
20
-4.95971883382336
30
0
0
SPLINE
5
BB
100
AcDbEntity
8
1
62
256
6
ByLayer
370
18
48
1
60
0
100
AcDbSpline
70
4
71
3
72
90
73
86
40
0
40
0
40
0
40
0
40
0.0139549502534546
40
0.0139549502534546
40
0.0558634904756907
40
0.0558634904756907
40
0.0977720306979268
40
0.0977720306979268
40
0.118726300809045
40
0.118726300809045
40
0.139680570920163
40
0.139680570920163
40
0.160634841031281
40
0.160634841031281
40
0.181589111142399
40
0.181589111142399
40
0.202543381253517
40
0.202543381253517
40
0.223497651364635
40
0.223497651364635
40
0.265406191586871
40
0.265406191586871
40
0.28636046169799
40
0.28636046169799
40
0.307314731809108
40
0.307314731809108
40
0.349223272031345
40
0.349223272031345
40
0.370177542142463
40
0.370177542142463
40
0.391131812253581
40
0.391131812253581
40
0.412086082364699
40
0.412086082364699
40
0.433040352475817
40
0.433040352475817
40
0.453994622586935
40
0.453994622586935
40
0.474948892698053
40
0.474948892698053
40
0.495903162809171
40
0.495903162809171
40
0.51685743292029
40
0.51685743292029
40
0.537811703031407
40
0.537811703031407
40
0.558765973142525
40
0.558765973142525
40
0.579720243253644
40
0.579720243253644
40
0.600674513364762
40
0.600674513364762
40
0.642583053586999
40
0.642583053586999
40
0.663537323698117
40
0.663537323698117
40
0.684491593809237
40
0.684491593809237
40
0.726400134031474
40
0.726400134031474
40
0.747354404142593
40
0.747354404142593
40
0.768308674253712
40
0.768308674253712
40
0.81021721447595
40
0.81021721447595
40
0.831171484587069
40
0.831171484587069
40
0.852125754698188
40
0.852125754698188
40
0.873080024809307
40
0.873080024809307
40
0.894034294920426
40
0.894034294920426
40
0.914988565031545
40
0.914988565031545
40
0.935942835142664
40
0.935942835142664
40
0.956897105253784
40
0.956897105253784
40
0.977851375364903
40
0.977851375364903
40
0.998805645476022
40
0.998805645476022
40
1
40
1
40
1
40
1
41
1
10
52.9036196259308
20
-3.57680041258158
30
0
41
1
10
52.7477629361654
20
-3.63160708890135
30
0
41
1
10
52.5916462411066
20
-3.68474567955133
30
0
41
1
10
51.9655989089866
20
-3.89063292909998
30
0
41
1
10
51.4965217668466
20
-4.0285313578236
30
0
41
1
10
50.5593810103569
20
-4.26957359818471
30
0
41
1
10
50.0917317667365
20
-4.37281599848509
30
0
41
1
10
49.3869895369511
20
-4.4956440261374
30
0
41
1
10
49.151606745948
20
-4.53085956401767
30
0
41
1
10
48.6821367643812
20
-4.59139185543978
30
0
41
1
10
48.4479218491439
20
-4.61762417055661
30
0
41
1
10
47.9793473992174
20
-4.65997599020207
30
0
41
1
10
47.7450285326636
20
-4.67612579260884
30
0
41
1
10
47.276034963275
20
-4.69712133530476
30
0
41
1
10
47.041386302228
20
-4.70222188800463
30
0
41
1
10
46.5721242851359
20
-4.70342214874063
30
0
41
1
10
46.3370391070695
20
-4.69906597230724
30
0
41
1
10
45.868069418469
20
-4.67946795046535
30
0
41
1
10
45.6341678749877
20
-4.66408239661848
30
0
41
1
10
44.9339544524078
20
-4.60240123342004
30
0
41
1
10
44.4697926366906
20
-4.5428098548858
30
0
41
1
10
43.7736402836825
20
-4.42363208436007
30
0
41
1
10
43.5415968003101
20
-4.37867570202883
30
0
41
1
10
43.0776930826599
20
-4.28030723936129
30
0
41
1
10
42.8459446588426
20
-4.22670149937224
30
0
41
1
10
42.1502986324408
20
-4.05197151988469
30
0
41
1
10
41.6848598935382
20
-3.91653783751886
30
0
41
1
10
40.9844776331573
20
-3.68902252481286
30
0
41
1
10
40.7508030723959
20
-3.60882828172402
30
0
41
1
10
40.2816529174221
20
-3.44003473273693
30
0
41
1
10
40.046362421037
20
-3.3512846504851
30
0
41
1
10
39.5779229005674
20
-3.16808387815021
30
0
41
1
10
39.3442660020752
20
-3.0736354320936
30
0
41
1
10
38.8782617682477
20
-2.87786183586053
30
0
41
1
10
38.645906657248
20
-2.7765783497596
30
0
41
1
10
38.1812931025027
20
-2.56876102445344
30
0
41
1
10
37.9491112020348
20
-2.4621955881766
30
0
41
1
10
37.4850550372225
20
-2.24475515087826
30
0
41
1
10
37.2532006581083
20
-2.1335777289712
30
0
41
1
10
36.7897311850346
20
-1.90596259881738
30
0
41
1
10
36.5579235910285
20
-1.78979665191531
30
0
41
1
10
36.0934621194856
20
-1.55426508008256
30
0
41
1
10
35.8609687057742
20
-1.43494907843683
30
0
41
1
10
35.3953521884463
20
-1.19286072008427
30
0
41
1
10
35.1622861860918
20
-1.06992321727563
30
0
41
1
10
34.6951012470359
20
-0.820916577384821
30
0
41
1
10
34.4606815209189
20
-0.695310007121549
30
0
41
1
10
33.9905289980655
20
-0.442511198552694
30
0
41
1
10
33.7557276262165
20
-0.315785599722943
30
0
41
1
10
33.28797371798
20
-0.0624108253761335
30
0
41
1
10
33.0549504419565
20
0.0645284464873441
30
0
41
1
10
32.3567835907638
20
0.44309934313776
30
0
41
1
10
31.8923840654092
20
0.693157198964713
30
0
41
1
10
31.1970338503386
20
1.06247034959557
30
0
41
1
10
30.9655077187424
20
1.18470685473542
30
0
41
1
10
30.501949860592
20
1.42605197322078
30
0
41
1
10
30.270040584778
20
1.545442486854
30
0
41
1
10
29.5734648203664
20
1.89820657138421
30
0
41
1
10
29.1083063716881
20
2.12646080919515
30
0
41
1
10
28.4070208204035
20
2.45596963670798
30
0
41
1
10
28.1726011384207
20
2.56359896401645
30
0
41
1
10
27.7021355693511
20
2.7726280827381
30
0
41
1
10
27.4673500029982
20
2.87364397314971
30
0
41
1
10
26.7640898879189
20
3.16888551524315
30
0
41
1
10
26.2955969936145
20
3.35310378177181
30
0
41
1
10
25.5918348481634
20
3.6032135308219
30
0
41
1
10
25.3573521698718
20
3.68335628043027
30
0
41
1
10
24.8877522134892
20
3.83614371216876
30
0
41
1
10
24.652568442392
20
3.9086049266694
30
0
41
1
10
24.1841123492762
20
4.04300872536206
30
0
41
1
10
23.9504705382611
20
4.10455342457794
30
0
41
1
10
23.4843148710858
20
4.22015790590947
30
0
41
1
10
23.2519028906676
20
4.27409169683352
30
0
41
1
10
22.7872828262161
20
4.37235836635784
30
0
41
1
10
22.5551490675996
20
4.41683333191071
30
0
41
1
10
22.0909226051097
20
4.49418865927569
30
0
41
1
10
21.8588720420517
20
4.52779038451061
30
0
41
1
10
21.3951433864371
20
4.58675064560347
30
0
41
1
10
21.1633748203227
20
4.61176598167171
30
0
41
1
10
20.6990159613279
20
4.65173946866921
30
0
41
1
10
20.4663994462363
20
4.66592924791317
30
0
41
1
10
20.0002897661011
20
4.68375463183961
30
0
41
1
10
19.7669945585663
20
4.6882725711155
30
0
41
1
10
19.5200495925476
20
4.6878991406756
30
0
41
1
10
19.5067312285328
20
4.6878635786949
30
0
41
1
10
19.49341084115
20
4.68781236921021
30
0
0
SPLINE
5
BC
100
AcDbEntity
8
1
62
256
6
ByLayer
370
18
48
1
60
0
100
AcDbSpline
70
4
71
3
72
8
73
4
40
0
40
0
40
0
40
0
40
1
40
1
40
1
40
1
41
1
10
62.9927315056252
20
-0.105540794116564
30
0
41
1
10
62.992956671245
20
-0.0867149066089894
30
0
41
1
10
62.9955821843819
20
-0.0639451111171923
30
0
41
1
10
62.9997931397559
20
-0.0396104602368439
30
0
0
SPLINE
5
BD
100
AcDbEntity
8
1
62
256
6
ByLayer
370
18
48
1
60
0
100
AcDbSpline
70
4
71
3
72
8
73
4
40
0
40
0
40
0
40
0
40
1
40
1
40
1
40
1
41
1
10
61.3618393962857
20
-4.80473059508833
30
0
41
1
10
61.342006755211
20
-4.854922010959
30
0
41
1
10
61.3221256560756
20
-4.90502494644741
30
0
41
1
10
61.3021948823307
20
-4.95503863420072
30
0
0
SPLINE
5
BE
100
AcDbEntity
8
1
62
256
6
ByLayer
370
18
48
1
60
0
100
AcDbSpline
70
4
71
3
72
16
73
12
40
0
40
0
40
0
40
0
40
0.267257134917329
40
0.267257134917329
40
0.400885702375993
40
0.400885702375993
40
0.534514269834657
40
0.534514269834657
40
0.801771404751985
40
0.801771404751985
40
1
40
1
40
1
40
1
41
1
10
60.5144832608775
20
-3.52014108337264
30
0
41
1
10
60.582058580427
20
-3.72022970820126
30
0
41
1
10
60.6517446643877
20
-3.89581351276286
30
0
41
1
10
60.7586385537234
20
-4.12394681820643
30
0
41
1
10
60.794673884989
20
-4.19407458360439
30
0
41
1
10
60.8675241291882
20
-4.32224565573168
30
0
41
1
10
60.9044189853306
20
-4.38032692031163
30
0
41
1
10
61.0140133287802
20
-4.53276303851854
30
0
41
1
10
61.0863402852853
20
-4.60691651839272
30
0
41
1
10
61.211443082253
20
-4.6886492711233
30
0
41
1
10
61.2646608661156
20
-4.7083160032268
30
0
41
1
10
61.317141887846
20
-4.71214888523562
30
0
0
SPLINE
5
BF
100
AcDbEntity
8
1
62
256
6
ByLayer
370
18
48
1
60
0
100
AcDbSpline
70
4
71
3
72
10
73
6
40
0
40
0
40
0
40
0
40
0.5
40
0.5
40
1
40
1
40
1
40
1
41
1
10
62.9927315056251
20
0.105540794116763
30
0
41
1
10
62.9928440402538
20
0.0961318787461778
30
0
41
1
10
62.9935837142905
20
0.0855524289325444
30
0
41
1
10
62.9960064343995
20
0.0634175479921453
30
0
41
1
10
62.9976892134956
20
0.0517688201520627
30
0
41
1
10
62.9997931397552
20
0.0396104602401124
30
0
0
SPLINE
5
C0
100
AcDbEntity
8
1
62
256
6
ByLayer
370
18
48
1
60
0
100
AcDbSpline
70
4
71
3
72
12
73
8
40
0
40
0
40
0
40
0
40
0.249999999999999
40
0.249999999999999
40
0.499999999999998
40
0.499999999999998
40
1
40
1
40
1
40
1
41
1
10
61.5052842639979
20
-4.82614198047415
30
0
41
1
10
61.6102487938916
20
-4.52174773547864
30
0
41
1
10
61.7177353670045
20
-4.21565632126911
30
0
41
1
10
61.9357830955233
20
-3.60426575379114
30
0
41
1
10
62.0460572207777
20
-3.29979551380691
30
0
41
1
10
62.3798094904793
20
-2.38915548086234
30
0
41
1
10
62.6061967774595
20
-1.78567238718051
30
0
41
1
10
62.8339822524747
20
-1.18406959152802
30
0
0
SPLINE
5
C1
100
AcDbEntity
8
1
62
256
6
ByLayer
370
18
48
1
60
0
100
AcDbSpline
70
4
71
3
72
8
73
4
40
0
40
0
40
0
40
0
40
1
40
1
40
1
40
1
41
1
10
62.8124088038123
20
1.10425958008489
30
0
41
1
10
62.8865298680745
20
0.901732818410267
30
0
41
1
10
62.9374232254615
20
0.698316456873073
30
0
41
1
10
62.9684594876701
20
0.494139586808899
30
0
0
SPLINE
5
C2
100
AcDbEntity
8
1
62
256
6
ByLayer
370
13
48
1
60
0
100
AcDbSpline
70
4
71
3
72
12
73
8
40
0
40
0
40
0
40
0
40
0.5
40
0.5
40
0.75
40
0.75
40
1
40
1
40
1
40
1
41
1
10
2.5051118100593
20
-4.34914016722678
30
0
41
1
10
2.50574919619368
20
-4.34538366317759
30
0
41
1
10
2.51733146266909
20
-4.34146158897244
30
0
41
1
10
2.54972490359734
20
-4.33609584008005
30
0
41
1
10
2.56329604096237
20
-4.3343535734524
30
0
41
1
10
2.59518536216137
20
-4.3312092321074
30
0
41
1
10
2.61329740006448
20
-4.32981272914171
30
0
41
1
10
2.63393976019265
20
-4.32864222486026
30
0
0
SPLINE
5
C3
100
AcDbEntity
8
1
62
256
6
ByLayer
370
18
48
1
60
0
100
AcDbSpline
70
4
71
3
72
42
73
38
40
0
40
0
40
0
40
0
40
0.125000000000004
40
0.125000000000004
40
0.187500000000003
40
0.187500000000003
40
0.250000000000003
40
0.250000000000003
40
0.499999999999992
40
0.499999999999992
40
0.562499999999993
40
0.562499999999993
40
0.624999999999994
40
0.624999999999994
40
0.749999999999996
40
0.749999999999996
40
0.812499999999998
40
0.812499999999998
40
0.843749999999998
40
0.843749999999998
40
0.859374999999998
40
0.859374999999998
40
0.867187499999996
40
0.867187499999996
40
0.874999999999994
40
0.874999999999994
40
0.882812499999992
40
0.882812499999992
40
0.886718749999992
40
0.886718749999992
40
0.890624999999993
40
0.890624999999993
40
0.906249999999994
40
0.906249999999994
40
0.937499999999996
40
0.937499999999996
40
1
40
1
40
1
40
1
41
1
10
56.6196024060211
20
1.97989474404187
30
0
41
1
10
56.8087513774769
20
1.79373370749619
30
0
41
1
10
57.0045699507339
20
1.61939425885379
30
0
41
1
10
57.3080628396731
20
1.3751931880505
30
0
41
1
10
57.4108654154924
20
1.29669661244685
30
0
41
1
10
57.6198042862064
20
1.14561233770166
30
0
41
1
10
57.7263221991604
20
1.07278876180447
30
0
41
1
10
58.2617100863021
20
0.727839076682329
30
0
41
1
10
58.6993165579183
20
0.511697574202316
30
0
41
1
10
59.2594424420982
20
0.325930097649462
30
0
41
1
10
59.3721342330617
20
0.293066080946488
30
0
41
1
10
59.5989824382081
20
0.236762495219551
30
0
41
1
10
59.7133492060776
20
0.213315818156474
30
0
41
1
10
60.0534981690898
20
0.159704228456178
30
0
41
1
10
60.2780970944145
20
0.145959307464835
30
0
41
1
10
60.6102170303726
20
0.165448337551368
30
0
41
1
10
60.7194835254975
20
0.17858286187473
30
0
41
1
10
60.8804001717031
20
0.209084147052749
30
0
41
1
10
60.9335193299753
20
0.221050073924516
30
0
41
1
10
61.0122930753344
20
0.241810227377528
30
0
41
1
10
61.0383928321482
20
0.249196939415924
30
0
41
1
10
61.0772933414884
20
0.260991862881724
30
0
41
1
10
61.0902169332409
20
0.265042152045936
30
0
41
1
10
61.1159766824555
20
0.273382618865952
30
0
41
1
10
61.1290146958006
20
0.277231779401831
30
0
41
1
10
61.1541867264579
20
0.286824543740522
30
0
41
1
10
61.1660687741001
20
0.294015063258115
30
0
41
1
10
61.179353691202
20
0.310608836519719
30
0
41
1
10
61.1830843358657
20
0.317141968970276
30
0
41
1
10
61.1879863179992
20
0.331637316390839
30
0
41
1
10
61.1889834449266
20
0.33983252520369
30
0
41
1
10
61.1937656329191
20
0.380573447001581
30
0
41
1
10
61.1972958242338
20
0.413282828544453
30
0
41
1
10
61.2064347704002
20
0.511944529134809
30
0
41
1
10
61.2108583443991
20
0.578214927759348
30
0
41
1
10
61.2196379866239
20
0.778360570875833
30
0
41
1
10
61.2194927565365
20
0.91389852015817
30
0
41
1
10
61.2145247205369
20
1.04937550432501
30
0
0
SPLINE
5
C4
100
AcDbEntity
8
1
62
256
6
ByLayer
370
13
48
1
60
0
100
AcDbSpline
70
4
71
3
72
8
73
4
40
0
40
0
40
0
40
0
40
1
40
1
40
1
40
1
41
1
10
2.63141763524172
20
-4.44524676274466
30
0
41
1
10
2.63225019387971
20
-4.4063820245573
30
0
41
1
10
2.63309088847444
20
-4.36751389325929
30
0
41
1
10
2.63393976019262
20
-4.32864222486023
30
0
0
SPLINE
5
C5
100
AcDbEntity
8
1
62
256
6
ByLayer
370
18
48
1
60
0
100
AcDbSpline
70
4
71
3
72
16
73
12
40
0
40
0
40
0
40
0
40
0.14252894313057
40
0.14252894313057
40
0.411959921319379
40
0.411959921319379
40
0.546675410413785
40
0.546675410413785
40
0.681390899508192
40
0.681390899508192
40
1
40
1
40
1
40
1
41
1
10
20.0831952380548
20
-0.0006261276725752
30
0
41
1
10
20.4048609907898
20
-0.178464486963463
30
0
41
1
10
20.7262200998594
20
-0.356165108040187
30
0
41
1
10
21.6556020974293
20
-0.866763312593235
30
0
41
1
10
22.2639660747072
20
-1.19721618391023
30
0
41
1
10
23.1820337002798
20
-1.67896906700733
30
0
41
1
10
23.4892172336352
20
-1.83730952857388
30
0
41
1
10
24.1053638321807
20
-2.14730444300073
30
0
41
1
10
24.4121159472491
20
-2.29789582733145
30
0
41
1
10
25.4412989985399
20
-2.7879483767783
30
0
41
1
10
26.1597258480354
20
-3.10433692684043
30
0
41
1
10
26.8783418273492
20
-3.38591045662264
30
0
0
SPLINE
5
C6
100
AcDbEntity
8
1
62
256
6
ByLayer
370
13
48
1
60
0
100
AcDbSpline
70
4
71
3
72
20
73
16
40
0
40
0
40
0
40
0
40
0.177751286626886
40
0.177751286626886
40
0.286471109650853
40
0.286471109650853
40
0.395190932674819
40
0.395190932674819
40
0.612630578722752
40
0.612630578722752
40
0.721350401746719
40
0.721350401746719
40
0.830070224770686
40
0.830070224770686
40
1
40
1
40
1
40
1
41
1
10
26.8783418271829
20
-3.3859104565575
30
0
41
1
10
27.3751174104992
20
-3.58056081020013
30
0
41
1
10
27.8719833768147
20
-3.7585734597354
30
0
41
1
10
28.6756139121017
20
-4.01504140700112
30
0
41
1
10
28.9812753629624
20
-4.10530244614543
30
0
41
1
10
29.5947728810171
20
-4.27065586227499
30
0
41
1
10
29.9031563614461
20
-4.34587227138982
30
0
41
1
10
30.8264856993997
20
-4.54589226205223
30
0
41
1
10
31.4408587704288
20
-4.64549714229511
30
0
41
1
10
32.3650897055539
20
-4.74157804686965
30
0
41
1
10
32.6728722382424
20
-4.76462533078444
30
0
41
1
10
33.2887049077029
20
-4.79263040956852
30
0
41
1
10
33.5970363869356
20
-4.79755433989479
30
0
41
1
10
34.3832605533121
20
-4.7869298249681
30
0
41
1
10
34.860041701972
20
-4.75841990318108
30
0
41
1
10
35.3356364349552
20
-4.70869852070999
30
0
0
SPLINE
5
C7
100
AcDbEntity
8
1
62
256
6
ByLayer
370
18
48
1
60
0
100
AcDbSpline
70
4
71
3
72
30
73
26
40
0
40
0
40
0
40
0
40
0.062500000000002
40
0.062500000000002
40
0.125000000000004
40
0.125000000000004
40
0.187500000000006
40
0.187500000000006
40
0.250000000000008
40
0.250000000000008
40
0.375000000000012
40
0.375000000000012
40
0.437500000000014
40
0.437500000000014
40
0.500000000000016
40
0.500000000000016
40
0.562500000000018
40
0.562500000000018
40
0.62500000000002
40
0.62500000000002
40
0.750000000000013
40
0.750000000000013
40
0.875000000000007
40
0.875000000000007
40
1
40
1
40
1
40
1
41
1
10
62.1301602158211
20
-1.3376646037552
30
0
41
1
10
62.1330447759997
20
-1.3662320367813
30
0
41
1
10
62.1337958422834
20
-1.39795545033613
30
0
41
1
10
62.130762956756
20
-1.46452356656749
30
0
41
1
10
62.127054522478
20
-1.49954662144674
30
0
41
1
10
62.115186709071
20
-1.57332474933364
30
0
41
1
10
62.1070582068074
20
-1.61158823120584
30
0
41
1
10
62.0873554949286
20
-1.68784378862335
30
0
41
1
10
62.0755436369843
20
-1.72673141736581
30
0
41
1
10
62.0362507736564
20
-1.84029407474597
30
0
41
1
10
62.0045657539382
20
-1.91310307370452
30
0
41
1
10
61.9538766522607
20
-2.01040978283348
30
0
41
1
10
61.9362342635465
20
-2.0412966166565
30
0
41
1
10
61.9004364616665
20
-2.09857034301086
30
0
41
1
10
61.8823635080845
20
-2.1248721822127
30
0
41
1
10
61.8458269180443
20
-2.17320119060074
30
0
41
1
10
61.8272366528945
20
-2.19534491766618
30
0
41
1
10
61.7904369694865
20
-2.23452666892896
30
0
41
1
10
61.7721852598701
20
-2.2516553277172
30
0
41
1
10
61.7177198312698
20
-2.29606121355496
30
0
41
1
10
61.6816573740401
20
-2.3162759823374
30
0
41
1
10
61.6132798667597
20
-2.33667458318379
30
0
41
1
10
61.5800503519902
20
-2.33711599725089
30
0
41
1
10
61.5189833820091
20
-2.3179395678155
30
0
41
1
10
61.4908729909403
20
-2.29862063439461
30
0
41
1
10
61.4657792931994
20
-2.26840294937884
30
0
0
SPLINE
5
C8
100
AcDbEntity
8
1
62
256
6
ByLayer
370
13
48
1
60
0
100
AcDbSpline
70
4
71
3
72
31
73
27
40
0
40
0
40
0
40
0
40
0.125
40
0.125
40
0.25
40
0.25
40
0.312500000000001
40
0.312500000000001
40
0.375000000000001
40
0.375000000000001
40
0.5
40
0.5
40
0.5625
40
0.5625
40
0.625
40
0.625
40
0.75
40
0.75
40
0.8125
40
0.8125
40
0.875
40
0.9375
40
0.9375
40
0.96875
40
0.96875
40
1
40
1
40
1
40
1
41
1
10
2.75541551591209
20
-4.20200953806929
30
0
41
1
10
2.75549509284073
20
-4.04995366545046
30
0
41
1
10
2.75556444201914
20
-3.86557483721913
30
0
41
1
10
2.75569078047579
20
-3.43230019906247
30
0
41
1
10
2.75574603305898
20
-3.18940945584728
30
0
41
1
10
2.75582308415022
20
-2.78882444212542
30
0
41
1
10
2.75584779634863
20
-2.64911446055328
30
0
41
1
10
2.75589614177019
20
-2.35691045367429
30
0
41
1
10
2.75591950950658
20
-2.20598492287195
30
0
41
1
10
2.75598764618212
20
-1.74421847948378
30
0
41
1
10
2.75603089138673
20
-1.42242307898684
30
0
41
1
10
2.75609555446897
20
-0.918256146062475
30
0
41
1
10
2.75611693381961
20
-0.747470984290828
30
0
41
1
10
2.75615902442823
20
-0.404627289886008
30
0
41
1
10
2.75617990425275
20
-0.231186423094698
30
0
41
1
10
2.75624093049788
20
0.286209611035361
30
0
41
1
10
2.75627959160045
20
0.627118843884006
30
0
41
1
10
2.75633240007943
20
1.13248505508554
30
0
41
1
10
2.75634916054054
20
1.30062110624212
30
0
41
1
10
2.75637942611442
20
1.62700338744259
30
0
41
1
10
2.75640663420916
20
1.94526029101962
30
0
41
1
10
2.7564262753063
20
2.24762677808229
30
0
41
1
10
2.75643743570441
20
2.46836075458188
30
0
41
1
10
2.75644055870396
20
2.54092970610907
30
0
41
1
10
2.75644545967833
20
2.6840075511719
30
0
41
1
10
2.75644723726606
20
2.75469691760034
30
0
41
1
10
2.75644824984974
20
2.82351717916049
30
0
0
SPLINE
5
C9
100
AcDbEntity
8
1
62
256
6
ByLayer
370
18
48
1
60
0
100
AcDbSpline
70
4
71
3
72
8
73
4
40
0
40
0
40
0
40
0
40
1
40
1
40
1
40
1
41
1
10
61.5052842639979
20
4.82614198047415
30
0
41
1
10
61.4392072998919
20
4.89778324682263
30
0
41
1
10
61.371760869157
20
4.94030899159139
30
0
41
1
10
61.3021948823307
20
4.95503863420069
30
0
0
SPLINE
5
CA
100
AcDbEntity
8
1
62
256
6
ByLayer
370
18
48
1
60
0
100
AcDbSpline
70
4
71
3
72
14
73
10
40
0
40
0
40
0
40
0
40
0.25
40
0.25
40
0.5
40
0.5
40
0.75
40
0.75
40
1
40
1
40
1
40
1
41
1
10
2.63141763524169
20
-4.44524676274537
30
0
41
1
10
2.61243732287815
20
-4.44058853609096
30
0
41
1
10
2.59526517713112
20
-4.43495040008446
30
0
41
1
10
2.5644286632585
20
-4.42167879725554
30
0
41
1
10
2.5508848055303
20
-4.41403091239391
30
0
41
1
10
2.52896001602065
20
-4.39746543432352
30
0
41
1
10
2.52028205697647
20
-4.38830861080226
30
0
41
1
10
2.50859440807068
20
-4.36930354387493
30
0
41
1
10
2.50543953895254
20
-4.35937841628049
30
0
41
1
10
2.5051118100593
20
-4.34914016722647
30
0
0
SPLINE
5
CB
100
AcDbEntity
8
1
62
256
6
ByLayer
370
18
48
1
60
0
100
AcDbSpline
70
4
71
3
72
40
73
36
40
0
40
0
40
0
40
0
40
0.101020274553719
40
0.101020274553719
40
0.151530411830579
40
0.151530411830579
40
0.202040549107439
40
0.202040549107439
40
0.252550686384298
40
0.252550686384298
40
0.303060823661158
40
0.303060823661158
40
0.353570960938018
40
0.353570960938018
40
0.404081098214877
40
0.404081098214877
40
0.454591235491737
40
0.454591235491737
40
0.505101372768597
40
0.505101372768597
40
0.606121647322316
40
0.606121647322316
40
0.656631784599175
40
0.656631784599175
40
0.707141921876034
40
0.707141921876034
40
0.757652059152893
40
0.757652059152893
40
0.808162196429752
40
0.808162196429752
40
0.858672333706612
40
0.858672333706612
40
0.909182470983471
40
0.909182470983471
40
1
40
1
40
1
40
1
41
1
10
11.8342649408653
20
-2.93592880795316
30
0
41
1
10
12.3043686263999
20
-3.13440707954652
30
0
41
1
10
12.7717682816794
20
-3.31730555367057
30
0
41
1
10
13.469964087595
20
-3.57046154165715
30
0
41
1
10
13.7021462413297
20
-3.65114072522559
30
0
41
1
10
14.1662341095747
20
-3.80353475059988
30
0
41
1
10
14.3982148346981
20
-3.87529217590776
30
0
41
1
10
14.8620836373509
20
-4.01103658249315
30
0
41
1
10
15.0939385540687
20
-4.0750867543116
30
0
41
1
10
15.5574716423125
20
-4.19342765426373
30
0
41
1
10
15.7891549291729
20
-4.24804696531436
30
0
41
1
10
16.2535737088411
20
-4.34813721347902
30
0
41
1
10
16.4862079559641
20
-4.39383890733112
30
0
41
1
10
16.9521695257699
20
-4.47640986511507
30
0
41
1
10
17.1855122533863
20
-4.51243189067938
30
0
41
1
10
17.6531970942032
20
-4.57429657900829
30
0
41
1
10
17.8879474198679
20
-4.60031484047747
30
0
41
1
10
18.3578940890296
20
-4.64299973947394
30
0
41
1
10
18.5927364007387
20
-4.66018999642375
30
0
41
1
10
19.2960141178707
20
-4.69340785840544
30
0
41
1
10
19.7634460956035
20
-4.69278941997899
30
0
41
1
10
20.467040105789
20
-4.66591611662528
30
0
41
1
10
20.7017365313997
20
-4.65158707298633
30
0
41
1
10
21.171596164275
20
-4.61097453427754
30
0
41
1
10
21.4062834253661
20
-4.58550674625806
30
0
41
1
10
21.8752619343368
20
-4.52552358545341
30
0
41
1
10
22.1098012893279
20
-4.49136201618646
30
0
41
1
10
22.5786373580836
20
-4.41257011419404
30
0
41
1
10
22.8128798501277
20
-4.36729528090243
30
0
41
1
10
23.281419070031
20
-4.26745454020079
30
0
41
1
10
23.5156505045309
20
-4.21271872599075
30
0
41
1
10
23.9852211451655
20
-4.09555320451054
30
0
41
1
10
24.220711418869
20
-4.03299044575536
30
0
41
1
10
24.8761576886357
20
-3.84347350983174
30
0
41
1
10
25.2946054504962
20
-3.70688114849799
30
0
41
1
10
25.7126038443611
20
-3.56007383427263
30
0
0
SPLINE
5
CC
100
AcDbEntity
8
1
62
256
6
ByLayer
370
18
48
1
60
0
100
AcDbSpline
70
4
71
3
72
30
73
26
40
0
40
0
40
0
40
0
40
0.0108800799788066
40
0.0108800799788066
40
0.0815315028374625
40
0.0815315028374625
40
0.152182925696119
40
0.152182925696119
40
0.222834348554775
40
0.222834348554775
40
0.293485771413432
40
0.293485771413432
40
0.434788617130744
40
0.434788617130744
40
0.576091462848056
40
0.576091462848056
40
0.717394308565369
40
0.717394308565369
40
0.788045731424027
40
0.788045731424027
40
0.858697154282684
40
0.858697154282684
40
0.929348577141342
40
0.929348577141342
40
1
40
1
40
1
40
1
41
1
10
46.7162739381379
20
4.70280695273573
30
0
41
1
10
46.7522975727932
20
4.70291111415645
30
0
41
1
10
46.7883223475591
20
4.70289740784935
30
0
41
1
10
47.0583049464025
20
4.70192677266439
30
0
41
1
10
47.2924561797789
20
4.69663567909453
30
0
41
1
10
47.7608717279924
20
4.67514925730728
30
0
41
1
10
47.9951276006573
20
4.65876906426251
30
0
41
1
10
48.4639829432829
20
4.61593771077571
30
0
41
1
10
48.6987482507361
20
4.58943876654391
30
0
41
1
10
49.1671819705956
20
4.52864919728944
30
0
41
1
10
49.4008482805315
20
4.49340495269308
30
0
41
1
10
50.0997584671267
20
4.37105047921975
30
0
41
1
10
50.5628915276767
20
4.26862957339023
30
0
41
1
10
51.4896430122288
20
4.03034157884792
30
0
41
1
10
51.9527299602994
20
3.89442503081185
30
0
41
1
10
52.8793205595508
20
3.59056087491581
30
0
41
1
10
53.3440742555249
20
3.42239992416103
30
0
41
1
10
54.0437784675858
20
3.14612754165196
30
0
41
1
10
54.2773529928745
20
3.05006861666587
30
0
41
1
10
54.7461464598444
20
2.85110430612392
30
0
41
1
10
54.9810579109751
20
2.74847678283084
30
0
41
1
10
55.4498139376589
20
2.53794333251795
30
0
41
1
10
55.6839479624453
20
2.42990787447047
30
0
41
1
10
56.1518602434102
20
2.20863026369361
30
0
41
1
10
56.385562186537
20
2.09522422835909
30
0
41
1
10
56.6196024060204
20
1.97989474404128
30
0
0
SPLINE
5
CD
100
AcDbEntity
8
1
62
256
6
ByLayer
370
18
48
1
60
0
100
AcDbSpline
70
4
71
3
72
8
73
4
40
0
40
0
40
0
40
0
40
1
40
1
40
1
40
1
41
1
10
61.4657792931995
20
-2.26840294937884
30
0
41
1
10
61.1543284858552
20
-2.69189740756695
30
0
41
1
10
60.8365035123551
20
-3.10852702328873
30
0
41
1
10
60.5144832608776
20
-3.52014108337264
30
0
0
SPLINE
5
CE
100
AcDbEntity
8
1
62
256
6
ByLayer
370
18
48
1
60
0
100
AcDbSpline
70
4
71
3
72
14
73
10
40
0
40
0
40
0
40
0
40
0.355746590158192
40
0.355746590158192
40
0.533619885237291
40
0.533619885237291
40
0.71149318031639
40
0.71149318031639
40
1
40
1
40
1
40
1
41
1
10
61.3716711060017
20
-4.71036356686386
30
0
41
1
10
60.7578388328046
20
-4.72105239729501
30
0
41
1
10
60.1459710698527
20
-4.69597921904008
30
0
41
1
10
59.2269964640274
20
-4.60601799313363
30
0
41
1
10
58.9204725351885
20
-4.56731666739611
30
0
41
1
10
58.3061629601333
20
-4.47270054439517
30
0
41
1
10
57.9984710085133
20
-4.41674685259062
30
0
41
1
10
57.1963880887415
20
-4.24950065891744
30
0
41
1
10
56.7029659340123
20
-4.12516712304574
30
0
41
1
10
56.2106869346678
20
-3.98188595294113
30
0
0
SPLINE
5
CF
100
AcDbEntity
8
1
62
256
6
ByLayer
370
13
48
1
60
0
100
AcDbSpline
70
4
71
3
72
26
73
22
40
0
40
0
40
0
40
0
40
0.173577776530232
40
0.173577776530232
40
0.319562896024896
40
0.319562896024896
40
0.356059175898563
40
0.356059175898563
40
0.392555455772229
40
0.392555455772229
40
0.465548015519561
40
0.465548015519561
40
0.75751825450889
40
0.75751825450889
40
0.830510814256222
40
0.830510814256222
40
0.867007094129889
40
0.867007094129889
40
0.903503374003555
40
0.903503374003555
40
1
40
1
40
1
40
1
41
1
10
56.2106865042956
20
-3.98188582767838
30
0
41
1
10
55.4889452958665
20
-3.77181809554995
30
0
41
1
10
54.7696613155526
20
-3.5210221492919
30
0
41
1
10
53.4406153350049
20
-2.99548993536189
30
0
41
1
10
52.8315879812695
20
-2.73088152611342
30
0
41
1
10
52.0642627324629
20
-2.37403964521693
30
0
41
1
10
51.910306611876
20
-2.3012861375241
30
0
41
1
10
51.6033033184104
20
-2.15412268722568
30
0
41
1
10
51.4501091994169
20
-2.07964681380341
30
0
41
1
10
50.9912925007964
20
-1.85382680141765
30
0
41
1
10
50.6864314055339
20
-1.70009744423629
30
0
41
1
10
49.165355463768
20
-0.918983054798616
30
0
41
1
10
47.958965241603
20
-0.253838319500261
30
0
41
1
10
46.4339357034987
20
0.571737494318853
30
0
41
1
10
46.1280738771326
20
0.736545454577481
30
0
41
1
10
45.6673290716254
20
0.982059904405673
30
0
41
1
10
45.5133144621608
20
1.06365284478142
30
0
41
1
10
45.2063095474855
20
1.22529449197211
30
0
41
1
10
45.0531250160889
20
1.3054803972386
30
0
41
1
10
44.4958013142272
20
1.59486725305368
30
0
41
1
10
44.092999766252
20
1.79916098141891
30
0
41
1
10
43.6910300391634
20
1.99664881433776
30
0
0
SPLINE
5
D0
100
AcDbEntity
8
1
62
256
6
ByLayer
370
18
48
1
60
0
100
AcDbSpline
70
4
71
3
72
14
73
10
40
0
40
0
40
0
40
0
40
0.0592656540658179
40
0.0592656540658179
40
0.294449240549363
40
0.294449240549363
40
0.529632827032907
40
0.529632827032907
40
1
40
1
40
1
40
1
41
1
10
6.67327462618601
20
-4.6788436327312
30
0
41
1
10
6.59630396263395
20
-4.67871645388314
30
0
41
1
10
6.5192835884003
20
-4.67803346328606
30
0
41
1
10
6.13634662591005
20
-4.67186681583576
30
0
41
1
10
5.8296044779799
20
-4.65813904118667
30
0
41
1
10
5.21364674182249
20
-4.6129866367086
30
0
41
1
10
4.90612171579562
20
-4.58168336174504
30
0
41
1
10
3.98450603190463
20
-4.46224275896012
30
0
41
1
10
3.37097482469227
20
-4.34858874717489
30
0
41
1
10
2.75541551591215
20
-4.20200953806932
30
0
0
SPLINE
5
D1
100
AcDbEntity
8
1
62
256
6
ByLayer
370
18
48
1
60
0
100
AcDbSpline
70
4
71
3
72
16
73
12
40
0
40
0
40
0
40
0
40
0.189363040473137
40
0.189363040473137
40
0.384180816170671
40
0.384180816170671
40
0.773816367565745
40
0.773816367565745
40
0.968634143263283
40
0.968634143263283
40
1
40
1
40
1
40
1
41
1
10
33.9048974166536
20
-4.69576503209862
30
0
41
1
10
33.606838294391
20
-4.6958663479551
30
0
41
1
10
33.3074091185842
20
-4.68756960005499
30
0
41
1
10
32.7007473583934
20
-4.65377325225219
30
0
41
1
10
32.3932318289257
20
-4.6278173091294
30
0
41
1
10
31.469829221227
20
-4.52369680297636
30
0
41
1
10
30.8560159052639
20
-4.41971163849493
30
0
41
1
10
29.933488721337
20
-4.21462794366036
30
0
41
1
10
29.6254293434679
20
-4.13800239877432
30
0
41
1
10
29.2696125753142
20
-4.04068787603799
30
0
41
1
10
29.2202971276295
20
-4.02700286092232
30
0
41
1
10
29.1710071985564
20
-4.01312996373699
30
0
0
SPLINE
5
D2
100
AcDbEntity
8
1
62
256
6
ByLayer
370
13
48
1
60
0
100
AcDbSpline
70
4
71
3
72
26
73
22
40
0
40
0
40
0
40
0
40
0.0614650948365538
40
0.0614650948365538
40
0.354505228756507
40
0.354505228756507
40
0.427765262236494
40
0.427765262236494
40
0.501025295716482
40
0.501025295716482
40
0.647545362676454
40
0.647545362676454
40
0.794065429636427
40
0.794065429636427
40
0.867325463116413
40
0.867325463116413
40
0.903955479856405
40
0.903955479856405
40
0.940585496596397
40
0.940585496596397
40
1
40
1
40
1
40
1
41
1
10
29.1710071987918
20
-4.01312996380321
30
0
41
1
10
28.9141504018443
20
-3.94083633298939
30
0
41
1
10
28.6579865882163
20
-3.86344057741346
30
0
41
1
10
27.183169691649
20
-3.38934894641332
30
0
41
1
10
25.9741545537372
20
-2.88858651390464
30
0
41
1
10
24.4458715081327
20
-2.16758431432712
30
0
41
1
10
24.1393155765591
20
-2.01870674505273
30
0
41
1
10
23.5236438603149
20
-1.71267978192469
30
0
41
1
10
23.2168200588605
20
-1.55660781861295
30
0
41
1
10
22.2994925412498
20
-1.08213377888529
30
0
41
1
10
21.6914409294397
20
-0.757407916938604
30
0
41
1
10
20.4763872461343
20
-0.102319101438667
30
0
41
1
10
19.8694527000571
20
0.22816150438905
30
0
41
1
10
18.9552021173695
20
0.719376559730335
30
0
41
1
10
18.6498469512101
20
0.882430935005658
30
0
41
1
10
18.1903202335614
20
1.12487853952126
30
0
41
1
10
18.0368876171896
20
1.20532418792339
30
0
41
1
10
17.729410761584
20
1.36529042817179
30
0
41
1
10
17.5753069795753
20
1.44483941066372
30
0
41
1
10
17.1725428079592
20
1.65082764681338
30
0
41
1
10
16.9241434062099
20
1.77595626281962
30
0
41
1
10
16.6762967865176
20
1.89847683943154
30
0
0
SPLINE
5
D3
100
AcDbEntity
8
1
62
256
6
ByLayer
370
18
48
1
60
0
100
AcDbSpline
70
4
71
3
72
8
73
4
40
0
40
0
40
0
40
0
40
1
40
1
40
1
40
1
41
1
10
2.50511181005936
20
-4.34914016722615
30
0
41
1
10
2.50510017310495
20
-4.34877662882678
30
0
41
1
10
2.50509435275904
20
-4.348412880724
30
0
41
1
10
2.50509435474166
20
-4.34804898438512
30
0
0
SPLINE
5
D4
100
AcDbEntity
8
1
62
256
6
ByLayer
370
18
48
1
60
0
100
AcDbSpline
70
4
71
3
72
8
73
4
40
0
40
0
40
0
40
0
40
1
40
1
40
1
40
1
41
1
10
62.9684594876701
20
-0.494139586809297
30
0
41
1
10
62.9826348113282
20
-0.364548826928882
30
0
41
1
10
62.9911829803551
20
-0.235011547951132
30
0
41
1
10
62.9927315056253
20
-0.105540794116393
30
0
0
SPLINE
5
D5
100
AcDbEntity
8
1
62
256
6
ByLayer
370
18
48
1
60
0
100
AcDbSpline
70
4
71
3
72
57
73
53
40
0
40
0
40
0
40
0
40
0.0312500000000059
40
0.0312500000000059
40
0.0625000000000118
40
0.0625000000000118
40
0.0781250000000148
40
0.0781250000000148
40
0.0937500000000177
40
0.0937500000000177
40
0.125000000000024
40
0.125000000000024
40
0.15625000000003
40
0.15625000000003
40
0.171875000000033
40
0.171875000000033
40
0.187500000000035
40
0.187500000000035
40
0.203125000000038
40
0.203125000000038
40
0.218750000000041
40
0.218750000000041
40
0.250000000000048
40
0.250000000000048
40
0.281250000000055
40
0.281250000000055
40
0.296875000000058
40
0.296875000000058
40
0.30468750000006
40
0.30468750000006
40
0.30859375000006
40
0.30859375000006
40
0.312500000000061
40
0.312500000000061
40
0.320312500000061
40
0.320312500000061
40
0.328125000000061
40
0.328125000000061
40
0.34375000000006
40
0.375000000000057
40
0.375000000000057
40
0.500000000000046
40
0.500000000000046
40
0.625000000000034
40
0.625000000000034
40
0.687500000000029
40
0.687500000000029
40
0.750000000000023
40
0.750000000000023
40
0.875000000000011
40
0.875000000000011
40
1
40
1
40
1
40
1
41
1
10
2.50510732638452
20
2.83485766415271
30
0
41
1
10
2.42423505619084
20
2.9216653213017
30
0
41
1
10
2.34899285413104
20
3.00945064859331
30
0
41
1
10
2.21413930476598
20
3.1881966121629
30
0
41
1
10
2.15433921967411
20
3.27969678018923
30
0
41
1
10
2.08438473807058
20
3.41576106074285
30
0
41
1
10
2.06425528892717
20
3.46107491278517
30
0
41
1
10
2.0314534520229
20
3.55169219230155
30
0
41
1
10
2.01872779924165
20
3.59734118304686
30
0
41
1
10
1.9943842363939
20
3.73161059141205
30
0
41
1
10
1.99640881705537
20
3.81711408067491
30
0
41
1
10
2.04133928734808
20
3.97959666056255
30
0
41
1
10
2.08301730118842
20
4.05250684827365
30
0
41
1
10
2.1701267510723
20
4.1519173497955
30
0
41
1
10
2.20318591840248
20
4.18319508535194
30
0
41
1
10
2.27480191883632
20
4.24135746090124
30
0
41
1
10
2.3135565875229
20
4.26846442316472
30
0
41
1
10
2.39608191713342
20
4.31941418139687
30
0
41
1
10
2.43985220693273
20
4.34325580748728
30
0
41
1
10
2.53177023041474
20
4.38817901996916
30
0
41
1
10
2.57995059540238
20
4.4092482224915
30
0
41
1
10
2.72790636612166
20
4.46805064826472
30
0
41
1
10
2.83182369355461
20
4.50184474927937
30
0
41
1
10
3.04742746487346
20
4.56200499885335
30
0
41
1
10
3.15914226376026
20
4.58833683540064
30
0
41
1
10
3.33136328233886
20
4.62371313178224
30
0
41
1
10
3.38960422481824
20
4.634819871834
30
0
41
1
10
3.47783005949742
20
4.65053766413513
30
0
41
1
10
3.50737289452371
20
4.65561816161937
30
0
41
1
10
3.55187816967725
20
4.66301771713952
30
0
41
1
10
3.56640152249946
20
4.66566177729416
30
0
41
1
10
3.59775852951083
20
4.669472875091
30
0
41
1
10
3.61414648205869
20
4.67071619592048
30
0
41
1
10
3.66265921723459
20
4.67309081562877
30
0
41
1
10
3.69522003617198
20
4.67250888552684
30
0
41
1
10
3.76030957218907
20
4.67166456290494
30
0
41
1
10
3.79286014240591
20
4.6712112085213
30
0
41
1
10
3.89050169233624
20
4.66975731365028
30
0
41
1
10
4.08570251726476
20
4.66647463692621
30
0
41
1
10
4.28065817467825
20
4.66205505145666
30
0
41
1
10
4.9299713975326
20
4.6446991945383
30
0
41
1
10
5.44608032157095
20
4.6225696487387
30
0
41
1
10
6.46880331287693
20
4.55754974552411
30
0
41
1
10
6.97592448873786
20
4.51459599582736
30
0
41
1
10
7.7307525781921
20
4.4293360046006
30
0
41
1
10
7.98121582376285
20
4.3974279084577
30
0
41
1
10
8.47771560180078
20
4.32615239290416
30
0
41
1
10
8.72408215961246
20
4.28674918309321
30
0
41
1
10
9.45798536110428
20
4.15617514315835
30
0
41
1
10
9.94028059647121
20
4.05253547814908
30
0
41
1
10
10.894227130332
20
3.8080604904938
30
0
41
1
10
11.3658765560501
20
3.66718504939078
30
0
41
1
10
11.8342649408653
20
3.50710708638249
30
0
0
SPLINE
5
D6
100
AcDbEntity
8
1
62
256
6
ByLayer
370
18
48
1
60
0
100
AcDbSpline
70
4
71
3
72
44
73
40
40
0
40
0
40
0
40
0
40
0.062499999999999
40
0.062499999999999
40
0.124999999999998
40
0.124999999999998
40
0.187499999999997
40
0.187499999999997
40
0.249999999999996
40
0.249999999999996
40
0.312499999999995
40
0.312499999999995
40
0.343749999999998
40
0.343749999999998
40
0.375
40
0.375
40
0.406250000000003
40
0.406250000000003
40
0.421875000000004
40
0.421875000000004
40
0.437500000000006
40
0.437500000000006
40
0.468750000000008
40
0.468750000000008
40
0.500000000000011
40
0.500000000000011
40
0.531250000000013
40
0.531250000000013
40
0.562500000000016
40
0.562500000000016
40
0.625000000000013
40
0.625000000000013
40
0.687500000000011
40
0.687500000000011
40
0.750000000000009
40
0.750000000000009
40
0.875000000000004
40
0.875000000000004
40
1
40
1
40
1
40
1
41
1
10
61.4657792931995
20
-2.26840294937884
30
0
41
1
10
61.3916138431742
20
-2.24056504522542
30
0
41
1
10
61.3173512864352
20
-2.20959489162195
30
0
41
1
10
61.1707711220624
20
-2.14203149140326
30
0
41
1
10
61.0982222822859
20
-2.10536709572418
30
0
41
1
10
60.9547621937799
20
-2.02566970430402
30
0
41
1
10
60.8838462509389
20
-1.98265496398727
30
0
41
1
10
60.7440122691078
20
-1.88885562493266
30
0
41
1
10
60.6746670798534
20
-1.83777781210534
30
0
41
1
10
60.5409942802326
20
-1.72646147747557
30
0
41
1
10
60.4767768588029
20
-1.66660354940066
30
0
41
1
10
60.387046537545
20
-1.56623969798864
30
0
41
1
10
60.3580280022577
20
-1.53068187782361
30
0
41
1
10
60.3045557236416
20
-1.45559284918875
30
0
41
1
10
60.2802430295954
20
-1.41642380379378
30
0
41
1
10
60.2393977209896
20
-1.33287041843494
30
0
41
1
10
60.2227149508657
20
-1.2877129312848
30
0
41
1
10
60.2105560151684
20
-1.21932709218822
30
0
41
1
10
60.2086870749488
20
-1.19636171882721
30
0
41
1
10
60.2101016874711
20
-1.15243164205859
30
0
41
1
10
60.2134353514286
20
-1.13084385518803
30
0
41
1
10
60.2307919342545
20
-1.07117209776345
30
0
41
1
10
60.2521621969632
20
-1.03787709440442
30
0
41
1
10
60.3038753882524
20
-0.985324824648018
30
0
41
1
10
60.3345562724736
20
-0.965191884400269
30
0
41
1
10
60.3986859904194
20
-0.933878167172821
30
0
41
1
10
60.432772157184
20
-0.92233557364915
30
0
41
1
10
60.5028313959334
20
-0.904873562441338
30
0
41
1
10
60.5384609240047
20
-0.899044504862331
30
0
41
1
10
60.646583976756
20
-0.887528846713508
30
0
41
1
10
60.7202911541581
20
-0.887713068053785
30
0
41
1
10
60.8697174852458
20
-0.89781407609695
30
0
41
1
10
60.9447301881211
20
-0.907816641568559
30
0
41
1
10
61.0942231553613
20
-0.934737366500087
30
0
41
1
10
61.1688912006534
20
-0.951715795144167
30
0
41
1
10
61.3927032317365
20
-1.01126724353432
30
0
41
1
10
61.5416596781006
20
-1.06225166281553
30
0
41
1
10
61.8391167963985
20
-1.18466260730872
30
0
41
1
10
61.9861600922114
20
-1.25545683506664
30
0
41
1
10
62.1301602158209
20
-1.33766460375517
30
0
0
SPLINE
5
D7
100
AcDbEntity
8
SK1
62
256
6
ByLayer
370
18
48
1
60
0
100
AcDbSpline
70
4
71
3
72
14
73
10
40
0
40
0
40
0
40
0
40
0.125000000000001
40
0.125000000000001
40
0.250000000000003
40
0.250000000000003
40
0.5
40
0.5
40
1
40
1
40
1
40
1
41
1
10
-38.85
20
4.98330956490804
30
0
41
1
10
-38.85
20
4.9826641461045
30
0
41
1
10
-38.8517453396944
20
4.97897260420407
30
0
41
1
10
-38.8568901241517
20
4.96880948650431
30
0
41
1
10
-38.860211966304
20
4.96247527757302
30
0
41
1
10
-38.8714485682308
20
4.94134824731151
30
0
41
1
10
-38.8802054040538
20
4.92523005308416
30
0
41
1
10
-38.9082792076556
20
4.87404609015337
30
0
41
1
10
-38.9286347141248
20
4.83754326927732
30
0
41
1
10
-38.95
20
4.79980393787034
30
0
0
SPLINE
5
D8
100
AcDbEntity
8
SK1
62
256
6
ByLayer
370
18
48
1
60
0
100
AcDbSpline
70
4
71
3
72
10
73
6
40
0
40
0
40
0
40
0
40
0.5
40
0.5
40
1
40
1
40
1
40
1
41
1
10
-38.95
20
-4.79980393787034
30
0
41
1
10
-39.1280962163297
20
-4.48521736179157
30
0
41
1
10
-39.3053154317856
20
-4.17012615177367
30
0
41
1
10
-39.6562589046849
20
-3.53808949076946
30
0
41
1
10
-39.8300777059524
20
-3.2212211996324
30
0
41
1
10
-40
20
-2.90234927412038
30
0
0
SPLINE
5
D9
100
AcDbEntity
8
SK1
62
256
6
ByLayer
370
18
48
1
60
0
100
AcDbSpline
70
4
71
3
72
10
73
6
40
0
40
0
40
0
40
0
40
0.5
40
0.5
40
1
40
1
40
1
40
1
41
1
10
-40
20
2.46971269654978
30
0
41
1
10
-39.8300227795658
20
2.78868769554453
30
0
41
1
10
-39.6561954013189
20
3.10556808377962
30
0
41
1
10
-39.3052789843855
20
3.73755441115341
30
0
41
1
10
-39.1280838487607
20
4.05260263011567
30
0
41
1
10
-38.95
20
4.36716736029973
30
0
0
SPLINE
5
DA
100
AcDbEntity
8
SK1
62
256
6
ByLayer
370
18
48
1
60
0
100
AcDbSpline
70
4
71
3
72
14
73
10
40
0
40
0
40
0
40
0
40
0.124999999999998
40
0.124999999999998
40
0.249999999999996
40
0.249999999999996
40
0.499999999999997
40
0.499999999999997
40
1
40
1
40
1
40
1
41
1
10
-38.85
20
-4.98330956490804
30
0
41
1
10
-38.85
20
-4.9826641461045
30
0
41
1
10
-38.8517453396944
20
-4.97897260420407
30
0
41
1
10
-38.8568901241517
20
-4.96880948650431
30
0
41
1
10
-38.860211966304
20
-4.96247527757299
30
0
41
1
10
-38.8714485682308
20
-4.94134824731151
30
0
41
1
10
-38.8802054040538
20
-4.92523005308416
30
0
41
1
10
-38.9082792076556
20
-4.87404609015337
30
0
41
1
10
-38.9286347141248
20
-4.83754326927732
30
0
41
1
10
-38.95
20
-4.79980393787034
30
0
0
SPLINE
5
DB
100
AcDbEntity
8
SK1
62
256
6
ByLayer
370
18
48
1
60
0
100
AcDbSpline
70
4
71
3
72
14
73
10
40
0
40
0
40
0
40
0
40
0.499999999999997
40
0.499999999999997
40
0.749999999999999
40
0.749999999999999
40
0.874999999999999
40
0.874999999999999
40
1
40
1
40
1
40
1
41
1
10
-38.9500000000001
20
4.36716736029976
30
0
41
1
10
-38.9287234691649
20
4.40474991609011
30
0
41
1
10
-38.9083432483059
20
4.44340329292177
30
0
41
1
10
-38.880223151313
20
4.50204706224392
30
0
41
1
10
-38.8713218079587
20
4.52161894284387
30
0
41
1
10
-38.8602667834558
20
4.54886715461208
30
0
41
1
10
-38.8569157654531
20
4.55771813064655
30
0
41
1
10
-38.851744720606
20
4.57381387405809
30
0
41
1
10
-38.8499999999999
20
4.58091226191917
30
0
41
1
10
-38.8499999999999
20
4.58528391354321
30
0
0
SPLINE
5
DC
100
AcDbEntity
8
SK1
62
256
6
ByLayer
370
18
48
1
60
0
100
AcDbSpline
70
4
71
3
72
10
73
6
40
0
40
0
40
0
40
0
40
0.5
40
0.5
40
1
40
1
40
1
40
1
41
1
10
-38.95
20
4.79980393787034
30
0
41
1
10
-39.1280962163297
20
4.48521736179157
30
0
41
1
10
-39.3053154317856
20
4.17012615177367
30
0
41
1
10
-39.6562589046849
20
3.53808949076946
30
0
41
1
10
-39.8300777059524
20
3.2212211996324
30
0
41
1
10
-40
20
2.90234927412038
30
0
0
LINE
5
76
100
AcDbEntity
8
81
62
256
6
ByLayer
370
18
48
1
60
0
100
AcDbLine
10
63
20
0
30
0
11
68
21
0
31
0
39
0
210
0
220
0
230
1
0
LINE
5
77
100
AcDbEntity
8
1
62
256
6
ByLayer
370
18
48
1
60
0
100
AcDbLine
10
6.481745
20
4.92661
30
0
11
0.026016
21
4.922576
31
0
39
0
210
0
220
0
230
1
0
LINE
5
79
100
AcDbEntity
8
1
62
256
6
ByLayer
370
18
48
1
60
0
100
AcDbLine
10
33.681585
20
4.94361
30
0
11
32.285577
21
4.942738
31
0
39
0
210
0
220
0
230
1
0
LINE
5
7A
100
AcDbEntity
8
1
62
256
6
ByLayer
370
18
48
1
60
0
100
AcDbLine
10
60.882535
20
4.960611
30
0
11
59.481053
21
4.959735
31
0
39
0
210
0
220
0
230
1
0
LINE
5
7B
100
AcDbEntity
8
1
62
256
6
ByLayer
370
18
48
1
60
0
100
AcDbLine
10
59.481053
20
-4.959735
30
0
11
60.882677
21
-4.960611
31
0
39
0
210
0
220
0
230
1
0
LINE
5
7C
100
AcDbEntity
8
1
62
256
6
ByLayer
370
18
48
1
60
0
100
AcDbLine
10
32.285577
20
-4.942738
30
0
11
33.681898
21
-4.943611
31
0
39
0
210
0
220
0
230
1
0
LINE
5
7D
100
AcDbEntity
8
1
62
256
6
ByLayer
370
18
48
1
60
0
100
AcDbLine
10
0.026016
20
-4.922576
30
0
11
6.481948
21
-4.926611
31
0
39
0
210
0
220
0
230
1
0
LINE
5
7E
100
AcDbEntity
8
SK1
62
256
6
ByLayer
370
18
48
1
60
0
100
AcDbLine
10
0
20
5
30
0
11
-38.845299
21
5
31
0
39
0
210
0
220
0
230
1
0
LINE
5
80
100
AcDbEntity
8
SK1
62
256
6
ByLayer
370
18
48
1
60
0
100
AcDbLine
10
-38.845299
20
-5
30
0
11
0
21
-5
31
0
39
0
210
0
220
0
230
1
0
LINE
5
81
100
AcDbEntity
8
SK1
62
256
6
ByLayer
370
18
48
1
60
0
100
AcDbLine
10
-38.845299
20
5
30
0
11
-38.85
21
4.991858
31
0
39
0
210
0
220
0
230
1
0
LINE
5
82
100
AcDbEntity
8
SK1
62
256
6
ByLayer
370
18
48
1
60
0
100
AcDbLine
10
-38.85
20
-4.991858
30
0
11
-38.845299
21
-5
31
0
39
0
210
0
220
0
230
1
0
LINE
5
83
100
AcDbEntity
8
SK4
62
256
6
ByLayer
370
18
48
0.05
60
0
100
AcDbLine
10
68
20
0
30
0
11
-45
21
0
31
0
39
0
210
0
220
0
230
1
0
LINE
5
85
100
AcDbEntity
8
4
62
256
6
ByLayer
370
18
48
0.05
60
0
100
AcDbLine
10
63
20
0
30
0
11
0
21
0
31
0
39
0
210
0
220
0
230
1
0
LINE
5
87
100
AcDbEntity
8
80
62
256
6
ByLayer
370
18
48
1
60
0
100
AcDbLine
10
0
20
0
30
0
11
-5
21
0
31
0
39
0
210
0
220
0
230
1
0
LINE
5
88
100
AcDbEntity
8
1
62
256
6
ByLayer
370
13
48
1
60
0
100
AcDbLine
10
0.026016
20
4.922576
30
0
11
0.026016
21
-4.922576
31
0
39
0
210
0
220
0
230
1
0
LINE
5
89
100
AcDbEntity
8
1
62
256
6
ByLayer
370
13
48
1
60
0
100
AcDbLine
10
61.351244
20
1.144642
30
0
11
62.992732
21
0.105541
31
0
39
0
210
0
220
0
230
1
0
LINE
5
8A
100
AcDbEntity
8
1
62
256
6
ByLayer
370
13
48
1
60
0
100
AcDbLine
10
61.214525
20
1.049376
30
0
11
62.964217
21
-0.058222
31
0
39
0
210
0
220
0
230
1
0
LINE
5
8B
100
AcDbEntity
8
SK1
62
256
6
ByLayer
370
18
48
1
60
0
100
AcDbLine
10
-38.85
20
4.991858
30
0
11
-38.85
21
4.585284
31
0
39
0
210
0
220
0
230
1
0
LINE
5
8C
100
AcDbEntity
8
SK1
62
256
6
ByLayer
370
18
48
1
60
0
100
AcDbLine
10
-40
20
2.469713
30
0
11
-40
21
-2.902349
31
0
39
0
210
0
220
0
230
1
0
LINE
5
8D
100
AcDbEntity
8
SK1
62
256
6
ByLayer
370
18
48
1
60
0
100
AcDbLine
10
-40
20
2.902349
30
0
11
-40
21
2.469646
31
0
39
0
210
0
220
0
230
1
0
LINE
5
8E
100
AcDbEntity
8
SK1
62
256
6
ByLayer
370
13
48
1
60
0
100
AcDbLine
10
-38.95
20
4.799804
30
0
11
-38.95
21
4.367094
31
0
39
0
210
0
220
0
230
1
0
LINE
5
8F
100
AcDbEntity
8
SK1
62
256
6
ByLayer
370
18
48
1
60
0
100
AcDbLine
10
-38.85
20
-4.98331
30
0
11
-38.85
21
-4.991858
31
0
39
0
210
0
220
0
230
1
0
LINE
5
90
100
AcDbEntity
8
SK1
62
256
6
ByLayer
370
18
48
1
60
0
100
AcDbLine
10
0
20
5
30
0
11
0
21
-5
31
0
39
0
210
0
220
0
230
1
0
LINE
5
91
100
AcDbEntity
8
SK1
62
256
6
ByLayer
370
18
48
1
60
0
100
AcDbLine
10
-38.845299
20
5
30
0
11
-38.845299
21
-5
31
0
39
0
210
0
220
0
230
1
0
MTEXT
5
DD
100
AcDbEntity
8
SK6
62
256
6
ByLayer
370
13
48
1
60
0
100
AcDbMText
10
13.629169
20
37.343694
30
0
210
0
220
0
230
1
1
\W0.7538;460.1-0992-050A1-XM GC34
40
3.5
41
0
44
1.084337
50
0
71
8
72
5
7
iso_b_vert
0
DIMENSION
5
EA
100
AcDbEntity
8
SK2
62
256
6
ByLayer
370
13
48
1
60
0
100
AcDbDimension
2
DimnDraft3D1
10
61.5281
20
-15.174398
30
0
11
29.278159
21
-15.174398
31
0
70
32
71
5
72
1
41
1
210
0
220
0
230
1
3
Standard
100
AcDbAlignedDimension
13
0
23
-1.5875
33
0
14
61.5281
24
-6.5485
34
0
50
0
100
AcDbRotatedDimension
1001
ACAD
1000
DSTYLE
1002
{
1070
   279
1070
     0
1070
   172
1070
     1
1070
   173
1070
     1
1070
   340
1005
DE
1070
   271
1070
     2
1070
   272
1070
     2
1070
    77
1070
     1
1070
    73
1070
     0
1070
   171
1070
     3
1070
   274
1070
     4
1070
   177
1070
    35
1070
   176
1070
    35
1070
   178
1070
    35
1070
    48
1040
-0.005
1070
    41
1041
3.5
1070
   147
1041
1.75
1070
    42
1041
1.5875
1070
    44
1041
2.0
1070
   140
1041
3.5
1070
   343
1005
0
1070
   344
1005
0
1002
}
0
DIMENSION
5
F4
100
AcDbEntity
8
SK2
62
256
6
ByLayer
370
13
48
1
60
0
100
AcDbDimension
2
DimnDraft3D2
10
63
20
-33.692985
30
0
11
11.3694
21
-33.692985
31
0
70
32
71
5
72
1
41
1
210
0
220
0
230
1
3
Standard
100
AcDbAlignedDimension
13
-40
23
-6.5875
33
0
14
63
24
-1.5875
34
0
50
0
100
AcDbRotatedDimension
1001
ACAD
1000
DSTYLE
1002
{
1070
   279
1070
     0
1070
   172
1070
     1
1070
   173
1070
     1
1070
   340
1005
DE
1070
   271
1070
     2
1070
   272
1070
     2
1070
    77
1070
     1
1070
    73
1070
     0
1070
   171
1070
     3
1070
   274
1070
     4
1070
   177
1070
    35
1070
   176
1070
    35
1070
   178
1070
    35
1070
    48
1040
-0.005
1070
    41
1041
3.5
1070
   147
1041
1.75
1070
    42
1041
1.5875
1070
    44
1041
2.0
1070
   140
1041
3.5
1070
   343
1005
0
1070
   344
1005
0
1002
}
0
DIMENSION
5
FE
100
AcDbEntity
8
SK2
62
256
6
ByLayer
370
13
48
1
60
0
100
AcDbDimension
2
DimnDraft3D3
10
63
20
16.570119
30
0
11
38.95
21
16.570119
31
0
70
32
71
5
72
1
41
1
210
0
220
0
230
1
3
Standard
100
AcDbAlignedDimension
13
14.9
23
6.5485
33
0
14
63
24
1.5875
34
0
50
0
100
AcDbRotatedDimension
1001
ACAD
1000
DSTYLE
1002
{
1070
   279
1070
     0
1070
   172
1070
     1
1070
   173
1070
     1
1070
   340
1005
DE
1070
   271
1070
     2
1070
   272
1070
     2
1070
    77
1070
     1
1070
    73
1070
     0
1070
   171
1070
     3
1070
   274
1070
     4
1070
   177
1070
    35
1070
   176
1070
    35
1070
   178
1070
    35
1070
    48
1040
-0.005
1070
    41
1041
3.5
1070
   147
1041
1.75
1070
    42
1041
1.5875
1070
    44
1041
2.0
1070
   140
1041
3.5
1070
   343
1005
0
1070
   344
1005
0
1002
}
0
DIMENSION
5
108
100
AcDbEntity
8
SK2
62
256
6
ByLayer
370
13
48
1
60
0
100
AcDbDimension
2
DimnDraft3D4
10
61.5281
20
-17.763503
30
0
11
72.981425
21
-17.763503
31
0
70
32
71
5
72
1
41
1
210
0
220
0
230
1
3
Standard
100
AcDbAlignedDimension
13
63
23
-1.5875
33
0
14
61.5281
24
-6.5485
34
0
50
0
100
AcDbRotatedDimension
1001
ACAD
1000
DSTYLE
1002
{
1070
   279
1070
     0
1070
   172
1070
     1
1070
   173
1070
     1
1070
   340
1005
DE
1070
   271
1070
     2
1070
   272
1070
     2
1070
    77
1070
     1
1070
    73
1070
     0
1070
   171
1070
     3
1070
   274
1070
     4
1070
   177
1070
    35
1070
   176
1070
    35
1070
   178
1070
    35
1070
    48
1040
-0.005
1070
    41
1041
3.5
1070
   147
1041
1.75
1070
    42
1041
1.5875
1070
    44
1041
2.0
1070
   140
1041
3.5
1070
   343
1005
0
1070
   344
1005
0
1002
}
0
DIMENSION
5
112
100
AcDbEntity
8
SK2
62
256
6
ByLayer
370
13
48
1
60
0
100
AcDbDimension
2
DimnDraft3D5
10
61.5281
20
-23.343428
30
0
11
8.288776
21
-23.343428
31
0
70
32
71
5
72
1
41
1
210
0
220
0
230
1
3
Standard
100
AcDbAlignedDimension
13
-40
23
-6.5875
33
0
14
61.5281
24
-6.5485
34
0
50
0
100
AcDbRotatedDimension
1001
ACAD
1000
DSTYLE
1002
{
1070
   279
1070
     0
1070
   172
1070
     1
1070
   173
1070
     1
1070
   340
1005
DE
1070
   271
1070
     2
1070
   272
1070
     2
1070
    77
1070
     1
1070
    73
1070
     0
1070
   171
1070
     3
1070
   274
1070
     4
1070
   177
1070
    35
1070
   176
1070
    35
1070
   178
1070
    35
1070
    48
1040
-0.005
1070
    41
1041
3.5
1070
   147
1041
1.75
1070
    42
1041
1.5875
1070
    44
1041
2.0
1070
   140
1041
3.5
1070
   343
1005
0
1070
   344
1005
0
1002
}
0
DIMENSION
5
11D
100
AcDbEntity
8
SK2
62
256
6
ByLayer
370
13
48
1
60
0
100
AcDbDimension
2
DimnDraft3D6
10
-50.625163
20
5
30
0
11
-51.250163
21
23.47418
31
0
70
33
71
5
72
1
41
1
210
0
220
0
230
1
3
Standard
100
AcDbAlignedDimension
13
-41.5875
23
-5
33
0
14
-41.5875
24
5
34
0
1001
ACAD
1000
DSTYLE
1002
{
1070
   279
1070
     0
1070
    74
1070
     0
1070
   173
1070
     1
1070
   340
1005
DE
1070
   271
1070
     3
1070
   272
1070
     2
1070
    77
1070
     1
1070
    73
1070
     0
1070
   171
1070
     3
1070
   274
1070
     4
1070
   177
1070
    35
1070
   176
1070
    35
1070
   178
1070
    35
1070
    48
1040
-0.005
1070
    41
1041
3.5
1070
   147
1041
1.75
1070
    42
1041
1.5875
1070
    44
1041
2.0
1070
   140
1041
3.5
1070
   343
1005
0
1070
   344
1005
0
1002
}
0
DIMENSION
5
128
100
AcDbEntity
8
2
62
256
6
ByLayer
370
13
48
1
60
0
100
AcDbDimension
2
DimnDraft3D7
10
77.083343
20
4.961
30
0
11
72.458343
21
22.028266
31
0
70
33
71
5
72
1
41
1
210
0
220
0
230
1
3
Standard
100
AcDbAlignedDimension
13
63.1156
23
-4.961
33
0
14
63.1156
24
4.961
34
0
1001
ACAD
1000
DSTYLE
1002
{
1070
   279
1070
     0
1070
    74
1070
     0
1070
   173
1070
     1
1070
   340
1005
DE
1070
   271
1070
     3
1070
   272
1070
     2
1070
    77
1070
     1
1070
    73
1070
     0
1070
   171
1070
     3
1070
   274
1070
     4
1070
   177
1070
    35
1070
   176
1070
    35
1070
   178
1070
    35
1070
    48
1040
-0.005
1070
    41
1041
3.5
1070
   147
1041
1.75
1070
    42
1041
1.5875
1070
    44
1041
2.0
1070
   140
1041
3.5
1070
   343
1005
0
1070
   344
1005
0
1002
}
0
ENDSEC
0
SECTION
2
OBJECTS
0
DICTIONARY
5
193
330
0
100
AcDbDictionary
280
0
281
1
3
ACAD_GROUP
350
194
3
ACAD_MLINESTYLE
350
195
0
DICTIONARY
5
194
330
0
100
AcDbDictionary
280
0
281
1
0
DICTIONARY
5
195
330
0
100
AcDbDictionary
280
0
281
1
3
Standard
350
18
0
MLINESTYLE
5
18
330
195
100
AcDbMlineStyle
2
Standard
70
0
3

62
256
51
90
52
90
71
2
49
-0.5
62
256
6
ByLayer
49
0.5
62
256
6
ByLayer
0
RASTERVARIABLES
5
181
330

100
AcDbRasterVariables
90
0
70
1
71
1
72
1
0
ENDSEC
0
EOF
