0
SECTION
2
HEADER
9
$ACADVER
1
AC1015
9
$DWGCODEPAGE
3
ANSI_1252
9
$HANDSEED
5
1ad
9
$ANGBASE
50
0
9
$ANGDIR
70
0
9
$ATTMODE
70
1
9
$AUNITS
70
0
9
$AUPREC
70
0
9
$CECOLOR
62
256
9
$CELTSCALE
40
1
9
$CELTYPE
6
ByLayer
9
$CELWEIGHT
370
18
9
$CLAYER
8
0
9
$CMLJUST
70
0
9
$CMLSCALE
40
1
9
$CMLSTYLE
2
Standard
9
$DIMSTYLE
2
Standard
9
$TEXTSIZE
40
0.2
9
$TEXTSTYLE
7
Standard
9
$LUNITS
70
2
9
$LUPREC
70
4
9
$EXTNAMES
290
1
9
$INSUNITS
70
4
9
$LTSCALE
40
1
9
$LWDISPLAY
290
1
9
$PDMODE
70
0
9
$PDSIZE
40
0
9
$PLINEGEN
70
0
0
ENDSEC
0
SECTION
2
CLASSES
0
CLASS
1
RASTERVARIABLES
2
AcDbRasterVariables
3
ISM
90
0
280
0
281
0
0
ENDSEC
0
SECTION
2
TABLES
0
TABLE
2
VPORT
5
1a3
100
AcDbSymbolTable
0
VPORT
5
1
100
AcDbSymbolTableRecord
100
AcDbViewportTableRecord
2
*Active
70
0
10
0
20
0
11
1
21
1
12
-1
22
1
13
0
23
0
14
0.5
24
0.5
15
10
25
10
16
0
26
0
36
1
17
0
27
0
37
0
0
ENDTAB
0
TABLE
2
LTYPE
5
1a4
100
AcDbSymbolTable
0
LTYPE
5
14
100
AcDbSymbolTableRecord
100
AcDbLinetypeTableRecord
70
0
2
ByBlock
3

72
65
73
0
40
0
0
LTYPE
5
15
100
AcDbSymbolTableRecord
100
AcDbLinetypeTableRecord
70
0
2
ByLayer
3

72
65
73
0
40
0
0
LTYPE
5
16
100
AcDbSymbolTableRecord
100
AcDbLinetypeTableRecord
70
0
2
CONTINUOUS
3
Solid line
72
65
73
0
40
0
0
LTYPE
5
6A
100
AcDbSymbolTableRecord
100
AcDbLinetypeTableRecord
70
0
2
CENTER
3
____ _ ____ _ ____ _ ____
72
65
73
4
40
47.5
49
22
74
0
49
-8.5
74
0
49
8.5
74
0
49
-8.5
74
0
0
LTYPE
5
6B
100
AcDbSymbolTableRecord
100
AcDbLinetypeTableRecord
70
0
2
DASHED
3
__ __ __ __ __ __ __ __ __
72
65
73
2
40
25.72
49
12.86
74
0
49
-12.86
74
0
0
ENDTAB
0
TABLE
2
LAYER
5
1a5
100
AcDbSymbolTable
0
LAYER
5
10
100
AcDbSymbolTableRecord
100
AcDbLayerTableRecord
2
0
70
0
62
7
6
CONTINUOUS
290
1
370
-3
390
0
0
LAYER
5
6D
100
AcDbSymbolTableRecord
100
AcDbLayerTableRecord
2
81
70
0
62
-3
6
CONTINUOUS
290
1
370
-3
390
0
0
LAYER
5
6F
100
AcDbSymbolTableRecord
100
AcDbLayerTableRecord
2
80
70
0
62
-6
6
CONTINUOUS
290
1
370
-3
390
0
0
LAYER
5
74
100
AcDbSymbolTableRecord
100
AcDbLayerTableRecord
2
2
70
0
62
7
6
CONTINUOUS
290
1
370
-3
390
0
0
LAYER
5
78
100
AcDbSymbolTableRecord
100
AcDbLayerTableRecord
2
1
70
0
62
4
6
CONTINUOUS
290
1
370
-3
390
0
0
LAYER
5
8A
100
AcDbSymbolTableRecord
100
AcDbLayerTableRecord
2
4
70
0
62
-2
6
CENTER
290
1
370
-3
390
0
0
LAYER
5
18f
100
AcDbSymbolTableRecord
100
AcDbLayerTableRecord
2
SK2
70
0
62
7
6
CONTINUOUS
290
1
370
-3
390
0
0
LAYER
5
190
100
AcDbSymbolTableRecord
100
AcDbLayerTableRecord
2
SK1
70
0
62
4
6
CONTINUOUS
290
1
370
-3
390
0
0
LAYER
5
191
100
AcDbSymbolTableRecord
100
AcDbLayerTableRecord
2
SK4
70
0
62
2
6
CENTER
290
1
370
-3
390
0
0
LAYER
5
192
100
AcDbSymbolTableRecord
100
AcDbLayerTableRecord
2
SK6
70
0
62
5
6
CONTINUOUS
290
1
370
-3
390
0
0
ENDTAB
0
TABLE
2
STYLE
5
1a6
100
AcDbSymbolTable
0
STYLE
5
11
100
AcDbSymbolTableRecord
100
AcDbTextStyleTableRecord
2
Standard
3
txt
70
0
71
0
40
0
41
1
42
0
50
0
0
STYLE
5
EB
100
AcDbSymbolTableRecord
100
AcDbTextStyleTableRecord
2
iso_b_vert
3
simplex.shx
70
0
71
0
40
0
41
1
42
0
50
0
0
STYLE
5
EC
100
AcDbSymbolTableRecord
100
AcDbTextStyleTableRecord
2
DWGDirectTextStyle
3
simplex
70
0
71
0
40
0
41
1
42
0
50
0
0
ENDTAB
0
TABLE
2
DIMSTYLE
5
1a7
100
AcDbSymbolTable
100
AcDbDimStyleTable
0
DIMSTYLE
105
27
100
AcDbSymbolTableRecord
100
AcDbDimStyleTableRecord
2
Standard
70
0
3
<>
41
0.18
42
0.0625
44
0.18
140
0.18
147
0.09
73
0
74
0
77
1
271
2
275
0
278
52
280
0
340
11
0
ENDTAB
0
TABLE
2
VIEW
5
1a8
100
AcDbSymbolTable
0
ENDTAB
0
TABLE
2
UCS
5
1a9
100
AcDbSymbolTable
0
ENDTAB
0
TABLE
2
APPID
5
1aa
100
AcDbSymbolTable
0
APPID
5
12
100
AcDbSymbolTableRecord
100
AcDbRegAppTableRecord
2
ACAD
70
0
0
ENDTAB
0
TABLE
2
BLOCK_RECORD
5
1ab
100
AcDbSymbolTable
0
BLOCK_RECORD
5
1F
100
AcDbSymbolTableRecord
100
AcDbBlockTableRecord
2
*Model_Space
340
0
70
0
0
BLOCK_RECORD
5
1B
100
AcDbSymbolTableRecord
100
AcDbBlockTableRecord
2
*Paper_Space
340
0
70
0
0
BLOCK_RECORD
5
23
100
AcDbSymbolTableRecord
100
AcDbBlockTableRecord
2
*Paper_Space0
340
0
70
0
0
BLOCK_RECORD
5
EE
100
AcDbSymbolTableRecord
100
AcDbBlockTableRecord
2
DimnDraft3D1
340
0
70
0
0
BLOCK_RECORD
5
F8
100
AcDbSymbolTableRecord
100
AcDbBlockTableRecord
2
DimnDraft3D2
340
0
70
0
0
BLOCK_RECORD
5
102
100
AcDbSymbolTableRecord
100
AcDbBlockTableRecord
2
DimnDraft3D3
340
0
70
0
0
BLOCK_RECORD
5
10C
100
AcDbSymbolTableRecord
100
AcDbBlockTableRecord
2
DimnDraft3D4
340
0
70
0
0
BLOCK_RECORD
5
116
100
AcDbSymbolTableRecord
100
AcDbBlockTableRecord
2
DimnDraft3D5
340
0
70
0
0
BLOCK_RECORD
5
120
100
AcDbSymbolTableRecord
100
AcDbBlockTableRecord
2
DimnDraft3D6
340
0
70
0
0
BLOCK_RECORD
5
12B
100
AcDbSymbolTableRecord
100
AcDbBlockTableRecord
2
DimnDraft3D7
340
0
70
0
0
ENDTAB
0
ENDSEC
0
SECTION
2
BLOCKS
0
BLOCK
5
20
100
AcDbEntity
8
0
100
AcDbBlockBegin
2
*Model_Space
70
0
10
0
20
0
30
0
3
*Model_Space
0
ENDBLK
5
21
100
AcDbEntity
8
0
100
AcDbBlockEnd
0
BLOCK
5
1C
100
AcDbEntity
8
0
100
AcDbBlockBegin
2
*Paper_Space
70
0
10
0
20
0
30
0
3
*Paper_Space
0
ENDBLK
5
1D
100
AcDbEntity
8
0
100
AcDbBlockEnd
0
BLOCK
5
24
100
AcDbEntity
8
0
100
AcDbBlockBegin
2
*Paper_Space0
70
0
10
0
20
0
30
0
3
*Paper_Space0
0
ENDBLK
5
25
100
AcDbEntity
8
0
100
AcDbBlockEnd
0
BLOCK
5
F5
100
AcDbEntity
8
0
100
AcDbBlockBegin
2
DimnDraft3D1
70
0
10
0
20
0
30
0
3
DimnDraft3D1
0
MTEXT
5
EF
100
AcDbEntity
8
SK2
62
256
6
ByLayer
370
13
48
1
60
0
100
AcDbMText
10
48.91458
20
-14.238398
30
0
210
0
220
0
230
1
1
\W0.6440;110,55
40
3.5
41
0
44
1.084337
50
0
71
7
72
5
7
iso_b_vert
0
LINE
5
F0
100
AcDbEntity
8
SK2
62
256
6
ByLayer
370
13
48
1
60
0
100
AcDbLine
10
0
20
-1.5875
30
0
11
0
21
-17.113398
31
0
39
0
210
0
220
0
230
1
0
LINE
5
F1
100
AcDbEntity
8
SK2
62
256
6
ByLayer
370
13
48
1
60
0
100
AcDbLine
10
110.5461
20
-6.4875
30
0
11
110.5461
21
-17.113398
31
0
39
0
210
0
220
0
230
1
0
LINE
5
F2
100
AcDbEntity
8
SK2
62
256
6
ByLayer
370
13
48
1
60
0
100
AcDbLine
10
0
20
-15.113398
30
0
11
110.5461
21
-15.113398
31
0
39
0
210
0
220
0
230
1
0
SOLID
5
F3
100
AcDbEntity
8
SK2
62
256
6
ByLayer
370
13
48
1
60
0
100
AcDbTrace
10
0
20
-15.113398
30
0
11
3.499998
21
-14.652615
31
0
12
3.500002
22
-15.574182
32
0
13
0
23
-15.113398
33
0
39
0
210
0
220
0
230
1
0
SOLID
5
F4
100
AcDbEntity
8
SK2
62
256
6
ByLayer
370
13
48
1
60
0
100
AcDbTrace
10
110.5461
20
-15.113398
30
0
11
107.046102
21
-15.574182
31
0
12
107.046098
22
-14.652615
32
0
13
110.5461
23
-15.113398
33
0
39
0
210
0
220
0
230
1
0
ENDBLK
5
F6
100
AcDbEntity
8
0
100
AcDbBlockEnd
0
BLOCK
5
FF
100
AcDbEntity
8
0
100
AcDbBlockBegin
2
DimnDraft3D2
70
0
10
0
20
0
30
0
3
DimnDraft3D2
0
MTEXT
5
F9
100
AcDbEntity
8
SK2
62
256
6
ByLayer
370
13
48
1
60
0
100
AcDbMText
10
30.568321
20
-32.817985
30
0
210
0
220
0
230
1
1
\W0.6930;152,00
40
3.5
41
0
44
1.084337
50
0
71
7
72
5
7
iso_b_vert
0
LINE
5
FA
100
AcDbEntity
8
SK2
62
256
6
ByLayer
370
13
48
1
60
0
100
AcDbLine
10
-40
20
-6.5875
30
0
11
-40
21
-35.692985
31
0
39
0
210
0
220
0
230
1
0
LINE
5
FB
100
AcDbEntity
8
SK2
62
256
6
ByLayer
370
13
48
1
60
0
100
AcDbLine
10
112
20
-1.5875
30
0
11
112
21
-35.692985
31
0
39
0
210
0
220
0
230
1
0
LINE
5
FC
100
AcDbEntity
8
SK2
62
256
6
ByLayer
370
13
48
1
60
0
100
AcDbLine
10
-40
20
-33.692985
30
0
11
112
21
-33.692985
31
0
39
0
210
0
220
0
230
1
0
SOLID
5
FD
100
AcDbEntity
8
SK2
62
256
6
ByLayer
370
13
48
1
60
0
100
AcDbTrace
10
-40
20
-33.692985
30
0
11
-36.500002
21
-33.232202
31
0
12
-36.499998
22
-34.153769
32
0
13
-40
23
-33.692985
33
0
39
0
210
0
220
0
230
1
0
SOLID
5
FE
100
AcDbEntity
8
SK2
62
256
6
ByLayer
370
13
48
1
60
0
100
AcDbTrace
10
112
20
-33.692985
30
0
11
108.500002
21
-34.153769
31
0
12
108.499998
22
-33.232202
32
0
13
112
23
-33.692985
33
0
39
0
210
0
220
0
230
1
0
ENDBLK
5
100
100
AcDbEntity
8
0
100
AcDbBlockEnd
0
BLOCK
5
109
100
AcDbEntity
8
0
100
AcDbBlockBegin
2
DimnDraft3D3
70
0
10
0
20
0
30
0
3
DimnDraft3D3
0
MTEXT
5
103
100
AcDbEntity
8
SK2
62
256
6
ByLayer
370
13
48
1
60
0
100
AcDbMText
10
67.626316
20
17.384119
30
0
210
0
220
0
230
1
1
\W0.7317;79,85
40
3.5
41
0
44
1.084337
50
0
71
7
72
5
7
iso_b_vert
0
LINE
5
104
100
AcDbEntity
8
SK2
62
256
6
ByLayer
370
13
48
1
60
0
100
AcDbLine
10
32.15
20
6.4875
30
0
11
32.15
21
18.509119
31
0
39
0
210
0
220
0
230
1
0
LINE
5
105
100
AcDbEntity
8
SK2
62
256
6
ByLayer
370
13
48
1
60
0
100
AcDbLine
10
112
20
1.5875
30
0
11
112
21
18.509119
31
0
39
0
210
0
220
0
230
1
0
LINE
5
106
100
AcDbEntity
8
SK2
62
256
6
ByLayer
370
13
48
1
60
0
100
AcDbLine
10
32.15
20
16.509119
30
0
11
112
21
16.509119
31
0
39
0
210
0
220
0
230
1
0
SOLID
5
107
100
AcDbEntity
8
SK2
62
256
6
ByLayer
370
13
48
1
60
0
100
AcDbTrace
10
32.15
20
16.509119
30
0
11
35.649998
21
16.969903
31
0
12
35.650002
22
16.048335
32
0
13
32.15
23
16.509119
33
0
39
0
210
0
220
0
230
1
0
SOLID
5
108
100
AcDbEntity
8
SK2
62
256
6
ByLayer
370
13
48
1
60
0
100
AcDbTrace
10
112
20
16.509119
30
0
11
108.500002
21
16.048335
31
0
12
108.499998
22
16.969903
32
0
13
112
23
16.509119
33
0
39
0
210
0
220
0
230
1
0
ENDBLK
5
10A
100
AcDbEntity
8
0
100
AcDbBlockEnd
0
BLOCK
5
113
100
AcDbEntity
8
0
100
AcDbBlockBegin
2
DimnDraft3D4
70
0
10
0
20
0
30
0
3
DimnDraft3D4
0
MTEXT
5
10D
100
AcDbEntity
8
SK2
62
256
6
ByLayer
370
13
48
1
60
0
100
AcDbMText
10
119.093925
20
-16.827503
30
0
210
0
220
0
230
1
1
\W0.6709;1,45
40
3.5
41
0
44
1.084337
50
0
71
7
72
5
7
iso_b_vert
0
LINE
5
10E
100
AcDbEntity
8
SK2
62
256
6
ByLayer
370
13
48
1
60
0
100
AcDbLine
10
112
20
-1.5875
30
0
11
112
21
-19.702503
31
0
39
0
210
0
220
0
230
1
0
LINE
5
10F
100
AcDbEntity
8
SK2
62
256
6
ByLayer
370
13
48
1
60
0
100
AcDbLine
10
110.5461
20
-6.4875
30
0
11
110.5461
21
-19.702503
31
0
39
0
210
0
220
0
230
1
0
LINE
5
110
100
AcDbEntity
8
SK2
62
256
6
ByLayer
370
13
48
1
60
0
100
AcDbLine
10
101.7961
20
-17.702503
30
0
11
125.743925
21
-17.702503
31
0
39
0
210
0
220
0
230
1
0
SOLID
5
111
100
AcDbEntity
8
SK2
62
256
6
ByLayer
370
13
48
1
60
0
100
AcDbTrace
10
112
20
-17.702503
30
0
11
115.499998
21
-17.241719
31
0
12
115.500002
22
-18.163287
32
0
13
112
23
-17.702503
33
0
39
0
210
0
220
0
230
1
0
SOLID
5
112
100
AcDbEntity
8
SK2
62
256
6
ByLayer
370
13
48
1
60
0
100
AcDbTrace
10
110.5461
20
-17.702503
30
0
11
107.046102
21
-18.163287
31
0
12
107.046098
22
-17.241719
32
0
13
110.5461
23
-17.702503
33
0
39
0
210
0
220
0
230
1
0
ENDBLK
5
114
100
AcDbEntity
8
0
100
AcDbBlockEnd
0
BLOCK
5
11D
100
AcDbEntity
8
0
100
AcDbBlockBegin
2
DimnDraft3D5
70
0
10
0
20
0
30
0
3
DimnDraft3D5
0
MTEXT
5
117
100
AcDbEntity
8
SK2
62
256
6
ByLayer
370
13
48
1
60
0
100
AcDbMText
10
27.487697
20
-22.468428
30
0
210
0
220
0
230
1
1
\W0.6930;150,55
40
3.5
41
0
44
1.084337
50
0
71
7
72
5
7
iso_b_vert
0
LINE
5
118
100
AcDbEntity
8
SK2
62
256
6
ByLayer
370
13
48
1
60
0
100
AcDbLine
10
-40
20
-6.5875
30
0
11
-40
21
-25.343428
31
0
39
0
210
0
220
0
230
1
0
LINE
5
119
100
AcDbEntity
8
SK2
62
256
6
ByLayer
370
13
48
1
60
0
100
AcDbLine
10
110.5461
20
-6.4875
30
0
11
110.5461
21
-25.343428
31
0
39
0
210
0
220
0
230
1
0
LINE
5
11A
100
AcDbEntity
8
SK2
62
256
6
ByLayer
370
13
48
1
60
0
100
AcDbLine
10
-40
20
-23.343428
30
0
11
110.5461
21
-23.343428
31
0
39
0
210
0
220
0
230
1
0
SOLID
5
11B
100
AcDbEntity
8
SK2
62
256
6
ByLayer
370
13
48
1
60
0
100
AcDbTrace
10
-40
20
-23.343428
30
0
11
-36.500002
21
-22.882645
31
0
12
-36.499998
22
-23.804212
32
0
13
-40
23
-23.343428
33
0
39
0
210
0
220
0
230
1
0
SOLID
5
11C
100
AcDbEntity
8
SK2
62
256
6
ByLayer
370
13
48
1
60
0
100
AcDbTrace
10
110.5461
20
-23.343428
30
0
11
107.046102
21
-23.804212
31
0
12
107.046098
22
-22.882645
32
0
13
110.5461
23
-23.343428
33
0
39
0
210
0
220
0
230
1
0
ENDBLK
5
11E
100
AcDbEntity
8
0
100
AcDbBlockEnd
0
BLOCK
5
128
100
AcDbEntity
8
0
100
AcDbBlockBegin
2
DimnDraft3D6
70
0
10
0
20
0
30
0
3
DimnDraft3D6
0
MTEXT
5
121
100
AcDbEntity
8
SK2
62
256
6
ByLayer
370
13
48
1
60
0
100
AcDbMText
10
-50.375163
20
24.34918
30
0
210
0
220
0
230
1
1
\W0.6930;10,000
40
3.5
41
0
44
1.084337
50
90
71
7
72
5
7
iso_b_vert
0
MTEXT
5
122
100
AcDbEntity
8
SK2
62
256
6
ByLayer
370
13
48
1
60
0
100
AcDbMText
10
-50.375163
20
19.126524
30
0
210
0
220
0
230
1
1
%%c
40
3.5
41
0
44
1.084337
50
90
71
7
72
5
7
iso_b_vert
0
LINE
5
123
100
AcDbEntity
8
SK2
62
256
6
ByLayer
370
13
48
1
60
0
100
AcDbLine
10
-41.5875
20
-5
30
0
11
-50.625163
21
-5
31
0
39
0
210
0
220
0
230
1
0
LINE
5
124
100
AcDbEntity
8
SK2
62
256
6
ByLayer
370
13
48
1
60
0
100
AcDbLine
10
-41.5875
20
5
30
0
11
-50.625163
21
5
31
0
39
0
210
0
220
0
230
1
0
LINE
5
125
100
AcDbEntity
8
SK2
62
256
6
ByLayer
370
13
48
1
60
0
100
AcDbLine
10
-48.625163
20
-5
30
0
11
-48.625163
21
35.862338
31
0
39
0
210
0
220
0
230
1
0
SOLID
5
126
100
AcDbEntity
8
SK2
62
256
6
ByLayer
370
13
48
1
60
0
100
AcDbTrace
10
-48.625163
20
-5
30
0
11
-49.085946
21
-1.500002
31
0
12
-48.164379
22
-1.499998
32
0
13
-48.625163
23
-5
33
0
39
0
210
0
220
0
230
1
0
SOLID
5
127
100
AcDbEntity
8
SK2
62
256
6
ByLayer
370
13
48
1
60
0
100
AcDbTrace
10
-48.625163
20
5
30
0
11
-48.164379
21
1.500002
31
0
12
-49.085946
22
1.499998
32
0
13
-48.625163
23
5
33
0
39
0
210
0
220
0
230
1
0
ENDBLK
5
129
100
AcDbEntity
8
0
100
AcDbBlockEnd
0
BLOCK
5
133
100
AcDbEntity
8
0
100
AcDbBlockBegin
2
DimnDraft3D7
70
0
10
0
20
0
30
0
3
DimnDraft3D7
0
MTEXT
5
12C
100
AcDbEntity
8
2
62
256
6
ByLayer
370
13
48
1
60
0
100
AcDbMText
10
122.333343
20
22.842266
30
0
210
0
220
0
230
1
1
\W0.7317;9,800
40
3.5
41
0
44
1.084337
50
90
71
7
72
5
7
iso_b_vert
0
MTEXT
5
12D
100
AcDbEntity
8
2
62
256
6
ByLayer
370
13
48
1
60
0
100
AcDbMText
10
122.333343
20
17.61961
30
0
210
0
220
0
230
1
1
%%c
40
3.5
41
0
44
1.084337
50
90
71
7
72
5
7
iso_b_vert
0
LINE
5
12E
100
AcDbEntity
8
2
62
256
6
ByLayer
370
13
48
1
60
0
100
AcDbLine
10
112.1336
20
-4.9
30
0
11
126.083343
21
-4.9
31
0
39
0
210
0
220
0
230
1
0
LINE
5
12F
100
AcDbEntity
8
2
62
256
6
ByLayer
370
13
48
1
60
0
100
AcDbLine
10
112.1336
20
4.9
30
0
11
126.083343
21
4.9
31
0
39
0
210
0
220
0
230
1
0
LINE
5
130
100
AcDbEntity
8
2
62
256
6
ByLayer
370
13
48
1
60
0
100
AcDbLine
10
124.083343
20
-4.9
30
0
11
124.083343
21
32.614635
31
0
39
0
210
0
220
0
230
1
0
SOLID
5
131
100
AcDbEntity
8
2
62
256
6
ByLayer
370
13
48
1
60
0
100
AcDbTrace
10
124.083343
20
-4.9
30
0
11
123.622559
21
-1.400002
31
0
12
124.544126
22
-1.399998
32
0
13
124.083343
23
-4.9
33
0
39
0
210
0
220
0
230
1
0
SOLID
5
132
100
AcDbEntity
8
2
62
256
6
ByLayer
370
13
48
1
60
0
100
AcDbTrace
10
124.083343
20
4.9
30
0
11
124.544126
21
1.400002
31
0
12
123.622559
22
1.399998
32
0
13
124.083343
23
4.9
33
0
39
0
210
0
220
0
230
1
0
ENDBLK
5
134
100
AcDbEntity
8
0
100
AcDbBlockEnd
0
ENDSEC
0
SECTION
2
ENTITIES
0
ARC
5
98
100
AcDbEntity
8
1
62
256
6
ByLayer
370
18
48
1
60
0
100
AcDbCircle
39
0
10
-0.066667
20
4.897698
30
0
40
0.0666670000000096
210
0
220
0
230
-1
100
AcDbArc
50
269.96419
51
0
0
ARC
5
99
100
AcDbEntity
8
1
62
256
6
ByLayer
370
18
48
1
60
0
100
AcDbCircle
39
0
10
-0.066667
20
-4.897698
30
0
40
0.0666670000000096
210
0
220
0
230
-1
100
AcDbArc
50
0
51
90.03581
0
ELLIPSE
5
9A
100
AcDbEntity
8
1
62
256
6
ByLayer
370
18
48
1
60
0
100
AcDbEllipse
10
6.667188
20
-4.840027
30
0
11
0.25
21
0
31
0
210
0
220
0
230
1
40
0.999987
41
1.58177340570698
42
3.1382781168488
0
ELLIPSE
5
9B
100
AcDbEntity
8
1
62
256
6
ByLayer
370
18
48
1
60
0
100
AcDbEllipse
10
6.667188
20
4.840027
30
0
11
0.25
21
0
31
0
210
0
220
0
230
1
40
0.999987
41
-3.13827811684887
42
-1.55885041405621
0
POINT
5
6C
100
AcDbEntity
8
81
62
256
6
ByLayer
370
18
48
1
60
0
100
AcDbPoint
10
112
20
0
30
0
39
0
210
0
220
0
230
1
50
360
0
POINT
5
6E
100
AcDbEntity
8
80
62
256
6
ByLayer
370
18
48
1
60
0
100
AcDbPoint
10
0
20
0
30
0
39
0
210
0
220
0
230
1
50
360
0
POINT
5
70
100
AcDbEntity
8
SK2
62
256
6
ByLayer
370
18
48
1
60
1
100
AcDbPoint
10
-40
20
-5
30
0
39
0
210
0
220
0
230
1
50
360
0
POINT
5
72
100
AcDbEntity
8
SK2
62
256
6
ByLayer
370
18
48
1
60
1
100
AcDbPoint
10
-40
20
5
30
0
39
0
210
0
220
0
230
1
50
360
0
POINT
5
73
100
AcDbEntity
8
2
62
256
6
ByLayer
370
18
48
1
60
1
100
AcDbPoint
10
110.5461
20
-4.9
30
0
39
0
210
0
220
0
230
1
50
360
0
POINT
5
75
100
AcDbEntity
8
2
62
256
6
ByLayer
370
18
48
1
60
1
100
AcDbPoint
10
110.5461
20
4.9
30
0
39
0
210
0
220
0
230
1
50
360
0
SPLINE
5
9C
100
AcDbEntity
8
1
62
256
6
ByLayer
370
18
48
1
60
0
100
AcDbSpline
70
4
71
1
72
4
73
2
40
0
40
0
40
1
40
1
41
1
10
68.9971319516641
20
0.0003700643567868
30
0
41
1
10
68.9971212591693
20
0.0003763186818162
30
0
0
SPLINE
5
9D
100
AcDbEntity
8
1
62
256
6
ByLayer
370
18
48
1
60
0
100
AcDbSpline
70
4
71
3
72
21
73
17
40
0
40
0
40
0
40
0
40
0.105362068197092
40
0.190930629179768
40
0.247732570110376
40
0.282796917288401
40
0.320124977498788
40
0.361756517184938
40
0.46951601064736
40
0.571905728580312
40
0.638007764228354
40
0.695407804641797
40
0.757011536519144
40
0.835104461304976
40
0.916634123445629
40
1
40
1
40
1
40
1
41
1
10
28.4104980530061
20
-4.60378069113148
30
0
41
1
10
28.6733566484458
20
-4.60392736964496
30
0
41
1
10
29.1497873388584
20
-4.6042220309163
30
0
41
1
10
29.7683126364201
20
-4.60438753718418
30
0
41
1
10
30.211281612508
20
-4.60488155909835
30
0
41
1
10
30.5333549231661
20
-4.60513545748478
30
0
41
1
10
30.8180081793389
20
-4.60525184218633
30
0
41
1
10
31.2841584151135
20
-4.60528471213254
30
0
41
1
10
31.9126576997339
20
-4.60616440474135
30
0
41
1
10
32.6023431613298
20
-4.60606458804949
30
0
41
1
10
33.166263950901
20
-4.60629283046828
30
0
41
1
10
33.6283121367372
20
-4.60700345198231
30
0
41
1
10
34.1203764369519
20
-4.60664005392712
30
0
41
1
10
34.6726448212476
20
-4.60696586266576
30
0
41
1
10
35.2792469298078
20
-4.60746364606564
30
0
41
1
10
35.6909079568365
20
-4.60746600686019
30
0
41
1
10
35.8990329650808
20
-4.60741812343502
30
0
0
SPLINE
5
9E
100
AcDbEntity
8
1
62
256
6
ByLayer
370
18
48
1
60
0
100
AcDbSpline
70
4
71
3
72
22
73
18
40
0
40
0
40
0
40
0
40
0.100312785553482
40
0.183036885015718
40
0.239424728875231
40
0.274014030252482
40
0.309891353054212
40
0.350330252932525
40
0.457002529293434
40
0.555105891200451
40
0.61786640412884
40
0.673929026622921
40
0.730282982627945
40
0.80386239439675
40
0.888014821655012
40
0.96233844591873
40
1
40
1
40
1
40
1
41
1
10
82.8108209065873
20
-4.63762344731018
30
0
41
1
10
83.0608655597193
20
-4.63768769290596
30
0
41
1
10
83.5171975010349
20
-4.63782001890417
30
0
41
1
10
84.1144329935358
20
-4.63823979881226
30
0
41
1
10
84.547690460903
20
-4.63830722257651
30
0
41
1
10
84.8639575045952
20
-4.63842821984576
30
0
41
1
10
85.1405712521351
20
-4.63858725512361
30
0
41
1
10
85.5969875825045
20
-4.6392838042612
30
0
41
1
10
86.2086210501027
20
-4.63881711122406
30
0
41
1
10
86.8759149204344
20
-4.63952713062514
30
0
41
1
10
87.4169708498731
20
-4.64004822746753
30
0
41
1
10
87.8539097943581
20
-4.63986930220983
30
0
41
1
10
88.3178281099192
20
-4.6402519030768
30
0
41
1
10
88.8518116303959
20
-4.64102632599807
30
0
41
1
10
89.4306204082109
20
-4.64039998555256
30
0
41
1
10
89.9198317596329
20
-4.64133335228277
30
0
41
1
10
90.1991501228437
20
-4.64150971974962
30
0
41
1
10
90.2930872162067
20
-4.6415714228325
30
0
0
SPLINE
5
9F
100
AcDbEntity
8
1
62
256
6
ByLayer
370
18
48
1
60
0
100
AcDbSpline
70
4
71
3
72
22
73
18
40
0
40
0
40
0
40
0
40
0.0877342158668391
40
0.162692076203291
40
0.216851011681994
40
0.268039446400566
40
0.327639903445729
40
0.39521328862698
40
0.457852930990452
40
0.509589200282055
40
0.578965498894767
40
0.652491774762882
40
0.741806365826279
40
0.848839149921758
40
0.925488652778862
40
0.985210111014108
40
1
40
1
40
1
40
1
41
1
10
55.6046923220092
20
-4.62059051137641
30
0
41
1
10
55.824303002789
20
-4.62069094247892
30
0
41
1
10
56.2315741500218
20
-4.62091772387731
30
0
41
1
10
56.7744977242725
20
-4.62114776435195
30
0
41
1
10
57.2259742280578
20
-4.62165214947788
30
0
41
1
10
57.6383234264374
20
-4.6217266790612
30
0
41
1
10
58.084687024671
20
-4.62181763586384
30
0
41
1
10
58.5597855690089
20
-4.62214727850198
30
0
41
1
10
59.0154280056391
20
-4.6224799903998
30
0
41
1
10
59.4754770526917
20
-4.62251133106554
30
0
41
1
10
59.9622627584553
20
-4.62300160220863
30
0
41
1
10
60.5439135151069
20
-4.62381552663663
30
0
41
1
10
61.2195380401535
20
-4.62293838692082
30
0
41
1
10
61.9026546327523
20
-4.6243193383489
30
0
41
1
10
62.5125261205135
20
-4.62385403683089
30
0
41
1
10
62.8903117250758
20
-4.62405762423455
30
0
41
1
10
63.0768197859794
20
-4.62436408010345
30
0
41
1
10
63.1138418363506
20
-4.62443174189931
30
0
0
SPLINE
5
A0
100
AcDbEntity
8
1
62
256
6
ByLayer
370
18
48
1
60
0
100
AcDbSpline
70
4
71
1
72
4
73
2
40
0
40
0
40
1
40
1
41
1
10
110.019988066305
20
-4.65481548246655
30
0
41
1
10
110.287710934849
20
-4.6550025853451
30
0
0
SPLINE
5
A1
100
AcDbEntity
8
1
62
256
6
ByLayer
370
18
48
1
60
0
100
AcDbSpline
70
4
71
3
72
18
73
14
40
0
40
0
40
0
40
0
40
0.022164925743916
40
0.135724214040844
40
0.220795445399375
40
0.321460265657051
40
0.439680328306093
40
0.575093243878461
40
0.708455761209152
40
0.796443334594428
40
0.875032211516674
40
0.957497747902511
40
1
40
1
40
1
40
1
41
1
10
90.3002139721392
20
4.64155628224324
30
0
41
1
10
90.2636268130861
20
4.6415726290125
30
0
41
1
10
90.0395895736003
20
4.64164495840143
30
0
41
1
10
89.6751286332237
20
4.64062274368772
30
0
41
1
10
89.1810756025772
20
4.64073517534626
30
0
41
1
10
88.6793366807601
20
4.64088553823888
30
0
41
1
10
88.0945066020448
20
4.63984176255121
30
0
41
1
10
87.4556859707554
20
4.64012288658202
30
0
41
1
10
86.8667763196369
20
4.63946013795862
30
0
41
1
10
86.3716709468321
20
4.63897345007646
30
0
41
1
10
85.9605734443451
20
4.63915131462076
30
0
41
1
10
85.624558831996
20
4.63920422652555
30
0
41
1
10
85.4182931354089
20
4.63895880250436
30
0
41
1
10
85.3481424994724
20
4.63887152442965
30
0
0
SPLINE
5
A2
100
AcDbEntity
8
1
62
256
6
ByLayer
370
18
48
1
60
0
100
AcDbSpline
70
4
71
3
72
14
73
10
40
0
40
0
40
0
40
0
40
0.162610281763189
40
0.360421018065681
40
0.491835654469105
40
0.590558633821805
40
0.708397494158732
40
0.845706205651829
40
1
40
1
40
1
40
1
41
1
10
6.66729911766652
20
-4.59012648617536
30
0
41
1
10
6.79864189264984
20
-4.59018233808925
30
0
41
1
10
7.08975911693727
20
-4.59032050052048
30
0
41
1
10
7.48701977234973
20
-4.59064887171672
30
0
41
1
10
7.83267919454107
20
-4.59082956506109
30
0
41
1
10
8.11374508337428
20
-4.59090374134499
30
0
41
1
10
8.39957278984247
20
-4.59087080633546
30
0
41
1
10
8.73028737279839
20
-4.59070209399368
30
0
41
1
10
8.96581890115704
20
-4.59072197591078
30
0
41
1
10
9.09044391348183
20
-4.59074962319536
30
0
0
SPLINE
5
A3
100
AcDbEntity
8
1
62
256
6
ByLayer
370
18
48
1
60
0
100
AcDbSpline
70
4
71
3
72
16
73
12
40
0
40
0
40
0
40
0
40
0.0233812489054832
40
0.120367582439446
40
0.244543104564717
40
0.391183695010769
40
0.55393586853325
40
0.712258363354718
40
0.835443324281663
40
0.960861715313434
40
1
40
1
40
1
40
1
41
1
10
35.8400079942866
20
4.60733741264315
30
0
41
1
10
35.8019711311445
20
4.60729326238527
30
0
41
1
10
35.6061634808662
20
4.60708956513849
30
0
41
1
10
35.208312746286
20
4.60753809796853
30
0
41
1
10
34.6105625088287
20
4.60678304722896
30
0
41
1
10
33.9048616489456
20
4.60695075141155
30
0
41
1
10
33.1443298046647
20
4.60623270255658
30
0
41
1
10
32.4215032248341
20
4.60601974910605
30
0
41
1
10
31.7601886032481
20
4.60589213124831
30
0
41
1
10
31.292171657959
20
4.60533977099399
30
0
41
1
10
31.0244682364799
20
4.60526762894924
30
0
41
1
10
30.9607966904077
20
4.60525278392728
30
0
0
SPLINE
5
A4
100
AcDbEntity
8
1
62
256
6
ByLayer
370
18
48
1
60
0
100
AcDbSpline
70
4
71
3
72
14
73
10
40
0
40
0
40
0
40
0
40
0.160943919977765
40
0.249458705837394
40
0.324779168205108
40
0.434361132155058
40
0.599824911324539
40
0.822255203838854
40
1
40
1
40
1
40
1
41
1
10
9.09007236279911
20
4.5907519393958
30
0
41
1
10
8.96009333120941
20
4.59071818756979
30
0
41
1
10
8.75862924701087
20
4.59070671548452
30
0
41
1
10
8.49633686438042
20
4.59082445773032
30
0
41
1
10
8.27552265396866
20
4.59089083294552
30
0
41
1
10
7.99257411994245
20
4.59089183194413
30
0
41
1
10
7.59082856500888
20
4.59071747480675
30
0
41
1
10
7.13400565962516
20
4.59034344625724
30
0
41
1
10
6.81083732776625
20
4.59019013906487
30
0
41
1
10
6.66729764741581
20
4.59012711662814
30
0
0
SPLINE
5
A5
100
AcDbEntity
8
1
62
256
6
ByLayer
370
18
48
1
60
0
100
AcDbSpline
70
4
71
3
72
17
73
13
40
0
40
0
40
0
40
0
40
0.0323587516804191
40
0.117030719852718
40
0.225803135673078
40
0.362701571437818
40
0.481952655069016
40
0.580006130629863
40
0.670101949900552
40
0.759999952861141
40
0.874903305237545
40
1
40
1
40
1
40
1
41
1
10
63.1140655267294
20
4.62445361349927
30
0
41
1
10
63.0598368093559
20
4.62433778703971
30
0
41
1
10
62.8637169046841
20
4.6239820057946
30
0
41
1
10
62.4857828635149
20
4.62390274307012
30
0
41
1
10
61.9316044886294
20
4.62429477665691
30
0
41
1
10
61.3201775062958
20
4.62303746526109
30
0
41
1
10
60.7264579136066
20
4.6236775948455
30
0
41
1
10
60.2110689711171
20
4.62340122219666
30
0
41
1
10
59.74491907445
20
4.62271378443256
30
0
41
1
10
59.2511488771395
20
4.62247204139024
30
0
41
1
10
58.6978162281549
20
4.62232856200734
30
0
41
1
10
58.2955821681368
20
4.6219528701173
30
0
41
1
10
58.0859559632977
20
4.62185702910588
30
0
0
SPLINE
5
A6
100
AcDbEntity
8
1
62
256
6
ByLayer
370
18
48
1
60
0
100
AcDbSpline
70
4
71
3
72
18
73
14
40
0
40
0
40
0
40
0
40
0.0177028115816484
40
0.0177028115816484
40
0.228451074960382
40
0.228451074960382
40
0.439199338339116
40
0.439199338339116
40
0.544573470028483
40
0.544573470028483
40
0.649947601717849
40
0.649947601717849
40
1
40
1
40
1
40
1
41
1
10
14.5978042515707
20
-0.0001143047491325
30
0
41
1
10
14.6431443043523
20
-0.0246826632124453
30
0
41
1
10
14.6884723034724
20
-0.0492402837513737
30
0
41
1
10
15.2732850276265
20
-0.365975389503603
30
0
41
1
10
15.8109406347556
20
-0.656862326535247
30
0
41
1
10
16.8865628447079
20
-1.22865009404231
30
0
41
1
10
17.4245548829863
20
-1.50950363819203
30
0
41
1
10
18.2354333653082
20
-1.91656654565037
30
0
41
1
10
18.5063316121259
20
-2.0499545331829
30
0
41
1
10
19.0498390773626
20
-2.31120912710858
30
0
41
1
10
19.3230095106729
20
-2.43932275168942
30
0
41
1
10
20.4978355372338
20
-2.97394766403391
30
0
41
1
10
21.3910796533507
20
-3.33853494023737
30
0
41
1
10
22.2842632188809
20
-3.64495892126433
30
0
0
SPLINE
5
A7
100
AcDbEntity
8
1
62
256
6
ByLayer
370
13
48
1
60
0
100
AcDbSpline
70
4
71
3
72
18
73
14
40
0
40
0
40
0
40
0
40
0.0716706728290789
40
0.0716706728290789
40
0.283086838571854
40
0.283086838571854
40
0.388794921443242
40
0.388794921443242
40
0.494503004314629
40
0.494503004314629
40
0.917335335800184
40
0.917335335800184
40
1
40
1
40
1
40
1
41
1
10
22.2842622729108
20
-3.6449585967309
30
0
41
1
10
22.4665573581715
20
-3.70749847698241
30
0
41
1
10
22.6488499210471
20
-3.76761555790358
30
0
41
1
10
23.369189855263
20
-3.99510099373265
30
0
41
1
10
23.9077785861704
20
-4.14309866443622
30
0
41
1
10
24.7199008601241
20
-4.32856138261911
30
0
41
1
10
24.9913124869615
20
-4.38427295716971
30
0
41
1
10
25.536054481279
20
-4.48291641940199
30
0
41
1
10
25.8085145880663
20
-4.52566981797136
30
0
41
1
10
27.1644280698411
20
-4.70488816388141
30
0
41
1
10
28.2365520308452
20
-4.73901275611911
30
0
41
1
10
29.5232764067044
20
-4.65004394385272
30
0
41
1
10
29.7338653880297
20
-4.63134836788205
30
0
41
1
10
29.9447445951315
20
-4.60851905198047
30
0
0
SPLINE
5
A8
100
AcDbEntity
8
1
62
256
6
ByLayer
370
18
48
1
60
0
100
AcDbSpline
70
4
71
3
72
16
73
12
40
0
40
0
40
0
40
0
40
0.344678443957711
40
0.344678443957711
40
0.571590053957474
40
0.571590053957474
40
0.685045858957359
40
0.685045858957359
40
0.798501663957244
40
0.798501663957244
40
1
40
1
40
1
40
1
41
1
10
69.012566765412
20
-0.0079969196993659
30
0
41
1
10
69.8345754498209
20
-0.45685048530342
30
0
41
1
10
70.6497056420164
20
-0.901951152054664
30
0
41
1
10
72.0024238649405
20
-1.61134624950248
30
0
41
1
10
72.5397024826015
20
-1.88544366575258
30
0
41
1
10
73.34907375144
20
-2.2797730952241
30
0
41
1
10
73.6194411470328
20
-2.40841420677882
30
0
41
1
10
74.1619753841257
20
-2.6589603408558
30
0
41
1
10
74.434745408124
20
-2.78112790252797
30
0
41
1
10
75.1882710138961
20
-3.10694431659499
30
0
41
1
10
75.6675283121054
20
-3.30068395845086
30
0
41
1
10
76.1454578097853
20
-3.47808354340668
30
0
0
SPLINE
5
A9
100
AcDbEntity
8
1
62
256
6
ByLayer
370
13
48
1
60
0
100
AcDbSpline
70
4
71
3
72
16
73
12
40
0
40
0
40
0
40
0
40
0.223024053135683
40
0.223024053135683
40
0.42358590874579
40
0.42358590874579
40
0.523866836550842
40
0.523866836550842
40
0.624147764355893
40
0.624147764355893
40
1
40
1
40
1
40
1
41
1
10
76.1454578089794
20
-3.47808354310757
30
0
41
1
10
76.7439416846503
20
-3.70023093445477
30
0
41
1
10
77.3403434196176
20
-3.89675527716048
30
0
41
1
10
78.4747127222509
20
-4.21525866649986
30
0
41
1
10
79.0124151390744
20
-4.34288363624543
30
0
41
1
10
79.8232560742807
20
-4.49607916262545
30
0
41
1
10
80.0942015967382
20
-4.54079077450879
30
0
41
1
10
80.6380669650821
20
-4.61694203102439
30
0
41
1
10
80.9101232661134
20
-4.6482496299711
30
0
41
1
10
82.1956060580618
20
-4.76358932621449
30
0
41
1
10
83.1991479925965
20
-4.75731531116145
30
0
41
1
10
84.2057053590344
20
-4.65626234354667
30
0
0
SPLINE
5
AA
100
AcDbEntity
8
1
62
256
6
ByLayer
370
18
48
1
60
0
100
AcDbSpline
70
4
71
3
72
8
73
4
40
0
40
0
40
0
40
0
40
1
40
1
40
1
40
1
41
1
10
111.821741996193
20
1.22076114077487
30
0
41
1
10
111.88069908035
20
0.859468122381998
30
0
41
1
10
111.932784182623
20
0.498230980832943
30
0
41
1
10
111.977951657246
20
0.137050087278482
30
0
0
SPLINE
5
AB
100
AcDbEntity
8
1
62
256
6
ByLayer
370
18
48
1
60
0
100
AcDbSpline
70
4
71
3
72
16
73
12
40
0
40
0
40
0
40
0
40
0.070512955400945
40
0.070512955400945
40
0.299450698328808
40
0.299450698328808
40
0.52838844125667
40
0.52838844125667
40
0.986263927112395
40
0.986263927112395
40
1
40
1
40
1
40
1
41
1
10
41.7755655469128
20
0.0121795506463798
30
0
41
1
10
41.9413138788064
20
-0.0780015068492332
30
0
41
1
10
42.1071781880259
20
-0.168252267549462
30
0
41
1
10
42.8123187073512
20
-0.551327565345417
30
0
41
1
10
43.3532305637558
20
-0.84383175966434
30
0
41
1
10
44.442963278394
20
-1.42009195423006
30
0
41
1
10
44.9845127878904
20
-1.69944898319022
30
0
41
1
10
46.6020681873232
20
-2.50014701316627
30
0
41
1
10
47.6726507597533
20
-2.98443621378132
30
0
41
1
10
48.7844936660381
20
-3.40549212297407
30
0
41
1
10
48.8168855831321
20
-3.41768721129731
30
0
41
1
10
48.8492864884572
20
-3.42981316648971
30
0
0
SPLINE
5
AC
100
AcDbEntity
8
1
62
256
6
ByLayer
370
13
48
1
60
0
100
AcDbSpline
70
4
71
3
72
20
73
16
40
0
40
0
40
0
40
0
40
0.0864610856457886
40
0.0864610856457886
40
0.184712261375067
40
0.184712261375067
40
0.381214612833627
40
0.381214612833627
40
0.774219315750748
40
0.774219315750748
40
0.872470491480028
40
0.872470491480028
40
0.970721667209309
40
0.970721667209309
40
1
40
1
40
1
40
1
41
1
10
48.8492874244256
20
-3.42981351677346
30
0
41
1
10
49.0868975207345
20
-3.51873847181588
30
0
41
1
10
49.3249909984044
20
-3.60394549223562
30
0
41
1
10
49.8350201424315
20
-3.77751062340121
30
0
41
1
10
50.1077932326511
20
-3.86494325285653
30
0
41
1
10
50.9232795428457
20
-4.10871229564805
30
0
41
1
10
51.4633441390196
20
-4.24677748648665
30
0
41
1
10
53.0786287531203
20
-4.58413727754461
30
0
41
1
10
54.1493713118765
20
-4.70665809656199
30
0
41
1
10
55.5012235493393
20
-4.72171515925641
30
0
41
1
10
55.7722590852602
20
-4.71780907766924
30
0
41
1
10
56.3162082241731
20
-4.69603687805807
30
0
41
1
10
56.5888368318663
20
-4.67814255220264
30
0
41
1
10
56.9419428002067
20
-4.64598623557006
30
0
41
1
10
57.0229983756275
20
-4.63799414522742
30
0
41
1
10
57.1040486511778
20
-4.62939504716286
30
0
0
SPLINE
5
AD
100
AcDbEntity
8
1
62
256
6
ByLayer
370
18
48
1
60
0
100
AcDbSpline
70
4
71
3
72
14
73
10
40
0
40
0
40
0
40
0
40
0.156011403095882
40
0.156011403095882
40
0.374209088352918
40
0.374209088352918
40
0.592406773609956
40
0.592406773609956
40
1
40
1
40
1
40
1
41
1
10
96.195365266357
20
0.0013851621323226
30
0
41
1
10
96.5790228962011
20
-0.208899183438547
30
0
41
1
10
96.962885133776
20
-0.419341154654859
30
0
41
1
10
97.8859540511672
20
-0.921048469426637
30
0
41
1
10
98.4262412243685
20
-1.21107315859487
30
0
41
1
10
99.5146093350162
20
-1.77766078987435
30
0
41
1
10
100.054771973835
20
-2.04987898127342
30
0
41
1
10
101.598201325488
20
-2.78998550299559
30
0
41
1
10
102.596692513205
20
-3.2223826310009
30
0
41
1
10
103.602291240043
20
-3.58487540799533
30
0
0
SPLINE
5
AE
100
AcDbEntity
8
1
62
256
6
ByLayer
370
13
48
1
60
0
100
AcDbSpline
70
4
71
3
72
16
73
12
40
0
40
0
40
0
40
0
40
0.0319457057765331
40
0.0319457057765331
40
0.152952492554471
40
0.152952492554471
40
0.273959279332407
40
0.273959279332407
40
0.515972852888273
40
0.515972852888273
40
1
40
1
40
1
40
1
41
1
10
103.602292181116
20
-3.58487574722841
30
0
41
1
10
103.673351437884
20
-3.61049079965102
30
0
41
1
10
103.744446185093
20
-3.6357567952476
30
0
41
1
10
104.08503333226
20
-3.75502211864824
30
0
41
1
10
104.355071215892
20
-3.8442640367347
30
0
41
1
10
104.896886515084
20
-4.01173844059969
30
0
41
1
10
105.169299719855
20
-4.09013053508227
30
0
41
1
10
105.983517302628
20
-4.30602327764515
30
0
41
1
10
106.52298878271
20
-4.42462182905393
30
0
41
1
10
108.138194125576
20
-4.70106836224224
30
0
41
1
10
109.210697619584
20
-4.78008707812154
30
0
41
1
10
110.295426868657
20
-4.74631054127104
30
0
0
SPLINE
5
AF
100
AcDbEntity
8
1
62
256
6
ByLayer
370
18
48
1
60
0
100
AcDbSpline
70
4
71
3
72
18
73
14
40
0
40
0
40
0
40
0
40
0.25
40
0.25
40
0.375
40
0.375
40
0.500000000000001
40
0.500000000000001
40
0.750000000000001
40
0.750000000000001
40
0.875
40
0.875
40
1
40
1
40
1
40
1
41
1
10
110.251661965963
20
-4.64815081751451
30
0
41
1
10
110.152867802411
20
-4.63437489009311
30
0
41
1
10
110.061375719642
20
-4.59977768651609
30
0
41
1
10
109.936063951575
20
-4.51387486849009
30
0
41
1
10
109.896170696747
20
-4.47934291907399
30
0
41
1
10
109.822130901067
20
-4.39978032136108
30
0
41
1
10
109.787792914002
20
-4.35467162048064
30
0
41
1
10
109.692860427905
20
-4.20329231160423
30
0
41
1
10
109.640277808612
20
-4.08110674300309
30
0
41
1
10
109.578740882013
20
-3.86338981660529
30
0
41
1
10
109.561115052607
20
-3.78472119068161
30
0
41
1
10
109.532589998869
20
-3.61846412204662
30
0
41
1
10
109.521581768616
20
-3.53059699973034
30
0
41
1
10
109.513850288651
20
-3.43795859457825
30
0
0
SPLINE
5
B0
100
AcDbEntity
8
1
62
256
6
ByLayer
370
18
48
1
60
0
100
AcDbSpline
70
4
71
3
72
50
73
46
40
0
40
0
40
0
40
0
40
0.0625000000000058
40
0.0625000000000058
40
0.125000000000012
40
0.125000000000012
40
0.187500000000018
40
0.187500000000018
40
0.21875000000002
40
0.21875000000002
40
0.250000000000023
40
0.250000000000023
40
0.375000000000034
40
0.375000000000034
40
0.406250000000037
40
0.406250000000037
40
0.43750000000004
40
0.43750000000004
40
0.500000000000045
40
0.500000000000045
40
0.562500000000049
40
0.562500000000049
40
0.625000000000054
40
0.625000000000054
40
0.687500000000059
40
0.687500000000059
40
0.718750000000061
40
0.718750000000061
40
0.726562500000062
40
0.726562500000062
40
0.730468750000063
40
0.730468750000063
40
0.734375000000063
40
0.734375000000063
40
0.738281250000064
40
0.738281250000064
40
0.742187500000064
40
0.742187500000064
40
0.750000000000062
40
0.750000000000062
40
0.812500000000047
40
0.812500000000047
40
0.875000000000031
40
0.875000000000031
40
1
40
1
40
1
40
1
41
1
10
6.41724118717846
20
-2.84132723520321
30
0
41
1
10
6.36325043554848
20
-2.71670075501564
30
0
41
1
10
6.31251086496934
20
-2.58517720828951
30
0
41
1
10
6.22116389831885
20
-2.31419445504932
30
0
41
1
10
6.18038769857077
20
-2.17453837446061
30
0
41
1
10
6.10980350208143
20
-1.88647466650542
30
0
41
1
10
6.0799880474043
20
-1.73807078069899
30
0
41
1
10
6.04493026182257
20
-1.50828482389193
30
0
41
1
10
6.03483207781463
20
-1.43016789852774
30
0
41
1
10
6.01837709550787
20
-1.27315726644372
30
0
41
1
10
6.01201321280004
20
-1.1943642395035
30
0
41
1
10
5.98981128168663
20
-0.798996954421824
30
0
41
1
10
6.0023659743299
20
-0.478252923897713
30
0
41
1
10
6.06550263689351
20
-0.071963592610274
30
0
41
1
10
6.08053870406275
20
0.0094453539499284
30
0
41
1
10
6.11496628352469
20
0.169686010080881
30
0
41
1
10
6.13441275130668
20
0.248906308304782
30
0
41
1
10
6.19941673239916
20
0.48391223602016
30
0
41
1
10
6.25161219696417
20
0.637052505458541
30
0
41
1
10
6.3738454030759
20
0.936381305389887
30
0
41
1
10
6.44441081364792
20
1.08326021572026
30
0
41
1
10
6.59931709236821
20
1.36265643009853
30
0
41
1
10
6.68390142907066
20
1.49610119372773
30
0
41
1
10
6.86629936090046
20
1.75178382043904
30
0
41
1
10
6.9643847959571
20
1.87429816320343
30
0
41
1
10
7.11996119018818
20
2.04931254086154
30
0
41
1
10
7.17317443362759
20
2.10614264453875
30
0
41
1
10
7.24122509582409
20
2.17532437658767
30
0
41
1
10
7.25491230446619
20
2.18906836620366
30
0
41
1
10
7.27555449003137
20
2.20954508023772
30
0
41
1
10
7.28241090299545
20
2.21638229124974
30
0
41
1
10
7.29620103494847
20
2.22997651101105
30
0
41
1
10
7.30374936720895
20
2.23641017720465
30
0
41
1
10
7.32091658958197
20
2.24622224256137
30
0
41
1
10
7.33052871291292
20
2.24985287530151
30
0
41
1
10
7.35041223529709
20
2.2544140136927
30
0
41
1
10
7.36069486714254
20
2.25511559677196
30
0
41
1
10
7.39160239120037
20
2.25678876640228
30
0
41
1
10
7.41220513035924
20
2.25794322873415
30
0
41
1
10
7.59771658970951
20
2.26683517429811
30
0
41
1
10
7.76280996599851
20
2.2683739307661
30
0
41
1
10
8.09244424609639
20
2.25908170416059
30
0
41
1
10
8.25741055534783
20
2.24821018032412
30
0
41
1
10
8.74783503047189
20
2.19743044901074
30
0
41
1
10
9.06992779948843
20
2.13963085179236
30
0
41
1
10
9.38724391428258
20
2.0568368574736
30
0
0
SPLINE
5
B1
100
AcDbEntity
8
1
62
256
6
ByLayer
370
13
48
1
60
0
100
AcDbSpline
70
4
71
3
72
24
73
20
40
0
40
0
40
0
40
0
40
0.0296425115656333
40
0.0296425115656333
40
0.137460010280563
40
0.137460010280563
40
0.245277508995493
40
0.245277508995493
40
0.353095007710422
40
0.353095007710422
40
0.460912506425352
40
0.460912506425352
40
0.568730005140281
40
0.568730005140281
40
0.784365002570141
40
0.784365002570141
40
0.89218250128507
40
0.89218250128507
40
1
40
1
40
1
40
1
41
1
10
6.66730754134349
20
-4.59008698670695
30
0
41
1
10
6.66730626639591
20
-4.59003533133699
30
0
41
1
10
6.66730503315591
20
-4.58947695960055
30
0
41
1
10
6.66729952622387
20
-4.5845251561401
30
0
41
1
10
6.66729580456237
20
-4.57380581966174
30
0
41
1
10
6.66729000594393
20
-4.53889729876374
30
0
41
1
10
6.66728791348805
20
-4.51474785773379
30
0
41
1
10
6.66728555635518
20
-4.45305272887541
30
0
41
1
10
6.66728529805775
20
-4.41541346794222
30
0
41
1
10
6.66728674399184
20
-4.32750892520599
30
0
41
1
10
6.66728844220222
20
-4.27718072069001
30
0
41
1
10
6.66729381791356
20
-4.16373354143226
30
0
41
1
10
6.6672975072677
20
-4.10052133533557
30
0
41
1
10
6.66731123206742
20
-3.89490445406022
30
0
41
1
10
6.66732397849805
20
-3.73579277745341
30
0
41
1
10
6.6673471947721
20
-3.46434014407527
30
0
41
1
10
6.66735562329705
20
-3.36822114458221
30
0
41
1
10
6.66737349299089
20
-3.1651476710949
30
0
41
1
10
6.66738281162469
20
-3.05955767354303
30
0
41
1
10
6.66739230331882
20
-2.95004700068407
30
0
0
SPLINE
5
B2
100
AcDbEntity
8
1
62
256
6
ByLayer
370
18
48
1
60
0
100
AcDbSpline
70
4
71
3
72
8
73
4
40
0
40
0
40
0
40
0
40
1
40
1
40
1
40
1
41
1
10
111.999970502272
20
0.0340535681469305
30
0
41
1
10
112.000009832558
20
0.0113511987321715
30
0
41
1
10
112.000009832558
20
-0.0113511987219965
30
0
41
1
10
111.999970502272
20
-0.0340535681367555
30
0
0
SPLINE
5
B3
100
AcDbEntity
8
1
62
256
6
ByLayer
370
18
48
1
60
0
100
AcDbSpline
70
4
71
3
72
16
73
12
40
0
40
0
40
0
40
0
40
0.331008466215505
40
0.331008466215505
40
0.497011315190714
40
0.497011315190714
40
0.663014164165923
40
0.663014164165923
40
0.995019862116341
40
0.995019862116341
40
1
40
1
40
1
40
1
41
1
10
82.8148465424087
20
-4.63759204235078
30
0
41
1
10
82.2791584302547
20
-4.6375471749601
30
0
41
1
10
81.742440861356
20
-4.61089087208435
30
0
41
1
10
80.9319164974351
20
-4.53045086584208
30
0
41
1
10
80.6598585433907
20
-4.49672089111763
30
0
41
1
10
80.1163242447624
20
-4.4161771047564
30
0
41
1
10
79.8455101804221
20
-4.36945756016939
30
0
41
1
10
79.0349806301906
20
-4.21078022359771
30
0
41
1
10
78.4973362998089
20
-4.08030151682334
30
0
41
1
10
77.9521997594157
20
-3.92508676704679
30
0
41
1
10
77.944143613335
20
-3.9227878609901
30
0
41
1
10
77.9360876027736
20
-3.92048389469014
30
0
0
SPLINE
5
B4
100
AcDbEntity
8
1
62
256
6
ByLayer
370
13
48
1
60
0
100
AcDbSpline
70
4
71
3
72
18
73
14
40
0
40
0
40
0
40
0
40
0.259680276080927
40
0.259680276080927
40
0.325090930161967
40
0.325090930161967
40
0.390501584243006
40
0.390501584243006
40
0.521322892405085
40
0.521322892405085
40
0.782965508729245
40
0.782965508729245
40
1
40
1
40
1
40
1
41
1
10
77.9360876031706
20
-3.92048389480357
30
0
41
1
10
76.8700201770118
20
-3.61559558756085
30
0
41
1
10
75.8063259289859
20
-3.22209361690426
30
0
41
1
10
74.4574566404694
20
-2.64172410297414
30
0
41
1
10
74.1848452544617
20
-2.52041798262607
30
0
41
1
10
73.6425886921321
20
-2.27197667352524
30
0
41
1
10
73.372325364793
20
-2.14456970758258
30
0
41
1
10
72.5631792017398
20
-1.75448709860865
30
0
41
1
10
72.0259355048908
20
-1.48395648501506
30
0
41
1
10
70.414934020583
20
-0.65180817774214
30
0
41
1
10
69.3417637670079
20
-0.0697967703718518
30
0
41
1
10
67.3498387162126
20
0.988645161118825
30
0
41
1
10
66.457075932253
20
1.45418217266297
30
0
41
1
10
65.5657974989704
20
1.88882001287641
30
0
0
SPLINE
5
B5
100
AcDbEntity
8
1
62
256
6
ByLayer
370
18
48
1
60
0
100
AcDbSpline
70
4
71
3
72
14
73
10
40
0
40
0
40
0
40
0
40
0.426882226064494
40
0.426882226064494
40
0.578260424537656
40
0.578260424537656
40
0.729638623010817
40
0.729638623010817
40
1
40
1
40
1
40
1
41
1
10
28.3921838735122
20
-4.60375116714386
30
0
41
1
10
27.6340976739342
20
-4.60255573934339
30
0
41
1
10
26.875591140929
20
-4.54843384344056
30
0
41
1
10
25.8398760832886
20
-4.40342449759177
30
0
41
1
10
25.5674592334473
20
-4.35873084677954
30
0
41
1
10
25.0230178030835
20
-4.25663242397681
30
0
41
1
10
24.7517256087743
20
-4.19937850262548
30
0
41
1
10
23.9977931693912
20
-4.0233810101885
30
0
41
1
10
23.5166175984449
20
-3.89177022415592
30
0
41
1
10
23.036101927499
20
-3.74308848209398
30
0
0
SPLINE
5
B6
100
AcDbEntity
8
1
62
256
6
ByLayer
370
13
48
1
60
0
100
AcDbSpline
70
4
71
3
72
26
73
22
40
0
40
0
40
0
40
0
40
0.014418580790298
40
0.014418580790298
40
0.283924057538497
40
0.283924057538497
40
0.351300426725548
40
0.351300426725548
40
0.418676795912598
40
0.418676795912598
40
0.553429534286695
40
0.553429534286695
40
0.688182272660794
40
0.688182272660794
40
0.822935011034892
40
0.822935011034892
40
0.890311380221941
40
0.890311380221941
40
0.957687749408992
40
0.957687749408992
40
1
40
1
40
1
40
1
41
1
10
23.0361019243431
20
-3.7430884811175
30
0
41
1
10
22.9785259693791
20
-3.72527325924884
30
0
41
1
10
22.9209594886756
20
-3.70721294769612
30
0
41
1
10
21.7875231938283
20
-3.34680948805362
30
0
41
1
10
20.714215991367
20
-2.92002975966847
30
0
41
1
10
19.3554259802285
20
-2.30679673197548
30
0
41
1
10
19.0824065834513
20
-2.1799826680064
30
0
41
1
10
18.5391576312564
20
-1.92167204792747
30
0
41
1
10
18.2683573252886
20
-1.78992417622254
30
0
41
1
10
17.4576916486298
20
-1.38829604881639
30
0
41
1
10
16.9197087402798
20
-1.11179421926025
30
0
41
1
10
15.8441110129115
20
-0.54986365479084
30
0
41
1
10
15.3064589582808
20
-0.264502546812935
30
0
41
1
10
14.227530691767
20
0.30758920698031
30
0
41
1
10
13.6865755839675
20
0.594891739047938
30
0
41
1
10
12.8692338321456
20
1.02071334867404
30
0
41
1
10
12.5971240374145
20
1.16109058192075
30
0
41
1
10
12.0551482121435
20
1.43674066900979
30
0
41
1
10
11.784951242677
20
1.57218596406418
30
0
41
1
10
11.3459759393153
20
1.78818207833476
30
0
41
1
10
11.1768738515833
20
1.87044275144723
30
0
41
1
10
11.0079358594778
20
1.95152981715711
30
0
0
SPLINE
5
B7
100
AcDbEntity
8
1
62
256
6
ByLayer
370
18
48
1
60
0
100
AcDbSpline
70
4
71
3
72
8
73
4
40
0
40
0
40
0
40
0
40
1
40
1
40
1
40
1
41
1
10
110.256689475212
20
1.22665027776696
30
0
41
1
10
110.779084381795
20
1.2206345271903
30
0
41
1
10
111.301349457681
20
1.21535909057315
30
0
41
1
10
111.821741996193
20
1.2207611407749
30
0
0
SPLINE
5
B8
100
AcDbEntity
8
1
62
256
6
ByLayer
370
18
48
1
60
0
100
AcDbSpline
70
4
71
3
72
8
73
4
40
0
40
0
40
0
40
0
40
1
40
1
40
1
40
1
41
1
10
110.251661965961
20
-4.64815081751442
30
0
41
1
10
110.26240454461
20
-4.65248746335789
30
0
41
1
10
110.273875046652
20
-4.65473545999413
30
0
41
1
10
110.286089383959
20
-4.65491407435877
30
0
0
SPLINE
5
B9
100
AcDbEntity
8
1
62
256
6
ByLayer
370
18
48
1
60
0
100
AcDbSpline
70
4
71
3
72
8
73
4
40
0
40
0
40
0
40
0
40
1
40
1
40
1
40
1
41
1
10
6.41733117691686
20
3.99769851960176
30
0
41
1
10
6.41727211843926
20
3.99868024076142
30
0
41
1
10
6.41724254332735
20
3.99966189724287
30
0
41
1
10
6.41724254264375
20
4.0006426455908
30
0
0
SPLINE
5
BA
100
AcDbEntity
8
1
62
256
6
ByLayer
370
18
48
1
60
0
100
AcDbSpline
70
4
71
3
72
30
73
26
40
0
40
0
40
0
40
0
40
0.186150427114048
40
0.186150427114048
40
0.279225640671072
40
0.279225640671072
40
0.325763247449585
40
0.325763247449585
40
0.372300854228098
40
0.372300854228098
40
0.55845128134215
40
0.55845128134215
40
0.604988888120662
40
0.604988888120662
40
0.651526494899174
40
0.651526494899174
40
0.744601708456196
40
0.744601708456196
40
0.837676922013218
40
0.837676922013218
40
0.93075213557024
40
0.93075213557024
40
0.977289742348751
40
0.977289742348751
40
1
40
1
40
1
40
1
41
1
10
9.38724391428258
20
-4.5763676013467
30
0
41
1
10
9.90400998572591
20
-4.55522305644516
30
0
41
1
10
10.4169715774173
20
-4.51015869803118
30
0
41
1
10
11.1817732386812
20
-4.40824130266316
30
0
41
1
10
11.4360782259487
20
-4.36837889065885
30
0
41
1
10
11.8171785825484
20
-4.29962563474515
30
0
41
1
10
11.9439667546797
20
-4.27510039606594
30
0
41
1
10
12.1983525826637
20
-4.22385775340334
30
0
41
1
10
12.3256072019146
20
-4.19690758052568
30
0
41
1
10
12.961768941358
20
-4.05538162758234
30
0
41
1
10
13.4705903345222
20
-3.92030387696894
30
0
41
1
10
14.1075072065781
20
-3.72737062072417
30
0
41
1
10
14.2348938650066
20
-3.687633593697
30
0
41
1
10
14.489859727361
20
-3.60536692240237
30
0
41
1
10
14.6173602427915
20
-3.56258939860811
30
0
41
1
10
15.0016585903531
20
-3.43175502581474
30
0
41
1
10
15.258673031844
20
-3.3397610428168
30
0
41
1
10
15.7740627151285
20
-3.14634016203672
30
0
41
1
10
16.0318451500567
20
-3.04521470111621
30
0
41
1
10
16.5449562503603
20
-2.83607146758624
30
0
41
1
10
16.8006320975671
20
-2.72773193311318
30
0
41
1
10
17.1830980936086
20
-2.55998333792294
30
0
41
1
10
17.3104550845362
20
-2.50326379091325
30
0
41
1
10
17.5002569073239
20
-2.41846913319205
30
0
41
1
10
17.5624880235728
20
-2.39048987881355
30
0
41
1
10
17.6247019692928
20
-2.36233160321544
30
0
0
SPLINE
5
BB
100
AcDbEntity
8
1
62
256
6
ByLayer
370
18
48
1
60
0
100
AcDbSpline
70
4
71
3
72
114
73
110
40
0
40
0
40
0
40
0
40
0.0306193989173939
40
0.0306193989173939
40
0.0517627550418317
40
0.0517627550418317
40
0.0729061111662694
40
0.0729061111662694
40
0.0940494672907072
40
0.0940494672907072
40
0.115192823415145
40
0.115192823415145
40
0.136336179539583
40
0.136336179539583
40
0.146907857601802
40
0.146907857601802
40
0.157479535664021
40
0.157479535664021
40
0.178622891788458
40
0.178622891788458
40
0.199766247912894
40
0.199766247912894
40
0.220909604037331
40
0.220909604037331
40
0.242052960161768
40
0.242052960161768
40
0.263196316286205
40
0.263196316286205
40
0.284339672410642
40
0.284339672410642
40
0.305483028535079
40
0.305483028535079
40
0.326626384659516
40
0.326626384659516
40
0.347769740783953
40
0.347769740783953
40
0.358341418846171
40
0.358341418846171
40
0.36891309690839
40
0.36891309690839
40
0.390056453032828
40
0.390056453032828
40
0.411199809157266
40
0.411199809157266
40
0.432343165281704
40
0.432343165281704
40
0.442914843343923
40
0.442914843343923
40
0.453486521406141
40
0.453486521406141
40
0.474629877530579
40
0.474629877530579
40
0.495773233655017
40
0.495773233655017
40
0.506344911717236
40
0.506344911717236
40
0.516916589779456
40
0.516916589779456
40
0.538059945903894
40
0.538059945903894
40
0.559203302028331
40
0.559203302028331
40
0.56977498009055
40
0.56977498009055
40
0.580346658152769
40
0.580346658152769
40
0.601490014277206
40
0.601490014277206
40
0.622633370401643
40
0.622633370401643
40
0.64377672652608
40
0.64377672652608
40
0.654348404588298
40
0.654348404588298
40
0.664920082650517
40
0.664920082650517
40
0.686063438774953
40
0.686063438774953
40
0.70720679489939
40
0.70720679489939
40
0.728350151023827
40
0.728350151023827
40
0.749493507148264
40
0.749493507148264
40
0.770636863272701
40
0.770636863272701
40
0.791780219397138
40
0.791780219397138
40
0.802351897459356
40
0.802351897459356
40
0.812923575521575
40
0.812923575521575
40
0.834066931646011
40
0.834066931646011
40
0.855210287770447
40
0.855210287770447
40
0.876353643894883
40
0.876353643894883
40
0.897497000019319
40
0.897497000019319
40
0.918640356143755
40
0.918640356143755
40
0.93978371226819
40
0.93978371226819
40
0.960927068392627
40
0.960927068392627
40
0.982070424517063
40
0.982070424517063
40
1
40
1
40
1
40
1
41
1
10
35.858468819227
20
4.60749180062558
30
0
41
1
10
36.2279738787448
20
4.60863699277797
30
0
41
1
10
36.5969196052709
20
4.59741357187568
30
0
41
1
10
37.2192228436769
20
4.55670388032678
30
0
41
1
10
37.4732035456408
20
4.53417297669873
30
0
41
1
10
37.9806532747195
20
4.47787299958296
30
0
41
1
10
38.2337548181607
20
4.44361725249289
30
0
41
1
10
38.7424247094431
20
4.36401394901108
30
0
41
1
10
38.9971300640603
20
4.31849927565983
30
0
41
1
10
39.507000872315
20
4.2167193411469
30
0
41
1
10
39.7622717470766
20
4.16032180633886
30
0
41
1
10
40.2740931511275
20
4.03549710947047
30
0
41
1
10
40.5305229138142
20
3.96713769359772
30
0
41
1
10
40.9161043175115
20
3.85660325862037
30
0
41
1
10
41.044631517723
20
3.81856771039995
30
0
41
1
10
41.3016115109619
20
3.74072345014952
30
0
41
1
10
41.42993200174
20
3.70064737873432
30
0
41
1
10
41.8143222714325
20
3.57675584272079
30
0
41
1
10
42.0697841868577
20
3.48927332230889
30
0
41
1
10
42.5797039630069
20
3.30617427432782
30
0
41
1
10
42.8341558937926
20
3.21054598099821
30
0
41
1
10
43.3420169070017
20
3.01019287984144
30
0
41
1
10
43.5953216939714
20
2.90523598133498
30
0
41
1
10
44.1034968154905
20
2.69120193381929
30
0
41
1
10
44.357571717573
20
2.58089805636726
30
0
41
1
10
44.8659211058084
20
2.35242930704447
30
0
41
1
10
45.1202666198909
20
2.23481047435649
30
0
41
1
10
45.6293604547419
20
1.99373105184321
30
0
41
1
10
45.883941503427
20
1.87012671226248
30
0
41
1
10
46.3943541409853
20
1.61626934428989
30
0
41
1
10
46.6511700055025
20
1.48836097566903
30
0
41
1
10
47.1656995322126
20
1.22739211555569
30
0
41
1
10
47.4232880438735
20
1.09475113992514
30
0
41
1
10
47.9357200423381
20
0.827877585379099
30
0
41
1
10
48.1911125784996
20
0.693408613793821
30
0
41
1
10
48.5730877926189
20
0.490252407904848
30
0
41
1
10
48.7002364554664
20
0.422311865713596
30
0
41
1
10
48.9542730396923
20
0.286161092635609
30
0
41
1
10
49.0815936396607
20
0.218793703460903
30
0
41
1
10
49.4631194631207
20
0.0163179520607741
30
0
41
1
10
49.7172104941316
20
-0.118587313208337
30
0
41
1
10
50.2249578852265
20
-0.388333156389734
30
0
41
1
10
50.4786773964376
20
-0.523072428056366
30
0
41
1
10
50.9860704508153
20
-0.791534121942476
30
0
41
1
10
51.2397017223223
20
-0.925274354903962
30
0
41
1
10
51.6205810791519
20
-1.12437720780534
30
0
41
1
10
51.7480644704534
20
-1.18963639552487
30
0
41
1
10
52.0029597412309
20
-1.32005831258081
30
0
41
1
10
52.1304993360451
20
-1.38498596913931
30
0
41
1
10
52.5134734889434
20
-1.57868240233208
30
0
41
1
10
52.769423591446
20
-1.70599905904459
30
0
41
1
10
53.2827051087817
20
-1.95705207316038
30
0
41
1
10
53.5403562385477
20
-2.08111796066663
30
0
41
1
10
53.9245758499334
20
-2.2628004794318
30
0
41
1
10
54.0522678624986
20
-2.32279786518742
30
0
41
1
10
54.3078460765303
20
-2.43991901121714
30
0
41
1
10
54.4357406638347
20
-2.49709956350162
30
0
41
1
10
54.8187458000134
20
-2.66656497777518
30
0
41
1
10
55.0735058841044
20
-2.7762805249439
30
0
41
1
10
55.5821115234887
20
-2.98860780884925
30
0
41
1
10
55.836053418064
20
-3.09071211196036
30
0
41
1
10
56.2164891322213
20
-3.23784020488131
30
0
41
1
10
56.3432099626967
20
-3.28593529839466
30
0
41
1
10
56.59653373824
20
-3.38032317521436
30
0
41
1
10
56.7229681207023
20
-3.42681512119668
30
0
41
1
10
57.1035798378371
20
-3.56147171230657
30
0
41
1
10
57.357802590203
20
-3.64569592814442
30
0
41
1
10
57.8664333722411
20
-3.80542314747606
30
0
41
1
10
58.1209255842388
20
-3.88107835443495
30
0
41
1
10
58.6307589823673
20
-4.02283892805056
30
0
41
1
10
58.8860196322768
20
-4.08893151080071
30
0
41
1
10
59.2698274356172
20
-4.17973034373486
30
0
41
1
10
59.3977957884269
20
-4.20877405070149
30
0
41
1
10
59.6549646690291
20
-4.26362593394623
30
0
41
1
10
59.7837887051489
20
-4.28978347595253
30
0
41
1
10
60.1692190147986
20
-4.36397401246913
30
0
41
1
10
60.4252553004302
20
-4.40765670476245
30
0
41
1
10
60.935928241506
20
-4.48234159138556
30
0
41
1
10
61.190658959014
20
-4.51356124657673
30
0
41
1
10
61.6988780431096
20
-4.56602034694188
30
0
41
1
10
61.9519825396584
20
-4.58632615968745
30
0
41
1
10
62.459824551574
20
-4.61381435554739
30
0
41
1
10
62.7137325664652
20
-4.62135754838476
30
0
41
1
10
63.2212399567723
20
-4.626079595112
30
0
41
1
10
63.4749505901748
20
-4.62264548670095
30
0
41
1
10
63.9828124242249
20
-4.60276975266999
30
0
41
1
10
64.2368508098589
20
-4.58654973901295
30
0
41
1
10
64.6182365723069
20
-4.55387916606645
30
0
41
1
10
64.7454806885863
20
-4.54165585292202
30
0
41
1
10
65.0008239370995
20
-4.51425747421749
30
0
41
1
10
65.1286932845371
20
-4.49896052566822
30
0
41
1
10
65.5128231404876
20
-4.44841636462729
30
0
41
1
10
65.7699059578151
20
-4.40841210553103
30
0
41
1
10
66.2840896536925
20
-4.31756519695659
30
0
41
1
10
66.5403093829065
20
-4.26703584963215
30
0
41
1
10
67.0508210955697
20
-4.15357955456824
30
0
41
1
10
67.3050209743511
20
-4.09080984382896
30
0
41
1
10
67.8142698056972
20
-3.95712361774215
30
0
41
1
10
68.0685344686056
20
-3.88574549582907
30
0
41
1
10
68.5763559231069
20
-3.7318588957535
30
0
41
1
10
68.8300415761938
20
-3.64976631288661
30
0
41
1
10
69.3371178969714
20
-3.47699130204777
30
0
41
1
10
69.5903943599824
20
-3.38598566346931
30
0
41
1
10
70.0971246082002
20
-3.19417064536944
30
0
41
1
10
70.3516557255124
20
-3.09495489975643
30
0
41
1
10
70.860985440933
20
-2.88820759384996
30
0
41
1
10
71.1159150859177
20
-2.78080180104902
30
0
41
1
10
71.5882374911332
20
-2.57486261905015
30
0
41
1
10
71.8054403951461
20
-2.47742776402632
30
0
41
1
10
72.0230654381078
20
-2.37722153637614
30
0
0
SPLINE
5
BC
100
AcDbEntity
8
1
62
256
6
ByLayer
370
18
48
1
60
0
100
AcDbSpline
70
4
71
3
72
58
73
54
40
0
40
0
40
0
40
0
40
0.0104354993512597
40
0.0104354993512597
40
0.0554157039262016
40
0.0554157039262016
40
0.100395908501143
40
0.100395908501143
40
0.145376113076085
40
0.145376113076085
40
0.190356317651027
40
0.190356317651027
40
0.235336522225969
40
0.235336522225969
40
0.280316726800911
40
0.280316726800911
40
0.325296931375854
40
0.325296931375854
40
0.347787033663324
40
0.347787033663324
40
0.370277135950795
40
0.370277135950795
40
0.415257340525737
40
0.415257340525737
40
0.460237545100679
40
0.460237545100679
40
0.505217749675621
40
0.505217749675621
40
0.550197954250563
40
0.550197954250563
40
0.64015836340045
40
0.64015836340045
40
0.662648465687922
40
0.662648465687922
40
0.685138567975394
40
0.685138567975394
40
0.730118772550338
40
0.730118772550338
40
0.775098977125282
40
0.775098977125282
40
0.797589079412753
40
0.797589079412753
40
0.820079181700225
40
0.820079181700225
40
0.865059386275169
40
0.865059386275169
40
0.910039590850113
40
0.910039590850113
40
0.955019795425057
40
0.955019795425057
40
0.977509897712528
40
0.977509897712528
40
1
40
1
40
1
40
1
41
1
10
90.2975699382576
20
4.64164550353851
30
0
41
1
10
90.3568575858417
20
4.64165746755887
30
0
41
1
10
90.4161755043792
20
4.64131961194619
30
0
41
1
10
90.7313418348552
20
4.63760689304701
30
0
41
1
10
90.988067886579
20
4.62806848844565
30
0
41
1
10
91.5015574806253
20
4.59840958270709
30
0
41
1
10
91.7575790964337
20
4.57790132540364
30
0
41
1
10
92.2680641571947
20
4.52394252551869
30
0
41
1
10
92.522667037246
20
4.4908051549871
30
0
41
1
10
93.0309025482067
20
4.41413966144546
30
0
41
1
10
93.2844032023256
20
4.37026922416936
30
0
41
1
10
93.7907603814978
20
4.26993083120342
30
0
41
1
10
94.0446558116128
20
4.21445256228819
30
0
41
1
10
94.5521055461329
20
4.09366303597335
30
0
41
1
10
94.8057247961507
20
4.0282283109635
30
0
41
1
10
95.3134976642879
20
3.88603025817656
30
0
41
1
10
95.5676600299942
20
3.80927382295167
30
0
41
1
10
95.9491468787353
20
3.68679283095233
30
0
41
1
10
96.0763503757468
20
3.64478315572268
30
0
41
1
10
96.331005374916
20
3.55812323231345
30
0
41
1
10
96.4587699424815
20
3.51383118977134
30
0
41
1
10
96.8427654504093
20
3.37745538111616
30
0
41
1
10
97.1000187390654
20
3.28149518306256
30
0
41
1
10
97.6138084208251
20
3.08115722011758
30
0
41
1
10
97.869836390532
20
2.97723508580646
30
0
41
1
10
98.380282367705
20
2.76167998598984
30
0
41
1
10
98.6346106515675
20
2.64982763315419
30
0
41
1
10
99.1422060943025
20
2.41977926864487
30
0
41
1
10
99.3967063759455
20
2.30386804240908
30
0
41
1
10
100.158211651942
20
1.94451812335396
30
0
41
1
10
100.665045895065
20
1.69352102982049
30
0
41
1
10
101.298618968622
20
1.36835389614998
30
0
41
1
10
101.425314270633
20
1.30269192529698
30
0
41
1
10
101.678922902206
20
1.17057628462442
30
0
41
1
10
101.806253339982
20
1.1049035167182
30
0
41
1
10
102.188175389104
20
0.906006924288107
30
0
41
1
10
102.443152406443
20
0.771849031653204
30
0
41
1
10
102.954297986501
20
0.500507020545513
30
0
41
1
10
103.210676490791
20
0.36351460927807
30
0
41
1
10
103.596136459887
20
0.156400705463994
30
0
41
1
10
103.724343813693
20
0.0872820319262928
30
0
41
1
10
103.98026263434
20
-0.0509650298436668
30
0
41
1
10
104.107854341938
20
-0.120328235085822
30
0
41
1
10
104.490886184401
20
-0.32642067998313
30
0
41
1
10
104.746275860816
20
-0.461770776273227
30
0
41
1
10
105.255420455454
20
-0.732024420104096
30
0
41
1
10
105.509456944531
20
-0.866403450821338
30
0
41
1
10
106.016937959769
20
-1.13258653558253
30
0
41
1
10
106.270302415233
20
-1.26449894125275
30
0
41
1
10
106.649964635723
20
-1.46029447615933
30
0
41
1
10
106.776299382438
20
-1.52549441353395
30
0
41
1
10
107.029825230339
20
-1.6534694753816
30
0
41
1
10
107.156746669728
20
-1.71673229116112
30
0
41
1
10
107.28367746014
20
-1.77952294679022
30
0
0
SPLINE
5
BD
100
AcDbEntity
8
1
62
256
6
ByLayer
370
18
48
1
60
0
100
AcDbSpline
70
4
71
3
72
22
73
18
40
0
40
0
40
0
40
0
40
0.0823468691936017
40
0.0823468691936017
40
0.18430832817209
40
0.18430832817209
40
0.388231246129068
40
0.388231246129068
40
0.490192705107557
40
0.490192705107557
40
0.592154164086046
40
0.592154164086046
40
0.796077082043023
40
0.796077082043023
40
0.898038541021511
40
0.898038541021511
40
1
40
1
40
1
40
1
41
1
10
6.41723972790311
20
-4.83500039258217
30
0
41
1
10
6.41723960462585
20
-4.83507731495766
30
0
41
1
10
6.41723948952401
20
-4.83033748846665
30
0
41
1
10
6.41723925552733
20
-4.8087906038387
30
0
41
1
10
6.41723914186247
20
-4.7891972919798
30
0
41
1
10
6.41723886668774
20
-4.70860574092382
30
0
41
1
10
6.41723876954904
20
-4.62625602594869
30
0
41
1
10
6.41723877206095
20
-4.46064379543893
30
0
41
1
10
6.41723879748949
20
-4.39837722578042
30
0
41
1
10
6.41723889948446
20
-4.25926246158105
30
0
41
1
10
6.41723897571862
20
-4.18304361267209
30
0
41
1
10
6.41723927313649
20
-3.93715034117136
30
0
41
1
10
6.41723956414614
20
-3.7495453210542
30
0
41
1
10
6.41724011017709
20
-3.43236134450123
30
0
41
1
10
6.41724031154604
20
-3.31997128788288
30
0
41
1
10
6.41724073577066
20
-3.08692464999362
30
0
41
1
10
6.41724095868358
20
-2.96618398720057
30
0
41
1
10
6.41724118717846
20
-2.84132723520321
30
0
0
SPLINE
5
BE
100
AcDbEntity
8
1
62
256
6
ByLayer
370
18
48
1
60
0
100
AcDbSpline
70
4
71
3
72
8
73
4
40
0
40
0
40
0
40
0
40
1
40
1
40
1
40
1
41
1
10
111.842541420939
20
-0.277245437891082
30
0
41
1
10
111.31224826928
20
-1.73421389776595
30
0
41
1
10
110.781955117621
20
-3.19118235764105
30
0
41
1
10
110.251661965963
20
-4.64815081751414
30
0
0
SPLINE
5
BF
100
AcDbEntity
8
1
62
256
6
ByLayer
370
18
48
1
60
0
100
AcDbSpline
70
4
71
3
72
12
73
8
40
0
40
0
40
0
40
0
40
0.572246050643524
40
0.572246050643524
40
0.858369075965286
40
0.858369075965286
40
1
40
1
40
1
40
1
41
1
10
110.31406143
20
-4.65199860340627
30
0
41
1
10
109.229497797109
20
-4.67228322307435
30
0
41
1
10
108.156817755307
20
-4.58227693736248
30
0
41
1
10
106.541448371789
20
-4.29357409591472
30
0
41
1
10
106.001951958317
20
-4.17162445793753
30
0
41
1
10
105.190549844457
20
-3.9526669498203
30
0
41
1
10
104.921060847791
20
-3.87410755281175
30
0
41
1
10
104.652976768687
20
-3.79050027827856
30
0
0
SPLINE
5
C0
100
AcDbEntity
8
1
62
256
6
ByLayer
370
13
48
1
60
0
100
AcDbSpline
70
4
71
3
72
22
73
18
40
0
40
0
40
0
40
0
40
0.000668458964214
40
0.000668458964214
40
0.0675133747023203
40
0.0675133747023203
40
0.33489303765473
40
0.33489303765473
40
0.468582869130931
40
0.468582869130931
40
0.602272700607133
40
0.602272700607133
40
0.869652363559532
40
0.869652363559532
40
0.93649727929763
40
0.93649727929763
40
1
40
1
40
1
40
1
41
1
10
104.652977038354
20
-3.79050036237939
30
0
41
1
10
104.650269079132
20
-3.78965583225707
30
0
41
1
10
104.647561263259
20
-3.78881078708284
30
0
41
1
10
104.374090543331
20
-3.7034105502814
30
0
41
1
10
104.104157476989
20
-3.61355640933019
30
0
41
1
10
102.757277143616
20
-3.13970728919094
30
0
41
1
10
101.688569685314
20
-2.68207579742045
30
0
41
1
10
100.074060704844
20
-1.91501613971127
30
0
41
1
10
99.5337239555831
20
-1.6458908614965
30
0
41
1
10
98.4458975784777
20
-1.08754762742359
30
0
41
1
10
97.9059300981589
20
-0.80239447095758
30
0
41
1
10
96.2915543964953
20
0.0590072909988635
30
0
41
1
10
95.2225246244082
20
0.640887165955036
30
0
41
1
10
93.8749249427553
20
1.33911993746088
30
0
41
1
10
93.6048267799112
20
1.47728631993115
30
0
41
1
10
93.0765178349755
20
1.74289934493751
30
0
41
1
10
92.8178087078088
20
1.87081991562317
30
0
41
1
10
92.5599640704767
20
1.99563909680623
30
0
0
SPLINE
5
C1
100
AcDbEntity
8
1
62
256
6
ByLayer
370
18
48
1
60
0
100
AcDbSpline
70
4
71
3
72
14
73
10
40
0
40
0
40
0
40
0
40
0.0551263038955243
40
0.0551263038955243
40
0.626376865219583
40
0.626376865219583
40
0.912002145881611
40
0.912002145881611
40
1
40
1
40
1
40
1
41
1
10
55.5712891948577
20
-4.62053619325368
30
0
41
1
10
55.4667538318486
20
-4.6202457582983
30
0
41
1
10
55.3623283686857
20
-4.61894433292207
30
0
41
1
10
54.1768665652615
20
-4.59271134335057
30
0
41
1
10
53.1060343783811
20
-4.46086108966441
30
0
41
1
10
51.4907160113549
20
-4.11397195525174
30
0
41
1
10
50.9506862845823
20
-3.97344573027911
30
0
41
1
10
50.2396771920337
20
-3.7587819410563
30
0
41
1
10
50.0719075732515
20
-3.70596875511688
30
0
41
1
10
49.9043526647242
20
-3.65119019579549
30
0
0
SPLINE
5
C2
100
AcDbEntity
8
1
62
256
6
ByLayer
370
13
48
1
60
0
100
AcDbSpline
70
4
71
3
72
20
73
16
40
0
40
0
40
0
40
0
40
0.0267811760414032
40
0.0267811760414032
40
0.0965559716372951
40
0.0965559716372951
40
0.375655154020874
40
0.375655154020874
40
0.515204745212662
40
0.515204745212662
40
0.654754336404452
40
0.654754336404452
40
0.933853518788034
40
0.933853518788034
40
1
40
1
40
1
40
1
41
1
10
49.9043526612878
20
-3.65119019467204
30
0
41
1
10
49.7999809526722
20
-3.61706805593536
30
0
41
1
10
49.6956925553873
20
-3.5821833179981
30
0
41
1
10
49.3204510710729
20
-3.45391339524315
30
0
41
1
10
49.050078219453
20
-3.35631114388747
30
0
41
1
10
47.701063936284
20
-2.8454989793733
30
0
41
1
10
46.6303691024073
20
-2.36439750568735
30
0
41
1
10
45.0128366769979
20
-1.57325510283215
30
0
41
1
10
44.4711898302359
20
-1.29774726951203
30
0
41
1
10
43.3821267247087
20
-0.731194987642766
30
0
41
1
10
42.8413899235328
20
-0.444130615883381
30
0
41
1
10
41.224392966424
20
0.416636985275375
30
0
41
1
10
40.1535593918582
20
0.990319951348425
30
0
41
1
10
38.8174419315587
20
1.6610653793837
30
0
41
1
10
38.5609570700111
20
1.78786110248816
30
0
41
1
10
38.3037045237959
20
1.91242909993659
30
0
0
SPLINE
5
C3
100
AcDbEntity
8
1
62
256
6
ByLayer
370
18
48
1
60
0
100
AcDbSpline
70
4
71
3
72
37
73
33
40
0
40
0
40
0
40
0
40
0.121759043217118
40
0.121759043217118
40
0.229607374097148
40
0.229607374097148
40
0.337455704977178
40
0.445304035857208
40
0.445304035857208
40
0.499228201297223
40
0.499228201297223
40
0.526190284017231
40
0.532930804697233
40
0.532930804697233
40
0.539671325377235
40
0.539671325377235
40
0.553152366737239
40
0.553152366737239
40
0.559892887417241
40
0.559892887417241
40
0.566633408097242
40
0.566633408097242
40
0.580114449457246
40
0.580114449457246
40
0.607076532177254
40
0.661000697617269
40
0.661000697617269
40
0.7688490284973
40
0.7688490284973
40
0.984545690257361
40
0.984545690257361
40
1
40
1
40
1
40
1
41
1
10
9.38724391428258
20
2.05683685748525
30
0
41
1
10
9.38724391428261
20
1.86902307435756
30
0
41
1
10
9.38724391428258
20
1.67392322171273
30
0
41
1
10
9.38724391428258
20
1.29267445837115
30
0
41
1
10
9.38724391428258
20
1.10814810998698
30
0
41
1
10
9.38724391428258
20
0.730237410826817
30
0
41
1
10
9.38724391428286
20
0.342980917800333
30
0
41
1
10
9.38724391428261
20
-0.0626769003890502
30
0
41
1
10
9.38724391428261
20
-0.373803909262534
30
0
41
1
10
9.38724391428258
20
-0.478724293448579
30
0
41
1
10
9.38724391428258
20
-0.637585124279582
30
0
41
1
10
9.38724391428261
20
-0.704074219329186
30
0
41
1
10
9.38724391428261
20
-0.770933684535322
30
0
41
1
10
9.38724391428261
20
-0.797707087665231
30
0
41
1
10
9.38724391428258
20
-0.810967974147218
30
0
41
1
10
9.38724391428258
20
-0.852892881221408
30
0
41
1
10
9.38724391428266
20
-0.882893958019196
30
0
41
1
10
9.38724391428266
20
-0.933536466921055
30
0
41
1
10
9.38724391428261
20
-0.951713272972455
30
0
41
1
10
9.38724391428261
20
-0.987382280329143
30
0
41
1
10
9.38724391428258
20
-1.00523240134945
30
0
41
1
10
9.38724391428258
20
-1.05882989545071
30
0
41
1
10
9.38724391428261
20
-1.09463074128735
30
0
41
1
10
9.38724391428261
20
-1.2021183008394
30
0
41
1
10
9.38724391428261
20
-1.41752227265863
30
0
41
1
10
9.38724391428258
20
-1.63423222938619
30
0
41
1
10
9.38724391428258
20
-2.06945230908474
30
0
41
1
10
9.38724391428258
20
-2.36220335435016
30
0
41
1
10
9.38724391428258
20
-3.24546827782149
30
0
41
1
10
9.38724391428258
20
-3.84155334463461
30
0
41
1
10
9.38724391428258
20
-4.48957918032534
30
0
41
1
10
9.38724391428258
20
-4.5329504606089
30
0
41
1
10
9.38724391428258
20
-4.57636760134696
30
0
0
SPLINE
5
C4
100
AcDbEntity
8
1
62
256
6
ByLayer
370
18
48
1
60
0
100
AcDbSpline
70
4
71
3
72
8
73
4
40
0
40
0
40
0
40
0
40
1
40
1
40
1
40
1
41
1
10
110.417664818204
20
-4.7675801624122
30
0
41
1
10
110.347728301669
20
-4.83581592184336
30
0
41
1
10
110.287641073212
20
-4.8783414006445
30
0
41
1
10
110.23691345422
20
-4.89358935497515
30
0
0
SPLINE
5
C5
100
AcDbEntity
8
1
62
256
6
ByLayer
370
18
48
1
60
0
100
AcDbSpline
70
4
71
3
72
56
73
52
40
0
40
0
40
0
40
0
40
0.0292740107179816
40
0.0292740107179816
40
0.0585480214359632
40
0.0585480214359632
40
0.117096042871929
40
0.117096042871929
40
0.146370053589911
40
0.146370053589911
40
0.175644064307894
40
0.175644064307894
40
0.234192085743857
40
0.234192085743857
40
0.292740107179821
40
0.292740107179821
40
0.351288128615784
40
0.351288128615784
40
0.380562139333765
40
0.380562139333765
40
0.409836150051747
40
0.409836150051747
40
0.468384171487708
40
0.468384171487708
40
0.497658182205688
40
0.497658182205688
40
0.526932192923669
40
0.526932192923669
40
0.585480214359632
40
0.585480214359632
40
0.644028235795595
40
0.644028235795595
40
0.673302246513575
40
0.673302246513575
40
0.702576257231556
40
0.702576257231556
40
0.761124278667514
40
0.761124278667514
40
0.790398289385494
40
0.790398289385494
40
0.819672300103473
40
0.819672300103473
40
0.878220321539434
40
0.878220321539434
40
0.907494332257414
40
0.907494332257414
40
0.936768342975395
40
0.936768342975395
40
0.995316364411355
40
0.995316364411355
40
1
40
1
40
1
40
1
41
1
10
110.23691345422
20
-4.89358935497509
30
0
41
1
10
109.96698541772
20
-4.9011738443574
30
0
41
1
10
109.697075465805
20
-4.9015977932074
30
0
41
1
10
109.156799617989
20
-4.8881518790725
30
0
41
1
10
108.886136026279
20
-4.87425283653687
30
0
41
1
10
108.075548557182
20
-4.81132468851862
30
0
41
1
10
107.536850881842
20
-4.74113594246523
30
0
41
1
10
106.727818164192
20
-4.59518453823691
30
0
41
1
10
106.457995124465
20
-4.53974716517632
30
0
41
1
10
105.917460840141
20
-4.4155932259205
30
0
41
1
10
105.646861219598
20
-4.34688961353362
30
0
41
1
10
104.836975029141
20
-4.12261076551567
30
0
41
1
10
104.298267860566
20
-3.94856437751321
30
0
41
1
10
103.218872723197
20
-3.55590757372741
30
0
41
1
10
102.677276264085
20
-3.33698131004937
30
0
41
1
10
101.598212224845
20
-2.86438891860897
30
0
41
1
10
101.059464259568
20
-2.61042976382691
30
0
41
1
10
100.249048144347
20
-2.2080602464257
30
0
41
1
10
99.9782454082839
20
-2.07022124707151
30
0
41
1
10
99.4378748958533
20
-1.78953091946138
30
0
41
1
10
99.1680765579748
20
-1.64655951129171
30
0
41
1
10
98.3589839281025
20
-1.21122809217931
30
0
41
1
10
97.8199211137436
20
-0.912572673898751
30
0
41
1
10
97.0085196931904
20
-0.45758969799715
30
0
41
1
10
96.7383428682092
20
-0.305212708202276
30
0
41
1
10
96.2002163270644
20
-0.0013560289253576
30
0
41
1
10
95.9319189722895
20
0.150310971187963
30
0
41
1
10
95.1285809694082
20
0.603224546125062
30
0
41
1
10
94.5950197733621
20
0.902244539730873
30
0
41
1
10
93.5274870882668
20
1.4866946674274
30
0
41
1
10
92.9935394758205
20
1.77216703096647
30
0
41
1
10
92.1890552799071
20
2.18447479406456
30
0
41
1
10
91.9202937563419
20
2.31925024638414
30
0
41
1
10
91.3810254657584
20
2.58252491942753
30
0
41
1
10
91.1100761145295
20
2.71120970959723
30
0
41
1
10
90.2993324983013
20
3.08371150426524
30
0
41
1
10
89.7603771624773
20
3.31471896240811
30
0
41
1
10
88.9508349393301
20
3.6307702825824
30
0
41
1
10
88.6808023911073
20
3.73104440788205
30
0
41
1
10
88.1398015509938
20
3.92070526955703
30
0
41
1
10
87.8692020693971
20
4.00994294441253
30
0
41
1
10
87.0590535796386
20
4.25913120661468
30
0
41
1
10
86.5201018631729
20
4.40101019447724
30
0
41
1
10
85.7099236265624
20
4.57458922023193
30
0
41
1
10
85.4392987556757
20
4.62596027339308
30
0
41
1
10
84.898273520199
20
4.7149615423566
30
0
41
1
10
84.6282144314232
20
4.75253561418765
30
0
41
1
10
83.8184806836028
20
4.84424961720939
30
0
41
1
10
83.279442251055
20
4.87743248372772
30
0
41
1
10
82.6954774818174
20
4.88242441132903
30
0
41
1
10
82.652207853711
20
4.88261095979578
30
0
41
1
10
82.6089286996834
20
4.88261447210851
30
0
0
SPLINE
5
C6
100
AcDbEntity
8
1
62
256
6
ByLayer
370
18
48
1
60
0
100
AcDbSpline
70
4
71
3
72
58
73
54
40
0
40
0
40
0
40
0
40
0.0420060704154708
40
0.0420060704154708
40
0.0962771930080365
40
0.0962771930080365
40
0.150548315600603
40
0.150548315600603
40
0.177683876896886
40
0.177683876896886
40
0.204819438193169
40
0.204819438193169
40
0.259090560785734
40
0.259090560785734
40
0.286226122082016
40
0.286226122082016
40
0.313361683378297
40
0.313361683378297
40
0.367632805970862
40
0.367632805970862
40
0.421903928563425
40
0.421903928563425
40
0.449039489859707
40
0.449039489859707
40
0.476175051155988
40
0.476175051155988
40
0.53044617374855
40
0.53044617374855
40
0.557581735044831
40
0.557581735044831
40
0.584717296341112
40
0.584717296341112
40
0.638988418933674
40
0.638988418933674
40
0.666123980229955
40
0.666123980229955
40
0.693259541526237
40
0.693259541526237
40
0.7475306641188
40
0.7475306641188
40
0.774666225415081
40
0.774666225415081
40
0.801801786711362
40
0.801801786711362
40
0.856072909303924
40
0.856072909303924
40
0.910344031896486
40
0.910344031896486
40
0.937479593192767
40
0.937479593192767
40
0.964615154489049
40
0.964615154489049
40
1
40
1
40
1
40
1
41
1
10
58.0519013606748
20
-4.64036617932337
30
0
41
1
10
57.6336464139902
20
-4.71106654861231
30
0
41
1
10
57.2158997576665
20
-4.76541537452039
30
0
41
1
10
56.2572959676505
20
-4.85157068722859
30
0
41
1
10
55.7149575980345
20
-4.87202407858751
30
0
41
1
10
54.6339561985815
20
-4.85568745933446
30
0
41
1
10
54.0944587812901
20
-4.81909484973724
30
0
41
1
10
53.2832103163732
20
-4.72226039912434
30
0
41
1
10
53.012152387934
20
-4.68291400787845
30
0
41
1
10
52.4707918423044
20
-4.59074218053661
30
0
41
1
10
52.2005321950462
20
-4.53793393615049
30
0
41
1
10
51.3901903530252
20
-4.35997072736643
30
0
41
1
10
50.8504159548742
20
-4.21538113221419
30
0
41
1
10
50.0383050480236
20
-3.96199801314768
30
0
41
1
10
49.7672399127935
20
-3.8714759452271
30
0
41
1
10
49.2263444431651
20
-3.67990628508454
30
0
41
1
10
48.9562207923756
20
-3.57870475981497
30
0
41
1
10
48.1459923129875
20
-3.25988446757395
30
0
41
1
10
47.6055707365184
20
-3.02713590850004
30
0
41
1
10
46.5218382038641
20
-2.52730031819317
30
0
41
1
10
45.981840492291
20
-2.26215374289271
30
0
41
1
10
45.1714300373992
20
-1.84681066657191
30
0
41
1
10
44.9012127376129
20
-1.70544326054218
30
0
41
1
10
44.3600402219507
20
-1.41780731206416
30
0
41
1
10
44.088823819764
20
-1.27130372283247
30
0
41
1
10
43.2769842683304
20
-0.827716004357029
30
0
41
1
10
42.7371838377264
20
-0.526479977504579
30
0
41
1
10
41.926376312442
20
-0.0721491932248171
30
0
41
1
10
41.6559384903814
20
0.0797358755234825
30
0
41
1
10
41.1141228275824
20
0.383314650233615
30
0
41
1
10
40.8431591471982
20
0.534785916218027
30
0
41
1
10
40.0319297844368
20
0.985321036547134
30
0
41
1
10
39.4921240547272
20
1.28083966321475
30
0
41
1
10
38.680752945013
20
1.7113227559102
30
0
41
1
10
38.4097319508676
20
1.8528373457309
30
0
41
1
10
37.8679048559886
20
2.12975830000161
30
0
41
1
10
37.5974339170147
20
2.26503275410056
30
0
41
1
10
36.7866032695196
20
2.66017672281129
30
0
41
1
10
36.2466767217593
20
2.90913348920986
30
0
41
1
10
35.4344672515583
20
3.25596694068324
30
0
41
1
10
35.163185483027
20
3.36718907616205
30
0
41
1
10
34.6219038093271
20
3.57881442806499
30
0
41
1
10
34.3515982874847
20
3.67938035160341
30
0
41
1
10
33.5409182657088
20
3.96449657978678
30
0
41
1
10
33.0006760172145
20
4.13235098050399
30
0
41
1
10
31.9163161588044
20
4.41889939902146
30
0
41
1
10
31.3757714889841
20
4.53644062737004
30
0
41
1
10
30.5650760318124
20
4.67219823002574
30
0
41
1
10
30.2947983613496
20
4.71068750513655
30
0
41
1
10
29.7535460596893
20
4.77382264950629
30
0
41
1
10
29.4822657041239
20
4.79849973381164
30
0
41
1
10
28.8582019981441
20
4.83894439004501
30
0
41
1
10
28.5056806040466
20
4.84975847380485
30
0
41
1
10
28.1532455160674
20
4.84852221792457
30
0
0
SPLINE
5
C7
100
AcDbEntity
8
1
62
256
6
ByLayer
370
18
48
1
60
0
100
AcDbSpline
70
4
71
3
72
38
73
34
40
0
40
0
40
0
40
0
40
0.0625000000000002
40
0.0625000000000002
40
0.125
40
0.125
40
0.187500000000001
40
0.187500000000001
40
0.250000000000001
40
0.250000000000001
40
0.312500000000001
40
0.312500000000001
40
0.375000000000001
40
0.375000000000001
40
0.437500000000001
40
0.437500000000001
40
0.500000000000002
40
0.500000000000002
40
0.562500000000002
40
0.562500000000002
40
0.625000000000002
40
0.625000000000002
40
0.687500000000002
40
0.687500000000002
40
0.750000000000002
40
0.750000000000002
40
0.781250000000002
40
0.781250000000002
40
0.812500000000002
40
0.812500000000002
40
0.875000000000002
40
0.875000000000002
40
1
40
1
40
1
40
1
41
1
10
110.56045322615
20
-2.01741310938485
30
0
41
1
10
110.552721289216
20
-2.06484172854468
30
0
41
1
10
110.549306704962
20
-2.10963358454836
30
0
41
1
10
110.551047474086
20
-2.18743234584832
30
0
41
1
10
110.556165475916
20
-2.22129945031782
30
0
41
1
10
110.573128619394
20
-2.27619203339077
30
0
41
1
10
110.585109465043
20
-2.29783677664622
30
0
41
1
10
110.613922016892
20
-2.32908211201851
30
0
41
1
10
110.630914553625
20
-2.3389806533516
30
0
41
1
10
110.668586398063
20
-2.3480266016594
30
0
41
1
10
110.689044666313
20
-2.34722375729223
30
0
41
1
10
110.732950311411
20
-2.33580545790596
30
0
41
1
10
110.756305985742
20
-2.3251102337951
30
0
41
1
10
110.804216241473
20
-2.2948759905905
30
0
41
1
10
110.829091909503
20
-2.27518438617034
30
0
41
1
10
110.880055523316
20
-2.22670502836488
30
0
41
1
10
110.905548553672
20
-2.19852156003128
30
0
41
1
10
110.956557980522
20
-2.13394403286867
30
0
41
1
10
110.982420550177
20
-2.09698614077976
30
0
41
1
10
111.03222530003
20
-2.01614606131574
30
0
41
1
10
111.05611898896
20
-1.97251462181049
30
0
41
1
10
111.101392642783
20
-1.87762025675582
30
0
41
1
10
111.121747362235
20
-1.82851303989827
30
0
41
1
10
111.157187346678
20
-1.72646553720438
30
0
41
1
10
111.171495264865
20
-1.67558230182618
30
0
41
1
10
111.186921808771
20
-1.6015720868125
30
0
41
1
10
111.19105622253
20
-1.5771756521909
30
0
41
1
10
111.196986178577
20
-1.53100863890319
30
0
41
1
10
111.198845888701
20
-1.50896185045258
30
0
41
1
10
111.20117715185
20
-1.44586791668397
30
0
41
1
10
111.198317615056
20
-1.40900051986682
30
0
41
1
10
111.178456841811
20
-1.31623154371596
30
0
41
1
10
111.150581986763
20
-1.27940831438355
30
0
41
1
10
111.115018041416
20
-1.264706885902
30
0
0
SPLINE
5
C8
100
AcDbEntity
8
1
62
256
6
ByLayer
370
18
48
1
60
0
100
AcDbSpline
70
4
71
3
72
8
73
4
40
0
40
0
40
0
40
0
40
1
40
1
40
1
40
1
41
1
10
110.417664818206
20
4.76758016241024
30
0
41
1
10
110.34772830167
20
4.83581592184254
30
0
41
1
10
110.287641073213
20
4.87834140064436
30
0
41
1
10
110.23691345422
20
4.89358935497515
30
0
0
SPLINE
5
C9
100
AcDbEntity
8
1
62
256
6
ByLayer
370
18
48
1
60
0
100
AcDbSpline
70
4
71
3
72
14
73
10
40
0
40
0
40
0
40
0
40
0.25
40
0.25
40
0.5
40
0.5
40
0.75
40
0.75
40
1
40
1
40
1
40
1
41
1
10
6.54525545730175
20
3.87600111446344
30
0
41
1
10
6.52638761421707
20
3.88229324356149
30
0
41
1
10
6.50927392456083
20
3.88986131589721
30
0
41
1
10
6.47844708850101
20
3.90738812630065
30
0
41
1
10
6.4648330815366
20
3.91737165546653
30
0
41
1
10
6.44265037566885
20
3.93857601545514
30
0
41
1
10
6.43377359601945
20
3.95010023515715
30
0
41
1
10
6.42154377395281
20
3.97355898452835
30
0
41
1
10
6.41806183419686
20
3.985552901533
30
0
41
1
10
6.417331176917
20
3.99769851959252
30
0
0
SPLINE
5
CA
100
AcDbEntity
8
1
62
256
6
ByLayer
370
18
48
1
60
0
100
AcDbSpline
70
4
71
3
72
22
73
18
40
0
40
0
40
0
40
0
40
0.125
40
0.125
40
0.187500000000001
40
0.187500000000001
40
0.250000000000001
40
0.250000000000001
40
0.375000000000001
40
0.375000000000001
40
0.500000000000001
40
0.500000000000001
40
0.750000000000002
40
0.750000000000002
40
0.875000000000001
40
0.875000000000001
40
1
40
1
40
1
40
1
41
1
10
6.66739230755508
20
-2.9500470088546
30
0
41
1
10
6.74470107853426
20
-3.10329704573442
30
0
41
1
10
6.82847060275927
20
-3.24638351174761
30
0
41
1
10
6.96325163258399
20
-3.44646877886729
30
0
41
1
10
7.0096426375579
20
-3.51059427972987
30
0
41
1
10
7.10425824734205
20
-3.63254058855986
30
0
41
1
10
7.1526212647974
20
-3.69057129668701
30
0
41
1
10
7.30083582506416
20
-3.85621381952521
30
0
41
1
10
7.40379037867163
20
-3.95540437445413
30
0
41
1
10
7.61840650748337
20
-4.13242724799198
30
0
41
1
10
7.73060335597495
20
-4.21046128569566
30
0
41
1
10
8.07496909058924
20
-4.40943573630355
30
0
41
1
10
8.31625843748338
20
-4.49718536484124
30
0
41
1
10
8.70214923826879
20
-4.56974714795106
30
0
41
1
10
8.83492938562171
20
-4.58395187527165
30
0
41
1
10
9.10598939410204
20
-4.59362328336064
30
0
41
1
10
9.24472875548545
20
-4.58921292401621
30
0
41
1
10
9.38724391428258
20
-4.5763676013467
30
0
0
SPLINE
5
CB
100
AcDbEntity
8
1
62
256
6
ByLayer
370
18
48
1
60
0
100
AcDbSpline
70
4
71
3
72
8
73
4
40
0
40
0
40
0
40
0
40
1
40
1
40
1
40
1
41
1
10
111.821741996193
20
-1.22076114077493
30
0
41
1
10
111.880697955904
20
-0.859475013065776
30
0
41
1
10
111.93278331924
20
-0.498237884860117
30
0
41
1
10
111.977951657246
20
-0.137050087278482
30
0
0
SPLINE
5
CC
100
AcDbEntity
8
1
62
256
6
ByLayer
370
13
48
1
60
0
100
AcDbSpline
70
4
71
3
72
14
73
10
40
0
40
0
40
0
40
0
40
0.233240800062412
40
0.233240800062412
40
0.559736639878973
40
0.559736639878973
40
0.886232479695534
40
0.886232479695534
40
1
40
1
40
1
40
1
41
1
10
6.66740256863866
20
3.8477839278649
30
0
41
1
10
6.66739930264018
20
3.96003658752915
30
0
41
1
10
6.66739395513406
20
4.06028964212197
30
0
41
1
10
6.66737789183824
20
4.27218362210024
30
0
41
1
10
6.66736597354611
20
4.37087567220826
30
0
41
1
10
6.66734144852964
20
4.51586271068228
30
0
41
1
10
6.6673290984107
20
4.56104510578078
30
0
41
1
10
6.66731470647466
20
4.58656858576333
30
0
41
1
10
6.66731118781885
20
4.58995473426336
30
0
41
1
10
6.66730793451649
20
4.59008691008941
30
0
0
SPLINE
5
CD
100
AcDbEntity
8
1
62
256
6
ByLayer
370
18
48
1
60
0
100
AcDbSpline
70
4
71
3
72
120
73
116
40
0
40
0
40
0
40
0
40
0.0091048237972409
40
0.0091048237972409
40
0.0302787002470917
40
0.0302787002470917
40
0.0514525766969425
40
0.0514525766969425
40
0.0726264531467933
40
0.0726264531467933
40
0.0832133913717188
40
0.0832133913717188
40
0.0938003295966442
40
0.0938003295966442
40
0.114974206046497
40
0.114974206046497
40
0.136148082496349
40
0.136148082496349
40
0.157321958946202
40
0.157321958946202
40
0.178495835396055
40
0.178495835396055
40
0.199669711845907
40
0.199669711845907
40
0.22084358829576
40
0.22084358829576
40
0.242017464745613
40
0.242017464745613
40
0.263191341195465
40
0.263191341195465
40
0.284365217645318
40
0.284365217645318
40
0.294952155870243
40
0.294952155870243
40
0.305539094095169
40
0.305539094095169
40
0.326712970545018
40
0.326712970545018
40
0.347886846994867
40
0.347886846994867
40
0.369060723444716
40
0.369060723444716
40
0.379647661669641
40
0.379647661669641
40
0.390234599894567
40
0.390234599894567
40
0.411408476344417
40
0.411408476344417
40
0.432582352794267
40
0.432582352794267
40
0.443169291019192
40
0.443169291019192
40
0.453756229244117
40
0.453756229244117
40
0.474930105693965
40
0.474930105693965
40
0.496103982143815
40
0.496103982143815
40
0.517277858593664
40
0.517277858593664
40
0.527864796818588
40
0.527864796818588
40
0.538451735043513
40
0.538451735043513
40
0.559625611493362
40
0.559625611493362
40
0.580799487943211
40
0.580799487943211
40
0.591386426168135
40
0.591386426168135
40
0.60197336439306
40
0.60197336439306
40
0.623147240842909
40
0.623147240842909
40
0.644321117292758
40
0.644321117292758
40
0.654908055517683
40
0.654908055517683
40
0.665494993742607
40
0.665494993742607
40
0.686668870192457
40
0.686668870192457
40
0.707842746642307
40
0.707842746642307
40
0.729016623092157
40
0.729016623092157
40
0.739603561317081
40
0.739603561317081
40
0.750190499542006
40
0.750190499542006
40
0.771364375991855
40
0.771364375991855
40
0.792538252441704
40
0.792538252441704
40
0.813712128891553
40
0.813712128891553
40
0.834886005341402
40
0.834886005341402
40
0.856059881791251
40
0.856059881791251
40
0.8772337582411
40
0.8772337582411
40
0.89840763469095
40
0.89840763469095
40
0.919581511140799
40
0.919581511140799
40
0.940755387590648
40
0.940755387590648
40
0.951342325815572
40
0.951342325815572
40
0.961929264040497
40
0.961929264040497
40
0.983103140490345
40
0.983103140490345
40
1
40
1
40
1
40
1
41
1
10
99.2230510068155
20
-2.38274212601576
30
0
41
1
10
99.1136617561937
20
-2.43279691900634
30
0
41
1
10
99.0042032758761
20
-2.48230336434204
30
0
41
1
10
98.6410264304126
20
-2.64696541708423
30
0
41
1
10
98.3865798290715
20
-2.75895077585892
30
0
41
1
10
97.8759741395577
20
-2.97471137757256
30
0
41
1
10
97.6199071789306
20
-3.07871144155143
30
0
41
1
10
97.1061231159811
20
-3.27918109897186
30
0
41
1
10
96.8480196986568
20
-3.37553531693143
30
0
41
1
10
96.4629651791405
20
-3.5123675523559
30
0
41
1
10
96.3348541395752
20
-3.55678948272529
30
0
41
1
10
96.0795589686139
20
-3.64371460921285
30
0
41
1
10
95.9520522325569
20
-3.68584346895017
30
0
41
1
10
95.5696962603007
20
-3.80865268733783
30
0
41
1
10
95.3150091426404
20
-3.88559162885883
30
0
41
1
10
94.8063137524897
20
-4.02807866575944
30
0
41
1
10
94.5522974397018
20
-4.09361935500499
30
0
41
1
10
94.0441585459398
20
-4.21456893054042
30
0
41
1
10
93.7899720733407
20
-4.27010357117601
30
0
41
1
10
93.2831525520784
20
-4.37050045214028
30
0
41
1
10
93.0294834281475
20
-4.41437581017772
30
0
41
1
10
92.5210177414139
20
-4.49103173206618
30
0
41
1
10
92.2663510325401
20
-4.52415178380369
30
0
41
1
10
91.7558570939216
20
-4.57805497337418
30
0
41
1
10
91.4998929028609
20
-4.59852838282811
30
0
41
1
10
90.9866311102168
20
-4.62812868369451
30
0
41
1
10
90.7295318279406
20
-4.63767235965994
30
0
41
1
10
90.2162543010769
20
-4.643630122003
30
0
41
1
10
89.9602892098407
20
-4.63985126025321
30
0
41
1
10
89.4494017639303
20
-4.62066992123121
30
0
41
1
10
89.1944013341162
20
-4.60563206020728
30
0
41
1
10
88.8123688444849
20
-4.57403621346711
30
0
41
1
10
88.6851196767428
20
-4.56195959509733
30
0
41
1
10
88.4308429327774
20
-4.53470013554241
30
0
41
1
10
88.3041052364283
20
-4.51942325186431
30
0
41
1
10
87.9238572114189
20
-4.46939106713023
30
0
41
1
10
87.6702682098671
20
-4.43077069787125
30
0
41
1
10
87.1626356630501
20
-4.34212531358736
30
0
41
1
10
86.9087002854833
20
-4.29163679217328
30
0
41
1
10
86.4001010393906
20
-4.18005350334687
30
0
41
1
10
86.1453597599759
20
-4.11946501424296
30
0
41
1
10
85.7627728807007
20
-4.02059916512189
30
0
41
1
10
85.6355202841821
20
-3.98588257774006
30
0
41
1
10
85.3804275252149
20
-3.91333209049003
30
0
41
1
10
85.2526681882521
20
-3.87548439307528
30
0
41
1
10
84.8686764352443
20
-3.75870295808286
30
0
41
1
10
84.6113236675999
20
-3.67629954647876
30
0
41
1
10
84.0968513499125
20
-3.50261757893148
30
0
41
1
10
83.8404817018658
20
-3.41108266138784
30
0
41
1
10
83.4568830631922
20
-3.26722577599233
30
0
41
1
10
83.3291179874532
20
-3.21842367793292
30
0
41
1
10
83.0740179655119
20
-3.11877173142406
30
0
41
1
10
82.9470093040251
20
-3.06743962201921
30
0
41
1
10
82.5656435002367
20
-2.91165492808898
30
0
41
1
10
82.3116049318202
20
-2.80432637486808
30
0
41
1
10
81.8037856744044
20
-2.58203214068158
30
0
41
1
10
81.5499408061652
20
-2.46800348082019
30
0
41
1
10
81.0420060690396
20
-2.23469762018911
30
0
41
1
10
80.7876957755967
20
-2.11577421847272
30
0
41
1
10
80.4068043827929
20
-1.93080408576114
30
0
41
1
10
80.2800938923239
20
-1.86789553811173
30
0
41
1
10
80.0261078812803
20
-1.74174980145435
30
0
41
1
10
79.8989774887523
20
-1.67821909986995
30
0
41
1
10
79.5170758877128
20
-1.48631981714942
30
0
41
1
10
79.2618667447644
20
-1.35663182005345
30
0
41
1
10
78.749945094626
20
-1.09240766146903
30
0
41
1
10
78.4931374398819
20
-0.95853628172307
30
0
41
1
10
78.1067154854203
20
-0.75594871102291
30
0
41
1
10
77.9779841939164
20
-0.68854466292089
30
0
41
1
10
77.7217786467924
20
-0.551821192412348
30
0
41
1
10
77.5939393315305
20
-0.483234512441015
30
0
41
1
10
77.2107960590223
20
-0.277763246174715
30
0
41
1
10
76.9558544095788
20
-0.141088317147165
30
0
41
1
10
76.446399510903
20
0.131206025278175
30
0
41
1
10
76.1920399075163
20
0.267031766576395
30
0
41
1
10
75.810783523061
20
0.469506485200128
30
0
41
1
10
75.6837481430398
20
0.536774480762062
30
0
41
1
10
75.4297551199172
20
0.670926588797698
30
0
41
1
10
75.3026982238849
20
0.737641901530623
30
0
41
1
10
74.922776568336
20
0.93937361100987
30
0
41
1
10
74.6693778228119
20
1.07257158121539
30
0
41
1
10
74.1617009496927
20
1.33499499766299
30
0
41
1
10
73.9074981732754
20
1.46441812286116
30
0
41
1
10
73.3982178662546
20
1.71961025524271
30
0
41
1
10
73.1430410790417
20
1.84515778284202
30
0
41
1
10
72.7593499841927
20
2.03000390287386
30
0
41
1
10
72.6313092327139
20
2.0910682552385
30
0
41
1
10
72.3754633933969
20
2.213038223512
30
0
41
1
10
72.2473224659116
20
2.27334895042165
30
0
41
1
10
71.862113832793
20
2.45205988525828
30
0
41
1
10
71.604836227894
20
2.56783908740781
30
0
41
1
10
71.0926535240703
20
2.79071053192592
30
0
41
1
10
70.8372714047118
20
2.89806557793827
30
0
41
1
10
70.3271402908114
20
3.1046511981688
30
0
41
1
10
70.0723466533589
20
3.20384713777724
30
0
41
1
10
69.5650377455257
20
3.39525599825615
30
0
41
1
10
69.3115169765441
20
3.48600863434268
30
0
41
1
10
68.8040671782216
20
3.65829057239697
30
0
41
1
10
68.5502562144931
20
3.7401172871819
30
0
41
1
10
68.0422876122593
20
3.89331193711169
30
0
41
1
10
67.788004093635
20
3.96433119662189
30
0
41
1
10
67.2788511637303
20
4.09733355259553
30
0
41
1
10
67.0247966431959
20
4.15975211625457
30
0
41
1
10
66.5145522335342
20
4.27232970706808
30
0
41
1
10
66.258529222983
20
4.32241539278871
30
0
41
1
10
65.7448665872514
20
4.41246739432674
30
0
41
1
10
65.4870500479927
20
4.45220417859724
30
0
41
1
10
65.1022353227217
20
4.5022115729443
30
0
41
1
10
64.9741566865958
20
4.51731194130852
30
0
41
1
10
64.7184267675163
20
4.54432025709255
30
0
41
1
10
64.5910549164936
20
4.55638299769927
30
0
41
1
10
64.209119237407
20
4.58851129004785
30
0
41
1
10
63.9547593955047
20
4.60430313911053
30
0
41
1
10
63.4977321736209
20
4.62136022149869
30
0
41
1
10
63.2950750535634
20
4.62474802991539
30
0
41
1
10
63.0924502383201
20
4.62440082136837
30
0
0
SPLINE
5
CE
100
AcDbEntity
8
1
62
256
6
ByLayer
370
18
48
1
60
0
100
AcDbSpline
70
4
71
3
72
114
73
110
40
0
40
0
40
0
40
0
40
0.0060071855372732
40
0.0060071855372732
40
0.0276157249821144
40
0.0276157249821144
40
0.0492242644269556
40
0.0492242644269556
40
0.0708328038717968
40
0.0708328038717968
40
0.092441343316638
40
0.092441343316638
40
0.103245613039059
40
0.103245613039059
40
0.114049882761479
40
0.114049882761479
40
0.13565842220632
40
0.13565842220632
40
0.157266961651162
40
0.157266961651162
40
0.178875501096003
40
0.178875501096003
40
0.189679770818423
40
0.189679770818423
40
0.200484040540844
40
0.200484040540844
40
0.222092579985686
40
0.222092579985686
40
0.243701119430528
40
0.243701119430528
40
0.254505389152949
40
0.254505389152949
40
0.265309658875371
40
0.265309658875371
40
0.286918198320213
40
0.286918198320213
40
0.308526737765055
40
0.308526737765055
40
0.330135277209897
40
0.330135277209897
40
0.340939546932318
40
0.340939546932318
40
0.351743816654739
40
0.351743816654739
40
0.373352356099581
40
0.373352356099581
40
0.394960895544424
40
0.394960895544424
40
0.405765165266845
40
0.405765165266845
40
0.416569434989267
40
0.416569434989267
40
0.43817797443411
40
0.43817797443411
40
0.459786513878953
40
0.459786513878953
40
0.470590783601374
40
0.470590783601374
40
0.481395053323795
40
0.481395053323795
40
0.503003592768637
40
0.503003592768637
40
0.52461213221348
40
0.52461213221348
40
0.546220671658322
40
0.546220671658322
40
0.557024941380743
40
0.557024941380743
40
0.567829211103164
40
0.567829211103164
40
0.589437750548006
40
0.589437750548006
40
0.611046289992848
40
0.611046289992848
40
0.632654829437691
40
0.632654829437691
40
0.654263368882532
40
0.654263368882532
40
0.675871908327374
40
0.675871908327374
40
0.697480447772216
40
0.697480447772216
40
0.719088987217057
40
0.719088987217057
40
0.740697526661899
40
0.740697526661899
40
0.76230606610674
40
0.76230606610674
40
0.773110335829161
40
0.773110335829161
40
0.783914605551582
40
0.783914605551582
40
0.827131684441266
40
0.827131684441266
40
0.848740223886107
40
0.848740223886107
40
0.859544493608528
40
0.859544493608528
40
0.870348763330949
40
0.870348763330949
40
0.913565842220633
40
0.913565842220633
40
0.924370111943054
40
0.924370111943054
40
0.935174381665475
40
0.935174381665475
40
0.956782921110317
40
0.956782921110317
40
1
40
1
40
1
40
1
41
1
10
44.7931997408907
20
-2.38456118937808
30
0
41
1
10
44.7225067430387
20
-2.41676330866389
30
0
41
1
10
44.6518312960148
20
-2.44870924786935
30
0
41
1
10
44.3270041941059
20
-2.59433942037731
30
0
41
1
10
44.0729854322748
20
-2.70428791691634
30
0
41
1
10
43.5650336405973
20
-2.91772767421028
30
0
41
1
10
43.3119372904431
20
-3.02240475693699
30
0
41
1
10
42.8044330491857
20
-3.22188317206576
30
0
41
1
10
42.5502102483358
20
-3.31707037271863
30
0
41
1
10
42.0408618386664
20
-3.49931577234978
30
0
41
1
10
41.7857209507847
20
-3.58632654032942
30
0
41
1
10
41.4018958214345
20
-3.70947663956227
30
0
41
1
10
41.273779661213
20
-3.74930747709573
30
0
41
1
10
41.0172405278524
20
-3.82667476559052
30
0
41
1
10
40.8890845245999
20
-3.86451071164845
30
0
41
1
10
40.5039213564193
20
-3.97438342031344
30
0
41
1
10
40.246823772008
20
-4.04253932115142
30
0
41
1
10
39.7346487192165
20
-4.16662260955007
30
0
41
1
10
39.4792610044999
20
-4.22263065426586
30
0
41
1
10
38.9692233206762
20
-4.32365291658874
30
0
41
1
10
38.714479060323
20
-4.368781977151
30
0
41
1
10
38.3330222709062
20
-4.42785086000512
30
0
41
1
10
38.2063531906867
20
-4.44626450389299
30
0
41
1
10
37.9528268610272
20
-4.47990698002002
30
0
41
1
10
37.8260641313185
20
-4.49521277748968
30
0
41
1
10
37.4456178769474
20
-4.53678697975135
30
0
41
1
10
37.1917872220028
20
-4.55890629934277
30
0
41
1
10
36.6838093405851
20
-4.59127564502936
30
0
41
1
10
36.4295847785915
20
-4.60123570671044
30
0
41
1
10
36.0475757994874
20
-4.60729211563856
30
0
41
1
10
35.9201342389097
20
-4.60786326830527
30
0
41
1
10
35.6651512007823
20
-4.60619448259209
30
0
41
1
10
35.5379837259823
20
-4.60390340183164
30
0
41
1
10
35.1554367772907
20
-4.59243818183603
30
0
41
1
10
34.8995733120664
20
-4.5784959854025
30
0
41
1
10
34.3859062664647
20
-4.53845196300944
30
0
41
1
10
34.1280305629517
20
-4.51263524031089
30
0
41
1
10
33.6147236772227
20
-4.4497554892576
30
0
41
1
10
33.358545735925
20
-4.41226306538167
30
0
41
1
10
32.9760383200147
20
-4.3471491968555
30
0
41
1
10
32.8489279412893
20
-4.32399112602593
30
0
41
1
10
32.5945566459809
20
-4.27522793224986
30
0
41
1
10
32.4674236306856
20
-4.24954264679926
30
0
41
1
10
32.0860998619173
20
-4.16846010202548
30
0
41
1
10
31.8320584909896
20
-4.10874517794906
30
0
41
1
10
31.3241328109303
20
-3.97876626269914
30
0
41
1
10
31.070098814624
20
-3.90935094001284
30
0
41
1
10
30.6888802481145
20
-3.79768392102943
30
0
41
1
10
30.5616471488093
20
-3.75936049919863
30
0
41
1
10
30.3079175770491
20
-3.67915477607579
30
0
41
1
10
30.1810946013728
20
-3.63758488231562
30
0
41
1
10
29.8000556807839
20
-3.50957077007044
30
0
41
1
10
29.5454395207554
20
-3.42027232604389
30
0
41
1
10
29.0349421454184
20
-3.2329275113099
30
0
41
1
10
28.7791180861773
20
-3.13465729691126
30
0
41
1
10
28.3940034067909
20
-2.98047727774912
30
0
41
1
10
28.2654034074828
20
-2.92804786499241
30
0
41
1
10
28.0078438249337
20
-2.82150601509568
30
0
41
1
10
27.8789450952035
20
-2.76753583440603
30
0
41
1
10
27.4944049428299
20
-2.60121860777616
30
0
41
1
10
27.2387671526442
20
-2.48718857294318
30
0
41
1
10
26.7283264796524
20
-2.25367409282421
30
0
41
1
10
26.4734980373832
20
-2.13445649190186
30
0
41
1
10
25.9643523095783
20
-1.89199908859638
30
0
41
1
10
25.7100538303126
20
-1.76842328429544
30
0
41
1
10
25.3289316027649
20
-1.57959689443538
30
0
41
1
10
25.2019592887468
20
-1.51607691858163
30
0
41
1
10
24.9486102396709
20
-1.38713889156344
30
0
41
1
10
24.8219036705817
20
-1.32233643937946
30
0
41
1
10
24.4415693768989
20
-1.12707966324456
30
0
41
1
10
24.1876986507184
20
-0.995763609505531
30
0
41
1
10
23.6792877640857
20
-0.730401116454743
30
0
41
1
10
23.4247408861248
20
-0.596513893192423
30
0
41
1
10
22.9144680361361
20
-0.327952729375198
30
0
41
1
10
22.6586622062332
20
-0.193260394650878
30
0
41
1
10
22.1472303894088
20
0.0806071219144542
30
0
41
1
10
21.8901673645853
20
0.217920657062905
30
0
41
1
10
21.3757793541083
20
0.490474723085782
30
0
41
1
10
21.1192953279097
20
0.625630374118003
30
0
41
1
10
20.6076656461274
20
0.892976423099896
30
0
41
1
10
20.3523648280193
20
1.02495356195305
30
0
41
1
10
19.8426375002491
20
1.28594778157446
30
0
41
1
10
19.5890672652287
20
1.41644496984793
30
0
41
1
10
19.0813832579313
20
1.67128302010985
30
0
41
1
10
18.8274770134388
20
1.79612169516614
30
0
41
1
10
18.3195767374045
20
2.04083917492343
30
0
41
1
10
18.0655508943658
20
2.16066466031427
30
0
41
1
10
17.6840348721939
20
2.33569191118002
30
0
41
1
10
17.5567970353992
20
2.39324112194555
30
0
41
1
10
17.3022158079142
20
2.5069110420398
30
0
41
1
10
17.17515169507
20
2.56350449687807
30
0
41
1
10
16.5391289942311
20
2.84227738993107
30
0
41
1
10
16.0276185406755
20
3.05127072269355
30
0
41
1
10
15.2549683227
20
3.34110705830764
30
0
41
1
10
14.9977681253114
20
3.43312641425385
30
0
41
1
10
14.6134905099231
20
3.56388287341198
30
0
41
1
10
14.4860114168064
20
3.60663589051342
30
0
41
1
10
14.2310840148072
20
3.68883475698306
30
0
41
1
10
14.1037220381581
20
3.72854048456156
30
0
41
1
10
13.4669549851696
20
3.92131026626242
30
0
41
1
10
12.9583490366635
20
4.05622945506974
30
0
41
1
10
12.3225805077633
20
4.19755884003538
30
0
41
1
10
12.1954074844638
20
4.22446733211581
30
0
41
1
10
11.9412132200691
20
4.27563835983614
30
0
41
1
10
11.8145235833597
20
4.30012439865763
30
0
41
1
10
11.433734584385
20
4.36876153226459
30
0
41
1
10
11.1796641378779
20
4.4085506441597
30
0
41
1
10
10.4156384305637
20
4.51027947780696
30
0
41
1
10
9.90329009389032
20
4.55525251229804
30
0
41
1
10
9.38724391428269
20
4.57636760134699
30
0
0
SPLINE
5
CF
100
AcDbEntity
8
1
62
256
6
ByLayer
370
18
48
1
60
0
100
AcDbSpline
70
4
71
3
72
17
73
13
40
0
40
0
40
0
40
0
40
0.161547143485371
40
0.161547143485371
40
0.323094286970741
40
0.323094286970741
40
0.646188573941483
40
0.646188573941483
40
0.807735717426853
40
0.807735717426853
40
0.969282860912224
40
1
40
1
40
1
40
1
41
1
10
6.41724254264528
20
4.00064264559066
30
0
41
1
10
6.41724248149603
20
4.0883735007873
30
0
41
1
10
6.41724239052206
20
4.17005991425509
30
0
41
1
10
6.41724216502215
20
4.31899199694152
30
0
41
1
10
6.41724203059496
20
4.3864250905313
30
0
41
1
10
6.41724158308912
20
4.56811101390858
30
0
41
1
10
6.41724122597563
20
4.66194336210268
30
0
41
1
10
6.41724067777071
20
4.76022235904185
30
0
41
1
10
6.41724049491995
20
4.78546237617843
30
0
41
1
10
6.4172401436125
20
4.82090446325015
30
0
41
1
10
6.41723994252405
20
4.83315166689414
30
0
41
1
10
6.41723975795844
20
4.83497527555647
30
0
41
1
10
6.41723972892407
20
4.83499964557558
30
0
0
SPLINE
5
D0
100
AcDbEntity
8
1
62
256
6
ByLayer
370
18
48
1
60
0
100
AcDbSpline
70
4
71
3
72
35
73
31
40
0
40
0
40
0
40
0
40
0.125000000000007
40
0.125000000000007
40
0.250000000000014
40
0.250000000000014
40
0.312500000000017
40
0.312500000000017
40
0.375000000000021
40
0.375000000000021
40
0.500000000000028
40
0.500000000000028
40
0.625000000000035
40
0.625000000000035
40
0.687500000000039
40
0.687500000000039
40
0.750000000000042
40
0.750000000000042
40
0.812500000000046
40
0.812500000000046
40
0.820312500000045
40
0.820312500000045
40
0.828125000000043
40
0.828125000000043
40
0.843750000000039
40
0.843750000000039
40
0.859375000000035
40
0.859375000000035
40
0.875000000000031
40
1
40
1
40
1
40
1
41
1
10
107.28367746014
20
-1.77952294679031
30
0
41
1
10
107.491682635686
20
-1.82205735556224
30
0
41
1
10
107.70073740876
20
-1.8511796421769
30
0
41
1
10
108.110239530527
20
-1.87512726510218
30
0
41
1
10
108.311714371026
20
-1.87011895054567
30
0
41
1
10
108.607595848911
20
-1.82979117942258
30
0
41
1
10
108.70516461879
20
-1.81086247995921
30
0
41
1
10
108.89784029961
20
-1.76024415720497
30
0
41
1
10
108.992352519729
20
-1.7286289054596
30
0
41
1
10
109.264801442569
20
-1.61465685251281
30
0
41
1
10
109.433959466123
20
-1.51348811948486
30
0
41
1
10
109.739809984434
20
-1.24559972193578
30
0
41
1
10
109.871497080812
20
-1.08766951016696
30
0
41
1
10
110.041903504736
20
-0.820519374968342
30
0
41
1
10
110.094322025745
20
-0.726135609949978
30
0
41
1
10
110.1902906478
20
-0.529434487371475
30
0
41
1
10
110.233695034709
20
-0.427523373157356
30
0
41
1
10
110.312638333811
20
-0.217586318741439
30
0
41
1
10
110.348093953147
20
-0.109767128732045
30
0
41
1
10
110.384074839682
20
0.0139653413774852
30
0
41
1
10
110.387934626963
20
0.0277974261002214
30
0
41
1
10
110.39593098951
20
0.0552931593706774
30
0
41
1
10
110.400155299364
20
0.068942400604584
30
0
41
1
10
110.406865336236
20
0.112423024949436
30
0
41
1
10
110.404588395006
20
0.144496165895248
30
0
41
1
10
110.393392032886
20
0.206926924513397
30
0
41
1
10
110.383929372322
20
0.238093620488428
30
0
41
1
10
110.366614089672
20
0.30044279716526
30
0
41
1
10
110.289052061774
20
0.581071695227621
30
0
41
1
10
110.214527075178
20
0.862212938236439
30
0
41
1
10
110.150082592084
20
1.11232221033066
30
0
0
SPLINE
5
D1
100
AcDbEntity
8
1
62
256
6
ByLayer
370
18
48
1
60
0
100
AcDbSpline
70
4
71
3
72
118
73
114
40
0
40
0
40
0
40
0
40
0.0019975219709726
40
0.0019975219709726
40
0.0128533986813054
40
0.0128533986813054
40
0.0345651521019708
40
0.0345651521019708
40
0.0562769055226362
40
0.0562769055226362
40
0.0779886589433016
40
0.0779886589433016
40
0.0997004123639671
40
0.0997004123639671
40
0.121412165784633
40
0.121412165784633
40
0.132268042494965
40
0.132268042494965
40
0.143123919205298
40
0.143123919205298
40
0.164835672625964
40
0.164835672625964
40
0.18654742604663
40
0.18654742604663
40
0.208259179467296
40
0.208259179467296
40
0.219115056177628
40
0.219115056177628
40
0.229970932887961
40
0.229970932887961
40
0.251682686308626
40
0.251682686308626
40
0.273394439729291
40
0.273394439729291
40
0.295106193149956
40
0.295106193149956
40
0.316817946570621
40
0.316817946570621
40
0.338529699991286
40
0.338529699991286
40
0.349385576701618
40
0.349385576701618
40
0.360241453411951
40
0.360241453411951
40
0.381953206832616
40
0.381953206832616
40
0.403664960253281
40
0.403664960253281
40
0.425376713673946
40
0.425376713673946
40
0.436232590384278
40
0.436232590384278
40
0.447088467094611
40
0.447088467094611
40
0.468800220515277
40
0.468800220515277
40
0.490511973935942
40
0.490511973935942
40
0.512223727356608
40
0.512223727356608
40
0.533935480777274
40
0.533935480777274
40
0.55564723419794
40
0.55564723419794
40
0.566503110908273
40
0.566503110908273
40
0.577358987618605
40
0.577358987618605
40
0.59907074103927
40
0.59907074103927
40
0.620782494459935
40
0.620782494459935
40
0.6424942478806
40
0.6424942478806
40
0.653350124590932
40
0.653350124590932
40
0.664206001301264
40
0.664206001301264
40
0.685917754721929
40
0.685917754721929
40
0.707629508142594
40
0.707629508142594
40
0.729341261563259
40
0.729341261563259
40
0.751053014983923
40
0.751053014983923
40
0.772764768404588
40
0.772764768404588
40
0.783620645114921
40
0.783620645114921
40
0.794476521825253
40
0.794476521825253
40
0.816188275245918
40
0.816188275245918
40
0.837900028666583
40
0.837900028666583
40
0.859611782087248
40
0.859611782087248
40
0.870467658797581
40
0.870467658797581
40
0.881323535507914
40
0.881323535507914
40
0.90303528892858
40
0.90303528892858
40
0.924747042349246
40
0.924747042349246
40
0.946458795769911
40
0.946458795769911
40
0.968170549190577
40
0.968170549190577
40
0.989882302611243
40
0.989882302611243
40
1
40
1
40
1
40
1
41
1
10
17.6148991969556
20
2.37013634804839
30
0
41
1
10
17.6389772555404
20
2.38201647688473
30
0
41
1
10
17.6630613073597
20
2.39385467453809
30
0
41
1
10
17.8180909293987
20
2.46973135042398
30
0
41
1
10
17.9491588572885
20
2.53265920229995
30
0
41
1
10
18.3427242651093
20
2.71809550600088
30
0
41
1
10
18.6054880178124
20
2.83742214282392
30
0
41
1
10
19.1309106987515
20
3.06885927160346
30
0
41
1
10
19.3937540587835
20
3.1806981968235
30
0
41
1
10
19.9191400582346
20
3.39718982069579
30
0
41
1
10
20.1809464889522
20
3.50274222745631
30
0
41
1
10
20.7083184741015
20
3.70109822696031
30
0
41
1
10
20.9734574431723
20
3.79454665364335
30
0
41
1
10
21.5055565583581
20
3.97137467807212
30
0
41
1
10
21.7715199614225
20
4.05439318409438
30
0
41
1
10
22.1682597432276
20
4.17018722281827
30
0
41
1
10
22.3002252973708
20
4.20738565698807
30
0
41
1
10
22.5634305415167
20
4.27908991623804
30
0
41
1
10
22.6944010897531
20
4.31381352219745
30
0
41
1
10
23.087864198627
20
4.41246496328563
30
0
41
1
10
23.3504908644338
20
4.47133162491485
30
0
41
1
10
23.8759016922219
20
4.57628677462279
30
0
41
1
10
24.1384994621971
20
4.62248889823925
30
0
41
1
10
24.6632440920791
20
4.70246723698426
30
0
41
1
10
24.92565740626
20
4.73615908567493
30
0
41
1
10
25.3178293035987
20
4.7774231160237
30
0
41
1
10
25.4484344051366
20
4.7895592088723
30
0
41
1
10
25.7105391648735
20
4.8102860170093
30
0
41
1
10
25.8418755884824
20
4.81893411357177
30
0
41
1
10
26.2367079039899
20
4.83983547913016
30
0
41
1
10
26.5009324049284
20
4.84709614446754
30
0
41
1
10
27.0305052765994
20
4.84829716447601
30
0
41
1
10
27.2965774755563
20
4.84219938932611
30
0
41
1
10
27.827123071722
20
4.81617235093174
30
0
41
1
10
28.0901456167303
20
4.79601190065395
30
0
41
1
10
28.6171829569768
20
4.74299053504726
30
0
41
1
10
28.8807849968734
20
4.71016890444665
30
0
41
1
10
29.4070996189222
20
4.63196445081522
30
0
41
1
10
29.6698034820296
20
4.58654767523871
30
0
41
1
10
30.0631897451347
20
4.5089086864694
30
0
41
1
10
30.1941870132925
20
4.48143034935609
30
0
41
1
10
30.4557565748401
20
4.42310263991922
30
0
41
1
10
30.5860566996573
20
4.39203437287546
30
0
41
1
10
30.9778971643743
20
4.29487284188832
30
0
41
1
10
31.2400501039222
20
4.22466385660906
30
0
41
1
10
31.7657244224678
20
4.07342951238908
30
0
41
1
10
32.0290574971133
20
3.99222001845186
30
0
41
1
10
32.5564604184328
20
3.81818923769399
30
0
41
1
10
32.8207796998083
20
3.7256885491702
30
0
41
1
10
33.2168404754313
20
3.57653801127123
30
0
41
1
10
33.3488842822743
20
3.52513753166554
30
0
41
1
10
33.6141070007228
20
3.42061607534856
30
0
41
1
10
33.7466502865118
20
3.36745810308472
30
0
41
1
10
34.1440700401774
20
3.20536882424287
30
0
41
1
10
34.4086461742014
20
3.09371236284045
30
0
41
1
10
34.9362041143304
20
2.86214401198342
30
0
41
1
10
35.1993685261139
20
2.74249591997901
30
0
41
1
10
35.7238945519143
20
2.49453666883852
30
0
41
1
10
35.9844975373741
20
2.36497961908358
30
0
41
1
10
36.5079278395677
20
2.10347306390685
30
0
41
1
10
36.7703471276978
20
1.97094387069055
30
0
41
1
10
37.2955200473322
20
1.70071832181739
30
0
41
1
10
37.5582487194703
20
1.56296659146202
30
0
41
1
10
37.9525862621205
20
1.35235540198579
30
0
41
1
10
38.0840547540393
20
1.28145581417317
30
0
41
1
10
38.3468809101667
20
1.13794683828508
30
0
41
1
10
38.4779722137967
20
1.06484749080528
30
0
41
1
10
38.8725499025923
20
0.84558934848485
30
0
41
1
10
39.13713115937
20
0.699135747162273
30
0
41
1
10
39.6688788911738
20
0.404936444533121
30
0
41
1
10
39.9350032329685
20
0.257297675619384
30
0
41
1
10
40.4656902177605
20
-0.03857368218695
30
0
41
1
10
40.730813242222
20
-0.186456293556517
30
0
41
1
10
41.1266055602463
20
-0.410974388421351
30
0
41
1
10
41.2583466965063
20
-0.486035618929918
30
0
41
1
10
41.5226203020545
20
-0.634513524675356
30
0
41
1
10
41.6549846867655
20
-0.708231068829946
30
0
41
1
10
42.0527278460893
20
-0.927885513090928
30
0
41
1
10
42.3189913536837
20
-1.07268659527844
30
0
41
1
10
42.8506108085244
20
-1.35944419883586
30
0
41
1
10
43.1154540421949
20
-1.50068640920668
30
0
41
1
10
43.6426134651982
20
-1.77993849831034
30
0
41
1
10
43.9042082592627
20
-1.91912160496867
30
0
41
1
10
44.4289652391845
20
-2.18718095244645
30
0
41
1
10
44.6916869532329
20
-2.31689590167454
30
0
41
1
10
45.2167338400386
20
-2.56970303778007
30
0
41
1
10
45.4790543954365
20
-2.69278525382415
30
0
41
1
10
45.8722400748573
20
-2.87235209601886
30
0
41
1
10
46.0032328290236
20
-2.93139446475402
30
0
41
1
10
46.2649202429175
20
-3.04804273960099
30
0
41
1
10
46.3953440621303
20
-3.10602459612636
30
0
41
1
10
46.7877586554432
20
-3.27549623092384
30
0
41
1
10
47.0505505762689
20
-3.38305094416813
30
0
41
1
10
47.5780013349969
20
-3.5882255985519
30
0
41
1
10
47.8424727407529
20
-3.6860856557052
30
0
41
1
10
48.372679102155
20
-3.87248725848258
30
0
41
1
10
48.6391175366117
20
-3.96084860437637
30
0
41
1
10
49.0347688031061
20
-4.08604948464199
30
0
41
1
10
49.1662799441171
20
-4.12641713918026
30
0
41
1
10
49.4296046886947
20
-4.20344070864797
30
0
41
1
10
49.561269442613
20
-4.24025574090035
30
0
41
1
10
49.9562519505661
20
-4.34578878624956
30
0
41
1
10
50.2194653471644
20
-4.40970913372993
30
0
41
1
10
50.7448099371889
20
-4.52563428388379
30
0
41
1
10
51.0071242551366
20
-4.57749824205465
30
0
41
1
10
51.5304620766809
20
-4.66917200350952
30
0
41
1
10
51.7907269761083
20
-4.70924690451128
30
0
41
1
10
52.3140009864991
20
-4.77510971215861
30
0
41
1
10
52.5766009784324
20
-4.80123784057545
30
0
41
1
10
53.102650496988
20
-4.84051601531215
30
0
41
1
10
53.3660746133684
20
-4.85364351311597
30
0
41
1
10
53.7528800981943
20
-4.86310569925271
30
0
41
1
10
53.8759117666318
20
-4.86466557048067
30
0
41
1
10
53.9989589563198
20
-4.86473864099989
30
0
0
SPLINE
5
D2
100
AcDbEntity
8
1
62
256
6
ByLayer
370
18
48
1
60
0
100
AcDbSpline
70
4
71
3
72
118
73
114
40
0
40
0
40
0
40
0
40
0.0149992630286804
40
0.0149992630286804
40
0.0258368246774815
40
0.0258368246774815
40
0.0366743863262825
40
0.0366743863262825
40
0.0583495096238849
40
0.0583495096238849
40
0.080024632921487
40
0.080024632921487
40
0.0908621945702883
40
0.0908621945702883
40
0.101699756219089
40
0.101699756219089
40
0.123374879516691
40
0.123374879516691
40
0.145050002814294
40
0.145050002814294
40
0.155887564463095
40
0.155887564463095
40
0.166725126111897
40
0.166725126111897
40
0.188400249409499
40
0.188400249409499
40
0.231750496004702
40
0.231750496004702
40
0.242588057653503
40
0.242588057653503
40
0.253425619302304
40
0.253425619302304
40
0.275100742599904
40
0.275100742599904
40
0.296775865897504
40
0.296775865897504
40
0.307613427546305
40
0.307613427546305
40
0.318450989195105
40
0.318450989195105
40
0.340126112492707
40
0.340126112492707
40
0.361801235790308
40
0.361801235790308
40
0.372638797439108
40
0.372638797439108
40
0.383476359087908
40
0.383476359087908
40
0.405151482385507
40
0.405151482385507
40
0.448501728980705
40
0.448501728980705
40
0.459339290629505
40
0.459339290629505
40
0.470176852278305
40
0.470176852278305
40
0.491851975575907
40
0.491851975575907
40
0.513527098873509
40
0.513527098873509
40
0.524364660522311
40
0.524364660522311
40
0.535202222171113
40
0.535202222171113
40
0.556877345468715
40
0.556877345468715
40
0.578552468766318
40
0.578552468766318
40
0.589390030415119
40
0.589390030415119
40
0.60022759206392
40
0.60022759206392
40
0.62190271536152
40
0.62190271536152
40
0.665252961956723
40
0.665252961956723
40
0.676090523605523
40
0.676090523605523
40
0.686928085254323
40
0.686928085254323
40
0.708603208551922
40
0.708603208551922
40
0.730278331849522
40
0.730278331849522
40
0.741115893498322
40
0.741115893498322
40
0.751953455147123
40
0.751953455147123
40
0.795303701742327
40
0.795303701742327
40
0.816978825039929
40
0.816978825039929
40
0.838653948337531
40
0.838653948337531
40
0.860329071635133
40
0.860329071635133
40
0.882004194932735
40
0.882004194932735
40
0.892841756581535
40
0.892841756581535
40
0.903679318230335
40
0.903679318230335
40
0.925354441527938
40
0.925354441527938
40
0.94702956482554
40
0.94702956482554
40
0.957867126474342
40
0.957867126474342
40
0.968704688123144
40
0.968704688123144
40
0.990379811420748
40
0.990379811420748
40
1
40
1
40
1
40
1
41
1
10
72.0204468641951
20
2.38194839960511
30
0
41
1
10
72.2033891253636
20
2.47153269878942
30
0
41
1
10
72.3865637898338
20
2.55997486259383
30
0
41
1
10
72.7021514037664
20
2.71085527415298
30
0
41
1
10
72.8340020347292
20
2.77372681123174
30
0
41
1
10
73.0979621090377
20
2.89592539230546
30
0
41
1
10
73.2299067146287
20
2.95563416734933
30
0
41
1
10
73.6256508457165
20
3.13071167895745
30
0
41
1
10
73.8892868073403
20
3.24217098267934
30
0
41
1
10
74.4152308901022
20
3.45617750737949
30
0
41
1
10
74.6777086712984
20
3.55848640930023
30
0
41
1
10
75.070334496355
20
3.7052530018114
30
0
41
1
10
75.2010067543202
20
3.75308401001558
30
0
41
1
10
75.4615790896003
20
3.84689425874916
30
0
41
1
10
75.5920400778068
20
3.89223290818231
30
0
41
1
10
75.983985009701
20
4.02361997729395
30
0
41
1
10
76.246122503087
20
4.10497248407208
30
0
41
1
10
76.7710797069616
20
4.25649264836136
30
0
41
1
10
77.0338264073961
20
4.32670597676344
30
0
41
1
10
77.4284033626788
20
4.42349827318847
30
0
41
1
10
77.5599936412256
20
4.45435045926234
30
0
41
1
10
77.8231490962701
20
4.51327660021784
30
0
41
1
10
77.954475057169
20
4.5415104548745
30
0
41
1
10
78.3494961006959
20
4.62113711071143
30
0
41
1
10
78.6151648195678
20
4.66743192021207
30
0
41
1
10
79.4104105381198
20
4.78560846108743
30
0
41
1
10
79.9380864019334
20
4.83766162393712
30
0
41
1
10
80.592092730611
20
4.86986442964067
30
0
41
1
10
80.7223731068087
20
4.87464788024442
30
0
41
1
10
80.983629262868
20
4.88071125184857
30
0
41
1
10
81.114382073126
20
4.88203125485566
30
0
41
1
10
81.5070289489224
20
4.88099341145411
30
0
41
1
10
81.7692477521432
20
4.8736749474285
30
0
41
1
10
82.2935808648216
20
4.84586843027589
30
0
41
1
10
82.5558551560702
20
4.82539191819285
30
0
41
1
10
82.9491396558669
20
4.78449031734627
30
0
41
1
10
83.0802474577798
20
4.76917423743473
30
0
41
1
10
83.3418415055971
20
4.7347759898195
30
0
41
1
10
83.472930646891
20
4.71593820552755
30
0
41
1
10
83.8672900919765
20
4.65471182346974
30
0
41
1
10
84.1316647430257
20
4.60766348062836
30
0
41
1
10
84.6623938648814
20
4.50074448457309
30
0
41
1
10
84.9282186360819
20
4.44084069369404
30
0
41
1
10
85.3245119563454
20
4.34207201719229
30
0
41
1
10
85.4563426818067
20
4.30762632843638
30
0
41
1
10
85.719307572739
20
4.23552021163661
30
0
41
1
10
85.8502095480538
20
4.19763661105063
30
0
41
1
10
86.2428381715471
20
4.07998792846371
30
0
41
1
10
86.5048825141894
20
3.99666985029162
30
0
41
1
10
87.2914724393771
20
3.73246269138323
30
0
41
1
10
87.8158433009882
20
3.53687346426486
30
0
41
1
10
88.4689426268994
20
3.26443529688211
30
0
41
1
10
88.5991597761731
20
3.2081333455771
30
0
41
1
10
88.8605531204395
20
3.09428513803286
30
0
41
1
10
88.9915303014718
20
3.03647919945502
30
0
41
1
10
89.3853219803658
20
2.86052128085731
30
0
41
1
10
89.6489486574167
20
2.73978973270366
30
0
41
1
10
90.1773550115521
20
2.48989963947673
30
0
41
1
10
90.4426879416258
20
2.36076243533915
30
0
41
1
10
90.8402133916385
20
2.16108457874361
30
0
41
1
10
90.9724158246698
20
2.09375666548002
30
0
41
1
10
91.23547577944
20
1.95629703234647
30
0
41
1
10
91.3669106641852
20
1.88715330383744
30
0
41
1
10
91.7613299168238
20
1.67919339861899
30
0
41
1
10
92.0243784601034
20
1.53976872528537
30
0
41
1
10
92.5497929530375
20
1.25789388598065
30
0
41
1
10
92.8120565526452
20
1.11526060648731
30
0
41
1
10
93.2048263353297
20
0.898833928067859
30
0
41
1
10
93.3356397537069
20
0.826269032743795
30
0
41
1
10
93.5968855131554
20
0.679999293972429
30
0
41
1
10
93.7271212321915
20
0.60594176396026
30
0
41
1
10
94.1179306435647
20
0.383244666264943
30
0
41
1
10
94.3793841979357
20
0.235485480189993
30
0
41
1
10
95.1661062573656
20
-0.206244927969976
30
0
41
1
10
95.6930231627744
20
-0.499916719800496
30
0
41
1
10
96.3525462055354
20
-0.870248697999756
30
0
41
1
10
96.4842051718266
20
-0.945024553480891
30
0
41
1
10
96.7487256689918
20
-1.09283491387276
30
0
41
1
10
96.8809950879994
20
-1.16593514159547
30
0
41
1
10
97.2775221690262
20
-1.3826417865852
30
0
41
1
10
97.5416220935664
20
-1.52382093767039
30
0
41
1
10
98.068289614579
20
-1.80167119128174
30
0
41
1
10
98.3309979363092
20
-1.93808587428836
30
0
41
1
10
98.7238880055368
20
-2.13930065627395
30
0
41
1
10
98.8547186609059
20
-2.20570423668977
30
0
41
1
10
99.1153480787398
20
-2.33835922557583
30
0
41
1
10
99.2456158423322
20
-2.40384908529924
30
0
41
1
10
99.8982020939928
20
-2.72486550888084
30
0
41
1
10
100.422904288548
20
-2.96352691012441
30
0
41
1
10
101.210288508146
20
-3.30002019781088
30
0
41
1
10
101.472766853196
20
-3.40860439109454
30
0
41
1
10
101.997442041706
20
-3.61859824394929
30
0
41
1
10
102.26131272225
20
-3.71783637806146
30
0
41
1
10
102.791903207102
20
-3.90528988974646
30
0
41
1
10
103.057262191225
20
-3.99330318259692
30
0
41
1
10
103.585288561052
20
-4.15792549404947
30
0
41
1
10
103.848502750278
20
-4.23448417526888
30
0
41
1
10
104.241412290732
20
-4.341209179683
30
0
41
1
10
104.371782597085
20
-4.3756458122476
30
0
41
1
10
104.632988191173
20
-4.44083860778525
30
0
41
1
10
104.763687507906
20
-4.47172442158643
30
0
41
1
10
105.156109054181
20
-4.55936665060327
30
0
41
1
10
105.418143633482
20
-4.61115511612863
30
0
41
1
10
105.941946559487
20
-4.70241520167676
30
0
41
1
10
106.203838731782
20
-4.74179536825048
30
0
41
1
10
106.596487443538
20
-4.79139101576544
30
0
41
1
10
106.727369093253
20
-4.80633452038319
30
0
41
1
10
106.988612077223
20
-4.83311713734219
30
0
41
1
10
107.119133665567
20
-4.84488141389033
30
0
41
1
10
107.512174412659
20
-4.87481732017915
30
0
41
1
10
107.775564997259
20
-4.88787447313763
30
0
41
1
10
108.157238719728
20
-4.89706250264192
30
0
41
1
10
108.274830882313
20
-4.89856216349693
30
0
41
1
10
108.392515730928
20
-4.89872640161499
30
0
0
SPLINE
5
D3
100
AcDbEntity
8
1
62
256
6
ByLayer
370
18
48
1
60
0
100
AcDbSpline
70
4
71
3
72
58
73
54
40
0
40
0
40
0
40
0
40
0.0908182791750628
40
0.0908182791750628
40
0.136227418762594
40
0.136227418762594
40
0.181636558350126
40
0.181636558350126
40
0.227045697937657
40
0.227045697937657
40
0.272454837525189
40
0.272454837525189
40
0.295159407318955
40
0.295159407318955
40
0.317863977112721
40
0.317863977112721
40
0.363273116700253
40
0.363273116700253
40
0.408682256287785
40
0.408682256287785
40
0.454091395875318
40
0.454091395875318
40
0.476795965669084
40
0.476795965669084
40
0.49950053546285
40
0.49950053546285
40
0.544909675050382
40
0.544909675050382
40
0.590318814637914
40
0.590318814637914
40
0.635727954225447
40
0.635727954225447
40
0.681137093812979
40
0.681137093812979
40
0.726546233400511
40
0.726546233400511
40
0.749250803194277
40
0.749250803194277
40
0.771955372988042
40
0.771955372988042
40
0.817364512575571
40
0.817364512575571
40
0.862773652163101
40
0.862773652163101
40
0.90818279175063
40
0.90818279175063
40
0.930887361544395
40
0.930887361544395
40
0.95359193133816
40
0.95359193133816
40
0.999001070925687
40
0.999001070925687
40
1
40
1
40
1
40
1
41
1
10
9.38724391428258
20
2.0568368574736
30
0
41
1
10
9.91578392819594
20
1.78226546210786
30
0
41
1
10
10.4448355355147
20
1.50576308140961
30
0
41
1
10
11.236000346073
20
1.08297183751515
30
0
41
1
10
11.4991964751132
20
0.940472206800933
30
0
41
1
10
12.0236792343984
20
0.650762864649693
30
0
41
1
10
12.2843945813394
20
0.502506030076461
30
0
41
1
10
12.8083772266316
20
0.209334333244783
30
0
41
1
10
13.0711960330033
20
0.063621308041661
30
0
41
1
10
13.5973872977961
20
-0.228041395884304
30
0
41
1
10
13.8607514914748
20
-0.374009124538588
30
0
41
1
10
14.2562239609384
20
-0.593143330641965
30
0
41
1
10
14.3880994325111
20
-0.66625500462365
30
0
41
1
10
14.6517987649108
20
-0.812908036248075
30
0
41
1
10
14.7833561086055
20
-0.886947423904417
30
0
41
1
10
15.1795572636139
20
-1.10673153603278
30
0
41
1
10
15.4459433213616
20
-1.25111662208482
30
0
41
1
10
15.9768996773317
20
-1.53351929628798
30
0
41
1
10
16.2416568389441
20
-1.67209587632635
30
0
41
1
10
16.7695232221937
20
-1.944467269673
30
0
41
1
10
17.0329371374264
20
-2.07776724784324
30
0
41
1
10
17.4255406499232
20
-2.27610790837557
30
0
41
1
10
17.5562173961747
20
-2.34156169521754
30
0
41
1
10
17.8180909293988
20
-2.46973135042398
30
0
41
1
10
17.9491588572885
20
-2.53265920229995
30
0
41
1
10
18.3427242651093
20
-2.71809550600091
30
0
41
1
10
18.6054880178124
20
-2.83742214282395
30
0
41
1
10
19.1309106987515
20
-3.06885927160346
30
0
41
1
10
19.3937540587836
20
-3.18069819682353
30
0
41
1
10
19.9191400582346
20
-3.39718982069579
30
0
41
1
10
20.1809464889522
20
-3.50274222745631
30
0
41
1
10
20.7083184741015
20
-3.70109822696031
30
0
41
1
10
20.9734574431723
20
-3.79454665364335
30
0
41
1
10
21.5055565583581
20
-3.97137467807212
30
0
41
1
10
21.7715199614225
20
-4.05439318409441
30
0
41
1
10
22.1682597432276
20
-4.1701872228183
30
0
41
1
10
22.3002252973709
20
-4.20738565698807
30
0
41
1
10
22.5634305415167
20
-4.27908991623804
30
0
41
1
10
22.6944010897531
20
-4.31381352219748
30
0
41
1
10
23.0878641986271
20
-4.41246496328563
30
0
41
1
10
23.3504908644338
20
-4.47133162491485
30
0
41
1
10
23.875901692222
20
-4.57628677462282
30
0
41
1
10
24.1384994621972
20
-4.62248889823925
30
0
41
1
10
24.6632440920791
20
-4.70246723698426
30
0
41
1
10
24.92565740626
20
-4.7361590856749
30
0
41
1
10
25.3178293035988
20
-4.7774231160237
30
0
41
1
10
25.4484344051366
20
-4.7895592088723
30
0
41
1
10
25.7105391648735
20
-4.81028601700933
30
0
41
1
10
25.8418755884824
20
-4.81893411357177
30
0
41
1
10
26.2367079039899
20
-4.83983547913016
30
0
41
1
10
26.5009324049285
20
-4.84709614446757
30
0
41
1
10
26.771543722531
20
-4.84770986473976
30
0
41
1
10
26.7773692265177
20
-4.84771983350498
30
0
41
1
10
26.783195330526
20
-4.84772655845248
30
0
0
SPLINE
5
D4
100
AcDbEntity
8
1
62
256
6
ByLayer
370
18
48
1
60
0
100
AcDbSpline
70
4
71
3
72
120
73
116
40
0
40
0
40
0
40
0
40
0.003514122936589
40
0.003514122936589
40
0.025206096842973
40
0.025206096842973
40
0.0360520837961651
40
0.0360520837961651
40
0.0468980707493572
40
0.0468980707493572
40
0.0685900446557414
40
0.0685900446557414
40
0.0902820185621256
40
0.0902820185621256
40
0.11197399246851
40
0.11197399246851
40
0.122819979421702
40
0.122819979421702
40
0.133665966374894
40
0.133665966374894
40
0.155357940281278
40
0.155357940281278
40
0.177049914187662
40
0.177049914187662
40
0.198741888094046
40
0.198741888094046
40
0.22043386200043
40
0.22043386200043
40
0.242125835906814
40
0.242125835906814
40
0.252971822860006
40
0.252971822860006
40
0.263817809813198
40
0.263817809813198
40
0.285509783719582
40
0.285509783719582
40
0.307201757625966
40
0.307201757625966
40
0.32889373153235
40
0.32889373153235
40
0.339739718485543
40
0.339739718485543
40
0.350585705438735
40
0.350585705438735
40
0.372277679345121
40
0.372277679345121
40
0.393969653251507
40
0.393969653251507
40
0.415661627157893
40
0.415661627157893
40
0.437353601064279
40
0.437353601064279
40
0.459045574970665
40
0.459045574970665
40
0.469891561923857
40
0.469891561923857
40
0.48073754887705
40
0.48073754887705
40
0.502429522783435
40
0.502429522783435
40
0.52412149668982
40
0.52412149668982
40
0.545813470596205
40
0.545813470596205
40
0.556659457549398
40
0.556659457549398
40
0.56750544450259
40
0.56750544450259
40
0.589197418408975
40
0.589197418408975
40
0.61088939231536
40
0.61088939231536
40
0.632581366221745
40
0.632581366221745
40
0.654273340128131
40
0.654273340128131
40
0.675965314034515
40
0.675965314034515
40
0.686811300987708
40
0.686811300987708
40
0.6976572879409
40
0.6976572879409
40
0.719349261847283
40
0.719349261847283
40
0.741041235753666
40
0.741041235753666
40
0.76273320966005
40
0.76273320966005
40
0.773579196613241
40
0.773579196613241
40
0.784425183566432
40
0.784425183566432
40
0.806117157472815
40
0.806117157472815
40
0.827809131379199
40
0.827809131379199
40
0.83865511833239
40
0.83865511833239
40
0.849501105285582
40
0.849501105285582
40
0.871193079191966
40
0.871193079191966
40
0.89288505309835
40
0.89288505309835
40
0.903731040051543
40
0.903731040051543
40
0.914577027004735
40
0.914577027004735
40
0.93626900091112
40
0.93626900091112
40
0.97965294872389
40
0.97965294872389
40
0.990498935677081
40
0.990498935677081
40
1
40
1
40
1
40
1
41
1
10
44.826609853911
20
2.38160194978752
30
0
41
1
10
44.869147036819
20
2.40225753868512
30
0
41
1
10
44.9116813184691
20
2.42282195672286
30
0
41
1
10
45.2167338400386
20
2.5697030377801
30
0
41
1
10
45.4790543954366
20
2.69278525382418
30
0
41
1
10
45.8722400748575
20
2.87235209601889
30
0
41
1
10
46.0032328290236
20
2.93139446475408
30
0
41
1
10
46.2649202429175
20
3.04804273960099
30
0
41
1
10
46.3953440621303
20
3.10602459612639
30
0
41
1
10
46.7877586554432
20
3.27549623092386
30
0
41
1
10
47.0505505762689
20
3.38305094416816
30
0
41
1
10
47.578001334997
20
3.58822559855193
30
0
41
1
10
47.842472740753
20
3.6860856557052
30
0
41
1
10
48.372679102155
20
3.87248725848261
30
0
41
1
10
48.6391175366118
20
3.9608486043764
30
0
41
1
10
49.0347688031061
20
4.08604948464202
30
0
41
1
10
49.1662799441172
20
4.12641713918029
30
0
41
1
10
49.4296046886948
20
4.20344070864797
30
0
41
1
10
49.561269442613
20
4.24025574090035
30
0
41
1
10
49.9562519505662
20
4.34578878624959
30
0
41
1
10
50.2194653471645
20
4.40970913372993
30
0
41
1
10
50.744809937189
20
4.52563428388379
30
0
41
1
10
51.0071242551367
20
4.57749824205467
30
0
41
1
10
51.5304620766809
20
4.66917200350952
30
0
41
1
10
51.7907269761084
20
4.70924690451128
30
0
41
1
10
52.3140009864991
20
4.77510971215861
30
0
41
1
10
52.5766009784324
20
4.80123784057545
30
0
41
1
10
53.102650496988
20
4.84051601531218
30
0
41
1
10
53.3660746133684
20
4.85364351311597
30
0
41
1
10
53.7618507779614
20
4.86332514350846
30
0
41
1
10
53.893864765712
20
4.86488547724787
30
0
41
1
10
54.1579181576934
20
4.86457627567253
30
0
41
1
10
54.2896940169533
20
4.86268037561555
30
0
41
1
10
54.6865552875718
20
4.85175205134445
30
0
41
1
10
54.9518277872617
20
4.83758053653827
30
0
41
1
10
55.4807205814943
20
4.79631560671243
30
0
41
1
10
55.7445655338072
20
4.76915375155872
30
0
41
1
10
56.2708057302231
20
4.70182403038999
30
0
41
1
10
56.5334474756084
20
4.66180105573639
30
0
41
1
10
56.9253049065647
20
4.5912137601911
30
0
41
1
10
57.0556248898031
20
4.56592526282691
30
0
41
1
10
57.3169486660442
20
4.51265770201533
30
0
41
1
10
57.4477693095064
20
4.48457503521121
30
0
41
1
10
57.8406907960739
20
4.39608558978944
30
0
41
1
10
58.1031634692804
20
4.33140494060797
30
0
41
1
10
58.6282340934597
20
4.19001867542877
30
0
41
1
10
58.8910100620672
20
4.11346072109538
30
0
41
1
10
59.4165434436326
20
3.94776176219705
30
0
41
1
10
59.6785187961671
20
3.85765208896825
30
0
41
1
10
60.2063370234605
20
3.66871101812913
30
0
41
1
10
60.4724454261822
20
3.56937331768646
30
0
41
1
10
61.0034522391353
20
3.36155563994487
30
0
41
1
10
61.268007463407
20
3.25315348493837
30
0
41
1
10
61.6634548555958
20
3.08389107642759
30
0
41
1
10
61.7950217079612
20
3.02633463345882
30
0
41
1
10
62.0574943409478
20
2.90869195191942
30
0
41
1
10
62.1881313540957
20
2.84820113042068
30
0
41
1
10
62.5805081080225
20
2.6650567069095
30
0
41
1
10
62.8425248725299
20
2.54049709071245
30
0
41
1
10
63.3670055732436
20
2.28611539812218
30
0
41
1
10
63.6292797237264
20
2.15599137220434
30
0
41
1
10
64.1535934756863
20
1.88937765477854
30
0
41
1
10
64.4158319481764
20
1.75323144790369
30
0
41
1
10
64.8082390827971
20
1.54273840698153
30
0
41
1
10
64.9387893790087
20
1.47135070751432
30
0
41
1
10
65.2009426805197
20
1.32884824896155
30
0
41
1
10
65.3323303525363
20
1.25736297645059
30
0
41
1
10
65.7274179250023
20
1.04223358564039
30
0
41
1
10
65.9919596530136
20
0.897783822789251
30
0
41
1
10
66.5224074484792
20
0.605064227299948
30
0
41
1
10
66.7886157971976
20
0.457035139938853
30
0
41
1
10
67.3170043196344
20
0.159748990381786
30
0
41
1
10
67.5790329556129
20
0.0086507902908011
30
0
41
1
10
68.1041973450824
20
-0.28832407771705
30
0
41
1
10
68.3670022421309
20
-0.434854395468591
30
0
41
1
10
68.892048419514
20
-0.725967714421614
30
0
41
1
10
69.1542408692889
20
-0.870632124955193
30
0
41
1
10
69.5470704494324
20
-1.086209692843
30
0
41
1
10
69.677921627043
20
-1.15785987329667
30
0
41
1
10
69.9392789991695
20
-1.30101103535139
30
0
41
1
10
70.0695263941478
20
-1.37296149033512
30
0
41
1
10
70.4610129450563
20
-1.58635618834637
30
0
41
1
10
70.7230443650137
20
-1.72528221895649
30
0
41
1
10
71.2487934847372
20
-1.99725102232881
30
0
41
1
10
71.5123200167861
20
-2.13061845692189
30
0
41
1
10
72.0403417822959
20
-2.39263671487609
30
0
41
1
10
72.3050205336669
20
-2.52098955548061
30
0
41
1
10
72.7021514037666
20
-2.71085527415298
30
0
41
1
10
72.8340020347292
20
-2.77372681123177
30
0
41
1
10
73.0979621090378
20
-2.89592539230549
30
0
41
1
10
73.2299067146287
20
-2.95563416734939
30
0
41
1
10
73.6256508457165
20
-3.13071167895748
30
0
41
1
10
73.8892868073404
20
-3.24217098267937
30
0
41
1
10
74.4152308901023
20
-3.45617750737955
30
0
41
1
10
74.6777086712985
20
-3.55848640930029
30
0
41
1
10
75.0703344963551
20
-3.70525300181146
30
0
41
1
10
75.2010067543203
20
-3.75308401001561
30
0
41
1
10
75.4615790896004
20
-3.84689425874922
30
0
41
1
10
75.5920400778069
20
-3.89223290818234
30
0
41
1
10
75.9839850097011
20
-4.023619977294
30
0
41
1
10
76.2461225030872
20
-4.10497248407211
30
0
41
1
10
76.7710797069618
20
-4.25649264836139
30
0
41
1
10
77.0338264073962
20
-4.32670597676346
30
0
41
1
10
77.4284033626789
20
-4.4234982731885
30
0
41
1
10
77.5599936412257
20
-4.45435045926237
30
0
41
1
10
77.8231490962701
20
-4.51327660021784
30
0
41
1
10
77.9544750571691
20
-4.54151045487453
30
0
41
1
10
78.3494961006961
20
-4.62113711071146
30
0
41
1
10
78.615164819568
20
-4.6674319202121
30
0
41
1
10
79.4104105381199
20
-4.78560846108746
30
0
41
1
10
79.9380864019336
20
-4.83766162393715
30
0
41
1
10
80.5920927306112
20
-4.86986442964067
30
0
41
1
10
80.7223731068088
20
-4.87464788024442
30
0
41
1
10
80.9674311373264
20
-4.88033531714933
30
0
41
1
10
81.0819568059248
20
-4.88167756955423
30
0
41
1
10
81.1965813832924
20
-4.881737065084
30
0
0
SPLINE
5
D5
100
AcDbEntity
8
1
62
256
6
ByLayer
370
18
48
1
60
0
100
AcDbSpline
70
4
71
3
72
38
73
34
40
0
40
0
40
0
40
0
40
0.0153330615608371
40
0.0153330615608371
40
0.155999767052148
40
0.155999767052148
40
0.226333119797804
40
0.226333119797804
40
0.29666647254346
40
0.29666647254346
40
0.366999825289116
40
0.366999825289116
40
0.437333178034772
40
0.437333178034772
40
0.472499854407597
40
0.472499854407597
40
0.507666530780422
40
0.507666530780422
40
0.577999883526072
40
0.577999883526072
40
0.648333236271722
40
0.648333236271722
40
0.68349991264455
40
0.68349991264455
40
0.718666589017377
40
0.718666589017377
40
0.788999941763033
40
0.788999941763033
40
0.859333294508689
40
0.859333294508689
40
0.929666647254345
40
0.929666647254345
40
1
40
1
40
1
40
1
41
1
10
99.2055298953563
20
2.38337579009897
30
0
41
1
10
99.2623665794227
20
2.41182109406455
30
0
41
1
10
99.3192261216196
20
2.44005902465295
30
0
41
1
10
99.898202093993
20
2.72486550888098
30
0
41
1
10
100.422904288548
20
2.96352691012444
30
0
41
1
10
101.210288508147
20
3.30002019781097
30
0
41
1
10
101.472766853196
20
3.4086043910946
30
0
41
1
10
101.997442041706
20
3.61859824394938
30
0
41
1
10
102.26131272225
20
3.71783637806155
30
0
41
1
10
102.791903207102
20
3.90528988974651
30
0
41
1
10
103.057262191225
20
3.99330318259697
30
0
41
1
10
103.585288561052
20
4.15792549404952
30
0
41
1
10
103.848502750278
20
4.23448417526893
30
0
41
1
10
104.241412290732
20
4.34120917968306
30
0
41
1
10
104.371782597085
20
4.37564581224765
30
0
41
1
10
104.632988191173
20
4.44083860778528
30
0
41
1
10
104.763687507907
20
4.47172442158649
30
0
41
1
10
105.156109054181
20
4.55936665060332
30
0
41
1
10
105.418143633482
20
4.61115511612866
30
0
41
1
10
105.941946559488
20
4.70241520167679
30
0
41
1
10
106.203838731782
20
4.74179536825051
30
0
41
1
10
106.596487443539
20
4.79139101576547
30
0
41
1
10
106.727369093253
20
4.80633452038322
30
0
41
1
10
106.988612077224
20
4.83311713734221
30
0
41
1
10
107.119133665567
20
4.84488141389033
30
0
41
1
10
107.512174412659
20
4.87481732017918
30
0
41
1
10
107.77556499726
20
4.88787447313763
30
0
41
1
10
108.30425920082
20
4.90060172590643
30
0
41
1
10
108.569954299946
20
4.90024042837996
30
0
41
1
10
109.100086388785
20
4.88582366809462
30
0
41
1
10
109.36426864902
20
4.87181513027966
30
0
41
1
10
109.89012787131
20
4.82954965059767
30
0
41
1
10
110.15364338205
20
4.80174256701886
30
0
41
1
10
110.417664818206
20
4.76758016241024
30
0
0
SPLINE
5
D6
100
AcDbEntity
8
1
62
256
6
ByLayer
370
18
48
1
60
0
100
AcDbSpline
70
4
71
3
72
8
73
4
40
0
40
0
40
0
40
0
40
1
40
1
40
1
40
1
41
1
10
110.295426868672
20
-4.7463105412786
30
0
41
1
10
110.275932564273
20
-4.79546309571987
30
0
41
1
10
110.256426582266
20
-4.84455765988463
30
0
41
1
10
110.23691345422
20
-4.89358935497512
30
0
0
SPLINE
5
D7
100
AcDbEntity
8
1
62
256
6
ByLayer
370
18
48
1
60
0
100
AcDbSpline
70
4
71
3
72
12
73
8
40
0
40
0
40
0
40
0
40
0.5
40
0.5
40
0.75
40
0.75
40
1
40
1
40
1
40
1
41
1
10
110.417664818206
20
4.76758016241018
30
0
41
1
10
110.655885893205
20
4.1817666818404
30
0
41
1
10
110.893401693733
20
3.59353439999464
30
0
41
1
10
111.245725667244
20
2.70630765220028
30
0
41
1
10
111.362596414971
20
2.40951811739549
30
0
41
1
10
111.594008108331
20
1.8154932447616
30
0
41
1
10
111.708544356133
20
1.51827061810772
30
0
41
1
10
111.821741996193
20
1.22076114077487
30
0
0
SPLINE
5
D8
100
AcDbEntity
8
1
62
256
6
ByLayer
370
18
48
1
60
0
100
AcDbSpline
70
4
71
3
72
8
73
4
40
0
40
0
40
0
40
0
40
1
40
1
40
1
40
1
41
1
10
9.38724391428258
20
4.57636760134702
30
0
41
1
10
9.28373550407255
20
4.58569712768914
30
0
41
1
10
9.18245449404981
20
4.59058132553457
30
0
41
1
10
9.08317728567522
20
4.59073819797615
30
0
0
SPLINE
5
D9
100
AcDbEntity
8
1
62
256
6
ByLayer
370
18
48
1
60
0
100
AcDbSpline
70
4
71
3
72
10
73
6
40
0
40
0
40
0
40
0
40
0.5
40
0.5
40
1
40
1
40
1
40
1
41
1
10
110.417664818197
20
-4.76758016243284
30
0
41
1
10
110.656755707557
20
-4.1796277066365
30
0
41
1
10
110.894583285173
20
-3.59058515844168
30
0
41
1
10
111.363858193019
20
-2.4087984488859
30
0
41
1
10
111.595252614158
20
-1.81602741695016
30
0
41
1
10
111.821741996193
20
-1.22076114077493
30
0
0
SPLINE
5
DA
100
AcDbEntity
8
1
62
256
6
ByLayer
370
18
48
1
60
0
100
AcDbSpline
70
4
71
3
72
30
73
26
40
0
40
0
40
0
40
0
40
0.125000000000017
40
0.125000000000017
40
0.18750000000004
40
0.18750000000004
40
0.250000000000063
40
0.250000000000063
40
0.281250000000065
40
0.281250000000065
40
0.312500000000067
40
0.312500000000067
40
0.34375000000007
40
0.34375000000007
40
0.375000000000072
40
0.375000000000072
40
0.437500000000076
40
0.437500000000076
40
0.50000000000008
40
0.50000000000008
40
0.62500000000006
40
0.62500000000006
40
0.75000000000004
40
0.75000000000004
40
1
40
1
40
1
40
1
41
1
10
110.560453226151
20
-2.01741310938499
30
0
41
1
10
110.49967572441
20
-1.97105839884733
30
0
41
1
10
110.441111538406
20
-1.92064107117284
30
0
41
1
10
110.359116408425
20
-1.83427509444749
30
0
41
1
10
110.332715073629
20
-1.80353640790807
30
0
41
1
10
110.284410248531
20
-1.73809847021866
30
0
41
1
10
110.262131671894
20
-1.70286813925375
30
0
41
1
10
110.23551207568
20
-1.64735317426886
30
0
41
1
10
110.22773415992
20
-1.62834975552357
30
0
41
1
10
110.215129101435
20
-1.58900010976893
30
0
41
1
10
110.210384122949
20
-1.56869916967068
30
0
41
1
10
110.205227526626
20
-1.52875484665094
30
0
41
1
10
110.204786844801
20
-1.50856980669133
30
0
41
1
10
110.208560359938
20
-1.47050594939466
30
0
41
1
10
110.212733722522
20
-1.45235032789725
30
0
41
1
10
110.231303767492
20
-1.40156281674359
30
0
41
1
10
110.251161418315
20
-1.37381118413171
30
0
41
1
10
110.297476295251
20
-1.32844432181787
30
0
41
1
10
110.323897956114
20
-1.31063559830011
30
0
41
1
10
110.408217490298
20
-1.26652393268418
30
0
41
1
10
110.469003765255
20
-1.24998315747064
30
0
41
1
10
110.594738292898
20
-1.22861147416668
30
0
41
1
10
110.659218762873
20
-1.2244252521036
30
0
41
1
10
110.852716244355
20
-1.22396826171362
30
0
41
1
10
110.983353873738
20
-1.23940798964131
30
0
41
1
10
111.115018041416
20
-1.26470688590197
30
0
0
SPLINE
5
DB
100
AcDbEntity
8
1
62
256
6
ByLayer
370
18
48
1
60
0
100
AcDbSpline
70
4
71
3
72
14
73
10
40
0
40
0
40
0
40
0
40
0.25
40
0.25
40
0.5
40
0.5
40
0.75
40
0.75
40
1
40
1
40
1
40
1
41
1
10
110.150082592084
20
1.11232221033063
30
0
41
1
10
110.146202737433
20
1.12737994026981
30
0
41
1
10
110.144945379879
20
1.14324762640672
30
0
41
1
10
110.150994545701
20
1.17345975855105
30
0
41
1
10
110.158684023501
20
1.18781069047722
30
0
41
1
10
110.181464200492
20
1.20949111960036
30
0
41
1
10
110.195787195222
20
1.21663455360164
30
0
41
1
10
110.225496677829
20
1.22522193637144
30
0
41
1
10
110.241145100204
20
1.2268292823577
30
0
41
1
10
110.256689475211
20
1.22665027777356
30
0
0
SPLINE
5
DC
100
AcDbEntity
8
1
62
256
6
ByLayer
370
18
48
1
60
0
100
AcDbSpline
70
4
71
3
72
8
73
4
40
0
40
0
40
0
40
0
40
1
40
1
40
1
40
1
41
1
10
111.977951657246
20
-0.137050087278368
30
0
41
1
10
111.981583583538
20
-0.108007454398205
30
0
41
1
10
111.989597330903
20
-0.0720841586453957
30
0
41
1
10
111.999970502276
20
-0.0340535681355902
30
0
0
SPLINE
5
DD
100
AcDbEntity
8
1
62
256
6
ByLayer
370
18
48
1
60
0
100
AcDbSpline
70
4
71
3
72
8
73
4
40
0
40
0
40
0
40
0
40
1
40
1
40
1
40
1
41
1
10
111.999970502272
20
0.0340535681463336
30
0
41
1
10
111.991688020552
20
0.0079638310903078
30
0
41
1
10
111.98064786715
20
-0.0189681740089611
30
0
41
1
10
111.969613163561
20
-0.0394842244905931
30
0
0
SPLINE
5
DE
100
AcDbEntity
8
1
62
256
6
ByLayer
370
18
48
1
60
0
100
AcDbSpline
70
4
71
3
72
14
73
10
40
0
40
0
40
0
40
0
40
0.25
40
0.25
40
0.5
40
0.5
40
0.75
40
0.75
40
1
40
1
40
1
40
1
41
1
10
110.31406143
20
-4.65199860340627
30
0
41
1
10
110.316378722674
20
-4.65150498038582
30
0
41
1
10
110.318011776511
20
-4.65278392622099
30
0
41
1
10
110.319505315424
20
-4.65991257759083
30
0
41
1
10
110.319307990939
20
-4.66588222154576
30
0
41
1
10
110.316260066993
20
-4.68319428103669
30
0
41
1
10
110.313383734176
20
-4.69448573912791
30
0
41
1
10
110.305534349375
20
-4.71957084548117
30
0
41
1
10
110.300606552387
20
-4.733250588967
30
0
41
1
10
110.295426868675
20
-4.74631054127047
30
0
0
SPLINE
5
DF
100
AcDbEntity
8
1
62
256
6
ByLayer
370
18
48
1
60
0
100
AcDbSpline
70
4
71
3
72
8
73
4
40
0
40
0
40
0
40
0
40
1
40
1
40
1
40
1
41
1
10
110.23691345422
20
4.89358935497512
30
0
41
1
10
110.090065043838
20
4.89771552957998
30
0
41
1
10
109.943192071558
20
4.89972326304598
30
0
41
1
10
109.796254894387
20
4.89961216568875
30
0
0
SPLINE
5
E0
100
AcDbEntity
8
1
62
256
6
ByLayer
370
18
48
1
60
0
100
AcDbSpline
70
4
71
3
72
60
73
56
40
0
40
0
40
0
40
0
40
0.0044425945267394
40
0.0044425945267394
40
0.0315355419182709
40
0.0315355419182709
40
0.0857214367013338
40
0.0857214367013338
40
0.139907331484396
40
0.139907331484396
40
0.167000278875927
40
0.167000278875927
40
0.194093226267458
40
0.194093226267458
40
0.24827912105052
40
0.24827912105052
40
0.275372068442051
40
0.275372068442051
40
0.302465015833583
40
0.302465015833583
40
0.356650910616646
40
0.356650910616646
40
0.410836805399709
40
0.410836805399709
40
0.465022700182771
40
0.465022700182771
40
0.492115647574303
40
0.492115647574303
40
0.519208594965834
40
0.519208594965834
40
0.573394489748898
40
0.573394489748898
40
0.60048743714043
40
0.60048743714043
40
0.627580384531962
40
0.627580384531962
40
0.654673331923494
40
0.654673331923494
40
0.681766279315026
40
0.681766279315026
40
0.735952174098089
40
0.735952174098089
40
0.76304512148962
40
0.76304512148962
40
0.790138068881152
40
0.790138068881152
40
0.844323963664216
40
0.844323963664216
40
0.89850985844728
40
0.89850985844728
40
0.952695753230344
40
0.952695753230344
40
0.979788700621876
40
0.979788700621876
40
1
40
1
40
1
40
1
41
1
10
85.2979305153145
20
-4.64869604038478
30
0
41
1
10
85.2535847226339
20
-4.65634777740266
30
0
41
1
10
85.2092515044516
20
-4.66381434317847
30
0
41
1
10
84.8946831074544
20
-4.71548679425456
30
0
41
1
10
84.6247792106828
20
-4.75298268561249
30
0
41
1
10
83.8152022923676
20
-4.84450387857905
30
0
41
1
10
83.2758595920019
20
-4.87761427397746
30
0
41
1
10
82.1929945070131
20
-4.88656743380795
30
0
41
1
10
81.6532101414606
20
-4.86235578774458
30
0
41
1
10
80.8435982666692
20
-4.78399542886734
30
0
41
1
10
80.5736876996021
20
-4.75087074490284
30
0
41
1
10
80.03329411275
20
-4.67073606645306
30
0
41
1
10
79.7624407647261
20
-4.62366226316496
30
0
41
1
10
78.9508549943831
20
-4.46260144509881
30
0
41
1
10
78.411590067304
20
-4.32875576362775
30
0
41
1
10
77.6017009746643
20
-4.09140615808738
30
0
41
1
10
77.3315875774514
20
-4.00618620784044
30
0
41
1
10
76.7905817968931
20
-3.8239287438833
30
0
41
1
10
76.5196875532117
20
-3.72690539873255
30
0
41
1
10
75.7088735283621
20
-3.42081281600744
30
0
41
1
10
75.1696914509982
20
-3.19597414869111
30
0
41
1
10
74.0892243803353
20
-2.71113182472195
30
0
41
1
10
73.5470613218801
20
-2.45056584874436
30
0
41
1
10
72.4667880867131
20
-1.90574458229708
30
0
41
1
10
71.9274303611586
20
-1.62120840342425
30
0
41
1
10
71.1163162737143
20
-1.1815830485352
30
0
41
1
10
70.8452835531312
20
-1.03272406592961
30
0
41
1
10
70.3043262622612
20
-0.733078532389925
30
0
41
1
10
70.0342319790946
20
-0.582204279392585
30
0
41
1
10
69.2242081120904
20
-0.128021230447928
30
0
41
1
10
68.6846408066559
20
0.1770316733041
30
0
41
1
10
67.8725398437809
20
0.631905894014153
30
0
41
1
10
67.6017174523059
20
0.782872248429271
30
0
41
1
10
67.0612209275361
20
1.08143730667788
30
0
41
1
10
66.7912483549192
20
1.22917317040714
30
0
41
1
10
66.2512540721519
20
1.52052670954433
30
0
41
1
10
65.9812518916344
20
1.66417872487148
30
0
41
1
10
65.4407489105405
20
1.94659190548114
30
0
41
1
10
65.1699607975359
20
2.08545974356855
30
0
41
1
10
64.3577124286284
20
2.49196185115392
30
0
41
1
10
63.8180969772217
20
2.74900872184358
30
0
41
1
10
63.0079486156924
20
3.10850298002524
30
0
41
1
10
62.7377844796067
20
3.22400009116333
30
0
41
1
10
62.1967193675555
20
3.4455860046269
30
0
41
1
10
61.9256117129363
20
3.55171240907484
30
0
41
1
10
61.1141954928651
20
3.85314389049449
30
0
41
1
10
60.5746753914406
20
4.03216127904409
30
0
41
1
10
59.4939492101973
20
4.34170437652068
30
0
41
1
10
58.9515639296606
20
4.47235271267846
30
0
41
1
10
57.8705275685193
20
4.67900092216919
30
0
41
1
10
57.3309403627553
20
4.75533530921211
30
0
41
1
10
56.5197109312241
20
4.82785354260929
30
0
41
1
10
56.2486449842078
20
4.8450324654595
30
0
41
1
10
55.7760050661804
20
4.86252804672526
30
0
41
1
10
55.5742941720079
20
4.86603046775531
30
0
41
1
10
55.3726979918005
20
4.86557687042546
30
0
0
SPLINE
5
E1
100
AcDbEntity
8
1
62
256
6
ByLayer
370
18
48
1
60
0
100
AcDbSpline
70
4
71
3
72
46
73
42
40
0
40
0
40
0
40
0
40
0.0006662412288832
40
0.0006662412288832
40
0.033977366521253
40
0.033977366521253
40
0.0672884918136224
40
0.0672884918136224
40
0.133910742398362
40
0.133910742398362
40
0.167221867690732
40
0.167221867690732
40
0.200532992983103
40
0.200532992983103
40
0.333777494152585
40
0.333777494152585
40
0.400399744737326
40
0.400399744737326
40
0.433710870029697
40
0.433710870029697
40
0.467021995322067
40
0.467021995322067
40
0.533644245906808
40
0.533644245906808
40
0.600266496491551
40
0.600266496491551
40
0.666888747076292
40
0.666888747076292
40
0.733510997661033
40
0.733510997661033
40
0.766822122953405
40
0.766822122953405
40
0.800133248245775
40
0.800133248245775
40
0.866755498830517
40
0.866755498830517
40
0.900066624122888
40
0.900066624122888
40
0.933377749415259
40
0.933377749415259
40
1
40
1
40
1
40
1
41
1
10
30.8405072627474
20
-4.62607419333398
30
0
41
1
10
30.8351005280276
20
-4.6269813204338
30
0
41
1
10
30.8296937458069
20
-4.62788575348293
30
0
41
1
10
30.5539529205213
20
-4.6738731106787
30
0
41
1
10
30.2834719567753
20
-4.71220378521383
30
0
41
1
10
29.7416135717745
20
-4.77501087827051
30
0
41
1
10
29.4703096695823
20
-4.79947430073591
30
0
41
1
10
28.6583942458404
20
-4.85148093504571
30
0
41
1
10
28.118320009407
20
-4.85781297971155
30
0
41
1
10
27.3067950282245
20
-4.82476349511245
30
0
41
1
10
27.0358678189619
20
-4.80663851148387
30
0
41
1
10
26.4936086105536
20
-4.7562896158926
30
0
41
1
10
26.2234785746104
20
-4.72418359293934
30
0
41
1
10
24.8765070599122
20
-4.53013860977566
30
0
41
1
10
23.8104075133239
20
-4.267712802994
30
0
41
1
10
22.2022273326715
20
-3.73635993410196
30
0
41
1
10
21.6647271525812
20
-3.53623408234583
30
0
41
1
10
20.8528975818589
20
-3.20467474023658
30
0
41
1
10
20.5813231273598
20
-3.08889498462062
30
0
41
1
10
20.0398631635034
20
-2.84934746581257
30
0
41
1
10
19.7694719759066
20
-2.72536269888437
30
0
41
1
10
18.9584344927631
20
-2.34211766242839
30
0
41
1
10
18.4178665671134
20
-2.07165838315802
30
0
41
1
10
17.3326126501743
20
-1.50755246882539
30
0
41
1
10
16.7941516388842
20
-1.2167518037987
30
0
41
1
10
15.7207882513952
20
-0.627317341206094
30
0
41
1
10
15.1858123542782
20
-0.328657999491924
30
0
41
1
10
14.1153353839995
20
0.269359595365842
30
0
41
1
10
13.5800838639041
20
0.569175598778145
30
0
41
1
10
12.7732348696839
20
1.01289724453281
30
0
41
1
10
12.5036361199419
20
1.15982725870293
30
0
41
1
10
11.9626009391991
20
1.45074750788311
30
0
41
1
10
11.6908710811608
20
1.59488134148333
30
0
41
1
10
10.8779758402104
20
2.01848640643044
30
0
41
1
10
10.3374707116342
20
2.29028829781208
30
0
41
1
10
9.52507539188341
20
2.67600793654532
30
0
41
1
10
9.25371680492361
20
2.80105106009088
30
0
41
1
10
8.71136800035498
20
3.04228875217427
30
0
41
1
10
8.44059061961394
20
3.15839442733608
30
0
41
1
10
7.62861317686173
20
3.49211804689671
30
0
41
1
10
7.08772052434645
20
3.69509754124033
30
0
41
1
10
6.54525545730189
20
3.87600111446338
30
0
0
SPLINE
5
E2
100
AcDbEntity
8
1
62
256
6
ByLayer
370
18
48
1
60
0
100
AcDbSpline
70
4
71
3
72
22
73
18
40
0
40
0
40
0
40
0
40
0.124999999999986
40
0.124999999999986
40
0.187499999999979
40
0.187499999999979
40
0.249999999999972
40
0.249999999999972
40
0.312499999999965
40
0.312499999999965
40
0.374999999999958
40
0.374999999999958
40
0.49999999999996
40
0.49999999999996
40
0.74999999999998
40
0.74999999999998
40
1
40
1
40
1
40
1
41
1
10
6.41724118717849
20
-2.84132723520321
30
0
41
1
10
6.4175687533438
20
-2.81347742350712
30
0
41
1
10
6.41926351025452
20
-2.78530263359534
30
0
41
1
10
6.42682086600104
20
-2.74552280085666
30
0
41
1
10
6.43027167153968
20
-2.73254923157739
30
0
41
1
10
6.43987245366046
20
-2.71032893281512
30
0
41
1
10
6.44624125751713
20
-2.7011614325578
30
0
41
1
10
6.4605620771151
20
-2.69083610632504
30
0
41
1
10
6.46834921979394
20
-2.68951166320534
30
0
41
1
10
6.48333576746839
20
-2.69167998616911
30
0
41
1
10
6.49068251013358
20
-2.69505218126298
30
0
41
1
10
6.51166491673121
20
-2.70837705267903
30
0
41
1
10
6.52475050691265
20
-2.7216454451914
30
0
41
1
10
6.56169021884284
20
-2.7650227797121
30
0
41
1
10
6.58395674047563
20
-2.7995534087209
30
0
41
1
10
6.6269829548466
20
-2.87225961608579
30
0
41
1
10
6.64749653970949
20
-2.91060740666859
30
0
41
1
10
6.66739230331851
20
-2.95004700045644
30
0
0
SPLINE
5
E3
100
AcDbEntity
8
1
62
256
6
ByLayer
370
18
48
1
60
0
100
AcDbSpline
70
4
71
3
72
12
73
8
40
0
40
0
40
0
40
0
40
0.25
40
0.25
40
0.5
40
0.5
40
1
40
1
40
1
40
1
41
1
10
107.28367746014
20
-1.77952294679028
30
0
41
1
10
107.451465531555
20
-1.95200480220618
30
0
41
1
10
107.625267156262
20
-2.11466371640049
30
0
41
1
10
107.983198744284
20
-2.42311054387588
30
0
41
1
10
108.167633666757
20
-2.5691179803141
30
0
41
1
10
108.732660661303
20
-2.98336905418142
30
0
41
1
10
109.119332741017
20
-3.22444615220522
30
0
41
1
10
109.51385028865
20
-3.43795859457825
30
0
0
SPLINE
5
E4
100
AcDbEntity
8
1
62
256
6
ByLayer
370
18
48
1
60
0
100
AcDbSpline
70
4
71
3
72
8
73
4
40
0
40
0
40
0
40
0
40
1
40
1
40
1
40
1
41
1
10
111.969613163561
20
-0.0394842244906215
30
0
41
1
10
111.927073632516
20
-0.118574991116276
30
0
41
1
10
111.884716270808
20
-0.197828626878078
30
0
41
1
10
111.842541420927
20
-0.277245437914161
30
0
0
SPLINE
5
E5
100
AcDbEntity
8
1
62
256
6
ByLayer
370
18
48
1
60
0
100
AcDbSpline
70
4
71
3
72
8
73
4
40
0
40
0
40
0
40
0
40
1
40
1
40
1
40
1
41
1
10
111.977951657246
20
0.13705008727851
30
0
41
1
10
111.981583583538
20
0.108007454401104
30
0
41
1
10
111.989597330901
20
0.0720841586522738
30
0
41
1
10
111.999970502272
20
0.0340535681465042
30
0
0
SPLINE
5
E6
100
AcDbEntity
8
SK1
62
256
6
ByLayer
370
18
48
1
60
0
100
AcDbSpline
70
4
71
3
72
10
73
6
40
0
40
0
40
0
40
0
40
0.5
40
0.5
40
1
40
1
40
1
40
1
41
1
10
-40
20
0.582482335126286
30
0
41
1
10
-39.8301222483975
20
0.771908375032496
30
0
41
1
10
-39.6563211405235
20
0.960175937659898
30
0
41
1
10
-39.3053871289517
20
1.3357272598918
30
0
41
1
10
-39.1281413792797
20
1.5229851266283
30
0
41
1
10
-38.95
20
1.70996185586975
30
0
0
SPLINE
5
E7
100
AcDbEntity
8
SK1
62
256
6
ByLayer
370
18
48
1
60
0
100
AcDbSpline
70
4
71
3
72
10
73
6
40
0
40
0
40
0
40
0
40
0.5
40
0.5
40
1
40
1
40
1
40
1
41
1
10
-38.95
20
3.73711026837464
30
0
41
1
10
-39.1281008449791
20
3.55017608382994
30
0
41
1
10
-39.3053078622005
20
3.36295967976875
30
0
41
1
10
-39.6562288255455
20
2.98742396023218
30
0
41
1
10
-39.8300491951728
20
2.79913824719247
30
0
41
1
10
-40
20
2.6096307476312
30
0
0
SPLINE
5
E8
100
AcDbEntity
8
SK1
62
256
6
ByLayer
370
18
48
1
60
0
100
AcDbSpline
70
4
71
3
72
14
73
10
40
0
40
0
40
0
40
0
40
0.500000000000002
40
0.500000000000002
40
0.750000000000001
40
0.750000000000001
40
0.875
40
0.875
40
1
40
1
40
1
40
1
41
1
10
-38.9500000000001
20
1.70996185586969
30
0
41
1
10
-38.9287234691649
20
1.73229364740092
30
0
41
1
10
-38.9083432483059
20
1.75957757628623
30
0
41
1
10
-38.880223151313
20
1.80951425929189
30
0
41
1
10
-38.8713218079587
20
1.82765495713267
30
0
41
1
10
-38.8602667834558
20
1.85706581925479
30
0
41
1
10
-38.8569157654531
20
1.8673649951121
30
0
41
1
10
-38.851744720606
20
1.88896252661525
30
0
41
1
10
-38.8499999999999
20
1.90015379609281
30
0
41
1
10
-38.8499999999999
20
1.9103710078318
30
0
0
SPLINE
5
E9
100
AcDbEntity
8
SK1
62
256
6
ByLayer
370
18
48
1
60
0
100
AcDbSpline
70
4
71
3
72
14
73
10
40
0
40
0
40
0
40
0
40
0.124999999999999
40
0.124999999999999
40
0.249999999999997
40
0.249999999999997
40
0.499999999999999
40
0.499999999999999
40
1
40
1
40
1
40
1
41
1
10
-38.85
20
3.77534754733625
30
0
41
1
10
-38.85
20
3.78256553124879
30
0
41
1
10
-38.8517453396944
20
3.78735556883461
30
0
41
1
10
-38.8568901241517
20
3.79330732748323
30
0
41
1
10
-38.860211966304
20
3.79456939557303
30
0
41
1
10
-38.8714485682308
20
3.79544908430523
30
0
41
1
10
-38.8802054040538
20
3.79221934576322
30
0
41
1
10
-38.9082792076556
20
3.77688389032806
30
0
41
1
10
-38.9286347141249
20
3.75953521696542
30
0
41
1
10
-38.95
20
3.73711026837464
30
0
0
LINE
5
76
100
AcDbEntity
8
81
62
256
6
ByLayer
370
18
48
1
60
0
100
AcDbLine
10
112
20
0
30
0
11
117
21
0
31
0
39
0
210
0
220
0
230
1
0
LINE
5
77
100
AcDbEntity
8
1
62
256
6
ByLayer
370
18
48
1
60
0
100
AcDbLine
10
6.417232
20
4.835
30
0
11
0.066709
21
4.831031
31
0
39
0
210
0
220
0
230
1
0
LINE
5
79
100
AcDbEntity
8
1
62
256
6
ByLayer
370
18
48
1
60
0
100
AcDbLine
10
28.197441
20
4.848613
30
0
11
26.791106
21
4.847734
31
0
39
0
210
0
220
0
230
1
0
LINE
5
7A
100
AcDbEntity
8
1
62
256
6
ByLayer
370
18
48
1
60
0
100
AcDbLine
10
55.397512
20
4.865613
30
0
11
53.993206
21
4.864735
31
0
39
0
210
0
220
0
230
1
0
LINE
5
7B
100
AcDbEntity
8
1
62
256
6
ByLayer
370
18
48
1
60
0
100
AcDbLine
10
82.597396
20
4.882613
30
0
11
81.198352
21
4.881738
31
0
39
0
210
0
220
0
230
1
0
LINE
5
7C
100
AcDbEntity
8
1
62
256
6
ByLayer
370
18
48
1
60
0
100
AcDbLine
10
109.798058
20
4.899613
30
0
11
108.40575
21
4.898743
31
0
39
0
210
0
220
0
230
1
0
LINE
5
7D
100
AcDbEntity
8
1
62
256
6
ByLayer
370
18
48
1
60
0
100
AcDbLine
10
108.40575
20
-4.898743
30
0
11
109.798133
21
-4.899613
31
0
39
0
210
0
220
0
230
1
0
LINE
5
7E
100
AcDbEntity
8
1
62
256
6
ByLayer
370
18
48
1
60
0
100
AcDbLine
10
81.198352
20
-4.881738
30
0
11
82.597984
21
-4.882613
31
0
39
0
210
0
220
0
230
1
0
LINE
5
7F
100
AcDbEntity
8
1
62
256
6
ByLayer
370
18
48
1
60
0
100
AcDbLine
10
53.993206
20
-4.864735
30
0
11
55.397869
21
-4.865613
31
0
39
0
210
0
220
0
230
1
0
LINE
5
80
100
AcDbEntity
8
1
62
256
6
ByLayer
370
18
48
1
60
0
100
AcDbLine
10
26.791106
20
-4.847734
30
0
11
28.197955
21
-4.848613
31
0
39
0
210
0
220
0
230
1
0
LINE
5
81
100
AcDbEntity
8
1
62
256
6
ByLayer
370
18
48
1
60
0
100
AcDbLine
10
0.066709
20
-4.831031
30
0
11
6.417232
21
-4.835
31
0
39
0
210
0
220
0
230
1
0
LINE
5
82
100
AcDbEntity
8
SK1
62
256
6
ByLayer
370
18
48
1
60
0
100
AcDbLine
10
-38.845299
20
5
30
0
11
-40
21
3
31
0
39
0
210
0
220
0
230
1
0
LINE
5
84
100
AcDbEntity
8
SK1
62
256
6
ByLayer
370
18
48
1
60
0
100
AcDbLine
10
-40
20
-3
30
0
11
-38.845299
21
-5
31
0
39
0
210
0
220
0
230
1
0
LINE
5
85
100
AcDbEntity
8
SK1
62
256
6
ByLayer
370
18
48
1
60
0
100
AcDbLine
10
0
20
5
30
0
11
-38.845299
21
5
31
0
39
0
210
0
220
0
230
1
0
LINE
5
86
100
AcDbEntity
8
SK1
62
256
6
ByLayer
370
18
48
1
60
0
100
AcDbLine
10
-38.845299
20
-5
30
0
11
0
21
-5
31
0
39
0
210
0
220
0
230
1
0
LINE
5
87
100
AcDbEntity
8
SK4
62
256
6
ByLayer
370
18
48
0.05
60
0
100
AcDbLine
10
117
20
0
30
0
11
-45
21
0
31
0
39
0
210
0
220
0
230
1
0
LINE
5
89
100
AcDbEntity
8
4
62
256
6
ByLayer
370
18
48
0.05
60
0
100
AcDbLine
10
112
20
0
30
0
11
0
21
0
31
0
39
0
210
0
220
0
230
1
0
LINE
5
8B
100
AcDbEntity
8
80
62
256
6
ByLayer
370
18
48
1
60
0
100
AcDbLine
10
0
20
0
30
0
11
-5
21
0
31
0
39
0
210
0
220
0
230
1
0
LINE
5
8C
100
AcDbEntity
8
1
62
256
6
ByLayer
370
13
48
1
60
0
100
AcDbLine
10
0.066709
20
4.831031
30
0
11
0.066709
21
-4.831031
31
0
39
0
210
0
220
0
230
1
0
LINE
5
8D
100
AcDbEntity
8
1
62
256
6
ByLayer
370
18
48
1
60
0
100
AcDbLine
10
111.115018
20
-1.264707
30
0
11
111.842541
21
-0.277245
31
0
39
0
210
0
220
0
230
1
0
LINE
5
8E
100
AcDbEntity
8
1
62
256
6
ByLayer
370
18
48
1
60
0
100
AcDbLine
10
109.51385
20
-3.437959
30
0
11
110.560453
21
-2.017413
31
0
39
0
210
0
220
0
230
1
0
LINE
5
8F
100
AcDbEntity
8
1
62
256
6
ByLayer
370
13
48
1
60
0
100
AcDbLine
10
110.150083
20
1.112322
30
0
11
111.969613
21
-0.039484
31
0
39
0
210
0
220
0
230
1
0
LINE
5
90
100
AcDbEntity
8
1
62
256
6
ByLayer
370
13
48
1
60
0
100
AcDbLine
10
110.256689
20
1.22665
30
0
11
111.977952
21
0.13705
31
0
39
0
210
0
220
0
230
1
0
LINE
5
91
100
AcDbEntity
8
SK1
62
256
6
ByLayer
370
18
48
1
60
0
100
AcDbLine
10
-40
20
3
30
0
11
-40
21
2.609631
31
0
39
0
210
0
220
0
230
1
0
LINE
5
92
100
AcDbEntity
8
SK1
62
256
6
ByLayer
370
18
48
1
60
0
100
AcDbLine
10
-40
20
0.582482
30
0
11
-40
21
-3
31
0
39
0
210
0
220
0
230
1
0
LINE
5
93
100
AcDbEntity
8
SK1
62
256
6
ByLayer
370
18
48
1
60
0
100
AcDbLine
10
-40
20
2.609631
30
0
11
-40
21
0.582489
31
0
39
0
210
0
220
0
230
1
0
LINE
5
94
100
AcDbEntity
8
SK1
62
256
6
ByLayer
370
13
48
1
60
0
100
AcDbLine
10
-38.95
20
3.73711
30
0
11
-38.95
21
1.709948
31
0
39
0
210
0
220
0
230
1
0
LINE
5
95
100
AcDbEntity
8
SK1
62
256
6
ByLayer
370
18
48
1
60
0
100
AcDbLine
10
-38.85
20
1.910371
30
0
11
-38.85
21
3.775348
31
0
39
0
210
0
220
0
230
1
0
LINE
5
96
100
AcDbEntity
8
SK1
62
256
6
ByLayer
370
18
48
1
60
0
100
AcDbLine
10
-38.845299
20
5
30
0
11
-38.845299
21
-5
31
0
39
0
210
0
220
0
230
1
0
LINE
5
97
100
AcDbEntity
8
SK1
62
256
6
ByLayer
370
18
48
1
60
0
100
AcDbLine
10
0
20
5
30
0
11
0
21
-5
31
0
39
0
210
0
220
0
230
1
0
MTEXT
5
EA
100
AcDbEntity
8
SK6
62
256
6
ByLayer
370
13
48
1
60
0
100
AcDbMText
10
38.129169
20
37.282694
30
0
210
0
220
0
230
1
1
\W0.7585;460.1-0980-074A1-XM GC34
40
3.5
41
0
44
1.084337
50
0
71
8
72
5
7
iso_b_vert
0
DIMENSION
5
F7
100
AcDbEntity
8
SK2
62
256
6
ByLayer
370
13
48
1
60
0
100
AcDbDimension
2
DimnDraft3D1
10
110.5461
20
-15.113398
30
0
11
53.796159
21
-15.113398
31
0
70
32
71
5
72
1
41
1
210
0
220
0
230
1
3
Standard
100
AcDbAlignedDimension
13
0
23
-1.5875
33
0
14
110.5461
24
-6.4875
34
0
50
0
100
AcDbRotatedDimension
1001
ACAD
1000
DSTYLE
1002
{
1070
   279
1070
     0
1070
   172
1070
     1
1070
   173
1070
     1
1070
   340
1005
EB
1070
   271
1070
     2
1070
   272
1070
     2
1070
    77
1070
     1
1070
    73
1070
     0
1070
   171
1070
     3
1070
   274
1070
     4
1070
   177
1070
    35
1070
   176
1070
    35
1070
   178
1070
    35
1070
    48
1040
-0.005
1070
    41
1041
3.5
1070
   147
1041
1.75
1070
    42
1041
1.5875
1070
    44
1041
2.0
1070
   140
1041
3.5
1070
   343
1005
0
1070
   344
1005
0
1002
}
0
DIMENSION
5
101
100
AcDbEntity
8
SK2
62
256
6
ByLayer
370
13
48
1
60
0
100
AcDbDimension
2
DimnDraft3D2
10
112
20
-33.692985
30
0
11
35.8874
21
-33.692985
31
0
70
32
71
5
72
1
41
1
210
0
220
0
230
1
3
Standard
100
AcDbAlignedDimension
13
-40
23
-6.5875
33
0
14
112
24
-1.5875
34
0
50
0
100
AcDbRotatedDimension
1001
ACAD
1000
DSTYLE
1002
{
1070
   279
1070
     0
1070
   172
1070
     1
1070
   173
1070
     1
1070
   340
1005
EB
1070
   271
1070
     2
1070
   272
1070
     2
1070
    77
1070
     1
1070
    73
1070
     0
1070
   171
1070
     3
1070
   274
1070
     4
1070
   177
1070
    35
1070
   176
1070
    35
1070
   178
1070
    35
1070
    48
1040
-0.005
1070
    41
1041
3.5
1070
   147
1041
1.75
1070
    42
1041
1.5875
1070
    44
1041
2.0
1070
   140
1041
3.5
1070
   343
1005
0
1070
   344
1005
0
1002
}
0
DIMENSION
5
10B
100
AcDbEntity
8
SK2
62
256
6
ByLayer
370
13
48
1
60
0
100
AcDbDimension
2
DimnDraft3D3
10
112
20
16.509119
30
0
11
72.075
21
16.509119
31
0
70
32
71
5
72
1
41
1
210
0
220
0
230
1
3
Standard
100
AcDbAlignedDimension
13
32.15
23
6.4875
33
0
14
112
24
1.5875
34
0
50
0
100
AcDbRotatedDimension
1001
ACAD
1000
DSTYLE
1002
{
1070
   279
1070
     0
1070
   172
1070
     1
1070
   173
1070
     1
1070
   340
1005
EB
1070
   271
1070
     2
1070
   272
1070
     2
1070
    77
1070
     1
1070
    73
1070
     0
1070
   171
1070
     3
1070
   274
1070
     4
1070
   177
1070
    35
1070
   176
1070
    35
1070
   178
1070
    35
1070
    48
1040
-0.005
1070
    41
1041
3.5
1070
   147
1041
1.75
1070
    42
1041
1.5875
1070
    44
1041
2.0
1070
   140
1041
3.5
1070
   343
1005
0
1070
   344
1005
0
1002
}
0
DIMENSION
5
115
100
AcDbEntity
8
SK2
62
256
6
ByLayer
370
13
48
1
60
0
100
AcDbDimension
2
DimnDraft3D4
10
110.5461
20
-17.702503
30
0
11
121.981425
21
-17.702503
31
0
70
32
71
5
72
1
41
1
210
0
220
0
230
1
3
Standard
100
AcDbAlignedDimension
13
112
23
-1.5875
33
0
14
110.5461
24
-6.4875
34
0
50
0
100
AcDbRotatedDimension
1001
ACAD
1000
DSTYLE
1002
{
1070
   279
1070
     0
1070
   172
1070
     1
1070
   173
1070
     1
1070
   340
1005
EB
1070
   271
1070
     2
1070
   272
1070
     2
1070
    77
1070
     1
1070
    73
1070
     0
1070
   171
1070
     3
1070
   274
1070
     4
1070
   177
1070
    35
1070
   176
1070
    35
1070
   178
1070
    35
1070
    48
1040
-0.005
1070
    41
1041
3.5
1070
   147
1041
1.75
1070
    42
1041
1.5875
1070
    44
1041
2.0
1070
   140
1041
3.5
1070
   343
1005
0
1070
   344
1005
0
1002
}
0
DIMENSION
5
11F
100
AcDbEntity
8
SK2
62
256
6
ByLayer
370
13
48
1
60
0
100
AcDbDimension
2
DimnDraft3D5
10
110.5461
20
-23.343428
30
0
11
32.806776
21
-23.343428
31
0
70
32
71
5
72
1
41
1
210
0
220
0
230
1
3
Standard
100
AcDbAlignedDimension
13
-40
23
-6.5875
33
0
14
110.5461
24
-6.4875
34
0
50
0
100
AcDbRotatedDimension
1001
ACAD
1000
DSTYLE
1002
{
1070
   279
1070
     0
1070
   172
1070
     1
1070
   173
1070
     1
1070
   340
1005
EB
1070
   271
1070
     2
1070
   272
1070
     2
1070
    77
1070
     1
1070
    73
1070
     0
1070
   171
1070
     3
1070
   274
1070
     4
1070
   177
1070
    35
1070
   176
1070
    35
1070
   178
1070
    35
1070
    48
1040
-0.005
1070
    41
1041
3.5
1070
   147
1041
1.75
1070
    42
1041
1.5875
1070
    44
1041
2.0
1070
   140
1041
3.5
1070
   343
1005
0
1070
   344
1005
0
1002
}
0
DIMENSION
5
12A
100
AcDbEntity
8
SK2
62
256
6
ByLayer
370
13
48
1
60
0
100
AcDbDimension
2
DimnDraft3D6
10
-50.625163
20
5
30
0
11
-51.250163
21
23.47418
31
0
70
33
71
5
72
1
41
1
210
0
220
0
230
1
3
Standard
100
AcDbAlignedDimension
13
-41.5875
23
-5
33
0
14
-41.5875
24
5
34
0
1001
ACAD
1000
DSTYLE
1002
{
1070
   279
1070
     0
1070
    74
1070
     0
1070
   173
1070
     1
1070
   340
1005
EB
1070
   271
1070
     3
1070
   272
1070
     2
1070
    77
1070
     1
1070
    73
1070
     0
1070
   171
1070
     3
1070
   274
1070
     4
1070
   177
1070
    35
1070
   176
1070
    35
1070
   178
1070
    35
1070
    48
1040
-0.005
1070
    41
1041
3.5
1070
   147
1041
1.75
1070
    42
1041
1.5875
1070
    44
1041
2.0
1070
   140
1041
3.5
1070
   343
1005
0
1070
   344
1005
0
1002
}
0
DIMENSION
5
135
100
AcDbEntity
8
2
62
256
6
ByLayer
370
13
48
1
60
0
100
AcDbDimension
2
DimnDraft3D7
10
126.083343
20
4.9
30
0
11
121.458343
21
21.967266
31
0
70
33
71
5
72
1
41
1
210
0
220
0
230
1
3
Standard
100
AcDbAlignedDimension
13
112.1336
23
-4.9
33
0
14
112.1336
24
4.9
34
0
1001
ACAD
1000
DSTYLE
1002
{
1070
   279
1070
     0
1070
    74
1070
     0
1070
   173
1070
     1
1070
   340
1005
EB
1070
   271
1070
     3
1070
   272
1070
     2
1070
    77
1070
     1
1070
    73
1070
     0
1070
   171
1070
     3
1070
   274
1070
     4
1070
   177
1070
    35
1070
   176
1070
    35
1070
   178
1070
    35
1070
    48
1040
-0.005
1070
    41
1041
3.5
1070
   147
1041
1.75
1070
    42
1041
1.5875
1070
    44
1041
2.0
1070
   140
1041
3.5
1070
   343
1005
0
1070
   344
1005
0
1002
}
0
ENDSEC
0
SECTION
2
OBJECTS
0
DICTIONARY
5
1a0
330
0
100
AcDbDictionary
280
0
281
1
3
ACAD_GROUP
350
1a1
3
ACAD_MLINESTYLE
350
1a2
0
DICTIONARY
5
1a1
330
0
100
AcDbDictionary
280
0
281
1
0
DICTIONARY
5
1a2
330
0
100
AcDbDictionary
280
0
281
1
3
Standard
350
18
0
MLINESTYLE
5
18
330
1a2
100
AcDbMlineStyle
2
Standard
70
0
3

62
256
51
90
52
90
71
2
49
-0.5
62
256
6
ByLayer
49
0.5
62
256
6
ByLayer
0
RASTERVARIABLES
5
18e
330

100
AcDbRasterVariables
90
0
70
1
71
1
72
1
0
ENDSEC
0
EOF
