0
SECTION
2
HEADER
9
$ACADVER
1
AC1015
9
$DWGCODEPAGE
3
ANSI_1252
9
$HANDSEED
5
19e
9
$ANGBASE
50
0
9
$ANGDIR
70
0
9
$ATTMODE
70
1
9
$AUNITS
70
0
9
$AUPREC
70
0
9
$CECOLOR
62
256
9
$CELTSCALE
40
1
9
$CELTYPE
6
ByLayer
9
$CELWEIGHT
370
18
9
$CLAYER
8
0
9
$CMLJUST
70
0
9
$CMLSCALE
40
1
9
$CMLSTYLE
2
Standard
9
$DIMSTYLE
2
Standard
9
$TEXTSIZE
40
0.2
9
$TEXTSTYLE
7
Standard
9
$LUNITS
70
2
9
$LUPREC
70
4
9
$EXTNAMES
290
1
9
$INSUNITS
70
4
9
$LTSCALE
40
1
9
$LWDISPLAY
290
1
9
$PDMODE
70
0
9
$PDSIZE
40
0
9
$PLINEGEN
70
0
0
ENDSEC
0
SECTION
2
CLASSES
0
CLASS
1
RASTERVARIABLES
2
AcDbRasterVariables
3
ISM
90
0
280
0
281
0
0
ENDSEC
0
SECTION
2
TABLES
0
TABLE
2
VPORT
5
194
100
AcDbSymbolTable
0
VPORT
5
1
100
AcDbSymbolTableRecord
100
AcDbViewportTableRecord
2
*Active
70
0
10
0
20
0
11
1
21
1
12
-1
22
1
13
0
23
0
14
0.5
24
0.5
15
10
25
10
16
0
26
0
36
1
17
0
27
0
37
0
0
ENDTAB
0
TABLE
2
LTYPE
5
195
100
AcDbSymbolTable
0
LTYPE
5
14
100
AcDbSymbolTableRecord
100
AcDbLinetypeTableRecord
70
0
2
ByBlock
3

72
65
73
0
40
0
0
LTYPE
5
15
100
AcDbSymbolTableRecord
100
AcDbLinetypeTableRecord
70
0
2
ByLayer
3

72
65
73
0
40
0
0
LTYPE
5
16
100
AcDbSymbolTableRecord
100
AcDbLinetypeTableRecord
70
0
2
CONTINUOUS
3
Solid line
72
65
73
0
40
0
0
LTYPE
5
6A
100
AcDbSymbolTableRecord
100
AcDbLinetypeTableRecord
70
0
2
CENTER
3
____ _ ____ _ ____ _ ____
72
65
73
4
40
47.5
49
22
74
0
49
-8.5
74
0
49
8.5
74
0
49
-8.5
74
0
0
LTYPE
5
6B
100
AcDbSymbolTableRecord
100
AcDbLinetypeTableRecord
70
0
2
DASHED
3
__ __ __ __ __ __ __ __ __
72
65
73
2
40
25.72
49
12.86
74
0
49
-12.86
74
0
0
ENDTAB
0
TABLE
2
LAYER
5
196
100
AcDbSymbolTable
0
LAYER
5
10
100
AcDbSymbolTableRecord
100
AcDbLayerTableRecord
2
0
70
0
62
7
6
CONTINUOUS
290
1
370
-3
390
0
0
LAYER
5
6D
100
AcDbSymbolTableRecord
100
AcDbLayerTableRecord
2
81
70
0
62
-3
6
CONTINUOUS
290
1
370
-3
390
0
0
LAYER
5
6F
100
AcDbSymbolTableRecord
100
AcDbLayerTableRecord
2
80
70
0
62
-6
6
CONTINUOUS
290
1
370
-3
390
0
0
LAYER
5
74
100
AcDbSymbolTableRecord
100
AcDbLayerTableRecord
2
2
70
0
62
7
6
CONTINUOUS
290
1
370
-3
390
0
0
LAYER
5
78
100
AcDbSymbolTableRecord
100
AcDbLayerTableRecord
2
1
70
0
62
4
6
CONTINUOUS
290
1
370
-3
390
0
0
LAYER
5
86
100
AcDbSymbolTableRecord
100
AcDbLayerTableRecord
2
4
70
0
62
-2
6
CENTER
290
1
370
-3
390
0
0
LAYER
5
180
100
AcDbSymbolTableRecord
100
AcDbLayerTableRecord
2
SK2
70
0
62
7
6
CONTINUOUS
290
1
370
-3
390
0
0
LAYER
5
181
100
AcDbSymbolTableRecord
100
AcDbLayerTableRecord
2
SK1
70
0
62
4
6
CONTINUOUS
290
1
370
-3
390
0
0
LAYER
5
182
100
AcDbSymbolTableRecord
100
AcDbLayerTableRecord
2
SK4
70
0
62
2
6
CENTER
290
1
370
-3
390
0
0
LAYER
5
183
100
AcDbSymbolTableRecord
100
AcDbLayerTableRecord
2
SK6
70
0
62
5
6
CONTINUOUS
290
1
370
-3
390
0
0
ENDTAB
0
TABLE
2
STYLE
5
197
100
AcDbSymbolTable
0
STYLE
5
11
100
AcDbSymbolTableRecord
100
AcDbTextStyleTableRecord
2
Standard
3
txt
70
0
71
0
40
0
41
1
42
0
50
0
0
STYLE
5
DC
100
AcDbSymbolTableRecord
100
AcDbTextStyleTableRecord
2
iso_b_vert
3
simplex.shx
70
0
71
0
40
0
41
1
42
0
50
0
0
STYLE
5
DD
100
AcDbSymbolTableRecord
100
AcDbTextStyleTableRecord
2
DWGDirectTextStyle
3
simplex
70
0
71
0
40
0
41
1
42
0
50
0
0
ENDTAB
0
TABLE
2
DIMSTYLE
5
198
100
AcDbSymbolTable
100
AcDbDimStyleTable
0
DIMSTYLE
105
27
100
AcDbSymbolTableRecord
100
AcDbDimStyleTableRecord
2
Standard
70
0
3
<>
41
0.18
42
0.0625
44
0.18
140
0.18
147
0.09
73
0
74
0
77
1
271
2
275
0
278
52
280
0
340
11
0
ENDTAB
0
TABLE
2
VIEW
5
199
100
AcDbSymbolTable
0
ENDTAB
0
TABLE
2
UCS
5
19a
100
AcDbSymbolTable
0
ENDTAB
0
TABLE
2
APPID
5
19b
100
AcDbSymbolTable
0
APPID
5
12
100
AcDbSymbolTableRecord
100
AcDbRegAppTableRecord
2
ACAD
70
0
0
ENDTAB
0
TABLE
2
BLOCK_RECORD
5
19c
100
AcDbSymbolTable
0
BLOCK_RECORD
5
1F
100
AcDbSymbolTableRecord
100
AcDbBlockTableRecord
2
*Model_Space
340
0
70
0
0
BLOCK_RECORD
5
1B
100
AcDbSymbolTableRecord
100
AcDbBlockTableRecord
2
*Paper_Space
340
0
70
0
0
BLOCK_RECORD
5
23
100
AcDbSymbolTableRecord
100
AcDbBlockTableRecord
2
*Paper_Space0
340
0
70
0
0
BLOCK_RECORD
5
DF
100
AcDbSymbolTableRecord
100
AcDbBlockTableRecord
2
DimnDraft3D1
340
0
70
0
0
BLOCK_RECORD
5
E9
100
AcDbSymbolTableRecord
100
AcDbBlockTableRecord
2
DimnDraft3D2
340
0
70
0
0
BLOCK_RECORD
5
F3
100
AcDbSymbolTableRecord
100
AcDbBlockTableRecord
2
DimnDraft3D3
340
0
70
0
0
BLOCK_RECORD
5
FD
100
AcDbSymbolTableRecord
100
AcDbBlockTableRecord
2
DimnDraft3D4
340
0
70
0
0
BLOCK_RECORD
5
107
100
AcDbSymbolTableRecord
100
AcDbBlockTableRecord
2
DimnDraft3D5
340
0
70
0
0
BLOCK_RECORD
5
111
100
AcDbSymbolTableRecord
100
AcDbBlockTableRecord
2
DimnDraft3D6
340
0
70
0
0
BLOCK_RECORD
5
11C
100
AcDbSymbolTableRecord
100
AcDbBlockTableRecord
2
DimnDraft3D7
340
0
70
0
0
ENDTAB
0
ENDSEC
0
SECTION
2
BLOCKS
0
BLOCK
5
20
100
AcDbEntity
8
0
100
AcDbBlockBegin
2
*Model_Space
70
0
10
0
20
0
30
0
3
*Model_Space
0
ENDBLK
5
21
100
AcDbEntity
8
0
100
AcDbBlockEnd
0
BLOCK
5
1C
100
AcDbEntity
8
0
100
AcDbBlockBegin
2
*Paper_Space
70
0
10
0
20
0
30
0
3
*Paper_Space
0
ENDBLK
5
1D
100
AcDbEntity
8
0
100
AcDbBlockEnd
0
BLOCK
5
24
100
AcDbEntity
8
0
100
AcDbBlockBegin
2
*Paper_Space0
70
0
10
0
20
0
30
0
3
*Paper_Space0
0
ENDBLK
5
25
100
AcDbEntity
8
0
100
AcDbBlockEnd
0
BLOCK
5
E6
100
AcDbEntity
8
0
100
AcDbBlockBegin
2
DimnDraft3D1
70
0
10
0
20
0
30
0
3
DimnDraft3D1
0
MTEXT
5
E0
100
AcDbEntity
8
SK2
62
256
6
ByLayer
370
13
48
1
60
0
100
AcDbMText
10
25.300075
20
-14.188398
30
0
210
0
220
0
230
1
1
\W0.6713;61,56
40
3.5
41
0
44
1.084337
50
0
71
7
72
5
7
iso_b_vert
0
LINE
5
E1
100
AcDbEntity
8
SK2
62
256
6
ByLayer
370
13
48
1
60
0
100
AcDbLine
10
0
20
-1.5875
30
0
11
0
21
-17.063398
31
0
39
0
210
0
220
0
230
1
0
LINE
5
E2
100
AcDbEntity
8
SK2
62
256
6
ByLayer
370
13
48
1
60
0
100
AcDbLine
10
61.5612
20
-6.4375
30
0
11
61.5612
21
-17.063398
31
0
39
0
210
0
220
0
230
1
0
LINE
5
E3
100
AcDbEntity
8
SK2
62
256
6
ByLayer
370
13
48
1
60
0
100
AcDbLine
10
0
20
-15.063398
30
0
11
61.5612
21
-15.063398
31
0
39
0
210
0
220
0
230
1
0
SOLID
5
E4
100
AcDbEntity
8
SK2
62
256
6
ByLayer
370
13
48
1
60
0
100
AcDbTrace
10
0
20
-15.063398
30
0
11
3.499998
21
-14.602615
31
0
12
3.500002
22
-15.524182
32
0
13
0
23
-15.063398
33
0
39
0
210
0
220
0
230
1
0
SOLID
5
E5
100
AcDbEntity
8
SK2
62
256
6
ByLayer
370
13
48
1
60
0
100
AcDbTrace
10
61.5612
20
-15.063398
30
0
11
58.061202
21
-15.524182
31
0
12
58.061198
22
-14.602615
32
0
13
61.5612
23
-15.063398
33
0
39
0
210
0
220
0
230
1
0
ENDBLK
5
E7
100
AcDbEntity
8
0
100
AcDbBlockEnd
0
BLOCK
5
F0
100
AcDbEntity
8
0
100
AcDbBlockBegin
2
DimnDraft3D2
70
0
10
0
20
0
30
0
3
DimnDraft3D2
0
MTEXT
5
EA
100
AcDbEntity
8
SK2
62
256
6
ByLayer
370
13
48
1
60
0
100
AcDbMText
10
6.083421
20
-32.817985
30
0
210
0
220
0
230
1
1
\W0.6930;103,00
40
3.5
41
0
44
1.084337
50
0
71
7
72
5
7
iso_b_vert
0
LINE
5
EB
100
AcDbEntity
8
SK2
62
256
6
ByLayer
370
13
48
1
60
0
100
AcDbLine
10
-40
20
-6.5875
30
0
11
-40
21
-35.692985
31
0
39
0
210
0
220
0
230
1
0
LINE
5
EC
100
AcDbEntity
8
SK2
62
256
6
ByLayer
370
13
48
1
60
0
100
AcDbLine
10
63
20
-1.5875
30
0
11
63
21
-35.692985
31
0
39
0
210
0
220
0
230
1
0
LINE
5
ED
100
AcDbEntity
8
SK2
62
256
6
ByLayer
370
13
48
1
60
0
100
AcDbLine
10
-40
20
-33.692985
30
0
11
63
21
-33.692985
31
0
39
0
210
0
220
0
230
1
0
SOLID
5
EE
100
AcDbEntity
8
SK2
62
256
6
ByLayer
370
13
48
1
60
0
100
AcDbTrace
10
-40
20
-33.692985
30
0
11
-36.500002
21
-33.232202
31
0
12
-36.499998
22
-34.153769
32
0
13
-40
23
-33.692985
33
0
39
0
210
0
220
0
230
1
0
SOLID
5
EF
100
AcDbEntity
8
SK2
62
256
6
ByLayer
370
13
48
1
60
0
100
AcDbTrace
10
63
20
-33.692985
30
0
11
59.500002
21
-34.153769
31
0
12
59.499998
22
-33.232202
32
0
13
63
23
-33.692985
33
0
39
0
210
0
220
0
230
1
0
ENDBLK
5
F1
100
AcDbEntity
8
0
100
AcDbBlockEnd
0
BLOCK
5
FA
100
AcDbEntity
8
0
100
AcDbBlockBegin
2
DimnDraft3D3
70
0
10
0
20
0
30
0
3
DimnDraft3D3
0
MTEXT
5
F4
100
AcDbEntity
8
SK2
62
256
6
ByLayer
370
13
48
1
60
0
100
AcDbMText
10
34.172105
20
17.334119
30
0
210
0
220
0
230
1
1
\W0.7669;48,39
40
3.5
41
0
44
1.084337
50
0
71
7
72
5
7
iso_b_vert
0
LINE
5
F5
100
AcDbEntity
8
SK2
62
256
6
ByLayer
370
13
48
1
60
0
100
AcDbLine
10
14.61
20
6.4375
30
0
11
14.61
21
18.459119
31
0
39
0
210
0
220
0
230
1
0
LINE
5
F6
100
AcDbEntity
8
SK2
62
256
6
ByLayer
370
13
48
1
60
0
100
AcDbLine
10
63
20
1.5875
30
0
11
63
21
18.459119
31
0
39
0
210
0
220
0
230
1
0
LINE
5
F7
100
AcDbEntity
8
SK2
62
256
6
ByLayer
370
13
48
1
60
0
100
AcDbLine
10
14.61
20
16.459119
30
0
11
63
21
16.459119
31
0
39
0
210
0
220
0
230
1
0
SOLID
5
F8
100
AcDbEntity
8
SK2
62
256
6
ByLayer
370
13
48
1
60
0
100
AcDbTrace
10
14.61
20
16.459119
30
0
11
18.109998
21
16.919903
31
0
12
18.110002
22
15.998335
32
0
13
14.61
23
16.459119
33
0
39
0
210
0
220
0
230
1
0
SOLID
5
F9
100
AcDbEntity
8
SK2
62
256
6
ByLayer
370
13
48
1
60
0
100
AcDbTrace
10
63
20
16.459119
30
0
11
59.500002
21
15.998335
31
0
12
59.499998
22
16.919903
32
0
13
63
23
16.459119
33
0
39
0
210
0
220
0
230
1
0
ENDBLK
5
FB
100
AcDbEntity
8
0
100
AcDbBlockEnd
0
BLOCK
5
104
100
AcDbEntity
8
0
100
AcDbBlockBegin
2
DimnDraft3D4
70
0
10
0
20
0
30
0
3
DimnDraft3D4
0
MTEXT
5
FE
100
AcDbEntity
8
SK2
62
256
6
ByLayer
370
13
48
1
60
0
100
AcDbMText
10
69.909715
20
-16.777503
30
0
210
0
220
0
230
1
1
\W0.6949;1,44
40
3.5
41
0
44
1.084337
50
0
71
7
72
5
7
iso_b_vert
0
LINE
5
FF
100
AcDbEntity
8
SK2
62
256
6
ByLayer
370
13
48
1
60
0
100
AcDbLine
10
63
20
-1.5875
30
0
11
63
21
-19.652503
31
0
39
0
210
0
220
0
230
1
0
LINE
5
100
100
AcDbEntity
8
SK2
62
256
6
ByLayer
370
13
48
1
60
0
100
AcDbLine
10
61.5612
20
-6.4375
30
0
11
61.5612
21
-19.652503
31
0
39
0
210
0
220
0
230
1
0
LINE
5
101
100
AcDbEntity
8
SK2
62
256
6
ByLayer
370
13
48
1
60
0
100
AcDbLine
10
52.8112
20
-17.652503
30
0
11
76.928136
21
-17.652503
31
0
39
0
210
0
220
0
230
1
0
SOLID
5
102
100
AcDbEntity
8
SK2
62
256
6
ByLayer
370
13
48
1
60
0
100
AcDbTrace
10
63
20
-17.652503
30
0
11
66.499998
21
-17.191719
31
0
12
66.500002
22
-18.113287
32
0
13
63
23
-17.652503
33
0
39
0
210
0
220
0
230
1
0
SOLID
5
103
100
AcDbEntity
8
SK2
62
256
6
ByLayer
370
13
48
1
60
0
100
AcDbTrace
10
61.5612
20
-17.652503
30
0
11
58.061202
21
-18.113287
31
0
12
58.061198
22
-17.191719
32
0
13
61.5612
23
-17.652503
33
0
39
0
210
0
220
0
230
1
0
ENDBLK
5
105
100
AcDbEntity
8
0
100
AcDbBlockEnd
0
BLOCK
5
10E
100
AcDbEntity
8
0
100
AcDbBlockBegin
2
DimnDraft3D5
70
0
10
0
20
0
30
0
3
DimnDraft3D5
0
MTEXT
5
108
100
AcDbEntity
8
SK2
62
256
6
ByLayer
370
13
48
1
60
0
100
AcDbMText
10
3.440297
20
-22.468428
30
0
210
0
220
0
230
1
1
\W0.6440;101,56
40
3.5
41
0
44
1.084337
50
0
71
7
72
5
7
iso_b_vert
0
LINE
5
109
100
AcDbEntity
8
SK2
62
256
6
ByLayer
370
13
48
1
60
0
100
AcDbLine
10
-40
20
-6.5875
30
0
11
-40
21
-25.343428
31
0
39
0
210
0
220
0
230
1
0
LINE
5
10A
100
AcDbEntity
8
SK2
62
256
6
ByLayer
370
13
48
1
60
0
100
AcDbLine
10
61.5612
20
-6.4375
30
0
11
61.5612
21
-25.343428
31
0
39
0
210
0
220
0
230
1
0
LINE
5
10B
100
AcDbEntity
8
SK2
62
256
6
ByLayer
370
13
48
1
60
0
100
AcDbLine
10
-40
20
-23.343428
30
0
11
61.5612
21
-23.343428
31
0
39
0
210
0
220
0
230
1
0
SOLID
5
10C
100
AcDbEntity
8
SK2
62
256
6
ByLayer
370
13
48
1
60
0
100
AcDbTrace
10
-40
20
-23.343428
30
0
11
-36.500002
21
-22.882645
31
0
12
-36.499998
22
-23.804212
32
0
13
-40
23
-23.343428
33
0
39
0
210
0
220
0
230
1
0
SOLID
5
10D
100
AcDbEntity
8
SK2
62
256
6
ByLayer
370
13
48
1
60
0
100
AcDbTrace
10
61.5612
20
-23.343428
30
0
11
58.061202
21
-23.804212
31
0
12
58.061198
22
-22.882645
32
0
13
61.5612
23
-23.343428
33
0
39
0
210
0
220
0
230
1
0
ENDBLK
5
10F
100
AcDbEntity
8
0
100
AcDbBlockEnd
0
BLOCK
5
119
100
AcDbEntity
8
0
100
AcDbBlockBegin
2
DimnDraft3D6
70
0
10
0
20
0
30
0
3
DimnDraft3D6
0
MTEXT
5
112
100
AcDbEntity
8
SK2
62
256
6
ByLayer
370
13
48
1
60
0
100
AcDbMText
10
-50.375163
20
24.34918
30
0
210
0
220
0
230
1
1
\W0.6930;10,000
40
3.5
41
0
44
1.084337
50
90
71
7
72
5
7
iso_b_vert
0
MTEXT
5
113
100
AcDbEntity
8
SK2
62
256
6
ByLayer
370
13
48
1
60
0
100
AcDbMText
10
-50.375163
20
19.126524
30
0
210
0
220
0
230
1
1
%%c
40
3.5
41
0
44
1.084337
50
90
71
7
72
5
7
iso_b_vert
0
LINE
5
114
100
AcDbEntity
8
SK2
62
256
6
ByLayer
370
13
48
1
60
0
100
AcDbLine
10
-41.5875
20
-5
30
0
11
-50.625163
21
-5
31
0
39
0
210
0
220
0
230
1
0
LINE
5
115
100
AcDbEntity
8
SK2
62
256
6
ByLayer
370
13
48
1
60
0
100
AcDbLine
10
-41.5875
20
5
30
0
11
-50.625163
21
5
31
0
39
0
210
0
220
0
230
1
0
LINE
5
116
100
AcDbEntity
8
SK2
62
256
6
ByLayer
370
13
48
1
60
0
100
AcDbLine
10
-48.625163
20
-5
30
0
11
-48.625163
21
35.862338
31
0
39
0
210
0
220
0
230
1
0
SOLID
5
117
100
AcDbEntity
8
SK2
62
256
6
ByLayer
370
13
48
1
60
0
100
AcDbTrace
10
-48.625163
20
-5
30
0
11
-49.085946
21
-1.500002
31
0
12
-48.164379
22
-1.499998
32
0
13
-48.625163
23
-5
33
0
39
0
210
0
220
0
230
1
0
SOLID
5
118
100
AcDbEntity
8
SK2
62
256
6
ByLayer
370
13
48
1
60
0
100
AcDbTrace
10
-48.625163
20
5
30
0
11
-48.164379
21
1.500002
31
0
12
-49.085946
22
1.499998
32
0
13
-48.625163
23
5
33
0
39
0
210
0
220
0
230
1
0
ENDBLK
5
11A
100
AcDbEntity
8
0
100
AcDbBlockEnd
0
BLOCK
5
124
100
AcDbEntity
8
0
100
AcDbBlockBegin
2
DimnDraft3D7
70
0
10
0
20
0
30
0
3
DimnDraft3D7
0
MTEXT
5
11D
100
AcDbEntity
8
2
62
256
6
ByLayer
370
13
48
1
60
0
100
AcDbMText
10
73.333343
20
22.792266
30
0
210
0
220
0
230
1
1
\W0.7317;9,700
40
3.5
41
0
44
1.084337
50
90
71
7
72
5
7
iso_b_vert
0
MTEXT
5
11E
100
AcDbEntity
8
2
62
256
6
ByLayer
370
13
48
1
60
0
100
AcDbMText
10
73.333343
20
17.56961
30
0
210
0
220
0
230
1
1
%%c
40
3.5
41
0
44
1.084337
50
90
71
7
72
5
7
iso_b_vert
0
LINE
5
11F
100
AcDbEntity
8
2
62
256
6
ByLayer
370
13
48
1
60
0
100
AcDbLine
10
63.1487
20
-4.85
30
0
11
77.083343
21
-4.85
31
0
39
0
210
0
220
0
230
1
0
LINE
5
120
100
AcDbEntity
8
2
62
256
6
ByLayer
370
13
48
1
60
0
100
AcDbLine
10
63.1487
20
4.85
30
0
11
77.083343
21
4.85
31
0
39
0
210
0
220
0
230
1
0
LINE
5
121
100
AcDbEntity
8
2
62
256
6
ByLayer
370
13
48
1
60
0
100
AcDbLine
10
75.083343
20
-4.85
30
0
11
75.083343
21
32.564635
31
0
39
0
210
0
220
0
230
1
0
SOLID
5
122
100
AcDbEntity
8
2
62
256
6
ByLayer
370
13
48
1
60
0
100
AcDbTrace
10
75.083343
20
-4.85
30
0
11
74.622559
21
-1.350002
31
0
12
75.544126
22
-1.349998
32
0
13
75.083343
23
-4.85
33
0
39
0
210
0
220
0
230
1
0
SOLID
5
123
100
AcDbEntity
8
2
62
256
6
ByLayer
370
13
48
1
60
0
100
AcDbTrace
10
75.083343
20
4.85
30
0
11
75.544126
21
1.350002
31
0
12
74.622559
22
1.349998
32
0
13
75.083343
23
4.85
33
0
39
0
210
0
220
0
230
1
0
ENDBLK
5
125
100
AcDbEntity
8
0
100
AcDbBlockEnd
0
ENDSEC
0
SECTION
2
ENTITIES
0
ARC
5
92
100
AcDbEntity
8
1
62
256
6
ByLayer
370
18
48
1
60
0
100
AcDbCircle
39
0
10
-0.1
20
4.911599
30
0
40
0.100000000000001
210
0
220
0
230
-1
100
AcDbArc
50
269.96419
51
0
0
ARC
5
93
100
AcDbEntity
8
1
62
256
6
ByLayer
370
18
48
1
60
0
100
AcDbCircle
39
0
10
-0.1
20
-4.911599
30
0
40
0.100000000000001
210
0
220
0
230
-1
100
AcDbArc
50
0
51
90.03581
0
ELLIPSE
5
94
100
AcDbEntity
8
1
62
256
6
ByLayer
370
13
48
1
60
0
100
AcDbEllipse
10
2.79118
20
-4.198176
30
0
11
0.0231190247241713
21
0.0972908561777681
31
0
210
0
220
0
230
1
40
0.426364
41
0.505656099395495
42
2.06043091590634
0
ELLIPSE
5
95
100
AcDbEntity
8
1
62
256
6
ByLayer
370
13
48
1
60
0
100
AcDbEllipse
10
2.719535
20
-4.197455
30
0
11
-0.0240811320613832
21
0.0970571948834409
31
0
210
0
220
0
230
1
40
0.571368
41
0.497595170482684
42
1.82464964656637
0
POINT
5
6C
100
AcDbEntity
8
81
62
256
6
ByLayer
370
18
48
1
60
0
100
AcDbPoint
10
63
20
0
30
0
39
0
210
0
220
0
230
1
50
360
0
POINT
5
6E
100
AcDbEntity
8
80
62
256
6
ByLayer
370
18
48
1
60
0
100
AcDbPoint
10
0
20
0
30
0
39
0
210
0
220
0
230
1
50
360
0
POINT
5
70
100
AcDbEntity
8
SK2
62
256
6
ByLayer
370
18
48
1
60
1
100
AcDbPoint
10
-40
20
-5
30
0
39
0
210
0
220
0
230
1
50
360
0
POINT
5
72
100
AcDbEntity
8
SK2
62
256
6
ByLayer
370
18
48
1
60
1
100
AcDbPoint
10
-40
20
5
30
0
39
0
210
0
220
0
230
1
50
360
0
POINT
5
73
100
AcDbEntity
8
2
62
256
6
ByLayer
370
18
48
1
60
1
100
AcDbPoint
10
61.5612
20
-4.85
30
0
39
0
210
0
220
0
230
1
50
360
0
POINT
5
75
100
AcDbEntity
8
2
62
256
6
ByLayer
370
18
48
1
60
1
100
AcDbPoint
10
61.5612
20
4.85
30
0
39
0
210
0
220
0
230
1
50
360
0
SPLINE
5
96
100
AcDbEntity
8
1
62
256
6
ByLayer
370
18
48
1
60
0
100
AcDbSpline
70
4
71
3
72
32
73
28
40
0
40
0
40
0
40
0
40
0.0412124686559591
40
0.0596798292635902
40
0.0905036180718959
40
0.122795311552703
40
0.156819678208032
40
0.196148088005408
40
0.23030485201969
40
0.273603242475587
40
0.32459898226261
40
0.363492357435038
40
0.391339049319258
40
0.422516780856783
40
0.45722520205487
40
0.498302490958321
40
0.546911372472801
40
0.598743228677561
40
0.642938917725682
40
0.684413821198438
40
0.732387048906415
40
0.774605594827307
40
0.815048277363297
40
0.87100779346454
40
0.926473252932542
40
0.976333881997363
40
1
40
1
40
1
40
1
41
1
10
6.63794585510084
20
-4.57332540259276
30
0
41
1
10
6.79910200595239
20
-4.57182762547399
30
0
41
1
10
7.04047776185246
20
-4.57061655971842
30
0
41
1
10
7.43526351692503
20
-4.56927712641718
30
0
41
1
10
7.77736637758142
20
-4.5735007471425
30
0
41
1
10
8.19132268280339
20
-4.5745524002368
30
0
41
1
10
8.64610405385881
20
-4.57504773911654
30
0
41
1
10
9.11006784194134
20
-4.57513850654843
30
0
41
1
10
9.61411385329075
20
-4.5755732139277
30
0
41
1
10
10.1685044839379
20
-4.57626695314824
30
0
41
1
10
10.7433331762096
20
-4.57632975615647
30
0
41
1
10
11.251481226215
20
-4.57661065861183
30
0
41
1
10
11.6740858374471
20
-4.57713175934819
30
0
41
1
10
12.0786394704827
20
-4.57751484182086
30
0
41
1
10
12.540291061853
20
-4.57749037921354
30
0
41
1
10
13.0771789469471
20
-4.57759824539616
30
0
41
1
10
13.6879697606855
20
-4.57873807471222
30
0
41
1
10
14.312210501708
20
-4.57862767598343
30
0
41
1
10
14.9056466008717
20
-4.57967363367146
30
0
41
1
10
15.4824584172777
20
-4.58066100898702
30
0
41
1
10
16.0507270351558
20
-4.579891026903
30
0
41
1
10
16.6145464327613
20
-4.58078292624629
30
0
41
1
10
17.2128306358326
20
-4.58255272666628
30
0
41
1
10
17.8682953548559
20
-4.58045414721136
30
0
41
1
10
18.5643908330412
20
-4.58274128388976
30
0
41
1
10
19.1211456476941
20
-4.58293599370526
30
0
41
1
10
19.4384186541647
20
-4.58276094773507
30
0
41
1
10
19.5405350904038
20
-4.58265971863301
30
0
0
SPLINE
5
97
100
AcDbEntity
8
1
62
256
6
ByLayer
370
18
48
1
60
0
100
AcDbSpline
70
4
71
3
72
27
73
23
40
0
40
0
40
0
40
0
40
0.0157069325628744
40
0.0567130170522486
40
0.109468708698467
40
0.161363654953497
40
0.208468144235615
40
0.290556337326551
40
0.369724818163404
40
0.451611097438933
40
0.540548726271406
40
0.593805905860307
40
0.632277958166795
40
0.676712271862578
40
0.734793209537956
40
0.784190723097841
40
0.825587419762223
40
0.879752590480596
40
0.920712490839608
40
0.955132262781427
40
0.983631709317956
40
1
40
1
40
1
40
1
41
1
10
46.7182686770735
20
4.597428932138
30
0
41
1
10
46.6640573988829
20
4.59746661390176
30
0
41
1
10
46.4683257729827
20
4.59759318162551
30
0
41
1
10
46.0907325693141
20
4.59815905083167
30
0
41
1
10
45.5879989065381
20
4.59758693611539
30
0
41
1
10
45.0642896164716
20
4.5961231875643
30
0
41
1
10
44.4393265631603
20
4.59641522458494
30
0
41
1
10
43.7202440008348
20
4.59606192042162
30
0
41
1
10
42.8811314664276
20
4.59500899149171
30
0
41
1
10
42.0183526941323
20
4.59574914098209
30
0
41
1
10
41.2450986191439
20
4.5939835987777
30
0
41
1
10
40.6214206814556
20
4.59456617563433
30
0
41
1
10
40.1522282542913
20
4.59393552572831
30
0
41
1
10
39.6654031267586
20
4.59287971127347
30
0
41
1
10
39.1415938196998
20
4.59360677147882
30
0
41
1
10
38.627815034795
20
4.59350860488689
30
0
41
1
10
38.1275852408288
20
4.59261876372693
30
0
41
1
10
37.6563603687404
20
4.5924627919469
30
0
41
1
10
37.2094592317611
20
4.59245579345563
30
0
41
1
10
36.8505256606952
20
4.5923084952293
30
0
41
1
10
36.5816670810428
20
4.59132443967508
30
0
41
1
10
36.4268563962976
20
4.59096686182923
30
0
41
1
10
36.3703026974266
20
4.59087819219008
30
0
0
SPLINE
5
98
100
AcDbEntity
8
1
62
256
6
ByLayer
370
18
48
1
60
0
100
AcDbSpline
70
4
71
1
72
4
73
2
40
0
40
0
40
1
40
1
41
1
10
61.1044362008106
20
-4.60717552748986
30
0
41
1
10
61.3551450410103
20
-4.60660237510956
30
0
0
SPLINE
5
99
100
AcDbEntity
8
1
62
256
6
ByLayer
370
18
48
1
60
0
100
AcDbSpline
70
4
71
3
72
29
73
25
40
0
40
0
40
0
40
0
40
0.0679835145296311
40
0.123563796363781
40
0.163091174637085
40
0.194711103610191
40
0.220962321399896
40
0.262083744097015
40
0.31130759234813
40
0.350361664114466
40
0.381602932757476
40
0.422070058750602
40
0.463385822103436
40
0.493815950134165
40
0.523290047721495
40
0.563214540440696
40
0.636345850322485
40
0.703522384045378
40
0.768808304066744
40
0.836393316722756
40
0.909265794397434
40
0.952966642482797
40
0.986998480685005
40
1
40
1
40
1
40
1
41
1
10
33.915930490014
20
-4.59029696756622
30
0
41
1
10
34.2063154011977
20
-4.59049518178176
30
0
41
1
10
34.733021409899
20
-4.59072906537097
30
0
41
1
10
35.4324726774394
20
-4.59162479981805
30
0
41
1
10
35.9652975086499
20
-4.59095580830132
30
0
41
1
10
36.3835125516824
20
-4.59055063620423
30
0
41
1
10
36.8011584187804
20
-4.59234309777659
30
0
41
1
10
37.2989257152467
20
-4.59253380377675
30
0
41
1
10
37.8516681828384
20
-4.59228194202487
30
0
41
1
10
38.3620804982946
20
-4.59313409332552
30
0
41
1
10
38.8352059136723
20
-4.59358303845681
30
0
41
1
10
39.317660127382
20
-4.59343680193894
30
0
41
1
10
39.7967704557723
20
-4.5929901500599
30
0
41
1
10
40.2290822183351
20
-4.59413766731197
30
0
41
1
10
40.6549083907513
20
-4.59451011767729
30
0
41
1
10
41.2637713527245
20
-4.59401572802685
30
0
41
1
10
42.0334730124126
20
-4.59580948243959
30
0
41
1
10
42.9115720737967
20
-4.59491544478425
30
0
41
1
10
43.7659572270722
20
-4.59631406225506
30
0
41
1
10
44.6446885400099
20
-4.59603266678792
30
0
41
1
10
45.4311933121541
20
-4.59713542820452
30
0
41
1
10
46.0744822314422
20
-4.59821458945254
30
0
41
1
10
46.461808619591
20
-4.59759719056959
30
0
41
1
10
46.662693206686
20
-4.59746856214966
30
0
41
1
10
46.7182265844934
20
-4.59742873774027
30
0
0
SPLINE
5
9A
100
AcDbEntity
8
1
62
256
6
ByLayer
370
18
48
1
60
0
100
AcDbSpline
70
4
71
3
72
28
73
24
40
0
40
0
40
0
40
0
40
0.0272042931086997
40
0.0781113234253353
40
0.136219272489098
40
0.199552042640212
40
0.252593712560743
40
0.2893183893706
40
0.33035088708349
40
0.376816527507253
40
0.420362687932764
40
0.45759396190345
40
0.502549169259733
40
0.572436796042883
40
0.636817762727165
40
0.690283856211044
40
0.735698512058597
40
0.776175216292765
40
0.814737838283207
40
0.868795807934282
40
0.938021307807672
40
0.994511091665191
40
1
40
1
40
1
40
1
41
1
10
19.5337210537805
20
4.5826154765511
30
0
41
1
10
19.4401018298213
20
4.58270595176779
30
0
41
1
10
19.171292453375
20
4.58284702450487
30
0
41
1
10
18.7025016109623
20
4.58333138400201
30
0
41
1
10
18.1093671535775
20
4.58063837603143
30
0
41
1
10
17.5088797368126
20
4.58157687067089
30
0
41
1
10
16.9819837320711
20
4.58220620437905
30
0
41
1
10
16.5318387940316
20
4.58049806161623
30
0
41
1
10
16.1043213863271
20
4.58007393267013
30
0
41
1
10
15.6533321563694
20
4.580294540316
30
0
41
1
10
15.2154197734097
20
4.58049764642703
30
0
41
1
10
14.782710678566
20
4.57925418366193
30
0
41
1
10
14.2593638340442
20
4.57870660418467
30
0
41
1
10
13.6425693242137
20
4.57866863716637
30
0
41
1
10
12.9964749714492
20
4.57749273492087
30
0
41
1
10
12.4346053400244
20
4.57752447200838
30
0
41
1
10
11.9550042714987
20
4.57745012968869
30
0
41
1
10
11.526690253788
20
4.57694430098152
30
0
41
1
10
11.0686438140698
20
4.5764347741943
30
0
41
1
10
10.5116537670721
20
4.57636424656678
30
0
41
1
10
9.89289722591445
20
4.57596241556561
30
0
41
1
10
9.44151860340315
20
4.57540746883097
30
0
41
1
10
9.22809267117478
20
4.57526054390232
30
0
41
1
10
9.20919061127282
20
4.57524829836086
30
0
0
SPLINE
5
9B
100
AcDbEntity
8
1
62
256
6
ByLayer
370
18
48
1
60
0
100
AcDbSpline
70
4
71
3
72
10
73
6
40
0
40
0
40
0
40
0
40
0.5
40
0.5
40
1
40
1
40
1
40
1
41
1
10
62.9927287897302
20
0.105767268668472
30
0
41
1
10
62.9928417739554
20
0.0963704624593333
30
0
41
1
10
62.993579850355
20
0.0858001197781846
30
0
41
1
10
62.9960075058385
20
0.0636275218726041
30
0
41
1
10
62.9976915289008
20
0.0519819778185138
30
0
41
1
10
62.9997906084913
20
0.0398521049099543
30
0
0
SPLINE
5
9C
100
AcDbEntity
8
1
62
256
6
ByLayer
370
18
48
1
60
0
100
AcDbSpline
70
4
71
3
72
22
73
18
40
0
40
0
40
0
40
0
40
0.249999999999984
40
0.249999999999984
40
0.374999999999976
40
0.374999999999976
40
0.499999999999969
40
0.499999999999969
40
0.624999999999962
40
0.624999999999962
40
0.687499999999958
40
0.687499999999958
40
0.749999999999955
40
0.749999999999955
40
0.874999999999977
40
0.874999999999977
40
1
40
1
40
1
40
1
41
1
10
2.54114372891195
20
2.72025376461275
30
0
41
1
10
2.5419772299874
20
2.74100050706025
30
0
41
1
10
2.5458788940478
20
2.76051777286693
30
0
41
1
10
2.55795914884408
20
2.78693453580902
30
0
41
1
10
2.56303161305092
20
2.79525878247301
30
0
41
1
10
2.57634134260132
20
2.81027657080659
30
0
41
1
10
2.58457548744442
20
2.81704456552774
30
0
41
1
10
2.60628742949336
20
2.82633575188987
30
0
41
1
10
2.62010836950506
20
2.82903221150306
30
0
41
1
10
2.64718403804073
20
2.82406337727829
30
0
41
1
10
2.65731416123157
20
2.82074825670179
30
0
41
1
10
2.67777906278093
20
2.81108773420811
30
0
41
1
10
2.68813626415067
20
2.80478126609151
30
0
41
1
10
2.71743389351755
20
2.78397500462333
30
0
41
1
10
2.73440546664835
20
2.76820565870457
30
0
41
1
10
2.76527144167659
20
2.73673774974296
30
0
41
1
10
2.77918801394537
20
2.72086613812579
30
0
41
1
10
2.79236568182421
20
2.70496615988603
30
0
0
SPLINE
5
9D
100
AcDbEntity
8
1
62
256
6
ByLayer
370
13
48
1
60
0
100
AcDbSpline
70
4
71
3
72
12
73
8
40
0
40
0
40
0
40
0
40
0.5
40
0.5
40
0.75
40
0.75
40
1
40
1
40
1
40
1
41
1
10
2.54130606493905
20
-4.25514473585355
30
0
41
1
10
2.54341079008009
20
-4.25144050818517
30
0
41
1
10
2.55584709445722
20
-4.24760711825863
30
0
41
1
10
2.588684452661
20
-4.24237725683119
30
0
41
1
10
2.60227870171946
20
-4.24068179974333
30
0
41
1
10
2.63386089893558
20
-4.23763329318967
30
0
41
1
10
2.6516935019539
20
-4.23628084526462
30
0
41
1
10
2.67190468693113
20
-4.23514818499183
30
0
0
SPLINE
5
9E
100
AcDbEntity
8
1
62
256
6
ByLayer
370
18
48
1
60
0
100
AcDbSpline
70
4
71
3
72
8
73
4
40
0
40
0
40
0
40
0
40
1
40
1
40
1
40
1
41
1
10
62.9642125528355
20
-0.0579940483336259
30
0
41
1
10
62.6975895245674
20
-0.496011227738478
30
0
41
1
10
62.417882133476
20
-0.920707504386257
30
0
41
1
10
62.1302076690715
20
-1.33729267846877
30
0
0
SPLINE
5
9F
100
AcDbEntity
8
1
62
256
6
ByLayer
370
18
48
1
60
0
100
AcDbSpline
70
4
71
3
72
44
73
40
40
0
40
0
40
0
40
0
40
0.0331608964767469
40
0.0331608964767469
40
0.0663217929534938
40
0.0663217929534938
40
0.132643585906989
40
0.132643585906989
40
0.26528717181398
40
0.26528717181398
40
0.298448068290728
40
0.298448068290728
40
0.331608964767475
40
0.331608964767475
40
0.364769861244223
40
0.364769861244223
40
0.397930757720971
40
0.397930757720971
40
0.530574343627962
40
0.530574343627962
40
0.596896136581457
40
0.596896136581457
40
0.630057033058204
40
0.630057033058204
40
0.663217929534952
40
0.663217929534952
40
0.79586151544194
40
0.79586151544194
40
0.812441963680314
40
0.812441963680314
40
0.829022411918687
40
0.829022411918687
40
0.862183308395434
40
0.862183308395434
40
0.928505101348929
40
0.928505101348929
40
0.994826894302424
40
0.994826894302424
40
1
40
1
40
1
40
1
41
1
10
61.3426248230415
20
-4.84382530678064
30
0
41
1
10
61.0355810949015
20
-4.85223557353612
30
0
41
1
10
60.7286805540642
20
-4.85146782836378
30
0
41
1
10
60.1144450156671
20
-4.83166339798265
30
0
41
1
10
59.8065440205398
20
-4.81256667555792
30
0
41
1
10
58.8855510485392
20
-4.72834739116411
30
0
41
1
10
58.2763767080142
20
-4.6366203632758
30
0
41
1
10
56.4540342175304
20
-4.26232663749599
30
0
41
1
10
55.245556845608
20
-3.88081938197052
30
0
41
1
10
53.7112106819233
20
-3.26665010283836
30
0
41
1
10
53.4031783234938
20
-3.13695823418837
30
0
41
1
10
52.7892234167308
20
-2.86712098497321
30
0
41
1
10
52.4826491321558
20
-2.72669847181319
30
0
41
1
10
51.8694733822533
20
-2.43609579585029
30
0
41
1
10
51.5628441093367
20
-2.28595779389644
30
0
41
1
10
50.9486631985004
20
-1.97729597621841
30
0
41
1
10
50.640517241743
20
-1.81845635023214
30
0
41
1
10
49.1072961874142
20
-1.01258782750676
30
0
41
1
10
47.898900528747
20
-0.327801957909145
30
0
41
1
10
46.0750387144265
20
0.689311089732399
30
0
41
1
10
45.465115673959
20
1.0264999589167
30
0
41
1
10
44.542855921018
20
1.52145401920598
30
0
41
1
10
44.2356420718639
20
1.68361741105665
30
0
41
1
10
43.6241076044771
20
1.99940080787269
30
0
41
1
10
43.3193332229949
20
2.15339174725545
30
0
41
1
10
41.7984049492465
20
2.90080082952636
30
0
41
1
10
40.5903136346133
20
3.42532004874994
30
0
41
1
10
39.2129204646604
20
3.89226732452934
30
0
41
1
10
39.0596221899118
20
3.94243916665781
30
0
41
1
10
38.7524027042612
20
4.03920102925591
30
0
41
1
10
38.5983480788011
20
4.08582458435131
30
0
41
1
10
38.1376533087704
20
4.2193652371077
30
0
41
1
10
37.8317245542374
20
4.30022375195784
30
0
41
1
10
36.9164170014074
20
4.5178232137045
30
0
41
1
10
36.3093771727663
20
4.62947212373859
30
0
41
1
10
35.0954384910712
20
4.783348172014
30
0
41
1
10
34.4884708689681
20
4.82554396928285
30
0
41
1
10
33.83080918702
20
4.83228174589485
30
0
41
1
10
33.7832043845128
20
4.83255053442338
30
0
41
1
10
33.7355791197444
20
4.83260003656329
30
0
0
SPLINE
5
A0
100
AcDbEntity
8
1
62
256
6
ByLayer
370
18
48
1
60
0
100
AcDbSpline
70
4
71
3
72
14
73
10
40
0
40
0
40
0
40
0
40
0.013111508942222
40
0.013111508942222
40
0.154095579093332
40
0.154095579093332
40
0.436063719395554
40
0.436063719395554
40
1
40
1
40
1
40
1
41
1
10
9.16597545384201
20
-4.59234412980487
30
0
41
1
10
9.13737908953919
20
-4.59713222261092
30
0
41
1
10
9.10877906513795
20
-4.60184588890834
30
0
41
1
10
8.7726051783643
20
-4.65636686048609
30
0
41
1
10
8.46418457003841
20
-4.69760860980347
30
0
41
1
10
7.54394717801628
20
-4.79386566227171
30
0
41
1
10
6.93485061389632
20
-4.82193203715991
30
0
41
1
10
5.11127776980675
20
-4.79939367516701
30
0
41
1
10
3.90036098254558
20
-4.64205408945938
30
0
41
1
10
2.66943693419691
20
-4.34747219337891
30
0
0
SPLINE
5
A1
100
AcDbEntity
8
1
62
256
6
ByLayer
370
18
48
1
60
0
100
AcDbSpline
70
4
71
3
72
8
73
4
40
0
40
0
40
0
40
0
40
1
40
1
40
1
40
1
41
1
10
61.3426248230415
20
4.84382530678062
30
0
41
1
10
61.1977273137273
20
4.84779420955849
30
0
41
1
10
61.0528348794392
20
4.84971989414325
30
0
41
1
10
60.9079096254582
20
4.84960467742576
30
0
0
SPLINE
5
A2
100
AcDbEntity
8
1
62
256
6
ByLayer
370
18
48
1
60
0
100
AcDbSpline
70
4
71
3
72
44
73
40
40
0
40
0
40
0
40
0
40
0.023544434815988
40
0.023544434815988
40
0.146314984144527
40
0.146314984144527
40
0.207700258808796
40
0.207700258808796
40
0.238392896140931
40
0.238392896140931
40
0.269085533473066
40
0.269085533473066
40
0.299778170805201
40
0.299778170805201
40
0.330470808137335
40
0.330470808137335
40
0.391856082801605
40
0.391856082801605
40
0.422548720133739
40
0.422548720133739
40
0.453241357465873
40
0.453241357465873
40
0.514626632130141
40
0.514626632130141
40
0.637397181458677
40
0.637397181458677
40
0.698782456122946
40
0.698782456122946
40
0.72947509345508
40
0.72947509345508
40
0.760167730787213
40
0.760167730787213
40
0.882938280115749
40
0.882938280115749
40
0.913630917447883
40
0.913630917447883
40
0.944323554780017
40
0.944323554780017
40
1
40
1
40
1
40
1
41
1
10
36.3845784503935
20
-4.60542691276513
30
0
41
1
10
36.1490225819424
20
-4.64525916323933
30
0
41
1
10
35.9127625910301
20
-4.68009818675699
30
0
41
1
10
34.4493196185654
20
-4.86328924422094
30
0
41
1
10
33.2399679627272
20
-4.87230654413787
30
0
41
1
10
31.416064491632
20
-4.67424297196544
30
0
41
1
10
30.8064015027941
20
-4.5729991244302
30
0
41
1
10
29.8846167057954
20
-4.3692100068734
30
0
41
1
10
29.5764287981551
20
-4.29266730725365
30
0
41
1
10
28.9620447333442
20
-4.12417531265044
30
0
41
1
10
28.6552242326781
20
-4.03207914834115
30
0
41
1
10
28.0414688135929
20
-3.83306115412097
30
0
41
1
10
27.7345430012093
20
-3.72613077774966
30
0
41
1
10
27.1197730867622
20
-3.49827704955956
30
0
41
1
10
26.8115859395431
20
-3.37720877125321
30
0
41
1
10
25.8893096864969
20
-2.99657901873712
30
0
41
1
10
25.2762392752986
20
-2.7190934514413
30
0
41
1
10
24.3545404848225
20
-2.27423545924762
30
0
41
1
10
24.0464919303918
20
-2.12100797844065
30
0
41
1
10
23.4311670941293
20
-1.80756475845388
30
0
41
1
10
23.1240453041121
20
-1.64741849529804
30
0
41
1
10
22.2031217831496
20
-1.1587473709088
30
0
41
1
10
21.5891447150052
20
-0.821882280895466
30
0
41
1
10
19.7419889177804
20
0.202238044642996
30
0
41
1
10
18.5311498717272
20
0.887685248224813
30
0
41
1
10
16.7069738341373
20
1.85065949039864
30
0
41
1
10
16.097799549697
20
2.16114505955099
30
0
41
1
10
15.1771213165545
20
2.60187266662675
30
0
41
1
10
14.8684808538923
20
2.74500418913237
30
0
41
1
10
14.2548336110652
20
3.01878571992663
30
0
41
1
10
13.9491398141078
20
3.14973938043818
30
0
41
1
10
12.4240165770356
20
3.77219735304826
30
0
41
1
10
11.2152986716804
20
4.16761140816541
30
0
41
1
10
9.68698521733256
20
4.49963491779277
30
0
41
1
10
9.38044004822802
20
4.55792842082383
30
0
41
1
10
8.76483870222765
20
4.65748220099743
30
0
41
1
10
8.45726427984755
20
4.69845082948703
30
0
41
1
10
7.59615133536977
20
4.78818699771881
30
0
41
1
10
7.04442964024418
20
4.81649491215947
30
0
41
1
10
6.49375532099293
20
4.81558725128977
30
0
0
SPLINE
5
A3
100
AcDbEntity
8
1
62
256
6
ByLayer
370
18
48
1
60
0
100
AcDbSpline
70
4
71
3
72
8
73
4
40
0
40
0
40
0
40
0
40
1
40
1
40
1
40
1
41
1
10
61.5410626823531
20
-4.71823841905771
30
0
41
1
10
61.4765188021807
20
-4.78747920825751
30
0
41
1
10
61.4106209665496
20
-4.82907452309877
30
0
41
1
10
61.3426248230415
20
-4.84382530678064
30
0
0
SPLINE
5
A4
100
AcDbEntity
8
1
62
256
6
ByLayer
370
18
48
1
60
0
100
AcDbSpline
70
4
71
3
72
8
73
4
40
0
40
0
40
0
40
0
40
1
40
1
40
1
40
1
41
1
10
62.9684594876746
20
0.494139586772292
30
0
41
1
10
62.9418051640892
20
0.707227536700657
30
0
41
1
10
62.8984861152245
20
0.92605097248159
30
0
41
1
10
62.8405913378107
20
1.15780512359908
30
0
0
SPLINE
5
A5
100
AcDbEntity
8
1
62
256
6
ByLayer
370
18
48
1
60
0
100
AcDbSpline
70
4
71
3
72
88
73
84
40
0
40
0
40
0
40
0
40
0.0038113065098871
40
0.0038113065098871
40
0.0267697404640453
40
0.0267697404640453
40
0.0497281744182036
40
0.0497281744182036
40
0.0956450423265199
40
0.0956450423265199
40
0.118603476280678
40
0.118603476280678
40
0.141561910234835
40
0.141561910234835
40
0.164520344188993
40
0.164520344188993
40
0.187478778143151
40
0.187478778143151
40
0.210437212097309
40
0.210437212097309
40
0.233395646051466
40
0.233395646051466
40
0.256354080005624
40
0.256354080005624
40
0.279312513959782
40
0.279312513959782
40
0.302270947913939
40
0.302270947913939
40
0.325229381868097
40
0.325229381868097
40
0.348187815822255
40
0.348187815822255
40
0.371146249776412
40
0.371146249776412
40
0.39410468373057
40
0.39410468373057
40
0.417063117684728
40
0.417063117684728
40
0.440021551638886
40
0.440021551638886
40
0.462979985593043
40
0.462979985593043
40
0.485938419547201
40
0.485938419547201
40
0.508896853501359
40
0.508896853501359
40
0.554813721409673
40
0.554813721409673
40
0.577772155363831
40
0.577772155363831
40
0.600730589317988
40
0.600730589317988
40
0.623689023272145
40
0.623689023272145
40
0.646647457226302
40
0.646647457226302
40
0.66960589118046
40
0.66960589118046
40
0.692564325134617
40
0.692564325134617
40
0.715522759088774
40
0.715522759088774
40
0.738481193042932
40
0.738481193042932
40
0.784398060951247
40
0.784398060951247
40
0.807356494905405
40
0.807356494905405
40
0.830314928859562
40
0.830314928859562
40
0.85327336281372
40
0.85327336281372
40
0.876231796767878
40
0.876231796767878
40
0.899190230722036
40
0.899190230722036
40
0.922148664676193
40
0.922148664676193
40
0.945107098630351
40
0.945107098630351
40
0.968065532584508
40
0.968065532584508
40
1
40
1
40
1
40
1
41
1
10
25.6957886387754
20
3.48244306534647
30
0
41
1
10
25.7386369804125
20
3.49905934586613
30
0
41
1
10
25.7814868348535
20
3.51552747311354
30
0
41
1
10
26.0825118312648
20
3.63009535568219
30
0
41
1
10
26.3406794468509
20
3.72311586824441
30
0
41
1
10
26.8565152192828
20
3.89940609705067
30
0
41
1
10
27.1140347821489
20
3.98281973377647
30
0
41
1
10
27.8862136017757
20
4.2176538080769
30
0
41
1
10
28.4035747448347
20
4.35092040102612
30
0
41
1
10
29.1812598153103
20
4.51757243760699
30
0
41
1
10
29.4405672675846
20
4.56758761680683
30
0
41
1
10
29.9622168142153
20
4.65452416684218
30
0
41
1
10
30.2240947894423
20
4.69164518882513
30
0
41
1
10
30.7447049043164
20
4.7529388981288
30
0
41
1
10
31.0038841740662
20
4.77726054534855
30
0
41
1
10
31.5207767755808
20
4.81292857701504
30
0
41
1
10
31.779153003087
20
4.82415443904824
30
0
41
1
10
32.2955594991754
20
4.83383334122249
30
0
41
1
10
32.5535544735152
20
4.83229529470737
30
0
41
1
10
33.0686214996187
20
4.81633933189704
30
0
41
1
10
33.3255883378054
20
4.80182052073295
30
0
41
1
10
33.8411951168599
20
4.76026240655835
30
0
41
1
10
34.099504463868
20
4.73322453968325
30
0
41
1
10
34.6166447470875
20
4.66643698095743
30
0
41
1
10
34.8752803491322
20
4.62656547891723
30
0
41
1
10
35.3935858651345
20
4.5338883072109
30
0
41
1
10
35.65389393284
20
4.4815000401224
30
0
41
1
10
36.1765619956576
20
4.36449489090916
30
0
41
1
10
36.437714254932
20
4.30011297207665
30
0
41
1
10
36.9570215192743
20
4.15968100875602
30
0
41
1
10
37.2154771457495
20
4.08346019598298
30
0
41
1
10
37.7326853338544
20
3.92185019326973
30
0
41
1
10
37.9910995083925
20
3.83617202924677
30
0
41
1
10
38.5070749785844
20
3.65466518100993
30
0
41
1
10
38.7644028051231
20
3.55853385533439
30
0
41
1
10
39.2788646091823
20
3.35673534239191
30
0
41
1
10
39.5365799945075
20
3.25183990130228
30
0
41
1
10
40.0526384165166
20
3.03377244296877
30
0
41
1
10
40.3109702856126
20
2.92058911564305
30
0
41
1
10
40.8277122583829
20
2.68494531890201
30
0
41
1
10
41.086127615939
20
2.56242844600325
30
0
41
1
10
41.6056784169142
20
2.31208660701952
30
0
41
1
10
41.8667486509374
20
2.18361421185688
30
0
41
1
10
42.3892572987976
20
1.92005050291652
30
0
41
1
10
42.6491230259528
20
1.78515687269768
30
0
41
1
10
43.4265733401514
20
1.37470223222698
30
0
41
1
10
43.9441611448837
20
1.09723031041275
30
0
41
1
10
44.7166956351427
20
0.670394911112879
30
0
41
1
10
44.9736341065285
20
0.526452921382855
30
0
41
1
10
45.4888374510757
20
0.239737611936079
30
0
41
1
10
45.7467561572946
20
0.0963417430660343
30
0
41
1
10
46.2627593449308
20
-0.1913838764182
30
0
41
1
10
46.5205698882088
20
-0.33622168967446
30
0
41
1
10
47.0372673785734
20
-0.625191849293174
30
0
41
1
10
47.2966332147545
20
-0.76843209290675
30
0
41
1
10
47.8169975038542
20
-1.0531630852056
30
0
41
1
10
48.0786286094237
20
-1.19497353380265
30
0
41
1
10
48.5996448681916
20
-1.47604910149676
30
0
41
1
10
48.8589399330745
20
-1.61483814295511
30
0
41
1
10
49.377442223437
20
-1.88493647002119
30
0
41
1
10
49.6363126065381
20
-2.01687967227298
30
0
41
1
10
50.1528474789034
20
-2.27541089029975
30
0
41
1
10
50.4101999923059
20
-2.40248001975459
30
0
41
1
10
51.1820870453143
20
-2.77285618424409
30
0
41
1
10
51.6980751322452
20
-3.00311639485571
30
0
41
1
10
52.4712072478676
20
-3.32779127580261
30
0
41
1
10
52.7289656394612
20
-3.43221593382947
30
0
41
1
10
53.2468112674435
20
-3.63051132305063
30
0
41
1
10
53.5065591205537
20
-3.72485900262186
30
0
41
1
10
54.0272726266193
20
-3.90437245592253
30
0
41
1
10
54.288451544164
20
-3.99001872650325
30
0
41
1
10
54.8085541134979
20
-4.14898995689634
30
0
41
1
10
55.0682322048782
20
-4.22220509467309
30
0
41
1
10
55.5864454965813
20
-4.35692997752315
30
0
41
1
10
55.8450046676826
20
-4.4184230563564
30
0
41
1
10
56.3603826965249
20
-4.53007674444868
30
0
41
1
10
56.617526937098
20
-4.57993802502978
30
0
41
1
10
57.1327293020708
20
-4.66670918786497
30
0
41
1
10
57.3904670976659
20
-4.70385801903464
30
0
41
1
10
57.905769951559
20
-4.76589050910698
30
0
41
1
10
58.1629945371798
20
-4.79084382250153
30
0
41
1
10
58.779366305657
20
-4.83495980739579
30
0
41
1
10
59.1396239037442
20
-4.84819235655866
30
0
41
1
10
59.5009079714796
20
-4.84877431336739
30
0
0
SPLINE
5
A6
100
AcDbEntity
8
1
62
256
6
ByLayer
370
18
48
1
60
0
100
AcDbSpline
70
4
71
3
72
14
73
10
40
0
40
0
40
0
40
0
40
0.25
40
0.25
40
0.5
40
0.5
40
0.75
40
0.75
40
1
40
1
40
1
40
1
41
1
10
2.66943693419674
20
-4.34747219337888
30
0
41
1
10
2.65083050752298
20
-4.34301934638461
30
0
41
1
10
2.63392363527458
20
-4.33762972987907
30
0
41
1
10
2.60340135006584
20
-4.32494756916492
30
0
41
1
10
2.58985658144411
20
-4.31762054622348
30
0
41
1
10
2.56766892377004
20
-4.30174002255362
30
0
41
1
10
2.55871177632423
20
-4.29296013912779
30
0
41
1
10
2.54612147435793
20
-4.27462429698741
30
0
41
1
10
2.54239064948456
20
-4.26508315212851
30
0
41
1
10
2.54130606493908
20
-4.25514473584656
30
0
0
SPLINE
5
A7
100
AcDbEntity
8
1
62
256
6
ByLayer
370
18
48
1
60
0
100
AcDbSpline
70
4
71
3
72
8
73
4
40
0
40
0
40
0
40
0
40
1
40
1
40
1
40
1
41
1
10
62.999790608491
20
-0.0398521049212661
30
0
41
1
10
63.0000698489099
20
-0.0132754709554774
30
0
41
1
10
63.0000697245995
20
0.0132873021619275
30
0
41
1
10
62.9997906084911
20
0.0398521049098974
30
0
0
SPLINE
5
A8
100
AcDbEntity
8
1
62
256
6
ByLayer
370
18
48
1
60
0
100
AcDbSpline
70
4
71
3
72
30
73
26
40
0
40
0
40
0
40
0
40
0.0625000000000005
40
0.0625000000000005
40
0.0937500000000009
40
0.0937500000000009
40
0.125000000000001
40
0.125000000000001
40
0.187500000000003
40
0.187500000000003
40
0.250000000000004
40
0.250000000000004
40
0.375000000000007
40
0.375000000000007
40
0.437500000000007
40
0.437500000000007
40
0.500000000000008
40
0.500000000000008
40
0.625000000000008
40
0.625000000000008
40
0.687500000000006
40
0.687500000000006
40
0.750000000000004
40
0.750000000000004
40
1
40
1
40
1
40
1
41
1
10
56.7521413956482
20
1.8601315529267
30
0
41
1
10
56.7344603914337
20
1.72292447284863
30
0
41
1
10
56.7266145931162
20
1.58222711568493
30
0
41
1
10
56.7301775955345
20
1.36574022985593
30
0
41
1
10
56.733960594929
20
1.2923188399661
30
0
41
1
10
56.7466299910299
20
1.14543519821234
30
0
41
1
10
56.755469640936
20
1.07217238126219
30
0
41
1
10
56.789132017386
20
0.852894399877925
30
0
41
1
10
56.8210780245651
20
0.707388265269202
30
0
41
1
10
56.9025807844733
20
0.417634460401075
30
0
41
1
10
56.9526166660059
20
0.272399430846747
30
0
41
1
10
57.1228205714534
20
-0.149934455345914
30
0
41
1
10
57.2630390180099
20
-0.416581727554814
30
0
41
1
10
57.5039958888484
20
-0.799481452369719
30
0
41
1
10
57.5894987935799
20
-0.924105944107595
30
0
41
1
10
57.7661965033261
20
-1.16346879816632
30
0
41
1
10
57.8578291610697
20
-1.27890119277831
30
0
41
1
10
58.1414444540206
20
-1.61391871838202
30
0
41
1
10
58.3422110649664
20
-1.82213794248528
30
0
41
1
10
58.6573313204281
20
-2.11639004693171
30
0
41
1
10
58.7648720971449
20
-2.21157054126826
30
0
41
1
10
58.9816584426467
20
-2.39422580648034
30
0
41
1
10
59.0912131942398
20
-2.48200163672121
30
0
41
1
10
59.6442074762949
20
-2.90491779932924
30
0
41
1
10
60.1029597389833
20
-3.19323582694432
30
0
41
1
10
60.5742379889508
20
-3.4432526823702
30
0
0
SPLINE
5
A9
100
AcDbEntity
8
1
62
256
6
ByLayer
370
13
48
1
60
0
100
AcDbSpline
70
4
71
3
72
33
73
29
40
0
40
0
40
0
40
0
40
0.125
40
0.125
40
0.1875
40
0.1875
40
0.25
40
0.25
40
0.3125
40
0.3125
40
0.34375
40
0.34375
40
0.375
40
0.375
40
0.5
40
0.5
40
0.5625
40
0.5625
40
0.625
40
0.625
40
0.75
40
0.75
40
0.8125
40
0.8125
40
0.875
40
0.9375
40
0.9375
40
1
40
1
40
1
40
1
41
1
10
2.79131348020115
20
-4.1082859866699
30
0
41
1
10
2.79139500191246
20
-3.96102536991793
30
0
41
1
10
2.79146683630375
20
-3.78266422100342
30
0
41
1
10
2.79156563417749
20
-3.46858956863682
30
0
41
1
10
2.79159667828182
20
-3.35727034783309
30
0
41
1
10
2.79165570138272
20
-3.12308356297788
30
0
41
1
10
2.79168374007975
20
-3.00001870656217
30
0
41
1
10
2.79173778853996
20
-2.74199363757447
30
0
41
1
10
2.79176379681641
20
-2.60703442264187
30
0
41
1
10
2.79180187986259
20
-2.39538655000985
30
0
41
1
10
2.79181441137567
20
-2.32332132132288
30
0
41
1
10
2.79183895013802
20
-2.1778972664016
30
0
41
1
10
2.79185099735656
20
-2.10432012411925
30
0
41
1
10
2.79191035684971
20
-1.73218193952735
30
0
41
1
10
2.79195516359692
20
-1.42101481478329
30
0
41
1
10
2.79202123380554
20
-0.933639449268185
30
0
41
1
10
2.79204297888151
20
-0.768144580300685
30
0
41
1
10
2.79208545291351
20
-0.436132516972691
30
0
41
1
10
2.79210635916004
20
-0.268235325637306
30
0
41
1
10
2.79216717842277
20
0.233881666072079
30
0
41
1
10
2.79220512807379
20
0.564843674947809
30
0
41
1
10
2.79225634211519
20
1.05567345751911
30
0
41
1
10
2.79227250001242
20
1.21918569368796
30
0
41
1
10
2.79230152740394
20
1.53712098239322
30
0
41
1
10
2.79232742077053
20
1.84726141609141
30
0
41
1
10
2.79234577890551
20
2.14220459042187
30
0
41
1
10
2.79235949798641
20
2.42947293925764
30
0
41
1
10
2.79236404524312
20
2.56973023865652
30
0
41
1
10
2.79236568182421
20
2.70496615899359
30
0
0
SPLINE
5
AA
100
AcDbEntity
8
1
62
256
6
ByLayer
370
18
48
1
60
0
100
AcDbSpline
70
4
71
3
72
18
73
14
40
0
40
0
40
0
40
0
40
0.146460803728639
40
0.146460803728639
40
0.420731911557954
40
0.420731911557954
40
0.489299688515285
40
0.489299688515285
40
0.557867465472617
40
0.557867465472617
40
0.69500301938728
40
0.69500301938728
40
1
40
1
40
1
40
1
41
1
10
20.123320874612
20
-0.0072449147118334
30
0
41
1
10
20.4482133320342
20
-0.182907898000934
30
0
41
1
10
20.7728812968716
20
-0.358467964585117
30
0
41
1
10
21.7063010023386
20
-0.85984809850379
30
0
41
1
10
22.3155884215006
20
-1.18333126942451
30
0
41
1
10
23.0820238428105
20
-1.5762795625111
30
0
41
1
10
23.2355573439681
20
-1.6542893606757
30
0
41
1
10
23.5432148764134
20
-1.80896509655503
30
0
41
1
10
23.6975552671635
20
-1.88573624360211
30
0
41
1
10
24.1595484906411
20
-2.11273695706114
30
0
41
1
10
24.4662974985374
20
-2.25978437239056
30
0
41
1
10
25.4525507469404
20
-2.71822808500019
30
0
41
1
10
26.1288495791544
20
-3.01024687694135
30
0
41
1
10
26.8052024498761
20
-3.27242261752684
30
0
0
SPLINE
5
AB
100
AcDbEntity
8
1
62
256
6
ByLayer
370
13
48
1
60
0
100
AcDbSpline
70
4
71
3
72
20
73
16
40
0
40
0
40
0
40
0
40
0.190022168222232
40
0.190022168222232
40
0.297019992610218
40
0.297019992610218
40
0.404017816998204
40
0.404017816998204
40
0.618013465774178
40
0.618013465774178
40
0.832009114550151
40
0.832009114550151
40
0.939006938938137
40
0.939006938938137
40
1
40
1
40
1
40
1
41
1
10
26.8052033821928
20
-3.27242297892224
30
0
41
1
10
27.3452822504179
20
-3.48177458894577
30
0
41
1
10
27.8853955763359
20
-3.67209741839722
30
0
41
1
10
28.7329562262032
20
-3.93537680624644
30
0
41
1
10
29.0389622023729
20
-4.02327311228913
30
0
41
1
10
29.6531399305993
20
-4.18416267360192
30
0
41
1
10
29.9618190815239
20
-4.25726552674675
30
0
41
1
10
30.8859178003571
20
-4.45140272565357
30
0
41
1
10
31.5010227559355
20
-4.54775913391646
30
0
41
1
10
32.7341933455187
20
-4.67067129861442
30
0
41
1
10
33.3484417450376
20
-4.69685255203964
30
0
41
1
10
34.2710042345423
20
-4.68283602875931
30
0
41
1
10
34.5787378861068
20
-4.66927747587661
30
0
41
1
10
35.0627897508873
20
-4.63403899473624
30
0
41
1
10
35.2381796216402
20
-4.61839666985406
30
0
41
1
10
35.4132236235621
20
-4.59996840953468
30
0
0
SPLINE
5
AC
100
AcDbEntity
8
1
62
256
6
ByLayer
370
18
48
1
60
0
100
AcDbSpline
70
4
71
3
72
30
73
26
40
0
40
0
40
0
40
0
40
0.0624999999999976
40
0.0624999999999976
40
0.124999999999995
40
0.124999999999995
40
0.187499999999993
40
0.187499999999993
40
0.249999999999991
40
0.249999999999991
40
0.312499999999988
40
0.312499999999988
40
0.374999999999986
40
0.374999999999986
40
0.49999999999999
40
0.49999999999999
40
0.624999999999995
40
0.624999999999995
40
0.749999999999999
40
0.749999999999999
40
0.812500000000002
40
0.812500000000002
40
0.875000000000004
40
0.875000000000004
40
1
40
1
40
1
40
1
41
1
10
62.1302076690723
20
-1.337292678469
30
0
41
1
10
62.1331015500068
20
-1.36583080642069
30
0
41
1
10
62.1338735372326
20
-1.39742110691509
30
0
41
1
10
62.1308416751518
20
-1.46433379617201
30
0
41
1
10
62.127116129559
20
-1.49939998800318
30
0
41
1
10
62.1153010672318
20
-1.57289906610515
30
0
41
1
10
62.1071259256647
20
-1.61142950235208
30
0
41
1
10
62.0873995282493
20
-1.68776592361584
30
0
41
1
10
62.0756520486784
20
-1.72645292735433
30
0
41
1
10
62.0493565666059
20
-1.80245054308475
30
0
41
1
10
62.0350016717395
20
-1.83930703490921
30
0
41
1
10
62.0041290885145
20
-1.91095345804382
30
0
41
1
10
61.9876359825092
20
-1.94560207598479
30
0
41
1
10
61.9369053875043
20
-2.04296457033311
30
0
41
1
10
61.9004926439702
20
-2.1009016330901
30
0
41
1
10
61.8274496107816
20
-2.19748633564657
30
0
41
1
10
61.7901193034181
20
-2.237075806875
30
0
41
1
10
61.7175195303072
20
-2.29621947810139
30
0
41
1
10
61.6813945275326
20
-2.31645171505346
30
0
41
1
10
61.6300649139338
20
-2.33170837703341
30
0
41
1
10
61.6133422115845
20
-2.33435921249426
30
0
41
1
10
61.5806183650333
20
-2.33472202772751
30
0
41
1
10
61.5645291554304
20
-2.33238204458834
30
0
41
1
10
61.5185722312219
20
-2.31787336126391
30
0
41
1
10
61.4906042090981
20
-2.29853551352409
30
0
41
1
10
61.4655726600768
20
-2.26834063002394
30
0
0
SPLINE
5
AD
100
AcDbEntity
8
1
62
256
6
ByLayer
370
18
48
1
60
0
100
AcDbSpline
70
4
71
3
72
8
73
4
40
0
40
0
40
0
40
0
40
1
40
1
40
1
40
1
41
1
10
62.9927287897302
20
-0.105767268668501
30
0
41
1
10
62.9929547316519
20
-0.0869758626196813
30
0
41
1
10
62.9955935466897
20
-0.0641055093451257
30
0
41
1
10
62.9997906084885
20
-0.039852104926382
30
0
0
SPLINE
5
AE
100
AcDbEntity
8
1
62
256
6
ByLayer
370
18
48
1
60
0
100
AcDbSpline
70
4
71
3
72
8
73
4
40
0
40
0
40
0
40
0
40
1
40
1
40
1
40
1
41
1
10
61.3998442945908
20
-4.69910916765747
30
0
41
1
10
61.3808170958731
20
-4.74742745764439
30
0
41
1
10
61.3617442776371
20
-4.79566638551813
30
0
41
1
10
61.3426248230415
20
-4.84382530678064
30
0
0
SPLINE
5
AF
100
AcDbEntity
8
1
62
256
6
ByLayer
370
18
48
1
60
0
100
AcDbSpline
70
4
71
3
72
56
73
52
40
0
40
0
40
0
40
0
40
0.0312499999999969
40
0.0312499999999969
40
0.0624999999999938
40
0.0624999999999938
40
0.0937499999999907
40
0.0937499999999907
40
0.109374999999989
40
0.109374999999989
40
0.124999999999987
40
0.124999999999987
40
0.140624999999986
40
0.140624999999986
40
0.156249999999984
40
0.156249999999984
40
0.171874999999982
40
0.171874999999982
40
0.187499999999981
40
0.187499999999981
40
0.218749999999976
40
0.218749999999976
40
0.249999999999972
40
0.249999999999972
40
0.281249999999968
40
0.281249999999968
40
0.312499999999963
40
0.312499999999963
40
0.316406249999963
40
0.316406249999963
40
0.320312499999963
40
0.320312499999963
40
0.324218749999963
40
0.324218749999963
40
0.328124999999963
40
0.328124999999963
40
0.343749999999964
40
0.343749999999964
40
0.374999999999966
40
0.374999999999966
40
0.43749999999997
40
0.43749999999997
40
0.499999999999974
40
0.499999999999974
40
0.62499999999998
40
0.62499999999998
40
0.749999999999987
40
0.749999999999987
40
0.874999999999993
40
0.874999999999993
40
1
40
1
40
1
40
1
41
1
10
2.54114372890251
20
2.72025376461252
30
0
41
1
10
2.46177556644375
20
2.80229213676955
30
0
41
1
10
2.38725806730221
20
2.88533002010143
30
0
41
1
10
2.25155047076243
20
3.05453330863182
30
0
41
1
10
2.19027510690913
20
3.14067229052299
30
0
41
1
10
2.08754528344991
20
3.31808507004126
30
0
41
1
10
2.04791997448967
20
3.40649242161993
30
0
41
1
10
2.0124437798998
20
3.53789274237619
30
0
41
1
10
2.00463047581448
20
3.58185310560521
30
0
41
1
10
1.99845978552651
20
3.66690162022536
30
0
41
1
10
1.9999775900238
20
3.70821764075083
30
0
41
1
10
2.01244709720729
20
3.78848439279562
30
0
41
1
10
2.02340256920584
20
3.82743491319079
30
0
41
1
10
2.05505886568636
20
3.90301064952953
30
0
41
1
10
2.07540840080844
20
3.93877890562001
30
0
41
1
10
2.12399030019358
20
4.00641789796242
30
0
41
1
10
2.15225832943594
20
4.03835960962994
30
0
41
1
10
2.21599151282487
20
4.09895313176435
30
0
41
1
10
2.25139870222108
20
4.12749173080439
30
0
41
1
10
2.36449092418849
20
4.2070535795707
30
0
41
1
10
2.44974277140301
20
4.2528724552426
30
0
41
1
10
2.63460349126831
20
4.33459527851323
30
0
41
1
10
2.73437609784412
20
4.37039808921452
30
0
41
1
10
2.94117570362471
20
4.43361190254024
30
0
41
1
10
3.04892427104741
20
4.4612773508301
30
0
41
1
10
3.27008549785103
20
4.51065485296826
30
0
41
1
10
3.3831938143669
20
4.53229782444444
30
0
41
1
10
3.51270957642794
20
4.55412293073437
30
0
41
1
10
3.52713202158145
20
4.5565124547455
30
0
41
1
10
3.5560389804248
20
4.56122297148832
30
0
41
1
10
3.57056379759692
20
4.56351713496756
30
0
41
1
10
3.60219968319183
20
4.56655349110966
30
0
41
1
10
3.61916124994548
20
4.56754345491439
30
0
41
1
10
3.65255121741316
20
4.56861323617019
30
0
41
1
10
3.66914487421468
20
4.56865131856492
30
0
41
1
10
3.75191134976347
20
4.56785482802218
30
0
41
1
10
3.81804300621104
20
4.56681648909299
30
0
41
1
10
4.01645530364979
20
4.56377473528832
30
0
41
1
10
4.14863046942304
20
4.56124361625021
30
0
41
1
10
4.54486004457152
20
4.55208900298476
30
0
41
1
10
4.80899916484876
20
4.54389506692314
30
0
41
1
10
5.33429197399047
20
4.52297989722283
30
0
41
1
10
5.59541420018542
20
4.51026953690698
30
0
41
1
10
6.37434310358674
20
4.46449176930429
30
0
41
1
10
6.88768857819303
20
4.42380474619142
30
0
41
1
10
7.90350185324996
20
4.31589382456147
30
0
41
1
10
8.40592288586873
20
4.24854645161588
30
0
41
1
10
9.40139304488827
20
4.08034562353882
30
0
41
1
10
9.89459600662954
20
3.97940338831879
30
0
41
1
10
10.8734074572402
20
3.73882329700297
30
0
41
1
10
11.3562554341219
20
3.59991466452027
30
0
41
1
10
11.8347661999018
20
3.44189110043234
30
0
0
SPLINE
5
B0
100
AcDbEntity
8
1
62
256
6
ByLayer
370
18
48
1
60
0
100
AcDbSpline
70
4
71
3
72
8
73
4
40
0
40
0
40
0
40
0
40
1
40
1
40
1
40
1
41
1
10
62.9684594876746
20
0.494139586772292
30
0
41
1
10
62.9826476359123
20
0.36443158462103
30
0
41
1
10
62.9911754635295
20
0.234956146770656
30
0
41
1
10
62.9927287897308
20
0.105767268667506
30
0
0
SPLINE
5
B1
100
AcDbEntity
8
1
62
256
6
ByLayer
370
13
48
1
60
0
100
AcDbSpline
70
4
71
3
72
14
73
10
40
0
40
0
40
0
40
0
40
0.333498608653887
40
0.333498608653887
40
0.500247912980831
40
0.500247912980831
40
0.666997217307774
40
0.666997217307774
40
1
40
1
40
1
40
1
41
1
10
2.74369999148814
20
-4.23523343160807
30
0
41
1
10
3.36052877258388
20
-4.37604153043858
30
0
41
1
10
3.97568298133206
20
-4.48367148945204
30
0
41
1
10
4.90024365802333
20
-4.59369169383453
30
0
41
1
10
5.20919972782258
20
-4.62178371558468
30
0
41
1
10
5.8239756863893
20
-4.66017794230686
30
0
41
1
10
6.13028104158013
20
-4.6705568605696
30
0
41
1
10
7.04615273549842
20
-4.67538984285619
30
0
41
1
10
7.65356950011045
20
-4.6436998497127
30
0
41
1
10
8.261134394799
20
-4.5781845715035
30
0
0
SPLINE
5
B2
100
AcDbEntity
8
1
62
256
6
ByLayer
370
18
48
1
60
0
100
AcDbSpline
70
4
71
3
72
18
73
14
40
0
40
0
40
0
40
0
40
0.0478033770623278
40
0.0478033770623278
40
0.110047325818538
40
0.110047325818538
40
0.172291274574749
40
0.172291274574749
40
0.421267069599594
40
0.421267069599594
40
0.91921865964929
40
0.91921865964929
40
1
40
1
40
1
40
1
41
1
10
47.3447490954149
20
-0.0188385912116757
30
0
41
1
10
47.4625120592781
20
-0.0827297335757464
30
0
41
1
10
47.5804495677418
20
-0.146710941200894
30
0
41
1
10
47.8524012498568
20
-0.294123882272629
30
0
41
1
10
48.0066674278468
20
-0.377657749626422
30
0
41
1
10
48.3141003449316
20
-0.543729574194231
30
0
41
1
10
48.467483188672
20
-0.626387141673433
30
0
41
1
10
49.2329858778935
20
-1.0373273987245
30
0
41
1
10
49.8410364637097
20
-1.35821426431852
30
0
41
1
10
51.6610981384542
20
-2.28208709659259
30
0
41
1
10
52.8686652518795
20
-2.84686957998664
30
0
41
1
10
54.293842934168
20
-3.39563298234657
30
0
41
1
10
54.4936642363892
20
-3.46993436077668
30
0
41
1
10
54.6933632489187
20
-3.54138786028702
30
0
0
SPLINE
5
B3
100
AcDbEntity
8
1
62
256
6
ByLayer
370
13
48
1
60
0
100
AcDbSpline
70
4
71
3
72
14
73
10
40
0
40
0
40
0
40
0
40
0.0477603693714983
40
0.0477603693714983
40
0.183794602318424
40
0.183794602318424
40
0.455863068212282
40
0.455863068212282
40
1
40
1
40
1
40
1
41
1
10
54.6933632495058
20
-3.54138786049714
30
0
41
1
10
54.8014099376709
20
-3.58004761089612
30
0
41
1
10
54.9094208276569
20
-3.61787369430556
30
0
41
1
10
55.3243203574485
20
-3.75989442159695
30
0
41
1
10
55.6300656549815
20
-3.85767520803262
30
0
41
1
10
56.5444757559098
20
-4.1281282771877
30
0
41
1
10
57.1502454647344
20
-4.27800742519156
30
0
41
1
10
58.9651817959798
20
-4.63050926523027
30
0
41
1
10
60.1724952370298
20
-4.73636025551718
30
0
41
1
10
61.3998442945904
20
-4.69910916765735
30
0
0
SPLINE
5
B4
100
AcDbEntity
8
1
62
256
6
ByLayer
370
18
48
1
60
0
100
AcDbSpline
70
4
71
3
72
8
73
4
40
0
40
0
40
0
40
0
40
1
40
1
40
1
40
1
41
1
10
61.5410626823531
20
4.71823841905771
30
0
41
1
10
61.4765315307
20
4.78746555347394
30
0
41
1
10
61.4106342565897
20
4.82907164001605
30
0
41
1
10
61.3426248230415
20
4.84382530678064
30
0
0
SPLINE
5
B5
100
AcDbEntity
8
1
62
256
6
ByLayer
370
13
48
1
60
0
100
AcDbSpline
70
4
71
3
72
8
73
4
40
0
40
0
40
0
40
0
40
1
40
1
40
1
40
1
41
1
10
2.79131348020118
20
-4.1082859866699
30
0
41
1
10
2.74965114140994
20
-4.10245254009499
30
0
41
1
10
2.70896400373601
20
-4.10593074382905
30
0
41
1
10
2.67190468693116
20
-4.1187355270867
30
0
0
SPLINE
5
B6
100
AcDbEntity
8
1
62
256
6
ByLayer
370
18
48
1
60
0
100
AcDbSpline
70
4
71
3
72
14
73
10
40
0
40
0
40
0
40
0
40
0.25
40
0.25
40
0.5
40
0.5
40
0.75
40
0.75
40
1
40
1
40
1
40
1
41
1
10
61.2466181686935
20
1.02928433823482
30
0
41
1
10
61.2459925370676
20
1.04458244757075
30
0
41
1
10
61.2495798910267
20
1.06000304217341
30
0
41
1
10
61.2655019950527
20
1.08659252920376
30
0
41
1
10
61.2777828028551
20
1.09762316864618
30
0
41
1
10
61.3051982265497
20
1.11328054104962
30
0
41
1
10
61.3205774225196
20
1.11833686513899
30
0
41
1
10
61.3514970477723
20
1.12425144026798
30
0
41
1
10
61.3673296798818
20
1.12520866902136
30
0
41
1
10
61.3831454797985
20
1.12467205808014
30
0
0
SPLINE
5
B7
100
AcDbEntity
8
1
62
256
6
ByLayer
370
13
48
1
60
0
100
AcDbSpline
70
4
71
3
72
8
73
4
40
0
40
0
40
0
40
0
40
1
40
1
40
1
40
1
41
1
10
2.66943693419677
20
-4.34747219337814
30
0
41
1
10
2.67025193092118
20
-4.31003415564686
30
0
41
1
10
2.6710745053515
20
-4.27259286303396
30
0
41
1
10
2.6719046869311
20
-4.23514818499183
30
0
0
SPLINE
5
B8
100
AcDbEntity
8
1
62
256
6
ByLayer
370
18
48
1
60
0
100
AcDbSpline
70
4
71
3
72
8
73
4
40
0
40
0
40
0
40
0
40
1
40
1
40
1
40
1
41
1
10
62.9684594876786
20
-0.494139586736026
30
0
41
1
10
62.982627556832
20
-0.364615147494305
30
0
41
1
10
62.9911731004255
20
-0.235152684209225
30
0
41
1
10
62.9927287897307
20
-0.105767268667535
30
0
0
SPLINE
5
B9
100
AcDbEntity
8
1
62
256
6
ByLayer
370
18
48
1
60
0
100
AcDbSpline
70
4
71
3
72
52
73
48
40
0
40
0
40
0
40
0
40
0.0758581637604198
40
0.0758581637604198
40
0.11378724564063
40
0.11378724564063
40
0.15171632752084
40
0.15171632752084
40
0.189645409401051
40
0.189645409401051
40
0.227574491281261
40
0.227574491281261
40
0.265503573161471
40
0.265503573161471
40
0.303432655041681
40
0.303432655041681
40
0.379290818802102
40
0.379290818802102
40
0.455148982562523
40
0.455148982562523
40
0.493078064442733
40
0.493078064442733
40
0.531007146322942
40
0.531007146322942
40
0.568936228203152
40
0.568936228203152
40
0.606865310083362
40
0.606865310083362
40
0.644794391963572
40
0.644794391963572
40
0.682723473843782
40
0.682723473843782
40
0.720652555723992
40
0.720652555723992
40
0.758581637604202
40
0.758581637604202
40
0.834439801364622
40
0.834439801364622
40
0.872368883244831
40
0.872368883244831
40
0.91029796512504
40
0.91029796512504
40
0.948227047005249
40
0.948227047005249
40
0.986156128885458
40
0.986156128885458
40
1
40
1
40
1
40
1
41
1
10
11.8347661999018
20
3.44189110043234
30
0
41
1
10
12.3564007760407
20
3.23653505700213
30
0
41
1
10
12.8771002091829
20
3.01773549717137
30
0
41
1
10
13.6532183683712
20
2.66533323870897
30
0
41
1
10
13.9108028004992
20
2.54329120428969
30
0
41
1
10
14.4267397596039
20
2.29476205487762
30
0
41
1
10
14.6848790747322
20
2.16797825253229
30
0
41
1
10
15.2009856251793
20
1.90860417954079
30
0
41
1
10
15.4588838161022
20
1.7758931081037
30
0
41
1
10
15.9743908764485
20
1.504308891947
30
0
41
1
10
16.2327509372967
20
1.36673298566475
30
0
41
1
10
16.7509964149085
20
1.08864079483922
30
0
41
1
10
17.0107512977452
20
0.947898428874794
30
0
41
1
10
17.531120998686
20
0.662142460072602
30
0
41
1
10
17.7920582250202
20
0.516198204275838
30
0
41
1
10
18.5748083383281
20
0.0812299643535255
30
0
41
1
10
19.0942881192172
20
-0.206602583295023
30
0
41
1
10
20.126338318984
20
-0.782323613097901
30
0
41
1
10
20.6427253993685
20
-1.06318963360113
30
0
41
1
10
21.4159943273789
20
-1.47752344411919
30
0
41
1
10
21.6732237030791
20
-1.61497907982047
30
0
41
1
10
22.1895893475963
20
-1.88341204634071
30
0
41
1
10
22.4484601308576
20
-2.01486932686475
30
0
41
1
10
22.9670708220501
20
-2.27311996716378
30
0
41
1
10
23.2266933732023
20
-2.40010468815325
30
0
41
1
10
23.7469603064692
20
-2.64902267200972
30
0
41
1
10
24.008814345877
20
-2.76996601875709
30
0
41
1
10
24.5302558725806
20
-3.0023235650047
30
0
41
1
10
24.790245862226
20
-3.11411337364586
30
0
41
1
10
25.3083078654943
20
-3.32964094711656
30
0
41
1
10
25.5661779125299
20
-3.4335824930526
30
0
41
1
10
26.0825118312648
20
-3.63009535568222
30
0
41
1
10
26.3406794468509
20
-3.72311586824441
30
0
41
1
10
26.8565152192828
20
-3.8994060970507
30
0
41
1
10
27.1140347821489
20
-3.98281973377644
30
0
41
1
10
27.8862136017757
20
-4.21765380807696
30
0
41
1
10
28.4035747448347
20
-4.35092040102612
30
0
41
1
10
29.1812598153103
20
-4.51757243760699
30
0
41
1
10
29.4405672675846
20
-4.56758761680683
30
0
41
1
10
29.9622168142152
20
-4.65452416684218
30
0
41
1
10
30.2240947894423
20
-4.69164518882516
30
0
41
1
10
30.7447049043164
20
-4.7529388981288
30
0
41
1
10
31.0038841740663
20
-4.77726054534855
30
0
41
1
10
31.5207767755808
20
-4.81292857701504
30
0
41
1
10
31.779153003087
20
-4.82415443904824
30
0
41
1
10
32.1315987771847
20
-4.83076025867882
30
0
41
1
10
32.2258135569511
20
-4.83167701502549
30
0
41
1
10
32.3199882792965
20
-4.83174112319
30
0
0
SPLINE
5
BA
100
AcDbEntity
8
1
62
256
6
ByLayer
370
18
48
1
60
0
100
AcDbSpline
70
4
71
3
72
28
73
24
40
0
40
0
40
0
40
0
40
0.0140727475671315
40
0.0140727475671315
40
0.103702497788302
40
0.103702497788302
40
0.193332248009472
40
0.193332248009472
40
0.282961998230642
40
0.282961998230642
40
0.372591748451812
40
0.372591748451812
40
0.462221498672981
40
0.462221498672981
40
0.551851248894151
40
0.551851248894151
40
0.641480999115321
40
0.641480999115321
40
0.82074049955766
40
0.82074049955766
40
0.91037024977883
40
0.91037024977883
40
1
40
1
40
1
40
1
41
1
10
52.8660100033206
20
3.48427760595683
30
0
41
1
10
52.9066103295779
20
3.50009922447268
30
0
41
1
10
52.9472350388028
20
3.5157964704967
30
0
41
1
10
53.2468112674435
20
3.63051132305063
30
0
41
1
10
53.5065591205537
20
3.72485900262183
30
0
41
1
10
54.0272726266193
20
3.90437245592256
30
0
41
1
10
54.2884515441639
20
3.99001872650328
30
0
41
1
10
54.808554113498
20
4.14898995689632
30
0
41
1
10
55.0682322048782
20
4.22220509467311
30
0
41
1
10
55.5864454965814
20
4.35692997752315
30
0
41
1
10
55.8450046676826
20
4.4184230563564
30
0
41
1
10
56.3603826965249
20
4.53007674444871
30
0
41
1
10
56.617526937098
20
4.57993802502978
30
0
41
1
10
57.1327293020709
20
4.66670918786497
30
0
41
1
10
57.3904670976659
20
4.70385801903464
30
0
41
1
10
57.905769951559
20
4.76589050910698
30
0
41
1
10
58.1629945371799
20
4.79084382250153
30
0
41
1
10
58.9363694281789
20
4.84619709588912
30
0
41
1
10
59.4554206746832
20
4.85739661073293
30
0
41
1
10
60.2362968141351
20
4.83466873414702
30
0
41
1
10
60.4972546287239
20
4.82036272064869
30
0
41
1
10
61.0191385622516
20
4.77896726711003
30
0
41
1
10
61.2801703465525
20
4.75185147210937
30
0
41
1
10
61.5410626823531
20
4.71823841905768
30
0
0
SPLINE
5
BB
100
AcDbEntity
8
1
62
256
6
ByLayer
370
13
48
1
60
0
100
AcDbSpline
70
4
71
3
72
12
73
8
40
0
40
0
40
0
40
0
40
0.249999999999999
40
0.249999999999999
40
0.499999999999998
40
0.499999999999998
40
1
40
1
40
1
40
1
41
1
10
2.67190468693116
20
-4.1187355270867
30
0
41
1
10
2.65130127666831
20
-4.12585444415055
30
0
41
1
10
2.6331571193067
20
-4.13444171238643
30
0
41
1
10
2.60110488205998
20
-4.154086585785
30
0
41
1
10
2.58739918028175
20
-4.16511704285691
30
0
41
1
10
2.55449725330834
20
-4.19964525561829
30
0
41
1
10
2.54242816130983
20
-4.22562665743757
30
0
41
1
10
2.54110482591955
20
-4.2514504816524
30
0
0
SPLINE
5
BC
100
AcDbEntity
8
1
62
256
6
ByLayer
370
18
48
1
60
0
100
AcDbSpline
70
4
71
3
72
50
73
46
40
0
40
0
40
0
40
0
40
0.0803442969681827
40
0.0803442969681827
40
0.142496327383427
40
0.142496327383427
40
0.204648357798671
40
0.204648357798671
40
0.328952418629159
40
0.328952418629159
40
0.453256479459647
40
0.453256479459647
40
0.515408509874891
40
0.515408509874891
40
0.546484525082513
40
0.546484525082513
40
0.562022532686324
40
0.562022532686324
40
0.56979153648823
40
0.56979153648823
40
0.573676038389182
40
0.573676038389182
40
0.577560540290135
40
0.577560540290135
40
0.581445042191088
40
0.581445042191088
40
0.585329544092041
40
0.585329544092041
40
0.593098547893946
40
0.593098547893946
40
0.608636555497758
40
0.608636555497758
40
0.63971257070538
40
0.63971257070538
40
0.701864601120624
40
0.701864601120624
40
0.764016631535868
40
0.764016631535868
40
0.826168661951112
40
0.826168661951112
40
0.888320692366357
40
0.888320692366357
40
0.950472722781601
40
0.950472722781601
40
1
40
1
40
1
40
1
41
1
10
11.8347661999018
20
3.44189110043177
30
0
41
1
10
11.8347661999018
20
3.30566506698338
30
0
41
1
10
11.8347661999019
20
3.16094585074623
30
0
41
1
10
11.8347661999019
20
2.89005466681334
30
0
41
1
10
11.8347661999019
20
2.76707202826168
30
0
41
1
10
11.8347661999019
20
2.51156162829375
30
0
41
1
10
11.8347661999018
20
2.37881375382654
30
0
41
1
10
11.8347661999018
20
1.97363306672642
30
0
41
1
10
11.8347661999019
20
1.69209481523259
30
0
41
1
10
11.8347661999019
20
1.1079779817656
30
0
41
1
10
11.8347661999019
20
0.805386649214455
30
0
41
1
10
11.8347661999019
20
0.335814426490685
30
0
41
1
10
11.8347661999019
20
0.177488195098618
30
0
41
1
10
11.8347661999019
20
-0.0617907292900384
30
0
41
1
10
11.8347661999019
20
-0.141894785982629
30
0
41
1
10
11.8347661999019
20
-0.262564790733705
30
0
41
1
10
11.8347661999019
20
-0.302877526198046
30
0
41
1
10
11.8347661999019
20
-0.363418732267604
30
0
41
1
10
11.8347661999019
20
-0.383613400661972
30
0
41
1
10
11.8347661999019
20
-0.413926755595782
30
0
41
1
10
11.8347661999001
20
-0.423991077466326
30
0
41
1
10
11.8347661999001
20
-0.444325152457537
30
0
41
1
10
11.8347661999019
20
-0.454817954889279
30
0
41
1
10
11.8347661999019
20
-0.47560870794527
30
0
41
1
10
11.8347661999019
20
-0.485723326954542
30
0
41
1
10
11.8347661999019
20
-0.505376456022162
30
0
41
1
10
11.8347661999019
20
-0.514688054202992
30
0
41
1
10
11.8347661999019
20
-0.542389141618855
30
0
41
1
10
11.8347661999019
20
-0.560807271750519
30
0
41
1
10
11.8347661999019
20
-0.615913380474296
30
0
41
1
10
11.8347661999019
20
-0.65245389106633
30
0
41
1
10
11.8347661999019
20
-0.761419874466696
30
0
41
1
10
11.8347661999019
20
-0.833209635286153
30
0
41
1
10
11.8347661999019
20
-1.0459775200265
30
0
41
1
10
11.8347661999019
20
-1.18391499617147
30
0
41
1
10
11.8347661999019
20
-1.45159785724897
30
0
41
1
10
11.8347661999019
20
-1.58160952230534
30
0
41
1
10
11.8347661999019
20
-1.83036934793157
30
0
41
1
10
11.8347661999019
20
-1.94944739177367
30
0
41
1
10
11.8347661999019
20
-2.17677153306715
30
0
41
1
10
11.8347661999019
20
-2.28501923476611
30
0
41
1
10
11.8347661999019
20
-2.49017214601574
30
0
41
1
10
11.8347661999019
20
-2.58743674743278
30
0
41
1
10
11.8347661999019
20
-2.74970702196129
30
0
41
1
10
11.8347661999019
20
-2.81701611075278
30
0
41
1
10
11.8347661999019
20
-2.8795725483449
30
0
0
SPLINE
5
BD
100
AcDbEntity
8
1
62
256
6
ByLayer
370
18
48
1
60
0
100
AcDbSpline
70
4
71
3
72
8
73
4
40
0
40
0
40
0
40
0
40
1
40
1
40
1
40
1
41
1
10
61.4655726600769
20
-2.26834063002397
30
0
41
1
10
61.1734292279749
20
-2.6655595924953
30
0
41
1
10
60.8757407688453
20
-3.05663781748874
30
0
41
1
10
60.5742379889507
20
-3.44325268237026
30
0
0
SPLINE
5
BE
100
AcDbEntity
8
1
62
256
6
ByLayer
370
18
48
1
60
0
100
AcDbSpline
70
4
71
3
72
12
73
8
40
0
40
0
40
0
40
0
40
0.250000000000001
40
0.250000000000001
40
0.500000000000002
40
0.500000000000002
40
1
40
1
40
1
40
1
41
1
10
61.5410626823531
20
4.71823841905768
30
0
41
1
10
61.6434982394633
20
4.4215046837472
30
0
41
1
10
61.7482400354871
20
4.12343020378776
30
0
41
1
10
61.9609417921746
20
3.52731976298054
30
0
41
1
10
62.0686906362807
20
3.22990101067282
30
0
41
1
10
62.3951872028028
20
2.33911005286538
30
0
41
1
10
62.6173909904248
20
1.74677369968595
30
0
41
1
10
62.8405913378107
20
1.15780512359908
30
0
0
SPLINE
5
BF
100
AcDbEntity
8
1
62
256
6
ByLayer
370
18
48
1
60
0
100
AcDbSpline
70
4
71
3
72
10
73
6
40
0
40
0
40
0
40
0
40
0.5
40
0.5
40
1
40
1
40
1
40
1
41
1
10
61.3831454797985
20
1.12467205808005
30
0
41
1
10
61.622763837987
20
1.1165420973193
30
0
41
1
10
61.8623533500939
20
1.10868488741849
30
0
41
1
10
62.3412808142405
20
1.09534906536814
30
0
41
1
10
62.580703207201
20
1.08907203164557
30
0
41
1
10
62.8201041665982
20
1.08299766055558
30
0
0
SPLINE
5
C0
100
AcDbEntity
8
1
62
256
6
ByLayer
370
18
48
1
60
0
100
AcDbSpline
70
4
71
3
72
14
73
10
40
0
40
0
40
0
40
0
40
0.380611392646744
40
0.380611392646744
40
0.767608202345601
40
0.767608202345601
40
0.961106607195026
40
0.961106607195026
40
1
40
1
40
1
40
1
41
1
10
33.9578054224814
20
-4.59028892550333
30
0
41
1
10
33.3535016975191
20
-4.59128177292695
30
0
41
1
10
32.7498235887135
20
-4.5587049100921
30
0
41
1
10
31.5279261216395
20
-4.42599007331194
30
0
41
1
10
30.9134470299018
20
-4.32516703886822
30
0
41
1
10
29.9901993088095
20
-4.12584173167227
30
0
41
1
10
29.6818596561593
20
-4.05128750153551
30
0
41
1
10
29.3133998659374
20
-3.95325507912779
30
0
41
1
10
29.2517760883816
20
-3.93655757582215
30
0
41
1
10
29.1901913083914
20
-3.9195734425067
30
0
0
SPLINE
5
C1
100
AcDbEntity
8
1
62
256
6
ByLayer
370
13
48
1
60
0
100
AcDbSpline
70
4
71
3
72
24
73
20
40
0
40
0
40
0
40
0
40
0.0588841131324862
40
0.0588841131324862
40
0.353673571865999
40
0.353673571865999
40
0.427370936549377
40
0.427370936549377
40
0.501068301232755
40
0.501068301232755
40
0.648463030599513
40
0.648463030599513
40
0.795857759966271
40
0.795857759966271
40
0.86955512464965
40
0.86955512464965
40
0.94325248933303
40
0.94325248933303
40
1
40
1
40
1
40
1
41
1
10
29.1901913088807
20
-3.91957344264168
30
0
41
1
10
28.9453858298049
20
-3.85205986390912
30
0
41
1
10
28.7011965667389
20
-3.78001713065902
30
0
41
1
10
27.237050209457
20
-3.32163020965046
30
0
41
1
10
26.0268987330325
20
-2.83268639332195
30
0
41
1
10
24.4983544420929
20
-2.12873969824511
30
0
41
1
10
24.1918098859834
20
-1.98338022443664
30
0
41
1
10
23.5763036000873
20
-1.68463299399772
30
0
41
1
10
23.2684335231354
20
-1.53169093169515
30
0
41
1
10
22.3495341218877
20
-1.06742006663953
30
0
41
1
10
21.740604952005
20
-0.749660455862227
30
0
41
1
10
20.5243171889292
20
-0.108765664673797
30
0
41
1
10
19.9170186289209
20
0.21447957381838
30
0
41
1
10
19.0027758553368
20
0.694746714466362
30
0
41
1
10
18.69751070827
20
0.854128983556251
30
0
41
1
10
18.085206723669
20
1.17005110349157
30
0
41
1
10
17.7778576269041
20
1.32666871099499
30
0
41
1
10
17.2325824391618
20
1.59944600810351
30
0
41
1
10
16.9960977335646
20
1.71605968226987
30
0
41
1
10
16.760170877713
20
1.8303617670569
30
0
0
SPLINE
5
C2
100
AcDbEntity
8
1
62
256
6
ByLayer
370
18
48
1
60
0
100
AcDbSpline
70
4
71
3
72
12
73
8
40
0
40
0
40
0
40
0
40
0.25
40
0.25
40
0.5
40
0.5
40
1
40
1
40
1
40
1
41
1
10
61.5410626823531
20
-4.71823841905768
30
0
41
1
10
61.6438204984926
20
-4.42057116878223
30
0
41
1
10
61.7489468494111
20
-4.12142124948969
30
0
41
1
10
61.962215371403
20
-3.52377879911796
30
0
41
1
10
62.070058912824
20
-3.22614045917922
30
0
41
1
10
62.3963940063705
20
-2.3358728710522
30
0
41
1
10
62.6177332939754
20
-1.74587044824756
30
0
41
1
10
62.8405913378107
20
-1.15780512359919
30
0
0
SPLINE
5
C3
100
AcDbEntity
8
1
62
256
6
ByLayer
370
18
48
1
60
0
100
AcDbSpline
70
4
71
3
72
10
73
6
40
0
40
0
40
0
40
0
40
0.5
40
0.5
40
1
40
1
40
1
40
1
41
1
10
62.8405913378107
20
-1.15780512359913
30
0
41
1
10
62.8691686474831
20
-1.04340948309064
30
0
41
1
10
62.8944442082364
20
-0.931224843314311
30
0
41
1
10
62.9374591918257
20
-0.709822373693896
30
0
41
1
10
62.9550870487128
20
-0.601045530004512
30
0
41
1
10
62.9684594876793
20
-0.494139586734889
30
0
0
SPLINE
5
C4
100
AcDbEntity
8
1
62
256
6
ByLayer
370
18
48
1
60
0
100
AcDbSpline
70
4
71
3
72
30
73
26
40
0
40
0
40
0
40
0
40
0.0312499999999991
40
0.0312499999999991
40
0.0624999999999982
40
0.0624999999999982
40
0.124999999999998
40
0.124999999999998
40
0.187499999999998
40
0.187499999999998
40
0.249999999999997
40
0.249999999999997
40
0.374999999999997
40
0.374999999999997
40
0.437499999999996
40
0.437499999999996
40
0.499999999999996
40
0.499999999999996
40
0.624999999999997
40
0.624999999999997
40
0.749999999999998
40
0.749999999999998
40
0.874999999999999
40
0.874999999999999
40
1
40
1
40
1
40
1
41
1
10
2.7923656827042
20
2.70496615882428
30
0
41
1
10
2.85603817204446
20
2.62813987944352
30
0
41
1
10
2.92574844842133
20
2.55173021487363
30
0
41
1
10
3.07137122476686
20
2.4024870926882
30
0
41
1
10
3.14745419958916
20
2.32940593236722
30
0
41
1
10
3.38309291997081
20
2.11340446961407
30
0
41
1
10
3.54991857432214
20
1.97365750624115
30
0
41
1
10
3.89609947080768
20
1.69869965156013
30
0
41
1
10
4.07565197422105
20
1.56353993910355
30
0
41
1
10
4.43844228717643
20
1.29968492354675
30
0
41
1
10
4.62247171473717
20
1.17039965834314
30
0
41
1
10
5.18018605450152
20
0.787795910751385
30
0
41
1
10
5.55943660554343
20
0.539615277656054
30
0
41
1
10
6.13507834456803
20
0.172736342134044
30
0
41
1
10
6.32811961269516
20
0.0513911038045762
30
0
41
1
10
6.71663108117843
20
-0.189443945575704
30
0
41
1
10
6.91199412287631
20
-0.308896334350578
30
0
41
1
10
7.49662022341087
20
-0.661875983685093
30
0
41
1
10
7.88609469577295
20
-0.89136978652607
30
0
41
1
10
8.66572547329602
20
-1.3366275823814
30
0
41
1
10
9.05589676148028
20
-1.55224770688571
30
0
41
1
10
9.83969606816709
20
-1.96690173878221
30
0
41
1
10
10.2333044029724
20
-2.16565231961002
30
0
41
1
10
11.0276346603131
20
-2.54038851795303
30
0
41
1
10
11.4283676714826
20
-2.71680072314965
30
0
41
1
10
11.8347661999019
20
-2.87957254834487
30
0
0
SPLINE
5
C5
100
AcDbEntity
8
1
62
256
6
ByLayer
370
18
48
1
60
0
100
AcDbSpline
70
4
71
3
72
40
73
36
40
0
40
0
40
0
40
0
40
0.101270926164409
40
0.101270926164409
40
0.151906389246613
40
0.151906389246613
40
0.202541852328817
40
0.202541852328817
40
0.253177315411021
40
0.253177315411021
40
0.303812778493225
40
0.303812778493225
40
0.405083704657633
40
0.405083704657633
40
0.455719167739837
40
0.455719167739837
40
0.50635463082204
40
0.50635463082204
40
0.556990093904244
40
0.556990093904244
40
0.607625556986447
40
0.607625556986447
40
0.658261020068651
40
0.658261020068651
40
0.708896483150854
40
0.708896483150854
40
0.759531946233058
40
0.759531946233058
40
0.810167409315261
40
0.810167409315261
40
0.860802872397462
40
0.860802872397462
40
0.911438335479663
40
0.911438335479663
40
1
40
1
40
1
40
1
41
1
10
11.8347661999019
20
-2.87957254834484
30
0
41
1
10
12.3059572493756
20
-3.07363191278074
30
0
41
1
10
12.7744695630452
20
-3.2523090939155
30
0
41
1
10
13.4743659525901
20
-3.49952178338194
30
0
41
1
10
13.7071208595132
20
-3.57830128716643
30
0
41
1
10
14.172353025607
20
-3.72698598868155
30
0
41
1
10
14.4048938288683
20
-3.79693810271718
30
0
41
1
10
14.8698582546641
20
-3.92917093897148
30
0
41
1
10
15.1022560185577
20
-3.9915696355782
30
0
41
1
10
15.5668549040608
20
-4.10677718482552
30
0
41
1
10
15.7990691928909
20
-4.15986850665985
30
0
41
1
10
16.4972239611989
20
-4.30558116213854
30
0
41
1
10
16.9640289240884
20
-4.38627806017658
30
0
41
1
10
17.6667748036476
20
-4.47566532778018
30
0
41
1
10
17.9017921496245
20
-4.50058808252982
30
0
41
1
10
18.3729530056402
20
-4.54129950716563
30
0
41
1
10
18.6083781728385
20
-4.55757714335996
30
0
41
1
10
19.0783766854955
20
-4.57823947626963
30
0
41
1
10
19.3129632151747
20
-4.5827339663357
30
0
41
1
10
19.7821303901198
20
-4.5823315930775
30
0
41
1
10
20.0169194589791
20
-4.57730541052428
30
0
41
1
10
20.4869488772577
20
-4.55852060300509
30
0
41
1
10
20.722093335724
20
-4.54393030464507
30
0
41
1
10
21.1927746095404
20
-4.5029272263925
30
0
41
1
10
21.4281425228367
20
-4.47730280865375
30
0
41
1
10
21.8983397738978
20
-4.41723352247791
30
0
41
1
10
22.1334557976389
20
-4.38310026795708
30
0
41
1
10
22.6033788963617
20
-4.30464679968173
30
0
41
1
10
22.8381323886915
20
-4.25966531129464
30
0
41
1
10
23.3076269973289
20
-4.16055293345511
30
0
41
1
10
23.5423367253706
20
-4.10629260961357
30
0
41
1
10
24.0127950400415
20
-3.99027613102405
30
0
41
1
10
24.2488233087151
20
-3.92835774704574
30
0
41
1
10
24.8949137294473
20
-3.74401557624901
30
0
41
1
10
25.303309846068
20
-3.61298621473236
30
0
41
1
10
25.7111366559259
20
-3.47248236235444
30
0
0
SPLINE
5
C6
100
AcDbEntity
8
1
62
256
6
ByLayer
370
18
48
1
60
0
100
AcDbSpline
70
4
71
3
72
32
73
28
40
0
40
0
40
0
40
0
40
0.0212537447626321
40
0.0212537447626321
40
0.0911641915653007
40
0.0911641915653007
40
0.16107463836797
40
0.16107463836797
40
0.230985085170639
40
0.230985085170639
40
0.300895531973308
40
0.300895531973308
40
0.440716425578645
40
0.440716425578645
40
0.510626872381314
40
0.510626872381314
40
0.580537319183983
40
0.580537319183983
40
0.650447765986652
40
0.650447765986652
40
0.720358212789321
40
0.720358212789321
40
0.79026865959199
40
0.79026865959199
40
0.860179106394659
40
0.860179106394659
40
1
40
1
40
1
40
1
41
1
10
46.6932975658161
20
4.59733950894247
30
0
41
1
10
46.7647590185549
20
4.59753091839383
30
0
41
1
10
46.8362305855487
20
4.59726518684079
30
0
41
1
10
47.142917822933
20
4.59423555545007
30
0
41
1
10
47.3784294364752
20
4.58753147010623
30
0
41
1
10
47.8492389458489
20
4.56310539808621
30
0
41
1
10
48.0841686938894
20
4.54539887781965
30
0
41
1
10
48.5534467469076
20
4.50032280638251
30
0
41
1
10
48.7879265831627
20
4.47306834040268
30
0
41
1
10
49.2573627340398
20
4.41059647376693
30
0
41
1
10
49.4921026473193
20
4.37425875929347
30
0
41
1
10
50.1963804258602
20
4.24873096421348
30
0
41
1
10
50.6668470418929
20
4.14377047980489
30
0
41
1
10
51.3718932631649
20
3.96164117724277
30
0
41
1
10
51.6067279809252
20
3.89671392025886
30
0
41
1
10
52.0760847772879
20
3.75878192233878
30
0
41
1
10
52.310521748478
20
3.68577416024843
30
0
41
1
10
52.7798428421888
20
3.5320895557544
30
0
41
1
10
53.0147759886842
20
3.45137551023905
30
0
41
1
10
53.485135445367
20
3.28153888756134
30
0
41
1
10
53.7208493013205
20
3.19238706767595
30
0
41
1
10
54.1902421781546
20
3.00767782040006
30
0
41
1
10
54.4241328804397
20
2.91194458635823
30
0
41
1
10
54.8914132202984
20
2.71540708794706
30
0
41
1
10
55.12470434258
20
2.61444148150056
30
0
41
1
10
55.8234752855896
20
2.30363559359768
30
0
41
1
10
56.2875082177655
20
2.08553158980314
30
0
41
1
10
56.7521413956485
20
1.86013155292656
30
0
0
SPLINE
5
C7
100
AcDbEntity
8
1
62
256
6
ByLayer
370
18
48
1
60
0
100
AcDbSpline
70
4
71
3
72
14
73
10
40
0
40
0
40
0
40
0
40
0.25
40
0.25
40
0.5
40
0.5
40
0.75
40
0.75
40
1
40
1
40
1
40
1
41
1
10
61.4096071774768
20
-4.60485539195204
30
0
41
1
10
61.4128748374354
20
-4.60438883677668
30
0
41
1
10
61.4154984429653
20
-4.60557989685646
30
0
41
1
10
61.4190529333927
20
-4.61235665222375
30
0
41
1
10
61.4199317257476
20
-4.61802009396465
30
0
41
1
10
61.418837645447
20
-4.6349019780572
30
0
41
1
10
61.4167916757985
20
-4.6461534591769
30
0
41
1
10
61.4098833821159
20
-4.67170839769591
30
0
41
1
10
61.4050907708876
20
-4.68578609436113
30
0
41
1
10
61.3998442945904
20
-4.69910916765735
30
0
0
SPLINE
5
C8
100
AcDbEntity
8
1
62
256
6
ByLayer
370
18
48
1
60
0
100
AcDbSpline
70
4
71
3
72
8
73
4
40
0
40
0
40
0
40
0
40
1
40
1
40
1
40
1
41
1
10
62.8201041665982
20
1.08299766055558
30
0
41
1
10
62.8900979335563
20
0.887423709317233
30
0
41
1
10
62.9385198736813
20
0.691101986286185
30
0
41
1
10
62.9684594876747
20
0.494139586772292
30
0
0
SPLINE
5
C9
100
AcDbEntity
8
1
62
256
6
ByLayer
370
18
48
1
60
0
100
AcDbSpline
70
4
71
3
72
16
73
12
40
0
40
0
40
0
40
0
40
0.267654254881269
40
0.267654254881269
40
0.401481382321903
40
0.401481382321903
40
0.535308509762538
40
0.535308509762538
40
0.802962764643807
40
0.802962764643807
40
1
40
1
40
1
40
1
41
1
10
60.5742379889508
20
-3.44325268237023
30
0
41
1
10
60.6394890925544
20
-3.63884401461331
30
0
41
1
10
60.7069750548573
20
-3.81042148071629
30
0
41
1
10
60.8107341778274
20
-4.03327488042873
30
0
41
1
10
60.845752339287
20
-4.10176503063957
30
0
41
1
10
60.9166222545825
20
-4.22691382188495
30
0
41
1
10
60.9525481612305
20
-4.28360228785778
30
0
41
1
10
61.0593683543211
20
-4.43233269428978
30
0
41
1
10
61.1300061043732
20
-4.50461415703683
30
0
41
1
10
61.2520324708764
20
-4.58388115459914
30
0
41
1
10
61.303791084298
20
-4.60290438883141
30
0
41
1
10
61.3549146843903
20
-4.60668870714375
30
0
0
SPLINE
5
CA
100
AcDbEntity
8
1
62
256
6
ByLayer
370
18
48
1
60
0
100
AcDbSpline
70
4
71
3
72
42
73
38
40
0
40
0
40
0
40
0
40
0.0624999999999999
40
0.0624999999999999
40
0.125
40
0.125
40
0.1875
40
0.1875
40
0.249999999999999
40
0.249999999999999
40
0.312499999999999
40
0.312499999999999
40
0.343749999999999
40
0.343749999999999
40
0.374999999999999
40
0.374999999999999
40
0.390624999999999
40
0.390624999999999
40
0.406249999999999
40
0.406249999999999
40
0.4375
40
0.4375
40
0.468750000000002
40
0.468750000000002
40
0.500000000000003
40
0.500000000000003
40
0.531250000000005
40
0.531250000000005
40
0.562500000000006
40
0.562500000000006
40
0.625000000000002
40
0.625000000000002
40
0.750000000000001
40
0.750000000000001
40
0.875000000000001
40
0.875000000000001
40
1
40
1
40
1
40
1
41
1
10
61.4655726600768
20
-2.26834063002394
30
0
41
1
10
61.3918219328528
20
-2.24063496799298
30
0
41
1
10
61.3182410768313
20
-2.20996007219958
30
0
41
1
10
61.1714404822399
20
-2.14229819171419
30
0
41
1
10
61.0980493688226
20
-2.10520824654768
30
0
41
1
10
60.9534257561772
20
-2.02475878840798
30
0
41
1
10
60.882019639885
20
-1.98135386119188
30
0
41
1
10
60.7414200941989
20
-1.88677448016688
30
0
41
1
10
60.6721646473694
20
-1.8355522924638
30
0
41
1
10
60.539212852331
20
-1.72444539021473
30
0
41
1
10
60.4751437544808
20
-1.6645694951774
30
0
41
1
10
60.3852826852977
20
-1.56354441975895
30
0
41
1
10
60.356271913534
20
-1.52775298341402
30
0
41
1
10
60.3032217934861
20
-1.45266967332259
30
0
41
1
10
60.2788644957986
20
-1.41313000245941
30
0
41
1
10
60.2482728704655
20
-1.34943789718864
30
0
41
1
10
60.2392620067318
20
-1.32781868316664
30
0
41
1
10
60.2242942629783
20
-1.28358011568639
30
0
41
1
10
60.2183103575472
20
-1.26071452517491
30
0
41
1
10
60.2070431151894
20
-1.19290978850219
30
0
41
1
10
60.2087791432886
20
-1.14752415173072
30
0
41
1
10
60.2326874213589
20
-1.06902674667089
30
0
41
1
10
60.2544447586971
20
-1.03591379219466
30
0
41
1
10
60.3064774642058
20
-0.984042532398803
30
0
41
1
10
60.3367304727693
20
-0.96443417498395
30
0
41
1
10
60.4013580208807
20
-0.933254297752995
30
0
41
1
10
60.4356539736576
20
-0.921823916832352
30
0
41
1
10
60.5054279487359
20
-0.904672177027805
30
0
41
1
10
60.5409458749354
20
-0.898937697911265
30
0
41
1
10
60.6488110813918
20
-0.887640189724038
30
0
41
1
10
60.7224611310813
20
-0.887884288812273
30
0
41
1
10
60.9465716248929
20
-0.903209413887311
30
0
41
1
10
61.0958126336592
20
-0.932142701526885
30
0
41
1
10
61.3941035836604
20
-1.01155385737764
30
0
41
1
10
61.5435582158468
20
-1.0627418866386
30
0
41
1
10
61.8404843104912
20
-1.18499409808135
30
0
41
1
10
61.986718262864
20
-1.25541892149442
30
0
41
1
10
62.1302076690717
20
-1.33729267846871
30
0
0
SPLINE
5
CB
100
AcDbEntity
8
1
62
256
6
ByLayer
370
13
48
1
60
0
100
AcDbSpline
70
4
71
3
72
8
73
4
40
0
40
0
40
0
40
0
40
1
40
1
40
1
40
1
41
1
10
2.67190468693113
20
-4.23514818499183
30
0
41
1
10
2.69438907510642
20
-4.22940744698641
30
0
41
1
10
2.71879934563472
20
-4.22954917576638
30
0
41
1
10
2.74369999148814
20
-4.23523343160807
30
0
0
SPLINE
5
CC
100
AcDbEntity
8
1
62
256
6
ByLayer
370
18
48
1
60
0
100
AcDbSpline
70
4
71
3
72
34
73
30
40
0
40
0
40
0
40
0
40
0.0624999999999999
40
0.0624999999999999
40
0.125
40
0.1875
40
0.1875
40
0.21875
40
0.21875
40
0.25
40
0.25
40
0.375
40
0.375
40
0.4375
40
0.4375
40
0.5
40
0.5
40
0.625
40
0.625
40
0.65625
40
0.65625
40
0.6875
40
0.6875
40
0.75
40
0.8125
40
0.8125
40
0.875
40
0.875
40
1
40
1
40
1
40
1
41
1
10
2.54110482591955
20
-4.25145048165291
30
0
41
1
10
2.54110619395794
20
-4.17166827700018
30
0
41
1
10
2.54110750796883
20
-4.0836017442754
30
0
41
1
10
2.54111000525444
20
-3.89421564279155
30
0
41
1
10
2.54111237940657
20
-3.6912833230775
30
0
41
1
10
2.54111455968402
20
-3.46182947710574
30
0
41
1
10
2.5411161407809
20
-3.27967600151095
30
0
41
1
10
2.54111665878648
20
-3.21727759405127
30
0
41
1
10
2.54111767978514
20
-3.08905706909181
30
0
41
1
10
2.5411181838424
20
-3.02307854075659
30
0
41
1
10
2.54112064649496
20
-2.68827341764711
30
0
41
1
10
2.54112245494278
20
-2.40262931684498
30
0
41
1
10
2.5411250743021
20
-1.94808094117232
30
0
41
1
10
2.54112593253694
20
-1.79193771536572
30
0
41
1
10
2.54112762958812
20
-1.47155669926917
30
0
41
1
10
2.54112845594412
20
-1.30971352263052
30
0
41
1
10
2.54113089143323
20
-0.819398145095676
30
0
41
1
10
2.54113246050613
20
-0.486192308719296
30
0
41
1
10
2.54113437467839
20
-0.061537376455135
30
0
41
1
10
2.54113475476081
20
0.0237897061636545
30
0
41
1
10
2.54113550005357
20
0.19323244759903
30
0
41
1
10
2.54113586642876
20
0.277604645590628
30
0
41
1
10
2.54113694563836
20
0.529691268775821
30
0
41
1
10
2.54113833195839
20
0.863065614010395
30
0
41
1
10
2.54113958892384
20
1.19100596294382
30
0
41
1
10
2.54114076009392
20
1.51616228290038
30
0
41
1
10
2.54114130256323
20
1.6775008898002
30
0
41
1
10
2.54114272411127
20
2.14590392103389
30
0
41
1
10
2.54114341643563
20
2.44145398124397
30
0
41
1
10
2.54114372891155
20
2.72025376461781
30
0
0
SPLINE
5
CD
100
AcDbEntity
8
1
62
256
6
ByLayer
370
18
48
1
60
0
100
AcDbSpline
70
4
71
3
72
8
73
4
40
0
40
0
40
0
40
0
40
1
40
1
40
1
40
1
41
1
10
2.54130606493891
20
-4.25514473585329
30
0
41
1
10
2.54117201428295
20
-4.25391638419745
30
0
41
1
10
2.5411048047653
20
-4.2526841690615
30
0
41
1
10
2.54110482591955
20
-4.25145048165285
30
0
0
SPLINE
5
CE
100
AcDbEntity
8
1
62
256
6
ByLayer
370
18
48
1
60
0
100
AcDbSpline
70
4
71
3
72
98
73
94
40
0
40
0
40
0
40
0
40
0.0103726974876496
40
0.0103726974876496
40
0.0314129296586135
40
0.0314129296586135
40
0.0524531618295773
40
0.0524531618295773
40
0.0945336261715051
40
0.0945336261715051
40
0.115573858342469
40
0.115573858342469
40
0.136614090513433
40
0.136614090513433
40
0.157654322684397
40
0.157654322684397
40
0.17869455485536
40
0.17869455485536
40
0.199734787026324
40
0.199734787026324
40
0.220775019197288
40
0.220775019197288
40
0.241815251368252
40
0.241815251368252
40
0.262855483539216
40
0.262855483539216
40
0.28389571571018
40
0.28389571571018
40
0.304935947881143
40
0.304935947881143
40
0.325976180052107
40
0.325976180052107
40
0.347016412223071
40
0.347016412223071
40
0.368056644394035
40
0.368056644394035
40
0.389096876564999
40
0.389096876564999
40
0.410137108735963
40
0.410137108735963
40
0.431177340906927
40
0.431177340906927
40
0.45221757307789
40
0.45221757307789
40
0.473257805248854
40
0.473257805248854
40
0.494298037419818
40
0.494298037419818
40
0.515338269590782
40
0.515338269590782
40
0.536378501761746
40
0.536378501761746
40
0.557418733932709
40
0.557418733932709
40
0.578458966103673
40
0.578458966103673
40
0.599499198274637
40
0.599499198274637
40
0.620539430445601
40
0.620539430445601
40
0.641579662616565
40
0.641579662616565
40
0.662619894787529
40
0.662619894787529
40
0.683660126958493
40
0.683660126958493
40
0.704700359129456
40
0.704700359129456
40
0.72574059130042
40
0.72574059130042
40
0.746780823471384
40
0.746780823471384
40
0.767821055642348
40
0.767821055642348
40
0.809901519984277
40
0.809901519984277
40
0.851981984326205
40
0.851981984326205
40
0.873022216497169
40
0.873022216497169
40
0.894062448668133
40
0.894062448668133
40
0.915102680839097
40
0.915102680839097
40
0.936142913010061
40
0.936142913010061
40
0.957183145181025
40
0.957183145181025
40
0.978223377351988
40
0.978223377351988
40
0.999263609522952
40
0.999263609522952
40
1
40
1
40
1
40
1
41
1
10
52.9124906852296
20
-3.48542344505387
30
0
41
1
10
52.7971042608345
20
-3.52523760248275
30
0
41
1
10
52.6815823633797
20
-3.56414699338759
30
0
41
1
10
52.3313056033628
20
-3.6791801403663
30
0
41
1
10
52.0959974927432
20
-3.75269284046254
30
0
41
1
10
51.6261863016931
20
-3.89121377162726
30
0
41
1
10
51.3914358002873
20
-3.95634267205122
30
0
41
1
10
50.6875959988293
20
-4.13888040080951
30
0
41
1
10
50.2195877942959
20
-4.24389499281256
30
0
41
1
10
49.5150860030792
20
-4.37048692321886
30
0
41
1
10
49.2796613989188
20
-4.40733446596769
30
0
41
1
10
48.8088025247843
20
-4.47055902647998
30
0
41
1
10
48.57373034473
20
-4.49808924601061
30
0
41
1
10
48.103631627223
20
-4.54379146768684
30
0
41
1
10
47.8683965973958
20
-4.56180143960373
30
0
41
1
10
47.3975184638373
20
-4.58682694197663
30
0
41
1
10
47.1623530687326
20
-4.59376846305696
30
0
41
1
10
46.6927422685781
20
-4.59893545089642
30
0
41
1
10
46.4584010894014
20
-4.5967896568466
30
0
41
1
10
45.9894015166806
20
-4.58188149819779
30
0
41
1
10
45.7547721903512
20
-4.56903312345648
30
0
41
1
10
45.2850417780453
20
-4.53261237939921
30
0
41
1
10
45.0500153856312
20
-4.50955652181858
30
0
41
1
10
44.5798300164685
20
-4.45408380318906
30
0
41
1
10
44.3446137561839
20
-4.42151396643456
30
0
41
1
10
43.8757661535852
20
-4.34659365518675
30
0
41
1
10
43.641862009396
20
-4.30395530506831
30
0
41
1
10
43.1749437624371
20
-4.21030824986579
30
0
41
1
10
42.941993781037
20
-4.15928268235965
30
0
41
1
10
42.4770337524429
20
-4.04813940030661
30
0
41
1
10
42.2447869254864
20
-3.98817548368677
30
0
41
1
10
41.780210738479
20
-3.85932927185379
30
0
41
1
10
41.5479134249729
20
-3.790711717427
30
0
41
1
10
41.0834685142452
20
-3.64606166115104
30
0
41
1
10
40.8514242471519
20
-3.56973781737031
30
0
41
1
10
40.3869104196977
20
-3.40897318966324
30
0
41
1
10
40.1542345001213
20
-3.32453740268983
30
0
41
1
10
39.687992557955
20
-3.14871006769727
30
0
41
1
10
39.4545449252675
20
-3.05775407439799
30
0
41
1
10
38.9868595673093
20
-2.86839544800532
30
0
41
1
10
38.7527171981807
20
-2.76982424045258
30
0
41
1
10
38.2824951977358
20
-2.56618044819558
30
0
41
1
10
38.0470760898428
20
-2.46135736484396
30
0
41
1
10
37.5780842965114
20
-2.24821977558946
30
0
41
1
10
37.3441618657973
20
-2.1394772296851
30
0
41
1
10
36.8775706226053
20
-1.91714896721302
30
0
41
1
10
36.644864197747
20
-1.80361469722854
30
0
41
1
10
36.1795263477148
20
-1.57387373035712
30
0
41
1
10
35.9470052372177
20
-1.45765121429784
30
0
41
1
10
35.4822346293087
20
-1.2224112656713
30
0
41
1
10
35.2500118742941
20
-1.10328571083011
30
0
41
1
10
34.7857588837723
20
-0.862123729746884
30
0
41
1
10
34.5534796484956
20
-0.740484323251337
30
0
41
1
10
34.0883130884419
20
-0.496288888616704
30
0
41
1
10
33.8554915574245
20
-0.373603018075443
30
0
41
1
10
33.3891360278289
20
-0.127005574582853
30
0
41
1
10
33.1556806747213
20
-0.0029302911216575
30
0
41
1
10
32.687583672067
20
0.245584889282213
30
0
41
1
10
32.4528922664501
20
0.369726612318118
30
0
41
1
10
31.9821271775757
20
0.617574474724876
30
0
41
1
10
31.7466635784211
20
0.740883929901287
30
0
41
1
10
31.2768000250359
20
0.98525191934533
30
0
41
1
10
31.0423071001145
20
1.10660565504361
30
0
41
1
10
30.5731524441688
20
1.34626646340689
30
0
41
1
10
30.3385474631446
20
1.46477743402852
30
0
41
1
10
29.8690231333397
20
1.69813602343689
30
0
41
1
10
29.6340773801833
20
1.81285843641817
30
0
41
1
10
29.1638957846699
20
2.03866357585807
30
0
41
1
10
28.9283807403232
20
2.15000331366727
30
0
41
1
10
28.458626214343
20
2.36691634263181
30
0
41
1
10
28.2242876719292
20
2.47266561753145
30
0
41
1
10
27.75664994274
20
2.67702891397329
30
0
41
1
10
27.5233609482257
20
2.77568922400579
30
0
41
1
10
26.824970003481
20
3.06433724705931
30
0
41
1
10
26.360360479161
20
3.24493596957518
30
0
41
1
10
25.4307162303294
20
3.57168411744974
30
0
41
1
10
24.9667196955115
20
3.72305675916979
30
0
41
1
10
24.2676823149184
20
3.92319993519908
30
0
41
1
10
24.0340944095536
20
3.98477518021019
30
0
41
1
10
23.5663184244926
20
4.1006041500909
30
0
41
1
10
23.3322726097236
20
4.15500802712319
30
0
41
1
10
22.8626696718055
20
4.25479342487796
30
0
41
1
10
22.6269497719471
20
4.30032933937312
30
0
41
1
10
22.1566173645791
20
4.37957966154298
30
0
41
1
10
21.9216600280241
20
4.41394056119648
30
0
41
1
10
21.452374936324
20
4.47449048178649
30
0
41
1
10
21.2180476308101
20
4.50032052417029
30
0
41
1
10
20.748882676735
20
4.5419589493203
30
0
41
1
10
20.5140588764102
20
4.55705588220627
30
0
41
1
10
20.0438269960762
20
4.57657003455185
30
0
41
1
10
19.8084178721753
20
4.58193476361515
30
0
41
1
10
19.5649995051283
20
4.58251084086447
30
0
41
1
10
19.55676859468
20
4.58252454646146
30
0
41
1
10
19.5485381062882
20
4.58253243293689
30
0
0
SPLINE
5
CF
100
AcDbEntity
8
1
62
256
6
ByLayer
370
18
48
1
60
0
100
AcDbSpline
70
4
71
3
72
10
73
6
40
0
40
0
40
0
40
0
40
0.670803348233048
40
0.670803348233048
40
1
40
1
40
1
40
1
41
1
10
61.4096071774769
20
-4.60485539195204
30
0
41
1
10
60.1830689219629
20
-4.62621493372461
30
0
41
1
10
58.9759157630276
20
-4.50778261435872
30
0
41
1
10
57.1723043598267
20
-4.14442347613533
30
0
41
1
10
56.5778064217045
20
-3.99453099667457
30
0
41
1
10
55.9797684227875
20
-3.81633200698454
30
0
0
SPLINE
5
D0
100
AcDbEntity
8
1
62
256
6
ByLayer
370
13
48
1
60
0
100
AcDbSpline
70
4
71
3
72
26
73
22
40
0
40
0
40
0
40
0
40
0.002779678905972
40
0.002779678905972
40
0.0779054927287699
40
0.0779054927287699
40
0.115468399640169
40
0.115468399640169
40
0.153031306551568
40
0.153031306551568
40
0.453534561842746
40
0.453534561842746
40
0.603786189488336
40
0.603786189488336
40
0.641349096399731
40
0.641349096399731
40
0.678912003311128
40
0.678912003311128
40
0.754037817133922
40
0.754037817133922
40
1
40
1
40
1
40
1
41
1
10
55.9797682142567
20
-3.81633194484803
30
0
41
1
10
55.96849587521
20
-3.81297309556987
30
0
41
1
10
55.9572222784511
20
-3.8096041895603
30
0
41
1
10
55.641223713274
20
-3.71490306085644
30
0
41
1
10
55.3355890306125
20
-3.61622318919248
30
0
41
1
10
54.8751867872669
20
-3.45763682434003
30
0
41
1
10
54.7211597810319
20
-3.40292805896126
30
0
41
1
10
54.4137205005739
20
-3.29057301864861
30
0
41
1
10
54.2603259874554
20
-3.23293943754743
30
0
41
1
10
52.8822720929765
20
-2.70185392593908
30
0
41
1
10
51.6751223130956
20
-2.1413817731212
30
0
41
1
10
49.8557333589707
20
-1.22977806652281
30
0
41
1
10
49.2478734992566
20
-0.91399083755465
30
0
41
1
10
48.4827361484872
20
-0.510662572676836
30
0
41
1
10
48.3294348984173
20
-0.429585935632843
30
0
41
1
10
48.0221837647871
20
-0.266794484874737
30
0
41
1
10
47.8680626009035
20
-0.184986737132107
30
0
41
1
10
47.4071564154761
20
0.059764733337488
30
0
41
1
10
47.1011472335196
20
0.222400776425246
30
0
41
1
10
45.7971800548992
20
0.912647126344353
30
0
41
1
10
44.8075900111841
20
1.42788508533667
30
0
41
1
10
43.8149704314115
20
1.90720047614783
30
0
0
SPLINE
5
D1
100
AcDbEntity
8
1
62
256
6
ByLayer
370
18
48
1
60
0
100
AcDbSpline
70
4
71
3
72
14
73
10
40
0
40
0
40
0
40
0
40
0.0581581673761796
40
0.0581581673761796
40
0.293618625532135
40
0.293618625532135
40
0.529079083688091
40
0.529079083688091
40
1
40
1
40
1
40
1
41
1
10
6.70621408992542
20
-4.57338956978819
30
0
41
1
10
6.63086095715411
20
-4.57327435895172
30
0
41
1
10
6.55547092990133
20
-4.57263829682364
30
0
41
1
10
6.174641126621
20
-4.56678815638386
30
0
41
1
10
5.86854571121921
20
-4.55351983596285
30
0
41
1
10
5.25428649695573
20
-4.50980551833376
30
0
41
1
10
4.94564748574714
20
-4.47928114157219
30
0
41
1
10
4.02200643995991
20
-4.36267227912569
30
0
41
1
10
3.40746257895097
20
-4.25156133565284
30
0
41
1
10
2.79131348020113
20
-4.1082859866699
30
0
0
SPLINE
5
D2
100
AcDbEntity
8
1
62
256
6
ByLayer
370
18
48
1
60
0
100
AcDbSpline
70
4
71
3
72
42
73
38
40
0
40
0
40
0
40
0
40
0.125000000000001
40
0.125000000000001
40
0.187500000000003
40
0.187500000000003
40
0.250000000000006
40
0.250000000000006
40
0.500000000000026
40
0.500000000000026
40
0.56250000000003
40
0.56250000000003
40
0.625000000000033
40
0.625000000000033
40
0.750000000000046
40
0.750000000000046
40
0.812500000000049
40
0.812500000000049
40
0.843750000000054
40
0.843750000000054
40
0.859375000000056
40
0.859375000000056
40
0.867187500000055
40
0.867187500000055
40
0.875000000000054
40
0.875000000000054
40
0.882812500000052
40
0.882812500000052
40
0.88671875000005
40
0.88671875000005
40
0.890625000000049
40
0.890625000000049
40
0.906250000000042
40
0.906250000000042
40
0.937500000000028
40
0.937500000000028
40
1
40
1
40
1
40
1
41
1
10
56.7521413956482
20
1.8601315529267
30
0
41
1
10
56.9396985014264
20
1.68213276393544
30
0
41
1
10
57.1333514672215
20
1.51555333199522
30
0
41
1
10
57.4327986850403
20
1.28248348021688
30
0
41
1
10
57.5341213400875
20
1.20761643061348
30
0
41
1
10
57.7398426914319
20
1.06364467063983
30
0
41
1
10
57.8446048106677
20
0.994314880695555
30
0
41
1
10
58.3714575320546
20
0.66590859779447
30
0
41
1
10
58.8008405602963
20
0.461962530268608
30
0
41
1
10
59.348481061641
20
0.288208453959697
30
0
41
1
10
59.4585678540794
20
0.25761406987894
30
0
41
1
10
59.6799698640272
20
0.205564259714521
30
0
41
1
10
59.7917306796869
20
0.184039056806114
30
0
41
1
10
60.1246028449593
20
0.135704330622673
30
0
41
1
10
60.3437319837556
20
0.125072297194663
30
0
41
1
10
60.6675273711422
20
0.147090493010978
30
0
41
1
10
60.7742979358804
20
0.160796854673976
30
0
41
1
10
60.9314579797868
20
0.191732851589279
30
0
41
1
10
60.9833099761995
20
0.203765571325448
30
0
41
1
10
61.060206454964
20
0.224506573591071
30
0
41
1
10
61.0856978357289
20
0.231870985182638
30
0
41
1
10
61.1236819342298
20
0.243599440202075
30
0
41
1
10
61.1363033455705
20
0.247623214169209
30
0
41
1
10
61.1614574446255
20
0.255899473383806
30
0
41
1
10
61.1742427019043
20
0.259534361872085
30
0
41
1
10
61.1981776768892
20
0.270757261437638
30
0
41
1
10
61.208888516177
20
0.27966320436289
30
0
41
1
10
61.21949850019
20
0.298724488272995
30
0
41
1
10
61.2219527959712
20
0.305812576901872
30
0
41
1
10
61.2245990753603
20
0.321523612357737
30
0
41
1
10
61.2252932670155
20
0.329658864888188
30
0
41
1
10
61.2295375486421
20
0.369942186511395
30
0
41
1
10
61.2329481289169
20
0.402170523731599
30
0
41
1
10
61.2413302628345
20
0.499503062374828
30
0
41
1
10
61.2453016669353
20
0.564856672795599
30
0
41
1
10
61.2528598145844
20
0.762171096829633
30
0
41
1
10
61.2520787522955
20
0.895760709450116
30
0
41
1
10
61.2466181686935
20
1.02928433823482
30
0
0
SPLINE
5
D3
100
AcDbEntity
8
1
62
256
6
ByLayer
370
18
48
1
60
0
100
AcDbSpline
70
4
71
3
72
10
73
6
40
0
40
0
40
0
40
0
40
0.5
40
0.5
40
1
40
1
40
1
40
1
41
1
10
62.9997906084908
20
0.0398521049101532
30
0
41
1
10
62.9967026047028
20
0.0234811244199022
30
0
41
1
10
62.9920315934716
20
0.005731956052756
30
0
41
1
10
62.9797138559383
20
-0.0286691492516127
30
0
41
1
10
62.9720254540691
20
-0.0451587543099663
30
0
41
1
10
62.9642125528355
20
-0.0579940483335974
30
0
0
SPLINE
5
D4
100
AcDbEntity
8
1
62
256
6
ByLayer
370
18
48
1
60
0
100
AcDbSpline
70
4
71
3
72
8
73
4
40
0
40
0
40
0
40
0
40
1
40
1
40
1
40
1
41
1
10
62.8405913378107
20
1.15780512359908
30
0
41
1
10
62.8338932646048
20
1.13281804249135
30
0
41
1
10
62.8270629281792
20
1.10788253998132
30
0
41
1
10
62.8201041665982
20
1.08299766055558
30
0
0
SPLINE
5
D5
100
AcDbEntity
8
SK1
62
256
6
ByLayer
370
18
48
1
60
0
100
AcDbSpline
70
4
71
3
72
14
73
10
40
0
40
0
40
0
40
0
40
0.124999999999997
40
0.124999999999997
40
0.249999999999993
40
0.249999999999993
40
0.499999999999993
40
0.499999999999993
40
1
40
1
40
1
40
1
41
1
10
-38.85
20
-4.98330956529617
30
0
41
1
10
-38.85
20
-4.98266414650723
30
0
41
1
10
-38.8517453396944
20
-4.97897260462099
30
0
41
1
10
-38.8568901241517
20
-4.96880948694644
30
0
41
1
10
-38.860211966304
20
-4.9624752780262
30
0
41
1
10
-38.8714485682308
20
-4.94134824779525
30
0
41
1
10
-38.8802054040538
20
-4.92523005358376
30
0
41
1
10
-38.9082792076556
20
-4.87404609069367
30
0
41
1
10
-38.9286347141249
20
-4.83754326983444
30
0
41
1
10
-38.95
20
-4.79980393843624
30
0
0
SPLINE
5
D6
100
AcDbEntity
8
SK1
62
256
6
ByLayer
370
18
48
1
60
0
100
AcDbSpline
70
4
71
3
72
14
73
10
40
0
40
0
40
0
40
0
40
0.499999999999997
40
0.499999999999997
40
0.749999999999995
40
0.749999999999995
40
0.874999999999998
40
0.874999999999998
40
1
40
1
40
1
40
1
41
1
10
-38.9500000000001
20
4.36716735759299
30
0
41
1
10
-38.9287234691649
20
4.40474991337456
30
0
41
1
10
-38.9083432483059
20
4.44340329020542
30
0
41
1
10
-38.880223151313
20
4.50204705954263
30
0
41
1
10
-38.8713218079587
20
4.52161894015043
30
0
41
1
10
-38.8602667834558
20
4.54886715193746
30
0
41
1
10
-38.8569157654531
20
4.55771812797946
30
0
41
1
10
-38.851744720606
20
4.57381387141021
30
0
41
1
10
-38.8499999999999
20
4.58091225928291
30
0
41
1
10
-38.8499999999999
20
4.58528391092045
30
0
0
SPLINE
5
D7
100
AcDbEntity
8
SK1
62
256
6
ByLayer
370
18
48
1
60
0
100
AcDbSpline
70
4
71
3
72
14
73
10
40
0
40
0
40
0
40
0
40
0.125000000000003
40
0.125000000000003
40
0.250000000000007
40
0.250000000000007
40
0.500000000000007
40
0.500000000000007
40
1
40
1
40
1
40
1
41
1
10
-38.85
20
4.98330956529617
30
0
41
1
10
-38.85
20
4.98266414650723
30
0
41
1
10
-38.8517453396944
20
4.97897260462099
30
0
41
1
10
-38.8568901241517
20
4.96880948694644
30
0
41
1
10
-38.860211966304
20
4.9624752780262
30
0
41
1
10
-38.8714485682308
20
4.94134824779525
30
0
41
1
10
-38.8802054040538
20
4.92523005358376
30
0
41
1
10
-38.9082792076556
20
4.87404609069367
30
0
41
1
10
-38.9286347141249
20
4.83754326983444
30
0
41
1
10
-38.95
20
4.79980393843624
30
0
0
SPLINE
5
D8
100
AcDbEntity
8
SK1
62
256
6
ByLayer
370
18
48
1
60
0
100
AcDbSpline
70
4
71
3
72
10
73
6
40
0
40
0
40
0
40
0
40
0.5
40
0.5
40
1
40
1
40
1
40
1
41
1
10
-38.95
20
-4.79980393843624
30
0
41
1
10
-39.1280962163297
20
-4.48521736243094
30
0
41
1
10
-39.3053154317856
20
-4.17012615248666
30
0
41
1
10
-39.6562589046849
20
-3.53808949163005
30
0
41
1
10
-39.8300777059524
20
-3.22122120056699
30
0
41
1
10
-40
20
-2.90234927512944
30
0
0
SPLINE
5
D9
100
AcDbEntity
8
SK1
62
256
6
ByLayer
370
18
48
1
60
0
100
AcDbSpline
70
4
71
3
72
10
73
6
40
0
40
0
40
0
40
0
40
0.5
40
0.5
40
1
40
1
40
1
40
1
41
1
10
-38.95
20
4.79980393843624
30
0
41
1
10
-39.1280962163297
20
4.48521736243094
30
0
41
1
10
-39.3053154317856
20
4.17012615248666
30
0
41
1
10
-39.6562589046849
20
3.53808949163005
30
0
41
1
10
-39.8300777059524
20
3.22122120056699
30
0
41
1
10
-40
20
2.90234927512944
30
0
0
SPLINE
5
DA
100
AcDbEntity
8
SK1
62
256
6
ByLayer
370
18
48
1
60
0
100
AcDbSpline
70
4
71
3
72
10
73
6
40
0
40
0
40
0
40
0
40
0.5
40
0.5
40
1
40
1
40
1
40
1
41
1
10
-40
20
2.46971269428613
30
0
41
1
10
-39.8300227795659
20
2.78868769320633
30
0
41
1
10
-39.656195401319
20
3.10556808136738
30
0
41
1
10
-39.3052789843856
20
3.73755440859361
30
0
41
1
10
-39.1280838487608
20
4.05260262748232
30
0
41
1
10
-38.95
20
4.36716735759296
30
0
0
LINE
5
76
100
AcDbEntity
8
81
62
256
6
ByLayer
370
18
48
1
60
0
100
AcDbLine
10
63
20
0
30
0
11
68
21
0
31
0
39
0
210
0
220
0
230
1
0
LINE
5
77
100
AcDbEntity
8
1
62
256
6
ByLayer
370
18
48
1
60
0
100
AcDbLine
10
6.509478
20
4.815605
30
0
11
0.100062
21
4.811599
31
0
39
0
210
0
220
0
230
1
0
LINE
5
79
100
AcDbEntity
8
1
62
256
6
ByLayer
370
18
48
1
60
0
100
AcDbLine
10
0.100062
20
-4.811599
30
0
11
6.509728
21
-4.815605
31
0
39
0
210
0
220
0
230
1
0
LINE
5
7A
100
AcDbEntity
8
1
62
256
6
ByLayer
370
18
48
1
60
0
100
AcDbLine
10
33.710019
20
4.832606
30
0
11
32.320311
21
4.831737
31
0
39
0
210
0
220
0
230
1
0
LINE
5
7B
100
AcDbEntity
8
1
62
256
6
ByLayer
370
18
48
1
60
0
100
AcDbLine
10
60.910386
20
4.849606
30
0
11
59.51633
21
4.848735
31
0
39
0
210
0
220
0
230
1
0
LINE
5
7C
100
AcDbEntity
8
1
62
256
6
ByLayer
370
18
48
1
60
0
100
AcDbLine
10
59.51633
20
-4.848735
30
0
11
60.910533
21
-4.849606
31
0
39
0
210
0
220
0
230
1
0
LINE
5
7D
100
AcDbEntity
8
1
62
256
6
ByLayer
370
18
48
1
60
0
100
AcDbLine
10
32.320311
20
-4.831737
30
0
11
33.709622
21
-4.832605
31
0
39
0
210
0
220
0
230
1
0
LINE
5
7E
100
AcDbEntity
8
SK1
62
256
6
ByLayer
370
18
48
1
60
0
100
AcDbLine
10
-38.845299
20
5
30
0
11
-38.85
21
4.991858
31
0
39
0
210
0
220
0
230
1
0
LINE
5
80
100
AcDbEntity
8
SK1
62
256
6
ByLayer
370
18
48
1
60
0
100
AcDbLine
10
-38.85
20
-4.991858
30
0
11
-38.845299
21
-5
31
0
39
0
210
0
220
0
230
1
0
LINE
5
81
100
AcDbEntity
8
SK1
62
256
6
ByLayer
370
18
48
1
60
0
100
AcDbLine
10
0
20
5
30
0
11
-38.845299
21
5
31
0
39
0
210
0
220
0
230
1
0
LINE
5
82
100
AcDbEntity
8
SK1
62
256
6
ByLayer
370
18
48
1
60
0
100
AcDbLine
10
-38.845299
20
-5
30
0
11
0
21
-5
31
0
39
0
210
0
220
0
230
1
0
LINE
5
83
100
AcDbEntity
8
SK4
62
256
6
ByLayer
370
18
48
0.05
60
0
100
AcDbLine
10
68
20
0
30
0
11
-45
21
0
31
0
39
0
210
0
220
0
230
1
0
LINE
5
85
100
AcDbEntity
8
4
62
256
6
ByLayer
370
18
48
0.05
60
0
100
AcDbLine
10
63
20
0
30
0
11
0
21
0
31
0
39
0
210
0
220
0
230
1
0
LINE
5
87
100
AcDbEntity
8
80
62
256
6
ByLayer
370
18
48
1
60
0
100
AcDbLine
10
0
20
0
30
0
11
-5
21
0
31
0
39
0
210
0
220
0
230
1
0
LINE
5
88
100
AcDbEntity
8
1
62
256
6
ByLayer
370
13
48
1
60
0
100
AcDbLine
10
61.383145
20
1.124672
30
0
11
62.992729
21
0.105767
31
0
39
0
210
0
220
0
230
1
0
LINE
5
89
100
AcDbEntity
8
1
62
256
6
ByLayer
370
13
48
1
60
0
100
AcDbLine
10
61.246618
20
1.029284
30
0
11
62.964213
21
-0.057994
31
0
39
0
210
0
220
0
230
1
0
LINE
5
8A
100
AcDbEntity
8
1
62
256
6
ByLayer
370
13
48
1
60
0
100
AcDbLine
10
0.100062
20
4.811599
30
0
11
0.100062
21
-4.811599
31
0
39
0
210
0
220
0
230
1
0
LINE
5
8B
100
AcDbEntity
8
SK1
62
256
6
ByLayer
370
18
48
1
60
0
100
AcDbLine
10
-40
20
2.902349
30
0
11
-40
21
2.469646
31
0
39
0
210
0
220
0
230
1
0
LINE
5
8C
100
AcDbEntity
8
SK1
62
256
6
ByLayer
370
18
48
1
60
0
100
AcDbLine
10
-38.845299
20
5
30
0
11
-38.845299
21
-5
31
0
39
0
210
0
220
0
230
1
0
LINE
5
8D
100
AcDbEntity
8
SK1
62
256
6
ByLayer
370
18
48
1
60
0
100
AcDbLine
10
-40
20
2.469713
30
0
11
-40
21
-2.902349
31
0
39
0
210
0
220
0
230
1
0
LINE
5
8E
100
AcDbEntity
8
SK1
62
256
6
ByLayer
370
18
48
1
60
0
100
AcDbLine
10
-38.85
20
4.991858
30
0
11
-38.85
21
4.585284
31
0
39
0
210
0
220
0
230
1
0
LINE
5
8F
100
AcDbEntity
8
SK1
62
256
6
ByLayer
370
18
48
1
60
0
100
AcDbLine
10
0
20
5
30
0
11
0
21
-5
31
0
39
0
210
0
220
0
230
1
0
LINE
5
90
100
AcDbEntity
8
SK1
62
256
6
ByLayer
370
13
48
1
60
0
100
AcDbLine
10
-38.95
20
4.799804
30
0
11
-38.95
21
4.367094
31
0
39
0
210
0
220
0
230
1
0
LINE
5
91
100
AcDbEntity
8
SK1
62
256
6
ByLayer
370
18
48
1
60
0
100
AcDbLine
10
-38.85
20
-4.98331
30
0
11
-38.85
21
-4.991858
31
0
39
0
210
0
220
0
230
1
0
MTEXT
5
DB
100
AcDbEntity
8
SK6
62
256
6
ByLayer
370
13
48
1
60
0
100
AcDbMText
10
13.629169
20
37.232694
30
0
210
0
220
0
230
1
1
\W0.7585;460.1-0970-049A1-XM GC34
40
3.5
41
0
44
1.084337
50
0
71
8
72
5
7
iso_b_vert
0
DIMENSION
5
E8
100
AcDbEntity
8
SK2
62
256
6
ByLayer
370
13
48
1
60
0
100
AcDbDimension
2
DimnDraft3D1
10
61.5612
20
-15.063398
30
0
11
29.311259
21
-15.063398
31
0
70
32
71
5
72
1
41
1
210
0
220
0
230
1
3
Standard
100
AcDbAlignedDimension
13
0
23
-1.5875
33
0
14
61.5612
24
-6.4375
34
0
50
0
100
AcDbRotatedDimension
1001
ACAD
1000
DSTYLE
1002
{
1070
   279
1070
     0
1070
   172
1070
     1
1070
   173
1070
     1
1070
   340
1005
DC
1070
   271
1070
     2
1070
   272
1070
     2
1070
    77
1070
     1
1070
    73
1070
     0
1070
   171
1070
     3
1070
   274
1070
     4
1070
   177
1070
    35
1070
   176
1070
    35
1070
   178
1070
    35
1070
    48
1040
-0.005
1070
    41
1041
3.5
1070
   147
1041
1.75
1070
    42
1041
1.5875
1070
    44
1041
2.0
1070
   140
1041
3.5
1070
   343
1005
0
1070
   344
1005
0
1002
}
0
DIMENSION
5
F2
100
AcDbEntity
8
SK2
62
256
6
ByLayer
370
13
48
1
60
0
100
AcDbDimension
2
DimnDraft3D2
10
63
20
-33.692985
30
0
11
11.4025
21
-33.692985
31
0
70
32
71
5
72
1
41
1
210
0
220
0
230
1
3
Standard
100
AcDbAlignedDimension
13
-40
23
-6.5875
33
0
14
63
24
-1.5875
34
0
50
0
100
AcDbRotatedDimension
1001
ACAD
1000
DSTYLE
1002
{
1070
   279
1070
     0
1070
   172
1070
     1
1070
   173
1070
     1
1070
   340
1005
DC
1070
   271
1070
     2
1070
   272
1070
     2
1070
    77
1070
     1
1070
    73
1070
     0
1070
   171
1070
     3
1070
   274
1070
     4
1070
   177
1070
    35
1070
   176
1070
    35
1070
   178
1070
    35
1070
    48
1040
-0.005
1070
    41
1041
3.5
1070
   147
1041
1.75
1070
    42
1041
1.5875
1070
    44
1041
2.0
1070
   140
1041
3.5
1070
   343
1005
0
1070
   344
1005
0
1002
}
0
DIMENSION
5
FC
100
AcDbEntity
8
SK2
62
256
6
ByLayer
370
13
48
1
60
0
100
AcDbDimension
2
DimnDraft3D3
10
63
20
16.459119
30
0
11
38.805
21
16.459119
31
0
70
32
71
5
72
1
41
1
210
0
220
0
230
1
3
Standard
100
AcDbAlignedDimension
13
14.61
23
6.4375
33
0
14
63
24
1.5875
34
0
50
0
100
AcDbRotatedDimension
1001
ACAD
1000
DSTYLE
1002
{
1070
   279
1070
     0
1070
   172
1070
     1
1070
   173
1070
     1
1070
   340
1005
DC
1070
   271
1070
     2
1070
   272
1070
     2
1070
    77
1070
     1
1070
    73
1070
     0
1070
   171
1070
     3
1070
   274
1070
     4
1070
   177
1070
    35
1070
   176
1070
    35
1070
   178
1070
    35
1070
    48
1040
-0.005
1070
    41
1041
3.5
1070
   147
1041
1.75
1070
    42
1041
1.5875
1070
    44
1041
2.0
1070
   140
1041
3.5
1070
   343
1005
0
1070
   344
1005
0
1002
}
0
DIMENSION
5
106
100
AcDbEntity
8
SK2
62
256
6
ByLayer
370
13
48
1
60
0
100
AcDbDimension
2
DimnDraft3D4
10
61.5612
20
-17.652503
30
0
11
72.981425
21
-17.652503
31
0
70
32
71
5
72
1
41
1
210
0
220
0
230
1
3
Standard
100
AcDbAlignedDimension
13
63
23
-1.5875
33
0
14
61.5612
24
-6.4375
34
0
50
0
100
AcDbRotatedDimension
1001
ACAD
1000
DSTYLE
1002
{
1070
   279
1070
     0
1070
   172
1070
     1
1070
   173
1070
     1
1070
   340
1005
DC
1070
   271
1070
     2
1070
   272
1070
     2
1070
    77
1070
     1
1070
    73
1070
     0
1070
   171
1070
     3
1070
   274
1070
     4
1070
   177
1070
    35
1070
   176
1070
    35
1070
   178
1070
    35
1070
    48
1040
-0.005
1070
    41
1041
3.5
1070
   147
1041
1.75
1070
    42
1041
1.5875
1070
    44
1041
2.0
1070
   140
1041
3.5
1070
   343
1005
0
1070
   344
1005
0
1002
}
0
DIMENSION
5
110
100
AcDbEntity
8
SK2
62
256
6
ByLayer
370
13
48
1
60
0
100
AcDbDimension
2
DimnDraft3D5
10
61.5612
20
-23.343428
30
0
11
8.321876
21
-23.343428
31
0
70
32
71
5
72
1
41
1
210
0
220
0
230
1
3
Standard
100
AcDbAlignedDimension
13
-40
23
-6.5875
33
0
14
61.5612
24
-6.4375
34
0
50
0
100
AcDbRotatedDimension
1001
ACAD
1000
DSTYLE
1002
{
1070
   279
1070
     0
1070
   172
1070
     1
1070
   173
1070
     1
1070
   340
1005
DC
1070
   271
1070
     2
1070
   272
1070
     2
1070
    77
1070
     1
1070
    73
1070
     0
1070
   171
1070
     3
1070
   274
1070
     4
1070
   177
1070
    35
1070
   176
1070
    35
1070
   178
1070
    35
1070
    48
1040
-0.005
1070
    41
1041
3.5
1070
   147
1041
1.75
1070
    42
1041
1.5875
1070
    44
1041
2.0
1070
   140
1041
3.5
1070
   343
1005
0
1070
   344
1005
0
1002
}
0
DIMENSION
5
11B
100
AcDbEntity
8
SK2
62
256
6
ByLayer
370
13
48
1
60
0
100
AcDbDimension
2
DimnDraft3D6
10
-50.625163
20
5
30
0
11
-51.250163
21
23.47418
31
0
70
33
71
5
72
1
41
1
210
0
220
0
230
1
3
Standard
100
AcDbAlignedDimension
13
-41.5875
23
-5
33
0
14
-41.5875
24
5
34
0
1001
ACAD
1000
DSTYLE
1002
{
1070
   279
1070
     0
1070
    74
1070
     0
1070
   173
1070
     1
1070
   340
1005
DC
1070
   271
1070
     3
1070
   272
1070
     2
1070
    77
1070
     1
1070
    73
1070
     0
1070
   171
1070
     3
1070
   274
1070
     4
1070
   177
1070
    35
1070
   176
1070
    35
1070
   178
1070
    35
1070
    48
1040
-0.005
1070
    41
1041
3.5
1070
   147
1041
1.75
1070
    42
1041
1.5875
1070
    44
1041
2.0
1070
   140
1041
3.5
1070
   343
1005
0
1070
   344
1005
0
1002
}
0
DIMENSION
5
126
100
AcDbEntity
8
2
62
256
6
ByLayer
370
13
48
1
60
0
100
AcDbDimension
2
DimnDraft3D7
10
77.083343
20
4.85
30
0
11
72.458343
21
21.917266
31
0
70
33
71
5
72
1
41
1
210
0
220
0
230
1
3
Standard
100
AcDbAlignedDimension
13
63.1487
23
-4.85
33
0
14
63.1487
24
4.85
34
0
1001
ACAD
1000
DSTYLE
1002
{
1070
   279
1070
     0
1070
    74
1070
     0
1070
   173
1070
     1
1070
   340
1005
DC
1070
   271
1070
     3
1070
   272
1070
     2
1070
    77
1070
     1
1070
    73
1070
     0
1070
   171
1070
     3
1070
   274
1070
     4
1070
   177
1070
    35
1070
   176
1070
    35
1070
   178
1070
    35
1070
    48
1040
-0.005
1070
    41
1041
3.5
1070
   147
1041
1.75
1070
    42
1041
1.5875
1070
    44
1041
2.0
1070
   140
1041
3.5
1070
   343
1005
0
1070
   344
1005
0
1002
}
0
ENDSEC
0
SECTION
2
OBJECTS
0
DICTIONARY
5
191
330
0
100
AcDbDictionary
280
0
281
1
3
ACAD_GROUP
350
192
3
ACAD_MLINESTYLE
350
193
0
DICTIONARY
5
192
330
0
100
AcDbDictionary
280
0
281
1
0
DICTIONARY
5
193
330
0
100
AcDbDictionary
280
0
281
1
3
Standard
350
18
0
MLINESTYLE
5
18
330
193
100
AcDbMlineStyle
2
Standard
70
0
3

62
256
51
90
52
90
71
2
49
-0.5
62
256
6
ByLayer
49
0.5
62
256
6
ByLayer
0
RASTERVARIABLES
5
17f
330

100
AcDbRasterVariables
90
0
70
1
71
1
72
1
0
ENDSEC
0
EOF
