0
SECTION
2
HEADER
9
$ACADVER
1
AC1015
9
$DWGCODEPAGE
3
ANSI_1252
9
$HANDSEED
5
192
9
$ANGBASE
50
0
9
$ANGDIR
70
0
9
$ATTMODE
70
1
9
$AUNITS
70
0
9
$AUPREC
70
0
9
$CECOLOR
62
256
9
$CELTSCALE
40
1
9
$CELTYPE
6
ByLayer
9
$CELWEIGHT
370
18
9
$CLAYER
8
0
9
$CMLJUST
70
0
9
$CMLSCALE
40
1
9
$CMLSTYLE
2
Standard
9
$DIMSTYLE
2
Standard
9
$TEXTSIZE
40
0.2
9
$TEXTSTYLE
7
Standard
9
$LUNITS
70
2
9
$LUPREC
70
4
9
$EXTNAMES
290
1
9
$INSUNITS
70
4
9
$LTSCALE
40
1
9
$LWDISPLAY
290
1
9
$PDMODE
70
0
9
$PDSIZE
40
0
9
$PLINEGEN
70
0
0
ENDSEC
0
SECTION
2
CLASSES
0
CLASS
1
RASTERVARIABLES
2
AcDbRasterVariables
3
ISM
90
0
280
0
281
0
0
ENDSEC
0
SECTION
2
TABLES
0
TABLE
2
VPORT
5
188
100
AcDbSymbolTable
0
VPORT
5
1
100
AcDbSymbolTableRecord
100
AcDbViewportTableRecord
2
*Active
70
0
10
0
20
0
11
1
21
1
12
-1
22
1
13
0
23
0
14
0.5
24
0.5
15
10
25
10
16
0
26
0
36
1
17
0
27
0
37
0
0
ENDTAB
0
TABLE
2
LTYPE
5
189
100
AcDbSymbolTable
0
LTYPE
5
14
100
AcDbSymbolTableRecord
100
AcDbLinetypeTableRecord
70
0
2
ByBlock
3

72
65
73
0
40
0
0
LTYPE
5
15
100
AcDbSymbolTableRecord
100
AcDbLinetypeTableRecord
70
0
2
ByLayer
3

72
65
73
0
40
0
0
LTYPE
5
16
100
AcDbSymbolTableRecord
100
AcDbLinetypeTableRecord
70
0
2
CONTINUOUS
3
Solid line
72
65
73
0
40
0
0
LTYPE
5
6A
100
AcDbSymbolTableRecord
100
AcDbLinetypeTableRecord
70
0
2
CENTER
3
____ _ ____ _ ____ _ ____
72
65
73
4
40
47.5
49
22
74
0
49
-8.5
74
0
49
8.5
74
0
49
-8.5
74
0
0
LTYPE
5
6B
100
AcDbSymbolTableRecord
100
AcDbLinetypeTableRecord
70
0
2
DASHED
3
__ __ __ __ __ __ __ __ __
72
65
73
2
40
25.72
49
12.86
74
0
49
-12.86
74
0
0
ENDTAB
0
TABLE
2
LAYER
5
18a
100
AcDbSymbolTable
0
LAYER
5
10
100
AcDbSymbolTableRecord
100
AcDbLayerTableRecord
2
0
70
0
62
7
6
CONTINUOUS
290
1
370
-3
390
0
0
LAYER
5
6D
100
AcDbSymbolTableRecord
100
AcDbLayerTableRecord
2
81
70
0
62
-3
6
CONTINUOUS
290
1
370
-3
390
0
0
LAYER
5
6F
100
AcDbSymbolTableRecord
100
AcDbLayerTableRecord
2
80
70
0
62
-6
6
CONTINUOUS
290
1
370
-3
390
0
0
LAYER
5
74
100
AcDbSymbolTableRecord
100
AcDbLayerTableRecord
2
2
70
0
62
7
6
CONTINUOUS
290
1
370
-3
390
0
0
LAYER
5
78
100
AcDbSymbolTableRecord
100
AcDbLayerTableRecord
2
1
70
0
62
4
6
CONTINUOUS
290
1
370
-3
390
0
0
LAYER
5
84
100
AcDbSymbolTableRecord
100
AcDbLayerTableRecord
2
4
70
0
62
-2
6
CENTER
290
1
370
-3
390
0
0
LAYER
5
174
100
AcDbSymbolTableRecord
100
AcDbLayerTableRecord
2
SK2
70
0
62
7
6
CONTINUOUS
290
1
370
-3
390
0
0
LAYER
5
175
100
AcDbSymbolTableRecord
100
AcDbLayerTableRecord
2
SK1
70
0
62
4
6
CONTINUOUS
290
1
370
-3
390
0
0
LAYER
5
176
100
AcDbSymbolTableRecord
100
AcDbLayerTableRecord
2
SK4
70
0
62
2
6
CENTER
290
1
370
-3
390
0
0
LAYER
5
177
100
AcDbSymbolTableRecord
100
AcDbLayerTableRecord
2
SK6
70
0
62
5
6
CONTINUOUS
290
1
370
-3
390
0
0
ENDTAB
0
TABLE
2
STYLE
5
18b
100
AcDbSymbolTable
0
STYLE
5
11
100
AcDbSymbolTableRecord
100
AcDbTextStyleTableRecord
2
Standard
3
txt
70
0
71
0
40
0
41
1
42
0
50
0
0
STYLE
5
D0
100
AcDbSymbolTableRecord
100
AcDbTextStyleTableRecord
2
iso_b_vert
3
simplex.shx
70
0
71
0
40
0
41
1
42
0
50
0
0
STYLE
5
D1
100
AcDbSymbolTableRecord
100
AcDbTextStyleTableRecord
2
DWGDirectTextStyle
3
simplex
70
0
71
0
40
0
41
1
42
0
50
0
0
ENDTAB
0
TABLE
2
DIMSTYLE
5
18c
100
AcDbSymbolTable
100
AcDbDimStyleTable
0
DIMSTYLE
105
27
100
AcDbSymbolTableRecord
100
AcDbDimStyleTableRecord
2
Standard
70
0
3
<>
41
0.18
42
0.0625
44
0.18
140
0.18
147
0.09
73
0
74
0
77
1
271
2
275
0
278
52
280
0
340
11
0
ENDTAB
0
TABLE
2
VIEW
5
18d
100
AcDbSymbolTable
0
ENDTAB
0
TABLE
2
UCS
5
18e
100
AcDbSymbolTable
0
ENDTAB
0
TABLE
2
APPID
5
18f
100
AcDbSymbolTable
0
APPID
5
12
100
AcDbSymbolTableRecord
100
AcDbRegAppTableRecord
2
ACAD
70
0
0
ENDTAB
0
TABLE
2
BLOCK_RECORD
5
190
100
AcDbSymbolTable
0
BLOCK_RECORD
5
1F
100
AcDbSymbolTableRecord
100
AcDbBlockTableRecord
2
*Model_Space
340
0
70
0
0
BLOCK_RECORD
5
1B
100
AcDbSymbolTableRecord
100
AcDbBlockTableRecord
2
*Paper_Space
340
0
70
0
0
BLOCK_RECORD
5
23
100
AcDbSymbolTableRecord
100
AcDbBlockTableRecord
2
*Paper_Space0
340
0
70
0
0
BLOCK_RECORD
5
D3
100
AcDbSymbolTableRecord
100
AcDbBlockTableRecord
2
DimnDraft3D1
340
0
70
0
0
BLOCK_RECORD
5
DD
100
AcDbSymbolTableRecord
100
AcDbBlockTableRecord
2
DimnDraft3D2
340
0
70
0
0
BLOCK_RECORD
5
E7
100
AcDbSymbolTableRecord
100
AcDbBlockTableRecord
2
DimnDraft3D3
340
0
70
0
0
BLOCK_RECORD
5
F1
100
AcDbSymbolTableRecord
100
AcDbBlockTableRecord
2
DimnDraft3D4
340
0
70
0
0
BLOCK_RECORD
5
FB
100
AcDbSymbolTableRecord
100
AcDbBlockTableRecord
2
DimnDraft3D5
340
0
70
0
0
BLOCK_RECORD
5
105
100
AcDbSymbolTableRecord
100
AcDbBlockTableRecord
2
DimnDraft3D6
340
0
70
0
0
BLOCK_RECORD
5
110
100
AcDbSymbolTableRecord
100
AcDbBlockTableRecord
2
DimnDraft3D7
340
0
70
0
0
ENDTAB
0
ENDSEC
0
SECTION
2
BLOCKS
0
BLOCK
5
20
100
AcDbEntity
8
0
100
AcDbBlockBegin
2
*Model_Space
70
0
10
0
20
0
30
0
3
*Model_Space
0
ENDBLK
5
21
100
AcDbEntity
8
0
100
AcDbBlockEnd
0
BLOCK
5
1C
100
AcDbEntity
8
0
100
AcDbBlockBegin
2
*Paper_Space
70
0
10
0
20
0
30
0
3
*Paper_Space
0
ENDBLK
5
1D
100
AcDbEntity
8
0
100
AcDbBlockEnd
0
BLOCK
5
24
100
AcDbEntity
8
0
100
AcDbBlockBegin
2
*Paper_Space0
70
0
10
0
20
0
30
0
3
*Paper_Space0
0
ENDBLK
5
25
100
AcDbEntity
8
0
100
AcDbBlockEnd
0
BLOCK
5
DA
100
AcDbEntity
8
0
100
AcDbBlockBegin
2
DimnDraft3D1
70
0
10
0
20
0
30
0
3
DimnDraft3D1
0
MTEXT
5
D4
100
AcDbEntity
8
SK2
62
256
6
ByLayer
370
13
48
1
60
0
100
AcDbMText
10
17.884864
20
-13.505398
30
0
210
0
220
0
230
1
1
\W0.7581;47,77
40
3.5
41
0
44
1.084337
50
0
71
7
72
5
7
iso_b_vert
0
LINE
5
D5
100
AcDbEntity
8
SK2
62
256
6
ByLayer
370
13
48
1
60
0
100
AcDbLine
10
0
20
-1.5875
30
0
11
0
21
-16.380398
31
0
39
0
210
0
220
0
230
1
0
LINE
5
D6
100
AcDbEntity
8
SK2
62
256
6
ByLayer
370
13
48
1
60
0
100
AcDbLine
10
47.7677
20
-5.7545
30
0
11
47.7677
21
-16.380398
31
0
39
0
210
0
220
0
230
1
0
LINE
5
D7
100
AcDbEntity
8
SK2
62
256
6
ByLayer
370
13
48
1
60
0
100
AcDbLine
10
0
20
-14.380398
30
0
11
47.7677
21
-14.380398
31
0
39
0
210
0
220
0
230
1
0
SOLID
5
D8
100
AcDbEntity
8
SK2
62
256
6
ByLayer
370
13
48
1
60
0
100
AcDbTrace
10
0
20
-14.380398
30
0
11
3.499998
21
-13.919615
31
0
12
3.500002
22
-14.841182
32
0
13
0
23
-14.380398
33
0
39
0
210
0
220
0
230
1
0
SOLID
5
D9
100
AcDbEntity
8
SK2
62
256
6
ByLayer
370
13
48
1
60
0
100
AcDbTrace
10
47.7677
20
-14.380398
30
0
11
44.267702
21
-14.841182
31
0
12
44.267698
22
-13.919615
32
0
13
47.7677
23
-14.380398
33
0
39
0
210
0
220
0
230
1
0
ENDBLK
5
DB
100
AcDbEntity
8
0
100
AcDbBlockEnd
0
BLOCK
5
E4
100
AcDbEntity
8
0
100
AcDbBlockBegin
2
DimnDraft3D2
70
0
10
0
20
0
30
0
3
DimnDraft3D2
0
MTEXT
5
DE
100
AcDbEntity
8
SK2
62
256
6
ByLayer
370
13
48
1
60
0
100
AcDbMText
10
0.160316
20
-32.817985
30
0
210
0
220
0
230
1
1
\W0.7317;89,00
40
3.5
41
0
44
1.084337
50
0
71
7
72
5
7
iso_b_vert
0
LINE
5
DF
100
AcDbEntity
8
SK2
62
256
6
ByLayer
370
13
48
1
60
0
100
AcDbLine
10
-40
20
-6.5875
30
0
11
-40
21
-35.692985
31
0
39
0
210
0
220
0
230
1
0
LINE
5
E0
100
AcDbEntity
8
SK2
62
256
6
ByLayer
370
13
48
1
60
0
100
AcDbLine
10
49
20
-1.5875
30
0
11
49
21
-35.692985
31
0
39
0
210
0
220
0
230
1
0
LINE
5
E1
100
AcDbEntity
8
SK2
62
256
6
ByLayer
370
13
48
1
60
0
100
AcDbLine
10
-40
20
-33.692985
30
0
11
49
21
-33.692985
31
0
39
0
210
0
220
0
230
1
0
SOLID
5
E2
100
AcDbEntity
8
SK2
62
256
6
ByLayer
370
13
48
1
60
0
100
AcDbTrace
10
-40
20
-33.692985
30
0
11
-36.500002
21
-33.232202
31
0
12
-36.499998
22
-34.153769
32
0
13
-40
23
-33.692985
33
0
39
0
210
0
220
0
230
1
0
SOLID
5
E3
100
AcDbEntity
8
SK2
62
256
6
ByLayer
370
13
48
1
60
0
100
AcDbTrace
10
49
20
-33.692985
30
0
11
45.500002
21
-34.153769
31
0
12
45.499998
22
-33.232202
32
0
13
49
23
-33.692985
33
0
39
0
210
0
220
0
230
1
0
ENDBLK
5
E5
100
AcDbEntity
8
0
100
AcDbBlockEnd
0
BLOCK
5
EE
100
AcDbEntity
8
0
100
AcDbBlockBegin
2
DimnDraft3D3
70
0
10
0
20
0
30
0
3
DimnDraft3D3
0
MTEXT
5
E8
100
AcDbEntity
8
SK2
62
256
6
ByLayer
370
13
48
1
60
0
100
AcDbMText
10
31.441316
20
16.651119
30
0
210
0
220
0
230
1
1
\W0.7317;26,22
40
3.5
41
0
44
1.084337
50
0
71
7
72
5
7
iso_b_vert
0
LINE
5
E9
100
AcDbEntity
8
SK2
62
256
6
ByLayer
370
13
48
1
60
0
100
AcDbLine
10
22.78
20
5.7545
30
0
11
22.78
21
17.776119
31
0
39
0
210
0
220
0
230
1
0
LINE
5
EA
100
AcDbEntity
8
SK2
62
256
6
ByLayer
370
13
48
1
60
0
100
AcDbLine
10
49
20
1.5875
30
0
11
49
21
17.776119
31
0
39
0
210
0
220
0
230
1
0
LINE
5
EB
100
AcDbEntity
8
SK2
62
256
6
ByLayer
370
13
48
1
60
0
100
AcDbLine
10
22.78
20
15.776119
30
0
11
49
21
15.776119
31
0
39
0
210
0
220
0
230
1
0
SOLID
5
EC
100
AcDbEntity
8
SK2
62
256
6
ByLayer
370
13
48
1
60
0
100
AcDbTrace
10
22.78
20
15.776119
30
0
11
26.279998
21
16.236903
31
0
12
26.280002
22
15.315335
32
0
13
22.78
23
15.776119
33
0
39
0
210
0
220
0
230
1
0
SOLID
5
ED
100
AcDbEntity
8
SK2
62
256
6
ByLayer
370
13
48
1
60
0
100
AcDbTrace
10
49
20
15.776119
30
0
11
45.500002
21
15.315335
31
0
12
45.499998
22
16.236903
32
0
13
49
23
15.776119
33
0
39
0
210
0
220
0
230
1
0
ENDBLK
5
EF
100
AcDbEntity
8
0
100
AcDbBlockEnd
0
BLOCK
5
F8
100
AcDbEntity
8
0
100
AcDbBlockBegin
2
DimnDraft3D4
70
0
10
0
20
0
30
0
3
DimnDraft3D4
0
MTEXT
5
F2
100
AcDbEntity
8
SK2
62
256
6
ByLayer
370
13
48
1
60
0
100
AcDbMText
10
56.278136
20
-16.094503
30
0
210
0
220
0
230
1
1
\W0.6367;1,23
40
3.5
41
0
44
1.084337
50
0
71
7
72
5
7
iso_b_vert
0
LINE
5
F3
100
AcDbEntity
8
SK2
62
256
6
ByLayer
370
13
48
1
60
0
100
AcDbLine
10
49
20
-1.5875
30
0
11
49
21
-18.969503
31
0
39
0
210
0
220
0
230
1
0
LINE
5
F4
100
AcDbEntity
8
SK2
62
256
6
ByLayer
370
13
48
1
60
0
100
AcDbLine
10
47.7677
20
-5.7545
30
0
11
47.7677
21
-18.969503
31
0
39
0
210
0
220
0
230
1
0
LINE
5
F5
100
AcDbEntity
8
SK2
62
256
6
ByLayer
370
13
48
1
60
0
100
AcDbLine
10
39.0177
20
-16.969503
30
0
11
62.559715
21
-16.969503
31
0
39
0
210
0
220
0
230
1
0
SOLID
5
F6
100
AcDbEntity
8
SK2
62
256
6
ByLayer
370
13
48
1
60
0
100
AcDbTrace
10
49
20
-16.969503
30
0
11
52.499998
21
-16.508719
31
0
12
52.500002
22
-17.430287
32
0
13
49
23
-16.969503
33
0
39
0
210
0
220
0
230
1
0
SOLID
5
F7
100
AcDbEntity
8
SK2
62
256
6
ByLayer
370
13
48
1
60
0
100
AcDbTrace
10
47.7677
20
-16.969503
30
0
11
44.267702
21
-17.430287
31
0
12
44.267698
22
-16.508719
32
0
13
47.7677
23
-16.969503
33
0
39
0
210
0
220
0
230
1
0
ENDBLK
5
F9
100
AcDbEntity
8
0
100
AcDbBlockEnd
0
BLOCK
5
102
100
AcDbEntity
8
0
100
AcDbBlockBegin
2
DimnDraft3D5
70
0
10
0
20
0
30
0
3
DimnDraft3D5
0
MTEXT
5
FC
100
AcDbEntity
8
SK2
62
256
6
ByLayer
370
13
48
1
60
0
100
AcDbMText
10
-2.920308
20
-22.468428
30
0
210
0
220
0
230
1
1
\W0.7317;87,77
40
3.5
41
0
44
1.084337
50
0
71
7
72
5
7
iso_b_vert
0
LINE
5
FD
100
AcDbEntity
8
SK2
62
256
6
ByLayer
370
13
48
1
60
0
100
AcDbLine
10
-40
20
-6.5875
30
0
11
-40
21
-25.343428
31
0
39
0
210
0
220
0
230
1
0
LINE
5
FE
100
AcDbEntity
8
SK2
62
256
6
ByLayer
370
13
48
1
60
0
100
AcDbLine
10
47.7677
20
-5.7545
30
0
11
47.7677
21
-25.343428
31
0
39
0
210
0
220
0
230
1
0
LINE
5
FF
100
AcDbEntity
8
SK2
62
256
6
ByLayer
370
13
48
1
60
0
100
AcDbLine
10
-40
20
-23.343428
30
0
11
47.7677
21
-23.343428
31
0
39
0
210
0
220
0
230
1
0
SOLID
5
100
100
AcDbEntity
8
SK2
62
256
6
ByLayer
370
13
48
1
60
0
100
AcDbTrace
10
-40
20
-23.343428
30
0
11
-36.500002
21
-22.882645
31
0
12
-36.499998
22
-23.804212
32
0
13
-40
23
-23.343428
33
0
39
0
210
0
220
0
230
1
0
SOLID
5
101
100
AcDbEntity
8
SK2
62
256
6
ByLayer
370
13
48
1
60
0
100
AcDbTrace
10
47.7677
20
-23.343428
30
0
11
44.267702
21
-23.804212
31
0
12
44.267698
22
-22.882645
32
0
13
47.7677
23
-23.343428
33
0
39
0
210
0
220
0
230
1
0
ENDBLK
5
103
100
AcDbEntity
8
0
100
AcDbBlockEnd
0
BLOCK
5
10D
100
AcDbEntity
8
0
100
AcDbBlockBegin
2
DimnDraft3D6
70
0
10
0
20
0
30
0
3
DimnDraft3D6
0
MTEXT
5
106
100
AcDbEntity
8
SK2
62
256
6
ByLayer
370
13
48
1
60
0
100
AcDbMText
10
-50.375163
20
24.34918
30
0
210
0
220
0
230
1
1
\W0.6930;10,000
40
3.5
41
0
44
1.084337
50
90
71
7
72
5
7
iso_b_vert
0
MTEXT
5
107
100
AcDbEntity
8
SK2
62
256
6
ByLayer
370
13
48
1
60
0
100
AcDbMText
10
-50.375163
20
19.126524
30
0
210
0
220
0
230
1
1
%%c
40
3.5
41
0
44
1.084337
50
90
71
7
72
5
7
iso_b_vert
0
LINE
5
108
100
AcDbEntity
8
SK2
62
256
6
ByLayer
370
13
48
1
60
0
100
AcDbLine
10
-41.5875
20
-5
30
0
11
-50.625163
21
-5
31
0
39
0
210
0
220
0
230
1
0
LINE
5
109
100
AcDbEntity
8
SK2
62
256
6
ByLayer
370
13
48
1
60
0
100
AcDbLine
10
-41.5875
20
5
30
0
11
-50.625163
21
5
31
0
39
0
210
0
220
0
230
1
0
LINE
5
10A
100
AcDbEntity
8
SK2
62
256
6
ByLayer
370
13
48
1
60
0
100
AcDbLine
10
-48.625163
20
-5
30
0
11
-48.625163
21
35.862338
31
0
39
0
210
0
220
0
230
1
0
SOLID
5
10B
100
AcDbEntity
8
SK2
62
256
6
ByLayer
370
13
48
1
60
0
100
AcDbTrace
10
-48.625163
20
-5
30
0
11
-49.085946
21
-1.500002
31
0
12
-48.164379
22
-1.499998
32
0
13
-48.625163
23
-5
33
0
39
0
210
0
220
0
230
1
0
SOLID
5
10C
100
AcDbEntity
8
SK2
62
256
6
ByLayer
370
13
48
1
60
0
100
AcDbTrace
10
-48.625163
20
5
30
0
11
-48.164379
21
1.500002
31
0
12
-49.085946
22
1.499998
32
0
13
-48.625163
23
5
33
0
39
0
210
0
220
0
230
1
0
ENDBLK
5
10E
100
AcDbEntity
8
0
100
AcDbBlockEnd
0
BLOCK
5
118
100
AcDbEntity
8
0
100
AcDbBlockBegin
2
DimnDraft3D7
70
0
10
0
20
0
30
0
3
DimnDraft3D7
0
MTEXT
5
111
100
AcDbEntity
8
2
62
256
6
ByLayer
370
13
48
1
60
0
100
AcDbMText
10
59.333343
20
22.109266
30
0
210
0
220
0
230
1
1
\W0.7495;8,334
40
3.5
41
0
44
1.084337
50
90
71
7
72
5
7
iso_b_vert
0
MTEXT
5
112
100
AcDbEntity
8
2
62
256
6
ByLayer
370
13
48
1
60
0
100
AcDbMText
10
59.333343
20
16.88661
30
0
210
0
220
0
230
1
1
%%c
40
3.5
41
0
44
1.084337
50
90
71
7
72
5
7
iso_b_vert
0
LINE
5
113
100
AcDbEntity
8
2
62
256
6
ByLayer
370
13
48
1
60
0
100
AcDbLine
10
49.3552
20
-4.167
30
0
11
63.083343
21
-4.167
31
0
39
0
210
0
220
0
230
1
0
LINE
5
114
100
AcDbEntity
8
2
62
256
6
ByLayer
370
13
48
1
60
0
100
AcDbLine
10
49.3552
20
4.167
30
0
11
63.083343
21
4.167
31
0
39
0
210
0
220
0
230
1
0
LINE
5
115
100
AcDbEntity
8
2
62
256
6
ByLayer
370
13
48
1
60
0
100
AcDbLine
10
61.083343
20
-4.167
30
0
11
61.083343
21
32.250056
31
0
39
0
210
0
220
0
230
1
0
SOLID
5
116
100
AcDbEntity
8
2
62
256
6
ByLayer
370
13
48
1
60
0
100
AcDbTrace
10
61.083343
20
-4.167
30
0
11
60.622559
21
-0.667002
31
0
12
61.544126
22
-0.666998
32
0
13
61.083343
23
-4.167
33
0
39
0
210
0
220
0
230
1
0
SOLID
5
117
100
AcDbEntity
8
2
62
256
6
ByLayer
370
13
48
1
60
0
100
AcDbTrace
10
61.083343
20
4.167
30
0
11
61.544126
21
0.667002
31
0
12
60.622559
22
0.666998
32
0
13
61.083343
23
4.167
33
0
39
0
210
0
220
0
230
1
0
ENDBLK
5
119
100
AcDbEntity
8
0
100
AcDbBlockEnd
0
ENDSEC
0
SECTION
2
ENTITIES
0
ARC
5
8E
100
AcDbEntity
8
1
62
256
6
ByLayer
370
18
48
1
60
0
100
AcDbCircle
39
0
10
-0.35
20
4.487374
30
0
40
0.350000000000001
210
0
220
0
230
-1
100
AcDbArc
50
269.96419
51
0
0
ARC
5
8F
100
AcDbEntity
8
1
62
256
6
ByLayer
370
18
48
1
60
0
100
AcDbCircle
39
0
10
-0.35
20
-4.487374
30
0
40
0.350000000000001
210
0
220
0
230
-1
100
AcDbArc
50
0
51
90.03581
0
ELLIPSE
5
90
100
AcDbEntity
8
1
62
256
6
ByLayer
370
18
48
1
60
0
100
AcDbEllipse
10
3.001244
20
-4.181284
30
0
11
0.25
21
0
31
0
210
0
220
0
230
1
40
0.999998
41
1.57381541782714
42
2.92766798016402
0
ELLIPSE
5
91
100
AcDbEntity
8
1
62
256
6
ByLayer
370
18
48
1
60
0
100
AcDbEllipse
10
3.001244
20
4.181284
30
0
11
0.25
21
0
31
0
210
0
220
0
230
1
40
0.999998
41
-2.92805813022538
42
-1.56264775041194
0
ELLIPSE
5
92
100
AcDbEntity
8
1
62
256
6
ByLayer
370
13
48
1
60
0
100
AcDbEllipse
10
3.001404
20
1.589171
30
0
11
0.0392939105293561
21
0.0919564494492418
31
0
210
0
220
0
230
1
40
0.167171
41
-2.19634635613689
42
-1.94117986515578
0
POINT
5
6C
100
AcDbEntity
8
81
62
256
6
ByLayer
370
18
48
1
60
0
100
AcDbPoint
10
49
20
0
30
0
39
0
210
0
220
0
230
1
50
360
0
POINT
5
6E
100
AcDbEntity
8
80
62
256
6
ByLayer
370
18
48
1
60
0
100
AcDbPoint
10
0
20
0
30
0
39
0
210
0
220
0
230
1
50
360
0
POINT
5
70
100
AcDbEntity
8
SK2
62
256
6
ByLayer
370
18
48
1
60
1
100
AcDbPoint
10
-40
20
-5
30
0
39
0
210
0
220
0
230
1
50
360
0
POINT
5
72
100
AcDbEntity
8
SK2
62
256
6
ByLayer
370
18
48
1
60
1
100
AcDbPoint
10
-40
20
5
30
0
39
0
210
0
220
0
230
1
50
360
0
POINT
5
73
100
AcDbEntity
8
2
62
256
6
ByLayer
370
18
48
1
60
1
100
AcDbPoint
10
47.7677
20
-4.167
30
0
39
0
210
0
220
0
230
1
50
360
0
POINT
5
75
100
AcDbEntity
8
2
62
256
6
ByLayer
370
18
48
1
60
1
100
AcDbPoint
10
47.7677
20
4.167
30
0
39
0
210
0
220
0
230
1
50
360
0
SPLINE
5
93
100
AcDbEntity
8
1
62
256
6
ByLayer
370
18
48
1
60
0
100
AcDbSpline
70
4
71
2
72
6
73
3
40
0
40
0
40
0
40
1
40
1
40
1
41
1
10
33.4734549914759
20
5.8968081845E-05
30
0
41
1
10
33.4734424360873
20
6.17000096099E-05
30
0
41
1
10
33.4734298807563
20
6.46432865494E-05
30
0
0
SPLINE
5
94
100
AcDbEntity
8
1
62
256
6
ByLayer
370
18
48
1
60
0
100
AcDbSpline
70
4
71
2
72
6
73
3
40
0
40
0
40
0
40
1
40
1
40
1
41
1
10
33.4734299002308
20
-6.46386999392E-05
30
0
41
1
10
33.4734424457671
20
-6.16978934147E-05
30
0
41
1
10
33.4734549913608
20
-5.89681067424E-05
30
0
0
SPLINE
5
95
100
AcDbEntity
8
1
62
256
6
ByLayer
370
18
48
1
60
0
100
AcDbSpline
70
4
71
3
72
15
73
11
40
0
40
0
40
0
40
0
40
0.197627141644833
40
0.424645444755935
40
0.590269032987468
40
0.69503199061528
40
0.733844602535204
40
0.792627734525072
40
0.974650125180333
40
1
40
1
40
1
40
1
41
1
10
3.00187557094463
20
-3.93105721430285
30
0
41
1
10
3.18238684208944
20
-3.93159613002297
30
0
41
1
10
3.57025094783467
20
-3.93246249367462
30
0
41
1
10
4.10939132599089
20
-3.93241469447708
30
0
41
1
10
4.56368609677608
20
-3.93225117167421
30
0
41
1
10
4.84607469242985
20
-3.93230494987856
30
0
41
1
10
5.0307581197514
20
-3.93245590740841
30
0
41
1
10
5.28615922399794
20
-3.93278762830806
30
0
41
1
10
5.52926477236869
20
-3.93334836217326
30
0
41
1
10
5.71866972199129
20
-3.93342677274663
30
0
41
1
10
5.74182315233332
20
-3.93343465330389
30
0
0
SPLINE
5
96
100
AcDbEntity
8
1
62
256
6
ByLayer
370
18
48
1
60
0
100
AcDbSpline
70
4
71
2
72
6
73
3
40
0
40
0
40
0
40
1
40
1
40
1
41
1
10
47.2713240236742
20
-3.95833582997287
30
0
41
1
10
47.4272902745074
20
-3.95834238741682
30
0
41
1
10
47.5817951660174
20
-3.95751022077692
30
0
0
SPLINE
5
97
100
AcDbEntity
8
1
62
256
6
ByLayer
370
18
48
1
60
0
100
AcDbSpline
70
4
71
3
72
27
73
23
40
0
40
0
40
0
40
0
40
0.0316686382963046
40
0.0816281314185831
40
0.124097532422211
40
0.161354972361123
40
0.194559389351556
40
0.223986978094756
40
0.249792485603064
40
0.283060991757305
40
0.330628981603054
40
0.402121000194424
40
0.446901489778451
40
0.491168741656237
40
0.550506435618221
40
0.639426514880482
40
0.71243050114173
40
0.775252244651823
40
0.842087737188843
40
0.935556412605401
40
0.984652249363164
40
1
40
1
40
1
40
1
41
1
10
32.7033035884858
20
3.94673256672701
30
0
41
1
10
32.5960880072228
20
3.94625662025493
30
0
41
1
10
32.3196479391308
20
3.94529322236014
30
0
41
1
10
31.8991472159895
20
3.94545612108112
30
0
41
1
10
31.4591319252684
20
3.94569649733316
30
0
41
1
10
31.0758419224102
20
3.94622258171242
30
0
41
1
10
30.7368486317317
20
3.9468462506936
30
0
41
1
10
30.4367098514555
20
3.94734062196204
30
0
41
1
10
30.1363539029408
20
3.94730644863185
30
0
41
1
10
29.7744348920685
20
3.94608036984906
30
0
41
1
10
29.2574638725384
20
3.94600851195182
30
0
41
1
10
28.7014272028914
20
3.94493326149078
30
0
41
1
10
28.1565885721995
20
3.94420000805744
30
0
41
1
10
27.6530012521015
20
3.94446992597904
30
0
41
1
10
26.9996212677325
20
3.94530249968852
30
0
41
1
10
26.2486988212484
20
3.94582304418054
30
0
41
1
10
25.4859697468372
20
3.94279145503845
30
0
41
1
10
24.7981694960571
20
3.94334877123634
30
0
41
1
10
24.0409657735088
20
3.94389922706742
30
0
41
1
10
23.3302090638725
20
3.94310189359655
30
0
41
1
10
22.794461366657
20
3.94228870044245
30
0
41
1
10
22.5757491749609
20
3.94217743162534
30
0
41
1
10
22.5236662165796
20
3.94216241241745
30
0
0
SPLINE
5
98
100
AcDbEntity
8
1
62
256
6
ByLayer
370
18
48
1
60
0
100
AcDbSpline
70
4
71
3
72
29
73
25
40
0
40
0
40
0
40
0
40
0.060042903026704
40
0.119990394336102
40
0.172376703201903
40
0.212070805724172
40
0.266612188693311
40
0.328206333458414
40
0.370317853028789
40
0.409482889922769
40
0.451311257469643
40
0.500728492897149
40
0.557875257906361
40
0.599850563054303
40
0.632749747941502
40
0.660014769247688
40
0.701301601436665
40
0.753223561650926
40
0.791227046239582
40
0.816539436735146
40
0.868161185338276
40
0.934542319325192
40
0.974677270056739
40
1
40
1
40
1
40
1
41
1
10
20.0403389485941
20
-3.9413428669356
30
0
41
1
10
20.2914344074234
20
-3.94089359984295
30
0
41
1
10
20.7939964398319
20
-3.94036844629366
30
0
41
1
10
21.5235585809712
20
-3.94227784907372
30
0
41
1
10
22.1599364187815
20
-3.94221097261402
30
0
41
1
10
22.7805031627568
20
-3.94207598974506
30
0
41
1
10
23.4383341899654
20
-3.94355935341207
30
0
41
1
10
24.1070087720092
20
-3.94376323110279
30
0
41
1
10
24.7105300961131
20
-3.94337600710534
30
0
41
1
10
25.2306016021374
20
-3.94308976711844
30
0
41
1
10
25.781522391614
20
-3.94357237594247
30
0
41
1
10
26.4084097765023
20
-3.94605383821889
30
0
41
1
10
27.0359238296372
20
-3.94517348447215
30
0
41
1
10
27.5936469882828
20
-3.9445680373725
30
0
41
1
10
28.0251369817926
20
-3.94423198906836
30
0
41
1
10
28.4537226593076
20
-3.94450091318097
30
0
41
1
10
28.9626677120946
20
-3.9455760286055
30
0
41
1
10
29.5169793730571
20
-3.94582778026387
30
0
41
1
10
30.0038038350594
20
-3.94695164717854
30
0
41
1
10
30.4893706359232
20
-3.94757242695226
30
0
41
1
10
31.0947495120354
20
-3.94596865339506
30
0
41
1
10
31.7630702824257
20
-3.94550077181643
30
0
41
1
10
32.3191482256852
20
-3.94529375976677
30
0
41
1
10
32.5950907009954
20
-3.94625423998804
30
0
41
1
10
32.7018079617204
20
-3.94672762831922
30
0
0
SPLINE
5
99
100
AcDbEntity
8
1
62
256
6
ByLayer
370
18
48
1
60
0
100
AcDbSpline
70
4
71
3
72
15
73
11
40
0
40
0
40
0
40
0
40
0.0263771330766895
40
0.208207676330502
40
0.266928852266966
40
0.305700556609029
40
0.410353096565482
40
0.575802121465489
40
0.8025811526726
40
1
40
1
40
1
40
1
41
1
10
5.74471417244263
20
3.93343600215118
30
0
41
1
10
5.72059707504351
20
3.93342790422861
30
0
41
1
10
5.53022845792196
20
3.93334941330173
30
0
41
1
10
5.28615922756751
20
3.93278778078459
30
0
41
1
10
5.03075811939891
20
3.93245589452917
30
0
41
1
10
4.84607469263307
20
3.93230495844134
30
0
41
1
10
4.56368609664966
20
3.93225116659764
30
0
41
1
10
4.10939132604591
20
3.93241469676789
30
0
41
1
10
3.57025094781824
20
3.93246249303522
30
0
41
1
10
3.18238684208922
20
3.93159613002291
30
0
41
1
10
3.00187557094463
20
3.93105721430282
30
0
0
SPLINE
5
9A
100
AcDbEntity
8
1
62
256
6
ByLayer
370
18
48
1
60
0
100
AcDbSpline
70
4
71
3
72
8
73
4
40
0
40
0
40
0
40
0
40
1
40
1
40
1
40
1
41
1
10
11.6758240071361
20
2.92731549805632
30
0
41
1
10
11.7491900559713
20
2.94703998626647
30
0
41
1
10
11.8224945316944
20
2.96673547710799
30
0
41
1
10
11.8957418632341
20
2.98638232500451
30
0
0
SPLINE
5
9B
100
AcDbEntity
8
1
62
256
6
ByLayer
370
18
48
1
60
0
100
AcDbSpline
70
4
71
3
72
14
73
10
40
0
40
0
40
0
40
0
40
0.25
40
0.25
40
0.5
40
0.5
40
0.75
40
0.75
40
1
40
1
40
1
40
1
41
1
10
47.4437907969364
20
0.904557961328919
30
0
41
1
10
47.4427303436373
20
0.919935129611929
30
0
41
1
10
47.4457835052345
20
0.935556503563646
30
0
41
1
10
47.4609893332264
20
0.962678868330585
30
0
41
1
10
47.4731082775918
20
0.97397556646203
30
0
41
1
10
47.5004031951802
20
0.989883479331098
30
0
41
1
10
47.5158094504988
20
0.994960089896665
30
0
41
1
10
47.546762588846
20
1.00081606493507
30
0
41
1
10
47.5626769212112
20
1.00170307851309
30
0
41
1
10
47.5785152604512
20
1.00108692688229
30
0
0
SPLINE
5
9C
100
AcDbEntity
8
1
62
256
6
ByLayer
370
18
48
1
60
0
100
AcDbSpline
70
4
71
3
72
16
73
12
40
0
40
0
40
0
40
0
40
0.0370733932282684
40
0.0370733932282684
40
0.254511936466606
40
0.254511936466606
40
0.471950479704944
40
0.471950479704944
40
0.906827566181625
40
0.906827566181625
40
1
40
1
40
1
40
1
41
1
10
33.4395951388145
20
0.0158985652610113
30
0
41
1
10
33.5190608729942
20
-0.021252821001724
30
0
41
1
10
33.5985819846
20
-0.0584314529212406
30
0
41
1
10
34.1449184984893
20
-0.313773540712589
30
0
41
1
10
34.6151700724662
20
-0.533280841460481
30
0
41
1
10
35.5490711331816
20
-0.962945209159471
30
0
41
1
10
36.0139269716122
20
-1.17342058617444
30
0
41
1
10
37.4052623235592
20
-1.785726128757
30
0
41
1
10
38.3285268906179
20
-2.16839815922157
30
0
41
1
10
39.4544095548201
20
-2.58272455428803
30
0
41
1
10
39.653258109325
20
-2.65391775543725
30
0
41
1
10
39.8523810442135
20
-2.72304189629031
30
0
0
SPLINE
5
9D
100
AcDbEntity
8
1
62
256
6
ByLayer
370
13
48
1
60
0
100
AcDbSpline
70
4
71
3
72
12
73
8
40
0
40
0
40
0
40
0
40
0.102575594630714
40
0.102575594630714
40
0.28206047570457
40
0.28206047570457
40
1
40
1
40
1
40
1
41
1
10
39.8523810443008
20
-2.72304189632064
30
0
41
1
10
40.1179556504168
20
-2.81523427230312
30
0
41
1
10
40.3840183281823
20
-2.90374617500203
30
0
41
1
10
41.117521096103
20
-3.13599726939214
30
0
41
1
10
41.5876769458143
20
-3.27174898170045
30
0
41
1
10
43.9221590600631
20
-3.87203515371593
30
0
41
1
10
45.758227892048
20
-4.1051486679651
30
0
41
1
10
47.6291105072229
20
-4.04927088325584
30
0
0
SPLINE
5
9E
100
AcDbEntity
8
1
62
256
6
ByLayer
370
18
48
1
60
0
100
AcDbSpline
70
4
71
3
72
14
73
10
40
0
40
0
40
0
40
0
40
0.146296027200719
40
0.146296027200719
40
0.57314801360036
40
0.57314801360036
40
0.78657400680018
40
0.78657400680018
40
1
40
1
40
1
40
1
41
1
10
2.75486860019362
20
-4.13887687424574
30
0
41
1
10
2.75487025992635
20
-4.13876535908767
30
0
41
1
10
2.75487193440912
20
-4.13538632484321
30
0
41
1
10
2.75487853334025
20
-4.1096214552131
30
0
41
1
10
2.75488354513018
20
-4.0634148143287
30
0
41
1
10
2.75489081084203
20
-3.95244537579293
30
0
41
1
10
2.75489317598505
20
-3.90853400645125
30
0
41
1
10
2.75489761242636
20
-3.80869094827264
30
0
41
1
10
2.75489969651505
20
-3.75257772757925
30
0
41
1
10
2.75490159108901
20
-3.69034887805734
30
0
0
SPLINE
5
9F
100
AcDbEntity
8
1
62
256
6
ByLayer
370
18
48
1
60
0
100
AcDbSpline
70
4
71
3
72
42
73
38
40
0
40
0
40
0
40
0
40
0.0011351343032563
40
0.0011351343032563
40
0.0465380827440156
40
0.0465380827440156
40
0.0919410311847751
40
0.0919410311847751
40
0.182746928066297
40
0.182746928066297
40
0.273552824947818
40
0.273552824947818
40
0.318955773388579
40
0.318955773388579
40
0.36435872182934
40
0.36435872182934
40
0.409761670270101
40
0.409761670270101
40
0.455164618710862
40
0.455164618710862
40
0.545970515592384
40
0.545970515592384
40
0.591373464033146
40
0.591373464033146
40
0.636776412473909
40
0.636776412473909
40
0.682179360914672
40
0.682179360914672
40
0.727582309355434
40
0.727582309355434
40
0.818388206236956
40
0.818388206236956
40
0.863791154677717
40
0.863791154677717
40
0.909194103118478
40
0.909194103118478
40
1
40
1
40
1
40
1
41
1
10
32.7078279724723
20
3.94655313473055
30
0
41
1
10
32.7119662918066
20
3.94654561090488
30
0
41
1
10
32.7161046827584
20
3.94653701611222
30
0
41
1
10
32.8857728134967
20
3.9461408707472
30
0
41
1
10
33.0511923377155
20
3.94351348031705
30
0
41
1
10
33.3815594416717
20
3.93270759522593
30
0
41
1
10
33.5464573290108
20
3.9247381399916
30
0
41
1
10
34.0412095357902
20
3.89441487071687
30
0
41
1
10
34.3709535629617
20
3.8655003432149
30
0
41
1
10
35.0308143538856
20
3.79215899990734
30
0
41
1
10
35.3606045322042
20
3.7480618324046
30
0
41
1
10
35.8563919117327
20
3.67025082644241
30
0
41
1
10
36.0217320969235
20
3.64174329563653
30
0
41
1
10
36.352497852409
20
3.58063964527707
30
0
41
1
10
36.5177746464104
20
3.54809013588533
30
0
41
1
10
36.8479961955247
20
3.4791511850722
30
0
41
1
10
37.012842022075
20
3.44260727741636
30
0
41
1
10
37.3427702045958
20
3.3661395593073
30
0
41
1
10
37.5077403212441
20
3.32611565520301
30
0
41
1
10
38.0023102222178
20
3.20080496678548
30
0
41
1
10
38.3323766112547
20
3.11182194469052
30
0
41
1
10
38.8271908188626
20
2.96565416466592
30
0
41
1
10
38.9923696058685
20
2.91527583351299
30
0
41
1
10
39.3228984546071
20
2.81111750101888
30
0
41
1
10
39.4882916035263
20
2.75721125944736
30
0
41
1
10
39.8190190869694
20
2.64701828605459
30
0
41
1
10
39.9842850497474
20
2.59059679712183
30
0
41
1
10
40.3144816126498
20
2.47496532409261
30
0
41
1
10
40.4793691755217
20
2.41567164870307
30
0
41
1
10
40.9745030746578
20
2.23547185663651
30
0
41
1
10
41.3042372172444
20
2.1103726770717
30
0
41
1
10
41.7991445818599
20
1.91483333036933
30
0
41
1
10
41.9640615960565
20
1.84825207348135
30
0
41
1
10
42.2940642331041
20
1.71307006599153
30
0
41
1
10
42.4593736555001
20
1.64491303036138
30
0
41
1
10
42.9552764234109
20
1.43706957465497
30
0
41
1
10
43.2864245093865
20
1.29580841630556
30
0
41
1
10
43.6168137012831
20
1.15207241942181
30
0
0
SPLINE
5
A0
100
AcDbEntity
8
1
62
256
6
ByLayer
370
18
48
1
60
0
100
AcDbSpline
70
4
71
3
72
10
73
6
40
0
40
0
40
0
40
0
40
0.894347077396211
40
0.894347077396211
40
1
40
1
40
1
40
1
41
1
10
47.6390724138324
20
-3.95573689603091
30
0
41
1
10
45.7696856181278
20
-3.98769001422139
30
0
41
1
10
43.933710642912
20
-3.7385432972186
30
0
41
1
10
41.846942018712
20
-3.19463961835723
30
0
41
1
10
41.6257908361625
20
-3.13382897014699
30
0
41
1
10
41.4046332201807
20
-3.07005055147593
30
0
0
SPLINE
5
A1
100
AcDbEntity
8
1
62
256
6
ByLayer
370
13
48
1
60
0
100
AcDbSpline
70
4
71
3
72
20
73
16
40
0
40
0
40
0
40
0
40
0.0602300952930438
40
0.0602300952930438
40
0.174418326766486
40
0.174418326766486
40
0.402794789713372
40
0.402794789713372
40
0.516983021186817
40
0.516983021186817
40
0.631171252660262
40
0.631171252660262
40
0.859547715607151
40
0.859547715607151
40
1
40
1
40
1
40
1
41
1
10
41.4046329470475
20
-3.07005047270854
30
0
41
1
10
41.1577684199859
20
-2.99885857775658
30
0
41
1
10
40.9108958772946
20
-2.92396887901251
30
0
41
1
10
40.1986674232862
20
-2.69791184409857
30
0
41
1
10
39.7343936279159
20
-2.5381189704494
30
0
41
1
10
38.3445038116571
20
-2.02922720175289
30
0
41
1
10
37.421589268406
20
-1.65095391002643
30
0
41
1
10
36.0309780814643
20
-1.04862730596551
30
0
41
1
10
35.5663704209406
20
-0.842071671388709
30
0
41
1
10
34.6331209725483
20
-0.421385371503703
30
0
41
1
10
34.1634461259382
20
-0.20698796004541
30
0
41
1
10
32.7646157765024
20
0.431052170636946
30
0
41
1
10
31.8399591444665
20
0.852622407882023
30
0
41
1
10
30.3460151968338
20
1.49838189443034
30
0
41
1
10
29.777010276697
20
1.73612830187284
30
0
41
1
10
29.2060257854207
20
1.96179927416736
30
0
0
SPLINE
5
A2
100
AcDbEntity
8
1
62
256
6
ByLayer
370
18
48
1
60
0
100
AcDbSpline
70
4
71
3
72
8
73
4
40
0
40
0
40
0
40
0
40
1
40
1
40
1
40
1
41
1
10
48.9927325385696
20
-0.10585351519623
30
0
41
1
10
48.9929830234951
20
-0.0871535696767012
30
0
41
1
10
48.9956056858496
20
-0.06439028551614
30
0
41
1
10
48.9997623301443
20
-0.0402847958827977
30
0
0
SPLINE
5
A3
100
AcDbEntity
8
1
62
256
6
ByLayer
370
18
48
1
60
0
100
AcDbSpline
70
4
71
3
72
38
73
34
40
0
40
0
40
0
40
0
40
0.0277520335104207
40
0.0277520335104207
40
0.0990764164478613
40
0.0990764164478613
40
0.170400799385302
40
0.170400799385302
40
0.313049565260184
40
0.313049565260184
40
0.455698331135065
40
0.455698331135065
40
0.527022714072506
40
0.527022714072506
40
0.562684905541226
40
0.562684905541226
40
0.580516001275587
40
0.580516001275587
40
0.589431549142767
40
0.589431549142767
40
0.593889323076357
40
0.593889323076357
40
0.598347097009947
40
0.598347097009947
40
0.669671479947387
40
0.669671479947387
40
0.740995862884827
40
0.740995862884827
40
0.883644628759708
40
0.883644628759708
40
0.954969011697148
40
0.954969011697148
40
1
40
1
40
1
40
1
41
1
10
11.895741863234
20
2.98638232499704
30
0
41
1
10
11.895741863234
20
2.93969090112486
30
0
41
1
10
11.895741863234
20
2.89366390962337
30
0
41
1
10
11.895741863234
20
2.73168301831464
30
0
41
1
10
11.8957418632341
20
2.61942647529776
30
0
41
1
10
11.8957418632341
20
2.40358236527882
30
0
41
1
10
11.895741863234
20
2.29953091852428
30
0
41
1
10
11.895741863234
20
2.00440587508811
30
0
41
1
10
11.895741863234
20
1.8306525094068
30
0
41
1
10
11.895741863234
20
1.52554368326653
30
0
41
1
10
11.895741863234
20
1.39421339643312
30
0
41
1
10
11.895741863234
20
1.22893642428426
30
0
41
1
10
11.895741863234
20
1.17923673782181
30
0
41
1
10
11.895741863234
20
1.1134192195149
30
0
41
1
10
11.8957418632341
20
1.09289729732004
30
0
41
1
10
11.8957418632341
20
1.06424623730027
30
0
41
1
10
11.895741863234
20
1.05497953039384
30
0
41
1
10
11.895741863234
20
1.04183968302763
30
0
41
1
10
11.895741863234
20
1.04337935079988
30
0
41
1
10
11.895741863234
20
1.05419196267124
30
0
41
1
10
11.8957418632341
20
1.05929935503218
30
0
41
1
10
11.8957418632341
20
1.06858259074457
30
0
41
1
10
11.895741863234
20
1.07324720741428
30
0
41
1
10
11.895741863234
20
1.1529371692379
30
0
41
1
10
11.8957418632341
20
1.23371863888758
30
0
41
1
10
11.8957418632341
20
1.40675115322614
30
0
41
1
10
11.895741863234
20
1.49931528032266
30
0
41
1
10
11.895741863234
20
1.79180634020651
30
0
41
1
10
11.8957418632341
20
2.00688339164142
30
0
41
1
10
11.8957418632341
20
2.36093040394187
30
0
41
1
10
11.895741863234
20
2.4842137602765
30
0
41
1
10
11.895741863234
20
2.69444479254261
30
0
41
1
10
11.895741863234
20
2.77734063809422
30
0
41
1
10
11.895741863234
20
2.86168911651706
30
0
0
SPLINE
5
A4
100
AcDbEntity
8
1
62
256
6
ByLayer
370
18
48
1
60
0
100
AcDbSpline
70
4
71
3
72
8
73
4
40
0
40
0
40
0
40
0
40
1
40
1
40
1
40
1
41
1
10
47.6291105072301
20
-4.04927088325897
30
0
41
1
10
47.614928881081
20
-4.08607942107821
30
0
41
1
10
47.6007190126452
20
-4.12285076568003
30
0
41
1
10
47.5864806346535
20
-4.15958474585733
30
0
0
SPLINE
5
A5
100
AcDbEntity
8
1
62
256
6
ByLayer
370
18
48
1
60
0
100
AcDbSpline
70
4
71
3
72
14
73
10
40
0
40
0
40
0
40
0
40
0.0559126164151455
40
0.0559126164151455
40
0.309494980837622
40
0.309494980837622
40
0.563077345260098
40
0.563077345260098
40
1
40
1
40
1
40
1
41
1
10
20.0592031882229
20
-3.94128175529278
30
0
41
1
10
19.9568707731323
20
-3.94094819064725
30
0
41
1
10
19.8544792792282
20
-3.93978899056864
30
0
41
1
10
19.287325959057
20
-3.92878429133654
30
0
41
1
10
18.8210760562134
20
-3.90265233654458
30
0
41
1
10
17.8835522083853
20
-3.81608423429137
30
0
41
1
10
17.4167467853005
20
-3.75604020010221
30
0
41
1
10
16.1506171325692
20
-3.54973979566253
30
0
41
1
10
15.3539504556088
20
-3.3725865229747
30
0
41
1
10
14.5566798038638
20
-3.15525213798907
30
0
0
SPLINE
5
A6
100
AcDbEntity
8
1
62
256
6
ByLayer
370
13
48
1
60
0
100
AcDbSpline
70
4
71
3
72
20
73
16
40
0
40
0
40
0
40
0
40
0.0334661208146435
40
0.0334661208146435
40
0.275099590610981
40
0.275099590610981
40
0.395916325509151
40
0.395916325509151
40
0.516733060407321
40
0.516733060407321
40
0.758366530203661
40
0.758366530203661
40
0.879183265101831
40
0.879183265101831
40
1
40
1
40
1
40
1
41
1
10
14.5566798037903
20
-3.15525213796906
30
0
41
1
10
14.4285062161234
20
-3.12031227434014
30
0
41
1
10
14.3003170184051
20
-3.08433390836774
30
0
41
1
10
13.2462686641938
20
-2.780266070643
30
0
41
1
10
12.3187266644278
20
-2.45992495106589
30
0
41
1
10
10.9119628621783
20
-1.91881265189372
30
0
41
1
10
10.4451603818954
20
-1.73000115614556
30
0
41
1
10
9.51519760774289
20
-1.34026406511325
30
0
41
1
10
9.05166162768279
20
-1.13956940014225
30
0
41
1
10
7.66241020510961
20
-0.526569122660845
30
0
41
1
10
6.73844958293375
20
-0.102483799762297
30
0
41
1
10
5.34344574330862
20
0.528954494329696
30
0
41
1
10
4.87691904355981
20
0.73861831064994
30
0
41
1
10
3.9389987775759
20
1.1521528899664
30
0
41
1
10
3.47044432128871
20
1.35437517572782
30
0
41
1
10
3.00151093999841
20
1.54976171148132
30
0
0
SPLINE
5
A7
100
AcDbEntity
8
1
62
256
6
ByLayer
370
18
48
1
60
0
100
AcDbSpline
70
4
71
3
72
10
73
6
40
0
40
0
40
0
40
0
40
0.5
40
0.5
40
1
40
1
40
1
40
1
41
1
10
47.5785152604512
20
1.00108692688229
30
0
41
1
10
47.7895756782388
20
0.992876140470429
30
0
41
1
10
48.0006250694839
20
0.984816636940963
30
0
41
1
10
48.4227478157878
20
0.968391020269223
30
0
41
1
10
48.6338175902097
20
0.960074255415606
30
0
41
1
10
48.8448401745119
20
0.952341416630702
30
0
0
SPLINE
5
A8
100
AcDbEntity
8
1
62
256
6
ByLayer
370
18
48
1
60
0
100
AcDbSpline
70
4
71
3
72
16
73
12
40
0
40
0
40
0
40
0
40
0.271620074949028
40
0.271620074949028
40
0.407430112423541
40
0.407430112423541
40
0.543240149898055
40
0.543240149898055
40
0.814860224847083
40
0.814860224847083
40
1
40
1
40
1
40
1
41
1
10
46.921258051439
20
-2.95944807925588
30
0
41
1
10
46.9762776095832
20
-3.12840375807559
30
0
41
1
10
47.0335305291695
20
-3.27645390641104
30
0
41
1
10
47.1219853650084
20
-3.46851600181876
30
0
41
1
10
47.1519090514329
20
-3.52749729388012
30
0
41
1
10
47.2126059318315
20
-3.63516919561209
30
0
41
1
10
47.2434219935614
20
-3.6838480218648
30
0
41
1
10
47.3352213488744
20
-3.81136106002955
30
0
41
1
10
47.3961741391625
20
-3.87305406831973
30
0
41
1
10
47.4985741571537
20
-3.93790885537237
30
0
41
1
10
47.5401977328365
20
-3.95331982201455
30
0
41
1
10
47.5814840318732
20
-3.95742606456079
30
0
0
SPLINE
5
A9
100
AcDbEntity
8
1
62
256
6
ByLayer
370
13
48
1
60
0
100
AcDbSpline
70
4
71
3
72
14
73
10
40
0
40
0
40
0
40
0
40
0.159900036802405
40
0.159900036802405
40
0.369925027601804
40
0.369925027601804
40
0.579950018401202
40
0.579950018401202
40
1
40
1
40
1
40
1
41
1
10
3.0018910230869
20
-3.93129058881558
30
0
41
1
10
3.00190037141147
20
-3.93115129521499
30
0
41
1
10
3.00190990293027
20
-3.92693172189965
30
0
41
1
10
3.00193227260701
20
-3.90775692593917
30
0
41
1
10
3.00194522869216
20
-3.88981801024147
30
0
41
1
10
3.00197119686379
20
-3.83963349127438
30
0
41
1
10
3.00198403196191
20
-3.80774437669748
30
0
41
1
10
3.00202138311607
20
-3.69238933475938
30
0
41
1
10
3.00204482087867
20
-3.58944338635578
30
0
41
1
10
3.00206414762474
20
-3.45974368575284
30
0
0
SPLINE
5
AA
100
AcDbEntity
8
1
62
256
6
ByLayer
370
18
48
1
60
0
100
AcDbSpline
70
4
71
3
72
10
73
6
40
0
40
0
40
0
40
0
40
0.5
40
0.5
40
1
40
1
40
1
40
1
41
1
10
47.7512116297167
20
-4.05361509719626
30
0
41
1
10
47.9294008737594
20
-3.5430782672679
30
0
41
1
10
48.1117739288076
20
-3.03520315020995
30
0
41
1
10
48.4831020333262
20
-2.02334919524736
30
0
41
1
10
48.6720963486002
20
-1.51939659905946
30
0
41
1
10
48.8628742163469
20
-1.0166649498658
30
0
0
SPLINE
5
AB
100
AcDbEntity
8
1
62
256
6
ByLayer
370
18
48
1
60
0
100
AcDbSpline
70
4
71
3
72
8
73
4
40
0
40
0
40
0
40
0
40
1
40
1
40
1
40
1
41
1
10
47.7512116297207
20
4.05361509718421
30
0
41
1
10
47.6975115633074
20
4.11000367071466
30
0
41
1
10
47.642794443464
20
4.14525391433654
30
0
41
1
10
47.5864806346535
20
4.15958474585733
30
0
0
SPLINE
5
AC
100
AcDbEntity
8
1
62
256
6
ByLayer
370
18
48
1
60
0
100
AcDbSpline
70
4
71
3
72
18
73
14
40
0
40
0
40
0
40
0
40
0.249999999999999
40
0.249999999999999
40
0.499999999999999
40
0.499999999999999
40
0.624999999999999
40
0.624999999999999
40
0.749999999999999
40
0.749999999999999
40
0.875
40
0.875
40
1
40
1
40
1
40
1
41
1
10
2.75490159108918
20
-3.69034887805734
30
0
41
1
10
2.75860459470638
20
-3.65773340061162
30
0
41
1
10
2.76508448056808
20
-3.62489635842667
30
0
41
1
10
2.78676948674735
20
-3.55889775761875
30
0
41
1
10
2.80159196632911
20
-3.52594964764435
30
0
41
1
10
2.83619952698595
20
-3.48237782811808
30
0
41
1
10
2.85008244748218
20
-3.46899137125874
30
0
41
1
10
2.88116192925068
20
-3.44933917163365
30
0
41
1
10
2.89829459341289
20
-3.44329970983063
30
0
41
1
10
2.93118568599667
20
-3.43914965741999
30
0
41
1
10
2.94675279052788
20
-3.44069210713795
30
0
41
1
10
2.97581622644057
20
-3.44770680931981
30
0
41
1
10
2.98932773751369
20
-3.45317520738578
30
0
41
1
10
3.00206414762502
20
-3.45974368398885
30
0
0
SPLINE
5
AD
100
AcDbEntity
8
1
62
256
6
ByLayer
370
18
48
1
60
0
100
AcDbSpline
70
4
71
3
72
18
73
14
40
0
40
0
40
0
40
0
40
0.186363062290418
40
0.186363062290418
40
0.372726124580837
40
0.372726124580837
40
0.559089186871255
40
0.559089186871255
40
0.745452249161673
40
0.745452249161673
40
0.931815311452092
40
0.931815311452092
40
1
40
1
40
1
40
1
41
1
10
11.8957418632341
20
2.87069559060234
30
0
41
1
10
11.5028433182104
20
2.98328833344519
30
0
41
1
10
11.1130086300883
20
3.09127539366216
30
0
41
1
10
10.3370313399515
20
3.29332576012578
30
0
41
1
10
9.95050125557401
20
3.38868057443278
30
0
41
1
10
9.18145476759159
20
3.56000392037819
30
0
41
1
10
8.79919384311216
20
3.63588516527713
30
0
41
1
10
8.03749737644958
20
3.76256148294624
30
0
41
1
10
7.65802621920659
20
3.81415049542221
30
0
41
1
10
6.90083688555157
20
3.89252062372455
30
0
41
1
10
6.52411803652137
20
3.91819255821667
30
0
41
1
10
6.01484268042051
20
3.9323306059689
30
0
41
1
10
5.87887636839451
20
3.93401478573534
30
0
41
1
10
5.74342352918885
20
3.93344840015516
30
0
0
SPLINE
5
AE
100
AcDbEntity
8
1
62
256
6
ByLayer
370
18
48
1
60
0
100
AcDbSpline
70
4
71
3
72
30
73
26
40
0
40
0
40
0
40
0
40
0.0624999999999997
40
0.0624999999999997
40
0.0937500000000001
40
0.0937500000000001
40
0.125000000000001
40
0.125000000000001
40
0.25
40
0.25
40
0.3125
40
0.3125
40
0.375
40
0.375
40
0.5
40
0.5
40
0.5625
40
0.5625
40
0.625
40
0.625
40
0.75
40
0.75
40
0.875
40
0.875
40
1
40
1
40
1
40
1
41
1
10
43.6168137012959
20
1.15207241941678
30
0
41
1
10
43.6221914897629
20
1.03759333657325
30
0
41
1
10
43.6348461406831
20
0.922559098372886
30
0
41
1
10
43.6643179864741
20
0.749207463860387
30
0
41
1
10
43.6758934641075
20
0.691289960691932
30
0
41
1
10
43.7025148676722
20
0.575190192175711
30
0
41
1
10
43.7176341034954
20
0.516768487080839
30
0
41
1
10
43.800822964654
20
0.227554023800678
30
0
41
1
10
43.8910954190416
20
0.0053777692198764
30
0
41
1
10
44.0548669144189
20
-0.316892092240351
30
0
41
1
10
44.1143811576662
20
-0.422597830219473
30
0
41
1
10
44.2392951320768
20
-0.626300265516164
30
0
41
1
10
44.3049945583152
20
-0.72492593366124
30
0
41
1
10
44.5105237222543
20
-1.01241596848169
30
0
41
1
10
44.6587138492694
20
-1.19296349424673
30
0
41
1
10
44.8945677440489
20
-1.45028675661521
30
0
41
1
10
44.9752229825082
20
-1.53349670144672
30
0
41
1
10
45.138587260984
20
-1.69378243175231
30
0
41
1
10
45.2215363100669
20
-1.77112018135443
30
0
41
1
10
45.4737749466969
20
-1.9956241984334
30
0
41
1
10
45.6464342377628
20
-2.13532947112901
30
0
41
1
10
45.9993121997447
20
-2.39800249249203
30
0
41
1
10
46.1795409808109
20
-2.52094785587335
30
0
41
1
10
46.5467419620213
20
-2.75190770985461
30
0
41
1
10
46.7333315208783
20
-2.85961395022622
30
0
41
1
10
46.921258051439
20
-2.95944807925588
30
0
0
SPLINE
5
AF
100
AcDbEntity
8
1
62
256
6
ByLayer
370
18
48
1
60
0
100
AcDbSpline
70
4
71
3
72
8
73
4
40
0
40
0
40
0
40
0
40
1
40
1
40
1
40
1
41
1
10
48.9712102291284
20
0.448005254483547
30
0
41
1
10
48.9481324887559
20
0.631318122713054
30
0
41
1
10
48.9114436841699
20
0.818962277095693
30
0
41
1
10
48.862874216347
20
1.01666494986594
30
0
0
SPLINE
5
B0
100
AcDbEntity
8
1
62
256
6
ByLayer
370
18
48
1
60
0
100
AcDbSpline
70
4
71
3
72
8
73
4
40
0
40
0
40
0
40
0
40
1
40
1
40
1
40
1
41
1
10
48.9997623301444
20
-0.040284795882684
30
0
41
1
10
49.0000793716936
20
-0.0134110343058751
30
0
41
1
10
49.0000790443089
20
0.0134387847957669
30
0
41
1
10
48.9997623301444
20
0.040284795881746
30
0
0
SPLINE
5
B1
100
AcDbEntity
8
1
62
256
6
ByLayer
370
18
48
1
60
0
100
AcDbSpline
70
4
71
3
72
10
73
6
40
0
40
0
40
0
40
0
40
0.5
40
0.5
40
1
40
1
40
1
40
1
41
1
10
2.89342496742444
20
1.5749452506009
30
0
41
1
10
2.86118153446719
20
1.58919108076856
30
0
41
1
10
2.83276838448009
20
1.60957792871236
30
0
41
1
10
2.78724088508008
20
1.65925078392803
30
0
41
1
10
2.77024933322843
20
1.68863101853927
30
0
41
1
10
2.7606718841748
20
1.71946927508497
30
0
0
SPLINE
5
B2
100
AcDbEntity
8
1
62
256
6
ByLayer
370
13
48
1
60
0
100
AcDbSpline
70
4
71
3
72
8
73
4
40
0
40
0
40
0
40
0
40
1
40
1
40
1
40
1
41
1
10
3.00151093999847
20
1.54976171148132
30
0
41
1
10
2.9647937189936
20
1.55893547734254
30
0
41
1
10
2.92899281850731
20
1.57088683940654
30
0
41
1
10
2.89547835363862
20
1.58538056364716
30
0
0
SPLINE
5
B3
100
AcDbEntity
8
1
62
256
6
ByLayer
370
18
48
1
60
0
100
AcDbSpline
70
4
71
3
72
10
73
6
40
0
40
0
40
0
40
0
40
0.5
40
0.5
40
1
40
1
40
1
40
1
41
1
10
48.9997623301449
20
0.040284795882144
30
0
41
1
10
48.9967226127446
20
0.023956577944972
30
0
41
1
10
48.9920574011334
20
0.0060688347539042
30
0
41
1
10
48.9796346050018
20
-0.0286641049812033
30
0
41
1
10
48.972018820504
20
-0.0449685435113167
30
0
41
1
10
48.9641470423177
20
-0.057863958973968
30
0
0
SPLINE
5
B4
100
AcDbEntity
8
1
62
256
6
ByLayer
370
18
48
1
60
0
100
AcDbSpline
70
4
71
3
72
25
73
21
40
0
40
0
40
0
40
0
40
0.0883858314004794
40
0.0883858314004794
40
0.176771662800959
40
0.176771662800959
40
0.353543325601918
40
0.353543325601918
40
0.441929157002397
40
0.441929157002397
40
0.530314988402877
40
0.618700819803356
40
0.618700819803356
40
0.707086651203836
40
0.707086651203836
40
0.883858314004795
40
0.883858314004795
40
0.972244145405275
40
0.972244145405275
40
1
40
1
40
1
40
1
41
1
10
2.754787460481
20
1.75764835236527
30
0
41
1
10
2.75479141904722
20
1.88365072543863
30
0
41
1
10
2.75479507307111
20
2.00701802201874
30
0
41
1
10
2.75480180030956
20
2.24528551201075
30
0
41
1
10
2.75480486964014
20
2.35997766023434
30
0
41
1
10
2.75481340805999
20
2.69109772212087
30
0
41
1
10
2.75481821016325
20
2.89469928421886
30
0
41
1
10
2.75482483235047
20
3.17348590146207
30
0
41
1
10
2.75482692039742
20
3.26099141586695
30
0
41
1
10
2.75483094364688
20
3.42363491684694
30
0
41
1
10
2.75483482844771
20
3.57452891663786
30
0
41
1
10
2.75483865770298
20
3.70213654436412
30
0
41
1
10
2.7548425541091
20
3.81785476623321
30
0
41
1
10
2.75484454462887
20
3.86989707272755
30
0
41
1
10
2.75485060443867
20
4.00464109966001
30
0
41
1
10
2.75485480740596
20
4.06742406122734
30
0
41
1
10
2.75486158197782
20
4.12144735082126
30
0
41
1
10
2.75486392512067
20
4.13272610361796
30
0
41
1
10
2.75486707890548
20
4.13828908293118
30
0
41
1
10
2.7548678361689
20
4.13892599981293
30
0
41
1
10
2.75486859652884
20
4.13887711516554
30
0
0
SPLINE
5
B5
100
AcDbEntity
8
1
62
256
6
ByLayer
370
18
48
1
60
0
100
AcDbSpline
70
4
71
3
72
18
73
14
40
0
40
0
40
0
40
0
40
0.168976413071703
40
0.168976413071703
40
0.337952826143407
40
0.337952826143407
40
0.50692923921511
40
0.50692923921511
40
0.675905652286813
40
0.675905652286813
40
0.844882065358517
40
0.844882065358517
40
1
40
1
40
1
40
1
41
1
10
11.895741863234
20
-2.98638232500451
30
0
41
1
10
12.2696198868472
20
-3.11185778367448
30
0
41
1
10
12.6437592657732
20
-3.22695052426891
30
0
41
1
10
13.3909351054529
20
-3.43937286030851
30
0
41
1
10
13.7635202359145
20
-3.53706053816978
30
0
41
1
10
14.510409208369
20
-3.71104432350472
30
0
41
1
10
14.8844353240911
20
-3.78787129273113
30
0
41
1
10
15.6330511469102
20
-3.92084379078193
30
0
41
1
10
16.0067184423761
20
-3.97616787337023
30
0
41
1
10
16.7537016389971
20
-4.06433834291698
30
0
41
1
10
17.1263007664109
20
-4.09744451729441
30
0
41
1
10
17.8424755503094
20
-4.13852923945129
30
0
41
1
10
18.1858675361268
20
-4.14853132534847
30
0
41
1
10
18.5293906757284
20
-4.14873721907023
30
0
0
SPLINE
5
B6
100
AcDbEntity
8
1
62
256
6
ByLayer
370
18
48
1
60
0
100
AcDbSpline
70
4
71
3
72
22
73
18
40
0
40
0
40
0
40
0
40
0.113418995816804
40
0.113418995816804
40
0.240073424985832
40
0.240073424985832
40
0.36672785415486
40
0.36672785415486
40
0.493382283323888
40
0.493382283323888
40
0.620036712492916
40
0.620036712492916
40
0.746691141661945
40
0.746691141661945
40
0.873345570830973
40
0.873345570830973
40
1
40
1
40
1
40
1
41
1
10
38.9081869321518
20
2.9358054329185
30
0
41
1
10
39.2427802503053
20
3.05016659028968
30
0
41
1
10
39.5768075849563
20
3.157745975588
30
0
41
1
10
40.2842495097841
20
3.36911185870483
30
0
41
1
10
40.6568778215256
20
3.47207610281242
30
0
41
1
10
41.4030833544658
20
3.65808528648105
30
0
41
1
10
41.7777424012165
20
3.74073015723431
30
0
41
1
10
42.5252441623362
20
3.88574472495196
30
0
41
1
10
42.8982008955837
20
3.9474581594157
30
0
41
1
10
43.6447726856039
20
4.04809715749204
30
0
41
1
10
44.0175724821292
20
4.08751302088149
30
0
41
1
10
44.7641255165754
20
4.14329789003611
30
0
41
1
10
45.1390582546928
20
4.15959305319728
30
0
41
1
10
45.886012612237
20
4.1690248792535
30
0
41
1
10
46.2587385860806
20
4.16201874293796
30
0
41
1
10
47.0050720184387
20
4.12513589704966
30
0
41
1
10
47.3778884142207
20
4.09511627755595
30
0
41
1
10
47.7512116297212
20
4.05361509718364
30
0
0
SPLINE
5
B7
100
AcDbEntity
8
1
62
256
6
ByLayer
370
18
48
1
60
0
100
AcDbSpline
70
4
71
3
72
82
73
78
40
0
40
0
40
0
40
0
40
0.0094102493074297
40
0.0094102493074297
40
0.0460987585923393
40
0.0460987585923393
40
0.064443013234794
40
0.064443013234794
40
0.0827872678772487
40
0.0827872678772487
40
0.119475777162158
40
0.119475777162158
40
0.156164286447068
40
0.156164286447068
40
0.192852795731977
40
0.192852795731977
40
0.211197050374432
40
0.211197050374432
40
0.229541305016886
40
0.229541305016886
40
0.266229814301796
40
0.266229814301796
40
0.302918323586706
40
0.302918323586706
40
0.321262578229159
40
0.321262578229159
40
0.339606832871614
40
0.339606832871614
40
0.376295342156521
40
0.376295342156521
40
0.394639596798974
40
0.394639596798974
40
0.412983851441427
40
0.412983851441427
40
0.449672360726335
40
0.449672360726335
40
0.46801661536879
40
0.46801661536879
40
0.486360870011244
40
0.486360870011244
40
0.504705124653698
40
0.504705124653698
40
0.523049379296152
40
0.523049379296152
40
0.559737888581061
40
0.559737888581061
40
0.596426397865971
40
0.596426397865971
40
0.614770652508426
40
0.614770652508426
40
0.633114907150881
40
0.633114907150881
40
0.669803416435793
40
0.669803416435793
40
0.688147671078248
40
0.688147671078248
40
0.706491925720704
40
0.706491925720704
40
0.743180435005616
40
0.743180435005616
40
0.779868944290528
40
0.779868944290528
40
0.81655745357544
40
0.81655745357544
40
0.834901708217896
40
0.834901708217896
40
0.853245962860351
40
0.853245962860351
40
0.889934472145263
40
0.889934472145263
40
0.926622981430175
40
0.926622981430175
40
0.944967236072632
40
0.944967236072632
40
0.963311490715088
40
0.963311490715088
40
1
40
1
40
1
40
1
41
1
10
38.9158657263508
20
-2.938200365905
30
0
41
1
10
38.8311791127927
20
-2.96406149171861
30
0
41
1
10
38.7464977985617
20
-2.98949243546298
30
0
41
1
10
38.3317818172274
20
-3.11199135978498
30
0
41
1
10
38.0009243628978
20
-3.20118965590746
30
0
41
1
10
37.5045020447874
20
-3.32691917242642
30
0
41
1
10
37.3387776961013
20
-3.36709496610106
30
0
41
1
10
37.0079247187609
20
-3.44371608399132
30
0
41
1
10
36.8428023480915
20
-3.4802774581604
30
0
41
1
10
36.3471994428072
20
-3.58361439882844
30
0
41
1
10
36.0172071603839
20
-3.64509029753469
30
0
41
1
10
35.3566711008713
20
-3.74859965021065
30
0
41
1
10
35.0266297475844
20
-3.79270026784707
30
0
41
1
10
34.3653431824985
20
-3.86604661915209
30
0
41
1
10
34.033959232584
20
-3.89499523103362
30
0
41
1
10
33.538063379703
20
-3.92518210730401
30
0
41
1
10
33.3729595298339
20
-3.93307506090673
30
0
41
1
10
33.042631890637
20
-3.94370271372497
30
0
41
1
10
32.8774728226466
20
-3.94622066709903
30
0
41
1
10
32.3822593292804
20
-3.94719123249419
30
0
41
1
10
32.0522778675342
20
-3.94106440751682
30
0
41
1
10
31.392034009563
20
-3.91182635000598
30
0
41
1
10
31.0615361017733
20
-3.88906832051748
30
0
41
1
10
30.5650672978187
20
-3.84205086016433
30
0
41
1
10
30.3994795373116
20
-3.8242654822387
30
0
41
1
10
30.0690889621014
20
-3.78363558261603
30
0
41
1
10
29.9039534559122
20
-3.76080945034869
30
0
41
1
10
29.4085516278321
20
-3.68753981642126
30
0
41
1
10
29.0786900659008
20
-3.63081528118772
30
0
41
1
10
28.5835497427663
20
-3.5336834683888
30
0
41
1
10
28.4186724382662
20
-3.49915658402514
30
0
41
1
10
28.08851210701
20
-3.42691682754105
30
0
41
1
10
27.9233008167739
20
-3.3891459556292
30
0
41
1
10
27.4275117549511
20
-3.27041354959843
30
0
41
1
10
27.0962385066117
20
-3.18401428383851
30
0
41
1
10
26.6008487668372
20
-3.04357818009274
30
0
41
1
10
26.4357322419818
20
-2.99523320689073
30
0
41
1
10
26.1055612368709
20
-2.89476181458653
30
0
41
1
10
25.9405308800363
20
-2.84265138954794
30
0
41
1
10
25.6106418475226
20
-2.73547449004772
30
0
41
1
10
25.445575187696
20
-2.6808328282456
30
0
41
1
10
25.1156464519028
20
-2.56863867418403
30
0
41
1
10
24.9508155086609
20
-2.5109688172287
30
0
41
1
10
24.4556656309693
20
-2.33477315007448
30
0
41
1
10
24.125312525107
20
-2.21180744139375
30
0
41
1
10
23.4632974968794
20
-1.95639265895787
30
0
41
1
10
23.1332304581191
20
-1.82296411764241
30
0
41
1
10
22.6379823406864
20
-1.61924733212879
30
0
41
1
10
22.4730336583158
20
-1.55043396473974
30
0
41
1
10
22.1431853141915
20
-1.41122775811522
30
0
41
1
10
21.9781197579561
20
-1.34119506847185
30
0
41
1
10
21.4834774118653
20
-1.12769855917432
30
0
41
1
10
21.1534383843088
20
-0.983081659821551
30
0
41
1
10
20.657720064179
20
-0.762377986495324
30
0
41
1
10
20.4921812680676
20
-0.688146504348367
30
0
41
1
10
20.1610540954422
20
-0.539531502896381
30
0
41
1
10
19.9958090606225
20
-0.464566744419159
30
0
41
1
10
19.5000634105084
20
-0.239881376750446
30
0
41
1
10
19.1698233516047
20
-0.089779347646072
30
0
41
1
10
18.5095782290523
20
0.210492805948519
30
0
41
1
10
18.1797059621219
20
0.360938930775262
30
0
41
1
10
17.5187718867917
20
0.658679556769044
30
0
41
1
10
17.1878123754254
20
0.807017778089346
30
0
41
1
10
16.6912176631046
20
1.02598458569031
30
0
41
1
10
16.5259763487378
20
1.09872593247016
30
0
41
1
10
16.1952352544776
20
1.24179546679656
30
0
41
1
10
16.0298316693394
20
1.31251733435337
30
0
41
1
10
15.53385822351
20
1.52334012240686
30
0
41
1
10
15.2033120961661
20
1.66137740909127
30
0
41
1
10
14.5420157230935
20
1.93051418267217
30
0
41
1
10
14.2105275709647
20
2.06055222952511
30
0
41
1
10
13.7145772490281
20
2.24753506294121
30
0
41
1
10
13.5491412096752
20
2.30814456485777
30
0
41
1
10
13.2186098604574
20
2.42755708568666
30
0
41
1
10
13.0534837581281
20
2.48631183482002
30
0
41
1
10
12.5576539876947
20
2.6581235257172
30
0
41
1
10
12.2268176335362
20
2.76739266512158
30
0
41
1
10
11.895741863234
20
2.87069559060225
30
0
0
SPLINE
5
B8
100
AcDbEntity
8
1
62
256
6
ByLayer
370
18
48
1
60
0
100
AcDbSpline
70
4
71
3
72
8
73
4
40
0
40
0
40
0
40
0
40
1
40
1
40
1
40
1
41
1
10
48.9712102291286
20
-0.448005254481416
30
0
41
1
10
48.9836418457326
20
-0.333915407828357
30
0
41
1
10
48.9912054011469
20
-0.219861919356617
30
0
41
1
10
48.9927325385703
20
-0.10585351519498
30
0
0
SPLINE
5
B9
100
AcDbEntity
8
1
62
256
6
ByLayer
370
18
48
1
60
0
100
AcDbSpline
70
4
71
3
72
10
73
6
40
0
40
0
40
0
40
0
40
0.5
40
0.5
40
1
40
1
40
1
40
1
41
1
10
47.751211629714
20
4.05361509720422
30
0
41
1
10
47.92823599746
20
3.54641579898234
30
0
41
1
10
48.1103967119036
20
3.03898954617256
30
0
41
1
10
48.4827697946578
20
2.02422114965239
30
0
41
1
10
48.6721416642993
20
1.51927718459925
30
0
41
1
10
48.862874216347
20
1.01666494986597
30
0
0
SPLINE
5
BA
100
AcDbEntity
8
1
62
256
6
ByLayer
370
18
48
1
60
0
100
AcDbSpline
70
4
71
3
72
8
73
4
40
0
40
0
40
0
40
0
40
1
40
1
40
1
40
1
41
1
10
47.7512116297208
20
-4.05361509718401
30
0
41
1
10
47.6975115633076
20
-4.11000367071458
30
0
41
1
10
47.6427944434641
20
-4.14525391433651
30
0
41
1
10
47.5864806346535
20
-4.15958474585733
30
0
0
SPLINE
5
BB
100
AcDbEntity
8
1
62
256
6
ByLayer
370
18
48
1
60
0
100
AcDbSpline
70
4
71
3
72
26
73
22
40
0
40
0
40
0
40
0
40
0.0639796217843672
40
0.0639796217843672
40
0.127959243568734
40
0.127959243568734
40
0.255918487137469
40
0.255918487137469
40
0.319898108921836
40
0.319898108921836
40
0.383877730706203
40
0.383877730706203
40
0.511836974274937
40
0.511836974274937
40
0.639796217843672
40
0.639796217843672
40
0.767755461412406
40
0.767755461412406
40
0.89571470498114
40
0.89571470498114
40
1
40
1
40
1
40
1
41
1
10
3.00206414962779
20
-3.45974368502172
30
0
41
1
10
3.14708229727995
20
-3.53453307222605
30
0
41
1
10
3.30504286929431
20
-3.59552037643715
30
0
41
1
10
3.6347211066383
20
-3.69879767110993
30
0
41
1
10
3.80434938640229
20
-3.74033591136029
30
0
41
1
10
4.32224089044399
20
-3.843966730153
30
0
41
1
10
4.67933649572552
20
-3.8853272615315
30
0
41
1
10
5.22429420045168
20
-3.92137348215428
30
0
41
1
10
5.40761947783238
20
-3.92882438988175
30
0
41
1
10
5.77722617097322
20
-3.93503398447143
30
0
41
1
10
5.96379241886984
20
-3.93374303045022
30
0
41
1
10
6.52515716399881
20
-3.91817327221679
30
0
41
1
10
6.90120050042606
20
-3.89247201659549
30
0
41
1
10
7.65670695224031
20
-3.81429799997548
30
0
41
1
10
8.0361044301298
20
-3.76277866146489
30
0
41
1
10
8.79922441577506
20
-3.63589453475117
30
0
41
1
10
9.18323835965765
20
-3.5596328954145
30
0
41
1
10
9.95202515439712
20
-3.38831466389468
30
0
41
1
10
10.3375026438502
20
-3.29320439281179
30
0
41
1
10
11.0410928880203
20
-3.10999984228644
30
0
41
1
10
11.358441985199
20
-3.02306801027248
30
0
41
1
10
11.6778707043848
20
-2.9327303853612
30
0
0
SPLINE
5
BC
100
AcDbEntity
8
1
62
256
6
ByLayer
370
18
48
1
60
0
100
AcDbSpline
70
4
71
3
72
10
73
6
40
0
40
0
40
0
40
0
40
0.5
40
0.5
40
1
40
1
40
1
40
1
41
1
10
48.8628742163471
20
-1.01666494986583
30
0
41
1
10
48.886897697676
20
-0.918877045635583
30
0
41
1
10
48.9081604515359
20
-0.822988280563152
30
0
41
1
10
48.9444947546142
20
-0.633818151845247
30
0
41
1
10
48.9595883088364
20
-0.540321378535964
30
0
41
1
10
48.9712102291287
20
-0.448005254481416
30
0
0
SPLINE
5
BD
100
AcDbEntity
8
1
62
256
6
ByLayer
370
18
48
1
60
0
100
AcDbSpline
70
4
71
3
72
14
73
10
40
0
40
0
40
0
40
0
40
0.25
40
0.25
40
0.5
40
0.5
40
0.75
40
0.75
40
1
40
1
40
1
40
1
41
1
10
47.6390724138128
20
-3.95573689603125
30
0
41
1
10
47.642308371836
20
-3.95521845677465
30
0
41
1
10
47.6448561428824
20
-3.95645597526718
30
0
41
1
10
47.648197489227
20
-3.96344365238019
30
0
41
1
10
47.6489313896715
20
-3.96929470577956
30
0
41
1
10
47.64759569133
20
-3.98636474432192
30
0
41
1
10
47.6454874134743
20
-3.99750190342928
30
0
41
1
10
47.6387567073867
20
-4.02244055098495
30
0
41
1
10
47.634175458275
20
-4.03612475741016
30
0
41
1
10
47.629110507231
20
-4.04927088325604
30
0
0
SPLINE
5
BE
100
AcDbEntity
8
1
62
256
6
ByLayer
370
18
48
1
60
0
100
AcDbSpline
70
4
71
3
72
14
73
10
40
0
40
0
40
0
40
0
40
0.333804324546594
40
0.333804324546594
40
0.535559749333666
40
0.535559749333666
40
0.737315174120739
40
0.737315174120739
40
1
40
1
40
1
40
1
41
1
10
6.25078924933214
20
0.0105230933671123
30
0
41
1
10
7.01910348053269
20
-0.347265498174408
30
0
41
1
10
7.78412772588936
20
-0.703850799498639
30
0
41
1
10
9.01409030804302
20
-1.25691901133283
30
0
41
1
10
9.47792454065223
20
-1.461142550104
30
0
41
1
10
10.4086013559344
20
-1.85695909523855
30
0
41
1
10
10.8758736798206
20
-2.04835345741316
30
0
41
1
10
11.9564619587096
20
-2.46806774114492
30
0
41
1
10
12.5630838732266
20
-2.68726647270557
30
0
41
1
10
13.1676337470808
20
-2.88473850298436
30
0
0
SPLINE
5
BF
100
AcDbEntity
8
1
62
256
6
ByLayer
370
13
48
1
60
0
100
AcDbSpline
70
4
71
3
72
16
73
12
40
0
40
0
40
0
40
0
40
0.113110066923009
40
0.113110066923009
40
0.437206300156169
40
0.437206300156169
40
0.599254416772749
40
0.599254416772749
40
0.76130253338933
40
0.76130253338933
40
1
40
1
40
1
40
1
41
1
10
13.1676346976547
20
-2.88473881348273
30
0
41
1
10
13.4917351516322
20
-2.99060397081337
30
0
41
1
10
13.8152400901868
20
-3.09022475506851
30
0
41
1
10
15.0648649309204
20
-3.44904749022393
30
0
41
1
10
15.9892220857608
20
-3.65998198975652
30
0
41
1
10
17.3852822408876
20
-3.8786331568113
30
0
41
1
10
17.852627948832
20
-3.93527022009596
30
0
41
1
10
18.7910986102484
20
-4.01387257311112
30
0
41
1
10
19.257714081445
20
-4.03549907283093
30
0
41
1
10
20.4076595233646
20
-4.04551675275783
30
0
41
1
10
21.0894147104769
20
-4.01353110277873
30
0
41
1
10
21.7710810084279
20
-3.94477256071937
30
0
0
SPLINE
5
C0
100
AcDbEntity
8
1
62
256
6
ByLayer
370
18
48
1
60
0
100
AcDbSpline
70
4
71
3
72
8
73
4
40
0
40
0
40
0
40
0
40
1
40
1
40
1
40
1
41
1
10
2.76067188417468
20
1.71946927508551
30
0
41
1
10
2.75678633447683
20
1.73198028691479
30
0
41
1
10
2.75478705378288
20
1.74470299810781
30
0
41
1
10
2.754787460481
20
1.75764835235216
30
0
0
SPLINE
5
C1
100
AcDbEntity
8
1
62
256
6
ByLayer
370
18
48
1
60
0
100
AcDbSpline
70
4
71
3
72
10
73
6
40
0
40
0
40
0
40
0
40
0.5
40
0.5
40
1
40
1
40
1
40
1
41
1
10
48.9927325385699
20
0.105853515195662
30
0
41
1
10
48.9928578724875
20
0.096496714875741
30
0
41
1
10
48.9935977831453
20
0.0859766466138865
30
0
41
1
10
48.9960109284323
20
0.0639381822777239
30
0
41
1
10
48.9976807738401
20
0.052356296438262
30
0
41
1
10
48.9997623301445
20
0.0402847958817745
30
0
0
SPLINE
5
C2
100
AcDbEntity
8
1
62
256
6
ByLayer
370
18
48
1
60
0
100
AcDbSpline
70
4
71
3
72
61
73
57
40
0
40
0
40
0
40
0
40
0.0312499999999974
40
0.0312499999999974
40
0.0468749999999956
40
0.0468749999999956
40
0.0624999999999937
40
0.0624999999999937
40
0.0781249999999918
40
0.0781249999999918
40
0.0937499999999899
40
0.0937499999999899
40
0.124999999999985
40
0.124999999999985
40
0.140624999999983
40
0.140624999999983
40
0.156249999999981
40
0.156249999999981
40
0.171874999999979
40
0.171874999999979
40
0.187499999999977
40
0.187499999999977
40
0.203124999999975
40
0.203124999999975
40
0.218749999999973
40
0.218749999999973
40
0.249999999999967
40
0.249999999999967
40
0.281249999999962
40
0.281249999999962
40
0.312499999999956
40
0.312499999999956
40
0.316406249999956
40
0.316406249999956
40
0.320312499999955
40
0.320312499999955
40
0.328124999999955
40
0.328124999999955
40
0.332031249999955
40
0.332031249999955
40
0.335937499999956
40
0.343749999999957
40
0.343749999999957
40
0.374999999999959
40
0.374999999999959
40
0.499999999999967
40
0.499999999999967
40
0.624999999999975
40
0.624999999999975
40
0.68749999999998
40
0.68749999999998
40
0.749999999999984
40
0.749999999999984
40
0.874999999999992
40
0.874999999999992
40
1
40
1
40
1
40
1
41
1
10
2.75490159108918
20
-3.69034887805734
30
0
41
1
10
2.66354110981843
20
-3.65029698343915
30
0
41
1
10
2.57567792326961
20
-3.60625987077853
30
0
41
1
10
2.45126265483526
20
-3.53214789310005
30
0
41
1
10
2.41103000895561
20
-3.50609141949491
30
0
41
1
10
2.33362349191697
20
-3.45071228706991
30
0
41
1
10
2.29632077761414
20
-3.421263532766
30
0
41
1
10
2.22663604373037
20
-3.35925958433381
30
0
41
1
10
2.19416275829167
20
-3.32666506590661
30
0
41
1
10
2.13500092444929
20
-3.25767294226327
30
0
41
1
10
2.10820545569925
20
-3.22110872154769
30
0
41
1
10
2.0394311211524
20
-3.10553113878825
30
0
41
1
10
2.00976374683452
20
-3.02240578311182
30
0
41
1
10
1.9981147671289
20
-2.88614118236799
30
0
41
1
10
1.99995811598711
20
-2.83920727484221
30
0
41
1
10
2.01500452009049
20
-2.74578013918864
30
0
41
1
10
2.02814906451857
20
-2.69880689767891
30
0
41
1
10
2.06538662548368
20
-2.60447076033085
30
0
41
1
10
2.08962822349812
20
-2.55707844615523
30
0
41
1
10
2.14604508024934
20
-2.46571375465709
30
0
41
1
10
2.17838993651475
20
-2.42122192399339
30
0
41
1
10
2.25002407146775
20
-2.33431301028813
30
0
41
1
10
2.28957431261313
20
-2.29166328113143
30
0
41
1
10
2.37305479885927
20
-2.20971220027303
30
0
41
1
10
2.41699088512809
20
-2.17032500990567
30
0
41
1
10
2.55412357689397
20
-2.05609140663529
30
0
41
1
10
2.65257235134195
20
-1.98512303428347
30
0
41
1
10
2.85941756754804
20
-1.85081316257745
30
0
41
1
10
2.96738734766231
20
-1.78786243983197
30
0
41
1
10
3.18804985300042
20
-1.66947148162546
30
0
41
1
10
3.30123581898661
20
-1.6137739323562
30
0
41
1
10
3.43064891913218
20
-1.55447486269759
30
0
41
1
10
3.44505181103588
20
-1.5479355696863
30
0
41
1
10
3.47390351949522
20
-1.53495333725732
30
0
41
1
10
3.48809137884766
20
-1.52788586744521
30
0
41
1
10
3.53277999317277
20
-1.51174935969615
30
0
41
1
10
3.56599272268357
20
-1.5076347800634
30
0
41
1
10
3.6157506197552
20
-1.50734752616566
30
0
41
1
10
3.63230753572822
20
-1.50795337704841
30
0
41
1
10
3.66544266379157
20
-1.50865069066248
30
0
41
1
10
3.7151423613476
20
-1.50976892673816
30
0
41
1
10
3.76483386761214
20
-1.51108475713949
30
0
41
1
10
3.9304574610039
20
-1.51582654651932
30
0
41
1
10
4.06290752803551
20
-1.52079640897699
30
0
41
1
10
4.72490004629987
20
-1.55183362827043
30
0
41
1
10
5.25264429365666
20
-1.59609123813976
30
0
41
1
10
6.30144241818363
20
-1.71936501602394
30
0
41
1
10
6.82298021412009
20
-1.79853923825107
30
0
41
1
10
7.60135471981658
20
-1.93909275524158
30
0
41
1
10
7.86039446529773
20
-1.98961894306294
30
0
41
1
10
8.37562023454609
20
-2.09663688253625
30
0
41
1
10
8.63188672928891
20
-2.15313359487351
30
0
41
1
10
9.39695203088641
20
-2.32968552940815
30
0
41
1
10
9.90199776846291
20
-2.45683673128343
30
0
41
1
10
10.904139281638
20
-2.71889018642034
30
0
41
1
10
11.4012428074068
20
-2.85374475950428
30
0
41
1
10
11.8957418632341
20
-2.98638232500454
30
0
0
SPLINE
5
C3
100
AcDbEntity
8
1
62
256
6
ByLayer
370
13
48
1
60
0
100
AcDbSpline
70
4
71
3
72
12
73
8
40
0
40
0
40
0
40
0
40
0.499999999999999
40
0.499999999999999
40
0.749999999999999
40
0.749999999999999
40
1
40
1
40
1
40
1
41
1
10
2.75478746048105
20
1.75764835236009
30
0
41
1
10
2.76127652321071
20
1.72180150481438
30
0
41
1
10
2.77671827251942
20
1.68734646500448
30
0
41
1
10
2.81217816845432
20
1.64272146810197
30
0
41
1
10
2.82633765777092
20
1.62872044495884
30
0
41
1
10
2.85823310757317
20
1.60431404310981
30
0
41
1
10
2.87588021560839
20
1.59385600878267
30
0
41
1
10
2.89547835363862
20
1.58538056364716
30
0
0
SPLINE
5
C4
100
AcDbEntity
8
1
62
256
6
ByLayer
370
18
48
1
60
0
100
AcDbSpline
70
4
71
3
72
46
73
42
40
0
40
0
40
0
40
0
40
0.0503854017614379
40
0.0503854017614379
40
0.100770803522876
40
0.100770803522876
40
0.151156205284314
40
0.151156205284314
40
0.201541607045752
40
0.201541607045752
40
0.251927008807189
40
0.251927008807189
40
0.277119709687909
40
0.277119709687909
40
0.302312410568628
40
0.302312410568628
40
0.352697812330064
40
0.352697812330064
40
0.403083214091501
40
0.403083214091501
40
0.503854017614373
40
0.503854017614373
40
0.604624821137245
40
0.604624821137245
40
0.655010222898681
40
0.655010222898681
40
0.705395624660117
40
0.705395624660117
40
0.730588325540835
40
0.730588325540835
40
0.755781026421552
40
0.755781026421552
40
0.806166428182987
40
0.806166428182987
40
0.856551829944422
40
0.856551829944422
40
0.906937231705857
40
0.906937231705857
40
0.957322633467292
40
0.957322633467292
40
1
40
1
40
1
40
1
41
1
10
47.5864806346535
20
-4.15958474585733
30
0
41
1
10
47.1207706077692
20
-4.17259192511355
30
0
41
1
10
46.6554240212864
20
-4.16744519257333
30
0
41
1
10
45.7234153697331
20
-4.12112465453274
30
0
41
1
10
45.2571071622834
20
-4.07991226746262
30
0
41
1
10
44.3257500416577
20
-3.96260892413793
30
0
41
1
10
43.8594799391879
20
-3.88640585841986
30
0
41
1
10
42.9276659166237
20
-3.70101868150328
30
0
41
1
10
42.4628533860558
20
-3.59212054730327
30
0
41
1
10
41.533328404278
20
-3.34427100504385
30
0
41
1
10
41.0685571293297
20
-3.2053772103468
30
0
41
1
10
40.3696553233614
20
-2.97671374393082
30
0
41
1
10
40.1363093922984
20
-2.89705162042489
30
0
41
1
10
39.6705576815695
20
-2.73192920359855
30
0
41
1
10
39.4379403232893
20
-2.64640295054758
30
0
41
1
10
38.7404483829581
20
-2.38162813919723
30
0
41
1
10
38.2758588309709
20
-2.19430570303496
30
0
41
1
10
37.345313050576
20
-1.8018617901306
30
0
41
1
10
36.8785204028562
20
-1.59628573299474
30
0
41
1
10
35.481730434944
20
-0.96334575360072
30
0
41
1
10
34.5540938578727
20
-0.518654905228203
30
0
41
1
10
32.6880361467643
20
0.377046675183976
30
0
41
1
10
31.7604978489811
20
0.823773332627638
30
0
41
1
10
30.3633075066903
20
1.46299220168646
30
0
41
1
10
29.8964400483929
20
1.67109082743156
30
0
41
1
10
28.9658286778922
20
2.0697806720172
30
0
41
1
10
28.5011404698872
20
2.26067544314671
30
0
41
1
10
27.8033399022305
20
2.5313417894204
30
0
41
1
10
27.5706141799864
20
2.61895650703497
30
0
41
1
10
27.1046234444586
20
2.7884732857533
30
0
41
1
10
26.8711740598565
20
2.87043451936083
30
0
41
1
10
26.1721029976645
20
3.10627306902333
30
0
41
1
10
25.7071970331201
20
3.25038265998009
30
0
41
1
10
24.7772191824522
20
3.50921639448478
30
0
41
1
10
24.3121171826234
20
3.62391511264917
30
0
41
1
10
23.379487498807
20
3.82135194067541
30
0
41
1
10
22.9133445817241
20
3.90389078422143
30
0
41
1
10
21.9830558471454
20
4.03409474614571
30
0
41
1
10
21.5182162814906
20
4.08187557877054
30
0
41
1
10
20.6581838666834
20
4.13727521241822
30
0
41
1
10
20.2628134409484
20
4.14990635717214
30
0
41
1
10
19.8681016664291
20
4.14956540860013
30
0
0
SPLINE
5
C5
100
AcDbEntity
8
1
62
256
6
ByLayer
370
18
48
1
60
0
100
AcDbSpline
70
4
71
3
72
8
73
4
40
0
40
0
40
0
40
0
40
1
40
1
40
1
40
1
41
1
10
48.9712102291284
20
0.448005254483547
30
0
41
1
10
48.9836673923511
20
0.333680956438627
30
0
41
1
10
48.9912087575305
20
0.219611348625534
30
0
41
1
10
48.9927325385703
20
0.10585351519498
30
0
0
SPLINE
5
C6
100
AcDbEntity
8
1
62
256
6
ByLayer
370
18
48
1
60
0
100
AcDbSpline
70
4
71
3
72
10
73
6
40
0
40
0
40
0
40
0
40
0.5
40
0.5
40
1
40
1
40
1
40
1
41
1
10
48.9641470423177
20
-0.0578639589739964
30
0
41
1
10
48.6514461549069
20
-0.570125326519644
30
0
41
1
10
48.3192065103135
20
-1.06230307956065
30
0
41
1
10
47.6340653084468
20
-2.02542049535339
30
0
41
1
10
47.2807182440598
20
-2.4960910310129
30
0
41
1
10
46.921258051439
20
-2.95944807925679
30
0
0
SPLINE
5
C7
100
AcDbEntity
8
1
62
256
6
ByLayer
370
18
48
1
60
0
100
AcDbSpline
70
4
71
3
72
8
73
4
40
0
40
0
40
0
40
0
40
1
40
1
40
1
40
1
41
1
10
48.8628742163471
20
1.016664949866
30
0
41
1
10
48.8569633232422
20
0.995180345324542
30
0
41
1
10
48.8509509904631
20
0.973739424627809
30
0
41
1
10
48.8448401745119
20
0.952341416631441
30
0
0
SPLINE
5
C8
100
AcDbEntity
8
1
62
256
6
ByLayer
370
18
48
1
60
0
100
AcDbSpline
70
4
71
3
72
68
73
64
40
0
40
0
40
0
40
0
40
0.0331208082248554
40
0.0331208082248554
40
0.0662416164497108
40
0.0662416164497108
40
0.0993624246745662
40
0.0993624246745662
40
0.132483232899422
40
0.132483232899422
40
0.165604041124277
40
0.165604041124277
40
0.198724849349133
40
0.198724849349133
40
0.231845657573988
40
0.231845657573988
40
0.264966465798843
40
0.264966465798843
40
0.298087274023699
40
0.298087274023699
40
0.331208082248554
40
0.331208082248554
40
0.36432889047341
40
0.36432889047341
40
0.397449698698265
40
0.397449698698265
40
0.43057050692312
40
0.43057050692312
40
0.463691315147976
40
0.463691315147976
40
0.496812123372831
40
0.496812123372831
40
0.529932931597687
40
0.529932931597687
40
0.563053739822542
40
0.563053739822542
40
0.596174548047397
40
0.596174548047397
40
0.629295356272253
40
0.629295356272253
40
0.662416164497108
40
0.662416164497108
40
0.695536972721964
40
0.695536972721964
40
0.728657780946819
40
0.728657780946819
40
0.761778589171675
40
0.761778589171675
40
0.79489939739653
40
0.79489939739653
40
0.828020205621385
40
0.828020205621385
40
0.861141013846241
40
0.861141013846241
40
0.894261822071096
40
0.894261822071096
40
0.927382630295952
40
0.927382630295952
40
0.960503438520807
40
0.960503438520807
40
0.993624246745662
40
0.993624246745662
40
1
40
1
40
1
40
1
41
1
10
11.895741863234
20
2.98638232500451
30
0
41
1
10
12.2696198868472
20
3.11185778367448
30
0
41
1
10
12.6437592657732
20
3.22695052426891
30
0
41
1
10
13.3909351054529
20
3.43937286030848
30
0
41
1
10
13.7635202359145
20
3.53706053816975
30
0
41
1
10
14.510409208369
20
3.71104432350472
30
0
41
1
10
14.8844353240911
20
3.78787129273113
30
0
41
1
10
15.6330511469102
20
3.92084379078193
30
0
41
1
10
16.0067184423761
20
3.97616787337023
30
0
41
1
10
16.7537016389971
20
4.06433834291695
30
0
41
1
10
17.1263007664109
20
4.09744451729441
30
0
41
1
10
17.8730996351321
20
4.14028604804682
30
0
41
1
10
18.2472308102058
20
4.15024140905678
30
0
41
1
10
18.9957014913153
20
4.14687405249708
30
0
41
1
10
19.3692625981061
20
4.13351849667728
30
0
41
1
10
20.1161798698549
20
4.08410106618425
30
0
41
1
10
20.4887640050598
20
4.0477156687576
30
0
41
1
10
21.2354742080884
20
3.95284422509857
30
0
41
1
10
21.6097052999991
20
3.89440996652874
30
0
41
1
10
22.3580294845981
20
3.75514976176106
30
0
41
1
10
22.7314863677083
20
3.67499720499603
30
0
41
1
10
23.478334090881
20
3.49530767814412
30
0
41
1
10
23.8509115045799
20
3.39483918990189
30
0
41
1
10
24.5975310418305
20
3.17619680023219
30
0
41
1
10
24.9718568104825
20
3.05804825082635
30
0
41
1
10
25.7200344704152
20
2.80357991330169
30
0
41
1
10
26.0933900446946
20
2.66847567347722
30
0
41
1
10
26.8401647468201
20
2.38522373370293
30
0
41
1
10
27.2127436688006
20
2.23563770215318
30
0
41
1
10
27.9592702775341
20
1.92561992158642
30
0
41
1
10
28.333685288289
20
1.76533329965446
30
0
41
1
10
29.0817165237491
20
1.43350225734034
30
0
41
1
10
29.4549738302208
20
1.26350006498876
30
0
41
1
10
30.2016718296916
20
0.918815500265652
30
0
41
1
10
30.5742594933673
20
0.742395114153879
30
0
41
1
10
31.3206930021732
20
0.387052375564281
30
0
41
1
10
31.6951905010503
20
0.208483273880546
30
0
41
1
10
32.4430755689163
20
-0.151336513237482
30
0
41
1
10
32.8162377849372
20
-0.330955510963889
30
0
41
1
10
33.5628551929343
20
-0.685788740864581
30
0
41
1
10
33.9354544809382
20
-0.862778768824001
30
0
41
1
10
34.681803017018
20
-1.21056771031914
30
0
41
1
10
35.0563720502768
20
-1.38084461471706
30
0
41
1
10
35.8041113772703
20
-1.71509829489818
30
0
41
1
10
36.1771818289116
20
-1.87758904449265
30
0
41
1
10
36.9237145483912
20
-2.18975880731685
30
0
41
1
10
37.296327529034
20
-2.3409812723597
30
0
41
1
10
38.0426000532198
20
-2.62939635696819
30
0
41
1
10
38.417228726944
20
-2.76603400582201
30
0
41
1
10
39.1648242136386
20
-3.02495346329616
30
0
41
1
10
39.5378057652122
20
-3.14609321119272
30
0
41
1
10
40.2842495097841
20
-3.36911185870486
30
0
41
1
10
40.6568778215257
20
-3.4720761028124
30
0
41
1
10
41.4030833544658
20
-3.65808528648108
30
0
41
1
10
41.7777424012165
20
-3.74073015723434
30
0
41
1
10
42.5252441623362
20
-3.88574472495196
30
0
41
1
10
42.8982008955837
20
-3.9474581594157
30
0
41
1
10
43.644772685604
20
-4.04809715749204
30
0
41
1
10
44.0175724821293
20
-4.08751302088149
30
0
41
1
10
44.7641255165755
20
-4.14329789003611
30
0
41
1
10
45.1390582546929
20
-4.15959305319728
30
0
41
1
10
45.5844297641169
20
-4.16521677915171
30
0
41
1
10
45.6562962579515
20
-4.16569021720434
30
0
41
1
10
45.7281434175105
20
-4.16573132595363
30
0
0
SPLINE
5
C9
100
AcDbEntity
8
1
62
256
6
ByLayer
370
13
48
1
60
0
100
AcDbSpline
70
4
71
3
72
25
73
21
40
0
40
0
40
0
40
0
40
0.177964006664907
40
0.177964006664907
40
0.26694600999736
40
0.26694600999736
40
0.355928013329813
40
0.444910016662266
40
0.444910016662266
40
0.53389201999472
40
0.53389201999472
40
0.711856026659627
40
0.711856026659627
40
0.80083802999208
40
0.80083802999208
40
0.889820033324533
40
0.889820033324533
40
0.978802036656987
40
0.978802036656987
40
1
40
1
40
1
40
1
41
1
10
3.00151093999847
20
1.54976171148132
30
0
41
1
10
3.00155036617247
20
1.8016628507709
30
0
41
1
10
3.00158208856104
20
2.0394292511663
30
0
41
1
10
3.00162261217497
20
2.37499561574199
30
0
41
1
10
3.00163484852209
20
2.48258886234612
30
0
41
1
10
3.00165731823839
20
2.68686857122088
30
0
41
1
10
3.00167788597901
20
2.88108323936609
30
0
41
1
10
3.00169617942149
20
3.05536092670863
30
0
41
1
10
3.00171403167479
20
3.21944284865845
30
0
41
1
10
3.00172276126196
20
3.29651935717985
30
0
41
1
10
3.0017486599146
20
3.50703164133591
30
0
41
1
10
3.00176579536159
20
3.62191595505658
30
0
41
1
10
3.00179415429412
20
3.75619096594733
30
0
41
1
10
3.001804083259
20
3.79467984395564
30
0
41
1
10
3.00182484920211
20
3.85751837172634
30
0
41
1
10
3.00183567707552
20
3.88193195932388
30
0
41
1
10
3.00185834127404
20
3.91673820994714
30
0
41
1
10
3.00187016495721
20
3.92703975209849
30
0
41
1
10
3.00188517485813
20
3.93097557916201
30
0
41
1
10
3.00188808200363
20
3.93133295238249
30
0
41
1
10
3.00189100708829
20
3.93129082322002
30
0
0
SPLINE
5
CA
100
AcDbEntity
8
1
62
256
6
ByLayer
370
18
48
1
60
0
100
AcDbSpline
70
4
71
3
72
8
73
4
40
0
40
0
40
0
40
0
40
1
40
1
40
1
40
1
41
1
10
48.8448401745117
20
0.952341416631185
30
0
41
1
10
48.903746151319
20
0.784819242605835
30
0
41
1
10
48.9450647179081
20
0.616678901768466
30
0
41
1
10
48.9712102291284
20
0.448005254483547
30
0
0
SPLINE
5
CB
100
AcDbEntity
8
1
62
256
6
ByLayer
370
18
48
1
60
0
100
AcDbSpline
70
4
71
3
72
12
73
8
40
0
40
0
40
0
40
0
40
0.500000000000026
40
0.500000000000026
40
0.750000000000013
40
0.750000000000013
40
1
40
1
40
1
40
1
41
1
10
2.76067188417375
20
1.71946927508492
30
0
41
1
10
2.76999353106061
20
1.68177586643895
30
0
41
1
10
2.78620672428525
20
1.6458630332429
30
0
41
1
10
2.82019579257039
20
1.59893353315766
30
0
41
1
10
2.83338674789846
20
1.58418771435856
30
0
41
1
10
2.86231213747965
20
1.55840583577967
30
0
41
1
10
2.87812257164288
20
1.54718721455717
30
0
41
1
10
2.89547835363862
20
1.53788439658865
30
0
0
SPLINE
5
CC
100
AcDbEntity
8
1
62
256
6
ByLayer
370
18
48
1
60
0
100
AcDbSpline
70
4
71
3
72
8
73
4
40
0
40
0
40
0
40
0
40
1
40
1
40
1
40
1
41
1
10
47.5864806346535
20
4.15958474585733
30
0
41
1
10
47.4154184998417
20
4.16436247389197
30
0
41
1
10
47.244385418157
20
4.16669142567963
30
0
41
1
10
47.0733307536499
20
4.16657685472609
30
0
0
SPLINE
5
CD
100
AcDbEntity
8
1
62
256
6
ByLayer
370
18
48
1
60
0
100
AcDbSpline
70
4
71
3
72
36
73
32
40
0
40
0
40
0
40
0
40
0.0027424513867285
40
0.0027424513867285
40
0.0739751334305339
40
0.0739751334305339
40
0.145207815474339
40
0.145207815474339
40
0.216440497518144
40
0.216440497518144
40
0.28767317956195
40
0.28767317956195
40
0.358905861605755
40
0.358905861605755
40
0.43013854364956
40
0.43013854364956
40
0.501371225693366
40
0.501371225693366
40
0.536987566715269
40
0.536987566715269
40
0.572603907737172
40
0.572603907737172
40
0.715069271824781
40
0.715069271824781
40
0.786301953868586
40
0.786301953868586
40
0.857534635912391
40
0.857534635912391
40
0.928767317956195
40
0.928767317956195
40
1
40
1
40
1
40
1
41
1
10
22.5068926653599
20
-3.96068665891417
30
0
41
1
10
22.4889808683393
20
-3.9632494036658
30
0
41
1
10
22.4710681178029
20
-3.96578677967875
30
0
41
1
10
21.9878603210205
20
-4.03354431245063
30
0
41
1
10
21.5209538667811
20
-4.0816317922295
30
0
41
1
10
20.589481518333
20
-4.14176778830904
30
0
41
1
10
20.1247822568734
20
-4.15397153635635
30
0
41
1
10
19.1948168315935
20
-4.14238704184126
30
0
41
1
10
18.7294388343148
20
-4.11862478613259
30
0
41
1
10
17.7962666549192
20
-4.03538403643213
30
0
41
1
10
17.3310169048813
20
-3.97612564950819
30
0
41
1
10
16.4009404677235
20
-3.82389658524414
30
0
41
1
10
15.936127721983
20
-3.73090611499342
30
0
41
1
10
15.0045222425302
20
-3.51318242497584
30
0
41
1
10
14.5375409232821
20
-3.38831866387929
30
0
41
1
10
13.6067291682112
20
-3.11105405596206
30
0
41
1
10
13.1420116245647
20
-2.95846014149691
30
0
41
1
10
12.444146518775
20
-2.71125233815729
30
0
41
1
10
12.2113954801372
20
-2.62579662613152
30
0
41
1
10
11.7453430529053
20
-2.44922677227365
30
0
41
1
10
11.5118561747359
20
-2.35803559362114
30
0
41
1
10
10.3464229133985
20
-1.89075511268175
30
0
41
1
10
9.41868296003511
20
-1.47872668977351
30
0
41
1
10
8.01948959542815
20
-0.83123786967127
30
0
41
1
10
7.55308766432137
20
-0.610746127429366
30
0
41
1
10
6.62176674035038
20
-0.167036126378349
30
0
41
1
10
6.15620926399754
20
0.0563206930420392
30
0
41
1
10
5.22311609517061
20
0.501455081041399
30
0
41
1
10
4.75690965810583
20
0.722578478595977
30
0
41
1
10
3.8256142284913
20
1.15626193698105
30
0
41
1
10
3.36001152260567
20
1.36879744889413
30
0
41
1
10
2.89342496742452
20
1.57494525060088
30
0
0
SPLINE
5
CE
100
AcDbEntity
8
1
62
256
6
ByLayer
370
18
48
1
60
0
100
AcDbSpline
70
4
71
3
72
38
73
34
40
0
40
0
40
0
40
0
40
0.125000000000005
40
0.125000000000005
40
0.250000000000011
40
0.250000000000011
40
0.31250000000001
40
0.31250000000001
40
0.37500000000001
40
0.37500000000001
40
0.500000000000004
40
0.500000000000004
40
0.562500000000001
40
0.562500000000001
40
0.624999999999997
40
0.624999999999997
40
0.749999999999997
40
0.749999999999997
40
0.812499999999996
40
0.812499999999996
40
0.843749999999996
40
0.843749999999996
40
0.851562499999996
40
0.851562499999996
40
0.859374999999996
40
0.859374999999996
40
0.863281249999996
40
0.863281249999996
40
0.867187499999996
40
0.867187499999996
40
0.874999999999996
40
0.874999999999996
40
1
40
1
40
1
40
1
41
1
10
43.6168137012957
20
1.15207241941641
30
0
41
1
10
43.7902989424318
20
1.02203562135145
30
0
41
1
10
43.9670383462054
20
0.90128398698829
30
0
41
1
10
44.3274159021386
20
0.679465047299487
30
0
41
1
10
44.5108414549278
20
0.577791128175789
30
0
41
1
10
44.7915071462648
20
0.441051576294825
30
0
41
1
10
44.8860583655775
20
0.398063240543962
30
0
41
1
10
45.0748181442209
20
0.318380918208277
30
0
41
1
10
45.1692944022856
20
0.281551852043208
30
0
41
1
10
45.453017072779
20
0.180250656678766
30
0
41
1
10
45.6425602279095
20
0.125053497571486
30
0
41
1
10
45.927566523436
20
0.0638732006228224
30
0
41
1
10
46.0226781555003
20
0.0469033418138167
30
0
41
1
10
46.2131366095982
20
0.0203147061823756
30
0
41
1
10
46.3087982165605
20
0.0107983808814822
30
0
41
1
10
46.5935114445234
20
-0.0049070454832645
30
0
41
1
10
46.7801356378898
20
0.0012980472270669
30
0
41
1
10
47.054509140715
20
0.0397336262722661
30
0
41
1
10
47.145009502518
20
0.0574150650983825
30
0
41
1
10
47.2779133069158
20
0.0921127368183647
30
0
41
1
10
47.3217819723546
20
0.105069299195407
30
0
41
1
10
47.3759521749746
20
0.123022905529155
30
0
41
1
10
47.3868281974028
20
0.126503008052595
30
0
41
1
10
47.4083235961971
20
0.134139453623931
30
0
41
1
10
47.4187151013343
20
0.139254827769008
30
0
41
1
10
47.4306560683593
20
0.152216423038112
30
0
41
1
10
47.4340420116305
20
0.157398513162434
30
0
41
1
10
47.4387806481146
20
0.169183819253846
30
0
41
1
10
47.4398193220938
20
0.175871136057225
30
0
41
1
10
47.4417729832355
20
0.196614914235539
30
0
41
1
10
47.4429681449875
20
0.210481407622183
30
0
41
1
10
47.461769060014
20
0.446739297936745
30
0
41
1
10
47.4595742954648
20
0.675688370208604
30
0
41
1
10
47.4437907969364
20
0.904557961328891
30
0
0
LINE
5
76
100
AcDbEntity
8
81
62
256
6
ByLayer
370
18
48
1
60
0
100
AcDbLine
10
49
20
0
30
0
11
54
21
0
31
0
39
0
210
0
220
0
230
1
0
LINE
5
77
100
AcDbEntity
8
1
62
256
6
ByLayer
370
18
48
1
60
0
100
AcDbLine
10
2.754862
20
4.138877
30
0
11
0.350219
21
4.137374
31
0
39
0
210
0
220
0
230
1
0
LINE
5
79
100
AcDbEntity
8
1
62
256
6
ByLayer
370
18
48
1
60
0
100
AcDbLine
10
19.873569
20
4.149576
30
0
11
18.529303
21
4.148736
31
0
39
0
210
0
220
0
230
1
0
LINE
5
7A
100
AcDbEntity
8
1
62
256
6
ByLayer
370
18
48
1
60
0
100
AcDbLine
10
47.07396
20
4.166577
30
0
11
45.727124
21
4.165735
31
0
39
0
210
0
220
0
230
1
0
LINE
5
7B
100
AcDbEntity
8
1
62
256
6
ByLayer
370
18
48
1
60
0
100
AcDbLine
10
45.727124
20
-4.165735
30
0
11
47.07408
21
-4.166577
31
0
39
0
210
0
220
0
230
1
0
LINE
5
7C
100
AcDbEntity
8
1
62
256
6
ByLayer
370
18
48
1
60
0
100
AcDbLine
10
18.529303
20
-4.148736
30
0
11
19.873502
21
-4.149576
31
0
39
0
210
0
220
0
230
1
0
LINE
5
7D
100
AcDbEntity
8
1
62
256
6
ByLayer
370
18
48
1
60
0
100
AcDbLine
10
0.350219
20
-4.137374
30
0
11
2.754862
21
-4.138877
31
0
39
0
210
0
220
0
230
1
0
LINE
5
7E
100
AcDbEntity
8
SK1
62
256
6
ByLayer
370
18
48
1
60
0
100
AcDbLine
10
-38.845299
20
5
30
0
11
-40
21
3
31
0
39
0
210
0
220
0
230
1
0
LINE
5
80
100
AcDbEntity
8
SK1
62
256
6
ByLayer
370
18
48
1
60
0
100
AcDbLine
10
-40
20
-3
30
0
11
-38.845299
21
-5
31
0
39
0
210
0
220
0
230
1
0
LINE
5
81
100
AcDbEntity
8
SK1
62
256
6
ByLayer
370
18
48
1
60
0
100
AcDbLine
10
0
20
5
30
0
11
-38.845299
21
5
31
0
39
0
210
0
220
0
230
1
0
LINE
5
82
100
AcDbEntity
8
SK1
62
256
6
ByLayer
370
18
48
1
60
0
100
AcDbLine
10
-38.845299
20
-5
30
0
11
0
21
-5
31
0
39
0
210
0
220
0
230
1
0
LINE
5
83
100
AcDbEntity
8
4
62
256
6
ByLayer
370
18
48
0.05
60
0
100
AcDbLine
10
49
20
0
30
0
11
0
21
0
31
0
39
0
210
0
220
0
230
1
0
LINE
5
85
100
AcDbEntity
8
SK4
62
256
6
ByLayer
370
18
48
0.05
60
0
100
AcDbLine
10
54
20
0
30
0
11
-45
21
0
31
0
39
0
210
0
220
0
230
1
0
LINE
5
87
100
AcDbEntity
8
80
62
256
6
ByLayer
370
18
48
1
60
0
100
AcDbLine
10
0
20
0
30
0
11
-5
21
0
31
0
39
0
210
0
220
0
230
1
0
LINE
5
88
100
AcDbEntity
8
SK1
62
256
6
ByLayer
370
18
48
1
60
0
100
AcDbLine
10
-38.845299
20
5
30
0
11
-38.845299
21
-5
31
0
39
0
210
0
220
0
230
1
0
LINE
5
89
100
AcDbEntity
8
SK1
62
256
6
ByLayer
370
18
48
1
60
0
100
AcDbLine
10
0
20
5
30
0
11
0
21
-5
31
0
39
0
210
0
220
0
230
1
0
LINE
5
8A
100
AcDbEntity
8
SK1
62
256
6
ByLayer
370
18
48
1
60
0
100
AcDbLine
10
-40
20
3
30
0
11
-40
21
-3
31
0
39
0
210
0
220
0
230
1
0
LINE
5
8B
100
AcDbEntity
8
1
62
256
6
ByLayer
370
13
48
1
60
0
100
AcDbLine
10
0.350219
20
4.137374
30
0
11
0.350219
21
-4.137374
31
0
39
0
210
0
220
0
230
1
0
LINE
5
8C
100
AcDbEntity
8
1
62
256
6
ByLayer
370
13
48
1
60
0
100
AcDbLine
10
47.578515
20
1.001087
30
0
11
48.992733
21
0.105854
31
0
39
0
210
0
220
0
230
1
0
LINE
5
8D
100
AcDbEntity
8
1
62
256
6
ByLayer
370
13
48
1
60
0
100
AcDbLine
10
47.443791
20
0.904558
30
0
11
48.964147
21
-0.057864
31
0
39
0
210
0
220
0
230
1
0
MTEXT
5
CF
100
AcDbEntity
8
SK6
62
256
6
ByLayer
370
13
48
1
60
0
100
AcDbMText
10
6.629169
20
36.549694
30
0
210
0
220
0
230
1
1
\W0.7645;460.1-0833-025A0-XM GC34
40
3.5
41
0
44
1.084337
50
0
71
8
72
5
7
iso_b_vert
0
DIMENSION
5
DC
100
AcDbEntity
8
SK2
62
256
6
ByLayer
370
13
48
1
60
0
100
AcDbDimension
2
DimnDraft3D1
10
47.7677
20
-14.380398
30
0
11
22.517759
21
-14.380398
31
0
70
32
71
5
72
1
41
1
210
0
220
0
230
1
3
Standard
100
AcDbAlignedDimension
13
0
23
-1.5875
33
0
14
47.7677
24
-5.7545
34
0
50
0
100
AcDbRotatedDimension
1001
ACAD
1000
DSTYLE
1002
{
1070
   279
1070
     0
1070
   172
1070
     1
1070
   173
1070
     1
1070
   340
1005
D0
1070
   271
1070
     2
1070
   272
1070
     2
1070
    77
1070
     1
1070
    73
1070
     0
1070
   171
1070
     3
1070
   274
1070
     4
1070
   177
1070
    35
1070
   176
1070
    35
1070
   178
1070
    35
1070
    48
1040
-0.005
1070
    41
1041
3.5
1070
   147
1041
1.75
1070
    42
1041
1.5875
1070
    44
1041
2.0
1070
   140
1041
3.5
1070
   343
1005
0
1070
   344
1005
0
1002
}
0
DIMENSION
5
E6
100
AcDbEntity
8
SK2
62
256
6
ByLayer
370
13
48
1
60
0
100
AcDbDimension
2
DimnDraft3D2
10
49
20
-33.692985
30
0
11
4.609
21
-33.692985
31
0
70
32
71
5
72
1
41
1
210
0
220
0
230
1
3
Standard
100
AcDbAlignedDimension
13
-40
23
-6.5875
33
0
14
49
24
-1.5875
34
0
50
0
100
AcDbRotatedDimension
1001
ACAD
1000
DSTYLE
1002
{
1070
   279
1070
     0
1070
   172
1070
     1
1070
   173
1070
     1
1070
   340
1005
D0
1070
   271
1070
     2
1070
   272
1070
     2
1070
    77
1070
     1
1070
    73
1070
     0
1070
   171
1070
     3
1070
   274
1070
     4
1070
   177
1070
    35
1070
   176
1070
    35
1070
   178
1070
    35
1070
    48
1040
-0.005
1070
    41
1041
3.5
1070
   147
1041
1.75
1070
    42
1041
1.5875
1070
    44
1041
2.0
1070
   140
1041
3.5
1070
   343
1005
0
1070
   344
1005
0
1002
}
0
DIMENSION
5
F0
100
AcDbEntity
8
SK2
62
256
6
ByLayer
370
13
48
1
60
0
100
AcDbDimension
2
DimnDraft3D3
10
49
20
15.776119
30
0
11
35.89
21
15.776119
31
0
70
32
71
5
72
1
41
1
210
0
220
0
230
1
3
Standard
100
AcDbAlignedDimension
13
22.78
23
5.7545
33
0
14
49
24
1.5875
34
0
50
0
100
AcDbRotatedDimension
1001
ACAD
1000
DSTYLE
1002
{
1070
   279
1070
     0
1070
   172
1070
     1
1070
   173
1070
     1
1070
   340
1005
D0
1070
   271
1070
     2
1070
   272
1070
     2
1070
    77
1070
     1
1070
    73
1070
     0
1070
   171
1070
     3
1070
   274
1070
     4
1070
   177
1070
    35
1070
   176
1070
    35
1070
   178
1070
    35
1070
    48
1040
-0.005
1070
    41
1041
3.5
1070
   147
1041
1.75
1070
    42
1041
1.5875
1070
    44
1041
2.0
1070
   140
1041
3.5
1070
   343
1005
0
1070
   344
1005
0
1002
}
0
DIMENSION
5
FA
100
AcDbEntity
8
SK2
62
256
6
ByLayer
370
13
48
1
60
0
100
AcDbDimension
2
DimnDraft3D4
10
47.7677
20
-16.969503
30
0
11
58.981425
21
-16.969503
31
0
70
32
71
5
72
1
41
1
210
0
220
0
230
1
3
Standard
100
AcDbAlignedDimension
13
49
23
-1.5875
33
0
14
47.7677
24
-5.7545
34
0
50
0
100
AcDbRotatedDimension
1001
ACAD
1000
DSTYLE
1002
{
1070
   279
1070
     0
1070
   172
1070
     1
1070
   173
1070
     1
1070
   340
1005
D0
1070
   271
1070
     2
1070
   272
1070
     2
1070
    77
1070
     1
1070
    73
1070
     0
1070
   171
1070
     3
1070
   274
1070
     4
1070
   177
1070
    35
1070
   176
1070
    35
1070
   178
1070
    35
1070
    48
1040
-0.005
1070
    41
1041
3.5
1070
   147
1041
1.75
1070
    42
1041
1.5875
1070
    44
1041
2.0
1070
   140
1041
3.5
1070
   343
1005
0
1070
   344
1005
0
1002
}
0
DIMENSION
5
104
100
AcDbEntity
8
SK2
62
256
6
ByLayer
370
13
48
1
60
0
100
AcDbDimension
2
DimnDraft3D5
10
47.7677
20
-23.343428
30
0
11
1.528376
21
-23.343428
31
0
70
32
71
5
72
1
41
1
210
0
220
0
230
1
3
Standard
100
AcDbAlignedDimension
13
-40
23
-6.5875
33
0
14
47.7677
24
-5.7545
34
0
50
0
100
AcDbRotatedDimension
1001
ACAD
1000
DSTYLE
1002
{
1070
   279
1070
     0
1070
   172
1070
     1
1070
   173
1070
     1
1070
   340
1005
D0
1070
   271
1070
     2
1070
   272
1070
     2
1070
    77
1070
     1
1070
    73
1070
     0
1070
   171
1070
     3
1070
   274
1070
     4
1070
   177
1070
    35
1070
   176
1070
    35
1070
   178
1070
    35
1070
    48
1040
-0.005
1070
    41
1041
3.5
1070
   147
1041
1.75
1070
    42
1041
1.5875
1070
    44
1041
2.0
1070
   140
1041
3.5
1070
   343
1005
0
1070
   344
1005
0
1002
}
0
DIMENSION
5
10F
100
AcDbEntity
8
SK2
62
256
6
ByLayer
370
13
48
1
60
0
100
AcDbDimension
2
DimnDraft3D6
10
-50.625163
20
5
30
0
11
-51.250163
21
23.47418
31
0
70
33
71
5
72
1
41
1
210
0
220
0
230
1
3
Standard
100
AcDbAlignedDimension
13
-41.5875
23
-5
33
0
14
-41.5875
24
5
34
0
1001
ACAD
1000
DSTYLE
1002
{
1070
   279
1070
     0
1070
    74
1070
     0
1070
   173
1070
     1
1070
   340
1005
D0
1070
   271
1070
     3
1070
   272
1070
     2
1070
    77
1070
     1
1070
    73
1070
     0
1070
   171
1070
     3
1070
   274
1070
     4
1070
   177
1070
    35
1070
   176
1070
    35
1070
   178
1070
    35
1070
    48
1040
-0.005
1070
    41
1041
3.5
1070
   147
1041
1.75
1070
    42
1041
1.5875
1070
    44
1041
2.0
1070
   140
1041
3.5
1070
   343
1005
0
1070
   344
1005
0
1002
}
0
DIMENSION
5
11A
100
AcDbEntity
8
2
62
256
6
ByLayer
370
13
48
1
60
0
100
AcDbDimension
2
DimnDraft3D7
10
63.083343
20
4.167
30
0
11
58.458343
21
21.234266
31
0
70
33
71
5
72
1
41
1
210
0
220
0
230
1
3
Standard
100
AcDbAlignedDimension
13
49.3552
23
-4.167
33
0
14
49.3552
24
4.167
34
0
1001
ACAD
1000
DSTYLE
1002
{
1070
   279
1070
     0
1070
    74
1070
     0
1070
   173
1070
     1
1070
   340
1005
D0
1070
   271
1070
     3
1070
   272
1070
     2
1070
    77
1070
     1
1070
    73
1070
     0
1070
   171
1070
     3
1070
   274
1070
     4
1070
   177
1070
    35
1070
   176
1070
    35
1070
   178
1070
    35
1070
    48
1040
-0.005
1070
    41
1041
3.5
1070
   147
1041
1.75
1070
    42
1041
1.5875
1070
    44
1041
2.0
1070
   140
1041
3.5
1070
   343
1005
0
1070
   344
1005
0
1002
}
0
ENDSEC
0
SECTION
2
OBJECTS
0
DICTIONARY
5
185
330
0
100
AcDbDictionary
280
0
281
1
3
ACAD_GROUP
350
186
3
ACAD_MLINESTYLE
350
187
0
DICTIONARY
5
186
330
0
100
AcDbDictionary
280
0
281
1
0
DICTIONARY
5
187
330
0
100
AcDbDictionary
280
0
281
1
3
Standard
350
18
0
MLINESTYLE
5
18
330
187
100
AcDbMlineStyle
2
Standard
70
0
3

62
256
51
90
52
90
71
2
49
-0.5
62
256
6
ByLayer
49
0.5
62
256
6
ByLayer
0
RASTERVARIABLES
5
173
330

100
AcDbRasterVariables
90
0
70
1
71
1
72
1
0
ENDSEC
0
EOF
